<?xml version="1.0" standalone="no"?>
<!DOCTYPE svg PUBLIC "-//W3C//DTD SVG 1.1//EN" "http://www.w3.org/Graphics/SVG/1.1/DTD/svg11.dtd" >
<svg xmlns="http://www.w3.org/2000/svg" xmlns:xlink="http://www.w3.org/1999/xlink" version="1.1">
<metadata>
Created by FontForge 20170910 at Tue Oct 18 19:55:42 2005
 By Jimmy Wärting
Copyright (c) 2005 by Maxim Iorsh (iorsh@math.technion.ac.il). Distributed under the terms of GNU General Public License version 2(http://www.gnu.org/licenses/gpl.html). 
All rights reserved.
</metadata>
<defs>
<font id="AnkaCLM-Bold" horiz-adv-x="357" >
  <font-face 
    font-family="Anka CLM"
    font-weight="700"
    font-stretch="expanded"
    units-per-em="1000"
    panose-1="0 0 0 0 0 0 0 0 0 0"
    ascent="800"
    descent="-200"
    cap-height="700"
    bbox="-10 -253 959 882"
    underline-thickness="50"
    underline-position="-100"
    unicode-range="U+0020-05EA"
  />
<missing-glyph horiz-adv-x="1000" 
d="M150 650v-700h600v700h-600zM100 700h700v-800h-700v800z" />
    <glyph glyph-name=".notdef" horiz-adv-x="1000" 
d="M150 650v-700h600v700h-600zM100 700h700v-800h-700v800z" />
    <glyph glyph-name="NameMe-0" horiz-adv-x="900" 
d="M150 650v-700h600v700h-600zM100 700h700v-800h-700v800z" />
    <glyph glyph-name="NameMe-0" horiz-adv-x="900" 
d="M150 650v-700h600v700h-600zM100 700h700v-800h-700v800z" />
    <glyph glyph-name="space" unicode=" " horiz-adv-x="550" 
 />
    <glyph glyph-name="exclam" unicode="!" horiz-adv-x="302" 
d="M53 60c0 42 44 76 99 76c54 0 98 -34 98 -76c0 -41 -44 -75 -98 -75c-55 0 -99 34 -99 75zM50 650c58 -17 144 -17 203 0c-46 -153 -53 -285 -63 -455c-26 5 -52 5 -78 0c-6 171 -17 305 -62 455z" />
    <glyph glyph-name="quotedbl" unicode="&#x22;" horiz-adv-x="489" 
d="M296 649c56 -20 123 -20 178 0c-15 -96 -86 -220 -155 -280l-24 23c39 104 16 187 1 257zM28 649c56 -20 123 -20 177 0c-15 -96 -85 -220 -155 -280l-23 23c38 104 16 187 1 257z" />
    <glyph glyph-name="percent" unicode="%" horiz-adv-x="664" 
d="M518 219c-14 0 -26 -8 -38 -27c-11 -20 -17 -47 -17 -78c0 -30 6 -56 15 -73c11 -18 24 -29 40 -29s29 11 40 29c10 17 15 43 15 73c0 31 -6 58 -17 78c-11 19 -23 27 -38 27zM518 246c42 0 75 -7 106 -33c31 -27 45 -60 45 -100c0 -39 -11 -70 -39 -96
c-28 -25 -62 -32 -112 -32s-84 7 -112 32c-28 26 -39 57 -39 96c0 40 14 73 45 100c31 26 66 33 106 33zM148 538c-14 0 -26 -8 -37 -27c-12 -20 -18 -47 -18 -78c0 -30 6 -56 15 -73c11 -18 24 -29 40 -29c17 0 29 11 40 29c10 17 15 43 15 73c0 31 -6 58 -17 78
c-11 19 -23 27 -38 27zM148 565c42 0 76 -7 106 -33c32 -27 45 -60 45 -100c0 -39 -11 -70 -39 -96c-28 -25 -62 -32 -112 -32s-83 7 -112 32c-28 26 -39 57 -39 96c0 40 14 73 45 100c31 26 66 33 106 33zM490 565c42 -20 110 -20 185 0c-202 -186 -351 -375 -488 -580
c-53 21 -123 19 -187 0c184 175 340 362 490 580z" />
    <glyph glyph-name="quotesingle" unicode="'" horiz-adv-x="233" 
d="M40 649c56 -20 123 -20 178 0c-16 -96 -86 -220 -155 -280l-24 23c39 104 16 187 1 257z" />
    <glyph glyph-name="parenleft" unicode="(" horiz-adv-x="424" 
d="M50 275c0 231 160 397 354 475l20 -30c-138 -90 -224 -251 -224 -445s86 -355 224 -445l-20 -30c-194 78 -354 244 -354 475z" />
    <glyph glyph-name="parenright" unicode=")" horiz-adv-x="424" 
d="M374 275c0 -231 -160 -397 -354 -475l-20 30c138 90 224 251 224 445s-86 355 -224 445l20 30c194 -78 354 -244 354 -475z" />
    <glyph glyph-name="asterisk" unicode="*" horiz-adv-x="576" 
d="M224 312c-53 25 -120 46 -184 60c60 31 102 68 130 110c34 -47 72 -87 118 -118c44 30 83 66 118 118c28 -42 70 -79 130 -110c-64 -14 -131 -35 -184 -60c53 -25 120 -46 184 -60c-60 -31 -102 -68 -130 -110c-35 49 -73 90 -118 118c-45 -27 -87 -70 -118 -118
c-28 42 -70 79 -130 110c64 14 131 35 184 60z" />
    <glyph glyph-name="plus" unicode="+" horiz-adv-x="682" 
d="M80 234c9 30 8 57 0 83c69 -9 116 -14 203 -14c-3 56 -9 115 -17 170c52 -7 104 -7 153 0c-12 -53 -21 -113 -23 -169c89 0 136 6 206 12c-7 -28 -6 -56 0 -84c-67 8 -107 13 -205 13c5 -57 12 -115 21 -168c-51 11 -103 8 -155 0c11 50 19 114 21 168
c-89 0 -131 -5 -204 -11z" />
    <glyph glyph-name="comma" unicode="," 
d="M256 65c0 -32 -8 -64 -26 -97c-24 -44 -64 -83 -106 -111l-21 25c31 29 60 68 67 111c-5 -1 -11 -1 -16 -1c-58 0 -104 36 -104 79c0 44 46 80 104 80c57 0 102 -36 102 -86z" />
    <glyph glyph-name="hyphen" unicode="-" horiz-adv-x="682" 
d="M80 207c18 46 18 93 0 139c175 -29 345 -21 522 -1c-19 -43 -17 -91 0 -141c-158 24 -326 22 -522 3z" />
    <glyph glyph-name="period" unicode="." 
d="M50 71c0 44 46 80 104 80c57 0 103 -36 103 -80c0 -43 -46 -79 -103 -79c-58 0 -104 36 -104 79z" />
    <glyph glyph-name="slash" unicode="/" horiz-adv-x="467" 
d="M478 635c-151 -256 -238 -443 -345 -739c-44 13 -92 17 -143 13c164 282 249 471 343 738c41 -13 87 -20 145 -12z" />
    <glyph glyph-name="zero" unicode="0" horiz-adv-x="772" 
d="M386 531c-49 0 -91 -21 -129 -68c-38 -49 -58 -116 -58 -192c0 -75 18 -138 51 -180c37 -45 79 -71 136 -71c56 0 100 26 136 71c33 42 51 105 51 180c0 76 -19 143 -58 192c-38 47 -78 68 -129 68zM386 565c93 0 168 -15 236 -74c69 -60 100 -133 100 -222
c0 -85 -24 -155 -87 -212s-138 -72 -249 -72s-186 15 -249 72c-62 57 -87 127 -87 212c0 89 31 162 100 222c69 59 147 74 236 74z" />
    <glyph glyph-name="one" unicode="1" horiz-adv-x="438" 
d="M30 443l237 107c35 3 67 6 97 15c-20 -228 -20 -421 14 -580c-63 20 -127 20 -190 0c28 143 34 306 27 478l-174 -61z" />
    <glyph glyph-name="two" unicode="2" horiz-adv-x="659" 
d="M183 41c193 11 286 1 407 35c-3 -26 -1 -62 7 -91c-173 19 -394 21 -567 0c15 65 72 132 155 179c58 33 124 50 191 85c48 25 85 67.0625 85 126.5c0 35.0215 -10 66.9502 -40 96.8203c-28 27.8096 -75 43.2598 -131 43.2598c-75 0 -150 -20.5996 -225 -62.8301
l-20 33.25c85 51 168 79 281 79c94.6025 0 170 -21 229 -80c36 -36 54 -79 54 -126c0 -61 -24 -102 -70 -139c-51 -41 -131 -50 -209 -71c-65 -18 -122 -56 -147 -108z" />
    <glyph glyph-name="three" unicode="3" horiz-adv-x="666" 
d="M496 331c30 -9 54 -23 76 -44c24 -23 44 -61 44 -107c0 -50 -18 -92 -46 -119c-54 -54 -141 -76 -242 -76c-120 0 -206 26 -298 76l23 38c69 -36 139 -63 225 -63c62 0 119 14 158 53c25 25 34 56 34 95c0 38 -10 59 -35 84c-27 26 -73 33 -121 32v44c44 -1 85 4 109 21
c23 17 33 37 33 62s-9 40 -31 57c-35 27 -88 34 -143 34c-78 0 -145 -19 -207 -43l-16 37c84 35 162 53 269 53c90 0 168 -17 217 -53c25 -18 41 -44 41 -79c0 -31 -12 -56 -37 -75c-17 -13 -32 -20 -53 -27z" />
    <glyph glyph-name="four" unicode="4" horiz-adv-x="688" 
d="M133 565c53 -20 111 -19 174 0c-52 -137 -86 -272 -98 -425l258 15c5 48 7 96 6 144c51 18 96 43 134 80c-12 -121 -5 -252 21 -394c-65 20 -128 20 -188 0c11 41 17 81 21 120l-411 -20c52 180 88 357 83 480z" />
    <glyph glyph-name="five" unicode="5" horiz-adv-x="704" 
d="M98 565c173 -21 346 -19 519 0c-8 -29 -11 -61 -8 -87c-121 34 -195 23 -388 34c7 -49 3 -104 -5 -157c56 21 104 27 170 27c87 0 170 -28 212 -70c35 -35 56 -79 56 -127c0 -43 -21 -90 -52 -121c-58 -58 -144 -79 -245 -79c-120 0 -195 28 -297 83l23 34
c90 -49 169 -71 248 -71c50 0 98 12 131 45c32 32 46 68 46 107c0 34 -11 66 -37 92c-44 44 -88 52 -150 52c-89 0 -142 -21 -219 -71l-19 23c21 85 31 177 15 286z" />
    <glyph glyph-name="six" unicode="6" horiz-adv-x="705" 
d="M358 -15c-96 0 -163 20 -221 72c-66 60 -87 127 -87 212c0 89 31 162 100 222c69 59 139 74 236 74c84 0 160 -31 204 -74l-24 -29c-51 32 -94 52 -160 52c-52 0 -104 -22 -147 -65c-23 -23 -39 -53 -49 -87c55 27 121 41 189 41s123 -15 174 -47c54 -34 82 -92 82 -151
c0 -62 -28 -117 -72 -155c-52 -45 -131 -65 -225 -65zM201 311c-2 -13 -2 -26 -2 -40c0 -75 18 -142 51 -184c37 -45 76 -67 126 -67c34 0 62 16 86 39c33 30 52 80 52 135c0 51 -14 92 -51 122c-28 23 -70 31 -113 31c-57 0 -108 -14 -149 -36z" />
    <glyph glyph-name="seven" unicode="7" horiz-adv-x="666" 
d="M452 516c-63 -5 -180 -8 -246 2c-6 -39 -5 -86 0 -123h-147c5 60 3 119 -9 170c182 -21 396 -19 555 0l21 -39c-106 -154 -181 -328 -194 -541c-68 21 -132 19 -194 0c90 141 164 312 214 531z" />
    <glyph glyph-name="eight" unicode="8" horiz-adv-x="685" 
d="M191 274c-24 -28 -39 -63 -42 -94c-4 -42 10 -82 42 -107c52 -42 113 -54 194 -54c69 0 133 29 139 92c3 38 -17 63 -51 77c-80 30 -186 51 -282 86zM494 310c22 19 35 48 34 81c-1 42 -20 69 -54 94c-41 29 -92 49 -158 49c-41 0 -74 -6 -99 -27
c-12 -10 -23 -30 -24 -44c-2.14941 -30.0977 6 -52 35 -69c53 -31 184 -51 266 -84zM343 565c82 0 151 -15 203 -48c32 -20 70 -58.4785 70 -109c0 -52 -30 -89 -85 -113c58 -27 104 -74.5 104 -142.5c0 -53 -27 -94.5 -70 -122.5c-60 -39 -135 -45 -219 -45
c-81 0 -151 11 -208 39c-54 27 -88 75 -88 133c0 64 50 119 102 134c-50 24 -88 62 -88 119c0 40 19 81 59 107c63 41 132 48 220 48z" />
    <glyph glyph-name="nine" unicode="9" horiz-adv-x="705" 
d="M359 565c96 0 161 -21 217 -72c54 -49 79 -122 79 -196c0 -110 -28 -177 -99 -238c-69 -59 -139 -74 -236 -74c-84 0 -160 31 -204 74l25 29c50 -31 94 -52 159 -52c51 0 105 23 147 65c23 23 36 53 46 87c-56 -27 -129 -41 -197 -41s-125 18 -171 52
c-48 35 -75 89 -75 144c0 68 34 121 81 160c54 45 134 62 228 62zM502 239c3 20 5 41 5 64c0 65 -18 123 -46 160c-34 45 -72 67 -122 67c-34 0 -63 -13 -88 -36c-38 -34 -59 -85 -59 -143c0 -45 13 -85 45 -112c26 -23 68 -36 111 -36c57 0 111 14 154 36z" />
    <glyph glyph-name="colon" unicode=":" 
d="M50 402c0 43 46 79 104 79c57 0 103 -36 103 -79c0 -44 -46 -80 -103 -80c-58 0 -104 36 -104 80zM50 71c0 44 46 80 104 80c57 0 103 -36 103 -80c0 -43 -46 -79 -103 -79c-58 0 -104 36 -104 79z" />
    <glyph glyph-name="semicolon" unicode=";" 
d="M256 65c0 -32 -8 -64 -26 -97c-24 -44 -64 -83 -106 -111l-21 25c31 29 60 68 67 111c-5 -1 -11 -1 -16 -1c-58 0 -104 36 -104 79c0 44 46 80 104 80c57 0 102 -36 102 -86zM50 402c0 43 46 79 104 79c57 0 103 -36 103 -79c0 -44 -46 -80 -103 -80
c-58 0 -104 36 -104 80z" />
    <glyph glyph-name="less" unicode="&#x3c;" horiz-adv-x="603" 
d="M219.349 311.788c91.5469 -73.0576 198.839 -137.654 302.65 -195.789c-29.1934 -16.126 -63.3291 -76.7959 -70.8037 -118.342c-111.93 99.5439 -242.271 187.494 -401.195 279.266c160.348 80.6992 296.266 173.917 414.128 276.39
c23.8721 -24.3125 48.8721 -46.3125 85.4287 -61.0371c-119.729 -41.4531 -180.678 -93.1299 -330.208 -180.487z" />
    <glyph glyph-name="equal" unicode="=" horiz-adv-x="682" 
d="M80 123c10 37 9 75 0 112c175 -24 345 -18 522 -1c-12 -39 -9 -77 0 -113c-158 19 -326 17 -522 2zM80 310c10 37 9 75 0 112c175 -24 345 -18 522 -1c-12 -39 -9 -77 0 -113c-158 19 -326 17 -522 2z" />
    <glyph glyph-name="greater" unicode="&#x3e;" horiz-adv-x="603" 
d="M383.897 239.184c-91.5469 73.0566 -204.085 140.681 -307.896 198.815c29.1934 16.126 68.5752 73.7676 76.0498 115.312c111.93 -99.543 242.271 -187.494 401.195 -279.264c-160.348 -80.6992 -296.266 -173.917 -414.128 -276.391
c-21.1182 23.3418 -53.1182 47.3418 -85.4287 61.0381c119.729 41.4531 180.678 93.1309 330.208 180.488z" />
    <glyph glyph-name="question" unicode="?" horiz-adv-x="749" 
d="M469 287c-2 -27 -3 -67 -4 -95c-51 17 -110 14 -169 0c11 42 14 83 8 125c66 -3 126 0 172 21c47 21 75 70 77 107c3 47 -10 79 -36 104c-30 28 -75 42 -128 45c-119 6 -236 -10 -344 -46l-15 37c65 24 142 44 206 52c59 7 118 9 186 5c76 -4 139 -13 192 -43
c60 -33 89 -84 86 -148c-3 -50 -28 -91 -75 -120c-53 -32 -96 -38 -156 -44zM283 60c0 42 44 76 98 76c55 0 99 -34 99 -76c0 -41 -44 -75 -99 -75c-54 0 -98 34 -98 75z" />
    <glyph glyph-name="A" unicode="A" horiz-adv-x="900" 
d="M150 650v-700h600v700h-600zM100 700h700v-800h-700v800z" />
    <glyph glyph-name="bracketleft" unicode="[" horiz-adv-x="488" 
d="M216 -96c108 4 168 2 264 33c-3 -26 0 -58 8 -87c-135 16 -283 15 -419 0c30 324 28 574 0 855c148 -16 282 -18 419 0c-8 -29 -11 -61 -8 -87c-98 28 -146 30 -262 33c-21 -243 -27 -464 -2 -747z" />
    <glyph glyph-name="backslash" unicode="\" horiz-adv-x="467" 
d="M-10 635c57 -8 104 -1 145 12c94 -267 179 -456 343 -738c-51 4 -99 0 -143 -13c-107 296 -194 483 -345 739z" />
    <glyph glyph-name="bracketright" unicode="]" horiz-adv-x="488" 
d="M272 -96c25 283 20 504 -1 747c-117 -3 -165 -5 -262 -33c3 26 0 58 -8 87c136 -18 270 -16 419 0c-29 -281 -31 -531 -1 -855c-136 15 -284 16 -419 0c8 29 11 61 8 87c96 -31 156 -29 264 -33z" />
    <glyph glyph-name="grave" unicode="`" horiz-adv-x="236" 
d="M185 674c-16 -70 -38 -153 1 -257l-24 -23c-70 60 -140 184 -155 280c55 -20 121 -20 178 0z" />
    <glyph glyph-name="afii57645" unicode="&#x5be;" horiz-adv-x="572" 
d="M50 438c12.5898 44.9746 9.34277 55.3584 0 103c145 -18 310.989 -14.9004 472 -1c-14.875 -44.2031 -12.0078 -56.457 0 -105c-164.819 17.6426 -323 16 -472 3z" />
    <glyph glyph-name="afii57664" unicode="&#x5d0;" horiz-adv-x="886" 
d="M623 -15c-110 0 -199.91 26 -264 90.0898c-60.5996 60.5996 -74 132.66 -74 206.91c0 82 36 152 85 201c58 58 142 82 239 82c99 0 178 -28 247 -87l-21 -24c-45 32 -98 49 -168 49c-76.7363 0 -138 -21 -185 -67c-43 -42 -67 -102 -67 -173c0 -69 20 -122 62 -162
c46 -44 103 -63 167 -63c78.4512 0 133 13 192 60l20 -27c-59 -60 -152 -86 -233 -86zM67 720c63 -20 124 -17 184 0c-25 -117 -42 -250 -42 -395c0 -107 7 -219 16 -340c-64 19 -117 19 -165 0c21 126 31 250 31 375c0 120 -12 245 -24 360z" />
    <glyph glyph-name="afii57665" unicode="&#x5d1;" horiz-adv-x="755" 
d="M44 482c100 64 188 83 317 83c94 0 191 -26 254 -85c63 -60 90 -133 90 -216c0 -119 -50 -214 -126 -279c-104 54 -225 102 -291 110c-19 2 -30 -6 -33 -16l-32 -94c-60 23 -130 18 -183 0c18 61 40 113 62 159c7 15 24 26 43 25c52 -3 95 -11 144 -23
c65 -16 135 -43 195 -72c44 49 73 101 73 178c0 87 -34 152 -74 189c-49 45 -122 71 -193 71c-89 0 -160 -22 -227 -60z" />
    <glyph glyph-name="afii57666" unicode="&#x5d2;" horiz-adv-x="713" 
d="M417 676c70 -9 130 8 179 44c-2 -70 9 -139 40 -202l-28 -27c-39 17 -97 30 -140 30c-88 0 -158 -27 -211 -81c-37 -36 -58 -96 -58 -164c0 -67 27 -124 62 -159c53 -53 112 -75 200 -75c82 0 143 20 203 52l20 -34c-77 -47 -173 -75 -290 -75c-106 0 -204 28 -260 83
c-63 64 -84 130 -84 223c0 63 24 132 80 188c54 55 140 86 248 86c35 0 69 -1 100 -5c-16 41 -29 84 -61 116z" />
    <glyph glyph-name="afii57667" unicode="&#x5d3;" horiz-adv-x="755" 
d="M30 488c63 27 139 51 203 62c58 10 118 15 185 15c77 0 140 -6 194 -33c62 -30 94 -79 94 -143c0 -50 -23 -93 -69 -124c-51 -35 -93 -43 -153 -52c88 -57 122 -134 118 -227c-55 22 -109 16 -163 -2c5 51 0 108 -29 153c-21 33 -60 58 -96 67l4 30c65 1 126 6 171 30
s71 74 71 111c0 47 -15 78 -42 102c-31 27 -77 38 -130 38c-119 0 -235 -22 -341 -64z" />
    <glyph glyph-name="afii57668" unicode="&#x5d4;" horiz-adv-x="778" 
d="M235 306c-27 -87 -31 -216 3 -321c-55 22 -117 18 -183 0c23 73 37 150 11 265c62 -2 118 17 169 56zM30 469c98 67 208 96 348 96c104 0 186 -19 254 -79c66 -59 96 -144 96 -252c0 -81 -12 -160 -41 -249c-69 21 -130 19 -186 0c47 93 78 174 78 282
c0 77 -21 137 -69 183c-48 48 -112 62 -190 62c-103 0 -183 -23 -271 -77z" />
    <glyph glyph-name="afii57669" unicode="&#x5d5;" horiz-adv-x="298" 
d="M64 565c58 -20 116 -20 174 0c-45 -186 -36 -375 -1 -580c-55 22 -114 19 -177 0c37 175 37 362 4 580z" />
    <glyph glyph-name="afii57670" unicode="&#x5d6;" horiz-adv-x="716" 
d="M147 716c45 -25 103 -36 172 -37c-31 -41 -55 -104 -63 -151.55c28 6.65039 66 8.55078 95 8.55078c92 0 176 -19.9502 232 -73.1504c58 -55.0996 83 -112.1 83 -196.649c0 -73.1504 -25 -143.45 -77 -192.851c-68 -64.5996 -129 -88.3496 -262 -88.3496
c-119.598 0 -227 35 -297 76.3613l18 32.585c65 -30.7236 148 -53.999 218 -53.999c79 0 142 19.5518 187 61.4463c47 43.7568 66 101.479 66 167.579c0 47.4814 -19.8047 109.676 -68 154.547c-44 40.9629 -104 65.1699 -181 65.1699c-51 0 -99 -7.44824 -145 -25.1377
l-21 27c35 74.4473 46 148.447 43 225.447z" />
    <glyph glyph-name="afii57671" unicode="&#x5d7;" horiz-adv-x="866" 
d="M237 527c66 25 138 38 225 38c108 0 191 -15 259 -77c65 -59 95 -149 95 -240c0 -98 -12 -180 -43 -263c-65 23 -126 17 -186 0c48 87 80 184 80 274c0 83 -19 146 -65 192c-48 48 -115 63 -194 63c-66 0 -125 -12 -181 -37c-26 -154 -21 -317 22 -492
c-63 18 -122 22 -189 0c34 148 35 326 0 549c52 -12 116 4 186 32z" />
    <glyph glyph-name="afii57672" unicode="&#x5d8;" horiz-adv-x="761" 
d="M436 804l8 -32c-58 -22 -105 -54 -147 -108c-69 -90 -97 -196 -97 -324c0 -93 18 -173 56 -237c42 -72 103 -78 128 -78c52 0 95 27 124 67c46 65 53 169 53 217c0 66 -18 130 -42 160c47 -10 87 -9 132 1c44 -52 60 -108 60 -178c0 -89 -24 -158 -92 -223
c-59 -56 -130 -84 -217 -84c-102 0 -192 24 -257 100c-68 79 -95 166 -95 261c0 129 45 242 137 328c70 67 149 108 249 130z" />
    <glyph glyph-name="afii57673" unicode="&#x5d9;" horiz-adv-x="292" 
d="M60 565c65 -23 124 -17 182 0c-30 -100 -28 -196 -3 -288c-79 4 -131 -24 -179 -57c33 123 37 238 0 345z" />
    <glyph glyph-name="afii57674" unicode="&#x5da;" horiz-adv-x="724" 
d="M30 474c93 63 186 91 314 91c113 0 194 -35 248 -87c52 -50 82 -119 82 -199c0 -86 -26 -161 -76 -211c-72 -70 -146 -83 -244 -83c-47 0 -80 4 -119 11c0 -77 2 -168 28 -247c-67 22 -129 18 -187 0c34 111 41 225 22 327c59 -27 106 -41 176 -41c74 0 128 15 176 58
c44 40 75 101 75 175c0 78 -21 131 -66 175c-47 47 -112 63 -190 63c-68 0 -137 -17 -219 -64z" />
    <glyph glyph-name="afii57675" unicode="&#x5db;" horiz-adv-x="728" 
d="M272 511c-64 0 -141 -20 -220 -67l-18 31c88 65 192 90 306 90c116 0 197 -24 260 -87c60 -60 78 -123 78 -203c0 -83 -26 -152 -74 -200c-63 -63 -122 -90 -278 -90c-110 0 -214 31 -296 82l17 31c78 -40 159 -57 225 -57c75 0 139 20 184 61c47 42 72 99 72 171
s-28 130 -70 172s-111 66 -186 66z" />
    <glyph glyph-name="afii57676" unicode="&#x5dc;" horiz-adv-x="642" 
d="M50 224c0 60.3174 15.833 112.778 45.998 155.998c37.2324 53.3457 90 94 147.406 119.062l23.8037 -31.3418c-59.7197 -59.7197 -87.21 -136.72 -87.21 -229.72c0 -64 18 -123 52 -162c27.2158 -31.2178 67 -53 111 -53c35 0 67 11 89 33c27 27 35 63 35 105
c0 36.7783 -8.88477 81.0146 -23.2891 135.673l-59.4199 221.14c-12.0195 43.4307 -18.8418 83.6162 -18.8418 120.732c0 40.6582 8.18652 77.6318 26.6943 111.153c35.4033 64.1211 115.872 108.774 190.716 121.972c28.4482 5.01562 54.8525 7.47168 79.8105 7.47168
c40.7061 0 77.5625 -6.53418 113.148 -19.1436l-13.9639 -35.9717c-26.127 7.48047 -51.1865 11.1621 -75.9463 11.1621c-14.7637 0 -29.4238 -1.30859 -44.1377 -3.90332c-64.0127 -11.2871 -95.6455 -39.2041 -119.286 -77.8975
c-15.4199 -25.8838 -21.1865 -53.5195 -21.1865 -82.501c0 -35.8105 8.80371 -73.6758 19.0752 -112.833l45.3916 -176.804c15.0928 -57.4365 26.2373 -105.933 26.2373 -147.881c0 -68.3682 -20.6758 -130.368 -63.6758 -173.368
c-49.2148 -49.2148 -122.369 -75 -208.95 -75s-159.735 25.7852 -208.95 75c-42 42 -60.4238 97 -60.4238 164z" />
    <glyph glyph-name="afii57677" unicode="&#x5dd;" horiz-adv-x="870" 
d="M264 501c86 52 164 64 231 64c96 0 180 -25 237 -77c61 -58 88 -126 88 -217c0 -99 -38 -162 -85 -208c-63 -61 -132 -77 -212 -77c-114 0 -196 37 -279 85c1 -29 2 -59 4 -88c-68 20 -131 18 -188 -3c64 177 70 360 35 548c67 -3 126 4 177 22c-3 -16 -5 -33 -8 -49z
M258 452c-13 -111 -17 -223 -15 -336c49 -33 123 -70 205 -70c60 0 112 20 160 66c38 38 61 99 61 168c0 68 -17 123 -60 165c-45 43 -104 67 -179 67c-74 0 -133 -29 -172 -60z" />
    <glyph glyph-name="afii57678" unicode="&#x5de;" horiz-adv-x="809" 
d="M561 565c68 -20 131 -20 189 0c-50 -189 -62 -377 -32 -580c-30 11 -62 15 -97 15l-385 423c-17 -146 -17 -286 16 -438c-64 23 -128 17 -192 0c52 204 59 374 22 580c35 -10 79 -14 114 -15l381 -415c12 160 5 291 -16 430z" />
    <glyph glyph-name="afii57679" unicode="&#x5df;" horiz-adv-x="291" 
d="M60 565c54 -22 112 -18 171 0c-34 -292 -38 -500 -1 -815c-57 17 -114 18 -169 0c55 293 27 553 -1 815z" />
    <glyph glyph-name="afii57680" unicode="&#x5e0;" horiz-adv-x="513" 
d="M287 565c58 -21 113 -19 166 0l-10 -326c-3 -79 -16 -143 -65 -191c-44 -45 -97 -63 -163 -63c-71 0 -130 19 -185 63l18 28c32 -22 76 -34 112 -34s71 12 91 32c41 42 48 96 45 190z" />
    <glyph glyph-name="afii57681" unicode="&#x5e1;" horiz-adv-x="846" 
d="M423 528c-58 0 -108 -20 -153 -67c-47 -48 -70 -115 -70 -190c0 -74 21 -137 61 -178c44 -45 95 -70 163 -70c66 0 118 25 162 70c39 41 61 104 61 178c0 75 -23 142 -70 190c-45 47 -93 67 -154 67zM423 565c103 0 187 -15 263 -74c76 -60 111 -133 111 -222
c0 -85 -28 -155 -97 -212c-70 -57 -153 -72 -277 -72c-123 0 -206 15 -276 72s-97 127 -97 212c0 89 34 162 111 222c76 59 164 74 262 74z" />
    <glyph glyph-name="afii57682" unicode="&#x5e2;" horiz-adv-x="805" 
d="M403 -15c-106 0 -197 16 -263 68c-59 47 -90 117 -90 198c0 80 38 152 103 199c48 36 89 55 143 70c-63 13 -130 20 -196 23v31c105 1 192 -6 303 -28c110 22 198 29 302 28v-31c-66 -3 -133 -10 -196 -23c54 -15 95 -34 144 -70c64 -47 102 -119 102 -199
c0 -81 -31 -151 -90 -198c-66 -52 -157 -68 -262 -68zM403 492c-118 -40 -202 -116 -202 -246c0 -66 20 -123 55 -160c39 -40 84 -63 147 -63c62 0 107 23 146 63c36 37 55 94 55 160c0 130 -84 206 -201 246z" />
    <glyph glyph-name="afii57683" unicode="&#x5e3;" horiz-adv-x="909" 
d="M581 176l-1 398c-46 15 -88 23 -134 23c-73 1 -143 -14 -192 -63c-34 -34 -59 -84 -60 -146c0 -62 20 -111 56 -148c32 -32 74 -54 116 -63l-6 -37c-51 3 -162 29 -235 98c-47 46 -76 111 -75 183c1 66 26 120 68 162c32 31 100 81 226 80c95 -1 194 -34 237 -53
c0 66 -5 161 55 222c35 35 83 50 136 50c43 0 85 -10 115 -30c48 -32 72 -80 72 -150c0 -55 -18 -108 -54 -144c-42 -42 -110 -49 -173 -34v-274c1 -102 -7 -170 -50 -218c-38 -44 -86 -58 -141 -58c-49 0 -90 16 -122 44c-29 25 -43 61 -43 104c0 56 28 95 67 114l27 -31
c-20 -20 -29 -54 -29 -90c0 -25 9 -53 20 -68c13 -17 33 -28 53 -28c19 0 36 8 46 22c18 23 21 54 21 135zM732 560c33 -6 80 -4 112 29c23 25 35 75 35 119c0 56 -10 101 -33 120c-14 12 -28 17 -51 17c-13 0 -25 -6 -36 -17c-16 -16 -27 -37 -27 -131v-137z" />
    <glyph glyph-name="afii57684" unicode="&#x5e4;" horiz-adv-x="806" 
d="M338 299c-38 0 -75 -13 -107 -44c-18 -19 -30 -48 -30 -82c0 -47 16 -80 44 -103c38 -32 89 -40 133 -40c54 0 115 16 160 62c44 44 68 107 68 176v0c0 66 -19 136 -72 183c-50 43 -110 61 -187 61c-101 0 -183 -23 -271 -77l-19 34c98 67 208 96 348 96
c104 0 186 -19 254 -79c58 -50 97 -122 97 -203c0 -82 -30 -159 -81 -209c-59 -59 -147 -89 -302 -89c-78 0 -141 10 -189 26c-87 31 -134 85 -134 157c0 43 18 80 44 105c48 45 120 67 208 67c15 0 29 -1 43 -2z" />
    <glyph glyph-name="afii57685" unicode="&#x5e5;" horiz-adv-x="909" 
d="M580 366l1 244c0 66 -5 161 55 222c35 35 83 50 136 50c43 0 85 -10 115 -30c48 -32 72 -80 72 -150c0 -62 -20 -118 -62 -173c-36 -48 -98 -90 -165 -126v-153c1 -102 -7 -170 -50 -218c-38 -44 -86 -58 -141 -58c-49 0 -90 16 -122 44c-29 25 -43 61 -43 104
c0 56 28 95 67 114l27 -31c-20 -20 -29 -54 -29 -90c0 -25 9 -53 20 -68c13 -17 33 -28 53 -28c19 0 36 8 46 22c18 23 21 54 21 135v154c-43 -18 -142 -52 -237 -52c-126 -1 -194 48 -226 79c-42 42 -67 96 -68 162c-1 73 28 137 75 183c73 69 184 95 235 98l6 -36
c-42 -10 -84 -32 -116 -64c-36 -36 -56 -86 -56 -148c1 -61 26 -112 60 -146c49 -49 119 -64 192 -63c46 1 88 8 134 23zM732 436c63 41 94 73 119 129c20 45 28 92 28 149c0 56 -10 101 -33 120c-14 13 -28 17 -51 17c-13 0 -25 -6 -36 -17c-16 -16 -27 -37 -27 -131v-267z
" />
    <glyph glyph-name="afii57686" unicode="&#x5e6;" horiz-adv-x="723" 
d="M614 64c-55 -52 -140 -79 -269 -79c-115 0 -231 37 -315 91l17 32c78 -40 159 -67 244 -67c75 0 139 16 183 57c30 28 47 70 47 117c0 59 -23 102 -65 134c-57 43 -116 46 -178 48l2 37c37 -1 69 -3 103 -4c70 18 101 65 101 115c0 35 -14 63 -36 85
c-29 27 -72 37 -130 37c-69 0 -132 -25 -195 -54l-16 29c83 48 165 76 277 76c73 0 136 -11 182 -42c45 -32 66 -79 66 -126c0 -36 -9 -67 -33 -94c-22 -24 -52 -42 -88 -53c107 -31 163 -107 163 -188c0 -60 -22 -115 -60 -151z" />
    <glyph glyph-name="afii57687" unicode="&#x5e7;" horiz-adv-x="742" 
d="M212 309c-24 -246 -9 -415 18 -561c-72 20 -139 23 -200 -1c43 136 61 283 45 445c69 35 110 75 137 117zM34 465.001c106 82 190 100 319 100c63 0 173 -12 244 -81c61 -60 95 -127 95 -218c0 -77 -20 -126 -77 -182c-63 -62 -177 -97 -252 -97c-37 0 -70 0 -99 6l-3 37
c18 -3 37 -4 59 -4c68 0 122 26 158 60c50 50 68 117 68 175c0 77 -28 142 -71 185c-49 48 -114 69 -195 69c-90 0 -143 -20 -222 -77z" />
    <glyph glyph-name="afii57688" unicode="&#x5e8;" horiz-adv-x="727" 
d="M584 486c72 -64 94 -148 94 -268c0 -74 -15 -155 -42 -235c-61 22 -123 23 -184 2c47 94 77 193 77 289c0 74 -23 145 -66 184c-49 44 -100 54 -168 54c-95 0 -168 -23 -249 -77l-16 34c90 67 191 96 320 96c96 0 169 -21 234 -79z" />
    <glyph glyph-name="afii57689" unicode="&#x5e9;" horiz-adv-x="817" 
d="M199 297c0 -76 26 -147 80 -195c45 -41 109 -61 184 -61c66 0 147 17 225 57l17 -31c-82 -50 -175 -82 -294 -82c-96 0 -173 24 -239 70c-84 59 -122 141 -122 227c0 92 41 174 133 229c70 41 152 54 238 54c91 0 165 -11 227 -40c70 -32 120 -89 120 -163
c0 -87 -71 -148 -155 -180s-173 -38 -262 -37l-3 30c83 8 152 30 209 75c40 32 60 74 60 125c0 40 -16 76 -41 101c-35 35 -81 50 -140 50c-62 0 -123 -22 -168 -64c-41 -38 -69 -96 -69 -165z" />
    <glyph glyph-name="afii57690" unicode="&#x5ea;" horiz-adv-x="897" 
d="M439 512c-38 0 -97 -4 -143 -19l20 -268c7 -88 2 -161 -56 -211c-28 -24 -60 -32 -109 -32c-55 0 -101 23 -135 50l23 34c20 -16 45 -26 73 -26c25 0 43 12 52 30c12 24 11 59 8 96l-18 262c-8 -6 -15 -10 -24 -16l-25 36c103 80 235 117 392 117c104 0 186 -19 254 -79
c66 -59 96 -144 96 -252c0 -81 -12 -160 -41 -249c-69 21 -130 19 -186 0c47 93 78 174 78 282c0 77 -21 137 -69 183c-48 48 -112 62 -190 62z" />
    <glyph glyph-name="NameMe-64" horiz-adv-x="679" 
d="M859 797c-39 19 -77 28 -117 28c-65 0 -101 -22 -131 -56c-44 -51 -42 -119 -36 -192l19 -247c10 -121 -3 -200 -49 -256c-54 -66 -130 -89 -236 -89c-65 0 -120 12 -169 47c-60 44 -90 105 -90 182c0 81 30 142 78 189c46 46 101 76 169 99l18 -35
c-54 -31 -85 -74 -103 -118c-16 -39 -23 -80 -23 -126c0 -53 13 -97 37 -130c32 -44 72 -62 121 -60c31 1 52 8 73 25c16 13 32 39 38 68c8 37 6 87 1 147l-25 288c-9 94 2 170 48 227s133 87 209 87s135 -15 188 -45z" />
    </font>
</defs>
</svg>
