<?xml version="1.0" standalone="no"?>
<!DOCTYPE svg PUBLIC "-//W3C//DTD SVG 1.1//EN" "http://www.w3.org/Graphics/SVG/1.1/DTD/svg11.dtd" >
<svg>
<metadata>
Created by FontForge 20090914 at Fri Oct 13 00:02:42 2017
 By www-data
Copyright 2010 The Amirim Project Authors, with Reserved Font Name 'Source'. Source is a trademark of Adobe Systems Incorporated in the United States and/or other countries.
</metadata>
<defs>
<font id="Assistant-Regular" horiz-adv-x="492" >
  <font-face 
    font-family="Assistant"
    font-weight="400"
    font-stretch="normal"
    units-per-em="1000"
    panose-1="0 0 5 0 0 0 0 0 0 0"
    ascent="800"
    descent="-200"
    x-height="485"
    cap-height="657"
    bbox="-454 -259 1141 1021"
    underline-thickness="50"
    underline-position="-50"
    unicode-range="U+0020-U+FB4B"
  />
<missing-glyph horiz-adv-x="648" 
d="M90 660h468v-660h-468v660zM326 383l50 94l71 128h-247l71 -128l51 -94h4zM283 340l-133 239v-476zM496 579l-131 -239l131 -237v476zM458 54l-78 140l-54 103h-4l-56 -103l-79 -140h271z" />
    <glyph glyph-name="fi" unicode="fi" horiz-adv-x="526" 
d="M169 568l0.000976562 -83h105v-60h-105v-425h-73v425h-66v55l66 5v84c0 50 11.5 88.667 34.5 116s57.167 41 102.5 41c26 0 52 -5.33301 78 -16l-16 -56c-18.667 8 -37.334 12 -56.001 12c-46.667 0 -70 -32.667 -70 -98zM369.001 485h72v-485h-72v485zM370.001 603
c-9.33301 9.33301 -14 21.666 -14 36.999c0 14.667 4.66699 26.5 14 35.5s21.333 13.5 36 13.5s26.667 -4.5 36 -13.5s14 -20.833 14 -35.5c0 -15.333 -4.66699 -27.666 -14 -36.999s-21.333 -14 -36 -14s-26.667 4.66699 -36 14z" />
    <glyph glyph-name="fl" unicode="fl" horiz-adv-x="534" 
d="M169 568l0.000976562 -83h105v-60h-105v-425h-73v425h-66v55l66 5v84c0 50 11.5 88.667 34.5 116s57.167 41 102.5 41c26 0 52 -5.33301 78 -16l-16 -56c-18.667 8 -37.334 12 -56.001 12c-46.667 0 -70 -32.667 -70 -98zM388.001 13.5
c-12.667 17 -18.999 42.167 -18.999 75.5v625h72v-631c0 -11.333 2.16699 -19.833 6.5 -25.5s9.83301 -8.5 16.5 -8.5c5.33301 0 11.333 0.666992 18 2l10 -56c-12.667 -4.66699 -27.334 -7 -44.001 -7c-27.333 0 -47.333 8.5 -60 25.5z" />
    <glyph glyph-name=".notdef" horiz-adv-x="648" 
d="M90 660h468v-660h-468v660zM326 383l50 94l71 128h-247l71 -128l51 -94h4zM283 340l-133 239v-476zM496 579l-131 -239l131 -237v476zM458 54l-78 140l-54 103h-4l-56 -103l-79 -140h271z" />
    <glyph glyph-name="space" unicode=" " horiz-adv-x="200" 
 />
    <glyph glyph-name="exclam" unicode="!" horiz-adv-x="282" 
d="M106 582l-2 88h74l-2 -88l-10 -388h-50zM102 4.5c-10.667 11 -16 24.833 -16 41.5c0 17.333 5.33301 31.5 16 42.5s23.667 16.5 39 16.5s28.333 -5.5 39 -16.5s16 -25.167 16 -42.5c0 -16.667 -5.33301 -30.5 -16 -41.5s-23.667 -16.5 -39 -16.5s-28.333 5.5 -39 16.5z
" />
    <glyph glyph-name="quotedbl" unicode="&#x22;" horiz-adv-x="409" 
d="M83 605l-2 86h78l-2 -86l-14 -162h-46zM251 605l-2 86h78l-2 -86l-14 -162h-46z" />
    <glyph glyph-name="numbersign" unicode="#" 
d="M116 207h-81v52h87l19 153h-86v52h92l24 186h48l-23 -186h137l24 186h48l-23 -186h80v-52h-86l-19 -153h85v-52h-91l-25 -207h-49l25 207h-137l-25 -207h-49zM308 259l19 153h-137l-19 -153h137z" />
    <glyph glyph-name="dollar" unicode="$" 
d="M390 45c-28 -30.667 -65.332 -48.9971 -111.999 -54.9971v-100h-55v99c-31.333 2.66699 -62 11.167 -92 25.5s-55.667 31.5 -77 51.5l34 50c52 -44.667 104.333 -67 157 -67c37.333 0 66 9.66699 86 29s30 45.666 30 78.999c0 26 -6 48 -18 66s-26.833 32.667 -44.5 44
s-41.5 24.666 -71.5 39.999c-32 16 -57.833 30.833 -77.5 44.5s-36.334 31.334 -50.001 53.001s-20.5 48.167 -20.5 79.5c0 44 13.167 80.833 39.5 110.5s61.166 47.5 104.499 53.5v100h55v-99c29.333 -2.66699 54.833 -10.334 76.5 -23.001s42.834 -29.667 63.501 -51
l-39 -44c-21.333 20.667 -40.833 35.5 -58.5 44.5s-39.5 13.5 -65.5 13.5c-31.333 0 -56.5 -9.33301 -75.5 -28s-28.5 -43 -28.5 -73c0 -22 5.33301 -40.667 16 -56s24 -28 40 -38s38 -21.667 66 -35c34.667 -17.333 62.5 -33 83.5 -47s38.833 -33.333 53.5 -58
s22 -55.334 22 -92.001c0 -47.333 -14 -86.333 -42 -117z" />
    <glyph glyph-name="percent" unicode="%" horiz-adv-x="817" 
d="M75.5 316c-26.333 36.667 -39.5 87.667 -39.5 153c0 64.667 13.167 115.167 39.5 151.5s62.166 54.5 107.499 54.5s81.166 -18.167 107.499 -54.5s39.5 -86.833 39.5 -151.5c0 -65.333 -13.167 -116.333 -39.5 -153s-62.166 -55 -107.499 -55s-81.166 18.333 -107.499 55
zM563 669h51l-363 -681h-51zM249.5 349c16.333 28 24.5 68 24.5 120s-8.16699 91.667 -24.5 119s-38.5 41 -66.5 41s-50.167 -13.667 -66.5 -41s-24.5 -67 -24.5 -119s8.16699 -92 24.5 -120s38.5 -42 66.5 -42s50.167 14 66.5 42zM526.5 43
c-26.333 36.667 -39.5 87.667 -39.5 153c0 64.667 13.167 115.167 39.5 151.5s62.166 54.5 107.499 54.5s81.166 -18.167 107.499 -54.5s39.5 -86.833 39.5 -151.5c0 -65.333 -13.167 -116.333 -39.5 -153s-62.166 -55 -107.499 -55s-81.166 18.333 -107.499 55zM699.5 76
c16.333 28 24.501 68 24.501 120s-8 91.667 -24 119s-38 41 -66 41s-50.167 -13.667 -66.5 -41s-24.5 -67 -24.5 -119s8.16699 -92 24.5 -120s38.5 -42 66.5 -42c27.333 0 49.166 14 65.499 42z" />
    <glyph glyph-name="ampersand" unicode="&#x26;" horiz-adv-x="600" 
d="M566 -12c-46.667 13.333 -96 39 -148 77c-56 -51.333 -118.333 -77 -187 -77c-38 0 -72 7.66699 -102 23s-53.5 36.833 -70.5 64.5s-25.5 58.834 -25.5 93.501c0 40 11.5 74.5 34.5 103.5s55.167 58.167 96.5 87.5c-29.333 56.667 -44 108.334 -44 155.001
c0 44 13.833 80.667 41.5 110s63.167 44 106.5 44c38.667 0 69 -11.667 91 -35s33 -54 33 -92c0 -26.667 -6.83301 -51.334 -20.5 -74.001s-30.5 -42.834 -50.5 -60.501s-46 -37.834 -78 -60.501c21.333 -35.333 46.833 -69.833 76.5 -103.5s60.834 -64.167 93.501 -91.5
c42.667 54.667 74.667 121.334 96 200.001h68c-28 -94.667 -66.333 -174 -115 -238c45.333 -32 86.666 -53.667 123.999 -65zM216 396c38 26 66.832 49.6689 86.499 71.002s29.5 45.666 29.5 72.999c0 21.333 -5.33301 39.333 -16 54s-26.667 22 -48 22
c-25.333 0 -45.666 -9.33301 -60.999 -28s-23 -42.334 -23 -71.001c0 -36 10.667 -76.333 32 -121zM142.999 82.002c26 -23.333 58 -35.001 96 -35.001c44 0 87.667 19 131 57c-72.667 63.333 -131.667 131.666 -177 204.999c-28.667 -22.667 -50.667 -44.667 -66 -66
s-23 -44.666 -23 -69.999c0 -37.333 13 -67.666 39 -90.999z" />
    <glyph glyph-name="quotesingle" unicode="'" horiz-adv-x="242" 
d="M83 605l-2 86h78l-2 -86l-14 -162h-46z" />
    <glyph glyph-name="parenleft" unicode="(" horiz-adv-x="297" 
d="M116.5 40.5c-22.333 73.667 -33.5 152.83 -33.5 237.497s11.167 163.834 33.5 237.501s55.166 145.834 98.499 216.501l45 -22c-38 -62.667 -66.833 -131 -86.5 -205s-29.5 -149.667 -29.5 -227s9.83301 -153 29.5 -227s48.5 -142.333 86.5 -205l-45 -22
c-43.333 70.667 -76.166 142.834 -98.499 216.501z" />
    <glyph glyph-name="parenright" unicode=")" horiz-adv-x="297" 
d="M37 -154c38 62.667 66.833 131.004 86.5 205.004s29.5 149.667 29.5 227s-9.83301 153 -29.5 227s-48.5 142.333 -86.5 205l45 22c43.333 -70.667 76.166 -142.834 98.499 -216.501s33.5 -152.834 33.5 -237.501s-11.167 -163.834 -33.5 -237.501
s-55.166 -145.834 -98.499 -216.501z" />
    <glyph glyph-name="asterisk" unicode="*" horiz-adv-x="412" 
d="M100 457l56 93l-95 39l14 42l100 -26l9 107h44l9 -105l100 24l14 -42l-95 -39l56 -93l-37 -26l-68 85l-70 -85z" />
    <glyph glyph-name="plus" unicode="+" 
d="M216 302h-182v56h182v197h60v-197h182v-56h-182v-197h-60v197z" />
    <glyph glyph-name="comma" unicode="," horiz-adv-x="242" 
d="M172.5 81c11.667 -16 17.501 -37.999 17.501 -65.999c0 -40.667 -11.167 -76.834 -33.5 -108.501s-52.5 -55.834 -90.5 -72.501l-19 44c27.333 12 48.5 28.333 63.5 49s22.833 44.667 23.5 72c-2 -0.666992 -5.33301 -1 -10 -1c-16 0 -29.333 4.83301 -40 14.5
s-16 22.834 -16 39.501c0 16 5.66699 28.833 17 38.5s24.666 14.5 39.999 14.5c20 0 35.833 -8 47.5 -24z" />
    <glyph glyph-name="hyphen" unicode="-" horiz-adv-x="308" 
d="M41 279h227v-57h-227v57z" />
    <glyph glyph-name="period" unicode="." horiz-adv-x="242" 
d="M82 4.5c-10.667 11 -16 24.833 -16 41.5c0 17.333 5.33301 31.5 16 42.5s23.667 16.5 39 16.5s28.333 -5.5 39 -16.5s16 -25.167 16 -42.5c0 -16.667 -5.33301 -30.5 -16 -41.5s-23.667 -16.5 -39 -16.5s-28.333 5.5 -39 16.5z" />
    <glyph glyph-name="slash" unicode="/" horiz-adv-x="352" 
d="M287 710h54l-277 -870h-54z" />
    <glyph glyph-name="zero" unicode="0" 
d="M98 75c-35.333 58 -53 140 -53 246s17.667 187.333 53 244s84.666 85 147.999 85s112.666 -28.333 147.999 -85s53 -138 53 -244s-17.667 -188 -53 -246s-84.666 -87 -147.999 -87s-112.666 29 -147.999 87zM341.5 115.5c23 45.667 34.5 114.167 34.5 205.5
s-11.5 159.166 -34.5 203.499s-54.833 66.5 -95.5 66.5s-72.5 -22.167 -95.5 -66.5s-34.5 -112.166 -34.5 -203.499s11.5 -159.833 34.5 -205.5s54.833 -68.5 95.5 -68.5s72.5 22.833 95.5 68.5z" />
    <glyph glyph-name="one" unicode="1" horiz-adv-x="451" 
d="M49 61h147v485h-116v47c54 9.33301 98.333 24.333 133 45h56v-577h133v-61h-353v61z" />
    <glyph glyph-name="two" unicode="2" 
d="M40 43c75.333 76 133.666 137 174.999 183s73.166 88.333 95.499 127s33.5 75 33.5 109c0 38.667 -10.667 69.667 -32 93s-52.666 35 -93.999 35c-25.333 0 -49.833 -7 -73.5 -21s-45.5 -33 -65.5 -57l-43 42c28 30.667 57.333 54.334 88 71.001s65 25 103 25
c58 0 104 -16.833 138 -50.5s51 -78.5 51 -134.5c0 -38.667 -10.833 -78.334 -32.5 -119.001s-50.167 -81.667 -85.5 -123s-85.666 -96.333 -150.999 -165l24 1c37.333 2.66699 65 4 83 4h193v-63h-407v43z" />
    <glyph glyph-name="three" unicode="3" 
d="M27 78l37.0029 48.0029c23.333 -24 48.166 -42.833 74.499 -56.5s57.166 -20.5 92.499 -20.5c40.667 0 73.667 11.167 99 33.5s38 52.166 38 89.499c0 88 -69.667 132 -209 132v57c65.333 0 112.666 11.333 141.999 34s44 52.667 44 90c0 32 -10.333 57.5 -31 76.5
s-48.667 28.5 -84 28.5c-50.667 0 -97 -22 -139 -66l-40 47c56 52.667 116.333 79 181 79c55.333 0 100.333 -14.167 135 -42.5s52 -67.5 52 -117.5c0 -37.333 -10.5 -68.833 -31.5 -94.5s-49.833 -45.167 -86.5 -58.5v-4c41.333 -9.33301 75.166 -28.333 101.499 -57
s39.5 -64 39.5 -106c0 -36.667 -9.16699 -68.834 -27.5 -96.501s-43.166 -48.834 -74.499 -63.501s-66.333 -22 -105 -22c-84 0 -153.333 30 -208 90z" />
    <glyph glyph-name="four" unicode="4" 
d="M463 180h-89v-180h-69v180h-288v47l279 411h78v-400h89v-58zM305 238l-0.000976562 198c0 25.333 1.66699 65.333 5 120h-4c-13.333 -24 -23.666 -41.667 -30.999 -53l-21 -35l-159 -230h210z" />
    <glyph glyph-name="five" unicode="5" 
d="M113.5 12c-33 16 -62.5029 37 -88.5029 63l37 48c22.667 -22.667 46.834 -40.667 72.501 -54s56.167 -20 91.5 -20c26.667 0 51 6.33301 73 19s39.333 30.5 52 53.5s19 49.5 19 79.5c0 45.333 -12.667 81 -38 107s-59.333 39 -102 39c-21.333 0 -40.166 -3 -56.499 -9
s-34.833 -16 -55.5 -30l-40 25l21 305h313v-63h-249l-18 -199c16.667 9.33301 33 16.333 49 21s33.667 7 53 7c58 0 105.333 -16.833 142 -50.5s55 -83.5 55 -149.5c0 -44 -9.83301 -82.333 -29.5 -115s-45.667 -57.667 -78 -75s-67.166 -26 -104.499 -26
c-46 0 -85.5 8 -118.5 24z" />
    <glyph glyph-name="six" unicode="6" 
d="M403 338c32 -34 47.998 -82.999 47.998 -146.999c0 -39.333 -8.33301 -74.333 -25 -105s-39.167 -54.667 -67.5 -72s-59.166 -26 -92.499 -26c-42.667 0 -80.334 11.5 -113.001 34.5s-58.167 57.5 -76.5 103.5s-27.5 101.667 -27.5 167c0 82.667 11 150.667 33 204
s51 92.166 87 116.499s76.333 36.5 121 36.5c58.667 0 108.334 -22 149.001 -66l-41 -46c-13.333 16 -29.166 28.5 -47.499 37.5s-37.833 13.5 -58.5 13.5c-50.667 0 -92 -22.5 -124 -67.5s-48.667 -117.167 -50 -216.5c20.667 26 44.667 46.5 72 61.5s54.333 22.5 81 22.5
c56 0 100 -17 132 -51zM348.998 87.001c22 27.333 33 62 33 104c0 44.667 -10.333 79.5 -31 104.5s-51.334 37.5 -92.001 37.5c-22.667 0 -46.167 -7.16699 -70.5 -21.5s-47.166 -36.5 -68.499 -66.5c5.33301 -64 20.333 -113.167 45 -147.5s58.667 -51.5 102 -51.5
c32.667 0 60 13.667 82 41z" />
    <glyph glyph-name="seven" unicode="7" 
d="M230 313.5c28 86.333 73.333 173.501 136 261.501h-322v63h406v-44c-49.333 -64 -87.5 -125.333 -114.5 -184s-46.167 -119.334 -57.5 -182.001s-19 -138.667 -23 -228h-75c5.33301 122.667 22 227.167 50 313.5z" />
    <glyph glyph-name="eight" unicode="8" 
d="M142 10.5c-31.333 15 -56.002 35.8359 -74.002 62.5029s-27 56.667 -27 90c0 38.667 11.667 72.667 35 102s52.333 53.333 87 72v4c-60 42 -90 91 -90 147c0 32 7.66699 60.167 23 84.5s36.5 43.333 63.5 57s57.167 20.5 90.5 20.5c54.667 0 98.167 -15.667 130.5 -47
s48.5 -72 48.5 -122c0 -30.667 -9 -59.834 -27 -87.501s-38.667 -50.5 -62 -68.5v-4c34.667 -20.667 61.834 -43.334 81.501 -68.001s29.5 -56.334 29.5 -95.001c0 -31.333 -8.5 -60 -25.5 -86s-40.833 -46.5 -71.5 -61.5s-66 -22.5 -106 -22.5
c-39.333 0 -74.666 7.5 -105.999 22.5zM364.998 478.003c0 34 -10.334 62 -31.001 84s-49 33 -85 33c-31.333 0 -57.166 -9.83301 -77.499 -29.5s-30.5 -45.5 -30.5 -77.5c0 -35.333 13 -63.333 39 -84s63.667 -40.667 113 -60c48 42 72 86.667 72 134zM344.497 75.5029
c24.333 21.667 36.502 49.502 36.502 83.502c0 27.333 -7.83301 50.166 -23.5 68.499s-34.834 33.166 -57.501 44.499s-55.334 25.333 -98.001 42c-28.667 -18 -51.667 -39.333 -69 -64s-26 -51.667 -26 -81c0 -36 13.667 -66 41 -90s61.333 -36 102 -36
c38.667 0 70.167 10.833 94.5 32.5z" />
    <glyph glyph-name="nine" unicode="9" 
d="M338.5 615.5c33 -23 58.6689 -57.335 77.002 -103.002s27.5 -101.5 27.5 -167.5c0 -82.667 -11 -150.667 -33 -204s-51 -92.166 -87 -116.499s-76.333 -36.5 -121 -36.5c-60 0 -109.667 22 -149 66l41 46c13.333 -16 29.166 -28.5 47.499 -37.5s37.5 -13.5 57.5 -13.5
c50.667 0 92 22.333 124 67s48.667 116.667 50 216c-20.667 -26 -44.5 -46.333 -71.5 -61s-53.833 -22 -80.5 -22c-56.667 0 -101 16.833 -133 50.5s-48 82.834 -48 147.501c0 38.667 8.33301 73.5 25 104.5s39.167 55.167 67.5 72.5s59.166 26 92.499 26
c42.667 0 80.5 -11.5 113.5 -34.5zM302.502 325.998c24.333 14 47.167 36 68.5 66c-4.66699 64 -19.334 113.333 -44.001 148s-58.667 52 -102 52c-32.667 0 -60 -13.5 -82 -40.5s-33 -61.833 -33 -104.5c0 -44.667 10.333 -79.5 31 -104.5s51.334 -37.5 92.001 -37.5
c22 0 45.167 7 69.5 21z" />
    <glyph glyph-name="colon" unicode=":" horiz-adv-x="242" 
d="M82 370.5c-10.667 11 -16 24.833 -16 41.5c0 17.333 5.33301 31.5 16 42.5s23.667 16.5 39 16.5s28.333 -5.5 39 -16.5s16 -25.167 16 -42.5c0 -16.667 -5.33301 -30.5 -16 -41.5s-23.667 -16.5 -39 -16.5s-28.333 5.5 -39 16.5zM82 4.5c-10.667 11 -16 24.833 -16 41.5
c0 17.333 5.33301 31.5 16 42.5s23.667 16.5 39 16.5s28.333 -5.5 39 -16.5s16 -25.167 16 -42.5c0 -16.667 -5.33301 -30.5 -16 -41.5s-23.667 -16.5 -39 -16.5s-28.333 5.5 -39 16.5z" />
    <glyph glyph-name="semicolon" unicode=";" horiz-adv-x="242" 
d="M82 370.5c-10.667 11 -16 24.833 -16 41.5c0 17.333 5.33301 31.5 16 42.5s23.667 16.5 39 16.5s28.333 -5.5 39 -16.5s16 -25.167 16 -42.5c0 -16.667 -5.33301 -30.5 -16 -41.5s-23.667 -16.5 -39 -16.5s-28.333 5.5 -39 16.5zM172.5 81
c11.667 -16 17.501 -37.999 17.501 -65.999c0 -40.667 -11.167 -76.834 -33.5 -108.501s-52.5 -55.834 -90.5 -72.501l-19 44c27.333 12 48.5 28.333 63.5 49s22.833 44.667 23.5 72c-2 -0.666992 -5.33301 -1 -10 -1c-16 0 -29.333 4.83301 -40 14.5s-16 22.834 -16 39.501
c0 16 5.66699 28.833 17 38.5s24.666 14.5 39.999 14.5c20 0 35.833 -8 47.5 -24z" />
    <glyph glyph-name="less" unicode="&#x3c;" 
d="M34 302v60l424 167v-64l-349 -131v-4l349 -131v-64z" />
    <glyph glyph-name="equal" unicode="=" 
d="M34 464h424v-56h-424v56zM34 252h424v-56h-424v56z" />
    <glyph glyph-name="greater" unicode="&#x3e;" 
d="M34 199l350 131v4l-350 131v64l424 -167v-60l-424 -167v64z" />
    <glyph glyph-name="question" unicode="?" horiz-adv-x="419" 
d="M158 222c0 32.667 6.66895 61.502 20.002 86.502s32.666 53.167 57.999 84.5c21.333 25.333 37.166 47.333 47.499 66s15.5 38.667 15.5 60c0 29.333 -8.66699 53.666 -26 72.999s-42.333 29 -75 29c-22 0 -43.167 -5.16699 -63.5 -15.5s-38.5 -24.833 -54.5 -43.5
l-42 39c48 54 104 81 168 81c50 0 90 -14.333 120 -43s45 -67 45 -115c0 -27.333 -6 -52 -18 -74s-30.333 -48.333 -55 -79c-24 -29.333 -42.333 -55.5 -55 -78.5s-19 -48.833 -19 -77.5c0 -9.33301 0.333008 -16.333 1 -21h-65c-1.33301 13.333 -2 22.666 -2 27.999z
M156.002 4.50195c-10.667 11 -16 24.833 -16 41.5c0 17.333 5.33301 31.5 16 42.5s23.667 16.5 39 16.5s28.333 -5.5 39 -16.5s16 -25.167 16 -42.5c0 -16.667 -5.33301 -30.5 -16 -41.5s-23.667 -16.5 -39 -16.5s-28.333 5.5 -39 16.5z" />
    <glyph glyph-name="at" unicode="@" horiz-adv-x="839" 
d="M221 -111.5c-52.667 27.667 -94.1611 68.333 -124.494 122s-45.5 117.834 -45.5 192.501c0 86 18.833 162.5 56.5 229.5s88 118.833 151 155.5s131.167 55 204.5 55c66 0 123.5 -13.667 172.5 -41s86.667 -65.666 113 -114.999s39.5 -106.666 39.5 -171.999
c0 -54.667 -9.83301 -102 -29.5 -142s-44.5 -70.333 -74.5 -91s-60.667 -31 -92 -31c-28 0 -51.333 6.5 -70 19.5s-29.334 31.833 -32.001 56.5h-2c-17.333 -20.667 -36.5 -37.334 -57.5 -50.001s-42.167 -19 -63.5 -19c-34.667 0 -63.334 12.333 -86.001 37s-34 59 -34 103
c0 35.333 8 71 24 107s38.5 65.5 67.5 88.5s62.167 34.5 99.5 34.5c35.333 0 62.333 -16 81 -48h2l10 40h50l-38 -197c-5.33301 -22.667 -8 -41 -8 -55c0 -44 21.333 -66 64 -66c21.333 0 42.5 8.5 63.5 25.5s38.333 41.5 52 73.5s20.5 69 20.5 111
c0 55.333 -10.833 104.166 -32.5 146.499s-53.334 75.333 -95.001 99s-91.834 35.5 -150.501 35.5c-60 0 -117 -16.167 -171 -48.5s-97.5 -78 -130.5 -137s-49.5 -126.167 -49.5 -201.5c0 -63.333 12.667 -118.333 38 -165s60.666 -82.334 105.999 -107.001
s96.666 -37 153.999 -37s112 15.333 164 46l20 -44c-56.667 -34.667 -119.667 -52 -189 -52c-66 0 -125.333 13.833 -178 41.5zM476.006 169.999l29 163c-10 16 -20.167 27.167 -30.5 33.5s-22.5 9.5 -36.5 9.5c-25.333 0 -48 -8.83301 -68 -26.5s-35.5 -40 -46.5 -67
s-16.5 -53.833 -16.5 -80.5c0 -32 6.5 -55.5 19.5 -70.5s30.5 -22.5 52.5 -22.5c30 0 62.333 20.333 97 61z" />
    <glyph glyph-name="A" unicode="A" horiz-adv-x="539" 
d="M391 207h-245l-67 -207h-75l225 657h82l224 -657h-78zM372 266l-33.999 106.001c-26.667 83.333 -49.334 157.666 -68.001 222.999h-4c-22 -80.667 -44.333 -155 -67 -223l-34 -106h207z" />
    <glyph glyph-name="B" unicode="B" horiz-adv-x="585" 
d="M92 657l190 0.000976562c70 0 124.833 -13.167 164.5 -39.5s59.5 -66.833 59.5 -121.5c0 -33.333 -8.66699 -62.833 -26 -88.5s-41.333 -43.5 -72 -53.5v-4c42 -8 75.167 -25.5 99.5 -52.5s36.5 -62.167 36.5 -105.5c0 -62.667 -22.167 -110.334 -66.5 -143.001
s-104.5 -49 -180.5 -49h-205v657zM267 375.001c110.667 0 166.001 37.334 166.001 112.001c0 39.333 -13.333 67.666 -40 84.999s-67.334 26 -122.001 26h-105v-223h101zM285.001 59.002c60 0 106 11.168 138 33.501s48 56.166 48 101.499c0 82.667 -62 124 -186 124h-119
v-259h119z" />
    <glyph glyph-name="C" unicode="C" horiz-adv-x="569" 
d="M189.5 29c-43 27.333 -76.6689 66.667 -101.002 118s-36.5 111.666 -36.5 180.999c0 68.667 12.333 128.834 37 180.501s59 91.334 103 119.001s93.667 41.5 149 41.5c36.667 0 70.334 -7.66699 101.001 -23s56.334 -34.333 77.001 -57l-41 -49
c-38 42.667 -83.333 64 -136 64c-42.667 0 -80 -11.167 -112 -33.5s-56.833 -54 -74.5 -95s-26.5 -89.5 -26.5 -145.5s8.5 -104.833 25.5 -146.5s41.333 -73.834 73 -96.501s68.834 -34 111.501 -34c30.667 0 58.5 6.33301 83.5 19s49.167 31.667 72.5 57l41 -46
c-26.667 -31.333 -56.334 -55 -89.001 -71s-69.667 -24 -111 -24c-54.667 0 -103.5 13.667 -146.5 41z" />
    <glyph glyph-name="D" unicode="D" horiz-adv-x="613" 
d="M92 657h161c100 0 176.167 -28.333 228.5 -85s78.5 -137 78.5 -241s-26.167 -185.167 -78.5 -243.5s-127.5 -87.5 -225.5 -87.5h-164v657zM247 61c78.667 0 137.834 23.5 177.501 70.5s59.5 113.5 59.5 199.5c0 84.667 -19.833 150 -59.5 196s-98.834 69 -177.501 69h-81
v-535h81z" />
    <glyph glyph-name="E" unicode="E" horiz-adv-x="524" 
d="M92 657h373v-63h-299v-217h252v-62h-252v-252h309v-63h-383v657z" />
    <glyph glyph-name="F" unicode="F" horiz-adv-x="490" 
d="M92 657h373v-63h-299v-232h253v-62h-253v-300h-74v657z" />
    <glyph glyph-name="G" unicode="G" horiz-adv-x="614" 
d="M192.5 29c-44.333 27.333 -78.833 66.668 -103.5 118.001s-37 111.666 -37 180.999s12.667 129.666 38 180.999s60.666 90.833 105.999 118.5s97 41.5 155 41.5c72.667 0 135 -26.667 187 -80l-41 -49c-40 42.667 -88 64 -144 64c-45.333 0 -84.833 -11.167 -118.5 -33.5
s-59.667 -54 -78 -95s-27.5 -89.5 -27.5 -145.5c0 -85.333 19.667 -152.833 59 -202.5s94 -74.5 164 -74.5c24.667 0 48.334 3.83301 71.001 11.5s41 17.834 55 30.501v179h-144v62h212v-272c-22 -23.333 -50.333 -41.833 -85 -55.5s-73.334 -20.5 -116.001 -20.5
c-57.333 0 -108.166 13.667 -152.499 41z" />
    <glyph glyph-name="H" unicode="H" horiz-adv-x="648" 
d="M92 657h74v-278h317v278h74v-657h-74v314h-317v-314h-74v657z" />
    <glyph glyph-name="I" unicode="I" horiz-adv-x="257" 
d="M92 657h74v-657h-74v657z" />
    <glyph glyph-name="J" unicode="J" horiz-adv-x="475" 
d="M34 91l52.999 37c14.667 -26 31.667 -45 51 -57s41.333 -18 66 -18c36.667 0 63.834 11.5 81.501 34.5s26.5 59.5 26.5 109.5v460h74v-467c0 -60 -14.333 -108.667 -43 -146s-73 -56 -133 -56c-79.333 0 -138 34.333 -176 103z" />
    <glyph glyph-name="K" unicode="K" horiz-adv-x="573" 
d="M92 657h74v-339h2l285 339h84l-207 -249l238 -408h-83l-201 351l-118 -139v-212h-74v657z" />
    <glyph glyph-name="L" unicode="L" horiz-adv-x="481" 
d="M92 657h74v-594h290v-63h-364v657z" />
    <glyph glyph-name="M" unicode="M" horiz-adv-x="721" 
d="M92 657h91l129 -360l48 -139h4c4.66699 12.667 11 31.667 19 57l28 82l127 360h92v-657h-69v380c0 40 3 103.333 9 190h-4l-52 -149l-128 -353h-52l-129 353l-52 149h-4l2 -25c5.33301 -70.667 8 -125.667 8 -165v-380h-67v657z" />
    <glyph glyph-name="N" unicode="N" horiz-adv-x="644" 
d="M92 657h76l248 -426l72 -135h4l-3 44c-0.666992 10.667 -2 33.167 -4 67.5s-3 65.5 -3 93.5v356h70v-657h-76l-248 426l-72 135h-4l3 -48c4.66699 -58 7 -109 7 -153v-360h-70v657z" />
    <glyph glyph-name="O" unicode="O" horiz-adv-x="661" 
d="M186 30c-42 28 -74.833 68 -98.5 120s-35.5 112.333 -35.5 181s11.833 128.5 35.5 179.5s56.5 90.167 98.5 117.5s90.333 41 145 41c54 0 102 -13.667 144 -41s74.833 -66.5 98.5 -117.5s35.5 -110.833 35.5 -179.5s-11.833 -129 -35.5 -181s-56.5 -92 -98.5 -120
s-90 -42 -144 -42c-54.667 0 -103 14 -145 42zM436.5 87.5c30.333 23 53.832 55.333 70.499 97s25 90.5 25 146.5c0 55.333 -8.33301 103.5 -25 144.5s-40.167 72.667 -70.5 95s-65.5 33.5 -105.5 33.5c-40.667 0 -76.167 -11.167 -106.5 -33.5s-53.833 -54 -70.5 -95
s-25 -89.167 -25 -144.5c0 -56 8.33301 -105 25 -147s40.334 -74.333 71.001 -97s66 -34 106 -34s75.167 11.5 105.5 34.5z" />
    <glyph glyph-name="P" unicode="P" horiz-adv-x="562" 
d="M92 657h182.001c78 0 138.167 -14.833 180.5 -44.5s63.5 -78.5 63.5 -146.5c0 -66 -21.333 -115.833 -64 -149.5s-101.334 -50.5 -176.001 -50.5h-112v-266h-74v657zM267.001 327c60.667 0 105.333 11.167 134 33.5s43 57.5 43 105.5s-14.667 81.833 -44 101.5
s-75 29.5 -137 29.5h-97v-270h101z" />
    <glyph glyph-name="Q" unicode="Q" horiz-adv-x="661" 
d="M620 -149c-25.333 -9.33301 -55.334 -13.9971 -90.001 -13.9971c-57.333 0 -106.333 14 -147 42s-70.667 65 -90 111c-47.333 6 -89.333 23.833 -126 53.5s-65 69.167 -85 118.5s-30 105.666 -30 168.999c0 68.667 11.833 128.5 35.5 179.5s56.5 90.167 98.5 117.5
s90.333 41 145 41c54 0 102 -13.667 144 -41s74.833 -66.5 98.5 -117.5s35.5 -110.833 35.5 -179.5c0 -62.667 -9.83301 -118.334 -29.5 -167.001s-47.167 -87.834 -82.5 -117.501s-76.333 -48.167 -123 -55.5c14 -29.333 35.333 -51.833 64 -67.5s61.667 -23.5 99 -23.5
c22.667 0 45.334 3.33301 68.001 10zM153.999 182.503c16.667 -42.333 40.167 -75 70.5 -98s65.833 -34.5 106.5 -34.5c40 0 75.167 11.5 105.5 34.5s53.833 55.667 70.5 98s25 91.833 25 148.5c0 55.333 -8.33301 103.5 -25 144.5s-40.167 72.667 -70.5 95
s-65.5 33.5 -105.5 33.5c-40.667 0 -76.167 -11.167 -106.5 -33.5s-53.833 -54 -70.5 -95s-25 -89.167 -25 -144.5c0 -56.667 8.33301 -106.167 25 -148.5z" />
    <glyph glyph-name="R" unicode="R" horiz-adv-x="563" 
d="M453 0l-163 284h-124v-284h-74v657h201c150.667 0 226 -60.667 226 -182c0 -50 -13.5 -90.667 -40.5 -122s-64.5 -52 -112.5 -62l171 -291h-84zM166 344h115c53.333 0 94 11 122 33s42 54.667 42 98s-13.667 74.5 -41 93.5s-68.333 28.5 -123 28.5h-115v-253z" />
    <glyph glyph-name="S" unicode="S" horiz-adv-x="530" 
d="M144.5 14c-39 17.333 -72.834 41.333 -101.501 72l45 51c24 -26 52 -46.5 84 -61.5s65.333 -22.5 100 -22.5c44.667 0 79.834 10.333 105.501 31s38.5 48.334 38.5 83.001c0 22 -4.66699 40.333 -14 55s-21.333 26.334 -36 35.001s-35.334 19 -62.001 31l-95 42
c-38.667 16.667 -70.5 38 -95.5 64s-37.5 60.667 -37.5 104c0 32.667 8.66699 62 26 88s41.5 46.333 72.5 61s65.5 22 103.5 22s73.5 -7.33301 106.5 -22s61.167 -34.334 84.5 -59.001l-40 -47c-43.333 42 -93.666 63 -150.999 63c-38.667 0 -69.667 -9.33301 -93 -28
s-35 -43.334 -35 -74.001c0 -20.667 5.33301 -38 16 -52s23 -25 37 -33s33 -17.333 57 -28l95 -42c43.333 -18 76.833 -40.333 100.5 -67s35.5 -62.667 35.5 -108c0 -34.667 -9 -66 -27 -94s-43.667 -50 -77 -66s-72 -24 -116 -24c-45.333 0 -87.5 8.66699 -126.5 26z" />
    <glyph glyph-name="T" unicode="T" horiz-adv-x="533" 
d="M230 594h-202v63h477v-63h-201v-594h-74v594z" />
    <glyph glyph-name="U" unicode="U" horiz-adv-x="643" 
d="M152 53.5c-42 43.667 -62.999 114.5 -62.999 212.5v391h74v-391c0 -76 14.333 -130.5 43 -163.5s67 -49.5 115 -49.5c49.333 0 88.666 16.5 117.999 49.5s44 87.5 44 163.5v391h71v-391c0 -98 -21.167 -168.833 -63.5 -212.5s-98.833 -65.5 -169.5 -65.5
s-127 21.833 -169 65.5z" />
    <glyph glyph-name="V" unicode="V" horiz-adv-x="509" 
d="M1 657l79 0.000976562l110 -362c10.667 -38 18.334 -64 23.001 -78c11.333 -42.667 25 -89.334 41 -140.001h4c7.33301 22 22.666 72.667 45.999 152l19 66l110 362h75l-210 -657h-85z" />
    <glyph glyph-name="W" unicode="W" horiz-adv-x="782" 
d="M24 657h76.999l72 -365l40 -213h4l47 213l95 365h68l94 -365c8 -36 14.333 -63 19 -81l30 -132h4l11 59l28 154l72 365h72l-139 -657h-88l-105 409c-2.66699 12.667 -5.16699 24 -7.5 34s-4.16602 18.667 -5.49902 26l-19 89h-4l-34 -149l-102 -409h-87z" />
    <glyph glyph-name="X" unicode="X" horiz-adv-x="505" 
d="M208 340l-180.001 317.001h82l94 -175l52 -94h4c16.667 35.333 32.334 66.666 47.001 93.999l92 175h78l-180 -321l193 -336h-82l-101 183c-9.33301 18.667 -24 45.667 -44 81l-5.5 10.5l-7.5 13.5h-4c-10 -21.333 -24.333 -50 -43 -86l-10 -19l-100 -183h-77z" />
    <glyph glyph-name="Y" unicode="Y" horiz-adv-x="468" 
d="M197 258l-197 398.999h79l88 -191l17 -37c26.667 -58 43 -93 49 -105h4l17 35c28 58.667 44.667 94.334 50 107.001l88 191h77l-198 -399v-258h-74v258z" />
    <glyph glyph-name="Z" unicode="Z" horiz-adv-x="539" 
d="M46 44l354 550h-322v63h414v-44l-354 -550h357v-63h-449v44z" />
    <glyph glyph-name="bracketleft" unicode="[" horiz-adv-x="297" 
d="M95 708h174v-42h-119v-776h119v-42h-174v860z" />
    <glyph glyph-name="backslash" unicode="\" horiz-adv-x="352" 
d="M12 710h54l276 -870h-54z" />
    <glyph glyph-name="bracketright" unicode="]" horiz-adv-x="297" 
d="M28 -110h119v776h-119v42h174v-860h-174v42z" />
    <glyph glyph-name="asciicircum" unicode="^" 
d="M213 670h66l152 -385h-64l-119 316h-4l-49 -133l-69 -183h-65z" />
    <glyph glyph-name="underscore" unicode="_" horiz-adv-x="500" 
d="M12 -73h476v-51h-476v51z" />
    <glyph glyph-name="grave" unicode="`" horiz-adv-x="540" 
d="M134 726l52 48l140 -164l-38 -37z" />
    <glyph glyph-name="a" unicode="a" horiz-adv-x="501" 
d="M93 24c-26.667 24 -40.001 57.668 -40.001 101.001c0 52.667 24 93.167 72 121.5s124.667 48.166 230 59.499c0 38 -7.83301 69.167 -23.5 93.5s-42.5 36.5 -80.5 36.5c-46 0 -95 -17.667 -147 -53l-29 50c64 42.667 126.667 64 188 64c56 0 97.333 -17.5 124 -52.5
s40 -83.167 40 -144.5v-300h-60l-6 59h-3c-57.333 -47.333 -111.666 -71 -162.999 -71c-41.333 0 -75.333 12 -102 36zM282.499 63.501c22.333 11 46.501 28.167 72.501 51.5v142c-83.333 -10 -142.5 -25.333 -177.5 -46s-52.5 -48 -52.5 -82
c0 -27.333 8.33301 -47.833 25 -61.5s38 -20.5 64 -20.5c23.333 0 46.166 5.5 68.499 16.5z" />
    <glyph glyph-name="b" unicode="b" horiz-adv-x="551" 
d="M222 4.5c-24.667 11 -47.666 26.167 -68.999 45.5h-3l-7 -50h-58v714h72v-198l-2 -89c54 46.667 106 70 156 70c62 0 109.5 -22.167 142.5 -66.5s49.5 -104.5 49.5 -180.5c0 -53.333 -9.66699 -99.833 -29 -139.5s-45 -70 -77 -91s-66.667 -31.5 -104 -31.5
c-22.667 0 -46.334 5.5 -71.001 16.5zM356.501 74.5c22.333 16.333 39.833 39.5 52.5 69.5s19 65 19 105c0 58 -10.833 103.5 -32.5 136.5s-55.5 49.5 -101.5 49.5c-41.333 0 -87 -23.333 -137 -70v-262c21.333 -18 42.833 -31.333 64.5 -40s41.5 -13 59.5 -13
c28 0 53.167 8.16699 75.5 24.5z" />
    <glyph glyph-name="c" unicode="c" horiz-adv-x="454" 
d="M157.5 18.5c-34.333 20.333 -61.332 49.498 -80.999 87.498s-29.5 83.333 -29.5 136c0 52 10.5 97.333 31.5 136s49.167 68.167 84.5 88.5s73.666 30.5 114.999 30.5c52.667 0 99.667 -19.333 141 -58l-38 -48c-16 14.667 -32 25.834 -48 33.501s-33.333 11.5 -52 11.5
c-30 0 -57 -8.16699 -81 -24.5s-42.833 -39.166 -56.5 -68.499s-20.5 -63 -20.5 -101c0 -58 14.333 -104.667 43 -140s66.334 -53 113.001 -53c42 0 81.333 16.667 118 50l32 -49c-22 -19.333 -46.333 -34.5 -73 -45.5s-54.334 -16.5 -83.001 -16.5
c-42.667 0 -81.167 10.167 -115.5 30.5z" />
    <glyph glyph-name="d" unicode="d" horiz-adv-x="552" 
d="M102.5 55c-35.667 44.667 -53.498 106.998 -53.498 186.998c0 50.667 9.66699 95.334 29 134.001s45.166 68.5 77.499 89.5s67.166 31.5 104.499 31.5c26 0 49.333 -4.66699 70 -14s43.334 -23.666 68.001 -42.999l-3 84v190h72v-714h-60l-6 59h-3
c-20.667 -21.333 -43.834 -38.5 -69.501 -51.5s-52.5 -19.5 -80.5 -19.5c-61.333 0 -109.833 22.333 -145.5 67zM330.502 66.998c21 11.333 42.499 28.667 64.499 52v263c-21.333 18.667 -42 32.167 -62 40.5s-40.667 12.5 -62 12.5c-27.333 0 -52.166 -8.33301 -74.499 -25
s-40 -39.667 -53 -69s-19.5 -62.333 -19.5 -99c0 -60 12.167 -107 36.5 -141s58.833 -51 103.5 -51c23.333 0 45.5 5.66699 66.5 17z" />
    <glyph glyph-name="e" unicode="e" 
d="M452 226l-334.999 -0.000976562c3.33301 -56.667 20.833 -100.667 52.5 -132s70.5 -47 116.5 -47c42.667 0 83.667 13 123 39l27 -48c-24 -15.333 -48.667 -27.5 -74 -36.5s-53.666 -13.5 -84.999 -13.5c-42.667 0 -81.5 10.167 -116.5 30.5s-62.667 49.833 -83 88.5
s-30.5 83.667 -30.5 135c0 50.667 10.167 95.334 30.5 134.001s47.166 68.5 80.499 89.5s68.666 31.5 105.999 31.5c60 0 106.833 -20.167 140.5 -60.5s50.5 -95.833 50.5 -166.5c0 -17.333 -1 -32 -3 -44zM390.001 278.999c0 51.333 -11 90.666 -33 117.999
s-52.667 41 -92 41c-36 0 -68 -13.667 -96 -41s-44.667 -66.666 -50 -117.999h271z" />
    <glyph glyph-name="f" unicode="f" horiz-adv-x="284" 
d="M169 568l0.000976562 -83h105v-60h-105v-425h-73v425h-66v55l66 5v84c0 50 11.5 88.667 34.5 116s57.167 41 102.5 41c26 0 52 -5.33301 78 -16l-16 -56c-18.667 8 -37.334 12 -56.001 12c-46.667 0 -70 -32.667 -70 -98z" />
    <glyph glyph-name="g" unicode="g" horiz-adv-x="500" 
d="M101.5 -191c-36.333 23.333 -54.4971 55.335 -54.4971 96.002c0 20.667 6.16699 40.667 18.5 60s29.833 36.666 52.5 51.999v4c-12.667 8 -23 18.667 -31 32s-12 29 -12 47c0 18.667 5.16699 35.834 15.5 51.501s22.833 28.5 37.5 38.5v4c-17.333 14 -32 32.333 -44 55
s-18 47.667 -18 75c0 34 8 64.167 24 90.5s37.667 46.666 65 60.999s57.333 21.5 90 21.5c22 0 44.333 -4 67 -12h168v-57h-103c12.667 -12 23 -27.333 31 -46s12 -38.334 12 -59.001c0 -33.333 -7.66699 -62.833 -23 -88.5s-36.333 -45.5 -63 -59.5
s-56.334 -21 -89.001 -21c-26.667 0 -51.334 5.66699 -74.001 17c-10.667 -8.66699 -18.834 -17.5 -24.501 -26.5s-8.5 -20.167 -8.5 -33.5c0 -17.333 6.5 -30.833 19.5 -40.5s35.167 -14.5 66.5 -14.5h97c56.667 0 98.667 -9.33301 126 -28s41 -47.667 41 -87
c0 -29.333 -10 -56.833 -30 -82.5s-48.333 -46.167 -85 -61.5s-78.667 -23 -126 -23c-60.667 0 -109.167 11.667 -145.5 35zM321.503 237.502c21 22.333 31.501 51.166 31.501 86.499c0 36 -10.333 64.833 -31 86.5s-46.334 32.5 -77.001 32.5s-56.5 -10.833 -77.5 -32.5
s-31.5 -50.5 -31.5 -86.5c0 -35.333 10.5 -64.166 31.5 -86.499s46.833 -33.5 77.5 -33.5c30 0 55.5 11.167 76.5 33.5zM339.504 -159.498c24.333 9.66699 43.168 22.666 56.501 38.999s20 33.5 20 51.5c0 22.667 -8.33301 38.834 -25 48.501s-42 14.5 -76 14.5h-89
c-20.667 0 -41.334 2.66699 -62.001 8c-35.333 -24.667 -53 -53.667 -53 -87c0 -27.333 13 -49 39 -65s61.667 -24 107 -24c30.667 0 58.167 4.83301 82.5 14.5z" />
    <glyph glyph-name="h" unicode="h" horiz-adv-x="540" 
d="M85 714h72v-198l-2 -102c26.667 26.667 52.667 47.167 78 61.5s53.333 21.5 84 21.5c50.667 0 88 -15.833 112 -47.5s36 -78.834 36 -141.501v-308h-73v299c0 46.667 -7.5 80.667 -22.5 102s-39.5 32 -73.5 32c-24 0 -46.333 -6.16699 -67 -18.5
s-44.667 -32.166 -72 -59.499v-355h-72v714z" />
    <glyph glyph-name="i" unicode="i" horiz-adv-x="242" 
d="M85 485h72v-485h-72v485zM86 603c-9.33301 9.33301 -14 21.666 -14 36.999c0 14.667 4.66699 26.5 14 35.5s21.333 13.5 36 13.5s26.667 -4.5 36 -13.5s14 -20.833 14 -35.5c0 -15.333 -4.66699 -27.666 -14 -36.999s-21.333 -14 -36 -14s-26.667 4.66699 -36 14z" />
    <glyph glyph-name="j" unicode="j" horiz-adv-x="242" 
d="M86 603c-9.33301 9.33301 -14 21.666 -14 36.999c0 14.667 4.66699 26.5 14 35.5s21.333 13.5 36 13.5s26.667 -4.5 36 -13.5s14 -20.833 14 -35.5c0 -15.333 -4.66699 -27.666 -14 -36.999s-21.333 -14 -36 -14s-26.667 4.66699 -36 14zM88 485l72 0.000976562v-549
c0 -50.667 -10.167 -89.334 -30.5 -116.001s-52.5 -40 -96.5 -40c-24.667 0 -47.667 4 -69 12l15 56c16 -5.33301 31.667 -8 47 -8c23.333 0 39.333 8 48 24s13 40.333 13 73z" />
    <glyph glyph-name="k" unicode="k" horiz-adv-x="487" 
d="M85 714h71v-494h3l215 265h81l-162 -194l184 -291h-79l-147 240l-95 -112v-128h-71v714z" />
    <glyph glyph-name="l" unicode="l" horiz-adv-x="250" 
d="M104 13.5c-12.667 17 -18.999 42.167 -18.999 75.5v625h72v-631c0 -11.333 2.16699 -19.833 6.5 -25.5s9.83301 -8.5 16.5 -8.5c5.33301 0 11.333 0.666992 18 2l10 -56c-12.667 -4.66699 -27.334 -7 -44.001 -7c-27.333 0 -47.333 8.5 -60 25.5z" />
    <glyph glyph-name="m" unicode="m" horiz-adv-x="825" 
d="M85 485h60l6 -72h3c51.333 56 101.666 84 150.999 84c68.667 0 113.334 -31.333 134.001 -94c28 30.667 55 54 81 70s52.667 24 80 24c98 0 147 -63 147 -189v-308h-73v299c0 46.667 -7.66699 80.667 -23 102s-39.333 32 -72 32c-38 0 -80.333 -26 -127 -78v-355h-73v299
c0 46 -7.66699 79.833 -23 101.5s-39 32.5 -71 32.5c-38 0 -80.667 -26 -128 -78v-355h-72v485z" />
    <glyph glyph-name="n" unicode="n" horiz-adv-x="543" 
d="M85 485l59.998 -0.000976562l6 -72h3c26.667 26.667 52.834 47.334 78.501 62.001s53.834 22 84.501 22c50.667 0 88 -15.833 112 -47.5s36 -78.834 36 -141.501v-308h-73v299c0 46.667 -7.5 80.667 -22.5 102s-39.5 32 -73.5 32c-24 0 -46.333 -6.16699 -67 -18.5
s-44.667 -32.166 -72 -59.499v-355h-72v485z" />
    <glyph glyph-name="o" unicode="o" horiz-adv-x="540" 
d="M159 18.5c-34 20.333 -61.167 49.666 -81.5 87.999s-30.5 83.5 -30.5 135.5s10.167 97.333 30.5 136s47.5 68.167 81.5 88.5s71 30.5 111 30.5s77 -10.167 111 -30.5s61.167 -49.833 81.5 -88.5s30.5 -84 30.5 -136s-10.167 -97.167 -30.5 -135.5
s-47.5 -67.666 -81.5 -87.999s-71 -30.5 -111 -30.5s-77 10.167 -111 30.5zM346.5 73c22.333 16 39.833 38.667 52.5 68s19 63 19 101s-6.33301 71.667 -19 101s-30.167 52.166 -52.5 68.499s-47.833 24.5 -76.5 24.5s-54.167 -8.16699 -76.5 -24.5
s-39.666 -39.166 -51.999 -68.499s-18.5 -63 -18.5 -101c0 -58 13.667 -104.667 41 -140s62.666 -53 105.999 -53c28.667 0 54.167 8 76.5 24z" />
    <glyph glyph-name="p" unicode="p" horiz-adv-x="552" 
d="M85 485h60l6 -58h3c56.667 46.667 109 70 157 70c62 0 109.5 -22.167 142.5 -66.5s49.5 -104.5 49.5 -180.5c0 -53.333 -9.66699 -99.833 -29 -139.5s-45 -70 -77 -91s-66.667 -31.5 -104 -31.5c-43.333 0 -89.333 19 -138 57l2 -86v-167h-72v693zM356.5 74.5
c22.333 16.333 39.834 39.5 52.501 69.5s19 65 19 105c0 58 -10.833 103.5 -32.5 136.5s-55.5 49.5 -101.5 49.5c-40.667 0 -86.334 -23.333 -137.001 -70v-262c22 -18.667 43.667 -32.167 65 -40.5s41 -12.5 59 -12.5c28 0 53.167 8.16699 75.5 24.5z" />
    <glyph glyph-name="q" unicode="q" horiz-adv-x="552" 
d="M395 -32l3 89.999c-48 -46.667 -98 -70 -150 -70c-61.333 0 -109.833 22.333 -145.5 67s-53.5 107 -53.5 187c0 50.667 9.66699 95.334 29 134.001s45.166 68.5 77.499 89.5s67.166 31.5 104.499 31.5c26.667 0 50.834 -4.83301 72.501 -14.5
s43.834 -24.167 66.501 -43.5h3l7 46h58v-693h-72v176zM330.5 66.999c21 11.333 42.499 28.667 64.499 52v263c-21.333 18.667 -42 32.167 -62 40.5s-40.667 12.5 -62 12.5c-27.333 0 -52.166 -8.33301 -74.499 -25s-40 -39.667 -53 -69s-19.5 -62.333 -19.5 -99
c0 -60 12.167 -107 36.5 -141s58.833 -51 103.5 -51c23.333 0 45.5 5.66699 66.5 17z" />
    <glyph glyph-name="r" unicode="r" horiz-adv-x="340" 
d="M85 485h59.999l6 -89h3c16.667 31.333 37 56 61 74s49.667 27 77 27c19.333 0 36 -3.33301 50 -10l-14 -64c-17.333 5.33301 -32.666 8 -45.999 8c-22.667 0 -45.167 -9.33301 -67.5 -28s-41.5 -47.667 -57.5 -87v-316h-72v485z" />
    <glyph glyph-name="s" unicode="s" horiz-adv-x="416" 
d="M112 6.5c-31.333 12.333 -59.002 28.501 -83.002 48.501l37 49c24 -19.333 47.333 -34 70 -44s48 -15 76 -15c32 0 56.667 7.66699 74 23s26 34.666 26 57.999s-9.83301 42 -29.5 56s-47.5 27.333 -83.5 40c-46 16.667 -82 34.834 -108 54.501s-39 47.834 -39 84.501
c0 39.333 14.833 71.833 44.5 97.5s69.834 38.5 120.501 38.5c27.333 0 53.666 -5 78.999 -15s48 -23 68 -39l-35 -47c-19.333 14 -37.666 24.667 -54.999 32s-36.333 11 -57 11c-30.667 0 -54 -7.16699 -70 -21.5s-24 -31.833 -24 -52.5
c0 -14.667 4.83301 -27.334 14.5 -38.001s21.5 -19.167 35.5 -25.5s33.667 -14.5 59 -24.5c34 -12.667 60.667 -24 80 -34s36 -24.167 50 -42.5s21 -41.833 21 -70.5c0 -26 -6.83301 -49.833 -20.5 -71.5s-33.667 -38.834 -60 -51.501s-57.5 -19 -93.5 -19
c-33.333 0 -65.666 6.16699 -96.999 18.5z" />
    <glyph glyph-name="t" unicode="t" horiz-adv-x="331" 
d="M129 29c-20.667 27.333 -31 66.333 -31 117v279h-73v55l76 5l9 137h61v-137h133v-60h-133v-281c0 -32 5.83301 -56 17.5 -72s31.5 -24 59.5 -24c14 0 32.667 4.33301 56 13l15 -55c-36 -12 -65 -18 -87 -18c-48 0 -82.333 13.667 -103 41z" />
    <glyph glyph-name="u" unicode="u" horiz-adv-x="540" 
d="M114 35.5c-24 31.667 -35.998 78.834 -35.998 141.501v308h72v-299c0 -46.667 7.66699 -80.834 23 -102.501s40 -32.5 74 -32.5c24.667 0 47.167 6.66699 67.5 20s43.166 35.333 68.499 66v348h73v-485h-61l-6 77h-3c-24.667 -28.667 -49.834 -50.667 -75.501 -66
s-54.167 -23 -85.5 -23c-50 0 -87 15.833 -111 47.5z" />
    <glyph glyph-name="v" unicode="v" horiz-adv-x="459" 
d="M12 485h75l96 -283l46 -142h4l46 142l96 283h72l-174 -485h-84z" />
    <glyph glyph-name="w" unicode="w" horiz-adv-x="710" 
d="M24 485h75.001l76 -289l9 -43c9.33301 -40 16 -70.333 20 -91h4c12.667 52 24 96.667 34 134l78 289h73l79 -289l34 -134h4l32 134l74 289h70l-132 -485h-90l-74 271l-19 79c-1.33301 5.33301 -6 25.333 -14 60h-4c-14.667 -66 -26.334 -113 -35.001 -141l-72 -269h-85z
" />
    <glyph glyph-name="x" unicode="x" horiz-adv-x="436" 
d="M174 253l-147.999 232h79l68 -111c21.333 -36 37.666 -62.667 48.999 -80h4l45 80l63 111h76l-147 -239l159 -246h-79l-75 118c-20 34.667 -37.667 63.667 -53 87h-4l-34 -58l-17 -29l-70 -118h-76z" />
    <glyph glyph-name="y" unicode="y" horiz-adv-x="459" 
d="M31 -202l14 59c13.333 -5.33301 26 -8 38 -8c26.667 0 49.334 10 68.001 30s33.667 47 45 81l12 37l-196 488h75l104 -278l48 -136h4c9.33301 28 19 58.667 29 92l13 44l91 278h71l-184 -530c-18.667 -52 -41.834 -92.833 -69.501 -122.5s-63.5 -44.5 -107.5 -44.5
c-20 0 -38.333 3.33301 -55 10z" />
    <glyph glyph-name="z" unicode="z" horiz-adv-x="419" 
d="M30 39l263 386h-234v60h326v-39l-263 -386h272v-60h-364v39z" />
    <glyph glyph-name="braceleft" unicode="{" horiz-adv-x="297" 
d="M139 -123.5c-18 19 -27 53.4971 -27 103.497c0 25.333 1.33301 59.333 4 102c2.66699 40 4 71.333 4 94s-6.5 41.334 -19.5 56.001s-35.167 22.334 -66.5 23.001v46c31.333 0.666992 53.5 8.33398 66.5 23.001s19.5 33 19.5 55c0 22.667 -1.33301 54.667 -4 96
c-2.66699 42.667 -4 76.334 -4 101.001c0 50 9 84.5 27 103.5s47.333 28.5 88 28.5h42v-42h-27c-27.333 0 -46 -7.33301 -56 -22s-15 -39 -15 -73c0 -28 1 -56.667 3 -86c0 -8.66699 0.5 -23 1.5 -43s1.5 -38.333 1.5 -55c0 -32 -4.33301 -56.333 -13 -73
s-23.667 -28 -45 -34v-4c20.667 -6 35.5 -17.5 44.5 -34.5s13.5 -41.167 13.5 -72.5c0 -16.667 -0.5 -35 -1.5 -55s-1.5 -34.333 -1.5 -43c-2 -28.667 -3 -57.334 -3 -86.001c0 -34 5 -58.333 15 -73s28.667 -22 56 -22h27v-42h-42c-40.667 0 -70 9.5 -88 28.5z" />
    <glyph glyph-name="bar" unicode="|" horiz-adv-x="237" 
d="M92 750h53v-1000h-53v1000z" />
    <glyph glyph-name="braceright" unicode="}" horiz-adv-x="297" 
d="M28 -110l27 0.00292969c27.333 0 46 7.33301 56 22s15 39 15 73c0 28.667 -1 57.334 -3 86.001c0 8.66699 -0.5 23 -1.5 43s-1.5 38.333 -1.5 55c0 31.333 4.5 55.5 13.5 72.5s23.833 28.5 44.5 34.5v4c-20.667 6 -35.5 17.333 -44.5 34s-13.5 41 -13.5 73
c0 16.667 0.5 35 1.5 55s1.5 34.333 1.5 43c2 29.333 3 58 3 86c0 34 -5 58.333 -15 73s-28.667 22 -56 22h-27v42h42c40.667 0 70 -9.5 88 -28.5s27 -53.5 27 -103.5c0 -24.667 -1.33301 -58.334 -4 -101.001c-2.66699 -41.333 -4 -73.333 -4 -96
c0 -22 6.5 -40.333 19.5 -55s35.167 -22.334 66.5 -23.001v-46c-31.333 -0.666992 -53.5 -8.33398 -66.5 -23.001s-19.5 -33.334 -19.5 -56.001s1.33301 -54 4 -94c2.66699 -42.667 4 -76.667 4 -102c0 -50 -9 -84.5 -27 -103.5s-47.333 -28.5 -88 -28.5h-42v42z" />
    <glyph glyph-name="asciitilde" unicode="~" 
d="M283 271.5c-15.333 8.33301 -32.6689 20.166 -52.002 35.499c-15.333 12.667 -28.666 22.167 -39.999 28.5s-23 9.5 -35 9.5c-29.333 0 -55 -20.333 -77 -61l-42 28c16.667 30 35.5 52.333 56.5 67s42.5 22 64.5 22c18.667 0 35.5 -4 50.5 -12s32.833 -20 53.5 -36
c16 -12.667 29.5 -22.167 40.5 -28.5s22.167 -9.5 33.5 -9.5c30.667 0 56.334 20.333 77.001 61l42 -30c-16.667 -29.333 -35.5 -51.166 -56.5 -65.499s-42.5 -21.5 -64.5 -21.5c-18.667 0 -35.667 4.16699 -51 12.5z" />
    <glyph glyph-name="uni00A0" unicode="&#xa0;" horiz-adv-x="202" 
 />
    <glyph glyph-name="exclamdown" unicode="&#xa1;" horiz-adv-x="282" 
d="M102 396.5c-10.667 11 -16 25.167 -16 42.5c0 16.667 5.33301 30.5 16 41.5s23.667 16.5 39 16.5s28.333 -5.5 39 -16.5s16 -24.833 16 -41.5c0 -17.333 -5.33301 -31.5 -16 -42.5s-23.667 -16.5 -39 -16.5s-28.333 5.5 -39 16.5zM106 -98l10 389h50l10 -389l2 -87h-74z
" />
    <glyph glyph-name="cent" unicode="&#xa2;" 
d="M383.5 91.5c-24.333 -11 -49.5 -17.167 -75.5 -18.5v-104h-48v105c-60.667 6.66699 -109 30.667 -145 72s-54 96 -54 164c0 66.667 18.5 120.5 55.5 161.5s84.833 65.5 143.5 73.5v108h48v-105c50 -2.66699 93.667 -22 131 -58l-36 -46c-30 26.667 -61.667 41 -95 43
v-354c38 2.66699 74.333 19 109 49l33 -47c-20 -18 -42.167 -32.5 -66.5 -43.5zM167.5 194.5c22.333 -30.333 53.168 -49.499 92.501 -57.499v346c-38.667 -8.66699 -69.334 -28.334 -92.001 -59.001s-34 -68.667 -34 -114c0 -46.667 11.167 -85.167 33.5 -115.5z" />
    <glyph glyph-name="sterling" unicode="&#xa3;" 
d="M447 63l-0.00195312 -63h-393v44c34 18.667 60.167 44.334 78.5 77.001s27.5 68.334 27.5 107.001c0 17.333 -2.33301 37 -7 59h-100v48l67 3h19c-1.33301 5.33301 -4.83301 17.333 -10.5 36s-10 36 -13 52s-4.5 30.667 -4.5 44c0 55.333 16.667 99.166 50 131.499
s77.333 48.5 132 48.5c61.333 0 112 -24.667 152 -74l-43 -42c-30 36.667 -65 55 -105 55c-36 0 -64 -11 -84 -33s-30 -51.333 -30 -88c0 -16.667 1.83301 -33.334 5.5 -50.001s8.83398 -36.667 15.501 -60c0.666992 -3.33301 2.33398 -10 5.00098 -20h160v-51h-149
c4 -18.667 6 -38.667 6 -60c0 -35.333 -5.16699 -65.333 -15.5 -90s-26.5 -48 -48.5 -70v-4h285z" />
    <glyph glyph-name="currency" unicode="&#xa4;" 
d="M28 146l64 66c-24.667 33.333 -37 72.333 -37 117s12 84 36 118l-63 66l39 41l67 -69c15.333 12.667 32.666 22.334 51.999 29.001s39.333 10 60 10s40.667 -3.33301 60 -10s36.666 -16.334 51.999 -29.001l67 69l40 -41l-65 -66c24.667 -33.333 37 -72.666 37 -117.999
c0 -44.667 -12.333 -83.667 -37 -117l65 -66l-40 -41l-67 69c-15.333 -12.667 -32.666 -22.334 -51.999 -29.001s-39.333 -10 -60 -10c-41.333 0 -78.666 13 -111.999 39l-67 -69zM333 229c24 26 36 59.333 36 100c0 26.667 -5.5 50.667 -16.5 72s-26 38 -45 50
s-39.5 18 -61.5 18s-42.5 -6 -61.5 -18s-34 -28.667 -45 -50s-16.5 -45.333 -16.5 -72c0 -40.667 12 -74 36 -100s53 -39 87 -39s63 13 87 39z" />
    <glyph glyph-name="yen" unicode="&#xa5;" 
d="M209 160h-162v44h162v67h-162v43h143l-165 324h76l82 -177l62 -135h4c6 12 11.167 22.833 15.5 32.5l11.5 25.5c16 35.333 28 61 36 77l82 177h74l-167 -324h145v-43h-164v-67h164v-44h-164v-160h-73v160z" />
    <glyph glyph-name="brokenbar" unicode="&#xa6;" horiz-adv-x="237" 
d="M145 585v-468v-196h-53v459v205h53z" />
    <glyph glyph-name="section" unicode="&#xa7;" 
d="M424 209c-14.667 -20 -35.668 -38.002 -63.001 -54.002c20 -23.333 30 -50.666 30 -81.999c0 -38.667 -14.667 -70.667 -44 -96s-66.666 -38 -111.999 -38c-34.667 0 -66.5 6 -95.5 18s-53.833 29 -74.5 51l45 41c17.333 -17.333 36 -30.5 56 -39.5s43 -13.5 69 -13.5
c27.333 0 49 7 65 21s24 31.333 24 52c0 24 -9.5 43.167 -28.5 57.5s-48.167 29.833 -87.5 46.5c-34.667 14.667 -62.667 28.334 -84 41.001s-39.5 29.834 -54.5 51.501s-22.5 48.167 -22.5 79.5c0 28 7.66699 53 23 75s36.333 40.333 63 55c-21.333 22.667 -32 50 -32 82
c0 34.667 12.833 64.5 38.5 89.5s61.834 37.5 108.501 37.5c54 0 104.333 -19 151 -57l-36 -47c-18 14.667 -35.833 26 -53.5 34s-37.167 12 -58.5 12c-28 0 -48.833 -6.33301 -62.5 -19s-20.5 -28.334 -20.5 -47.001c0 -22 9.16699 -40 27.5 -54s47.166 -29.667 86.499 -47
c35.333 -15.333 63.833 -29.5 85.5 -42.5s40.167 -30.333 55.5 -52s23 -48.5 23 -80.5c0 -30 -7.33301 -55 -22 -75zM366.499 225.498c10.333 13 15.501 30.5029 15.501 52.5029c0 21.333 -5.83301 39.666 -17.5 54.999s-26.167 27.833 -43.5 37.5s-41 21.167 -71 34.5
c-36 16 -60.667 28 -74 36c-21.333 -11.333 -37.5 -24.166 -48.5 -38.499s-16.5 -31.833 -16.5 -52.5s5.83301 -38.334 17.5 -53.001s26 -26.834 43 -36.501s40.167 -20.834 69.5 -33.501c33.333 -14 58.666 -26.333 75.999 -37c22.667 10.667 39.167 22.5 49.5 35.5z" />
    <glyph glyph-name="dieresis" unicode="&#xa8;" horiz-adv-x="540" 
d="M142.5 603c-9 8.66699 -13.5 19.667 -13.5 33s4.5 24.5 13.5 33.5s20.167 13.5 33.5 13.5s24.333 -4.5 33 -13.5s13 -20.167 13 -33.5c0 -12.667 -4.5 -23.5 -13.5 -32.5s-19.833 -13.5 -32.5 -13.5c-13.333 0 -24.5 4.33301 -33.5 13zM331.5 603.5
c-9 9 -13.5 19.833 -13.5 32.5c0 13.333 4.33301 24.5 13 33.5s19.667 13.5 33 13.5s24.5 -4.5 33.5 -13.5s13.5 -20.167 13.5 -33.5s-4.5 -24.333 -13.5 -33s-20.167 -13 -33.5 -13c-12.667 0 -23.5 4.5 -32.5 13.5z" />
    <glyph glyph-name="copyright" unicode="&#xa9;" horiz-adv-x="744" 
d="M211 30.5c-49.333 27.667 -88.5 66.834 -117.5 117.501s-43.5 109 -43.5 175s14.5 124 43.5 174s68 88.5 117 115.5s102.833 40.5 161.5 40.5c58 0 111.667 -13.667 161 -41s88.5 -66 117.5 -116s43.5 -107.667 43.5 -173c0 -66 -14.5 -124.333 -43.5 -175
s-68.167 -89.834 -117.5 -117.501s-103 -41.5 -161 -41.5s-111.667 13.833 -161 41.5zM511.5 65c42.333 24.667 76 59.5 101 104.5s37.5 96.167 37.5 153.5s-12.5 108.166 -37.5 152.499s-58.667 78.666 -101 102.999s-88.833 36.5 -139.5 36.5
s-97.334 -12.167 -140.001 -36.5s-76.5 -58.666 -101.5 -102.999s-37.5 -95.166 -37.5 -152.499s12.5 -108.5 37.5 -153.5s58.833 -79.833 101.5 -104.5s89.334 -37 140.001 -37s97.167 12.333 139.5 37zM288 149c-27.333 16 -49.0029 38.8311 -65.0029 68.498
s-24 64.834 -24 105.501c0 37.333 8.5 70.333 25.5 99s39.333 50.667 67 66s57.834 23 90.501 23c26 0 48.667 -4.83301 68 -14.5s38 -23.5 56 -41.5l-32 -36c-14.667 14.667 -28.834 25.334 -42.501 32.001s-29.167 10 -46.5 10c-37.333 0 -67.666 -12.833 -90.999 -38.5
s-35 -58.834 -35 -99.501c0 -45.333 11.167 -81.166 33.5 -107.499s51.833 -39.5 88.5 -39.5c20.667 0 39.334 3.83301 56.001 11.5s33.334 18.834 50.001 33.501l27 -39c-20.667 -18.667 -41.334 -32.834 -62.001 -42.501s-45 -14.5 -73 -14.5
c-33.333 0 -63.666 8 -90.999 24z" />
    <glyph glyph-name="ordfeminine" unicode="&#xaa;" horiz-adv-x="343" 
d="M65.5 414.5c-17.667 17 -26.499 39.8311 -26.499 68.498c0 34.667 15.833 61.334 47.5 80.001s82.5 31.667 152.5 39c-0.666992 24.667 -5.83398 43.834 -15.501 57.501s-25.834 20.5 -48.501 20.5c-16.667 0 -34.167 -3.5 -52.5 -10.5s-35.166 -15.167 -50.499 -24.5
l-21 39c47.333 28 91.333 42 132 42c74 0 111 -43.667 111 -131v-198h-44l-7 38h-4c-34.667 -30.667 -69 -46 -103 -46c-29.333 0 -52.833 8.5 -70.5 25.5zM239.001 476.998l-0.000976562 89c-52 -6 -89.167 -15.5 -111.5 -28.5s-33.5 -29.833 -33.5 -50.5
c0 -34.667 19.667 -52 59 -52c28.667 0 57.334 14 86.001 42z" />
    <glyph glyph-name="guillemotleft" unicode="&#xab;" horiz-adv-x="422" 
d="M44 224v56l137 157l33 -28l-119 -157l119 -158l-33 -27zM198 224v56l137 157l33 -28l-119 -157l119 -158l-33 -27z" />
    <glyph glyph-name="logicalnot" unicode="&#xac;" 
d="M399 302h-365v56h424v-253h-59v197z" />
    <glyph glyph-name="uni00AD" unicode="&#xad;" horiz-adv-x="308" 
d="M41 279h227v-57h-227v57z" />
    <glyph glyph-name="registered" unicode="&#xae;" horiz-adv-x="418" 
d="M115 345.5c-28.667 16.333 -51.334 39.333 -68.001 69s-25 63.5 -25 101.5s8.33301 72 25 102s39.334 53.333 68.001 70s60 25 94 25s65.167 -8.33301 93.5 -25s50.833 -40 67.5 -70s25 -64 25 -102s-8.33301 -71.833 -25 -101.5s-39.167 -52.667 -67.5 -69
s-59.5 -24.5 -93.5 -24.5s-65.333 8.16699 -94 24.5zM285 375.5c22.667 13.667 40.5 32.667 53.5 57s19.5 52.166 19.5 83.499s-6.5 59.333 -19.5 84s-30.833 44 -53.5 58s-48 21 -76 21s-53.333 -7 -76 -21s-40.5 -33.333 -53.5 -58s-19.5 -52.667 -19.5 -84
s6.5 -59.166 19.5 -83.499s30.833 -43.333 53.5 -57s48 -20.5 76 -20.5s53.333 6.83301 76 20.5zM137 621h75c22.667 0 41.167 -5 55.5 -15s21.5 -26.333 21.5 -49c0 -12.667 -3.5 -24.167 -10.5 -34.5s-16.167 -17.5 -27.5 -21.5l47 -84h-43l-37 72h-42v-72h-39v204z
M202 520c14.667 0 26 2.83301 34 8.5s12 14.167 12 25.5c0 23.333 -14.333 35 -43 35h-29v-69h26z" />
    <glyph glyph-name="macron" unicode="&#xaf;" horiz-adv-x="540" 
d="M140 654h260v-52h-260v52z" />
    <glyph glyph-name="degree" unicode="&#xb0;" horiz-adv-x="326" 
d="M76.5 468.5c-23.667 23 -35.5 52.833 -35.5 89.5c0 38 11.833 68.667 35.5 92s52.5 35 86.5 35s63 -11.667 87 -35s36 -54 36 -92c0 -36.667 -12 -66.5 -36 -89.5s-53 -34.5 -87 -34.5s-62.833 11.5 -86.5 34.5zM218.5 499.5c14.333 15.667 21.5 35.167 21.5 58.5
c0 24.667 -7.16699 44.834 -21.5 60.501s-32.833 23.5 -55.5 23.5s-41 -7.83301 -55 -23.5s-21 -35.834 -21 -60.501c0 -24 7.16699 -43.667 21.5 -59s32.5 -23 54.5 -23c22.667 0 41.167 7.83301 55.5 23.5z" />
    <glyph glyph-name="plusminus" unicode="&#xb1;" 
d="M216 305h-182v56h182v194h60v-194h182v-56h-182v-183h-60v183zM34 56h424v-56h-424v56z" />
    <glyph glyph-name="acute" unicode="&#xb4;" horiz-adv-x="540" 
d="M214 610l140 164l52 -48l-154 -153z" />
    <glyph glyph-name="paragraph" unicode="&#xb6;" horiz-adv-x="548" 
d="M109 284c-45.333 35.333 -68 89 -68 161c0 73.333 21.5 127 64.5 161s101.167 51 174.5 51h44v-426h-32c-76.667 0 -137.667 17.667 -183 53zM378 657h74v-737h-74v737z" />
    <glyph glyph-name="periodcentered" unicode="&#xb7;" horiz-adv-x="242" 
d="M82 280.5c-10.667 11 -16 24.833 -16 41.5c0 17.333 5.33301 31.5 16 42.5s23.667 16.5 39 16.5s28.333 -5.5 39 -16.5s16 -25.167 16 -42.5c0 -16.667 -5.33301 -30.5 -16 -41.5s-23.667 -16.5 -39 -16.5s-28.333 5.5 -39 16.5z" />
    <glyph glyph-name="cedilla" unicode="&#xb8;" horiz-adv-x="540" 
d="M178 -186c40.667 2.66699 69.167 7.83398 85.5 15.501s24.5 19.167 24.5 34.5c0 13.333 -6 23.666 -18 30.999s-32 13 -60 17l43 91h49l-29 -67c24 -6 42 -14.5 54 -25.5s18 -26.167 18 -45.5c0 -54 -53 -83.667 -159 -89z" />
    <glyph glyph-name="ordmasculine" unicode="&#xba;" horiz-adv-x="363" 
d="M105.5 409.5c-23 13.667 -41.335 33.334 -55.002 59.001s-20.5 55.5 -20.5 89.5c0 34.667 6.83301 64.667 20.5 90s31.834 44.666 54.501 57.999s48 20 76 20s53.333 -6.66699 76 -20s40.834 -32.666 54.501 -57.999s20.5 -55.333 20.5 -90
c0 -34 -6.83301 -63.833 -20.5 -89.5s-32 -45.334 -55 -59.001s-48.167 -20.5 -75.5 -20.5s-52.5 6.83301 -75.5 20.5zM248.998 469.5c16.667 22.333 25.001 51.833 25.001 88.5s-8.33301 66.167 -25 88.5s-39.334 33.5 -68.001 33.5s-51.334 -11.167 -68.001 -33.5
s-25 -51.833 -25 -88.5s8.5 -66.167 25.5 -88.5s39.5 -33.5 67.5 -33.5c28.667 0 51.334 11.167 68.001 33.5z" />
    <glyph glyph-name="guillemotright" unicode="&#xbb;" horiz-adv-x="422" 
d="M54 94l119 158l-119 157l33 28l136 -157v-56l-136 -157zM208 94l119 158l-119 157l33 28l136 -157v-56l-136 -157z" />
    <glyph glyph-name="onequarter" unicode="&#xbc;" horiz-adv-x="789" 
d="M159 279l0.000976562 312h-84v38c20.667 4 38.167 9.16699 52.5 15.5s28.166 14.5 41.499 24.5h48v-390h-58zM600.001 669l-363 -681h-51l363 681h51zM754.001 107h-58v-107h-53v107h-177v29l167 254h63v-241h58v-42zM643.001 149v75l5 107h-4l-52 -82l-65 -100h116z" />
    <glyph glyph-name="onehalf" unicode="&#xbd;" horiz-adv-x="803" 
d="M159 591h-83.999v38c20.667 4 38.167 9.16699 52.5 15.5s28.166 14.5 41.499 24.5h48v-390h-58v312zM532.001 669h51l-363 -681h-51zM490.001 34c69.333 62.667 117.833 110.335 145.5 143.002s41.5 63 41.5 91c0 26 -7 46.667 -21 62s-33 23 -57 23
c-16 0 -31.333 -5.33301 -46 -16s-28 -24.667 -40 -42l-35 32c15.333 22.667 34.166 40.834 56.499 54.501s46.166 20.5 71.499 20.5c39.333 0 70.5 -10.833 93.5 -32.5s34.5 -52.834 34.5 -93.501c0 -24 -6.16699 -47.333 -18.5 -70s-27.666 -44.334 -45.999 -65.001
s-47.166 -51.334 -86.499 -92.001h171v-49h-264v34z" />
    <glyph glyph-name="threequarters" unicode="&#xbe;" horiz-adv-x="803" 
d="M277 298.5c-26 -21 -58.334 -31.499 -97.001 -31.499c-30 0 -57.5 7 -82.5 21s-45.167 32.333 -60.5 55l39 30c12.667 -18.667 27.667 -33.334 45 -44.001s36 -16 56 -16c22.667 0 41.834 6.66699 57.501 20s23.5 31 23.5 53c0 23.333 -10.833 41.166 -32.5 53.499
s-52.5 18.5 -92.5 18.5v38c34 0 60.833 7 80.5 21s29.5 31.667 29.5 53c0 19.333 -6.66699 35 -20 47s-31.333 18 -54 18c-14 0 -28 -4.5 -42 -13.5s-27 -20.833 -39 -35.5l-35 31c36 42.667 77.333 64 124 64c34.667 0 64 -9.5 88 -28.5s36 -44.167 36 -75.5
c0 -22.667 -6.33301 -42.167 -19 -58.5s-30 -29.166 -52 -38.499c24.667 -6 45.167 -17.333 61.5 -34s24.5 -37.667 24.5 -63c0 -35.333 -13 -63.5 -39 -84.5zM634.999 669.001l-363 -681h-51l363 681h51zM767.999 107.001h-58v-107h-53v107h-177v29l167 254h63v-241h58v-42
zM656.999 149.001v75l5 107h-4l-52 -82l-65 -100h116z" />
    <glyph glyph-name="questiondown" unicode="&#xbf;" horiz-adv-x="419" 
d="M185 396.5c-10.667 11 -16 25.167 -16 42.5c0 16.667 5.33301 30.5 16 41.5s23.667 16.5 39 16.5s28.333 -5.5 39 -16.5s16 -24.833 16 -41.5c0 -17.333 -5.33301 -31.5 -16 -42.5s-23.667 -16.5 -39 -16.5s-28.333 5.5 -39 16.5zM93 -154
c-30 28.667 -45.002 66.6641 -45.002 113.997c0 28 6 53 18 75s30.333 48.333 55 79s43.167 57.167 55.5 79.5s18.5 47.833 18.5 76.5c0 9.33301 -0.333008 16.333 -1 21h65c1.33301 -13.333 2 -22.666 2 -27.999c0 -32.667 -6.66699 -61.667 -20 -87
s-32.666 -53 -57.999 -83c-21.333 -27.333 -37.166 -50.166 -47.499 -68.499s-15.5 -38.166 -15.5 -59.499c0 -29.333 8.66699 -53.5 26 -72.5s42.333 -28.5 75 -28.5c22 0 43.167 5.16699 63.5 15.5s38.5 24.5 54.5 42.5l42 -38c-48 -54 -104 -81 -168 -81
c-50 0 -90 14.333 -120 43z" />
    <glyph glyph-name="Agrave" unicode="&#xc0;" horiz-adv-x="539" 
d="M391 207h-245l-67 -207h-75l225 657h82l224 -657h-78zM372 266l-33.999 106.001c-26.667 83.333 -49.334 157.666 -68.001 222.999h-4c-22 -80.667 -44.333 -155 -67 -223l-34 -106h207zM139.001 814.001l42 49l137 -127l-32 -37z" />
    <glyph glyph-name="Aacute" unicode="&#xc1;" horiz-adv-x="539" 
d="M391 207h-245l-67 -207h-75l225 657h82l224 -657h-78zM372 266l-33.999 106.001c-26.667 83.333 -49.334 157.666 -68.001 222.999h-4c-22 -80.667 -44.333 -155 -67 -223l-34 -106h207zM218.001 736.001l137 127l42 -49l-147 -115z" />
    <glyph glyph-name="Acircumflex" unicode="&#xc2;" horiz-adv-x="539" 
d="M391 207h-245l-67 -207h-75l225 657h82l224 -657h-78zM372 266l-33.999 106.001c-26.667 83.333 -49.334 157.666 -68.001 222.999h-4c-22 -80.667 -44.333 -155 -67 -223l-34 -106h207zM124.001 725.001l106 113h76l106 -113l-32 -24l-110 94h-4l-110 -94z" />
    <glyph glyph-name="Atilde" unicode="&#xc3;" horiz-adv-x="539" 
d="M391 207h-245l-67 -207h-75l225 657h82l224 -657h-78zM372 266l-33.999 106.001c-26.667 83.333 -49.334 157.666 -68.001 222.999h-4c-22 -80.667 -44.333 -155 -67 -223l-34 -106h207zM295.501 722.001c-13.667 7.33301 -28.168 17.666 -43.501 30.999
c-11.333 10.667 -21.333 18.5 -30 23.5s-18 7.5 -28 7.5c-13.333 0 -24.5 -6 -33.5 -18s-14.5 -28.667 -16.5 -50l-50 3c1.33301 36.667 10.833 65.834 28.5 87.501s40.834 32.5 69.501 32.5c18.667 0 34.834 -3.66699 48.501 -11s28.167 -17.666 43.5 -30.999
c11.333 -10.667 21.333 -18.5 30 -23.5s18 -7.5 28 -7.5c13.333 0 24.333 6 33 18s14.334 29 17.001 51l50 -4c-1.33301 -36.667 -10.833 -65.834 -28.5 -87.501s-40.834 -32.5 -69.501 -32.5c-18.667 0 -34.834 3.66699 -48.501 11z" />
    <glyph glyph-name="Adieresis" unicode="&#xc4;" horiz-adv-x="539" 
d="M391 207h-245l-67 -207h-75l225 657h82l224 -657h-78zM372 266l-33.999 106.001c-26.667 83.333 -49.334 157.666 -68.001 222.999h-4c-22 -80.667 -44.333 -155 -67 -223l-34 -106h207zM134.001 730.501c-8.66699 8.33301 -13 19.5 -13 33.5
c0 13.333 4.33301 24.166 13 32.499s19.667 12.5 33 12.5s24.166 -4.16699 32.499 -12.5s12.5 -19.166 12.5 -32.499c0 -14 -4.16699 -25.167 -12.5 -33.5s-19.166 -12.5 -32.499 -12.5s-24.333 4.16699 -33 12.5zM336.501 730.501c-8.33301 8.33301 -12.5 19.5 -12.5 33.5
c0 13.333 4.16699 24.166 12.5 32.499s19.166 12.5 32.499 12.5s24.333 -4.16699 33 -12.5s13 -19.166 13 -32.499c0 -14 -4.33301 -25.167 -13 -33.5s-19.667 -12.5 -33 -12.5s-24.166 4.16699 -32.499 12.5z" />
    <glyph glyph-name="Aring" unicode="&#xc5;" horiz-adv-x="539" 
d="M391 207h-245l-67 -207h-75l225 657h82l224 -657h-78zM372 266l-33.999 106.001c-26.667 83.333 -49.334 157.666 -68.001 222.999h-4c-22 -80.667 -44.333 -155 -67 -223l-34 -106h207zM199.501 724.001c-17.667 16.667 -26.5 38.002 -26.5 64.002
c0 27.333 8.83301 49.166 26.5 65.499s40.5 24.5 68.5 24.5c27.333 0 50 -8.33301 68 -25s27 -38.334 27 -65.001c0 -26 -9.16699 -47.333 -27.5 -64s-40.833 -25 -67.5 -25c-28 0 -50.833 8.33301 -68.5 25zM305.001 747.503c10 9.66699 15 23.167 15 40.5
c0 16.667 -5 30.167 -15 40.5s-22.333 15.5 -37 15.5c-15.333 0 -28 -5 -38 -15s-15 -23.667 -15 -41s5 -30.833 15 -40.5s22.667 -14.5 38 -14.5c14.667 0 27 4.83301 37 14.5z" />
    <glyph glyph-name="AE" unicode="&#xc6;" horiz-adv-x="819" 
d="M771 63v-63h-367v198h-211l-104 -198h-77l349 657h400v-63h-283v-217h235v-62h-235v-252h293zM404 257v341h-4l-45 -88l-67 -131l-64 -122h180z" />
    <glyph glyph-name="Ccedilla" unicode="&#xc7;" horiz-adv-x="569" 
d="M189.5 29c-43 27.333 -76.6689 66.667 -101.002 118s-36.5 111.666 -36.5 180.999c0 68.667 12.333 128.834 37 180.501s59 91.334 103 119.001s93.667 41.5 149 41.5c36.667 0 70.334 -7.66699 101.001 -23s56.334 -34.333 77.001 -57l-41 -49
c-38 42.667 -83.333 64 -136 64c-42.667 0 -80 -11.167 -112 -33.5s-56.833 -54 -74.5 -95s-26.5 -89.5 -26.5 -145.5s8.5 -104.833 25.5 -146.5s41.333 -73.834 73 -96.501s68.834 -34 111.501 -34c30.667 0 58.5 6.33301 83.5 19s49.167 31.667 72.5 57l41 -46
c-26.667 -31.333 -56.334 -55 -89.001 -71s-69.667 -24 -111 -24c-54.667 0 -103.5 13.667 -146.5 41z" />
    <glyph glyph-name="Egrave" unicode="&#xc8;" horiz-adv-x="524" 
d="M92 657h373v-63h-299v-217h252v-62h-252v-252h309v-63h-383v657zM155 814l42 49l137 -127l-32 -37z" />
    <glyph glyph-name="Eacute" unicode="&#xc9;" horiz-adv-x="524" 
d="M92 657h373v-63h-299v-217h252v-62h-252v-252h309v-63h-383v657zM234 736l137 127l42 -49l-147 -115z" />
    <glyph glyph-name="Ecircumflex" unicode="&#xca;" horiz-adv-x="524" 
d="M92 657h373v-63h-299v-217h252v-62h-252v-252h309v-63h-383v657zM140 725l106 113h76l106 -113l-32 -24l-110 94h-4l-110 -94z" />
    <glyph glyph-name="Edieresis" unicode="&#xcb;" horiz-adv-x="524" 
d="M92 657h373v-63h-299v-217h252v-62h-252v-252h309v-63h-383v657zM150 730.5c-8.66699 8.33301 -13 19.5 -13 33.5c0 13.333 4.33301 24.166 13 32.499s19.667 12.5 33 12.5s24.166 -4.16699 32.499 -12.5s12.5 -19.166 12.5 -32.499c0 -14 -4.16699 -25.167 -12.5 -33.5
s-19.166 -12.5 -32.499 -12.5s-24.333 4.16699 -33 12.5zM352.5 730.5c-8.33301 8.33301 -12.5 19.5 -12.5 33.5c0 13.333 4.16699 24.166 12.5 32.499s19.166 12.5 32.499 12.5s24.333 -4.16699 33 -12.5s13 -19.166 13 -32.499c0 -14 -4.33301 -25.167 -13 -33.5
s-19.667 -12.5 -33 -12.5s-24.166 4.16699 -32.499 12.5z" />
    <glyph glyph-name="Igrave" unicode="&#xcc;" horiz-adv-x="257" 
d="M92 657h74v-657h-74v657zM0 814l42 49l137 -127l-32 -37z" />
    <glyph glyph-name="Iacute" unicode="&#xcd;" horiz-adv-x="257" 
d="M92 657h74v-657h-74v657zM79 736l137 127l42 -49l-147 -115z" />
    <glyph glyph-name="Icircumflex" unicode="&#xce;" horiz-adv-x="257" 
d="M92 657h74v-657h-74v657zM-15 725l106 113h76l106 -113l-32 -24l-110 94h-4l-110 -94z" />
    <glyph glyph-name="Idieresis" unicode="&#xcf;" horiz-adv-x="257" 
d="M92 657h74v-657h-74v657zM-5 730.5c-8.66699 8.33301 -13 19.5 -13 33.5c0 13.333 4.33301 24.166 13 32.499s19.667 12.5 33 12.5s24.166 -4.16699 32.499 -12.5s12.5 -19.166 12.5 -32.499c0 -14 -4.16699 -25.167 -12.5 -33.5s-19.166 -12.5 -32.499 -12.5
s-24.333 4.16699 -33 12.5zM197.5 730.5c-8.33301 8.33301 -12.5 19.5 -12.5 33.5c0 13.333 4.16699 24.166 12.5 32.499s19.166 12.5 32.499 12.5s24.333 -4.16699 33 -12.5s13 -19.166 13 -32.499c0 -14 -4.33301 -25.167 -13 -33.5s-19.667 -12.5 -33 -12.5
s-24.166 4.16699 -32.499 12.5z" />
    <glyph glyph-name="Eth" unicode="&#xd0;" horiz-adv-x="634" 
d="M503.5 572c52.333 -56.667 78.5 -137 78.5 -241s-26.167 -185.167 -78.5 -243.5s-127.5 -87.5 -225.5 -87.5h-164v323h-80v41l80 3v290h161c100 0 176.167 -28.333 228.5 -85zM446.5 131.5c39.667 47 59.5 113.5 59.5 199.5c0 84.667 -19.833 150 -59.5 196
s-98.834 69 -177.501 69h-81v-229h152v-44h-152v-262h81c78.667 0 137.834 23.5 177.501 70.5z" />
    <glyph glyph-name="Ntilde" unicode="&#xd1;" horiz-adv-x="644" 
d="M92 657h76l248 -426l72 -135h4l-3 44c-0.666992 10.667 -2 33.167 -4 67.5s-3 65.5 -3 93.5v356h70v-657h-76l-248 426l-72 135h-4l3 -48c4.66699 -58 7 -109 7 -153v-360h-70v657zM353.5 722c-13.667 7.33301 -28.168 17.666 -43.501 30.999
c-11.333 10.667 -21.333 18.5 -30 23.5s-18 7.5 -28 7.5c-13.333 0 -24.5 -6 -33.5 -18s-14.5 -28.667 -16.5 -50l-50 3c1.33301 36.667 10.833 65.834 28.5 87.501s40.834 32.5 69.501 32.5c18.667 0 34.834 -3.66699 48.501 -11s28.167 -17.666 43.5 -30.999
c11.333 -10.667 21.333 -18.5 30 -23.5s18 -7.5 28 -7.5c13.333 0 24.333 6 33 18s14.334 29 17.001 51l50 -4c-1.33301 -36.667 -10.833 -65.834 -28.5 -87.501s-40.834 -32.5 -69.501 -32.5c-18.667 0 -34.834 3.66699 -48.501 11z" />
    <glyph glyph-name="Ograve" unicode="&#xd2;" horiz-adv-x="661" 
d="M186 30c-42 28 -74.833 68 -98.5 120s-35.5 112.333 -35.5 181s11.833 128.5 35.5 179.5s56.5 90.167 98.5 117.5s90.333 41 145 41c54 0 102 -13.667 144 -41s74.833 -66.5 98.5 -117.5s35.5 -110.833 35.5 -179.5s-11.833 -129 -35.5 -181s-56.5 -92 -98.5 -120
s-90 -42 -144 -42c-54.667 0 -103 14 -145 42zM436.5 87.5c30.333 23 53.832 55.333 70.499 97s25 90.5 25 146.5c0 55.333 -8.33301 103.5 -25 144.5s-40.167 72.667 -70.5 95s-65.5 33.5 -105.5 33.5c-40.667 0 -76.167 -11.167 -106.5 -33.5s-53.833 -54 -70.5 -95
s-25 -89.167 -25 -144.5c0 -56 8.33301 -105 25 -147s40.334 -74.333 71.001 -97s66 -34 106 -34s75.167 11.5 105.5 34.5zM201.999 814l42 49l137 -127l-32 -37z" />
    <glyph glyph-name="Oacute" unicode="&#xd3;" horiz-adv-x="661" 
d="M186 30c-42 28 -74.833 68 -98.5 120s-35.5 112.333 -35.5 181s11.833 128.5 35.5 179.5s56.5 90.167 98.5 117.5s90.333 41 145 41c54 0 102 -13.667 144 -41s74.833 -66.5 98.5 -117.5s35.5 -110.833 35.5 -179.5s-11.833 -129 -35.5 -181s-56.5 -92 -98.5 -120
s-90 -42 -144 -42c-54.667 0 -103 14 -145 42zM436.5 87.5c30.333 23 53.832 55.333 70.499 97s25 90.5 25 146.5c0 55.333 -8.33301 103.5 -25 144.5s-40.167 72.667 -70.5 95s-65.5 33.5 -105.5 33.5c-40.667 0 -76.167 -11.167 -106.5 -33.5s-53.833 -54 -70.5 -95
s-25 -89.167 -25 -144.5c0 -56 8.33301 -105 25 -147s40.334 -74.333 71.001 -97s66 -34 106 -34s75.167 11.5 105.5 34.5zM280.999 736l137 127l42 -49l-147 -115z" />
    <glyph glyph-name="Ocircumflex" unicode="&#xd4;" horiz-adv-x="661" 
d="M186 30c-42 28 -74.833 68 -98.5 120s-35.5 112.333 -35.5 181s11.833 128.5 35.5 179.5s56.5 90.167 98.5 117.5s90.333 41 145 41c54 0 102 -13.667 144 -41s74.833 -66.5 98.5 -117.5s35.5 -110.833 35.5 -179.5s-11.833 -129 -35.5 -181s-56.5 -92 -98.5 -120
s-90 -42 -144 -42c-54.667 0 -103 14 -145 42zM436.5 87.5c30.333 23 53.832 55.333 70.499 97s25 90.5 25 146.5c0 55.333 -8.33301 103.5 -25 144.5s-40.167 72.667 -70.5 95s-65.5 33.5 -105.5 33.5c-40.667 0 -76.167 -11.167 -106.5 -33.5s-53.833 -54 -70.5 -95
s-25 -89.167 -25 -144.5c0 -56 8.33301 -105 25 -147s40.334 -74.333 71.001 -97s66 -34 106 -34s75.167 11.5 105.5 34.5zM186.999 725l106 113h76l106 -113l-32 -24l-110 94h-4l-110 -94z" />
    <glyph glyph-name="Otilde" unicode="&#xd5;" horiz-adv-x="661" 
d="M186 30c-42 28 -74.833 68 -98.5 120s-35.5 112.333 -35.5 181s11.833 128.5 35.5 179.5s56.5 90.167 98.5 117.5s90.333 41 145 41c54 0 102 -13.667 144 -41s74.833 -66.5 98.5 -117.5s35.5 -110.833 35.5 -179.5s-11.833 -129 -35.5 -181s-56.5 -92 -98.5 -120
s-90 -42 -144 -42c-54.667 0 -103 14 -145 42zM436.5 87.5c30.333 23 53.832 55.333 70.499 97s25 90.5 25 146.5c0 55.333 -8.33301 103.5 -25 144.5s-40.167 72.667 -70.5 95s-65.5 33.5 -105.5 33.5c-40.667 0 -76.167 -11.167 -106.5 -33.5s-53.833 -54 -70.5 -95
s-25 -89.167 -25 -144.5c0 -56 8.33301 -105 25 -147s40.334 -74.333 71.001 -97s66 -34 106 -34s75.167 11.5 105.5 34.5zM358.499 722c-13.667 7.33301 -28.168 17.666 -43.501 30.999c-11.333 10.667 -21.333 18.5 -30 23.5s-18 7.5 -28 7.5
c-13.333 0 -24.5 -6 -33.5 -18s-14.5 -28.667 -16.5 -50l-50 3c1.33301 36.667 10.833 65.834 28.5 87.501s40.834 32.5 69.501 32.5c18.667 0 34.834 -3.66699 48.501 -11s28.167 -17.666 43.5 -30.999c11.333 -10.667 21.333 -18.5 30 -23.5s18 -7.5 28 -7.5
c13.333 0 24.333 6 33 18s14.334 29 17.001 51l50 -4c-1.33301 -36.667 -10.833 -65.834 -28.5 -87.501s-40.834 -32.5 -69.501 -32.5c-18.667 0 -34.834 3.66699 -48.501 11z" />
    <glyph glyph-name="Odieresis" unicode="&#xd6;" horiz-adv-x="661" 
d="M186 30c-42 28 -74.833 68 -98.5 120s-35.5 112.333 -35.5 181s11.833 128.5 35.5 179.5s56.5 90.167 98.5 117.5s90.333 41 145 41c54 0 102 -13.667 144 -41s74.833 -66.5 98.5 -117.5s35.5 -110.833 35.5 -179.5s-11.833 -129 -35.5 -181s-56.5 -92 -98.5 -120
s-90 -42 -144 -42c-54.667 0 -103 14 -145 42zM436.5 87.5c30.333 23 53.832 55.333 70.499 97s25 90.5 25 146.5c0 55.333 -8.33301 103.5 -25 144.5s-40.167 72.667 -70.5 95s-65.5 33.5 -105.5 33.5c-40.667 0 -76.167 -11.167 -106.5 -33.5s-53.833 -54 -70.5 -95
s-25 -89.167 -25 -144.5c0 -56 8.33301 -105 25 -147s40.334 -74.333 71.001 -97s66 -34 106 -34s75.167 11.5 105.5 34.5zM196.999 730.5c-8.66699 8.33301 -13 19.5 -13 33.5c0 13.333 4.33301 24.166 13 32.499s19.667 12.5 33 12.5s24.166 -4.16699 32.499 -12.5
s12.5 -19.166 12.5 -32.499c0 -14 -4.16699 -25.167 -12.5 -33.5s-19.166 -12.5 -32.499 -12.5s-24.333 4.16699 -33 12.5zM399.499 730.5c-8.33301 8.33301 -12.5 19.5 -12.5 33.5c0 13.333 4.16699 24.166 12.5 32.499s19.166 12.5 32.499 12.5s24.333 -4.16699 33 -12.5
s13 -19.166 13 -32.499c0 -14 -4.33301 -25.167 -13 -33.5s-19.667 -12.5 -33 -12.5s-24.166 4.16699 -32.499 12.5z" />
    <glyph glyph-name="multiply" unicode="&#xd7;" 
d="M51 169l156 161l-156 160l39 41l156 -162l156 162l40 -41l-156 -160l156 -161l-40 -41l-156 162l-156 -162z" />
    <glyph glyph-name="Oslash" unicode="&#xd8;" horiz-adv-x="661" 
d="M545 564c22 -28.667 38.668 -62.833 50.001 -102.5s17 -83.167 17 -130.5c0 -68.667 -11.833 -129 -35.5 -181s-56.5 -92 -98.5 -120s-90 -42 -144 -42c-69.333 0 -128.333 22.667 -177 68l-64 -84l-42 32l70 92c-44 62 -66 140.333 -66 235
c0 68.667 11.833 128.5 35.5 179.5s56.5 90.167 98.5 117.5s90.333 41 145 41c69.333 0 127.666 -21.667 174.999 -65l62 81l42 -32zM169.001 158.001l297 389c-34.667 38 -78.667 57 -132 57c-40.667 0 -76.167 -11.167 -106.5 -33.5s-53.833 -54 -70.5 -95
s-25 -89.167 -25 -144.5c0 -68 12.333 -125.667 37 -173zM498.001 502.001l-298 -390c35.333 -39.333 80 -59 134 -59c40 0 75.167 11.5 105.5 34.5s53.833 55.333 70.5 97s25 90.5 25 146.5c0 68 -12.333 125 -37 171z" />
    <glyph glyph-name="Ugrave" unicode="&#xd9;" horiz-adv-x="643" 
d="M152 53.5c-42 43.667 -62.999 114.5 -62.999 212.5v391h74v-391c0 -76 14.333 -130.5 43 -163.5s67 -49.5 115 -49.5c49.333 0 88.666 16.5 117.999 49.5s44 87.5 44 163.5v391h71v-391c0 -98 -21.167 -168.833 -63.5 -212.5s-98.833 -65.5 -169.5 -65.5
s-127 21.833 -169 65.5zM192.001 814l42 49l137 -127l-32 -37z" />
    <glyph glyph-name="Uacute" unicode="&#xda;" horiz-adv-x="643" 
d="M152 53.5c-42 43.667 -62.999 114.5 -62.999 212.5v391h74v-391c0 -76 14.333 -130.5 43 -163.5s67 -49.5 115 -49.5c49.333 0 88.666 16.5 117.999 49.5s44 87.5 44 163.5v391h71v-391c0 -98 -21.167 -168.833 -63.5 -212.5s-98.833 -65.5 -169.5 -65.5
s-127 21.833 -169 65.5zM271.001 736l137 127l42 -49l-147 -115z" />
    <glyph glyph-name="Ucircumflex" unicode="&#xdb;" horiz-adv-x="643" 
d="M152 53.5c-42 43.667 -62.999 114.5 -62.999 212.5v391h74v-391c0 -76 14.333 -130.5 43 -163.5s67 -49.5 115 -49.5c49.333 0 88.666 16.5 117.999 49.5s44 87.5 44 163.5v391h71v-391c0 -98 -21.167 -168.833 -63.5 -212.5s-98.833 -65.5 -169.5 -65.5
s-127 21.833 -169 65.5zM177.001 725l106 113h76l106 -113l-32 -24l-110 94h-4l-110 -94z" />
    <glyph glyph-name="Udieresis" unicode="&#xdc;" horiz-adv-x="643" 
d="M152 53.5c-42 43.667 -62.999 114.5 -62.999 212.5v391h74v-391c0 -76 14.333 -130.5 43 -163.5s67 -49.5 115 -49.5c49.333 0 88.666 16.5 117.999 49.5s44 87.5 44 163.5v391h71v-391c0 -98 -21.167 -168.833 -63.5 -212.5s-98.833 -65.5 -169.5 -65.5
s-127 21.833 -169 65.5zM187.001 730.5c-8.66699 8.33301 -13 19.5 -13 33.5c0 13.333 4.33301 24.166 13 32.499s19.667 12.5 33 12.5s24.166 -4.16699 32.499 -12.5s12.5 -19.166 12.5 -32.499c0 -14 -4.16699 -25.167 -12.5 -33.5s-19.166 -12.5 -32.499 -12.5
s-24.333 4.16699 -33 12.5zM389.501 730.5c-8.33301 8.33301 -12.5 19.5 -12.5 33.5c0 13.333 4.16699 24.166 12.5 32.499s19.166 12.5 32.499 12.5s24.333 -4.16699 33 -12.5s13 -19.166 13 -32.499c0 -14 -4.33301 -25.167 -13 -33.5s-19.667 -12.5 -33 -12.5
s-24.166 4.16699 -32.499 12.5z" />
    <glyph glyph-name="Yacute" unicode="&#xdd;" horiz-adv-x="468" 
d="M197 258l-197 398.999h79l88 -191l17 -37c26.667 -58 43 -93 49 -105h4l17 35c28 58.667 44.667 94.334 50 107.001l88 191h77l-198 -399v-258h-74v258zM184 735.999l137 127l42 -49l-147 -115z" />
    <glyph glyph-name="Thorn" unicode="&#xde;" horiz-adv-x="578" 
d="M92 657h74v-112h122c76.667 0 135.834 -14.833 177.501 -44.5s62.5 -78.5 62.5 -146.5c0 -66 -21.333 -115.833 -64 -149.5s-101.334 -50.5 -176.001 -50.5h-122v-154h-74v657zM277 214c60.667 0 105.332 11.333 133.999 34s43 58 43 106s-14.167 81.667 -42.5 101
s-73.166 29 -134.499 29h-111v-270h111z" />
    <glyph glyph-name="germandbls" unicode="&#xdf;" horiz-adv-x="567" 
d="M242 38l30.002 51.001c18.667 -14.667 36.5 -25.667 53.5 -33s35.167 -11 54.5 -11c28 0 49.833 8.33301 65.5 25s23.5 36.667 23.5 60c0 18.667 -4.33301 34.334 -13 47.001s-19 23.167 -31 31.5s-29 18.5 -51 30.5c-22.667 12 -41 22.833 -55 32.5
s-25.833 22.167 -35.5 37.5s-14.5 34.333 -14.5 57c0 20.667 4 38.834 12 54.501s19.667 33.5 35 53.5c14.667 19.333 25.667 36.166 33 50.499s11 30.833 11 49.5c0 26.667 -7.5 48.334 -22.5 65.001s-36.5 25 -64.5 25c-36.667 0 -65.167 -13.5 -85.5 -40.5
s-30.5 -66.833 -30.5 -119.5v-504h-72v519c0 62.667 16.667 112.5 50 149.5s79.666 55.5 138.999 55.5c48.667 0 87 -13.667 115 -41s42 -61.333 42 -102c0 -24.667 -4.5 -45.834 -13.5 -63.501s-21.833 -37.167 -38.5 -58.5c-14 -16.667 -24.333 -31.334 -31 -44.001
s-10 -26.334 -10 -41.001c0 -19.333 6.5 -34.833 19.5 -46.5s33.833 -25.167 62.5 -40.5c25.333 -13.333 45.833 -25.5 61.5 -36.5s29 -26 40 -45s16.5 -42.833 16.5 -71.5c0 -42 -14.333 -76.833 -43 -104.5s-66.334 -41.5 -113.001 -41.5c-50 0 -96.667 16.667 -140 50z
" />
    <glyph glyph-name="agrave" unicode="&#xe0;" horiz-adv-x="501" 
d="M93 24c-26.667 24 -40.001 57.668 -40.001 101.001c0 52.667 24 93.167 72 121.5s124.667 48.166 230 59.499c0 38 -7.83301 69.167 -23.5 93.5s-42.5 36.5 -80.5 36.5c-46 0 -95 -17.667 -147 -53l-29 50c64 42.667 126.667 64 188 64c56 0 97.333 -17.5 124 -52.5
s40 -83.167 40 -144.5v-300h-60l-6 59h-3c-57.333 -47.333 -111.666 -71 -162.999 -71c-41.333 0 -75.333 12 -102 36zM282.499 63.501c22.333 11 46.501 28.167 72.501 51.5v142c-83.333 -10 -142.5 -25.333 -177.5 -46s-52.5 -48 -52.5 -82
c0 -27.333 8.33301 -47.833 25 -61.5s38 -20.5 64 -20.5c23.333 0 46.166 5.5 68.499 16.5zM133 726.001l52 48l140 -164l-38 -37z" />
    <glyph glyph-name="aacute" unicode="&#xe1;" horiz-adv-x="501" 
d="M93 24c-26.667 24 -40.001 57.668 -40.001 101.001c0 52.667 24 93.167 72 121.5s124.667 48.166 230 59.499c0 38 -7.83301 69.167 -23.5 93.5s-42.5 36.5 -80.5 36.5c-46 0 -95 -17.667 -147 -53l-29 50c64 42.667 126.667 64 188 64c56 0 97.333 -17.5 124 -52.5
s40 -83.167 40 -144.5v-300h-60l-6 59h-3c-57.333 -47.333 -111.666 -71 -162.999 -71c-41.333 0 -75.333 12 -102 36zM282.499 63.501c22.333 11 46.501 28.167 72.501 51.5v142c-83.333 -10 -142.5 -25.333 -177.5 -46s-52.5 -48 -52.5 -82
c0 -27.333 8.33301 -47.833 25 -61.5s38 -20.5 64 -20.5c23.333 0 46.166 5.5 68.499 16.5zM213 610.001l140 164l52 -48l-154 -153z" />
    <glyph glyph-name="acircumflex" unicode="&#xe2;" horiz-adv-x="501" 
d="M93 24c-26.667 24 -40.001 57.668 -40.001 101.001c0 52.667 24 93.167 72 121.5s124.667 48.166 230 59.499c0 38 -7.83301 69.167 -23.5 93.5s-42.5 36.5 -80.5 36.5c-46 0 -95 -17.667 -147 -53l-29 50c64 42.667 126.667 64 188 64c56 0 97.333 -17.5 124 -52.5
s40 -83.167 40 -144.5v-300h-60l-6 59h-3c-57.333 -47.333 -111.666 -71 -162.999 -71c-41.333 0 -75.333 12 -102 36zM282.499 63.501c22.333 11 46.501 28.167 72.501 51.5v142c-83.333 -10 -142.5 -25.333 -177.5 -46s-52.5 -48 -52.5 -82
c0 -27.333 8.33301 -47.833 25 -61.5s38 -20.5 64 -20.5c23.333 0 46.166 5.5 68.499 16.5zM118 598.001l115 141h72l115 -141l-32 -29l-117 116h-4l-117 -116z" />
    <glyph glyph-name="atilde" unicode="&#xe3;" horiz-adv-x="501" 
d="M93 24c-26.667 24 -40.001 57.668 -40.001 101.001c0 52.667 24 93.167 72 121.5s124.667 48.166 230 59.499c0 38 -7.83301 69.167 -23.5 93.5s-42.5 36.5 -80.5 36.5c-46 0 -95 -17.667 -147 -53l-29 50c64 42.667 126.667 64 188 64c56 0 97.333 -17.5 124 -52.5
s40 -83.167 40 -144.5v-300h-60l-6 59h-3c-57.333 -47.333 -111.666 -71 -162.999 -71c-41.333 0 -75.333 12 -102 36zM282.499 63.501c22.333 11 46.501 28.167 72.501 51.5v142c-83.333 -10 -142.5 -25.333 -177.5 -46s-52.5 -48 -52.5 -82
c0 -27.333 8.33301 -47.833 25 -61.5s38 -20.5 64 -20.5c23.333 0 46.166 5.5 68.499 16.5zM297 590.501c-12.667 8.33301 -27.001 20.5 -43.001 36.5c-12.667 12.667 -23 22 -31 28s-17 9 -27 9c-28.667 0 -44.667 -27.333 -48 -82l-50 3c2 40.667 10.833 73 26.5 97
s39.834 36 72.501 36c17.333 0 32.333 -4.33301 45 -13s26.667 -21 42 -37c11.333 -12 21.333 -21.167 30 -27.5s18 -9.5 28 -9.5c14.667 0 26 7.5 34 22.5s12.667 35.167 14 60.5l50 -4c-2 -40 -10.833 -72 -26.5 -96s-39.5 -36 -71.5 -36
c-17.333 0 -32.333 4.16699 -45 12.5z" />
    <glyph glyph-name="adieresis" unicode="&#xe4;" horiz-adv-x="501" 
d="M93 24c-26.667 24 -40.001 57.668 -40.001 101.001c0 52.667 24 93.167 72 121.5s124.667 48.166 230 59.499c0 38 -7.83301 69.167 -23.5 93.5s-42.5 36.5 -80.5 36.5c-46 0 -95 -17.667 -147 -53l-29 50c64 42.667 126.667 64 188 64c56 0 97.333 -17.5 124 -52.5
s40 -83.167 40 -144.5v-300h-60l-6 59h-3c-57.333 -47.333 -111.666 -71 -162.999 -71c-41.333 0 -75.333 12 -102 36zM282.499 63.501c22.333 11 46.501 28.167 72.501 51.5v142c-83.333 -10 -142.5 -25.333 -177.5 -46s-52.5 -48 -52.5 -82
c0 -27.333 8.33301 -47.833 25 -61.5s38 -20.5 64 -20.5c23.333 0 46.166 5.5 68.499 16.5zM141.5 603.001c-9 8.66699 -13.5 19.667 -13.5 33s4.5 24.5 13.5 33.5s20.167 13.5 33.5 13.5s24.333 -4.5 33 -13.5s13 -20.167 13 -33.5c0 -12.667 -4.5 -23.5 -13.5 -32.5
s-19.833 -13.5 -32.5 -13.5c-13.333 0 -24.5 4.33301 -33.5 13zM330.5 603.501c-9 9 -13.5 19.833 -13.5 32.5c0 13.333 4.33301 24.5 13 33.5s19.667 13.5 33 13.5s24.5 -4.5 33.5 -13.5s13.5 -20.167 13.5 -33.5s-4.5 -24.333 -13.5 -33s-20.167 -13 -33.5 -13
c-12.667 0 -23.5 4.5 -32.5 13.5z" />
    <glyph glyph-name="aring" unicode="&#xe5;" horiz-adv-x="501" 
d="M93 24c-26.667 24 -40.001 57.668 -40.001 101.001c0 52.667 24 93.167 72 121.5s124.667 48.166 230 59.499c0 38 -7.83301 69.167 -23.5 93.5s-42.5 36.5 -80.5 36.5c-46 0 -95 -17.667 -147 -53l-29 50c64 42.667 126.667 64 188 64c56 0 97.333 -17.5 124 -52.5
s40 -83.167 40 -144.5v-300h-60l-6 59h-3c-57.333 -47.333 -111.666 -71 -162.999 -71c-41.333 0 -75.333 12 -102 36zM282.499 63.501c22.333 11 46.501 28.167 72.501 51.5v142c-83.333 -10 -142.5 -25.333 -177.5 -46s-52.5 -48 -52.5 -82
c0 -27.333 8.33301 -47.833 25 -61.5s38 -20.5 64 -20.5c23.333 0 46.166 5.5 68.499 16.5zM192 580.001c-19.333 18 -29 41.333 -29 70s9.66699 52.167 29 70.5s45 27.5 77 27.5s57.667 -9.16699 77 -27.5s29 -41.833 29 -70.5s-9.66699 -52 -29 -70s-45 -27 -77 -27
s-57.667 9 -77 27zM311 604.501c11.333 11.667 17 26.834 17 45.501c0 19.333 -5.66699 34.833 -17 46.5s-25.333 17.5 -42 17.5s-30.667 -5.83301 -42 -17.5s-17 -27.167 -17 -46.5c0 -18.667 5.66699 -33.834 17 -45.501s25.333 -17.5 42 -17.5s30.667 5.83301 42 17.5z
" />
    <glyph glyph-name="ae" unicode="&#xe6;" horiz-adv-x="785" 
d="M100 24c-26.667 24 -40.0049 57.333 -40.0049 100c0 52.667 23.833 93.334 71.5 122.001s122.834 48.667 225.501 60c0 86.667 -34.333 130 -103 130c-43.333 0 -91 -17.667 -143 -53l-29 50c64 42.667 124 64 180 64c36 0 65.667 -9.5 89 -28.5s40.333 -45.5 51 -79.5
c18.667 34 42 60.5 70 79.5s58.333 28.5 91 28.5c58 0 103.167 -20.333 135.5 -61s48.5 -96.334 48.5 -167.001c0 -16.667 -1 -31 -3 -43h-319c0.666992 -34.667 7.83398 -65.5 21.501 -92.5s32.334 -48 56.001 -63s49.834 -22.5 78.501 -22.5
c22.667 0 43.334 3.5 62.001 10.5s38 17.167 58 30.5l27 -51c-24.667 -16 -49 -28.333 -73 -37s-51.667 -13 -83 -13c-37.333 0 -69.833 8.5 -97.5 25.5s-52.167 39.5 -73.5 67.5c-32 -30 -65.333 -53 -100 -69s-67.667 -24 -99 -24c-41.333 0 -75.333 12 -102 36z
M681.995 275c0 52.667 -10.5 93 -31.5 121s-50.5 42 -88.5 42c-36 0 -66.667 -15 -92 -45s-40.333 -69.333 -45 -118h257zM298.995 68c28 14 53.667 33.333 77 58c-12.667 28.667 -19 64 -19 106l-1 25c-79.333 -10 -136.5 -25.333 -171.5 -46s-52.5 -48 -52.5 -82
c0 -27.333 8.33301 -47.833 25 -61.5s38 -20.5 64 -20.5c24 0 50 7 78 21z" />
    <glyph glyph-name="ccedilla" unicode="&#xe7;" horiz-adv-x="454" 
d="M327 -89.5c12 -11 18 -26.1699 18 -45.5029c0 -54 -53 -83.667 -159 -89l-8 38c40.667 2.66699 69.167 7.83398 85.5 15.501s24.5 19.167 24.5 34.5c0 13.333 -6 23.666 -18 30.999s-32 13 -60 17l37 77c-38.667 4 -73.167 16.667 -103.5 38s-54 50.333 -71 87
s-25.5 79.334 -25.5 128.001c0 52 10.5 97.333 31.5 136s49.167 68.167 84.5 88.5s73.666 30.5 114.999 30.5c52.667 0 99.667 -19.333 141 -58l-38 -48c-16 14.667 -32 25.834 -48 33.501s-33.333 11.5 -52 11.5c-30 0 -57 -8.16699 -81 -24.5
s-42.833 -39.166 -56.5 -68.499s-20.5 -63 -20.5 -101c0 -58 14.333 -104.667 43 -140s66.334 -53 113.001 -53c42 0 81.333 16.667 118 50l32 -49c-38.667 -34.667 -83 -55 -133 -61l-23 -53c24 -6 42 -14.5 54 -25.5z" />
    <glyph glyph-name="egrave" unicode="&#xe8;" 
d="M452 226l-334.999 -0.000976562c3.33301 -56.667 20.833 -100.667 52.5 -132s70.5 -47 116.5 -47c42.667 0 83.667 13 123 39l27 -48c-24 -15.333 -48.667 -27.5 -74 -36.5s-53.666 -13.5 -84.999 -13.5c-42.667 0 -81.5 10.167 -116.5 30.5s-62.667 49.833 -83 88.5
s-30.5 83.667 -30.5 135c0 50.667 10.167 95.334 30.5 134.001s47.166 68.5 80.499 89.5s68.666 31.5 105.999 31.5c60 0 106.833 -20.167 140.5 -60.5s50.5 -95.833 50.5 -166.5c0 -17.333 -1 -32 -3 -44zM390.001 278.999c0 51.333 -11 90.666 -33 117.999
s-52.667 41 -92 41c-36 0 -68 -13.667 -96 -41s-44.667 -66.666 -50 -117.999h271zM130.001 725.999l52 48l140 -164l-38 -37z" />
    <glyph glyph-name="eacute" unicode="&#xe9;" 
d="M452 226l-334.999 -0.000976562c3.33301 -56.667 20.833 -100.667 52.5 -132s70.5 -47 116.5 -47c42.667 0 83.667 13 123 39l27 -48c-24 -15.333 -48.667 -27.5 -74 -36.5s-53.666 -13.5 -84.999 -13.5c-42.667 0 -81.5 10.167 -116.5 30.5s-62.667 49.833 -83 88.5
s-30.5 83.667 -30.5 135c0 50.667 10.167 95.334 30.5 134.001s47.166 68.5 80.499 89.5s68.666 31.5 105.999 31.5c60 0 106.833 -20.167 140.5 -60.5s50.5 -95.833 50.5 -166.5c0 -17.333 -1 -32 -3 -44zM390.001 278.999c0 51.333 -11 90.666 -33 117.999
s-52.667 41 -92 41c-36 0 -68 -13.667 -96 -41s-44.667 -66.666 -50 -117.999h271zM210.001 609.999l140 164l52 -48l-154 -153z" />
    <glyph glyph-name="ecircumflex" unicode="&#xea;" 
d="M452 226l-334.999 -0.000976562c3.33301 -56.667 20.833 -100.667 52.5 -132s70.5 -47 116.5 -47c42.667 0 83.667 13 123 39l27 -48c-24 -15.333 -48.667 -27.5 -74 -36.5s-53.666 -13.5 -84.999 -13.5c-42.667 0 -81.5 10.167 -116.5 30.5s-62.667 49.833 -83 88.5
s-30.5 83.667 -30.5 135c0 50.667 10.167 95.334 30.5 134.001s47.166 68.5 80.499 89.5s68.666 31.5 105.999 31.5c60 0 106.833 -20.167 140.5 -60.5s50.5 -95.833 50.5 -166.5c0 -17.333 -1 -32 -3 -44zM390.001 278.999c0 51.333 -11 90.666 -33 117.999
s-52.667 41 -92 41c-36 0 -68 -13.667 -96 -41s-44.667 -66.666 -50 -117.999h271zM115.001 597.999l115 141h72l115 -141l-32 -29l-117 116h-4l-117 -116z" />
    <glyph glyph-name="edieresis" unicode="&#xeb;" 
d="M452 226l-334.999 -0.000976562c3.33301 -56.667 20.833 -100.667 52.5 -132s70.5 -47 116.5 -47c42.667 0 83.667 13 123 39l27 -48c-24 -15.333 -48.667 -27.5 -74 -36.5s-53.666 -13.5 -84.999 -13.5c-42.667 0 -81.5 10.167 -116.5 30.5s-62.667 49.833 -83 88.5
s-30.5 83.667 -30.5 135c0 50.667 10.167 95.334 30.5 134.001s47.166 68.5 80.499 89.5s68.666 31.5 105.999 31.5c60 0 106.833 -20.167 140.5 -60.5s50.5 -95.833 50.5 -166.5c0 -17.333 -1 -32 -3 -44zM390.001 278.999c0 51.333 -11 90.666 -33 117.999
s-52.667 41 -92 41c-36 0 -68 -13.667 -96 -41s-44.667 -66.666 -50 -117.999h271zM138.501 602.999c-9 8.66699 -13.5 19.667 -13.5 33s4.5 24.5 13.5 33.5s20.167 13.5 33.5 13.5s24.333 -4.5 33 -13.5s13 -20.167 13 -33.5c0 -12.667 -4.5 -23.5 -13.5 -32.5
s-19.833 -13.5 -32.5 -13.5c-13.333 0 -24.5 4.33301 -33.5 13zM327.501 603.499c-9 9 -13.5 19.833 -13.5 32.5c0 13.333 4.33301 24.5 13 33.5s19.667 13.5 33 13.5s24.5 -4.5 33.5 -13.5s13.5 -20.167 13.5 -33.5s-4.5 -24.333 -13.5 -33s-20.167 -13 -33.5 -13
c-12.667 0 -23.5 4.5 -32.5 13.5z" />
    <glyph glyph-name="igrave" unicode="&#xec;" horiz-adv-x="242" 
d="M85 485h72v-485h-72v485zM-14 726l52 48l140 -164l-38 -37z" />
    <glyph glyph-name="iacute" unicode="&#xed;" horiz-adv-x="242" 
d="M85 485h72v-485h-72v485zM66 610l140 164l52 -48l-154 -153z" />
    <glyph glyph-name="icircumflex" unicode="&#xee;" horiz-adv-x="242" 
d="M85 485h72v-485h-72v485zM-29 598l115 141h72l115 -141l-32 -29l-117 116h-4l-117 -116z" />
    <glyph glyph-name="idieresis" unicode="&#xef;" horiz-adv-x="242" 
d="M85 485h72v-485h-72v485zM-5.5 603c-9 8.66699 -13.5 19.667 -13.5 33s4.5 24.5 13.5 33.5s20.167 13.5 33.5 13.5s24.333 -4.5 33 -13.5s13 -20.167 13 -33.5c0 -12.667 -4.5 -23.5 -13.5 -32.5s-19.833 -13.5 -32.5 -13.5c-13.333 0 -24.5 4.33301 -33.5 13z
M183.5 603.5c-9 9 -13.5 19.833 -13.5 32.5c0 13.333 4.33301 24.5 13 33.5s19.667 13.5 33 13.5s24.5 -4.5 33.5 -13.5s13.5 -20.167 13.5 -33.5s-4.5 -24.333 -13.5 -33s-20.167 -13 -33.5 -13c-12.667 0 -23.5 4.5 -32.5 13.5z" />
    <glyph glyph-name="eth" unicode="&#xf0;" horiz-adv-x="542" 
d="M481 256c0 -53.333 -8.83008 -100.17 -26.4971 -140.503s-42.667 -71.666 -75 -93.999s-69.5 -33.5 -111.5 -33.5c-37.333 0 -72.333 9.5 -105 28.5s-58.834 46.333 -78.501 82s-29.5 76.834 -29.5 123.501c0 44 8.83301 82.833 26.5 116.5s42.167 59.834 73.5 78.501
s66.666 28 105.999 28c26.667 0 51.667 -5.5 75 -16.5s43.666 -27.5 60.999 -49.5c-16.667 77.333 -52.667 143.333 -108 198l-141 -73l-21 37l128 66c-32 25.333 -70.333 50.333 -115 75l34 47c55.333 -30 101.333 -60.667 138 -92l142 73l21 -38l-129 -66
c90 -92 135 -208.667 135 -350zM374.503 104.496c23.667 37 35.501 86.5 35.501 148.5c0 14 -0.666992 33.667 -2 59c-20.667 28.667 -42.334 48.5 -65.001 59.5s-46.667 16.5 -72 16.5c-46 0 -82 -15.5 -108 -46.5s-39 -70.833 -39 -119.5c0 -34 6.66699 -64 20 -90
s31 -46.333 53 -61s46.333 -22 73 -22c46 0 80.833 18.5 104.5 55.5z" />
    <glyph glyph-name="ntilde" unicode="&#xf1;" horiz-adv-x="543" 
d="M85 485l59.998 -0.000976562l6 -72h3c26.667 26.667 52.834 47.334 78.501 62.001s53.834 22 84.501 22c50.667 0 88 -15.833 112 -47.5s36 -78.834 36 -141.501v-308h-73v299c0 46.667 -7.5 80.667 -22.5 102s-39.5 32 -73.5 32c-24 0 -46.333 -6.16699 -67 -18.5
s-44.667 -32.166 -72 -59.499v-355h-72v485zM318.998 590.499c-12.667 8.33301 -27.001 20.5 -43.001 36.5c-12.667 12.667 -23 22 -31 28s-17 9 -27 9c-28.667 0 -44.667 -27.333 -48 -82l-50 3c2 40.667 10.833 73 26.5 97s39.834 36 72.501 36
c17.333 0 32.333 -4.33301 45 -13s26.667 -21 42 -37c11.333 -12 21.333 -21.167 30 -27.5s18 -9.5 28 -9.5c14.667 0 26 7.5 34 22.5s12.667 35.167 14 60.5l50 -4c-2 -40 -10.833 -72 -26.5 -96s-39.5 -36 -71.5 -36c-17.333 0 -32.333 4.16699 -45 12.5z" />
    <glyph glyph-name="ograve" unicode="&#xf2;" horiz-adv-x="540" 
d="M159 18.5c-34 20.333 -61.167 49.666 -81.5 87.999s-30.5 83.5 -30.5 135.5s10.167 97.333 30.5 136s47.5 68.167 81.5 88.5s71 30.5 111 30.5s77 -10.167 111 -30.5s61.167 -49.833 81.5 -88.5s30.5 -84 30.5 -136s-10.167 -97.167 -30.5 -135.5
s-47.5 -67.666 -81.5 -87.999s-71 -30.5 -111 -30.5s-77 10.167 -111 30.5zM346.5 73c22.333 16 39.833 38.667 52.5 68s19 63 19 101s-6.33301 71.667 -19 101s-30.167 52.166 -52.5 68.499s-47.833 24.5 -76.5 24.5s-54.167 -8.16699 -76.5 -24.5
s-39.666 -39.166 -51.999 -68.499s-18.5 -63 -18.5 -101c0 -58 13.667 -104.667 41 -140s62.666 -53 105.999 -53c28.667 0 54.167 8 76.5 24zM134 726l52 48l140 -164l-38 -37z" />
    <glyph glyph-name="oacute" unicode="&#xf3;" horiz-adv-x="540" 
d="M159 18.5c-34 20.333 -61.167 49.666 -81.5 87.999s-30.5 83.5 -30.5 135.5s10.167 97.333 30.5 136s47.5 68.167 81.5 88.5s71 30.5 111 30.5s77 -10.167 111 -30.5s61.167 -49.833 81.5 -88.5s30.5 -84 30.5 -136s-10.167 -97.167 -30.5 -135.5
s-47.5 -67.666 -81.5 -87.999s-71 -30.5 -111 -30.5s-77 10.167 -111 30.5zM346.5 73c22.333 16 39.833 38.667 52.5 68s19 63 19 101s-6.33301 71.667 -19 101s-30.167 52.166 -52.5 68.499s-47.833 24.5 -76.5 24.5s-54.167 -8.16699 -76.5 -24.5
s-39.666 -39.166 -51.999 -68.499s-18.5 -63 -18.5 -101c0 -58 13.667 -104.667 41 -140s62.666 -53 105.999 -53c28.667 0 54.167 8 76.5 24zM214 610l140 164l52 -48l-154 -153z" />
    <glyph glyph-name="ocircumflex" unicode="&#xf4;" horiz-adv-x="540" 
d="M159 18.5c-34 20.333 -61.167 49.666 -81.5 87.999s-30.5 83.5 -30.5 135.5s10.167 97.333 30.5 136s47.5 68.167 81.5 88.5s71 30.5 111 30.5s77 -10.167 111 -30.5s61.167 -49.833 81.5 -88.5s30.5 -84 30.5 -136s-10.167 -97.167 -30.5 -135.5
s-47.5 -67.666 -81.5 -87.999s-71 -30.5 -111 -30.5s-77 10.167 -111 30.5zM346.5 73c22.333 16 39.833 38.667 52.5 68s19 63 19 101s-6.33301 71.667 -19 101s-30.167 52.166 -52.5 68.499s-47.833 24.5 -76.5 24.5s-54.167 -8.16699 -76.5 -24.5
s-39.666 -39.166 -51.999 -68.499s-18.5 -63 -18.5 -101c0 -58 13.667 -104.667 41 -140s62.666 -53 105.999 -53c28.667 0 54.167 8 76.5 24zM119 598l115 141h72l115 -141l-32 -29l-117 116h-4l-117 -116z" />
    <glyph glyph-name="otilde" unicode="&#xf5;" horiz-adv-x="540" 
d="M159 18.5c-34 20.333 -61.167 49.666 -81.5 87.999s-30.5 83.5 -30.5 135.5s10.167 97.333 30.5 136s47.5 68.167 81.5 88.5s71 30.5 111 30.5s77 -10.167 111 -30.5s61.167 -49.833 81.5 -88.5s30.5 -84 30.5 -136s-10.167 -97.167 -30.5 -135.5
s-47.5 -67.666 -81.5 -87.999s-71 -30.5 -111 -30.5s-77 10.167 -111 30.5zM346.5 73c22.333 16 39.833 38.667 52.5 68s19 63 19 101s-6.33301 71.667 -19 101s-30.167 52.166 -52.5 68.499s-47.833 24.5 -76.5 24.5s-54.167 -8.16699 -76.5 -24.5
s-39.666 -39.166 -51.999 -68.499s-18.5 -63 -18.5 -101c0 -58 13.667 -104.667 41 -140s62.666 -53 105.999 -53c28.667 0 54.167 8 76.5 24zM298 590.5c-12.667 8.33301 -27.001 20.5 -43.001 36.5c-12.667 12.667 -23 22 -31 28s-17 9 -27 9
c-28.667 0 -44.667 -27.333 -48 -82l-50 3c2 40.667 10.833 73 26.5 97s39.834 36 72.501 36c17.333 0 32.333 -4.33301 45 -13s26.667 -21 42 -37c11.333 -12 21.333 -21.167 30 -27.5s18 -9.5 28 -9.5c14.667 0 26 7.5 34 22.5s12.667 35.167 14 60.5l50 -4
c-2 -40 -10.833 -72 -26.5 -96s-39.5 -36 -71.5 -36c-17.333 0 -32.333 4.16699 -45 12.5z" />
    <glyph glyph-name="odieresis" unicode="&#xf6;" horiz-adv-x="540" 
d="M159 18.5c-34 20.333 -61.167 49.666 -81.5 87.999s-30.5 83.5 -30.5 135.5s10.167 97.333 30.5 136s47.5 68.167 81.5 88.5s71 30.5 111 30.5s77 -10.167 111 -30.5s61.167 -49.833 81.5 -88.5s30.5 -84 30.5 -136s-10.167 -97.167 -30.5 -135.5
s-47.5 -67.666 -81.5 -87.999s-71 -30.5 -111 -30.5s-77 10.167 -111 30.5zM346.5 73c22.333 16 39.833 38.667 52.5 68s19 63 19 101s-6.33301 71.667 -19 101s-30.167 52.166 -52.5 68.499s-47.833 24.5 -76.5 24.5s-54.167 -8.16699 -76.5 -24.5
s-39.666 -39.166 -51.999 -68.499s-18.5 -63 -18.5 -101c0 -58 13.667 -104.667 41 -140s62.666 -53 105.999 -53c28.667 0 54.167 8 76.5 24zM142.5 603c-9 8.66699 -13.5 19.667 -13.5 33s4.5 24.5 13.5 33.5s20.167 13.5 33.5 13.5s24.333 -4.5 33 -13.5
s13 -20.167 13 -33.5c0 -12.667 -4.5 -23.5 -13.5 -32.5s-19.833 -13.5 -32.5 -13.5c-13.333 0 -24.5 4.33301 -33.5 13zM331.5 603.5c-9 9 -13.5 19.833 -13.5 32.5c0 13.333 4.33301 24.5 13 33.5s19.667 13.5 33 13.5s24.5 -4.5 33.5 -13.5s13.5 -20.167 13.5 -33.5
s-4.5 -24.333 -13.5 -33s-20.167 -13 -33.5 -13c-12.667 0 -23.5 4.5 -32.5 13.5z" />
    <glyph glyph-name="divide" unicode="&#xf7;" 
d="M210.5 473.5c-9.66699 9.66699 -14.5 21.834 -14.5 36.501s4.83301 26.667 14.5 36s21.5 14 35.5 14s25.833 -4.66699 35.5 -14s14.5 -21.333 14.5 -36s-4.83301 -26.834 -14.5 -36.501s-21.5 -14.5 -35.5 -14.5s-25.833 4.83301 -35.5 14.5zM34 358h424v-56h-424v56z
M210.5 113.5c-9.66699 9.66699 -14.5 21.834 -14.5 36.501s4.83301 26.667 14.5 36s21.5 14 35.5 14s25.833 -4.66699 35.5 -14s14.5 -21.333 14.5 -36s-4.83301 -26.834 -14.5 -36.501s-21.5 -14.5 -35.5 -14.5s-25.833 4.83301 -35.5 14.5z" />
    <glyph glyph-name="oslash" unicode="&#xf8;" horiz-adv-x="540" 
d="M439 414c36 -45.333 54.001 -102.668 54.001 -172.001c0 -52 -10.167 -97.167 -30.5 -135.5s-47.5 -67.666 -81.5 -87.999s-71 -30.5 -111 -30.5c-25.333 0 -50 4.33301 -74 13s-45.667 21.334 -65 38.001l-51 -62l-34 27l55 66c-36 46.667 -54 104 -54 172
c0 52 10.167 97.333 30.5 136s47.5 68.167 81.5 88.5s71 30.5 111 30.5c25.333 0 50.166 -4.33301 74.499 -13s45.833 -21.334 64.5 -38.001l51 61l34 -27zM146.001 125.998l222.002 269c-26.667 28 -59.334 42 -98.001 42c-28.667 0 -54.334 -8.16699 -77.001 -24.5
s-40.5 -39 -53.5 -68s-19.5 -62.167 -19.5 -99.5c0 -48 8.66699 -87.667 26 -119zM394.003 358.998l-222.001 -270c26.667 -28 59.334 -42 98.001 -42c28.667 0 54.5 8.16699 77.5 24.5s41 39 54 68s19.5 62.167 19.5 99.5c0 46 -9 86 -27 120z" />
    <glyph glyph-name="ugrave" unicode="&#xf9;" horiz-adv-x="540" 
d="M114 35.5c-24 31.667 -35.998 78.834 -35.998 141.501v308h72v-299c0 -46.667 7.66699 -80.834 23 -102.501s40 -32.5 74 -32.5c24.667 0 47.167 6.66699 67.5 20s43.166 35.333 68.499 66v348h73v-485h-61l-6 77h-3c-24.667 -28.667 -49.834 -50.667 -75.501 -66
s-54.167 -23 -85.5 -23c-50 0 -87 15.833 -111 47.5zM137.002 726l52 48l140 -164l-38 -37z" />
    <glyph glyph-name="uacute" unicode="&#xfa;" horiz-adv-x="540" 
d="M114 35.5c-24 31.667 -35.998 78.834 -35.998 141.501v308h72v-299c0 -46.667 7.66699 -80.834 23 -102.501s40 -32.5 74 -32.5c24.667 0 47.167 6.66699 67.5 20s43.166 35.333 68.499 66v348h73v-485h-61l-6 77h-3c-24.667 -28.667 -49.834 -50.667 -75.501 -66
s-54.167 -23 -85.5 -23c-50 0 -87 15.833 -111 47.5zM217.002 610l140 164l52 -48l-154 -153z" />
    <glyph glyph-name="ucircumflex" unicode="&#xfb;" horiz-adv-x="540" 
d="M114 35.5c-24 31.667 -35.998 78.834 -35.998 141.501v308h72v-299c0 -46.667 7.66699 -80.834 23 -102.501s40 -32.5 74 -32.5c24.667 0 47.167 6.66699 67.5 20s43.166 35.333 68.499 66v348h73v-485h-61l-6 77h-3c-24.667 -28.667 -49.834 -50.667 -75.501 -66
s-54.167 -23 -85.5 -23c-50 0 -87 15.833 -111 47.5zM122.002 598l115 141h72l115 -141l-32 -29l-117 116h-4l-117 -116z" />
    <glyph glyph-name="udieresis" unicode="&#xfc;" horiz-adv-x="540" 
d="M114 35.5c-24 31.667 -35.998 78.834 -35.998 141.501v308h72v-299c0 -46.667 7.66699 -80.834 23 -102.501s40 -32.5 74 -32.5c24.667 0 47.167 6.66699 67.5 20s43.166 35.333 68.499 66v348h73v-485h-61l-6 77h-3c-24.667 -28.667 -49.834 -50.667 -75.501 -66
s-54.167 -23 -85.5 -23c-50 0 -87 15.833 -111 47.5zM145.502 603c-9 8.66699 -13.5 19.667 -13.5 33s4.5 24.5 13.5 33.5s20.167 13.5 33.5 13.5s24.333 -4.5 33 -13.5s13 -20.167 13 -33.5c0 -12.667 -4.5 -23.5 -13.5 -32.5s-19.833 -13.5 -32.5 -13.5
c-13.333 0 -24.5 4.33301 -33.5 13zM334.502 603.5c-9 9 -13.5 19.833 -13.5 32.5c0 13.333 4.33301 24.5 13 33.5s19.667 13.5 33 13.5s24.5 -4.5 33.5 -13.5s13.5 -20.167 13.5 -33.5s-4.5 -24.333 -13.5 -33s-20.167 -13 -33.5 -13c-12.667 0 -23.5 4.5 -32.5 13.5z" />
    <glyph glyph-name="yacute" unicode="&#xfd;" horiz-adv-x="459" 
d="M31 -202l14 59c13.333 -5.33301 26 -8 38 -8c26.667 0 49.334 10 68.001 30s33.667 47 45 81l12 37l-196 488h75l104 -278l48 -136h4c9.33301 28 19 58.667 29 92l13 44l91 278h71l-184 -530c-18.667 -52 -41.834 -92.833 -69.501 -122.5s-63.5 -44.5 -107.5 -44.5
c-20 0 -38.333 3.33301 -55 10zM185 610l140 164l52 -48l-154 -153z" />
    <glyph glyph-name="thorn" unicode="&#xfe;" horiz-adv-x="552" 
d="M85 714h71.998v-197l-1 -85c54.667 43.333 105.334 65 152.001 65c62.667 0 110.834 -22.167 144.501 -66.5s50.5 -104.5 50.5 -180.5c0 -53.333 -9.66699 -99.833 -29 -139.5s-45 -70 -77 -91s-66.667 -31.5 -104 -31.5c-44 0 -89.667 18.333 -137 55l1 -84v-167h-72
v922zM356.498 74.5c22.333 16.333 39.834 39.5 52.501 69.5s19 65 19 105c0 58 -10.833 103.5 -32.5 136.5s-55.5 49.5 -101.5 49.5c-40.667 0 -86.334 -23.333 -137.001 -70v-262c22 -18.667 43.667 -32.167 65 -40.5s41 -12.5 59 -12.5c28 0 53.167 8.16699 75.5 24.5z
" />
    <glyph glyph-name="ydieresis" unicode="&#xff;" horiz-adv-x="459" 
d="M31 -202l14 59c13.333 -5.33301 26 -8 38 -8c26.667 0 49.334 10 68.001 30s33.667 47 45 81l12 37l-196 488h75l104 -278l48 -136h4c9.33301 28 19 58.667 29 92l13 44l91 278h71l-184 -530c-18.667 -52 -41.834 -92.833 -69.501 -122.5s-63.5 -44.5 -107.5 -44.5
c-20 0 -38.333 3.33301 -55 10zM113.5 603c-9 8.66699 -13.5 19.667 -13.5 33s4.5 24.5 13.5 33.5s20.167 13.5 33.5 13.5s24.333 -4.5 33 -13.5s13 -20.167 13 -33.5c0 -12.667 -4.5 -23.5 -13.5 -32.5s-19.833 -13.5 -32.5 -13.5c-13.333 0 -24.5 4.33301 -33.5 13z
M302.5 603.5c-9 9 -13.5 19.833 -13.5 32.5c0 13.333 4.33301 24.5 13 33.5s19.667 13.5 33 13.5s24.5 -4.5 33.5 -13.5s13.5 -20.167 13.5 -33.5s-4.5 -24.333 -13.5 -33s-20.167 -13 -33.5 -13c-12.667 0 -23.5 4.5 -32.5 13.5z" />
    <glyph glyph-name="Amacron" unicode="&#x100;" horiz-adv-x="539" 
d="M391 207h-245l-67 -207h-75l225 657h82l224 -657h-78zM372 266l-33.999 106.001c-26.667 83.333 -49.334 157.666 -68.001 222.999h-4c-22 -80.667 -44.333 -155 -67 -223l-34 -106h207zM137.001 789.001h262v-52h-262v52z" />
    <glyph glyph-name="amacron" unicode="&#x101;" horiz-adv-x="501" 
d="M93 24c-26.667 24 -40.001 57.668 -40.001 101.001c0 52.667 24 93.167 72 121.5s124.667 48.166 230 59.499c0 38 -7.83301 69.167 -23.5 93.5s-42.5 36.5 -80.5 36.5c-46 0 -95 -17.667 -147 -53l-29 50c64 42.667 126.667 64 188 64c56 0 97.333 -17.5 124 -52.5
s40 -83.167 40 -144.5v-300h-60l-6 59h-3c-57.333 -47.333 -111.666 -71 -162.999 -71c-41.333 0 -75.333 12 -102 36zM282.499 63.501c22.333 11 46.501 28.167 72.501 51.5v142c-83.333 -10 -142.5 -25.333 -177.5 -46s-52.5 -48 -52.5 -82
c0 -27.333 8.33301 -47.833 25 -61.5s38 -20.5 64 -20.5c23.333 0 46.166 5.5 68.499 16.5zM139 654.001h260v-52h-260v52z" />
    <glyph glyph-name="Abreve" unicode="&#x102;" horiz-adv-x="539" 
d="M391 207h-245l-67 -207h-75l225 657h82l224 -657h-78zM372 266l-33.999 106.001c-26.667 83.333 -49.334 157.666 -68.001 222.999h-4c-22 -80.667 -44.333 -155 -67 -223l-34 -106h207zM167.001 743.001c-24 24 -38 54.333 -42 91l45 8c4 -26 14.333 -47.167 31 -63.5
s39 -24.5 67 -24.5s50.333 8.16699 67 24.5s27 37.5 31 63.5l45 -8c-4 -36.667 -18 -67 -42 -91s-57.667 -36 -101 -36s-77 12 -101 36z" />
    <glyph glyph-name="abreve" unicode="&#x103;" horiz-adv-x="501" 
d="M93 24c-26.667 24 -40.001 57.668 -40.001 101.001c0 52.667 24 93.167 72 121.5s124.667 48.166 230 59.499c0 38 -7.83301 69.167 -23.5 93.5s-42.5 36.5 -80.5 36.5c-46 0 -95 -17.667 -147 -53l-29 50c64 42.667 126.667 64 188 64c56 0 97.333 -17.5 124 -52.5
s40 -83.167 40 -144.5v-300h-60l-6 59h-3c-57.333 -47.333 -111.666 -71 -162.999 -71c-41.333 0 -75.333 12 -102 36zM282.499 63.501c22.333 11 46.501 28.167 72.501 51.5v142c-83.333 -10 -142.5 -25.333 -177.5 -46s-52.5 -48 -52.5 -82
c0 -27.333 8.33301 -47.833 25 -61.5s38 -20.5 64 -20.5c23.333 0 46.166 5.5 68.499 16.5zM158 615.001c-25.333 29.333 -39.668 64.666 -43.001 105.999l47 7c4 -29.333 15 -54.5 33 -75.5s42.667 -31.5 74 -31.5s56 10.5 74 31.5s29 46.167 33 75.5l47 -7
c-3.33301 -41.333 -17.666 -76.666 -42.999 -105.999s-62.333 -44 -111 -44s-85.667 14.667 -111 44z" />
    <glyph glyph-name="Ccaron" unicode="&#x10c;" horiz-adv-x="569" 
d="M189.5 29c-43 27.333 -76.6689 66.667 -101.002 118s-36.5 111.666 -36.5 180.999c0 68.667 12.333 128.834 37 180.501s59 91.334 103 119.001s93.667 41.5 149 41.5c36.667 0 70.334 -7.66699 101.001 -23s56.334 -34.333 77.001 -57l-41 -49
c-38 42.667 -83.333 64 -136 64c-42.667 0 -80 -11.167 -112 -33.5s-56.833 -54 -74.5 -95s-26.5 -89.5 -26.5 -145.5s8.5 -104.833 25.5 -146.5s41.333 -73.834 73 -96.501s68.834 -34 111.501 -34c30.667 0 58.5 6.33301 83.5 19s49.167 31.667 72.5 57l41 -46
c-26.667 -31.333 -56.334 -55 -89.001 -71s-69.667 -24 -111 -24c-54.667 0 -103.5 13.667 -146.5 41zM182.998 820.001l32 24l110 -94h4l110 94l32 -24l-106 -113h-76z" />
    <glyph glyph-name="ccaron" unicode="&#x10d;" horiz-adv-x="454" 
d="M157.5 18.5c-34.333 20.333 -61.332 49.498 -80.999 87.498s-29.5 83.333 -29.5 136c0 52 10.5 97.333 31.5 136s49.167 68.167 84.5 88.5s73.666 30.5 114.999 30.5c52.667 0 99.667 -19.333 141 -58l-38 -48c-16 14.667 -32 25.834 -48 33.501s-33.333 11.5 -52 11.5
c-30 0 -57 -8.16699 -81 -24.5s-42.833 -39.166 -56.5 -68.499s-20.5 -63 -20.5 -101c0 -58 14.333 -104.667 43 -140s66.334 -53 113.001 -53c42 0 81.333 16.667 118 50l32 -49c-22 -19.333 -46.333 -34.5 -73 -45.5s-54.334 -16.5 -83.001 -16.5
c-42.667 0 -81.167 10.167 -115.5 30.5zM121.001 713.998l32 30l117 -117h4l117 117l32 -30l-115 -140h-72z" />
    <glyph glyph-name="Emacron" unicode="&#x112;" horiz-adv-x="524" 
d="M92 657h373v-63h-299v-217h252v-62h-252v-252h309v-63h-383v657zM153 789h262v-52h-262v52z" />
    <glyph glyph-name="emacron" unicode="&#x113;" 
d="M452 226l-334.999 -0.000976562c3.33301 -56.667 20.833 -100.667 52.5 -132s70.5 -47 116.5 -47c42.667 0 83.667 13 123 39l27 -48c-24 -15.333 -48.667 -27.5 -74 -36.5s-53.666 -13.5 -84.999 -13.5c-42.667 0 -81.5 10.167 -116.5 30.5s-62.667 49.833 -83 88.5
s-30.5 83.667 -30.5 135c0 50.667 10.167 95.334 30.5 134.001s47.166 68.5 80.499 89.5s68.666 31.5 105.999 31.5c60 0 106.833 -20.167 140.5 -60.5s50.5 -95.833 50.5 -166.5c0 -17.333 -1 -32 -3 -44zM390.001 278.999c0 51.333 -11 90.666 -33 117.999
s-52.667 41 -92 41c-36 0 -68 -13.667 -96 -41s-44.667 -66.666 -50 -117.999h271zM136.001 653.999h260v-52h-260v52z" />
    <glyph glyph-name="Ebreve" unicode="&#x114;" horiz-adv-x="524" 
d="M92 657h373v-63h-299v-217h252v-62h-252v-252h309v-63h-383v657zM183 743c-24 24 -38 54.333 -42 91l45 8c4 -26 14.333 -47.167 31 -63.5s39 -24.5 67 -24.5s50.333 8.16699 67 24.5s27 37.5 31 63.5l45 -8c-4 -36.667 -18 -67 -42 -91s-57.667 -36 -101 -36
s-77 12 -101 36z" />
    <glyph glyph-name="ebreve" unicode="&#x115;" 
d="M452 226l-334.999 -0.000976562c3.33301 -56.667 20.833 -100.667 52.5 -132s70.5 -47 116.5 -47c42.667 0 83.667 13 123 39l27 -48c-24 -15.333 -48.667 -27.5 -74 -36.5s-53.666 -13.5 -84.999 -13.5c-42.667 0 -81.5 10.167 -116.5 30.5s-62.667 49.833 -83 88.5
s-30.5 83.667 -30.5 135c0 50.667 10.167 95.334 30.5 134.001s47.166 68.5 80.499 89.5s68.666 31.5 105.999 31.5c60 0 106.833 -20.167 140.5 -60.5s50.5 -95.833 50.5 -166.5c0 -17.333 -1 -32 -3 -44zM390.001 278.999c0 51.333 -11 90.666 -33 117.999
s-52.667 41 -92 41c-36 0 -68 -13.667 -96 -41s-44.667 -66.666 -50 -117.999h271zM155.001 614.999c-25.333 29.333 -39.668 64.666 -43.001 105.999l47 7c4 -29.333 15 -54.5 33 -75.5s42.667 -31.5 74 -31.5s56 10.5 74 31.5s29 46.167 33 75.5l47 -7
c-3.33301 -41.333 -17.666 -76.666 -42.999 -105.999s-62.333 -44 -111 -44s-85.667 14.667 -111 44z" />
    <glyph glyph-name="Eogonek" unicode="&#x118;" horiz-adv-x="524" 
d="M348 -187.5c-17.333 15 -26.001 36.165 -26.001 63.498c0 25.333 7.16699 49 21.5 71s31.833 39.667 52.5 53h-304v657h373v-63h-299v-217h252v-62h-252v-252h309v-63h-3c-23.333 -3.33301 -44.5 -15.833 -63.5 -37.5s-28.5 -45.5 -28.5 -71.5
c0 -15.333 4.66699 -27.166 14 -35.499s20.666 -12.5 33.999 -12.5c14.667 0 28.334 4.66699 41.001 14l21 -40c-9.33301 -7.33301 -21.166 -13.666 -35.499 -18.999s-27.833 -8 -40.5 -8c-26.667 0 -48.667 7.5 -66 22.5z" />
    <glyph glyph-name="eogonek" unicode="&#x119;" 
d="M293.5 -183c-16.333 14.667 -24.4971 35.3311 -24.4971 61.998c0 22.667 6 44 18 64s26.333 37.667 43 53c-14 -5.33301 -31.667 -8 -53 -8c-42.667 0 -81.5 10.167 -116.5 30.5s-62.667 49.833 -83 88.5s-30.5 83.667 -30.5 135c0 50.667 10.167 95.334 30.5 134.001
s47.166 68.5 80.499 89.5s68.666 31.5 105.999 31.5c60 0 106.833 -20.167 140.5 -60.5s50.5 -95.833 50.5 -166.5c0 -17.333 -1 -32 -3 -44h-332c2 -54 18 -97.333 48 -130s69.333 -49 118 -49c42.667 0 83.667 13 123 39l27 -48c-42 -30 -71.167 -56.167 -87.5 -78.5
s-24.5 -44.5 -24.5 -66.5c0 -15.333 4.5 -27.166 13.5 -35.499s20.167 -12.5 33.5 -12.5c16 0 29.667 4.33301 41 13l20 -37c-8.66699 -7.33301 -20.334 -13.5 -35.001 -18.5s-28 -7.5 -40 -7.5c-26 0 -47.167 7.33301 -63.5 22zM390.003 278.997
c0 51.333 -10.999 90.668 -32.999 118.001s-52.667 41 -92 41c-37.333 0 -69.833 -14.333 -97.5 -43s-43.834 -67.334 -48.501 -116.001h271z" />
    <glyph glyph-name="Gdotaccent" unicode="&#x120;" horiz-adv-x="614" 
d="M192.5 29c-44.333 27.333 -78.833 66.668 -103.5 118.001s-37 111.666 -37 180.999s12.667 129.666 38 180.999s60.666 90.833 105.999 118.5s97 41.5 155 41.5c72.667 0 135 -26.667 187 -80l-41 -49c-40 42.667 -88 64 -144 64c-45.333 0 -84.833 -11.167 -118.5 -33.5
s-59.667 -54 -78 -95s-27.5 -89.5 -27.5 -145.5c0 -85.333 19.667 -152.833 59 -202.5s94 -74.5 164 -74.5c24.667 0 48.334 3.83301 71.001 11.5s41 17.834 55 30.501v179h-144v62h212v-272c-22 -23.333 -50.333 -41.833 -85 -55.5s-73.334 -20.5 -116.001 -20.5
c-57.333 0 -108.166 13.667 -152.499 41zM313.5 730.002c-10.333 9.33301 -15.5 21.666 -15.5 36.999c0 14 5.16699 25.667 15.5 35s22.833 14 37.5 14s27.167 -4.66699 37.5 -14s15.5 -21 15.5 -35c0 -15.333 -5.16699 -27.666 -15.5 -36.999s-22.833 -14 -37.5 -14
s-27.167 4.66699 -37.5 14z" />
    <glyph glyph-name="gdotaccent" unicode="&#x121;" horiz-adv-x="500" 
d="M101.5 -191c-36.333 23.333 -54.4971 55.335 -54.4971 96.002c0 20.667 6.16699 40.667 18.5 60s29.833 36.666 52.5 51.999v4c-12.667 8 -23 18.667 -31 32s-12 29 -12 47c0 18.667 5.16699 35.834 15.5 51.501s22.833 28.5 37.5 38.5v4c-17.333 14 -32 32.333 -44 55
s-18 47.667 -18 75c0 34 8 64.167 24 90.5s37.667 46.666 65 60.999s57.333 21.5 90 21.5c22 0 44.333 -4 67 -12h168v-57h-103c12.667 -12 23 -27.333 31 -46s12 -38.334 12 -59.001c0 -33.333 -7.66699 -62.833 -23 -88.5s-36.333 -45.5 -63 -59.5
s-56.334 -21 -89.001 -21c-26.667 0 -51.334 5.66699 -74.001 17c-10.667 -8.66699 -18.834 -17.5 -24.501 -26.5s-8.5 -20.167 -8.5 -33.5c0 -17.333 6.5 -30.833 19.5 -40.5s35.167 -14.5 66.5 -14.5h97c56.667 0 98.667 -9.33301 126 -28s41 -47.667 41 -87
c0 -29.333 -10 -56.833 -30 -82.5s-48.333 -46.167 -85 -61.5s-78.667 -23 -126 -23c-60.667 0 -109.167 11.667 -145.5 35zM321.503 237.502c21 22.333 31.501 51.166 31.501 86.499c0 36 -10.333 64.833 -31 86.5s-46.334 32.5 -77.001 32.5s-56.5 -10.833 -77.5 -32.5
s-31.5 -50.5 -31.5 -86.5c0 -35.333 10.5 -64.166 31.5 -86.499s46.833 -33.5 77.5 -33.5c30 0 55.5 11.167 76.5 33.5zM339.504 -159.498c24.333 9.66699 43.168 22.666 56.501 38.999s20 33.5 20 51.5c0 22.667 -8.33301 38.834 -25 48.501s-42 14.5 -76 14.5h-89
c-20.667 0 -41.334 2.66699 -62.001 8c-35.333 -24.667 -53 -53.667 -53 -87c0 -27.333 13 -49 39 -65s61.667 -24 107 -24c30.667 0 58.167 4.83301 82.5 14.5zM222.006 603.001c-9.33301 9.33301 -14 21.666 -14 36.999c0 14.667 4.66699 26.5 14 35.5
s21.333 13.5 36 13.5s26.667 -4.5 36 -13.5s14 -20.833 14 -35.5c0 -15.333 -4.66699 -27.666 -14 -36.999s-21.333 -14 -36 -14s-26.667 4.66699 -36 14z" />
    <glyph glyph-name="Hbar" unicode="&#x126;" horiz-adv-x="683" 
d="M650 492h-73v-492h-74v314h-317v-314h-74v492h-79v39l79 5v121h74v-121h317v121h74v-121h73v-44zM503 492h-317v-113h317v113z" />
    <glyph glyph-name="hbar" unicode="&#x127;" horiz-adv-x="540" 
d="M429 411.5c24 -31.667 36 -78.834 36 -141.501v-270h-73v261c0 46.667 -7.5 80.667 -22.5 102s-39.5 32 -73.5 32c-24 0 -46.333 -6.16699 -67 -18.5s-44.667 -32.166 -72 -59.499v-317h-72v574h-75v39l75 4v97h72v-97h184v-43h-184v-96l-2 -102
c26.667 26.667 52.667 47.167 78 61.5s53.333 21.5 84 21.5c50.667 0 88 -15.833 112 -47.5z" />
    <glyph glyph-name="Imacron" unicode="&#x12a;" horiz-adv-x="257" 
d="M92 657h74v-657h-74v657zM-2 789h262v-52h-262v52z" />
    <glyph glyph-name="imacron" unicode="&#x12b;" horiz-adv-x="242" 
d="M85 485h72v-485h-72v485zM-8 654h260v-52h-260v52z" />
    <glyph glyph-name="dotlessi" unicode="&#x131;" horiz-adv-x="242" 
d="M85 485h72v-485h-72v485z" />
    <glyph glyph-name="Lslash" unicode="&#x141;" horiz-adv-x="483" 
d="M461 63v-63h-364v244l-73 -40l-27 47l100 55v351h74v-318l178 95l27 -48l-205 -108v-215h290z" />
    <glyph glyph-name="lslash" unicode="&#x142;" horiz-adv-x="256" 
d="M202 51l10.001 -56c-12.667 -4.66699 -27.334 -7 -44.001 -7c-27.333 0 -47.333 8.5 -60 25.5s-19 42.167 -19 75.5v251l-60 -38l-28 47l88 55v310h72v-273l54 35l27 -47l-81 -51v-295c0 -11.333 2.16699 -19.833 6.5 -25.5s9.83301 -8.5 16.5 -8.5
c5.33301 0 11.333 0.666992 18 2z" />
    <glyph glyph-name="Omacron" unicode="&#x14c;" horiz-adv-x="661" 
d="M186 30c-42 28 -74.833 68 -98.5 120s-35.5 112.333 -35.5 181s11.833 128.5 35.5 179.5s56.5 90.167 98.5 117.5s90.333 41 145 41c54 0 102 -13.667 144 -41s74.833 -66.5 98.5 -117.5s35.5 -110.833 35.5 -179.5s-11.833 -129 -35.5 -181s-56.5 -92 -98.5 -120
s-90 -42 -144 -42c-54.667 0 -103 14 -145 42zM436.5 87.5c30.333 23 53.832 55.333 70.499 97s25 90.5 25 146.5c0 55.333 -8.33301 103.5 -25 144.5s-40.167 72.667 -70.5 95s-65.5 33.5 -105.5 33.5c-40.667 0 -76.167 -11.167 -106.5 -33.5s-53.833 -54 -70.5 -95
s-25 -89.167 -25 -144.5c0 -56 8.33301 -105 25 -147s40.334 -74.333 71.001 -97s66 -34 106 -34s75.167 11.5 105.5 34.5zM199.999 789h262v-52h-262v52z" />
    <glyph glyph-name="omacron" unicode="&#x14d;" horiz-adv-x="540" 
d="M159 18.5c-34 20.333 -61.167 49.666 -81.5 87.999s-30.5 83.5 -30.5 135.5s10.167 97.333 30.5 136s47.5 68.167 81.5 88.5s71 30.5 111 30.5s77 -10.167 111 -30.5s61.167 -49.833 81.5 -88.5s30.5 -84 30.5 -136s-10.167 -97.167 -30.5 -135.5
s-47.5 -67.666 -81.5 -87.999s-71 -30.5 -111 -30.5s-77 10.167 -111 30.5zM346.5 73c22.333 16 39.833 38.667 52.5 68s19 63 19 101s-6.33301 71.667 -19 101s-30.167 52.166 -52.5 68.499s-47.833 24.5 -76.5 24.5s-54.167 -8.16699 -76.5 -24.5
s-39.666 -39.166 -51.999 -68.499s-18.5 -63 -18.5 -101c0 -58 13.667 -104.667 41 -140s62.666 -53 105.999 -53c28.667 0 54.167 8 76.5 24zM140 654h260v-52h-260v52z" />
    <glyph glyph-name="Obreve" unicode="&#x14e;" horiz-adv-x="661" 
d="M186 30c-42 28 -74.833 68 -98.5 120s-35.5 112.333 -35.5 181s11.833 128.5 35.5 179.5s56.5 90.167 98.5 117.5s90.333 41 145 41c54 0 102 -13.667 144 -41s74.833 -66.5 98.5 -117.5s35.5 -110.833 35.5 -179.5s-11.833 -129 -35.5 -181s-56.5 -92 -98.5 -120
s-90 -42 -144 -42c-54.667 0 -103 14 -145 42zM436.5 87.5c30.333 23 53.832 55.333 70.499 97s25 90.5 25 146.5c0 55.333 -8.33301 103.5 -25 144.5s-40.167 72.667 -70.5 95s-65.5 33.5 -105.5 33.5c-40.667 0 -76.167 -11.167 -106.5 -33.5s-53.833 -54 -70.5 -95
s-25 -89.167 -25 -144.5c0 -56 8.33301 -105 25 -147s40.334 -74.333 71.001 -97s66 -34 106 -34s75.167 11.5 105.5 34.5zM229.999 743c-24 24 -38 54.333 -42 91l45 8c4 -26 14.333 -47.167 31 -63.5s39 -24.5 67 -24.5s50.333 8.16699 67 24.5s27 37.5 31 63.5l45 -8
c-4 -36.667 -18 -67 -42 -91s-57.667 -36 -101 -36s-77 12 -101 36z" />
    <glyph glyph-name="obreve" unicode="&#x14f;" horiz-adv-x="540" 
d="M159 18.5c-34 20.333 -61.167 49.666 -81.5 87.999s-30.5 83.5 -30.5 135.5s10.167 97.333 30.5 136s47.5 68.167 81.5 88.5s71 30.5 111 30.5s77 -10.167 111 -30.5s61.167 -49.833 81.5 -88.5s30.5 -84 30.5 -136s-10.167 -97.167 -30.5 -135.5
s-47.5 -67.666 -81.5 -87.999s-71 -30.5 -111 -30.5s-77 10.167 -111 30.5zM346.5 73c22.333 16 39.833 38.667 52.5 68s19 63 19 101s-6.33301 71.667 -19 101s-30.167 52.166 -52.5 68.499s-47.833 24.5 -76.5 24.5s-54.167 -8.16699 -76.5 -24.5
s-39.666 -39.166 -51.999 -68.499s-18.5 -63 -18.5 -101c0 -58 13.667 -104.667 41 -140s62.666 -53 105.999 -53c28.667 0 54.167 8 76.5 24zM159 615c-25.333 29.333 -39.668 64.666 -43.001 105.999l47 7c4 -29.333 15 -54.5 33 -75.5s42.667 -31.5 74 -31.5
s56 10.5 74 31.5s29 46.167 33 75.5l47 -7c-3.33301 -41.333 -17.666 -76.666 -42.999 -105.999s-62.333 -44 -111 -44s-85.667 14.667 -111 44z" />
    <glyph glyph-name="OE" unicode="&#x152;" horiz-adv-x="844" 
d="M135 88c-55.333 58.667 -83 139.667 -83 243s27.667 183.5 83 240.5s134 85.5 236 85.5h414v-63h-282v-217h235v-62h-235v-252h292v-63h-427c-100 -0 -177.667 29.333 -233 88zM429 61v534.999h-52c-81.333 0 -143 -22.833 -185 -68.5s-63 -111.167 -63 -196.5
s21 -151.666 63 -198.999s103.667 -71 185 -71h52z" />
    <glyph glyph-name="oe" unicode="&#x153;" horiz-adv-x="841" 
d="M155.5 18.5c-33 20.333 -59.3311 49.667 -78.998 88s-29.5 83.5 -29.5 135.5s9.83301 97.333 29.5 136s46.167 68.167 79.5 88.5s69.666 30.5 108.999 30.5c38.667 0 73.834 -11 105.501 -33s56.167 -53.667 73.5 -95c18.667 40 43.167 71.333 73.5 94s63.5 34 99.5 34
c58.667 0 104.5 -20.5 137.5 -61.5s49.5 -96.5 49.5 -166.5c0 -18 -1.33301 -32.333 -4 -43h-323c0.666992 -34.667 8.16699 -65.5 22.5 -92.5s33.333 -48 57 -63s49.834 -22.5 78.501 -22.5c22.667 0 43.667 3.5 63 10.5s39 17.167 59 30.5l27 -51
c-50.667 -33.333 -103.334 -50 -158.001 -50c-38.667 0 -74 11.167 -106 33.5s-57 53.166 -75 92.499c-18.667 -41.333 -43.334 -72.666 -74.001 -93.999s-66.334 -32 -107.001 -32c-39.333 0 -75.5 10.167 -108.5 30.5zM739.002 275.001c0 52.667 -11 93 -33 121
s-52.333 42 -91 42c-35.333 0 -66 -15 -92 -45s-41.333 -69.333 -46 -118h262zM369.002 102.001c26.667 35.333 39.999 82 39.999 140c0 38 -6 71.667 -18 101s-29 52.166 -51 68.499s-47 24.5 -75 24.5c-27.333 0 -51.833 -8.16699 -73.5 -24.5
s-38.667 -39.166 -51 -68.499s-18.5 -63 -18.5 -101s6.16699 -71.667 18.5 -101s29.333 -52 51 -68s46.167 -24 73.5 -24c42.667 0 77.334 17.667 104.001 53z" />
    <glyph glyph-name="Sacute" unicode="&#x15a;" horiz-adv-x="530" 
d="M144.5 14c-39 17.333 -72.834 41.333 -101.501 72l45 51c24 -26 52 -46.5 84 -61.5s65.333 -22.5 100 -22.5c44.667 0 79.834 10.333 105.501 31s38.5 48.334 38.5 83.001c0 22 -4.66699 40.333 -14 55s-21.333 26.334 -36 35.001s-35.334 19 -62.001 31l-95 42
c-38.667 16.667 -70.5 38 -95.5 64s-37.5 60.667 -37.5 104c0 32.667 8.66699 62 26 88s41.5 46.333 72.5 61s65.5 22 103.5 22s73.5 -7.33301 106.5 -22s61.167 -34.334 84.5 -59.001l-40 -47c-43.333 42 -93.666 63 -150.999 63c-38.667 0 -69.667 -9.33301 -93 -28
s-35 -43.334 -35 -74.001c0 -20.667 5.33301 -38 16 -52s23 -25 37 -33s33 -17.333 57 -28l95 -42c43.333 -18 76.833 -40.333 100.5 -67s35.5 -62.667 35.5 -108c0 -34.667 -9 -66 -27 -94s-43.667 -50 -77 -66s-72 -24 -116 -24c-45.333 0 -87.5 8.66699 -126.5 26z
M225.999 736l137 127l42 -49l-147 -115z" />
    <glyph glyph-name="sacute" unicode="&#x15b;" horiz-adv-x="416" 
d="M112 6.5c-31.333 12.333 -59.002 28.501 -83.002 48.501l37 49c24 -19.333 47.333 -34 70 -44s48 -15 76 -15c32 0 56.667 7.66699 74 23s26 34.666 26 57.999s-9.83301 42 -29.5 56s-47.5 27.333 -83.5 40c-46 16.667 -82 34.834 -108 54.501s-39 47.834 -39 84.501
c0 39.333 14.833 71.833 44.5 97.5s69.834 38.5 120.501 38.5c27.333 0 53.666 -5 78.999 -15s48 -23 68 -39l-35 -47c-19.333 14 -37.666 24.667 -54.999 32s-36.333 11 -57 11c-30.667 0 -54 -7.16699 -70 -21.5s-24 -31.833 -24 -52.5
c0 -14.667 4.83301 -27.334 14.5 -38.001s21.5 -19.167 35.5 -25.5s33.667 -14.5 59 -24.5c34 -12.667 60.667 -24 80 -34s36 -24.167 50 -42.5s21 -41.833 21 -70.5c0 -26 -6.83301 -49.833 -20.5 -71.5s-33.667 -38.834 -60 -51.501s-57.5 -19 -93.5 -19
c-33.333 0 -65.666 6.16699 -96.999 18.5zM162.998 610.001l140 164l52 -48l-154 -153z" />
    <glyph glyph-name="Scaron" unicode="&#x160;" horiz-adv-x="530" 
d="M144.5 14c-39 17.333 -72.834 41.333 -101.501 72l45 51c24 -26 52 -46.5 84 -61.5s65.333 -22.5 100 -22.5c44.667 0 79.834 10.333 105.501 31s38.5 48.334 38.5 83.001c0 22 -4.66699 40.333 -14 55s-21.333 26.334 -36 35.001s-35.334 19 -62.001 31l-95 42
c-38.667 16.667 -70.5 38 -95.5 64s-37.5 60.667 -37.5 104c0 32.667 8.66699 62 26 88s41.5 46.333 72.5 61s65.5 22 103.5 22s73.5 -7.33301 106.5 -22s61.167 -34.334 84.5 -59.001l-40 -47c-43.333 42 -93.666 63 -150.999 63c-38.667 0 -69.667 -9.33301 -93 -28
s-35 -43.334 -35 -74.001c0 -20.667 5.33301 -38 16 -52s23 -25 37 -33s33 -17.333 57 -28l95 -42c43.333 -18 76.833 -40.333 100.5 -67s35.5 -62.667 35.5 -108c0 -34.667 -9 -66 -27 -94s-43.667 -50 -77 -66s-72 -24 -116 -24c-45.333 0 -87.5 8.66699 -126.5 26z
M131.999 820l32 24l110 -94h4l110 94l32 -24l-106 -113h-76z" />
    <glyph glyph-name="scaron" unicode="&#x161;" horiz-adv-x="416" 
d="M112 6.5c-31.333 12.333 -59.002 28.501 -83.002 48.501l37 49c24 -19.333 47.333 -34 70 -44s48 -15 76 -15c32 0 56.667 7.66699 74 23s26 34.666 26 57.999s-9.83301 42 -29.5 56s-47.5 27.333 -83.5 40c-46 16.667 -82 34.834 -108 54.501s-39 47.834 -39 84.501
c0 39.333 14.833 71.833 44.5 97.5s69.834 38.5 120.501 38.5c27.333 0 53.666 -5 78.999 -15s48 -23 68 -39l-35 -47c-19.333 14 -37.666 24.667 -54.999 32s-36.333 11 -57 11c-30.667 0 -54 -7.16699 -70 -21.5s-24 -31.833 -24 -52.5
c0 -14.667 4.83301 -27.334 14.5 -38.001s21.5 -19.167 35.5 -25.5s33.667 -14.5 59 -24.5c34 -12.667 60.667 -24 80 -34s36 -24.167 50 -42.5s21 -41.833 21 -70.5c0 -26 -6.83301 -49.833 -20.5 -71.5s-33.667 -38.834 -60 -51.501s-57.5 -19 -93.5 -19
c-33.333 0 -65.666 6.16699 -96.999 18.5zM67.998 714.001l32 30l117 -117h4l117 117l32 -30l-115 -140h-72z" />
    <glyph glyph-name="Umacron" unicode="&#x16a;" horiz-adv-x="643" 
d="M152 53.5c-42 43.667 -62.999 114.5 -62.999 212.5v391h74v-391c0 -76 14.333 -130.5 43 -163.5s67 -49.5 115 -49.5c49.333 0 88.666 16.5 117.999 49.5s44 87.5 44 163.5v391h71v-391c0 -98 -21.167 -168.833 -63.5 -212.5s-98.833 -65.5 -169.5 -65.5
s-127 21.833 -169 65.5zM190.001 789h262v-52h-262v52z" />
    <glyph glyph-name="umacron" unicode="&#x16b;" horiz-adv-x="540" 
d="M114 35.5c-24 31.667 -35.998 78.834 -35.998 141.501v308h72v-299c0 -46.667 7.66699 -80.834 23 -102.501s40 -32.5 74 -32.5c24.667 0 47.167 6.66699 67.5 20s43.166 35.333 68.499 66v348h73v-485h-61l-6 77h-3c-24.667 -28.667 -49.834 -50.667 -75.501 -66
s-54.167 -23 -85.5 -23c-50 0 -87 15.833 -111 47.5zM143.002 654h260v-52h-260v52z" />
    <glyph glyph-name="Ydieresis" unicode="&#x178;" horiz-adv-x="468" 
d="M197 258l-197 398.999h79l88 -191l17 -37c26.667 -58 43 -93 49 -105h4l17 35c28 58.667 44.667 94.334 50 107.001l88 191h77l-198 -399v-258h-74v258zM100 730.499c-8.66699 8.33301 -13 19.5 -13 33.5c0 13.333 4.33301 24.166 13 32.499s19.667 12.5 33 12.5
s24.166 -4.16699 32.499 -12.5s12.5 -19.166 12.5 -32.499c0 -14 -4.16699 -25.167 -12.5 -33.5s-19.166 -12.5 -32.499 -12.5s-24.333 4.16699 -33 12.5zM302.5 730.499c-8.33301 8.33301 -12.5 19.5 -12.5 33.5c0 13.333 4.16699 24.166 12.5 32.499
s19.166 12.5 32.499 12.5s24.333 -4.16699 33 -12.5s13 -19.166 13 -32.499c0 -14 -4.33301 -25.167 -13 -33.5s-19.667 -12.5 -33 -12.5s-24.166 4.16699 -32.499 12.5z" />
    <glyph glyph-name="Zcaron" unicode="&#x17d;" horiz-adv-x="539" 
d="M46 44l354 550h-322v63h414v-44l-354 -550h357v-63h-449v44zM136 820l32 24l110 -94h4l110 94l32 -24l-106 -113h-76z" />
    <glyph glyph-name="zcaron" unicode="&#x17e;" horiz-adv-x="419" 
d="M30 39l263 386h-234v60h326v-39l-263 -386h272v-60h-364v39zM78 714l32 30l117 -117h4l117 117l32 -30l-115 -140h-72z" />
    <glyph glyph-name="uni018F" unicode="&#x18f;" horiz-adv-x="655" 
d="M531 580.5c48 -59 72 -142.503 72 -250.503c0 -71.333 -11.333 -132.666 -34 -183.999s-54.834 -90.5 -96.501 -117.5s-90.5 -40.5 -146.5 -40.5c-55.333 0 -103 13.833 -143 41.5s-70.667 66.834 -92 117.501s-32 110 -32 178l1 21h470
c-2 84.667 -20.5 149.334 -55.5 194.001s-84.833 67 -149.5 67c-32 0 -62 -5.83301 -90 -17.5s-52.333 -27.5 -73 -47.5l-36 51c24.667 22.667 54.334 41 89.001 55s73 21 115 21c86 0 153 -29.5 201 -88.5zM467.5 112.497c35.667 41.667 56.165 100.834 61.498 177.501
h-395c2.66699 -74.667 21.334 -133.334 56.001 -176.001s80 -64 136 -64c58.667 0 105.834 20.833 141.501 62.5z" />
    <glyph glyph-name="florin" unicode="&#x192;" 
d="M289 471l-7.00098 -63.001h129v-57h-136l-27 -244c-7.33301 -66 -23.166 -116.5 -47.499 -151.5s-62.166 -52.5 -113.499 -52.5c-28.667 0 -52.334 5 -71.001 15l15 55c13.333 -6 30 -9.66699 50 -11c30.667 0.666992 53.5 14 68.5 40s25.5 65.667 31.5 119l25 230h-90
v52l69 5h27l6 57c7.33301 68 23.666 119 48.999 153s63 51 113 51c26 0 51.667 -6 77 -18l-16 -57c-10.667 4.66699 -20.167 8.33398 -28.5 11.001s-18.166 4 -29.499 4c-52.667 0 -84 -46 -94 -138z" />
    <glyph glyph-name="Gcaron" unicode="&#x1e6;" horiz-adv-x="614" 
d="M192.5 29c-44.333 27.333 -78.833 66.668 -103.5 118.001s-37 111.666 -37 180.999s12.667 129.666 38 180.999s60.666 90.833 105.999 118.5s97 41.5 155 41.5c72.667 0 135 -26.667 187 -80l-41 -49c-40 42.667 -88 64 -144 64c-45.333 0 -84.833 -11.167 -118.5 -33.5
s-59.667 -54 -78 -95s-27.5 -89.5 -27.5 -145.5c0 -85.333 19.667 -152.833 59 -202.5s94 -74.5 164 -74.5c24.667 0 48.334 3.83301 71.001 11.5s41 17.834 55 30.501v179h-144v62h212v-272c-22 -23.333 -50.333 -41.833 -85 -55.5s-73.334 -20.5 -116.001 -20.5
c-57.333 0 -108.166 13.667 -152.499 41zM207 820.002l32 24l110 -94h4l110 94l32 -24l-106 -113h-76z" />
    <glyph glyph-name="gcaron" unicode="&#x1e7;" horiz-adv-x="500" 
d="M101.5 -191c-36.333 23.333 -54.4971 55.335 -54.4971 96.002c0 20.667 6.16699 40.667 18.5 60s29.833 36.666 52.5 51.999v4c-12.667 8 -23 18.667 -31 32s-12 29 -12 47c0 18.667 5.16699 35.834 15.5 51.501s22.833 28.5 37.5 38.5v4c-17.333 14 -32 32.333 -44 55
s-18 47.667 -18 75c0 34 8 64.167 24 90.5s37.667 46.666 65 60.999s57.333 21.5 90 21.5c22 0 44.333 -4 67 -12h168v-57h-103c12.667 -12 23 -27.333 31 -46s12 -38.334 12 -59.001c0 -33.333 -7.66699 -62.833 -23 -88.5s-36.333 -45.5 -63 -59.5
s-56.334 -21 -89.001 -21c-26.667 0 -51.334 5.66699 -74.001 17c-10.667 -8.66699 -18.834 -17.5 -24.501 -26.5s-8.5 -20.167 -8.5 -33.5c0 -17.333 6.5 -30.833 19.5 -40.5s35.167 -14.5 66.5 -14.5h97c56.667 0 98.667 -9.33301 126 -28s41 -47.667 41 -87
c0 -29.333 -10 -56.833 -30 -82.5s-48.333 -46.167 -85 -61.5s-78.667 -23 -126 -23c-60.667 0 -109.167 11.667 -145.5 35zM321.503 237.502c21 22.333 31.501 51.166 31.501 86.499c0 36 -10.333 64.833 -31 86.5s-46.334 32.5 -77.001 32.5s-56.5 -10.833 -77.5 -32.5
s-31.5 -50.5 -31.5 -86.5c0 -35.333 10.5 -64.166 31.5 -86.499s46.833 -33.5 77.5 -33.5c30 0 55.5 11.167 76.5 33.5zM339.504 -159.498c24.333 9.66699 43.168 22.666 56.501 38.999s20 33.5 20 51.5c0 22.667 -8.33301 38.834 -25 48.501s-42 14.5 -76 14.5h-89
c-20.667 0 -41.334 2.66699 -62.001 8c-35.333 -24.667 -53 -53.667 -53 -87c0 -27.333 13 -49 39 -65s61.667 -24 107 -24c30.667 0 58.167 4.83301 82.5 14.5zM107.006 714.001l32 30l117 -117h4l117 117l32 -30l-115 -140h-72z" />
    <glyph glyph-name="uni0250" unicode="&#x250;" horiz-adv-x="508" 
d="M123.5 42.5c-31 36.333 -46.499 86.167 -46.499 149.5v293h60l7 -70h2c24.667 25.333 52.167 45.333 82.5 60s61.166 22 92.499 22c38.667 0 70 -11 94 -33s36 -53 36 -93c0 -55.333 -24 -98.333 -72 -129s-124.333 -52 -229 -64c0 -36.667 9.66699 -67.5 29 -92.5
s52.333 -37.5 99 -37.5c44 0 90.333 18 139 54l30 -51c-60 -42 -119.333 -63 -178 -63c-66 0 -114.5 18.167 -145.5 54.5zM327.001 275.501c35.333 21.667 53 50.501 53 86.501c0 25.333 -7.5 44.166 -22.5 56.499s-34.5 18.5 -58.5 18.5c-49.333 0 -99 -26.333 -149 -79
v-130c82.667 10 141.667 25.833 177 47.5z" />
    <glyph glyph-name="uni0254" unicode="&#x254;" horiz-adv-x="454" 
d="M98 4.5c-26.667 11 -51.001 26.167 -73.001 45.5l32 49c36.667 -33.333 76 -50 118 -50c46 0 83.5 17.667 112.5 53s43.5 82 43.5 140c0 38 -6.5 71.667 -19.5 101s-30.667 52.166 -53 68.499s-47.5 24.5 -75.5 24.5c-22.667 0 -42.5 -3.83301 -59.5 -11.5
s-34.167 -18.834 -51.5 -33.501l-38 48c21.333 18 44.333 32.167 69 42.5s54 15.5 88 15.5c38.667 0 74.334 -10.167 107.001 -30.5s58.834 -49.666 78.501 -87.999s29.5 -83.833 29.5 -136.5c0 -52 -9.83301 -97.167 -29.5 -135.5s-46.5 -67.666 -80.5 -87.999
s-72.333 -30.5 -115 -30.5c-28.667 0 -56.334 5.5 -83.001 16.5z" />
    <glyph glyph-name="uni0259" unicode="&#x259;" 
d="M91 50.5c-36 41.667 -53.998 98.835 -53.998 171.502c0 14 1.33301 29 4 45h332c-2 51.333 -16.333 92.666 -43 123.999s-62.334 47 -107.001 47s-87.334 -14.333 -128.001 -43l-27 52c50.667 33.333 106 50 166 50c40.667 0 77 -10 109 -30s57 -49.167 75 -87.5
s27 -83.833 27 -136.5c0 -51.333 -9.16699 -96.333 -27.5 -135s-43.333 -68.334 -75 -89.001s-67.167 -31 -106.5 -31c-60.667 0 -109 20.833 -145 62.5zM330.002 91.001c24 29.333 38.333 70.333 43 123h-271c0 -54.667 11.833 -96.167 35.5 -124.5
s56.167 -42.5 97.5 -42.5c39.333 0 71 14.667 95 44z" />
    <glyph glyph-name="uni025B" unicode="&#x25b;" horiz-adv-x="436" 
d="M107 28c-37.333 26.667 -55.999 61.666 -55.999 104.999c0 32.667 10.167 59 30.5 79s46.166 34.333 77.499 43v4c-25.333 9.33301 -45.333 23.833 -60 43.5s-22 41.167 -22 64.5c0 41.333 16.667 73.333 50 96s74.333 34 123 34c51.333 0 100 -16.333 146 -49l-30 -49
c-20 12.667 -39 22.334 -57 29.001s-37 10 -57 10c-30 0 -54.5 -6.83301 -73.5 -20.5s-28.5 -33.167 -28.5 -58.5c0 -24.667 10 -44.167 30 -58.5s49.667 -21.5 89 -21.5h53v-53h-67c-42 0 -74.333 -7.5 -97 -22.5s-34 -36.5 -34 -64.5s12 -50.333 36 -67s55.667 -25 95 -25
c23.333 0 45.166 3.5 65.499 10.5s41.5 18.833 63.5 35.5l32 -49c-27.333 -20 -54.166 -34.333 -80.499 -43s-55.833 -13 -88.5 -13c-56 0 -102.667 13.333 -140 40z" />
    <glyph glyph-name="uni0283" unicode="&#x283;" horiz-adv-x="242" 
d="M-38 -208l14.998 56.001c16 -5.33301 31.667 -8 47 -8c23.333 0 39.333 8 48 24s13 40.333 13 73v634c0 51.333 10.833 90.333 32.5 117s56.5 40 104.5 40c20.667 0 40.334 -4.33301 59.001 -13l-15 -56c-15.333 6 -27.666 9 -36.999 9c-27.333 0 -46 -8.16699 -56 -24.5
s-15 -40.833 -15 -73.5v-634c0 -50.667 -10.167 -89.334 -30.5 -116.001s-52.5 -40 -96.5 -40c-23.333 0 -46.333 4 -69 12z" />
    <glyph glyph-name="uni028E" unicode="&#x28e;" horiz-adv-x="459" 
d="M208 560c18 51.333 40.834 91.833 68.501 121.5s63.5 44.5 107.5 44.5c20 0 38.333 -3.33301 55 -10l-14 -58c-15.333 4.66699 -28 7 -38 7c-26.667 0 -49.334 -9.83301 -68.001 -29.5s-33.667 -46.5 -45 -80.5l-22 -67l195 -488h-75l-103 277l-35 96
c-3.33301 12 -8 25.667 -14 41h-4l-19 -63c-14 -45.333 -21.667 -70 -23 -74l-90 -277h-72z" />
    <glyph glyph-name="uni0292" unicode="&#x292;" horiz-adv-x="419" 
d="M86.5 -199c-30.333 14 -58.167 32.667 -83.5 56l37 47c20.667 -19.333 42.834 -34.666 66.501 -45.999s52.5 -17 86.5 -17c24.667 0 47.167 6.5 67.5 19.5s36.666 31.167 48.999 54.5s18.5 50 18.5 80c0 43.333 -12.167 77.166 -36.5 101.499s-58.833 36.5 -103.5 36.5
c-13.333 0 -23.833 -1.16699 -31.5 -3.5s-18.5 -6.83301 -32.5 -13.5l-30 43l197 266h-247v60h336v-39l-194 -262c16 1.33301 27 2 33 2c56 0 100.5 -17.5 133.5 -52.5s49.5 -80.167 49.5 -135.5c0 -44.667 -9.5 -83.5 -28.5 -116.5s-44 -58.167 -75 -75.5
s-64.5 -26 -100.5 -26c-44 0 -81.167 7 -111.5 21z" />
    <glyph glyph-name="uni0294" unicode="&#x294;" horiz-adv-x="412" 
d="M149 325c60 34 103.167 66.832 129.5 98.499s39.5 68.834 39.5 111.501c0 40 -11.333 71.667 -34 95s-54.667 35 -96 35c-32.667 0 -60.834 -6.66699 -84.501 -20s-45.5 -31.333 -65.5 -54l-39 48c52.667 58 117 87 193 87c58.667 0 106.667 -16.5 144 -49.5
s56 -79.833 56 -140.5c0 -52.667 -14.167 -97.167 -42.5 -133.5s-71.166 -73.5 -128.499 -111.5v-291h-72v325z" />
    <glyph glyph-name="uni0295" unicode="&#x295;" horiz-adv-x="433" 
d="M200 291c-57.333 38 -100.166 75.168 -128.499 111.501s-42.5 80.833 -42.5 133.5c0 60 19.667 106.667 59 140s89.666 50 150.999 50c72 0 133 -29 183 -87l-39 -48c-18 22.667 -38.167 40.667 -60.5 54s-48.5 20 -78.5 20c-44 0 -78.5 -11.667 -103.5 -35
s-37.5 -55 -37.5 -95c0 -42.667 13.167 -79.834 39.5 -111.501s69.833 -64.5 130.5 -98.5v-325h-73v291z" />
    <glyph glyph-name="uni02A7" unicode="&#x2a7;" horiz-adv-x="418" 
d="M292 -208l14 56.001c17.333 -5.33301 33 -8 47 -8c23.333 0 39.5 8.16699 48.5 24.5s13.5 40.5 13.5 72.5v634c0 50.667 10.833 89.5 32.5 116.5s56.167 40.5 103.5 40.5c22 0 41.667 -4.33301 59 -13l-14 -56c-15.333 6 -28 9 -38 9
c-26.667 0 -45.167 -8.16699 -55.5 -24.5s-15.5 -40.833 -15.5 -73.5v-634c0 -50.667 -10 -89.334 -30 -116.001s-52.333 -40 -97 -40c-24 0 -46.667 4 -68 12zM129 29.001c-20.667 27.333 -31 66.333 -31 117v279h-73v55l76 5l9 137h61v-137h133v-60h-133v-281
c0 -32 5.83301 -56 17.5 -72s31.5 -24 59.5 -24c14 0 32.667 4.33301 56 13l15 -55c-36 -12 -65 -18 -87 -18c-48 0 -82.333 13.667 -103 41z" />
    <glyph glyph-name="uni02B9" unicode="&#x2b9;" horiz-adv-x="242" 
 />
    <glyph glyph-name="circumflex" unicode="&#x2c6;" horiz-adv-x="540" 
d="M119 598l115 141h72l115 -141l-32 -29l-117 116h-4l-117 -116z" />
    <glyph glyph-name="caron" unicode="&#x2c7;" horiz-adv-x="540" 
d="M119 714l32 30l117 -117h4l117 117l32 -30l-115 -140h-72z" />
    <glyph glyph-name="uni02C8" unicode="&#x2c8;" horiz-adv-x="110" 
d="M23 726h63l-6 -194h-51z" />
    <glyph glyph-name="uni02D0" unicode="&#x2d0;" horiz-adv-x="242" 
d="M85 372h72l3 -128h-78zM82 217h78l-3 -130h-72z" />
    <glyph glyph-name="breve" unicode="&#x2d8;" horiz-adv-x="540" 
d="M159 615c-25.333 29.333 -39.668 64.666 -43.001 105.999l47 7c4 -29.333 15 -54.5 33 -75.5s42.667 -31.5 74 -31.5s56 10.5 74 31.5s29 46.167 33 75.5l47 -7c-3.33301 -41.333 -17.666 -76.666 -42.999 -105.999s-62.333 -44 -111 -44s-85.667 14.667 -111 44z" />
    <glyph glyph-name="dotaccent" unicode="&#x2d9;" horiz-adv-x="540" 
d="M234 603c-9.33301 9.33301 -14 21.666 -14 36.999c0 14.667 4.66699 26.5 14 35.5s21.333 13.5 36 13.5s26.667 -4.5 36 -13.5s14 -20.833 14 -35.5c0 -15.333 -4.66699 -27.666 -14 -36.999s-21.333 -14 -36 -14s-26.667 4.66699 -36 14z" />
    <glyph glyph-name="ring" unicode="&#x2da;" horiz-adv-x="540" 
d="M193 580c-19.333 18 -29 41.333 -29 70s9.66699 52.167 29 70.5s45 27.5 77 27.5s57.667 -9.16699 77 -27.5s29 -41.833 29 -70.5s-9.66699 -52 -29 -70s-45 -27 -77 -27s-57.667 9 -77 27zM312 604.5c11.333 11.667 17 26.834 17 45.501
c0 19.333 -5.66699 34.833 -17 46.5s-25.333 17.5 -42 17.5s-30.667 -5.83301 -42 -17.5s-17 -27.167 -17 -46.5c0 -18.667 5.66699 -33.834 17 -45.501s25.333 -17.5 42 -17.5s30.667 5.83301 42 17.5z" />
    <glyph glyph-name="ogonek" unicode="&#x2db;" horiz-adv-x="540" 
 />
    <glyph glyph-name="tilde" unicode="&#x2dc;" horiz-adv-x="540" 
d="M298 590.5c-12.667 8.33301 -27.001 20.5 -43.001 36.5c-12.667 12.667 -23 22 -31 28s-17 9 -27 9c-28.667 0 -44.667 -27.333 -48 -82l-50 3c2 40.667 10.833 73 26.5 97s39.834 36 72.501 36c17.333 0 32.333 -4.33301 45 -13s26.667 -21 42 -37
c11.333 -12 21.333 -21.167 30 -27.5s18 -9.5 28 -9.5c14.667 0 26 7.5 34 22.5s12.667 35.167 14 60.5l50 -4c-2 -40 -10.833 -72 -26.5 -96s-39.5 -36 -71.5 -36c-17.333 0 -32.333 4.16699 -45 12.5z" />
    <glyph glyph-name="hungarumlaut" unicode="&#x2dd;" horiz-adv-x="540" 
d="M178 587l87 172l52 -27l-98 -164zM325 587l87 172l52 -27l-98 -164z" />
    <glyph glyph-name="gravecomb" unicode="&#x300;" horiz-adv-x="0" 
d="M-136 726l52 48l140 -164l-38 -37z" />
    <glyph glyph-name="acutecomb" unicode="&#x301;" horiz-adv-x="0" 
d="M-56 610l140 164l52 -48l-154 -153z" />
    <glyph glyph-name="uni0302" unicode="&#x302;" horiz-adv-x="0" 
d="M-151 598l115 141h72l115 -141l-32 -29l-117 116h-4l-117 -116z" />
    <glyph glyph-name="tildecomb" unicode="&#x303;" horiz-adv-x="0" 
d="M28 590.5c-12.667 8.33301 -27.001 20.5 -43.001 36.5c-12.667 12.667 -23 22 -31 28s-17 9 -27 9c-28.667 0 -44.667 -27.333 -48 -82l-50 3c2 40.667 10.833 73 26.5 97s39.834 36 72.501 36c17.333 0 32.333 -4.33301 45 -13s26.667 -21 42 -37
c11.333 -12 21.333 -21.167 30 -27.5s18 -9.5 28 -9.5c14.667 0 26 7.5 34 22.5s12.667 35.167 14 60.5l50 -4c-2 -40 -10.833 -72 -26.5 -96s-39.5 -36 -71.5 -36c-17.333 0 -32.333 4.16699 -45 12.5z" />
    <glyph glyph-name="uni0304" unicode="&#x304;" horiz-adv-x="0" 
d="M-130 654h260v-52h-260v52z" />
    <glyph glyph-name="uni0306" unicode="&#x306;" horiz-adv-x="0" 
d="M-111 615c-25.333 29.333 -39.668 64.666 -43.001 105.999l47 7c4 -29.333 15 -54.5 33 -75.5s42.667 -31.5 74 -31.5s56 10.5 74 31.5s29 46.167 33 75.5l47 -7c-3.33301 -41.333 -17.666 -76.666 -42.999 -105.999s-62.333 -44 -111 -44s-85.667 14.667 -111 44z" />
    <glyph glyph-name="uni0307" unicode="&#x307;" horiz-adv-x="0" 
d="M-36 603c-9.33301 9.33301 -14 21.666 -14 36.999c0 14.667 4.66699 26.5 14 35.5s21.333 13.5 36 13.5s26.667 -4.5 36 -13.5s14 -20.833 14 -35.5c0 -15.333 -4.66699 -27.666 -14 -36.999s-21.333 -14 -36 -14s-26.667 4.66699 -36 14z" />
    <glyph glyph-name="uni0308" unicode="&#x308;" horiz-adv-x="0" 
d="M-127.5 603c-9 8.66699 -13.5 19.667 -13.5 33s4.5 24.5 13.5 33.5s20.167 13.5 33.5 13.5s24.333 -4.5 33 -13.5s13 -20.167 13 -33.5c0 -12.667 -4.5 -23.5 -13.5 -32.5s-19.833 -13.5 -32.5 -13.5c-13.333 0 -24.5 4.33301 -33.5 13zM61.5 603.5
c-9 9 -13.5 19.833 -13.5 32.5c0 13.333 4.33301 24.5 13 33.5s19.667 13.5 33 13.5s24.5 -4.5 33.5 -13.5s13.5 -20.167 13.5 -33.5s-4.5 -24.333 -13.5 -33s-20.167 -13 -33.5 -13c-12.667 0 -23.5 4.5 -32.5 13.5z" />
    <glyph glyph-name="uni030A" unicode="&#x30a;" horiz-adv-x="0" 
d="M-77 580c-19.333 18 -29 41.333 -29 70s9.66699 52.167 29 70.5s45 27.5 77 27.5s57.667 -9.16699 77 -27.5s29 -41.833 29 -70.5s-9.66699 -52 -29 -70s-45 -27 -77 -27s-57.667 9 -77 27zM42 604.5c11.333 11.667 17 26.834 17 45.501
c0 19.333 -5.66699 34.833 -17 46.5s-25.333 17.5 -42 17.5s-30.667 -5.83301 -42 -17.5s-17 -27.167 -17 -46.5c0 -18.667 5.66699 -33.834 17 -45.501s25.333 -17.5 42 -17.5s30.667 5.83301 42 17.5z" />
    <glyph glyph-name="uni030B" unicode="&#x30b;" horiz-adv-x="0" 
d="M-92 587l87 172l52 -27l-98 -164zM55 587l87 172l52 -27l-98 -164z" />
    <glyph glyph-name="uni030C" unicode="&#x30c;" horiz-adv-x="0" 
d="M-151 714l32 30l117 -117h4l117 117l32 -30l-115 -140h-72z" />
    <glyph glyph-name="uni031E" unicode="&#x31e;" horiz-adv-x="0" 
d="M-23 -142h-71v44h188v-44h-71v-105h-46v105z" />
    <glyph glyph-name="dotbelowcomb" unicode="&#x323;" horiz-adv-x="0" 
d="M-36 -189c-9.33301 9.33301 -14 21.666 -14 36.999c0 14.667 4.66699 26.5 14 35.5s21.333 13.5 36 13.5s26.667 -4.5 36 -13.5s14 -20.833 14 -35.5c0 -15.333 -4.66699 -27.666 -14 -36.999s-21.333 -14 -36 -14s-26.667 4.66699 -36 14z" />
    <glyph glyph-name="uni0327" unicode="&#x327;" horiz-adv-x="0" 
d="M-92 -186c40.667 2.66699 69.167 7.83398 85.5 15.501s24.5 19.167 24.5 34.5c0 13.333 -6 23.666 -18 30.999s-32 13 -60 17l43 91h49l-29 -67c24 -6 42 -14.5 54 -25.5s18 -26.167 18 -45.5c0 -54 -53 -83.667 -159 -89z" />
    <glyph glyph-name="uni032E" unicode="&#x32e;" horiz-adv-x="0" 
d="M-111 -187c-25.333 29.333 -39.668 64.666 -43.001 105.999l47 7c4 -29.333 15 -54.5 33 -75.5s42.667 -31.5 74 -31.5s56 10.5 74 31.5s29 46.167 33 75.5l47 -7c-3.33301 -41.333 -17.666 -76.666 -42.999 -105.999s-62.333 -44 -111 -44s-85.667 14.667 -111 44z" />
    <glyph glyph-name="uni0331" unicode="&#x331;" horiz-adv-x="0" 
d="M-130 -116h260v-52h-260v52z" />
    <glyph glyph-name="uni0361" unicode="&#x361;" horiz-adv-x="0" 
d="M-454 590c138.667 84.667 290 127 454 127s315.333 -42.333 454 -127l-22 -38c-61.333 38 -129.5 66.333 -204.5 85s-150.833 28 -227.5 28s-152.5 -9.33301 -227.5 -28s-143.167 -47 -204.5 -85z" />
    <glyph glyph-name="theta" unicode="&#x3b8;" horiz-adv-x="518" 
d="M404.5 631c35 -63.333 52.498 -153.666 52.498 -270.999c0 -126 -17.167 -219.5 -51.5 -280.5s-83.166 -91.5 -146.499 -91.5s-112.166 30.5 -146.499 91.5s-51.5 154.5 -51.5 280.5c0 117.333 17.5 207.666 52.5 270.999s83.5 95 145.5 95s110.5 -31.667 145.5 -95z
M170.498 596c-22.333 -46 -34.833 -115.333 -37.5 -208h252c-2.66699 92.667 -15.167 162 -37.5 208s-51.833 69 -88.5 69s-66.167 -23 -88.5 -69zM384.998 335h-252c3.33301 -190.667 45.333 -286 126 -286s122.667 95.333 126 286z" />
    <glyph glyph-name="pi" unicode="&#x3c0;" horiz-adv-x="578" 
d="M403.5 16.5c-15.667 19 -23.498 47.833 -23.498 86.5l2 137l3 183h-181c0 -61.333 -2.5 -125.666 -7.5 -192.999s-12.167 -145.333 -21.5 -234l-74 4c23.333 146.667 35 287.667 35 423h-113v57l69 5h462v-62h-99c-4.66699 -88 -7 -196.667 -7 -326
c0 -16.667 3.66699 -28.834 11 -36.501s18.666 -11.5 33.999 -11.5c5.33301 0 18.666 1.66699 39.999 5l10 -56c-21.333 -6.66699 -42.666 -10 -63.999 -10c-34.667 0 -59.834 9.5 -75.501 28.5z" />
    <glyph glyph-name="chi" unicode="&#x3c7;" horiz-adv-x="474" 
d="M9 -179l194 342l-190 314l72 20l152 -268h4l130 256h78l-173 -321l204 -336l-70 -19l-169 294h-4l-155 -294z" />
    <glyph glyph-name="uni05B0" unicode="&#x5b0;" horiz-adv-x="0" 
d="M85 -84c5.33301 -6 8 -13.333 8 -22s-2.66699 -16 -8 -22s-12.333 -9 -21 -9s-15.834 3.16699 -21.501 9.5s-8.5 13.5 -8.5 21.5s2.83301 15.167 8.5 21.5s12.834 9.5 21.501 9.5s15.667 -3 21 -9zM85 -179c5.33301 -6.66699 8 -14.334 8 -23.001s-2.66699 -16 -8 -22
s-12.333 -9 -21 -9s-15.834 3.16699 -21.501 9.5s-8.5 13.5 -8.5 21.5c0 8.66699 2.83301 16.334 8.5 23.001s12.834 10 21.501 10s15.667 -3.33301 21 -10z" />
    <glyph glyph-name="uni05B1" unicode="&#x5b1;" horiz-adv-x="0" 
d="M85 -84c5.33301 -6 8 -13.333 8 -22s-2.66699 -16 -8 -22s-12.333 -9 -21 -9s-15.834 3.16699 -21.501 9.5s-8.5 13.5 -8.5 21.5s2.83301 15.167 8.5 21.5s12.834 9.5 21.501 9.5s15.667 -3 21 -9zM189 -84c5.33301 -6 8 -13.333 8 -22s-2.66699 -16 -8 -22
s-12.333 -9 -21 -9s-15.834 3.16699 -21.501 9.5s-8.5 13.5 -8.5 21.5s2.83301 15.167 8.5 21.5s12.834 9.5 21.501 9.5s15.667 -3 21 -9zM293 -84c5.33301 -6 8 -13.333 8 -22s-2.66699 -16 -8 -22s-12.333 -9 -21 -9s-15.834 3.16699 -21.501 9.5s-8.5 13.5 -8.5 21.5
s2.83301 15.167 8.5 21.5s12.834 9.5 21.501 9.5s15.667 -3 21 -9zM136 -179c5.33301 -6.66699 8 -14.333 8 -23s-2.66699 -16 -8 -22s-12.333 -9 -21 -9c-8 0 -15 3.16699 -21 9.5s-9 13.5 -9 21.5s3 15.5 9 22.5s13 10.5 21 10.5c8.66699 0 15.667 -3.33301 21 -10z
M293 -178.999c5.33301 -6.66699 8 -14.334 8 -23.001s-2.66699 -16 -8 -22s-12.333 -9 -21 -9s-15.834 3.16699 -21.501 9.5s-8.5 13.5 -8.5 21.5c0 8.66699 2.83301 16.334 8.5 23.001s12.834 10 21.501 10s15.667 -3.33301 21 -10z" />
    <glyph glyph-name="uni05B2" unicode="&#x5b2;" horiz-adv-x="0" 
d="M282 -84c5.33301 -6 8 -13.333 8 -22s-2.66699 -16 -8 -22s-12.333 -9 -21 -9s-15.834 3.16699 -21.501 9.5s-8.5 13.5 -8.5 21.5s2.83301 15.167 8.5 21.5s12.834 9.5 21.501 9.5s15.667 -3 21 -9zM192 -120h-158v35h158v-35zM282 -179
c5.33301 -6.66699 8 -14.334 8 -23.001s-2.66699 -16 -8 -22s-12.333 -9 -21 -9s-15.834 3.16699 -21.501 9.5s-8.5 13.5 -8.5 21.5c0 8.66699 2.83301 16.334 8.5 23.001s12.834 10 21.501 10s15.667 -3.33301 21 -10z" />
    <glyph glyph-name="uni05B3" unicode="&#x5b3;" horiz-adv-x="0" 
d="M282 -84c5.33301 -6 8 -13.333 8 -22s-2.66699 -16 -8 -22s-12.333 -9 -21 -9s-15.834 3.16699 -21.501 9.5s-8.5 13.5 -8.5 21.5s2.83301 15.167 8.5 21.5s12.834 9.5 21.501 9.5s15.667 -3 21 -9zM192 -120h-67l7 -100h-39l7 100h-66v35h158v-35zM282 -179
c5.33301 -6.66699 8 -14.334 8 -23.001s-2.66699 -16 -8 -22s-12.333 -9 -21 -9s-15.834 3.16699 -21.501 9.5s-8.5 13.5 -8.5 21.5c0 8.66699 2.83301 16.334 8.5 23.001s12.834 10 21.501 10s15.667 -3.33301 21 -10z" />
    <glyph glyph-name="uni05B4" unicode="&#x5b4;" horiz-adv-x="0" 
d="M85 -84c5.33301 -6 8 -13.333 8 -22s-2.66699 -16 -8 -22s-12.333 -9 -21 -9s-15.834 3.16699 -21.501 9.5s-8.5 13.5 -8.5 21.5s2.83301 15.167 8.5 21.5s12.834 9.5 21.501 9.5s15.667 -3 21 -9z" />
    <glyph glyph-name="uni05B5" unicode="&#x5b5;" horiz-adv-x="0" 
d="M85 -84c5.33301 -6 8 -13.333 8 -22s-2.66699 -16 -8 -22s-12.333 -9 -21 -9s-15.834 3.16699 -21.501 9.5s-8.5 13.5 -8.5 21.5s2.83301 15.167 8.5 21.5s12.834 9.5 21.501 9.5s15.667 -3 21 -9zM192 -84c5.33301 -6 8 -13.333 8 -22s-2.66699 -16 -8 -22
s-12.333 -9 -21 -9c-8 0 -15 3.16699 -21 9.5s-9 13.5 -9 21.5s3 15.167 9 21.5s13 9.5 21 9.5c8.66699 0 15.667 -3 21 -9z" />
    <glyph glyph-name="uni05B6" unicode="&#x5b6;" horiz-adv-x="0" 
d="M85 -84c5.33301 -6 8 -13.333 8 -22s-2.66699 -16 -8 -22s-12.333 -9 -21 -9s-15.834 3.16699 -21.501 9.5s-8.5 13.5 -8.5 21.5s2.83301 15.167 8.5 21.5s12.834 9.5 21.501 9.5s15.667 -3 21 -9zM192 -84c5.33301 -6 8 -13.333 8 -22s-2.66699 -16 -8 -22
s-12.333 -9 -21 -9c-8 0 -15 3.16699 -21 9.5s-9 13.5 -9 21.5s3 15.167 9 21.5s13 9.5 21 9.5c8.66699 0 15.667 -3 21 -9zM138 -169c5.33301 -6 8 -13.333 8 -22s-2.66699 -16.167 -8 -22.5s-12.333 -9.5 -21 -9.5s-15.834 3.16699 -21.501 9.5s-8.5 13.833 -8.5 22.5
c0 8 2.83301 15.167 8.5 21.5s12.834 9.5 21.501 9.5s15.667 -3 21 -9z" />
    <glyph glyph-name="uni05B7" unicode="&#x5b7;" horiz-adv-x="0" 
d="M192 -104h-158v35h158v-35z" />
    <glyph glyph-name="uni05B8" unicode="&#x5b8;" horiz-adv-x="0" 
d="M192 -104h-67l7 -100h-39l7 100h-66v35h158v-35z" />
    <glyph glyph-name="uni05B9" unicode="&#x5b9;" horiz-adv-x="0" 
d="M85 565c5.33301 -6 8 -13.333 8 -22s-2.66699 -16.167 -8 -22.5s-12.333 -9.5 -21 -9.5s-15.834 3.16699 -21.501 9.5s-8.5 13.833 -8.5 22.5c0 8 2.83301 15.167 8.5 21.5s12.834 9.5 21.501 9.5s15.667 -3 21 -9z" />
    <glyph glyph-name="uni05BA" unicode="&#x5ba;" horiz-adv-x="0" 
d="M42.5 520.5c-5.66699 6.33301 -8.5 13.833 -8.5 22.5c0 8 2.83301 15.167 8.5 21.5s12.834 9.5 21.501 9.5s15.667 -3 21 -9s8 -13.333 8 -22s-2.66699 -16.167 -8 -22.5s-12.333 -9.5 -21 -9.5s-15.834 3.16699 -21.501 9.5z" />
    <glyph glyph-name="uni05BB" unicode="&#x5bb;" horiz-adv-x="0" 
d="M85 -84c5.33301 -6 8 -13.333 8 -22s-2.66699 -16 -8 -22s-12.333 -9 -21 -9s-15.834 3.16699 -21.501 9.5s-8.5 13.5 -8.5 21.5s2.83301 15.167 8.5 21.5s12.834 9.5 21.501 9.5s15.667 -3 21 -9zM151.5 -144.5c5.66699 -6.33301 8.49902 -13.833 8.49902 -22.5
c0 -8 -2.83301 -15.167 -8.5 -21.5s-12.834 -9.5 -21.501 -9.5c-8 0 -15 3.16699 -21 9.5s-9 13.5 -9 21.5c0 8.66699 2.83301 16.167 8.5 22.5s12.834 9.5 21.501 9.5s15.834 -3.16699 21.501 -9.5zM217.999 -205.5c5.33301 -6.33301 8 -13.833 8 -22.5
s-2.66699 -16 -8 -22s-12.333 -9 -21 -9s-16 3.16699 -22 9.5s-9 13.5 -9 21.5c0 8.66699 3 16.167 9 22.5s13.333 9.5 22 9.5s15.667 -3.16699 21 -9.5z" />
    <glyph glyph-name="uni05BC" unicode="&#x5bc;" horiz-adv-x="0" 
d="M85 312.5c5.33301 -6.33301 8 -13.833 8 -22.5s-2.66699 -16.167 -8 -22.5s-12.333 -9.5 -21 -9.5s-15.834 3.16699 -21.501 9.5s-8.5 13.833 -8.5 22.5s2.83301 16.167 8.5 22.5s12.834 9.5 21.501 9.5s15.667 -3.16699 21 -9.5z" />
    <glyph glyph-name="uni05BE" unicode="&#x5be;" horiz-adv-x="315" 
d="M45 555h225v-61h-225v61z" />
    <glyph glyph-name="uni05BF" unicode="&#x5bf;" horiz-adv-x="0" 
d="M221 532h-189v39h189v-39z" />
    <glyph glyph-name="uni05C0" unicode="&#x5c0;" horiz-adv-x="200" 
d="M77 645h47v-745h-47v745z" />
    <glyph glyph-name="uni05C1" unicode="&#x5c1;" horiz-adv-x="0" 
d="M85 576.5c5.33301 -6.33301 8 -13.833 8 -22.5s-2.66699 -16.167 -8 -22.5s-12.333 -9.5 -21 -9.5s-15.834 3.16699 -21.501 9.5s-8.5 13.833 -8.5 22.5s2.83301 16.167 8.5 22.5s12.834 9.5 21.501 9.5s15.667 -3.16699 21 -9.5z" />
    <glyph glyph-name="uni05C2" unicode="&#x5c2;" horiz-adv-x="0" 
d="M85 576.5c5.33301 -6.33301 8 -13.833 8 -22.5s-2.66699 -16.167 -8 -22.5s-12.333 -9.5 -21 -9.5s-15.834 3.16699 -21.501 9.5s-8.5 13.833 -8.5 22.5s2.83301 16.167 8.5 22.5s12.834 9.5 21.501 9.5s15.667 -3.16699 21 -9.5z" />
    <glyph glyph-name="uni05C3" unicode="&#x5c3;" horiz-adv-x="249" 
d="M67 415l58 56l56 -56l-56 -58zM67 75l58 57l56 -57l-56 -58z" />
    <glyph glyph-name="uni05C7" unicode="&#x5c7;" horiz-adv-x="0" 
d="M128 -104h-40l12 -100h-39l13 100h-40v35h94v-35z" />
    <glyph glyph-name="uni05D0" unicode="&#x5d0;" horiz-adv-x="560" 
d="M441 0l-227 341l-107 -341h-74l109 344l27 66l-92 145h79l89 -140l94 -139l23 83l60 196h75l-113 -347l141 -208h-84z" />
    <glyph glyph-name="uni05D1" unicode="&#x5d1;" horiz-adv-x="526" 
d="M487 61l0.000976562 -61h-148h-288v61h288v311c0 43.333 -9.33301 74.5 -28 93.5s-45.334 28.5 -80.001 28.5h-180v61h197c112 0 168 -62 168 -186v-308h71z" />
    <glyph glyph-name="uni05D2" unicode="&#x5d2;" horiz-adv-x="372" 
d="M252 0l-25.0039 136.001c-19.333 -36.667 -43.166 -67.334 -71.499 -92.001s-62.166 -44 -101.499 -58l-28 62c44.667 16 82.334 37 113.001 63s55.667 59.333 75 100v184c0 33.333 -4.16699 57.5 -12.5 72.5s-24.166 24.5 -47.499 28.5l-64 10l11 60l84 -13
c38.667 -6 66 -21 82 -45s24 -59.667 24 -107v-193l35 -208h-74z" />
    <glyph glyph-name="uni05D3" unicode="&#x5d3;" horiz-adv-x="536" 
d="M306 377c0 51.333 9 90.333 27 117h-280v61h428v-61h-74c-16 -27.333 -24 -66.333 -24 -117v-377h-77v377z" />
    <glyph glyph-name="uni05D4" unicode="&#x5d4;" horiz-adv-x="546" 
d="M403 372c0 43.333 -9.33203 74.5 -27.999 93.5s-45.334 28.5 -80.001 28.5h-234v61h251c112 0 168 -62 168 -186v-369h-77v372zM60.001 270l11 67h66v-337h-77v270z" />
    <glyph glyph-name="uni05D5" unicode="&#x5d5;" horiz-adv-x="224" 
d="M78 438l-13 117h76l14 -117v-438h-77v438z" />
    <glyph glyph-name="uni05D6" unicode="&#x5d6;" horiz-adv-x="361" 
d="M127 377c0 50 9.33301 89 28 117h-100v61h251v-61h-79c-15.333 -26 -23 -65 -23 -117v-377h-77v377z" />
    <glyph glyph-name="uni05D7" unicode="&#x5d7;" horiz-adv-x="563" 
d="M451 504.5c29.333 -33.667 44 -83.5 44 -149.5v-355h-77v358c0 44.667 -9.16699 78.5 -27.5 101.5s-45.166 34.5 -80.499 34.5h-170v-494h-77v529v26h264c53.333 0 94.666 -16.833 123.999 -50.5z" />
    <glyph glyph-name="uni05D8" unicode="&#x5d8;" horiz-adv-x="553" 
d="M49 555l77 0.000976562l58 -494c77.333 8 139.166 33.333 185.499 76s67.833 107.667 64.5 195v25c0 41.333 -10.667 74.666 -32 99.999s-53.333 39.333 -96 42l-50 3l5 62l56 -4c58.667 -3.33301 104.834 -21 138.501 -53s51.5 -78.667 53.5 -140l1 -28
c4 -114.667 -30 -200 -102 -256s-169.333 -87 -292 -93z" />
    <glyph glyph-name="uni05D9" unicode="&#x5d9;" horiz-adv-x="224" 
d="M78 438l-13 117h76l14 -117v-149l-1 -63l-76 -16v228z" />
    <glyph glyph-name="uni05DA" unicode="&#x5da;" horiz-adv-x="503" 
d="M357 372c0 43.333 -9.33203 74.5 -27.999 93.5s-45.334 28.5 -80.001 28.5h-194v61h211c112 0 168 -62 168 -186v-569h-77v572z" />
    <glyph glyph-name="uni05DB" unicode="&#x5db;" horiz-adv-x="471" 
d="M45 61l132 0.00195312c54 0 94.667 15.667 122 47s41 77.333 41 138v63c0 60.667 -13.667 106.667 -41 138s-68 47 -122 47h-132v61h147c72 0 127.5 -21.333 166.5 -64s58.5 -104.334 58.5 -185.001v-57c0 -80.667 -19.5 -142.334 -58.5 -185.001s-94.5 -64 -166.5 -64
h-147v61z" />
    <glyph glyph-name="uni05DC" unicode="&#x5dc;" horiz-adv-x="476" 
d="M430 555v-65l-193 -490h-77l193 494h-310v223h71v-162h316z" />
    <glyph glyph-name="uni05DD" unicode="&#x5dd;" horiz-adv-x="580" 
d="M512 369v-369h-77h-341h-19v555h77h192c112 0 168 -62 168 -186zM435 61l0.000976562 311c0 43.333 -9.33301 74.5 -28 93.5s-45.334 28.5 -80.001 28.5h-175v-433h283z" />
    <glyph glyph-name="uni05DE" unicode="&#x5de;" horiz-adv-x="605" 
d="M494.5 65c-39.667 -50.667 -96.498 -75.999 -170.498 -75.999c-25.333 0 -52.666 3 -81.999 9l8 61c22 -5.33301 44.667 -8 68 -8c55.333 0 96.166 19.167 122.499 57.5s39.5 95.5 39.5 171.5c0 145.333 -47.667 218 -143 218c-36 0 -65 -10.333 -87 -31
s-37 -47.667 -45 -81l-71 -386h-77l74 389l-77 166h80l50 -120c13.333 42 34.666 73.5 63.999 94.5s62.666 31.5 99.999 31.5c63.333 0 113.5 -21.833 150.5 -65.5s55.5 -114.5 55.5 -212.5c0 -94.667 -19.833 -167.334 -59.5 -218.001z" />
    <glyph glyph-name="uni05DF" unicode="&#x5df;" horiz-adv-x="224" 
d="M78 438l-13 117h76l14 -117v-638h-77v638z" />
    <glyph glyph-name="uni05E0" unicode="&#x5e0;" horiz-adv-x="368" 
d="M48 61l174 -0.00195312v333c0 32.667 -6.5 56.834 -19.5 72.501s-32.5 25.5 -58.5 29.5l-67 10l11 60l87 -13c40 -6.66699 70.667 -23.167 92 -49.5s32 -62.166 32 -107.499v-396h-251v61z" />
    <glyph glyph-name="uni05E1" unicode="&#x5e1;" horiz-adv-x="565" 
d="M117 -10l-61 504l-7 61h273c58.667 0 104.5 -18.167 137.5 -54.5s50.5 -85.833 52.5 -148.5l1 -31c6.66699 -208.667 -125.333 -319 -396 -331zM373 130c46 38.667 67 103.001 63 193.001v24c0 43.333 -10.5 78.666 -31.5 105.999s-50.5 41 -88.5 41h-183l52 -433
c79.333 7.33301 142 30.333 188 69z" />
    <glyph glyph-name="uni05E2" unicode="&#x5e2;" horiz-adv-x="531" 
d="M478 555c0 -137.333 -5.16797 -239.668 -15.501 -307.001s-34.666 -120.666 -72.999 -159.999s-99.833 -67.333 -184.5 -84l-168 -33l-11 62l177 34l-129 488h77l122 -468c41.333 16.667 71 42.5 89 77.5s29 79.667 33 134s6.33301 139.833 7 256.5h76z" />
    <glyph glyph-name="uni05E3" unicode="&#x5e3;" horiz-adv-x="547" 
d="M425.5 491.5c34.333 -42.333 51.833 -103.83 52.5 -184.497v-507h-77v509c0 123.333 -46.333 185 -139 185h-105l-19 -92c-4 -20.667 -6 -39.334 -6 -56.001c0 -22.667 4.5 -40.834 13.5 -54.501s23.167 -22.834 42.5 -27.501l-19 -50c-38 6 -65.667 19.333 -83 40
s-26 49 -26 85c0 21.333 2.33301 43.333 7 66l32 150h179c64 0 113.167 -21.167 147.5 -63.5z" />
    <glyph glyph-name="uni05E4" unicode="&#x5e4;" horiz-adv-x="541" 
d="M76 61l163.997 -0.000976562c52 0 93.5 14.5 124.5 43.5s46.5 76.833 46.5 143.5v61c0 60.667 -11.667 106.667 -35 138s-58.666 47 -105.999 47h-105l-26 -111c-4 -18.667 -6 -35.334 -6 -50.001c0 -22.667 6.16699 -40.334 18.5 -53.001s32.833 -21.667 61.5 -27
l-16 -53c-46.667 4.66699 -80.5 17.834 -101.5 39.501s-31.5 51.834 -31.5 90.501c0 18.667 2 38.334 6 59.001l38 166h175c64.667 0 114.834 -21.333 150.501 -64s53.834 -104 54.501 -184v-56c0 -86.667 -21.667 -150.167 -65 -190.5s-100 -60.5 -170 -60.5h-177v61z" />
    <glyph glyph-name="uni05E5" unicode="&#x5e5;" horiz-adv-x="466" 
d="M265 120l106 -320h-76l-249 755h75l112 -339l136 339h73z" />
    <glyph glyph-name="uni05E6" unicode="&#x5e6;" horiz-adv-x="517" 
d="M469 0h-79h-351v61h315l-295 494h80l142 -239l102 239h78l-138 -309z" />
    <glyph glyph-name="uni05E7" unicode="&#x5e7;" horiz-adv-x="549" 
d="M220 61c35.333 4 65 12.333 89 25s44 34.667 60 66s26 75.333 30 132l17 210h-360v61h442l-3 -55l-16 -201c-4.66699 -96.667 -29.167 -170 -73.5 -220s-103.5 -76.333 -177.5 -79zM58 284l11 68h66v-552h-77v484z" />
    <glyph glyph-name="uni05E8" unicode="&#x5e8;" horiz-adv-x="473" 
d="M326 372c0 43.333 -9.33203 74.5 -27.999 93.5s-45.334 28.5 -80.001 28.5h-177v61h194c112 0 168 -62 168 -186v-369h-77v372z" />
    <glyph glyph-name="uni05E9" unicode="&#x5e9;" horiz-adv-x="630" 
d="M463.5 96c-75.667 -69.333 -190.501 -104.668 -344.501 -106.001l-70 565h74l34 -283c30 16 53.333 33.167 70 51.5s28.834 40.833 36.501 67.5s12.167 61 13.5 103l1 59h74l-1 -58c-1.33301 -73.333 -16 -131.5 -44 -174.5s-75.667 -79.167 -143 -108.5l19 -154
c106 6.66699 185.333 38.5 238 95.5s78.667 142.167 78 255.5l-1 146h77l1 -143c0.666992 -141.333 -36.833 -246.666 -112.5 -315.999z" />
    <glyph glyph-name="uni05EA" unicode="&#x5ea;" horiz-adv-x="605" 
d="M22 41c39.333 3.33301 66.501 14.5 81.501 33.5s22.5 47.833 22.5 86.5v394h245c112 0 168 -62 168 -186v-369h-77v372c0 43.333 -9.33301 74.5 -28 93.5s-45.334 28.5 -80.001 28.5h-151v-325c0 -58.667 -13.667 -102.5 -41 -131.5s-71.333 -46.167 -132 -51.5z" />
    <glyph glyph-name="uni05F3" unicode="&#x5f3;" horiz-adv-x="213" 
d="M50 521l87 172l52 -27l-98 -164z" />
    <glyph glyph-name="uni05F4" unicode="&#x5f4;" horiz-adv-x="388" 
d="M50 521l87 172l52 -27l-98 -164zM197 521l86 172l53 -27l-98 -164z" />
    <glyph glyph-name="uni1E06" unicode="&#x1e06;" horiz-adv-x="585" 
d="M92 657l190 0.000976562c70 0 124.833 -13.167 164.5 -39.5s59.5 -66.833 59.5 -121.5c0 -33.333 -8.66699 -62.833 -26 -88.5s-41.333 -43.5 -72 -53.5v-4c42 -8 75.167 -25.5 99.5 -52.5s36.5 -62.167 36.5 -105.5c0 -62.667 -22.167 -110.334 -66.5 -143.001
s-104.5 -49 -180.5 -49h-205v657zM267 375.001c110.667 0 166.001 37.334 166.001 112.001c0 39.333 -13.333 67.666 -40 84.999s-67.334 26 -122.001 26h-105v-223h101zM285.001 59.002c60 0 106 11.168 138 33.501s48 56.166 48 101.499c0 82.667 -62 124 -186 124h-119
v-259h119zM170.001 -115.997h260v-52h-260v52z" />
    <glyph glyph-name="uni1E07" unicode="&#x1e07;" horiz-adv-x="551" 
d="M222 4.5c-24.667 11 -47.666 26.167 -68.999 45.5h-3l-7 -50h-58v714h72v-198l-2 -89c54 46.667 106 70 156 70c62 0 109.5 -22.167 142.5 -66.5s49.5 -104.5 49.5 -180.5c0 -53.333 -9.66699 -99.833 -29 -139.5s-45 -70 -77 -91s-66.667 -31.5 -104 -31.5
c-22.667 0 -46.334 5.5 -71.001 16.5zM356.501 74.5c22.333 16.333 39.833 39.5 52.5 69.5s19 65 19 105c0 58 -10.833 103.5 -32.5 136.5s-55.5 49.5 -101.5 49.5c-41.333 0 -87 -23.333 -137 -70v-262c21.333 -18 42.833 -31.333 64.5 -40s41.5 -13 59.5 -13
c28 0 53.167 8.16699 75.5 24.5zM150.001 -116h260v-52h-260v52z" />
    <glyph glyph-name="uni1E0C" unicode="&#x1e0c;" horiz-adv-x="613" 
d="M92 657h161c100 0 176.167 -28.333 228.5 -85s78.5 -137 78.5 -241s-26.167 -185.167 -78.5 -243.5s-127.5 -87.5 -225.5 -87.5h-164v657zM247 61c78.667 0 137.834 23.5 177.501 70.5s59.5 113.5 59.5 199.5c0 84.667 -19.833 150 -59.5 196s-98.834 69 -177.501 69h-81
v-535h81zM267 -189c-9.33301 9.33301 -14 21.666 -14 36.999c0 14.667 4.66699 26.5 14 35.5s21.333 13.5 36 13.5s26.667 -4.5 36 -13.5s14 -20.833 14 -35.5c0 -15.333 -4.66699 -27.666 -14 -36.999s-21.333 -14 -36 -14s-26.667 4.66699 -36 14z" />
    <glyph glyph-name="uni1E0D" unicode="&#x1e0d;" horiz-adv-x="552" 
d="M102.5 55c-35.667 44.667 -53.498 106.998 -53.498 186.998c0 50.667 9.66699 95.334 29 134.001s45.166 68.5 77.499 89.5s67.166 31.5 104.499 31.5c26 0 49.333 -4.66699 70 -14s43.334 -23.666 68.001 -42.999l-3 84v190h72v-714h-60l-6 59h-3
c-20.667 -21.333 -43.834 -38.5 -69.501 -51.5s-52.5 -19.5 -80.5 -19.5c-61.333 0 -109.833 22.333 -145.5 67zM330.502 66.998c21 11.333 42.499 28.667 64.499 52v263c-21.333 18.667 -42 32.167 -62 40.5s-40.667 12.5 -62 12.5c-27.333 0 -52.166 -8.33301 -74.499 -25
s-40 -39.667 -53 -69s-19.5 -62.333 -19.5 -99c0 -60 12.167 -107 36.5 -141s58.833 -51 103.5 -51c23.333 0 45.5 5.66699 66.5 17zM258.001 -189.001c-9.33301 9.33301 -14 21.666 -14 36.999c0 14.667 4.66699 26.5 14 35.5s21.333 13.5 36 13.5s26.667 -4.5 36 -13.5
s14 -20.833 14 -35.5c0 -15.333 -4.66699 -27.666 -14 -36.999s-21.333 -14 -36 -14s-26.667 4.66699 -36 14z" />
    <glyph glyph-name="uni1E0E" unicode="&#x1e0e;" horiz-adv-x="613" 
d="M92 657h161c100 0 176.167 -28.333 228.5 -85s78.5 -137 78.5 -241s-26.167 -185.167 -78.5 -243.5s-127.5 -87.5 -225.5 -87.5h-164v657zM247 61c78.667 0 137.834 23.5 177.501 70.5s59.5 113.5 59.5 199.5c0 84.667 -19.833 150 -59.5 196s-98.834 69 -177.501 69h-81
v-535h81zM173 -116h260v-52h-260v52z" />
    <glyph glyph-name="uni1E0F" unicode="&#x1e0f;" horiz-adv-x="552" 
d="M102.5 55c-35.667 44.667 -53.498 106.998 -53.498 186.998c0 50.667 9.66699 95.334 29 134.001s45.166 68.5 77.499 89.5s67.166 31.5 104.499 31.5c26 0 49.333 -4.66699 70 -14s43.334 -23.666 68.001 -42.999l-3 84v190h72v-714h-60l-6 59h-3
c-20.667 -21.333 -43.834 -38.5 -69.501 -51.5s-52.5 -19.5 -80.5 -19.5c-61.333 0 -109.833 22.333 -145.5 67zM330.502 66.998c21 11.333 42.499 28.667 64.499 52v263c-21.333 18.667 -42 32.167 -62 40.5s-40.667 12.5 -62 12.5c-27.333 0 -52.166 -8.33301 -74.499 -25
s-40 -39.667 -53 -69s-19.5 -62.333 -19.5 -99c0 -60 12.167 -107 36.5 -141s58.833 -51 103.5 -51c23.333 0 45.5 5.66699 66.5 17zM164.001 -116.001h260v-52h-260v52z" />
    <glyph glyph-name="uni1E20" unicode="&#x1e20;" horiz-adv-x="614" 
d="M192.5 29c-44.333 27.333 -78.833 66.668 -103.5 118.001s-37 111.666 -37 180.999s12.667 129.666 38 180.999s60.666 90.833 105.999 118.5s97 41.5 155 41.5c72.667 0 135 -26.667 187 -80l-41 -49c-40 42.667 -88 64 -144 64c-45.333 0 -84.833 -11.167 -118.5 -33.5
s-59.667 -54 -78 -95s-27.5 -89.5 -27.5 -145.5c0 -85.333 19.667 -152.833 59 -202.5s94 -74.5 164 -74.5c24.667 0 48.334 3.83301 71.001 11.5s41 17.834 55 30.501v179h-144v62h212v-272c-22 -23.333 -50.333 -41.833 -85 -55.5s-73.334 -20.5 -116.001 -20.5
c-57.333 0 -108.166 13.667 -152.499 41zM220 789.002h262v-52h-262v52z" />
    <glyph glyph-name="uni1E21" unicode="&#x1e21;" horiz-adv-x="500" 
d="M101.5 -191c-36.333 23.333 -54.4971 55.335 -54.4971 96.002c0 20.667 6.16699 40.667 18.5 60s29.833 36.666 52.5 51.999v4c-12.667 8 -23 18.667 -31 32s-12 29 -12 47c0 18.667 5.16699 35.834 15.5 51.501s22.833 28.5 37.5 38.5v4c-17.333 14 -32 32.333 -44 55
s-18 47.667 -18 75c0 34 8 64.167 24 90.5s37.667 46.666 65 60.999s57.333 21.5 90 21.5c22 0 44.333 -4 67 -12h168v-57h-103c12.667 -12 23 -27.333 31 -46s12 -38.334 12 -59.001c0 -33.333 -7.66699 -62.833 -23 -88.5s-36.333 -45.5 -63 -59.5
s-56.334 -21 -89.001 -21c-26.667 0 -51.334 5.66699 -74.001 17c-10.667 -8.66699 -18.834 -17.5 -24.501 -26.5s-8.5 -20.167 -8.5 -33.5c0 -17.333 6.5 -30.833 19.5 -40.5s35.167 -14.5 66.5 -14.5h97c56.667 0 98.667 -9.33301 126 -28s41 -47.667 41 -87
c0 -29.333 -10 -56.833 -30 -82.5s-48.333 -46.167 -85 -61.5s-78.667 -23 -126 -23c-60.667 0 -109.167 11.667 -145.5 35zM321.503 237.502c21 22.333 31.501 51.166 31.501 86.499c0 36 -10.333 64.833 -31 86.5s-46.334 32.5 -77.001 32.5s-56.5 -10.833 -77.5 -32.5
s-31.5 -50.5 -31.5 -86.5c0 -35.333 10.5 -64.166 31.5 -86.499s46.833 -33.5 77.5 -33.5c30 0 55.5 11.167 76.5 33.5zM339.504 -159.498c24.333 9.66699 43.168 22.666 56.501 38.999s20 33.5 20 51.5c0 22.667 -8.33301 38.834 -25 48.501s-42 14.5 -76 14.5h-89
c-20.667 0 -41.334 2.66699 -62.001 8c-35.333 -24.667 -53 -53.667 -53 -87c0 -27.333 13 -49 39 -65s61.667 -24 107 -24c30.667 0 58.167 4.83301 82.5 14.5zM128.006 654.001h260v-52h-260v52z" />
    <glyph glyph-name="uni1E24" unicode="&#x1e24;" horiz-adv-x="648" 
d="M92 657h74v-278h317v278h74v-657h-74v314h-317v-314h-74v657zM287 -189c-9.33301 9.33301 -14 21.666 -14 36.999c0 14.667 4.66699 26.5 14 35.5s21.333 13.5 36 13.5s26.667 -4.5 36 -13.5s14 -20.833 14 -35.5c0 -15.333 -4.66699 -27.666 -14 -36.999
s-21.333 -14 -36 -14s-26.667 4.66699 -36 14z" />
    <glyph glyph-name="uni1E25" unicode="&#x1e25;" horiz-adv-x="540" 
d="M85 714h72v-198l-2 -102c26.667 26.667 52.667 47.167 78 61.5s53.333 21.5 84 21.5c50.667 0 88 -15.833 112 -47.5s36 -78.834 36 -141.501v-308h-73v299c0 46.667 -7.5 80.667 -22.5 102s-39.5 32 -73.5 32c-24 0 -46.333 -6.16699 -67 -18.5
s-44.667 -32.166 -72 -59.499v-355h-72v714zM250 -189c-9.33301 9.33301 -14 21.666 -14 36.999c0 14.667 4.66699 26.5 14 35.5s21.333 13.5 36 13.5s26.667 -4.5 36 -13.5s14 -20.833 14 -35.5c0 -15.333 -4.66699 -27.666 -14 -36.999s-21.333 -14 -36 -14
s-26.667 4.66699 -36 14z" />
    <glyph glyph-name="uni1E2A" unicode="&#x1e2a;" horiz-adv-x="648" 
d="M92 657h74v-278h317v278h74v-657h-74v314h-317v-314h-74v657zM212 -187c-25.333 29.333 -39.668 64.666 -43.001 105.999l47 7c4 -29.333 15 -54.5 33 -75.5s42.667 -31.5 74 -31.5s56 10.5 74 31.5s29 46.167 33 75.5l47 -7
c-3.33301 -41.333 -17.666 -76.666 -42.999 -105.999s-62.333 -44 -111 -44s-85.667 14.667 -111 44z" />
    <glyph glyph-name="uni1E2B" unicode="&#x1e2b;" horiz-adv-x="540" 
d="M85 714h72v-198l-2 -102c26.667 26.667 52.667 47.167 78 61.5s53.333 21.5 84 21.5c50.667 0 88 -15.833 112 -47.5s36 -78.834 36 -141.501v-308h-73v299c0 46.667 -7.5 80.667 -22.5 102s-39.5 32 -73.5 32c-24 0 -46.333 -6.16699 -67 -18.5
s-44.667 -32.166 -72 -59.499v-355h-72v714zM175 -187c-25.333 29.333 -39.668 64.666 -43.001 105.999l47 7c4 -29.333 15 -54.5 33 -75.5s42.667 -31.5 74 -31.5s56 10.5 74 31.5s29 46.167 33 75.5l47 -7c-3.33301 -41.333 -17.666 -76.666 -42.999 -105.999
s-62.333 -44 -111 -44s-85.667 14.667 -111 44z" />
    <glyph glyph-name="uni1E32" unicode="&#x1e32;" horiz-adv-x="573" 
d="M92 657h74v-339h2l285 339h84l-207 -249l238 -408h-83l-201 351l-118 -139v-212h-74v657zM291 -189c-9.33301 9.33301 -14 21.666 -14 36.999c0 14.667 4.66699 26.5 14 35.5s21.333 13.5 36 13.5s26.667 -4.5 36 -13.5s14 -20.833 14 -35.5
c0 -15.333 -4.66699 -27.666 -14 -36.999s-21.333 -14 -36 -14s-26.667 4.66699 -36 14z" />
    <glyph glyph-name="uni1E33" unicode="&#x1e33;" horiz-adv-x="487" 
d="M85 714h71v-494h3l215 265h81l-162 -194l184 -291h-79l-147 240l-95 -112v-128h-71v714zM232 -189c-9.33301 9.33301 -14 21.666 -14 36.999c0 14.667 4.66699 26.5 14 35.5s21.333 13.5 36 13.5s26.667 -4.5 36 -13.5s14 -20.833 14 -35.5
c0 -15.333 -4.66699 -27.666 -14 -36.999s-21.333 -14 -36 -14s-26.667 4.66699 -36 14z" />
    <glyph glyph-name="uni1E34" unicode="&#x1e34;" horiz-adv-x="573" 
d="M92 657h74v-339h2l285 339h84l-207 -249l238 -408h-83l-201 351l-118 -139v-212h-74v657zM197 -116h260v-52h-260v52z" />
    <glyph glyph-name="uni1E35" unicode="&#x1e35;" horiz-adv-x="487" 
d="M85 714h71v-494h3l215 265h81l-162 -194l184 -291h-79l-147 240l-95 -112v-128h-71v714zM138 -116h260v-52h-260v52z" />
    <glyph glyph-name="uni1E62" unicode="&#x1e62;" horiz-adv-x="530" 
d="M144.5 14c-39 17.333 -72.834 41.333 -101.501 72l45 51c24 -26 52 -46.5 84 -61.5s65.333 -22.5 100 -22.5c44.667 0 79.834 10.333 105.501 31s38.5 48.334 38.5 83.001c0 22 -4.66699 40.333 -14 55s-21.333 26.334 -36 35.001s-35.334 19 -62.001 31l-95 42
c-38.667 16.667 -70.5 38 -95.5 64s-37.5 60.667 -37.5 104c0 32.667 8.66699 62 26 88s41.5 46.333 72.5 61s65.5 22 103.5 22s73.5 -7.33301 106.5 -22s61.167 -34.334 84.5 -59.001l-40 -47c-43.333 42 -93.666 63 -150.999 63c-38.667 0 -69.667 -9.33301 -93 -28
s-35 -43.334 -35 -74.001c0 -20.667 5.33301 -38 16 -52s23 -25 37 -33s33 -17.333 57 -28l95 -42c43.333 -18 76.833 -40.333 100.5 -67s35.5 -62.667 35.5 -108c0 -34.667 -9 -66 -27 -94s-43.667 -50 -77 -66s-72 -24 -116 -24c-45.333 0 -87.5 8.66699 -126.5 26z
M235.999 -189c-9.33301 9.33301 -14 21.666 -14 36.999c0 14.667 4.66699 26.5 14 35.5s21.333 13.5 36 13.5s26.667 -4.5 36 -13.5s14 -20.833 14 -35.5c0 -15.333 -4.66699 -27.666 -14 -36.999s-21.333 -14 -36 -14s-26.667 4.66699 -36 14z" />
    <glyph glyph-name="uni1E63" unicode="&#x1e63;" horiz-adv-x="416" 
d="M112 6.5c-31.333 12.333 -59.002 28.501 -83.002 48.501l37 49c24 -19.333 47.333 -34 70 -44s48 -15 76 -15c32 0 56.667 7.66699 74 23s26 34.666 26 57.999s-9.83301 42 -29.5 56s-47.5 27.333 -83.5 40c-46 16.667 -82 34.834 -108 54.501s-39 47.834 -39 84.501
c0 39.333 14.833 71.833 44.5 97.5s69.834 38.5 120.501 38.5c27.333 0 53.666 -5 78.999 -15s48 -23 68 -39l-35 -47c-19.333 14 -37.666 24.667 -54.999 32s-36.333 11 -57 11c-30.667 0 -54 -7.16699 -70 -21.5s-24 -31.833 -24 -52.5
c0 -14.667 4.83301 -27.334 14.5 -38.001s21.5 -19.167 35.5 -25.5s33.667 -14.5 59 -24.5c34 -12.667 60.667 -24 80 -34s36 -24.167 50 -42.5s21 -41.833 21 -70.5c0 -26 -6.83301 -49.833 -20.5 -71.5s-33.667 -38.834 -60 -51.501s-57.5 -19 -93.5 -19
c-33.333 0 -65.666 6.16699 -96.999 18.5zM183.998 -188.999c-9.33301 9.33301 -14 21.666 -14 36.999c0 14.667 4.66699 26.5 14 35.5s21.333 13.5 36 13.5s26.667 -4.5 36 -13.5s14 -20.833 14 -35.5c0 -15.333 -4.66699 -27.666 -14 -36.999s-21.333 -14 -36 -14
s-26.667 4.66699 -36 14z" />
    <glyph glyph-name="uni1E6C" unicode="&#x1e6c;" horiz-adv-x="533" 
d="M230 594h-202v63h477v-63h-201v-594h-74v594zM231 -189c-9.33301 9.33301 -14 21.666 -14 36.999c0 14.667 4.66699 26.5 14 35.5s21.333 13.5 36 13.5s26.667 -4.5 36 -13.5s14 -20.833 14 -35.5c0 -15.333 -4.66699 -27.666 -14 -36.999s-21.333 -14 -36 -14
s-26.667 4.66699 -36 14z" />
    <glyph glyph-name="uni1E6D" unicode="&#x1e6d;" horiz-adv-x="331" 
d="M129 29c-20.667 27.333 -31 66.333 -31 117v279h-73v55l76 5l9 137h61v-137h133v-60h-133v-281c0 -32 5.83301 -56 17.5 -72s31.5 -24 59.5 -24c14 0 32.667 4.33301 56 13l15 -55c-36 -12 -65 -18 -87 -18c-48 0 -82.333 13.667 -103 41zM169 -189
c-9.33301 9.33301 -14 21.666 -14 36.999c0 14.667 4.66699 26.5 14 35.5s21.333 13.5 36 13.5s26.667 -4.5 36 -13.5s14 -20.833 14 -35.5c0 -15.333 -4.66699 -27.666 -14 -36.999s-21.333 -14 -36 -14s-26.667 4.66699 -36 14z" />
    <glyph glyph-name="uni1E6E" unicode="&#x1e6e;" horiz-adv-x="533" 
d="M230 594h-202v63h477v-63h-201v-594h-74v594zM137 -116h260v-52h-260v52z" />
    <glyph glyph-name="uni1E6F" unicode="&#x1e6f;" horiz-adv-x="331" 
d="M129 29c-20.667 27.333 -31 66.333 -31 117v279h-73v55l76 5l9 137h61v-137h133v-60h-133v-281c0 -32 5.83301 -56 17.5 -72s31.5 -24 59.5 -24c14 0 32.667 4.33301 56 13l15 -55c-36 -12 -65 -18 -87 -18c-48 0 -82.333 13.667 -103 41zM75 -116h260v-52h-260v52z" />
    <glyph glyph-name="uni1E7E" unicode="&#x1e7e;" horiz-adv-x="509" 
d="M1 657l79 0.000976562l110 -362c10.667 -38 18.334 -64 23.001 -78c11.333 -42.667 25 -89.334 41 -140.001h4c7.33301 22 22.666 72.667 45.999 152l19 66l110 362h75l-210 -657h-85zM219 -188.999c-9.33301 9.33301 -14 21.666 -14 36.999
c0 14.667 4.66699 26.5 14 35.5s21.333 13.5 36 13.5s26.667 -4.5 36 -13.5s14 -20.833 14 -35.5c0 -15.333 -4.66699 -27.666 -14 -36.999s-21.333 -14 -36 -14s-26.667 4.66699 -36 14z" />
    <glyph glyph-name="uni1E7F" unicode="&#x1e7f;" horiz-adv-x="459" 
d="M12 485h75l96 -283l46 -142h4l46 142l96 283h72l-174 -485h-84zM195 -189c-9.33301 9.33301 -14 21.666 -14 36.999c0 14.667 4.66699 26.5 14 35.5s21.333 13.5 36 13.5s26.667 -4.5 36 -13.5s14 -20.833 14 -35.5c0 -15.333 -4.66699 -27.666 -14 -36.999
s-21.333 -14 -36 -14s-26.667 4.66699 -36 14z" />
    <glyph glyph-name="uni1E92" unicode="&#x1e92;" horiz-adv-x="539" 
d="M46 44l354 550h-322v63h414v-44l-354 -550h357v-63h-449v44zM246 -189c-9.33301 9.33301 -14 21.666 -14 36.999c0 14.667 4.66699 26.5 14 35.5s21.333 13.5 36 13.5s26.667 -4.5 36 -13.5s14 -20.833 14 -35.5c0 -15.333 -4.66699 -27.666 -14 -36.999
s-21.333 -14 -36 -14s-26.667 4.66699 -36 14z" />
    <glyph glyph-name="uni1E93" unicode="&#x1e93;" horiz-adv-x="419" 
d="M30 39l263 386h-234v60h326v-39l-263 -386h272v-60h-364v39zM189 -189c-9.33301 9.33301 -14 21.666 -14 36.999c0 14.667 4.66699 26.5 14 35.5s21.333 13.5 36 13.5s26.667 -4.5 36 -13.5s14 -20.833 14 -35.5c0 -15.333 -4.66699 -27.666 -14 -36.999
s-21.333 -14 -36 -14s-26.667 4.66699 -36 14z" />
    <glyph glyph-name="uni1E94" unicode="&#x1e94;" horiz-adv-x="539" 
d="M46 44l354 550h-322v63h414v-44l-354 -550h357v-63h-449v44zM152 -116h260v-52h-260v52z" />
    <glyph glyph-name="uni1E95" unicode="&#x1e95;" horiz-adv-x="419" 
d="M30 39l263 386h-234v60h326v-39l-263 -386h272v-60h-364v39zM95 -116h260v-52h-260v52z" />
    <glyph glyph-name="uni1E96" unicode="&#x1e96;" horiz-adv-x="540" 
d="M85 714h72v-198l-2 -102c26.667 26.667 52.667 47.167 78 61.5s53.333 21.5 84 21.5c50.667 0 88 -15.833 112 -47.5s36 -78.834 36 -141.501v-308h-73v299c0 46.667 -7.5 80.667 -22.5 102s-39.5 32 -73.5 32c-24 0 -46.333 -6.16699 -67 -18.5
s-44.667 -32.166 -72 -59.499v-355h-72v714zM156 -116h260v-52h-260v52z" />
    <glyph glyph-name="uni1EA0" unicode="&#x1ea0;" horiz-adv-x="539" 
d="M391 207h-245l-67 -207h-75l225 657h82l224 -657h-78zM372 266l-33.999 106.001c-26.667 83.333 -49.334 157.666 -68.001 222.999h-4c-22 -80.667 -44.333 -155 -67 -223l-34 -106h207zM232.001 -188.999c-9.33301 9.33301 -14 21.666 -14 36.999
c0 14.667 4.66699 26.5 14 35.5s21.333 13.5 36 13.5s26.667 -4.5 36 -13.5s14 -20.833 14 -35.5c0 -15.333 -4.66699 -27.666 -14 -36.999s-21.333 -14 -36 -14s-26.667 4.66699 -36 14z" />
    <glyph glyph-name="uni1EA1" unicode="&#x1ea1;" horiz-adv-x="501" 
d="M93 24c-26.667 24 -40.001 57.668 -40.001 101.001c0 52.667 24 93.167 72 121.5s124.667 48.166 230 59.499c0 38 -7.83301 69.167 -23.5 93.5s-42.5 36.5 -80.5 36.5c-46 0 -95 -17.667 -147 -53l-29 50c64 42.667 126.667 64 188 64c56 0 97.333 -17.5 124 -52.5
s40 -83.167 40 -144.5v-300h-60l-6 59h-3c-57.333 -47.333 -111.666 -71 -162.999 -71c-41.333 0 -75.333 12 -102 36zM282.499 63.501c22.333 11 46.501 28.167 72.501 51.5v142c-83.333 -10 -142.5 -25.333 -177.5 -46s-52.5 -48 -52.5 -82
c0 -27.333 8.33301 -47.833 25 -61.5s38 -20.5 64 -20.5c23.333 0 46.166 5.5 68.499 16.5zM211 -188.999c-9.33301 9.33301 -14 21.666 -14 36.999c0 14.667 4.66699 26.5 14 35.5s21.333 13.5 36 13.5s26.667 -4.5 36 -13.5s14 -20.833 14 -35.5
c0 -15.333 -4.66699 -27.666 -14 -36.999s-21.333 -14 -36 -14s-26.667 4.66699 -36 14z" />
    <glyph glyph-name="uni1EB8" unicode="&#x1eb8;" horiz-adv-x="524" 
d="M92 657h373v-63h-299v-217h252v-62h-252v-252h309v-63h-383v657zM254 -189c-9.33301 9.33301 -14 21.666 -14 36.999c0 14.667 4.66699 26.5 14 35.5s21.333 13.5 36 13.5s26.667 -4.5 36 -13.5s14 -20.833 14 -35.5c0 -15.333 -4.66699 -27.666 -14 -36.999
s-21.333 -14 -36 -14s-26.667 4.66699 -36 14z" />
    <glyph glyph-name="uni1EB9" unicode="&#x1eb9;" 
d="M452 226l-334.999 -0.000976562c3.33301 -56.667 20.833 -100.667 52.5 -132s70.5 -47 116.5 -47c42.667 0 83.667 13 123 39l27 -48c-24 -15.333 -48.667 -27.5 -74 -36.5s-53.666 -13.5 -84.999 -13.5c-42.667 0 -81.5 10.167 -116.5 30.5s-62.667 49.833 -83 88.5
s-30.5 83.667 -30.5 135c0 50.667 10.167 95.334 30.5 134.001s47.166 68.5 80.499 89.5s68.666 31.5 105.999 31.5c60 0 106.833 -20.167 140.5 -60.5s50.5 -95.833 50.5 -166.5c0 -17.333 -1 -32 -3 -44zM390.001 278.999c0 51.333 -11 90.666 -33 117.999
s-52.667 41 -92 41c-36 0 -68 -13.667 -96 -41s-44.667 -66.666 -50 -117.999h271zM220.001 -189.001c-9.33301 9.33301 -14 21.666 -14 36.999c0 14.667 4.66699 26.5 14 35.5s21.333 13.5 36 13.5s26.667 -4.5 36 -13.5s14 -20.833 14 -35.5
c0 -15.333 -4.66699 -27.666 -14 -36.999s-21.333 -14 -36 -14s-26.667 4.66699 -36 14z" />
    <glyph glyph-name="uni1ECC" unicode="&#x1ecc;" horiz-adv-x="661" 
d="M186 30c-42 28 -74.833 68 -98.5 120s-35.5 112.333 -35.5 181s11.833 128.5 35.5 179.5s56.5 90.167 98.5 117.5s90.333 41 145 41c54 0 102 -13.667 144 -41s74.833 -66.5 98.5 -117.5s35.5 -110.833 35.5 -179.5s-11.833 -129 -35.5 -181s-56.5 -92 -98.5 -120
s-90 -42 -144 -42c-54.667 0 -103 14 -145 42zM436.5 87.5c30.333 23 53.832 55.333 70.499 97s25 90.5 25 146.5c0 55.333 -8.33301 103.5 -25 144.5s-40.167 72.667 -70.5 95s-65.5 33.5 -105.5 33.5c-40.667 0 -76.167 -11.167 -106.5 -33.5s-53.833 -54 -70.5 -95
s-25 -89.167 -25 -144.5c0 -56 8.33301 -105 25 -147s40.334 -74.333 71.001 -97s66 -34 106 -34s75.167 11.5 105.5 34.5zM294.999 -189c-9.33301 9.33301 -14 21.666 -14 36.999c0 14.667 4.66699 26.5 14 35.5s21.333 13.5 36 13.5s26.667 -4.5 36 -13.5
s14 -20.833 14 -35.5c0 -15.333 -4.66699 -27.666 -14 -36.999s-21.333 -14 -36 -14s-26.667 4.66699 -36 14z" />
    <glyph glyph-name="uni1ECD" unicode="&#x1ecd;" horiz-adv-x="540" 
d="M159 18.5c-34 20.333 -61.167 49.666 -81.5 87.999s-30.5 83.5 -30.5 135.5s10.167 97.333 30.5 136s47.5 68.167 81.5 88.5s71 30.5 111 30.5s77 -10.167 111 -30.5s61.167 -49.833 81.5 -88.5s30.5 -84 30.5 -136s-10.167 -97.167 -30.5 -135.5
s-47.5 -67.666 -81.5 -87.999s-71 -30.5 -111 -30.5s-77 10.167 -111 30.5zM346.5 73c22.333 16 39.833 38.667 52.5 68s19 63 19 101s-6.33301 71.667 -19 101s-30.167 52.166 -52.5 68.499s-47.833 24.5 -76.5 24.5s-54.167 -8.16699 -76.5 -24.5
s-39.666 -39.166 -51.999 -68.499s-18.5 -63 -18.5 -101c0 -58 13.667 -104.667 41 -140s62.666 -53 105.999 -53c28.667 0 54.167 8 76.5 24zM234 -189c-9.33301 9.33301 -14 21.666 -14 36.999c0 14.667 4.66699 26.5 14 35.5s21.333 13.5 36 13.5s26.667 -4.5 36 -13.5
s14 -20.833 14 -35.5c0 -15.333 -4.66699 -27.666 -14 -36.999s-21.333 -14 -36 -14s-26.667 4.66699 -36 14z" />
    <glyph glyph-name="uni200E" unicode="&#x200e;" horiz-adv-x="0" 
d="M14 792l63 66h-191v36h191l-63 63l25 27l105 -109l-105 -108z" />
    <glyph glyph-name="uni200F" unicode="&#x200f;" horiz-adv-x="0" 
d="M-144 875l105 109l25 -26l-63 -64h193v-36h-192l62 -66l-25 -24z" />
    <glyph glyph-name="uni2010" unicode="&#x2010;" horiz-adv-x="308" 
d="M41 279h227v-57h-227v57z" />
    <glyph glyph-name="endash" unicode="&#x2013;" horiz-adv-x="480" 
d="M41 277h398v-52h-398v52z" />
    <glyph glyph-name="emdash" unicode="&#x2014;" horiz-adv-x="800" 
d="M41 277h718v-52h-718v52z" />
    <glyph glyph-name="quoteleft" unicode="&#x2018;" horiz-adv-x="242" 
d="M150.5 527.5c9.66699 -8.33301 14.5 -19.833 14.5 -34.5c0 -16 -4.66699 -28.667 -14 -38s-21.333 -14 -36 -14c-18 0 -32.167 7.33301 -42.5 22s-15.5 35.667 -15.5 63c0 74 33.667 131.333 101 172l22 -35c-25.333 -18 -43.833 -36.333 -55.5 -55
s-17.5 -41.667 -17.5 -69c1.33301 0.666992 4 1 8 1c14 0 25.833 -4.16699 35.5 -12.5z" />
    <glyph glyph-name="quoteright" unicode="&#x2019;" horiz-adv-x="242" 
d="M169.5 677c10.333 -14.667 15.5 -35.667 15.5 -63c0 -74.667 -34 -132 -102 -172l-22 35c26 18 44.833 36.333 56.5 55s17.5 41.667 17.5 69c-2 -0.666992 -5 -1 -9 -1c-13.333 0 -24.833 4.33301 -34.5 13s-14.5 20 -14.5 34c0 16 4.5 28.667 13.5 38s20.833 14 35.5 14
c18.667 0 33.167 -7.33301 43.5 -22z" />
    <glyph glyph-name="quotesinglbase" unicode="&#x201a;" horiz-adv-x="242" 
d="M169.5 93c10.333 -14.667 15.5 -35.667 15.5 -63c0 -74.667 -34 -132 -102 -172l-22 35c26 18 44.833 36.333 56.5 55s17.5 41.667 17.5 69c-2 -0.666992 -5 -1 -9 -1c-13.333 0 -24.833 4.33301 -34.5 13s-14.5 20 -14.5 34c0 16 4.5 28.667 13.5 38s20.833 14 35.5 14
c18.667 0 33.167 -7.33301 43.5 -22z" />
    <glyph glyph-name="quotedblleft" unicode="&#x201c;" horiz-adv-x="409" 
d="M150.5 527.5c9.66699 -8.33301 14.5 -19.833 14.5 -34.5c0 -16 -4.66699 -28.667 -14 -38s-21.333 -14 -36 -14c-18 0 -32.167 7.33301 -42.5 22s-15.5 35.667 -15.5 63c0 74 33.667 131.333 101 172l22 -35c-25.333 -18 -43.833 -36.333 -55.5 -55
s-17.5 -41.667 -17.5 -69c1.33301 0.666992 4 1 8 1c14 0 25.833 -4.16699 35.5 -12.5zM318.5 527.5c9.66699 -8.33301 14.5 -19.833 14.5 -34.5c0 -16 -4.66699 -28.667 -14 -38s-21.333 -14 -36 -14c-18 0 -32.167 7.33301 -42.5 22s-15.5 35.667 -15.5 63
c0 74 33.667 131.333 101 172l22 -35c-25.333 -18 -43.833 -36.333 -55.5 -55s-17.5 -41.667 -17.5 -69c1.33301 0.666992 4 1 8 1c14 0 25.833 -4.16699 35.5 -12.5z" />
    <glyph glyph-name="quotedblright" unicode="&#x201d;" horiz-adv-x="409" 
d="M169.5 677c10.333 -14.667 15.5 -35.667 15.5 -63c0 -74.667 -34 -132 -102 -172l-22 35c26 18 44.833 36.333 56.5 55s17.5 41.667 17.5 69c-2 -0.666992 -5 -1 -9 -1c-13.333 0 -24.833 4.33301 -34.5 13s-14.5 20 -14.5 34c0 16 4.5 28.667 13.5 38s20.833 14 35.5 14
c18.667 0 33.167 -7.33301 43.5 -22zM337.5 677c10.333 -14.667 15.5 -35.667 15.5 -63c0 -74.667 -34 -132 -102 -172l-22 35c26 18 44.833 36.333 56.5 55s17.5 41.667 17.5 69c-2 -0.666992 -5 -1 -9 -1c-13.333 0 -24.833 4.33301 -34.5 13s-14.5 20 -14.5 34
c0 16 4.5 28.667 13.5 38s20.833 14 35.5 14c18.667 0 33.167 -7.33301 43.5 -22z" />
    <glyph glyph-name="quotedblbase" unicode="&#x201e;" horiz-adv-x="409" 
d="M169.5 93c10.333 -14.667 15.5 -35.667 15.5 -63c0 -74.667 -34 -132 -102 -172l-22 35c26 18 44.833 36.333 56.5 55s17.5 41.667 17.5 69c-2 -0.666992 -5 -1 -9 -1c-13.333 0 -24.833 4.33301 -34.5 13s-14.5 20 -14.5 34c0 16 4.5 28.667 13.5 38s20.833 14 35.5 14
c18.667 0 33.167 -7.33301 43.5 -22zM337.5 93c10.333 -14.667 15.5 -35.667 15.5 -63c0 -74.667 -34 -132 -102 -172l-22 35c26 18 44.833 36.333 56.5 55s17.5 41.667 17.5 69c-2 -0.666992 -5 -1 -9 -1c-13.333 0 -24.833 4.33301 -34.5 13s-14.5 20 -14.5 34
c0 16 4.5 28.667 13.5 38s20.833 14 35.5 14c18.667 0 33.167 -7.33301 43.5 -22z" />
    <glyph glyph-name="dagger" unicode="&#x2020;" horiz-adv-x="445" 
d="M195 499l-140 -4v63l140 -4l-4 158h63l-4 -158l140 4v-63l-140 4l4 -579h-63z" />
    <glyph glyph-name="daggerdbl" unicode="&#x2021;" horiz-adv-x="445" 
d="M195 78l-140 -4v63l140 -5l-4 184l4 184l-140 -5v63l140 -4l-4 158h63l-4 -158l140 4v-63l-140 5l4 -184l-4 -184l140 5v-63l-140 4l4 -158h-63z" />
    <glyph glyph-name="bullet" unicode="&#x2022;" horiz-adv-x="298" 
d="M72.5 178.5c-21.667 22.333 -32.5 50.5 -32.5 84.5c0 34.667 10.833 63 32.5 85s47.167 33 76.5 33c30 0 55.667 -11 77 -33s32 -50.333 32 -85c0 -34 -10.667 -62.167 -32 -84.5s-47 -33.5 -77 -33.5c-29.333 0 -54.833 11.167 -76.5 33.5z" />
    <glyph glyph-name="ellipsis" unicode="&#x2026;" horiz-adv-x="998" 
d="M127 4.5c-10.667 11 -16 24.833 -16 41.5c0 17.333 5.33301 31.5 16 42.5s23.667 16.5 39 16.5s28.333 -5.5 39 -16.5s16 -25.167 16 -42.5c0 -16.667 -5.33301 -30.5 -16 -41.5s-23.667 -16.5 -39 -16.5s-28.333 5.5 -39 16.5zM461 4.5c-10.667 11 -16 24.833 -16 41.5
c0 17.333 5.33301 31.5 16 42.5s23.667 16.5 39 16.5s28.333 -5.5 39 -16.5s16 -25.167 16 -42.5c0 -16.667 -5.33301 -30.5 -16 -41.5s-23.667 -16.5 -39 -16.5s-28.333 5.5 -39 16.5zM795 4.5c-10.667 11 -16 24.833 -16 41.5c0 17.333 5.33301 31.5 16 42.5
s23.667 16.5 39 16.5s28.333 -5.5 39 -16.5s16 -25.167 16 -42.5c0 -16.667 -5.33301 -30.5 -16 -41.5s-23.667 -16.5 -39 -16.5s-28.333 5.5 -39 16.5z" />
    <glyph glyph-name="uni202D" unicode="&#x202d;" horiz-adv-x="0" 
d="M-57 792l63 66h-162v36h160l-61 63l26 27l104 -109l-104 -108zM41 792l82 83l-82 82l25 27l105 -109l-105 -108z" />
    <glyph glyph-name="uni202E" unicode="&#x202e;" horiz-adv-x="0" 
d="M-171 914l105 107l25 -26l-80 -81l80 -83l-25 -26zM-71 914l102 107l28 -26l-63 -66h161v-34h-161l63 -64l-28 -26z" />
    <glyph glyph-name="perthousand" unicode="&#x2030;" horiz-adv-x="1183" 
d="M81.5 314c-26.333 36.667 -39.5 87.667 -39.5 153s13.167 116 39.5 152s62.166 54 107.499 54s81.166 -18 107.499 -54s39.5 -86.667 39.5 -152s-13.167 -116.333 -39.5 -153s-62.166 -55 -107.499 -55s-81.166 18.333 -107.499 55zM561 669h51l-363 -681h-51z
M255.5 347.5c16.333 27.667 24.5 67.5 24.5 119.5s-8.16699 91.667 -24.5 119s-38.5 41 -66.5 41s-50.167 -13.667 -66.5 -41s-24.5 -67 -24.5 -119s8.16699 -91.833 24.5 -119.5s38.5 -41.5 66.5 -41.5s50.167 13.833 66.5 41.5zM523.5 43
c-26.333 36.667 -39.5 87.667 -39.5 153c0 64.667 13.167 115.167 39.5 151.5s62.166 54.5 107.499 54.5s81.166 -18.167 107.499 -54.5s39.5 -86.833 39.5 -151.5c0 -65.333 -13.167 -116.333 -39.5 -153s-62.166 -55 -107.499 -55s-81.166 18.333 -107.499 55zM886.5 43
c-26.333 36.667 -39.5 87.667 -39.5 153c0 64.667 13.167 115.167 39.5 151.5s62.166 54.5 107.499 54.5s81.166 -18.167 107.499 -54.5s39.5 -86.833 39.5 -151.5c0 -65.333 -13.167 -116.333 -39.5 -153s-62.166 -55 -107.499 -55s-81.166 18.333 -107.499 55zM696.5 76
c16.333 28 24.501 68 24.501 120s-8 91.667 -24 119s-38 41 -66 41s-50.167 -13.667 -66.5 -41s-24.5 -67 -24.5 -119s8.16699 -92 24.5 -120s38.5 -42 66.5 -42c27.333 0 49.166 14 65.499 42zM1060.5 76c16.333 28 24.5 68 24.5 120s-8.16699 91.667 -24.5 119
s-38.5 41 -66.5 41s-50.167 -13.667 -66.5 -41s-24.5 -67 -24.5 -119s8.16699 -92 24.5 -120s38.5 -42 66.5 -42s50.167 14 66.5 42z" />
    <glyph glyph-name="guilsinglleft" unicode="&#x2039;" horiz-adv-x="268" 
d="M44 224v56l137 157l33 -28l-119 -157l119 -158l-33 -27z" />
    <glyph glyph-name="guilsinglright" unicode="&#x203a;" horiz-adv-x="268" 
d="M54 94l119 158l-119 157l33 28l136 -157v-56l-136 -157z" />
    <glyph glyph-name="fraction" unicode="&#x2044;" horiz-adv-x="85" 
d="M197 669h51l-363 -681h-51z" />
    <glyph glyph-name="uni20AA" unicode="&#x20aa;" horiz-adv-x="734" 
d="M69 555h244c52.667 0 91.5 -16.333 116.5 -49s37.5 -83 37.5 -151v-154h-62v157c0 46.667 -7 81 -21 103s-38.333 33 -73 33h-165v-494h-77v555zM240 364l62 0.000976562v-296c80 2.66699 141.667 16.5 185 41.5s73.166 61.333 89.499 109s24.166 111.167 23.499 190.5
l-2 146h77l1 -146c0.666992 -98 -13.166 -176.667 -41.499 -236s-74.166 -102.833 -137.499 -130.5s-149 -41.834 -257 -42.501v364z" />
    <glyph glyph-name="Euro" unicode="&#x20ac;" 
d="M487 81c-47.333 -62 -104.334 -93.001 -171.001 -93.001c-60 0 -110.333 22 -151 66s-66.667 105 -78 183h-64v41l60 4c-0.666992 8 -1 20.333 -1 37c0 14.667 0.333008 25.334 1 32.001h-60v41l64 4c10.667 79.333 37.5 141.5 80.5 186.5s97.167 67.5 162.5 67.5
c28.667 0 56 -7.16699 82 -21.5s47.667 -33.166 65 -56.499l-43 -41c-15.333 19.333 -31.666 34.166 -48.999 44.499s-36.333 15.5 -57 15.5c-45.333 0 -82.333 -17 -111 -51s-47 -82 -55 -144h261v-45h-265c-0.666992 -6.66699 -1 -16.667 -1 -30
c0 -17.333 0.333008 -30.333 1 -39h225v-45h-220c8.66699 -59.333 26.667 -105.833 54 -139.5s61.666 -50.5 102.999 -50.5c24.667 0 46.834 6 66.501 18s38.5 30.333 56.5 55z" />
    <glyph glyph-name="uni210A" unicode="&#x210a;" horiz-adv-x="556" 
d="M168.5 -206c-29.667 9.33301 -57.166 22.6641 -82.499 39.9971l28 51c44 -30 92.333 -45 145 -45c44.667 0 78.5 11.833 101.5 35.5s35.167 56.834 36.5 99.501l1 96c-20 -20 -42.667 -36.333 -68 -49s-52 -19 -80 -19c-61.333 0 -110 21.833 -146 65.5
s-54 103.834 -54 180.501c0 49.333 9.83301 92.833 29.5 130.5s45.834 66.667 78.501 87s67.667 30.5 105 30.5c26 0 49.667 -4.66699 71 -14s43 -23.666 65 -42.999h3l6 45h61v-514c0 -59.333 -18.333 -106 -55 -140s-88.334 -51 -155.001 -51
c-30.667 0 -60.834 4.66699 -90.501 14zM331.501 81.498c21 11.667 42.833 29.499 65.5 53.499v247c-21.333 18.667 -42 32.167 -62 40.5s-40.667 12.5 -62 12.5c-27.333 0 -52.333 -8 -75 -24s-40.5 -38.167 -53.5 -66.5s-19.5 -60.166 -19.5 -95.499
c0 -56.667 12.333 -101.667 37 -135s59 -50 103 -50c23.333 0 45.5 5.83301 66.5 17.5z" />
    <glyph glyph-name="trademark" unicode="&#x2122;" horiz-adv-x="630" 
d="M104 626h-101v50h257v-50h-102v-259h-54v259zM310 676h67l49 -119l28 -80h4l28 80l48 119h67v-309h-51v143l6 103h-4l-75 -199h-44l-75 199h-4l7 -103v-143h-51v309z" />
    <glyph glyph-name="estimated" unicode="&#x212e;" horiz-adv-x="800" 
d="M222.5 33c-54.333 30 -97.335 70.6689 -129.002 122.002s-47.5 107.666 -47.5 168.999s15.833 117.666 47.5 168.999s74.667 92 129 122s113.5 45 177.5 45s123.167 -15 177.5 -45s97.333 -70.667 129 -122s47.5 -107.666 47.5 -168.999v-8h-574
c-2.66699 0 -4 -1.33301 -4 -4v-184c0 -5.33301 2.66699 -12 8 -20c27.333 -31.333 59.833 -55.833 97.5 -73.5s77.834 -26.5 120.501 -26.5c44 0 85.833 10 125.5 30s73.834 47.333 102.501 82h52c-34 -40.667 -75.5 -72.834 -124.5 -96.501s-101.5 -35.5 -157.5 -35.5
c-64 0 -123.167 15 -177.5 45zM619.998 334.002c4 0 6 2 6 6v184c0 8 -3.33301 15.333 -10 22c-28.667 29.333 -61.5 52.333 -98.5 69s-75.5 25 -115.5 25c-42 0 -81.667 -8.66699 -119 -26s-70.333 -41.333 -99 -72c-5.33301 -8 -8 -15.333 -8 -22v-180
c0 -4 1.33301 -6 4 -6h440z" />
    <glyph glyph-name="partialdiff" unicode="&#x2202;" horiz-adv-x="520" 
d="M424.5 594c37 -50 55.499 -125.669 55.499 -227.002c0 -74.667 -10.833 -140.667 -32.5 -198s-52.334 -101.833 -92.001 -133.5s-85.167 -47.5 -136.5 -47.5c-32 0 -61.833 7.83301 -89.5 23.5s-49.667 37.834 -66 66.501s-24.5 62.334 -24.5 101.001
c0 44 8.66699 82.833 26 116.5s42.333 60 75 79s71.334 28.5 116.001 28.5c27.333 0 54.333 -6.5 81 -19.5s50.334 -30.833 71.001 -53.5c0.666992 8 1 20 1 36c0 161.333 -48 242 -144 242c-43.333 0 -81.333 -17 -114 -51l-34 46c44 44 95.667 66 155 66
c64.667 0 115.5 -25 152.5 -75zM339.999 106.998c30.667 38.667 51.332 92 61.999 160c-42 51.333 -89 77 -141 77c-50 0 -87.833 -14.833 -113.5 -44.5s-38.5 -68.167 -38.5 -115.5c0 -40 11.333 -72.5 34 -97.5s50.334 -37.5 83.001 -37.5c45.333 0 83.333 19.333 114 58z
" />
    <glyph glyph-name="product" unicode="&#x220f;" horiz-adv-x="668" 
d="M90 638h488v-758h-75v694h-339v-694h-74v758z" />
    <glyph glyph-name="summation" unicode="&#x2211;" horiz-adv-x="500" 
d="M21 -72l243 331l-232 331v48h437v-63h-345v-4l219 -311l-229 -313v-4h384v-63h-477v48z" />
    <glyph glyph-name="minus" unicode="&#x2212;" 
d="M34 358h424v-56h-424v56z" />
    <glyph glyph-name="uni2215" unicode="&#x2215;" horiz-adv-x="85" 
d="M197 669h51l-363 -681h-51z" />
    <glyph glyph-name="uni2219" unicode="&#x2219;" horiz-adv-x="498" 
d="M206 283.5c-10.667 11 -16 24.833 -16 41.5c0 17.333 5.33301 31.5 16 42.5s23.667 16.5 39 16.5s28.333 -5.5 39 -16.5s16 -25.167 16 -42.5c0 -16.667 -5.33301 -30.5 -16 -41.5s-23.667 -16.5 -39 -16.5s-28.333 5.5 -39 16.5z" />
    <glyph glyph-name="radical" unicode="&#x221a;" horiz-adv-x="552" 
d="M132 333l-71.001 -32l-18 42l127 56l119 -353l16 -61h4l4 21c0.666992 6 3.33398 19.333 8.00098 40l181 774h54l-217 -918h-57z" />
    <glyph glyph-name="infinity" unicode="&#x221e;" horiz-adv-x="777" 
d="M463 182.5c-30.667 20.333 -62.6631 51.167 -95.9961 92.5h-4c-27.333 -31.333 -54 -56.666 -80 -75.999s-57.333 -29 -94 -29c-26.667 0 -51.334 7 -74.001 21s-40.834 32.833 -54.501 56.5s-20.5 49.5 -20.5 77.5c0 50 15 90.167 45 120.5s68.333 45.5 115 45.5
c36 0 67.5 -10 94.5 -30s52.167 -45.667 75.5 -77h4c28 37.333 57.667 67.166 89 89.499s66.666 33.5 105.999 33.5c32 0 60.833 -7.33301 86.5 -22s45.667 -35.167 60 -61.5s21.5 -55.833 21.5 -88.5c0 -36 -7.16699 -67.833 -21.5 -95.5s-34.333 -49.167 -60 -64.5
s-54.834 -23 -87.501 -23c-39.333 0 -74.333 10.167 -105 30.5zM649.004 253.501c20 21 30 47.1689 30 78.502c0 34.667 -10.5 63 -31.5 85s-49.5 33 -85.5 33c-29.333 0 -56.833 -9.33301 -82.5 -28s-51.5 -46.334 -77.5 -83.001c30.667 -40.667 58.667 -70.334 84 -89.001
s53 -28 83 -28c33.333 0 60 10.5 80 31.5zM335.004 322.003c-24 32 -47.332 56.501 -69.999 73.501s-46.334 25.5 -71.001 25.5c-28 0 -51 -8.33301 -69 -25s-27 -39.334 -27 -68.001c0 -29.333 9.5 -53.5 28.5 -72.5s42.167 -28.5 69.5 -28.5c50 0 96.333 31.667 139 95z
" />
    <glyph glyph-name="integral" unicode="&#x222b;" horiz-adv-x="324" 
d="M53 -151l8.99805 54.999c12 -2.66699 23.667 -4 35 -4c26.667 0 44.667 13 54 39s14 67.667 14 125c0 29.333 -1.5 60.5 -4.5 93.5s-6.16699 65 -9.5 96s-5.66602 51.167 -6.99902 60.5c-7.33301 58 -12.833 106 -16.5 144s-5.5 73 -5.5 105
c0 72.667 9.33301 128.5 28 167.5s53.334 58.5 104.001 58.5c19.333 0 34.333 -2 45 -6l-9 -56c-8 2.66699 -19.667 4 -35 4c-26 0 -43.5 -13.167 -52.5 -39.5s-13.5 -68.166 -13.5 -125.499c0 -54 7 -137 21 -249c6.66699 -58.667 11.667 -106.667 15 -144
s5 -72.333 5 -105c0 -72.667 -9.16699 -128.5 -27.5 -167.5s-52.5 -58.5 -102.5 -58.5c-20 0 -35.667 2.33301 -47 7z" />
    <glyph glyph-name="approxequal" unicode="&#x2248;" 
d="M283 377.5c-15.333 8.33301 -32.6689 20.166 -52.002 35.499c-15.333 12.667 -28.666 22.167 -39.999 28.5s-23 9.5 -35 9.5c-29.333 0 -55 -20.333 -77 -61l-42 28c16.667 30 35.5 52.333 56.5 67s42.5 22 64.5 22c18.667 0 35.5 -4 50.5 -12s32.833 -20 53.5 -36
c16 -12.667 29.5 -22.167 40.5 -28.5s22.167 -9.5 33.5 -9.5c30.667 0 56.334 20.333 77.001 61l42 -30c-16.667 -29.333 -35.5 -51.166 -56.5 -65.499s-42.5 -21.5 -64.5 -21.5c-18.667 0 -35.667 4.16699 -51 12.5zM282.997 165.5
c-15.333 8.33301 -32.6689 20.166 -52.002 35.499c-15.333 12.667 -28.666 22.167 -39.999 28.5s-23 9.5 -35 9.5c-29.333 0 -55 -20.333 -77 -61l-42 28c16.667 30 35.5 52.333 56.5 67s42.5 22 64.5 22c18.667 0 35.5 -4 50.5 -12s32.833 -20 53.5 -36
c16 -12.667 29.5 -22.167 40.5 -28.5s22.167 -9.5 33.5 -9.5c30.667 0 56.334 20.333 77.001 61l42 -30c-16.667 -29.333 -35.5 -51.166 -56.5 -65.499s-42.5 -21.5 -64.5 -21.5c-18.667 0 -35.667 4.16699 -51 12.5z" />
    <glyph glyph-name="notequal" unicode="&#x2260;" 
d="M139 196h-105v56h137l94 156h-231v56h264l77 127h55l-77 -127h105v-56h-137l-94 -156h231v-56h-263l-77 -127h-56z" />
    <glyph glyph-name="lessequal" unicode="&#x2264;" 
d="M34 307v68l424 154v-64l-215 -77l-134 -45v-4l134 -45l215 -77v-64zM34 56h424v-56h-424v56z" />
    <glyph glyph-name="greaterequal" unicode="&#x2265;" 
d="M34 217l215 77l135 45v4l-135 45l-215 77v64l424 -154v-68l-424 -154v64zM34 56h424v-56h-424v56z" />
    <glyph glyph-name="lozenge" unicode="&#x25ca;" horiz-adv-x="512" 
d="M57 330l165 340h69l164 -340l-164 -340h-69zM258 51l132 279l-68 143l-64 136h-4l-131 -279l67 -144l64 -135h4z" />
    <glyph glyph-name="uni25CC" unicode="&#x25cc;" horiz-adv-x="600" 
d="M349.5 479c7 -6.66699 10.501 -15.334 10.501 -26.001c0 -11.333 -3.33301 -20.333 -10 -27s-15.334 -10 -26.001 -10c-9.33301 0 -17.166 3.33301 -23.499 10s-9.5 15.667 -9.5 27c0 10.667 3.16699 19.334 9.5 26.001s14.166 10 23.499 10c10 0 18.5 -3.33301 25.5 -10
zM211.501 460.5c6.33301 -6.33301 9.5 -15.166 9.5 -26.499c0 -10.667 -3.16699 -19.167 -9.5 -25.5s-14.5 -9.5 -24.5 -9.5c-9.33301 0 -17.333 3.16699 -24 9.5s-10 14.833 -10 25.5c0 11.333 3.33301 20.166 10 26.499s14.667 9.5 24 9.5c10 0 18.167 -3.16699 24.5 -9.5
zM399.001 358c-6.66699 6.66699 -9.99805 15.667 -9.99805 27c0 2.66699 0.666992 6.66699 2 12c-1.33301 5.33301 -2 9.33301 -2 12c0 11.333 3.16699 20.166 9.5 26.499s14.166 9.5 23.499 9.5c10 0 18.333 -3.16699 25 -9.5s10 -15.166 10 -26.499
c0 -2.66699 -0.666992 -6.66699 -2 -12c1.33301 -5.33301 2 -9.33301 2 -12c0 -11.333 -3.16699 -20.333 -9.5 -27s-14.833 -10 -25.5 -10c-8.66699 0 -16.334 3.33301 -23.001 10zM133.503 380c6.33301 -6 9.5 -14.667 9.5 -26c0 -12 -3 -21.167 -9 -27.5
s-14.667 -9.5 -26 -9.5c-9.33301 0 -17.166 3.33301 -23.499 10s-9.5 15.667 -9.5 27s3.16699 20 9.5 26s14.166 9 23.499 9c10.667 0 19.167 -3 25.5 -9zM106.503 216c-6.33301 -6.66699 -15.166 -10 -26.499 -10c-8.66699 0 -16.334 3.33301 -23.001 10s-10 15.667 -10 27
c0 10.667 3.16699 19.167 9.5 25.5s14.166 9.5 23.499 9.5c10.667 0 19.334 -3 26.001 -9s10 -14.667 10 -26s-3.16699 -20.333 -9.5 -27zM529.503 268.5c7 -6.33301 10.5 -14.833 10.5 -25.5c0 -11.333 -3.33301 -20.333 -10 -27s-15 -10 -25 -10s-18.167 3.33301 -24.5 10
s-9.5 15.667 -9.5 27s3.16699 20 9.5 26s14.5 9 24.5 9c9.33301 0 17.5 -3.16699 24.5 -9.5zM133.503 159.5c6.33301 -6.33301 9.5 -15.168 9.5 -26.501s-3.16699 -20.166 -9.5 -26.499s-14.833 -9.5 -25.5 -9.5c-9.33301 0 -17.166 3.33301 -23.499 10
s-9.5 15.334 -9.5 26.001c0 11.333 3.16699 20.166 9.5 26.499s14.166 9.5 23.499 9.5c10.667 0 19.167 -3.16699 25.5 -9.5zM502.503 159.498c6.33301 -6.33301 9.5 -15.168 9.5 -26.501s-3 -20.166 -9 -26.499s-14.333 -9.5 -25 -9.5c-9.33301 0 -17.333 3.33301 -24 10
s-10 15.334 -10 26.001c0 11.333 3.33301 20.166 10 26.499s14.667 9.5 24 9.5c10 0 18.167 -3.16699 24.5 -9.5zM211.503 76.9961c6.33301 -6 9.5 -14 9.5 -24c0 -12 -3.16699 -21.333 -9.5 -28s-14.5 -10 -24.5 -10c-9.33301 0 -17.333 3.33301 -24 10s-10 16 -10 28
c0 10 3.33301 18 10 24s14.667 9 24 9c10 0 18.167 -3 24.5 -9zM423.003 76.9961c6.66699 -6 9.99805 -14 9.99805 -24c0 -12.667 -3 -22.167 -9 -28.5s-14.667 -9.5 -26 -9.5c-9.33301 0 -17.166 3.33301 -23.499 10s-9.5 16 -9.5 28c0 10 3.33301 18 10 24
s14.334 9 23.001 9c10 0 18.333 -3 25 -9zM318.501 49.9961c6.33301 -6 9.5 -14.667 9.5 -26s-3.33301 -20.166 -10 -26.499s-15 -9.5 -25 -9.5c-9.33301 0 -17.333 3.16699 -24 9.5s-10 15.166 -10 26.499c0 10.667 3.33301 19.167 10 25.5s14.667 9.5 24 9.5
c10.667 0 19.167 -3 25.5 -9z" />
    <glyph glyph-name="dotlessj" unicode="&#xf6be;" horiz-adv-x="231" 
d="M-36 -208l15 56.001c16 -5.33301 31.667 -8 47 -8c23.333 0 39.333 8 48 24s13 40.333 13 73l1 548h72v-549c0 -50.667 -10.167 -89.334 -30.5 -116.001s-52.5 -40 -96.5 -40c-24.667 0 -47.667 4 -69 12z" />
    <glyph glyph-name="uniFB2A" unicode="&#xfb2a;" horiz-adv-x="630" 
d="M463.5 96c-75.667 -69.333 -190.501 -104.668 -344.501 -106.001l-70 565h74l34 -283c30 16 53.333 33.167 70 51.5s28.834 40.833 36.501 67.5s12.167 61 13.5 103l1 59h74l-1 -58c-1.33301 -73.333 -16 -131.5 -44 -174.5s-75.667 -79.167 -143 -108.5l19 -154
c106 6.66699 185.333 38.5 238 95.5s78.667 142.167 78 255.5l-1 146h77l1 -143c0.666992 -141.333 -36.833 -246.666 -112.5 -315.999zM553.999 676.498c5.33301 -6.33301 8 -13.833 8 -22.5s-2.66699 -16.167 -8 -22.5s-12.333 -9.5 -21 -9.5s-15.834 3.16699 -21.501 9.5
s-8.5 13.833 -8.5 22.5s2.83301 16.167 8.5 22.5s12.834 9.5 21.501 9.5s15.667 -3.16699 21 -9.5z" />
    <glyph glyph-name="uniFB2B" unicode="&#xfb2b;" horiz-adv-x="630" 
d="M463.5 96c-75.667 -69.333 -190.501 -104.668 -344.501 -106.001l-70 565h74l34 -283c30 16 53.333 33.167 70 51.5s28.834 40.833 36.501 67.5s12.167 61 13.5 103l1 59h74l-1 -58c-1.33301 -73.333 -16 -131.5 -44 -174.5s-75.667 -79.167 -143 -108.5l19 -154
c106 6.66699 185.333 38.5 238 95.5s78.667 142.167 78 255.5l-1 146h77l1 -143c0.666992 -141.333 -36.833 -246.666 -112.5 -315.999zM95.999 676.498c5.33301 -6.33301 8 -13.833 8 -22.5s-2.66699 -16.167 -8 -22.5s-12.333 -9.5 -21 -9.5s-15.834 3.16699 -21.501 9.5
s-8.5 13.833 -8.5 22.5s2.83301 16.167 8.5 22.5s12.834 9.5 21.501 9.5s15.667 -3.16699 21 -9.5z" />
    <glyph glyph-name="uniFB2C" unicode="&#xfb2c;" horiz-adv-x="630" 
d="M463.5 96c-75.667 -69.333 -190.501 -104.668 -344.501 -106.001l-70 565h74l34 -283c30 16 53.333 33.167 70 51.5s28.834 40.833 36.501 67.5s12.167 61 13.5 103l1 59h74l-1 -58c-1.33301 -73.333 -16 -131.5 -44 -174.5s-75.667 -79.167 -143 -108.5l19 -154
c106 6.66699 185.333 38.5 238 95.5s78.667 142.167 78 255.5l-1 146h77l1 -143c0.666992 -141.333 -36.833 -246.666 -112.5 -315.999zM392.999 301.498c5.33301 -6.33301 8 -13.833 8 -22.5s-2.66699 -16.167 -8 -22.5s-12.333 -9.5 -21 -9.5s-15.834 3.16699 -21.501 9.5
s-8.5 13.833 -8.5 22.5s2.83301 16.167 8.5 22.5s12.834 9.5 21.501 9.5s15.667 -3.16699 21 -9.5zM553.999 676.498c5.33301 -6.33301 8 -13.833 8 -22.5s-2.66699 -16.167 -8 -22.5s-12.333 -9.5 -21 -9.5s-15.834 3.16699 -21.501 9.5s-8.5 13.833 -8.5 22.5
s2.83301 16.167 8.5 22.5s12.834 9.5 21.501 9.5s15.667 -3.16699 21 -9.5z" />
    <glyph glyph-name="uniFB2D" unicode="&#xfb2d;" horiz-adv-x="630" 
d="M463.5 96c-75.667 -69.333 -190.501 -104.668 -344.501 -106.001l-70 565h74l34 -283c30 16 53.333 33.167 70 51.5s28.834 40.833 36.501 67.5s12.167 61 13.5 103l1 59h74l-1 -58c-1.33301 -73.333 -16 -131.5 -44 -174.5s-75.667 -79.167 -143 -108.5l19 -154
c106 6.66699 185.333 38.5 238 95.5s78.667 142.167 78 255.5l-1 146h77l1 -143c0.666992 -141.333 -36.833 -246.666 -112.5 -315.999zM392.999 301.498c5.33301 -6.33301 8 -13.833 8 -22.5s-2.66699 -16.167 -8 -22.5s-12.333 -9.5 -21 -9.5s-15.834 3.16699 -21.501 9.5
s-8.5 13.833 -8.5 22.5s2.83301 16.167 8.5 22.5s12.834 9.5 21.501 9.5s15.667 -3.16699 21 -9.5zM95.999 676.498c5.33301 -6.33301 8 -13.833 8 -22.5s-2.66699 -16.167 -8 -22.5s-12.333 -9.5 -21 -9.5s-15.834 3.16699 -21.501 9.5s-8.5 13.833 -8.5 22.5
s2.83301 16.167 8.5 22.5s12.834 9.5 21.501 9.5s15.667 -3.16699 21 -9.5z" />
    <glyph glyph-name="uniFB2E" unicode="&#xfb2e;" horiz-adv-x="560" 
d="M441 0l-227 341l-107 -341h-74l109 344l27 66l-92 145h79l89 -140l94 -139l23 83l60 196h75l-113 -347l141 -208h-84zM362 -94h-158v35h158v-35z" />
    <glyph glyph-name="uniFB2F" unicode="&#xfb2f;" horiz-adv-x="560" 
d="M441 0l-227 341l-107 -341h-74l109 344l27 66l-92 145h79l89 -140l94 -139l23 83l60 196h75l-113 -347l141 -208h-84zM362 -94h-67l7 -100h-39l7 100h-66v35h158v-35z" />
    <glyph glyph-name="uniFB30" unicode="&#xfb30;" horiz-adv-x="560" 
d="M441 0l-227 341l-107 -341h-74l109 344l27 66l-92 145h79l89 -140l94 -139l23 83l60 196h75l-113 -347l141 -208h-84zM271 141.5c5.33301 -6.33301 8 -13.833 8 -22.5s-2.66699 -16.167 -8 -22.5s-12.333 -9.5 -21 -9.5s-15.834 3.16699 -21.501 9.5
s-8.5 13.833 -8.5 22.5s2.83301 16.167 8.5 22.5s12.834 9.5 21.501 9.5s15.667 -3.16699 21 -9.5z" />
    <glyph glyph-name="uniFB31" unicode="&#xfb31;" horiz-adv-x="526" 
d="M487 61l0.000976562 -61h-148h-288v61h288v311c0 43.333 -9.33301 74.5 -28 93.5s-45.334 28.5 -80.001 28.5h-180v61h197c112 0 168 -62 168 -186v-308h71zM204.001 319.5c5.33301 -6.33301 8 -13.833 8 -22.5s-2.66699 -16.167 -8 -22.5s-12.333 -9.5 -21 -9.5
s-15.834 3.16699 -21.501 9.5s-8.5 13.833 -8.5 22.5s2.83301 16.167 8.5 22.5s12.834 9.5 21.501 9.5s15.667 -3.16699 21 -9.5z" />
    <glyph glyph-name="uniFB32" unicode="&#xfb32;" horiz-adv-x="372" 
d="M252 0l-25.0039 136.001c-19.333 -36.667 -43.166 -67.334 -71.499 -92.001s-62.166 -44 -101.499 -58l-28 62c44.667 16 82.334 37 113.001 63s55.667 59.333 75 100v184c0 33.333 -4.16699 57.5 -12.5 72.5s-24.166 24.5 -47.499 28.5l-64 10l11 60l84 -13
c38.667 -6 66 -21 82 -45s24 -59.667 24 -107v-193l35 -208h-74zM114.996 325.501c5.33301 -6.33301 8 -13.833 8 -22.5s-2.66699 -16.167 -8 -22.5s-12.333 -9.5 -21 -9.5s-15.834 3.16699 -21.501 9.5s-8.5 13.833 -8.5 22.5s2.83301 16.167 8.5 22.5
s12.834 9.5 21.501 9.5s15.667 -3.16699 21 -9.5z" />
    <glyph glyph-name="uniFB33" unicode="&#xfb33;" horiz-adv-x="536" 
d="M306 377c0 51.333 9 90.333 27 117h-280v61h428v-61h-74c-16 -27.333 -24 -66.333 -24 -117v-377h-77v377zM196 319.5c5.33301 -6.33301 8 -13.833 8 -22.5s-2.66699 -16.167 -8 -22.5s-12.333 -9.5 -21 -9.5s-15.834 3.16699 -21.501 9.5s-8.5 13.833 -8.5 22.5
s2.83301 16.167 8.5 22.5s12.834 9.5 21.501 9.5s15.667 -3.16699 21 -9.5z" />
    <glyph glyph-name="uniFB34" unicode="&#xfb34;" horiz-adv-x="546" 
d="M403 372c0 43.333 -9.33203 74.5 -27.999 93.5s-45.334 28.5 -80.001 28.5h-234v61h251c112 0 168 -62 168 -186v-369h-77v372zM60.001 270l11 67h66v-337h-77v270zM288.001 319.5c5.33301 -6.33301 8 -13.833 8 -22.5s-2.66699 -16.167 -8 -22.5s-12.333 -9.5 -21 -9.5
s-15.834 3.16699 -21.501 9.5s-8.5 13.833 -8.5 22.5s2.83301 16.167 8.5 22.5s12.834 9.5 21.501 9.5s15.667 -3.16699 21 -9.5z" />
    <glyph glyph-name="uniFB35" unicode="&#xfb35;" horiz-adv-x="224" 
d="M78 438l-13 117h76l14 -117v-438h-77v438zM18 319.5c5.33301 -6.33301 8 -13.833 8 -22.5s-2.66699 -16.167 -8 -22.5s-12.333 -9.5 -21 -9.5s-15.834 3.16699 -21.501 9.5s-8.5 13.833 -8.5 22.5s2.83301 16.167 8.5 22.5s12.834 9.5 21.501 9.5
s15.667 -3.16699 21 -9.5z" />
    <glyph glyph-name="uniFB36" unicode="&#xfb36;" horiz-adv-x="361" 
d="M127 377c0 50 9.33301 89 28 117h-100v61h251v-61h-79c-15.333 -26 -23 -65 -23 -117v-377h-77v377zM70 319.5c5.33301 -6.33301 8 -13.833 8 -22.5s-2.66699 -16.167 -8 -22.5s-12.333 -9.5 -21 -9.5s-15.834 3.16699 -21.501 9.5s-8.5 13.833 -8.5 22.5
s2.83301 16.167 8.5 22.5s12.834 9.5 21.501 9.5s15.667 -3.16699 21 -9.5z" />
    <glyph glyph-name="uniFB38" unicode="&#xfb38;" horiz-adv-x="553" 
d="M49 555l77 0.000976562l58 -494c77.333 8 139.166 33.333 185.499 76s67.833 107.667 64.5 195v25c0 41.333 -10.667 74.666 -32 99.999s-53.333 39.333 -96 42l-50 3l5 62l56 -4c58.667 -3.33301 104.834 -21 138.501 -53s51.5 -78.667 53.5 -140l1 -28
c4 -114.667 -30 -200 -102 -256s-169.333 -87 -292 -93zM307 325.501c5.33301 -6.33301 8 -13.833 8 -22.5s-2.66699 -16.167 -8 -22.5s-12.333 -9.5 -21 -9.5s-15.834 3.16699 -21.501 9.5s-8.5 13.833 -8.5 22.5s2.83301 16.167 8.5 22.5s12.834 9.5 21.501 9.5
s15.667 -3.16699 21 -9.5z" />
    <glyph glyph-name="uniFB39" unicode="&#xfb39;" horiz-adv-x="224" 
d="M78 438l-13 117h76l14 -117v-149l-1 -63l-76 -16v228zM25 411.5c5.33301 -6.33301 8 -13.833 8 -22.5s-2.66699 -16.167 -8 -22.5s-12.333 -9.5 -21 -9.5s-15.834 3.16699 -21.501 9.5s-8.5 13.833 -8.5 22.5s2.83301 16.167 8.5 22.5s12.834 9.5 21.501 9.5
s15.667 -3.16699 21 -9.5z" />
    <glyph glyph-name="uniFB3A" unicode="&#xfb3a;" horiz-adv-x="503" 
d="M357 372c0 43.333 -9.33203 74.5 -27.999 93.5s-45.334 28.5 -80.001 28.5h-194v61h211c112 0 168 -62 168 -186v-569h-77v572zM205.001 319.5c5.33301 -6.33301 8 -13.833 8 -22.5s-2.66699 -16.167 -8 -22.5s-12.333 -9.5 -21 -9.5s-15.834 3.16699 -21.501 9.5
s-8.5 13.833 -8.5 22.5s2.83301 16.167 8.5 22.5s12.834 9.5 21.501 9.5s15.667 -3.16699 21 -9.5z" />
    <glyph glyph-name="uniFB3B" unicode="&#xfb3b;" horiz-adv-x="471" 
d="M45 61l132 0.00195312c54 0 94.667 15.667 122 47s41 77.333 41 138v63c0 60.667 -13.667 106.667 -41 138s-68 47 -122 47h-132v61h147c72 0 127.5 -21.333 166.5 -64s58.5 -104.334 58.5 -185.001v-57c0 -80.667 -19.5 -142.334 -58.5 -185.001s-94.5 -64 -166.5 -64
h-147v61zM194 312.502c5.33301 -6.33301 8 -13.833 8 -22.5s-2.66699 -16.167 -8 -22.5s-12.333 -9.5 -21 -9.5s-15.834 3.16699 -21.501 9.5s-8.5 13.833 -8.5 22.5s2.83301 16.167 8.5 22.5s12.834 9.5 21.501 9.5s15.667 -3.16699 21 -9.5z" />
    <glyph glyph-name="uniFB3C" unicode="&#xfb3c;" horiz-adv-x="476" 
d="M430 555v-65l-193 -490h-77l193 494h-310v223h71v-162h316zM152 319.5c5.33301 -6.33301 8 -13.833 8 -22.5s-2.66699 -16.167 -8 -22.5s-12.333 -9.5 -21 -9.5s-15.834 3.16699 -21.501 9.5s-8.5 13.833 -8.5 22.5s2.83301 16.167 8.5 22.5s12.834 9.5 21.501 9.5
s15.667 -3.16699 21 -9.5z" />
    <glyph glyph-name="uniFB3E" unicode="&#xfb3e;" horiz-adv-x="605" 
d="M494.5 65c-39.667 -50.667 -96.498 -75.999 -170.498 -75.999c-25.333 0 -52.666 3 -81.999 9l8 61c22 -5.33301 44.667 -8 68 -8c55.333 0 96.166 19.167 122.499 57.5s39.5 95.5 39.5 171.5c0 145.333 -47.667 218 -143 218c-36 0 -65 -10.333 -87 -31
s-37 -47.667 -45 -81l-71 -386h-77l74 389l-77 166h80l50 -120c13.333 42 34.666 73.5 63.999 94.5s62.666 31.5 99.999 31.5c63.333 0 113.5 -21.833 150.5 -65.5s55.5 -114.5 55.5 -212.5c0 -94.667 -19.833 -167.334 -59.5 -218.001zM351.002 319.501
c5.33301 -6.33301 8 -13.833 8 -22.5s-2.66699 -16.167 -8 -22.5s-12.333 -9.5 -21 -9.5s-15.834 3.16699 -21.501 9.5s-8.5 13.833 -8.5 22.5s2.83301 16.167 8.5 22.5s12.834 9.5 21.501 9.5s15.667 -3.16699 21 -9.5z" />
    <glyph glyph-name="uniFB40" unicode="&#xfb40;" horiz-adv-x="368" 
d="M48 61l174 -0.00195312v333c0 32.667 -6.5 56.834 -19.5 72.501s-32.5 25.5 -58.5 29.5l-67 10l11 60l87 -13c40 -6.66699 70.667 -23.167 92 -49.5s32 -62.166 32 -107.499v-396h-251v61zM123 319.498c5.33301 -6.33301 8 -13.833 8 -22.5s-2.66699 -16.167 -8 -22.5
s-12.333 -9.5 -21 -9.5s-15.834 3.16699 -21.501 9.5s-8.5 13.833 -8.5 22.5s2.83301 16.167 8.5 22.5s12.834 9.5 21.501 9.5s15.667 -3.16699 21 -9.5z" />
    <glyph glyph-name="uniFB41" unicode="&#xfb41;" horiz-adv-x="565" 
d="M117 -10l-61 504l-7 61h273c58.667 0 104.5 -18.167 137.5 -54.5s50.5 -85.833 52.5 -148.5l1 -31c6.66699 -208.667 -125.333 -319 -396 -331zM373 130c46 38.667 67 103.001 63 193.001v24c0 43.333 -10.5 78.666 -31.5 105.999s-50.5 41 -88.5 41h-183l52 -433
c79.333 7.33301 142 30.333 188 69zM305 322.501c5.33301 -6.33301 8 -13.833 8 -22.5s-2.66699 -16.167 -8 -22.5s-12.333 -9.5 -21 -9.5s-15.834 3.16699 -21.501 9.5s-8.5 13.833 -8.5 22.5s2.83301 16.167 8.5 22.5s12.834 9.5 21.501 9.5s15.667 -3.16699 21 -9.5z" />
    <glyph glyph-name="uniFB43" unicode="&#xfb43;" horiz-adv-x="547" 
d="M425.5 491.5c34.333 -42.333 51.833 -103.83 52.5 -184.497v-507h-77v509c0 123.333 -46.333 185 -139 185h-105l-19 -92c-4 -20.667 -6 -39.334 -6 -56.001c0 -22.667 4.5 -40.834 13.5 -54.501s23.167 -22.834 42.5 -27.501l-19 -50c-38 6 -65.667 19.333 -83 40
s-26 49 -26 85c0 21.333 2.33301 43.333 7 66l32 150h179c64 0 113.167 -21.167 147.5 -63.5zM309 319.503c5.33301 -6.33301 8 -13.833 8 -22.5s-2.66699 -16.167 -8 -22.5s-12.333 -9.5 -21 -9.5s-15.834 3.16699 -21.501 9.5s-8.5 13.833 -8.5 22.5
s2.83301 16.167 8.5 22.5s12.834 9.5 21.501 9.5s15.667 -3.16699 21 -9.5z" />
    <glyph glyph-name="uniFB44" unicode="&#xfb44;" horiz-adv-x="541" 
d="M76 61l163.997 -0.000976562c52 0 93.5 14.5 124.5 43.5s46.5 76.833 46.5 143.5v61c0 60.667 -11.667 106.667 -35 138s-58.666 47 -105.999 47h-105l-26 -111c-4 -18.667 -6 -35.334 -6 -50.001c0 -22.667 6.16699 -40.334 18.5 -53.001s32.833 -21.667 61.5 -27
l-16 -53c-46.667 4.66699 -80.5 17.834 -101.5 39.501s-31.5 51.834 -31.5 90.501c0 18.667 2 38.334 6 59.001l38 166h175c64.667 0 114.834 -21.333 150.501 -64s53.834 -104 54.501 -184v-56c0 -86.667 -21.667 -150.167 -65 -190.5s-100 -60.5 -170 -60.5h-177v61z
M307.997 316.499c5.33301 -6.33301 8 -13.833 8 -22.5s-2.66699 -16.167 -8 -22.5s-12.333 -9.5 -21 -9.5s-15.834 3.16699 -21.501 9.5s-8.5 13.833 -8.5 22.5s2.83301 16.167 8.5 22.5s12.834 9.5 21.501 9.5s15.667 -3.16699 21 -9.5z" />
    <glyph glyph-name="uniFB46" unicode="&#xfb46;" horiz-adv-x="517" 
d="M469 0h-79h-351v61h315l-295 494h80l142 -239l102 239h78l-138 -309zM169 163.5c-5.33301 -6.33301 -12.333 -9.5 -21 -9.5s-15.834 3.16699 -21.501 9.5s-8.5 13.833 -8.5 22.5s2.83301 16.167 8.5 22.5s12.834 9.5 21.501 9.5s15.667 -3.16699 21 -9.5
s8 -13.833 8 -22.5s-2.66699 -16.167 -8 -22.5z" />
    <glyph glyph-name="uniFB47" unicode="&#xfb47;" horiz-adv-x="549" 
d="M220 61c35.333 4 65 12.333 89 25s44 34.667 60 66s26 75.333 30 132l17 210h-360v61h442l-3 -55l-16 -201c-4.66699 -96.667 -29.167 -170 -73.5 -220s-103.5 -76.333 -177.5 -79zM58 284l11 68h66v-552h-77v484zM295 325.5c5.33301 -6.33301 8 -13.833 8 -22.5
s-2.66699 -16.167 -8 -22.5s-12.333 -9.5 -21 -9.5s-15.834 3.16699 -21.501 9.5s-8.5 13.833 -8.5 22.5s2.83301 16.167 8.5 22.5s12.834 9.5 21.501 9.5s15.667 -3.16699 21 -9.5z" />
    <glyph glyph-name="uniFB48" unicode="&#xfb48;" horiz-adv-x="473" 
d="M326 372c0 43.333 -9.33203 74.5 -27.999 93.5s-45.334 28.5 -80.001 28.5h-177v61h194c112 0 168 -62 168 -186v-369h-77v372zM181.001 319.5c5.33301 -6.33301 8 -13.833 8 -22.5s-2.66699 -16.167 -8 -22.5s-12.333 -9.5 -21 -9.5s-15.834 3.16699 -21.501 9.5
s-8.5 13.833 -8.5 22.5s2.83301 16.167 8.5 22.5s12.834 9.5 21.501 9.5s15.667 -3.16699 21 -9.5z" />
    <glyph glyph-name="uniFB49" unicode="&#xfb49;" horiz-adv-x="630" 
d="M463.5 96c-75.667 -69.333 -190.501 -104.668 -344.501 -106.001l-70 565h74l34 -283c30 16 53.333 33.167 70 51.5s28.834 40.833 36.501 67.5s12.167 61 13.5 103l1 59h74l-1 -58c-1.33301 -73.333 -16 -131.5 -44 -174.5s-75.667 -79.167 -143 -108.5l19 -154
c106 6.66699 185.333 38.5 238 95.5s78.667 142.167 78 255.5l-1 146h77l1 -143c0.666992 -141.333 -36.833 -246.666 -112.5 -315.999zM392.999 301.498c5.33301 -6.33301 8 -13.833 8 -22.5s-2.66699 -16.167 -8 -22.5s-12.333 -9.5 -21 -9.5s-15.834 3.16699 -21.501 9.5
s-8.5 13.833 -8.5 22.5s2.83301 16.167 8.5 22.5s12.834 9.5 21.501 9.5s15.667 -3.16699 21 -9.5z" />
    <glyph glyph-name="uniFB4A" unicode="&#xfb4a;" horiz-adv-x="605" 
d="M22 41c39.333 3.33301 66.501 14.5 81.501 33.5s22.5 47.833 22.5 86.5v394h245c112 0 168 -62 168 -186v-369h-77v372c0 43.333 -9.33301 74.5 -28 93.5s-45.334 28.5 -80.001 28.5h-151v-325c0 -58.667 -13.667 -102.5 -41 -131.5s-71.333 -46.167 -132 -51.5z
M350.001 319.5c5.33301 -6.33301 8 -13.833 8 -22.5s-2.66699 -16.167 -8 -22.5s-12.333 -9.5 -21 -9.5s-15.834 3.16699 -21.501 9.5s-8.5 13.833 -8.5 22.5s2.83301 16.167 8.5 22.5s12.834 9.5 21.501 9.5s15.667 -3.16699 21 -9.5z" />
    <glyph glyph-name="uniFB4B" unicode="&#xfb4b;" horiz-adv-x="224" 
d="M78 438l-13 117h76l14 -117v-438h-77v438zM112 673c5.33301 -6 8 -13.333 8 -22s-2.66699 -16.167 -8 -22.5s-12.333 -9.5 -21 -9.5s-15.834 3.16699 -21.501 9.5s-8.5 13.833 -8.5 22.5c0 8 2.83301 15.167 8.5 21.5s12.834 9.5 21.501 9.5s15.667 -3 21 -9z" />
    <glyph glyph-name="a.sups" horiz-adv-x="343" 
d="M65.5 414.5c-17.667 17 -26.499 39.8311 -26.499 68.498c0 34.667 15.833 61.334 47.5 80.001s82.5 31.667 152.5 39c-0.666992 24.667 -5.83398 43.834 -15.501 57.501s-25.834 20.5 -48.501 20.5c-16.667 0 -34.167 -3.5 -52.5 -10.5s-35.166 -15.167 -50.499 -24.5
l-21 39c47.333 28 91.333 42 132 42c74 0 111 -43.667 111 -131v-198h-44l-7 38h-4c-34.667 -30.667 -69 -46 -103 -46c-29.333 0 -52.833 8.5 -70.5 25.5zM239.001 476.998l-0.000976562 89c-52 -6 -89.167 -15.5 -111.5 -28.5s-33.5 -29.833 -33.5 -50.5
c0 -34.667 19.667 -52 59 -52c28.667 0 57.334 14 86.001 42z" />
    <glyph glyph-name="e.sups" horiz-adv-x="335" 
d="M73 434c-29.333 30 -44 71.334 -44 124.001c0 33.333 6.66699 62.666 20 87.999s31.333 45 54 59s47.334 21 74.001 21c45.333 0 78.5 -15 99.5 -45s31.5 -63.667 31.5 -101c0 -9.33301 -1.33301 -21 -4 -35h-220c1.33301 -34 11.666 -60.833 30.999 -80.5
s44.666 -29.5 75.999 -29.5c30 0 57.667 8.66699 83 26l22 -36c-36.667 -24 -73.667 -36 -111 -36c-45.333 0 -82.666 15 -111.999 45zM258 583.001c0 27.333 -6.5 50.5 -19.5 69.5s-33.5 28.5 -61.5 28.5c-25.333 0 -46.333 -8.66699 -63 -26s-26.667 -41.333 -30 -72h174z
" />
    <glyph glyph-name="eogonek.sups" horiz-adv-x="335" 
d="M73 434c-29.333 30 -44 71.334 -44 124.001c0 33.333 6.66699 62.666 20 87.999s31.333 45 54 59s47.334 21 74.001 21c45.333 0 78.5 -15 99.5 -45s31.5 -63.667 31.5 -101c0 -9.33301 -1.33301 -21 -4 -35h-220c1.33301 -34 11.666 -60.833 30.999 -80.5
s44.666 -29.5 75.999 -29.5c30 0 57.667 8.66699 83 26l22 -36c-36.667 -24 -73.667 -36 -111 -36c-45.333 0 -82.666 15 -111.999 45zM258 583.001c0 27.333 -6.5 50.5 -19.5 69.5s-33.5 28.5 -61.5 28.5c-25.333 0 -46.333 -8.66699 -63 -26s-26.667 -41.333 -30 -72h174z
" />
    <glyph glyph-name="j.sups" horiz-adv-x="166" 
d="M56.5 793.5c-7.66699 7 -11.5 15.833 -11.5 26.5s3.83301 19.5 11.5 26.5s17.167 10.5 28.5 10.5s20.666 -3.5 27.999 -10.5s11 -15.833 11 -26.5s-3.66699 -19.5 -11 -26.5s-16.666 -10.5 -27.999 -10.5s-20.833 3.5 -28.5 10.5zM-25 259l12.001 44.999
c10 -3.33301 19.667 -5 29 -5c15.333 0 25.666 4.83301 30.999 14.5s8 24.834 8 45.501v359h56v-355c0 -74.667 -29.667 -112 -89 -112c-14 0 -29.667 2.66699 -47 8z" />
    <glyph glyph-name="o.sups" horiz-adv-x="363" 
d="M105.5 409.5c-23 13.667 -41.335 33.334 -55.002 59.001s-20.5 55.5 -20.5 89.5c0 34.667 6.83301 64.667 20.5 90s31.834 44.666 54.501 57.999s48 20 76 20s53.333 -6.66699 76 -20s40.834 -32.666 54.501 -57.999s20.5 -55.333 20.5 -90
c0 -34 -6.83301 -63.833 -20.5 -89.5s-32 -45.334 -55 -59.001s-48.167 -20.5 -75.5 -20.5s-52.5 6.83301 -75.5 20.5zM248.998 469.5c16.667 22.333 25.001 51.833 25.001 88.5s-8.33301 66.167 -25 88.5s-39.334 33.5 -68.001 33.5s-51.334 -11.167 -68.001 -33.5
s-25 -51.833 -25 -88.5s8.5 -66.167 25.5 -88.5s39.5 -33.5 67.5 -33.5c28.667 0 51.334 11.167 68.001 33.5z" />
    <glyph glyph-name="zero.heb" 
d="M98 75c-35.333 58 -53 140 -53 246s17.667 187.333 53 244s84.666 85 147.999 85s112.666 -28.333 147.999 -85s53 -138 53 -244s-17.667 -188 -53 -246s-84.666 -87 -147.999 -87s-112.666 29 -147.999 87zM341.5 115.5c23 45.667 34.5 114.167 34.5 205.5
s-11.5 159.166 -34.5 203.499s-54.833 66.5 -95.5 66.5s-72.5 -22.167 -95.5 -66.5s-34.5 -112.166 -34.5 -203.499s11.5 -159.833 34.5 -205.5s54.833 -68.5 95.5 -68.5s72.5 22.833 95.5 68.5z" />
    <glyph glyph-name="one.heb" 
d="M80 61h147v485h-116v47c54 9.33301 98.333 24.333 133 45h56v-577h133v-61h-353v61z" />
    <glyph glyph-name="two.heb" 
d="M40 43c75.333 76 133.666 137 174.999 183s73.166 88.333 95.499 127s33.5 75 33.5 109c0 38.667 -10.667 69.667 -32 93s-52.666 35 -93.999 35c-25.333 0 -49.833 -7 -73.5 -21s-45.5 -33 -65.5 -57l-43 42c28 30.667 57.333 54.334 88 71.001s65 25 103 25
c58 0 104 -16.833 138 -50.5s51 -78.5 51 -134.5c0 -38.667 -10.833 -78.334 -32.5 -119.001s-50.167 -81.667 -85.5 -123s-85.666 -96.333 -150.999 -165l24 1c37.333 2.66699 65 4 83 4h193v-63h-407v43z" />
    </font>
</defs>
</svg>
