<?xml version="1.0" standalone="no"?>
<!DOCTYPE svg PUBLIC "-//W3C//DTD SVG 1.1//EN" "http://www.w3.org/Graphics/SVG/1.1/DTD/svg11.dtd" >
<svg xmlns="http://www.w3.org/2000/svg" xmlns:xlink="http://www.w3.org/1999/xlink" version="1.1">
<metadata>
Created by FontForge 20170515 at Thu Oct 12 17:23:24 2017
 By fw_worker
Copyright (c) David J. Perry, 2002-2011. All rights reserved.
</metadata>
<defs>
<font id="Cardo" horiz-adv-x="0" >
  <font-face 
    font-family="Cardo"
    font-weight="400"
    font-stretch="normal"
    units-per-em="2048"
    panose-1="2 2 6 0 0 0 0 0 0 0"
    ascent="1638"
    descent="-410"
    x-height="900"
    cap-height="1410"
    bbox="-1876 -745 9673 2336"
    underline-thickness="100"
    underline-position="-205"
    unicode-range="U+0020-F031D"
  />
<missing-glyph horiz-adv-x="1078" 
d="M120 1410h838v-1410h-838v1410zM911 47v1316h-744v-1316h744zM389 674q0 31 12 58.5t32 47.5t47.5 32t58.5 12t58.5 -12t47.5 -32t32 -47.5t12 -58.5t-12 -58.5t-32 -47.5t-47.5 -32t-58.5 -12t-58.5 12t-47.5 32t-32 47.5t-12 58.5z" />
    <glyph glyph-name="f_f" unicode="ff" horiz-adv-x="1230" 
d="M40 16q0 9 10 13q13 6 37 9.5t48 14t42 33t18 66.5v606q0 11 -12 11h-109q-12 0 -23 7.5t-11 21.5q0 11 11.5 18t28.5 12.5t37.5 11t37.5 13.5t28.5 18.5t11.5 27.5v-17q1 97 15.5 194.5t49.5 184.5t94 158.5t148 116.5q60 30 114 48t120 18q13 0 45 -7t67.5 -21.5
t66.5 -36t43 -50.5q30 36 67 66t83 53q60 30 114 48t120 18q14 0 44 -6.5t61 -18.5t54 -29.5t23 -39.5q0 -8 -2.5 -14t-5.5 -15l-41 -88q-2 -4 -7.5 -10t-11.5 -6q-2 0 -4.5 1.5t-12.5 9.5q-23 18 -47 36.5t-50 34t-54 25t-57 9.5q-68 0 -114.5 -18.5t-77 -49t-47 -69
t-24.5 -79t-9.5 -79t-1.5 -67.5v-291q0 -6 2.5 -7t7.5 -1h195q28 0 36.5 -5.5t12.5 -20.5q6 -23 9 -42.5t3 -41.5q0 -13 -5 -17t-21 -4h-227q-2 0 -7.5 -1t-5.5 -9v-587q0 -44 22 -72t57.5 -43.5t80 -21.5t88.5 -6q18 -2 18 -13q0 -5 -2.5 -10.5t-15.5 -5.5h-549
q-10 2 -10 16q0 9 10 13q13 6 37 9.5t48 14t42 33t18 66.5v606q0 11 -12 11h-425q-2 0 -7.5 -1t-5.5 -9v-587q0 -44 22 -72t57.5 -43.5t80 -21.5t88.5 -6q18 -2 18 -13q0 -5 -2.5 -10.5t-15.5 -5.5h-549q-10 2 -10 16zM801 932q0 109 16 216.5t58 202.5l-4 4t-6 5
q-67 59 -124 95t-116 36q-68 0 -114.5 -18.5t-77 -49t-47 -69t-24.5 -79t-9.5 -79t-1.5 -67.5v-221q0 -6 2.5 -7t7.5 -1h440v32z" />
    <glyph glyph-name="fi" unicode="fi" horiz-adv-x="1153" 
d="M364 769q-2 0 -7.5 -1t-5.5 -9v-587q0 -44 22 -72t57.5 -43.5t80 -21.5t88.5 -6q18 -2 18 -13q0 -5 -2.5 -10.5t-15.5 -5.5h-549q-10 2 -10 16q0 9 10 13q13 6 37 9.5t48 14t42 33t18 66.5v606q0 11 -12 11h-109q-12 0 -23 7.5t-11 21.5q0 11 11.5 18t28.5 12.5t37.5 11
t37.5 13.5t28.5 18.5t11.5 27.5v33q0 100 13.5 200.5t48.5 190.5t94 163.5t151 119.5q60 30 114 48t120 18q14 0 44 -6.5t61 -18.5t54 -29.5t23 -39.5q0 -8 -2.5 -14t-5.5 -15l-41 -88q-6 -14 -17 -14q-9 0 -19 9q-23 18 -47 36.5t-50 34t-54 25t-57 9.5q-68 0 -114.5 -18.5
t-77 -49t-47 -69t-24.5 -79t-9.5 -79t-1.5 -67.5v-291q0 -6 2.5 -7t7.5 -1h498q46 0 72 -28t26 -65v-655q0 -44 18 -66.5t42 -33t48 -14t37 -9.5q10 -4 10 -13q0 -14 -10 -16h-446q-10 2 -10 16q0 9 10 13q13 6 37 9.5t48 14t42 33t18 66.5v508q0 35 -9.5 56.5t-25.5 33
t-35.5 15.5t-38.5 4h-328z" />
    <glyph glyph-name="fl" unicode="fl" horiz-adv-x="1168" 
d="M1133 16q0 -14 -10 -16h-446q-10 2 -10 16q0 9 10 13q13 6 37 9.5t48 14t42 33t18 66.5v617h-458q-2 0 -7.5 -1t-5.5 -9v-587q0 -44 22 -72t57.5 -43.5t80 -21.5t88.5 -6q18 -2 18 -13q0 -5 -2.5 -10.5t-15.5 -5.5h-549q-10 2 -10 16q0 9 10 13q13 6 37 9.5t48 14t42 33
t18 66.5v606q0 11 -12 11h-109q-12 0 -23 7.5t-11 21.5q0 11 11.5 18t28.5 12.5t37.5 11t37.5 13.5t28.5 18.5t11.5 27.5v33q0 100 13.5 197t48.5 183t94 156.5t151 116.5q17 8 32 11.5t31 3.5q20 0 40.5 -4.5t41.5 -9.5t43 -9.5t46 -4.5q17 0 50.5 6.5t68.5 17.5l91 43
q4 2 8.5 4t6.5 2q17 0 17 -24v-1469q0 -44 18 -66.5t42 -33t48 -14t37 -9.5q10 -4 10 -13zM351 908q0 -6 2.5 -7t7.5 -1h461v506q-22 17 -45 34.5t-48 31t-51 22t-53 8.5q-68 0 -114.5 -14.5t-77 -38t-47 -54.5t-24.5 -65t-9.5 -68t-1.5 -63v-291z" />
    <glyph glyph-name="f_f_i" unicode="ffi" horiz-adv-x="1768" 
d="M970 769q-2 0 -7.5 -1t-5.5 -9v-587q0 -44 22 -72t57.5 -43.5t80 -21.5t88.5 -6q18 -2 18 -13q0 -5 -2.5 -10.5t-15.5 -5.5h-549q-10 2 -10 16q0 9 10 13q13 6 37 9.5t48 14t42 33t18 66.5v606q0 11 -12 11h-425q-2 0 -7.5 -1t-5.5 -9v-587q0 -44 22 -72t57.5 -43.5
t80 -21.5t88.5 -6q18 -2 18 -13q0 -5 -2.5 -10.5t-15.5 -5.5h-549q-10 2 -10 16q0 9 10 13q13 6 37 9.5t48 14t42 33t18 66.5v606q0 11 -12 11h-109q-12 0 -23 7.5t-11 21.5q0 11 11.5 18t28.5 12.5t37.5 11t37.5 13.5t28.5 18.5t11.5 27.5v-17q1 97 15.5 194.5t49.5 184.5
t94 158.5t148 116.5q60 30 114 48t120 18q13 0 45 -7t67.5 -21.5t66.5 -36t43 -50.5q30 36 67 66t83 53q60 30 114 48t120 18q14 0 44 -6.5t61 -18.5t54 -29.5t23 -39.5q0 -8 -2.5 -14t-5.5 -15l-41 -88q-2 -4 -7.5 -10t-11.5 -6q-2 0 -4.5 1.5t-12.5 9.5q-23 18 -47 36.5
t-50 34t-54 25t-57 9.5q-68 0 -114.5 -18.5t-77 -49t-47 -69t-24.5 -79t-9.5 -79t-1.5 -67.5v-291q0 -6 2.5 -7t7.5 -1h498q46 0 72 -28t26 -65v-655q0 -44 18 -66.5t42 -33t48 -14t37 -9.5q10 -4 10 -13q0 -14 -10 -16h-446q-10 2 -10 16q0 9 10 13q13 6 37 9.5t48 14
t42 33t18 66.5v508q0 35 -9.5 56.5t-25.5 33t-35.5 15.5t-38.5 4h-328zM801 932q0 109 16 216.5t58 202.5l-4 4t-6 5q-67 59 -124 95t-116 36q-68 0 -114.5 -18.5t-77 -49t-47 -69t-24.5 -79t-9.5 -79t-1.5 -67.5v-221q0 -6 2.5 -7t7.5 -1h440v32z" />
    <glyph glyph-name="f_f_l" unicode="ffl" horiz-adv-x="1795" 
d="M40 15q0 9 10 13q13 6 37 9.5t48 14t42 33t18 66.5v606q0 11 -12 11h-109q-12 0 -23 7.5t-11 21.5q0 11 11.5 18t28.5 12.5t37.5 11t37.5 13.5t28.5 18.5t11.5 27.5v-17q1 97 15.5 194.5t49.5 184.5t94 158.5t148 116.5q60 30 114 48t120 18q13 0 47.5 -7.5t73.5 -23.5
t74 -40.5t49 -58.5q30 34 67 62.5t82 51.5q17 8 32 11.5t31 3.5q20 0 40.5 -4.5t41.5 -9.5t43 -9.5t46 -4.5q17 0 50.5 6.5t68.5 17.5l91 43q4 2 8.5 4t6.5 2q17 0 17 -24v-1469q0 -44 18 -66.5t42 -33t48 -14t37 -9.5q10 -4 10 -13q0 -14 -10 -16h-446q-10 2 -10 16
q0 9 10 13q13 6 37 9.5t48 14t42 33t18 66.5v617h-458q-2 0 -7.5 -1t-5.5 -9v-587q0 -44 22 -72t57.5 -43.5t80 -21.5t88.5 -6q18 -2 18 -13q0 -5 -2.5 -10.5t-15.5 -5.5h-549q-10 2 -10 16q0 9 10 13q13 6 37 9.5t48 14t42 33t18 66.5v606q0 7 -5 10h-453q-2 0 -7.5 -1
t-5.5 -9v-587q0 -44 22 -72t57.5 -43.5t80 -21.5t88.5 -6q18 -2 18 -13q0 -5 -2.5 -10.5t-15.5 -5.5h-549q-10 2 -10 16zM822 932q0 107 15.5 210.5t56.5 194.5q-2 1 -7 6q-33 30 -67 56.5t-67.5 46.5t-66 32t-61.5 12q-68 0 -114.5 -18.5t-77 -49t-47 -69t-24.5 -79
t-9.5 -79t-1.5 -67.5v-221q0 -6 2.5 -7t7.5 -1h442h9.5t9.5 -1v34zM978 908q0 -6 2.5 -7t7.5 -1h461v506q-22 17 -45 34.5t-48 31t-51 22t-53 8.5q-68 0 -114.5 -14.5t-77 -38t-47 -54.5t-24.5 -65t-9.5 -68t-1.5 -63v-291z" />
    <glyph glyph-name="f_j" unicode="fj" horiz-adv-x="1068" 
d="M40 16q0 9 10 13q13 6 37 9.5t48 14t42 33t18 66.5v606q0 11 -12 11h-109q-12 0 -23 7.5t-11 21.5q0 11 11.5 18t28.5 12.5t37.5 11t37.5 13.5t28.5 18.5t11.5 27.5v33q0 100 13.5 200.5t48.5 190.5t94 163.5t151 119.5q60 30 114 48t120 18q14 0 44 -6.5t61 -18.5
t54 -29.5t23 -39.5q0 -8 -2.5 -14t-5.5 -15l-41 -88q-2 -4 -7.5 -10t-11.5 -6q-2 0 -4.5 1.5t-12.5 9.5q-23 18 -47 36.5t-50 34t-54 25t-57 9.5q-68 0 -114.5 -18.5t-77 -49t-47 -69t-24.5 -79t-9.5 -79t-1.5 -67.5v-291q0 -6 2.5 -7t7.5 -1h486q25 0 39 -9t20.5 -23.5
t7.5 -33.5t1 -39v-922q0 -47 -7 -97t-21.5 -99t-37.5 -94.5t-55 -82.5q-32 -43 -67 -70.5t-75.5 -43t-89 -21t-106.5 -5.5q-24 0 -51 11t-50.5 29t-39.5 41t-18 47q0 15 6.5 31t18.5 28.5t28.5 20.5t36.5 8q2 0 6.5 -1.5t18 -9.5t38.5 -26t68 -51q20 -15 50.5 -23t84.5 -8
q34 8 55 33.5t32.5 58.5t15 69t3.5 65v998q0 24 -12.5 41t-32 27.5t-43 15t-45.5 4.5h-262q-2 0 -7.5 -1t-5.5 -9v-587q0 -44 22 -72t57.5 -43.5t80 -21.5t88.5 -6q18 -2 18 -13q0 -5 -2.5 -10.5t-15.5 -5.5h-549q-10 2 -10 16z" />
    <glyph glyph-name=".notdef" horiz-adv-x="1078" 
d="M120 1410h838v-1410h-838v1410zM911 47v1316h-744v-1316h744zM389 674q0 31 12 58.5t32 47.5t47.5 32t58.5 12t58.5 -12t47.5 -32t32 -47.5t12 -58.5t-12 -58.5t-32 -47.5t-47.5 -32t-58.5 -12t-58.5 12t-47.5 32t-32 47.5t-12 58.5z" />
    <glyph glyph-name=".null" 
 />
    <glyph glyph-name="nonmarkingreturn" horiz-adv-x="1024" 
 />
    <glyph glyph-name="space" unicode=" " horiz-adv-x="550" 
 />
    <glyph glyph-name="exclam" unicode="!" horiz-adv-x="489" 
d="M130 92q0 24 9 45t24.5 36.5t36 24.5t43.5 9q24 0 45.5 -10t37 -26.5t24.5 -38t9 -44.5q0 -24 -8.5 -44.5t-23.5 -36.5t-35.5 -25t-44.5 -9q-26 0 -47 9.5t-37 25.5t-24.5 38t-8.5 46zM273 463q-2 -17 -9 -28t-21 -11t-21.5 11t-9.5 28l-74 962v52q0 14 15 14
q12 0 39.5 1t50.5 1h37t38 -2q7 0 16.5 -2.5t12.5 -11.5v-52z" />
    <glyph glyph-name="quotedbl" unicode="&#x22;" horiz-adv-x="834" 
d="M565 817q-2 40 -7.5 87t-13 96.5l-15 99t-14 93t-11 79t-4.5 57.5q0 16 9.5 30.5t25 26t34.5 18t37 6.5q19 0 37.5 -6.5t33 -18t23.5 -26t9 -30.5q0 -34 -8 -96t-19 -134.5t-22.5 -147t-18.5 -134.5h-76zM199 816q-4 60 -15 135t-22 148.5t-20 135.5t-9 95q0 15 9.5 29.5
t24.5 26t34 18t39 6.5q19 0 37.5 -6.5t32.5 -18t23 -26t9 -29.5q0 -34 -8 -96t-19 -135t-22.5 -148t-18.5 -135h-75z" />
    <glyph glyph-name="numbersign" unicode="#" horiz-adv-x="1188" 
d="M129 1065h272l101 473h127l-101 -473h252l101 473h127l-101 -473h273l-29 -121h-270l-72 -350h276l-28 -121h-275l-106 -508h-133l108 508h-248l-106 -508h-133l108 508h-270l31 121h266l76 350h-279zM430 594h248l74 350h-250z" />
    <glyph glyph-name="dollar" unicode="$" horiz-adv-x="1049" 
d="M659 1422v-163q44 -10 87 -25.5t78 -38.5t58.5 -53t28.5 -69q0 -29 -20 -48t-45 -19q-24 0 -45 20.5t-42 49t-44 60t-53 53.5q-1 0 -3 2v-499q14 -8 26 -14q54 -29 104 -65.5t89 -80.5t62.5 -94.5t23.5 -105.5q0 -72 -24 -129.5t-65 -100t-96.5 -70.5t-119.5 -43v-208
h-56v198q-23 -3 -47 -5t-47 -2q-25 0 -50 3v-194h-55v204q-49 11 -98 31.5t-88.5 50t-66.5 67.5t-31 84q0 35 23.5 56t53.5 21q24 0 38.5 -13t25 -34.5t20.5 -48.5t25.5 -55t38 -53.5t59.5 -44.5v611q-50 31 -94.5 65t-77.5 72.5t-52.5 82.5t-19.5 97q0 48 17.5 93.5
t49.5 83.5t77 67t100 44v160h55v-149q25 3 52 3q20 0 43 -1.5t49 -5.5v153h56zM603 540q-35 21 -71.5 41.5t-72.5 42.5v-598q17 -5 37.5 -8t43.5 -4q17 0 32.5 1.5t30.5 3.5v521zM509 1230q-28 0 -50 -3v-409q65 -47 144 -94v495q-20 6 -43 8.5t-51 2.5zM834 268
q0 36 -13.5 68.5t-36.5 61.5t-55.5 55t-69.5 51v-470q77 28 123.5 89t51.5 145zM279 1048q0 -31 7.5 -54.5t23 -44.5t39 -42t55.5 -48v356q-38 -12 -62 -31.5t-38 -42.5t-19.5 -47.5t-5.5 -45.5z" />
    <glyph glyph-name="percent" unicode="%" horiz-adv-x="1750" 
d="M1383 -23q-54 0 -105 33t-90 89.5t-63 132.5t-24 162q0 80 21.5 156.5t58 136.5t86.5 96.5t107 36.5q72 0 126.5 -37t91 -97t55.5 -136.5t19 -155.5q0 -78 -20 -153t-57 -133.5t-89.5 -94.5t-116.5 -36zM1222 396q0 -86 8 -152t27 -111t51 -68.5t80 -23.5q50 0 80.5 28
t47.5 76.5t22.5 113t5.5 138.5q0 38 -1 79t-6 80.5t-15 75t-28.5 63t-47 43.5t-69.5 16q-52 0 -83 -34t-47 -86.5t-20.5 -115.5t-4.5 -122zM1361 1480h130l-1101 -1535h-129zM366 609q-54 0 -105 33t-90 89.5t-63 132.5t-24 162q0 80 21.5 156.5t58 136.5t86.5 96.5
t107 36.5q72 0 126.5 -37t91 -97t55.5 -136.5t19 -155.5q0 -78 -20 -153t-57 -133.5t-89.5 -94.5t-116.5 -36zM205 1028q0 -86 8 -152t27 -111t51 -68.5t80 -23.5q50 0 80.5 28t47.5 76.5t22.5 113t5.5 138.5q0 38 -1 79t-6 80.5t-15 75t-28.5 63t-47 43.5t-69.5 16
q-52 0 -83 -34t-47 -86.5t-20.5 -115.5t-4.5 -122z" />
    <glyph glyph-name="ampersand" unicode="&#x26;" horiz-adv-x="1522" 
d="M878 231q-48 -44 -106 -89.5t-122 -83t-132.5 -61.5t-138.5 -24q-75 0 -140 34t-113 88.5t-75.5 124.5t-27.5 142q0 78 29 139.5t80 111t120 88.5t149 71q-35 34 -62.5 66.5t-47.5 67t-30.5 72.5t-10.5 83q0 62 26.5 109t69 78.5t97.5 47t112 15.5q49 0 97.5 -17
t87.5 -47.5t63 -74t24 -97.5q0 -45 -18.5 -83t-47.5 -69.5t-65.5 -58t-72.5 -49.5q-7 -3 -9 -5t-2 -7q0 -8 7 -15l12 -12q4 -2 18.5 -15t31 -28t31 -28t17.5 -17q9 -6 58 -59.5t141 -169.5q15 -19 19.5 -23t6.5 -4q11 0 15 8l229 346q12 18 18.5 32.5t6.5 31.5
q0 28 -17 38.5t-37.5 15t-37.5 9t-17 21.5q0 5 1 11.5t9 6.5h367q3 -5 3.5 -12t0.5 -10q0 -14 -5 -17.5t-13 -5.5q-26 -2 -53 -4.5t-52.5 -10t-47 -21.5t-36.5 -38l-295 -467l125 -215q23 -40 55 -69t82 -29q20 0 39 5t37 11.5t34.5 14t31.5 12.5q5 0 6.5 -9t1.5 -11
q0 -3 -0.5 -10t-5.5 -9q-54 -35 -115 -61.5t-127 -26.5q-35 0 -63.5 12t-52 32t-44 46.5t-40 55.5t-38.5 59t-41 57zM475 92q50 0 99 16t94 40.5t85 54.5t72 57q17 16 17 33q-1 1 -1 3q-1 2 -1 5q-135 232 -332 390q-11 9 -26 22t-29 13t-30 -8.5t-26 -14.5
q-43 -25 -78.5 -61t-61 -79.5t-40 -92t-14.5 -97.5q0 -54 21.5 -105t58.5 -90t86.5 -62.5t105.5 -23.5zM397 1100q0 -38 11 -74.5t31 -69t48 -60t62 -48.5q34 6 61 30.5t46 56.5t28.5 67t9.5 63q0 40 -8 74t-27 59t-49 39t-73 14q-34 0 -60 -11.5t-44 -32t-27 -48t-9 -59.5z
" />
    <glyph glyph-name="quotesingle" unicode="'" horiz-adv-x="465" 
d="M195 814q-4 60 -15 135.5t-22 148.5t-20 135t-9 95q0 16 9.5 31t24.5 26t33.5 18t36.5 7q20 0 39 -7t33.5 -18t23.5 -26t9 -31q0 -34 -8 -96t-19 -135t-22.5 -148t-18.5 -135h-75z" />
    <glyph glyph-name="parenleft" unicode="(" horiz-adv-x="650" 
d="M567 1722q5 6 7 8t7 2q6 0 14 -7t15 -17t11.5 -19.5t4.5 -13.5q0 -13 -6 -23q-77 -118 -136.5 -241t-100.5 -254t-62.5 -270.5t-21.5 -289.5q0 -290 83.5 -548t237.5 -493q6 -11 6 -23q0 -5 -4.5 -14t-11.5 -19t-15 -17t-14 -7q-5 0 -7 2t-7 8q-97 116 -171 248
t-124 274.5t-75.5 292.5t-25.5 302q0 151 25 301.5t74.5 294t124 276t172.5 247.5z" />
    <glyph glyph-name="parenright" unicode=")" horiz-adv-x="650" 
d="M83 1722q99 -114 173.5 -246.5t124 -276t74 -294.5t24.5 -302q0 -152 -25.5 -302t-75.5 -292.5t-124 -274.5t-171 -248q-5 -6 -7 -8t-7 -2q-6 0 -14 7t-15 17t-11.5 19t-4.5 14q0 12 6 23q154 235 237.5 493t83.5 548q0 150 -21.5 289.5t-62.5 270.5t-100.5 254
t-136.5 241q-6 10 -6 23q0 4 4.5 13.5t11.5 19.5t15 17t14 7q5 0 7 -2t7 -8z" />
    <glyph glyph-name="asterisk" unicode="*" horiz-adv-x="741" 
d="M687 1377l14 -42l-228 -118l113 -230l-35 -26l-181 182l-184 -178l-37 24l117 228l-226 120l11 43l253 -39l44 253h44l41 -253z" />
    <glyph glyph-name="plus" unicode="+" horiz-adv-x="1049" 
d="M88 689h375v389h127v-389h370v-127h-370v-385h-127v385h-375v127z" />
    <glyph glyph-name="comma" unicode="," horiz-adv-x="520" 
d="M149 -260q0 8 6 15.5t14 13.5t15.5 11t11.5 9q17 15 36 34t34.5 41t26 45.5t10.5 49.5q0 6 -0.5 13t-4 13.5t-11 10.5t-21.5 4q-29 0 -55 6.5t-46 20.5t-32 37.5t-12 58.5q0 24 10 44.5t26.5 35.5t38 24t43.5 9q40 0 70 -18t50 -47t30 -64.5t10 -69.5q0 -46 -13 -87.5
t-36 -78.5t-54.5 -69t-69.5 -59q-14 -10 -31 -20t-31 -10q-10 0 -12.5 9.5t-2.5 17.5z" />
    <glyph glyph-name="hyphen" unicode="-" horiz-adv-x="913" 
d="M828 578v-137h-743v137h743z" />
    <glyph glyph-name="period" unicode="." horiz-adv-x="520" 
d="M130 103q0 26 10.5 49.5t28 41.5t41 28.5t50.5 10.5t50.5 -10.5t41.5 -28.5t28 -42t10 -50q0 -28 -10 -51.5t-28 -41t-41.5 -27t-50.5 -9.5t-50.5 10t-41 27t-28 41t-10.5 52z" />
    <glyph glyph-name="slash" unicode="/" horiz-adv-x="664" 
d="M529 1452h130l-525 -1479h-129z" />
    <glyph glyph-name="zero" unicode="0" horiz-adv-x="1049" 
d="M76 693q0 83 17.5 165.5t48.5 159t72.5 142.5t89.5 114.5t100.5 76.5t104.5 28q76 0 140 -28.5t115.5 -78t90.5 -117t65 -146.5t39.5 -166t13.5 -174t-14.5 -172t-41.5 -162.5t-66.5 -143.5t-89.5 -114.5t-109.5 -76t-127.5 -27.5q-61 0 -118 27.5t-106.5 74.5t-91 109.5
t-71 132.5t-45.5 142.5t-16 140.5v93zM237 668q0 -143 13 -260.5t46 -201t89.5 -129t145.5 -45.5q61 0 105.5 25t75.5 69t50.5 104.5t30 132t14.5 150.5t4 161q0 63 -1.5 135t-10 144t-27 138t-51 117t-83 81.5t-123.5 30.5q-63 0 -108.5 -30t-76 -80.5t-49 -117t-28.5 -139
t-13 -146.5t-3 -139z" />
    <glyph glyph-name="one" unicode="1" horiz-adv-x="1049" 
d="M223 32q0 8 8 8q50 3 87 4.5t64 4t45 6t29 9.5q14 8 17 26t3 47v1065q1 2 -21.5 -16t-59 -45t-84 -57.5t-95.5 -53.5q-1 0 -2.5 -0.5t-3.5 -0.5t-4 1t-4 4l-10 17l-2 4q0 3 8 8q33 22 76.5 57t91 77t94.5 88.5t86 93.5h56q13 0 16 -4t3 -15v-1199v-21t1.5 -28.5t4.5 -27
t8 -15.5q13 -8 35.5 -13.5t50 -9t57 -5t55.5 -1.5q5 0 6.5 -3t1.5 -5v-24q0 -2 -1.5 -5t-6.5 -3h-602q-8 0 -8 8v9v15z" />
    <glyph glyph-name="two" unicode="2" horiz-adv-x="1049" 
d="M81 0q-4 0 -4.5 4t-0.5 22t9 32t22 29q62 70 134.5 142.5t144.5 145.5t139 146.5t118.5 145.5t82.5 142t31 136q0 58 -23 114t-62.5 100t-91 71t-108.5 27q-44 0 -101 -17.5t-106 -59.5q-49 -43 -71.5 -82t-32.5 -69t-14.5 -48t-17.5 -18q-4 0 -11.5 -1.5t-12.5 -1.5
q-10 0 -10 6q0 5 7 37t21.5 74t35.5 85t48 71q40 41 80 69t80 45t81 24.5t84 7.5q90 0 164 -30.5t126 -84t80.5 -126.5t28.5 -158q0 -65 -26.5 -126.5t-76 -124t-119.5 -128t-156 -138.5q-9 -8 -36.5 -34t-63.5 -61t-75.5 -74t-72.5 -73t-54.5 -58t-21.5 -28h563q40 0 64 10
t39 30.5t24.5 52t21.5 75.5h38l-43 -270q-2 -10 -7 -18.5t-16 -14.5h-813h-19z" />
    <glyph glyph-name="three" unicode="3" horiz-adv-x="1049" 
d="M65 131q0 37 25.5 52t57.5 15q14 0 33 -12t42 -30t50.5 -39t59 -39t67.5 -30.5t77 -12.5q71 4 126.5 42t93.5 94.5t57.5 124.5t19.5 133q0 79 -21.5 135.5t-56 92t-78 52t-87.5 16.5q-12 0 -30 -3t-37.5 -9.5t-37.5 -16.5t-28 -23q-2 -3 -5 -3q-6 0 -13 8t-7 16
q0 4 6.5 10.5t15.5 14t18 14.5t13 11q41 34 83 71.5t76 79t55.5 88.5t21.5 101q0 37 -17.5 70.5t-46 59t-65 40.5t-74.5 15q-66 0 -115 -24t-84 -57.5t-57.5 -68.5t-34.5 -57q-1 -1 -8 -1q-3 0 -8 1.5t-10.5 4t-9.5 5t-4 5.5q0 2 3 10q2 4 4 9q24 61 65.5 112.5t91.5 89.5
t104.5 59.5t104.5 21.5q71 0 128 -16.5t96.5 -47t60.5 -74t21 -96.5q0 -67 -34 -126t-88 -113q-8 -6 -24 -17.5t-32.5 -23t-29 -21t-12.5 -12.5v-1h3q6 1 13.5 1.5t14.5 0.5q31 0 60 -5.5t45 -12.5q66 -29 108 -71t65 -89t31.5 -95t8.5 -88q0 -71 -23 -135.5t-61.5 -120
t-89.5 -100.5t-107 -77t-114.5 -49t-111.5 -17q-29 0 -64.5 2t-72.5 8t-73.5 17t-67.5 28.5t-53.5 42.5t-32.5 60z" />
    <glyph glyph-name="four" unicode="4" horiz-adv-x="1049" 
d="M63 415q0 8 1 14.5t7 15.5l620 911q11 17 19.5 20t19.5 3q16 0 27.5 -3t11.5 -23v-822q0 -16 5 -20.5t20 -4.5h161q11 0 21 -2t10 -16v-68q0 -24 -20 -24h-171q-19 0 -22.5 -5t-3.5 -19v-387q0 -5 -4 -13.5t-13 -8.5h-108q-14 0 -17 9t-3 14v386q0 14 -4.5 19t-21.5 5
h-511q-8 0 -16 2.5t-8 16.5zM187 526q-4 -5 -4 -11q0 -7 9.5 -8t21.5 -1h384q17 0 21.5 7t4.5 19v548q0 14 -3.5 26.5t-20.5 12.5q-8 0 -15.5 -7.5l-13.5 -13.5z" />
    <glyph glyph-name="five" unicode="5" horiz-adv-x="1049" 
d="M104 98q0 35 23.5 56.5t53.5 21.5q31 0 64 -23.5t66.5 -52t68 -52t68.5 -23.5q57 0 102 18t80 48t60 68.5t41 78.5t23.5 79t7.5 71q0 75 -18.5 130t-48 93.5t-66.5 62t-75 36.5t-73.5 17.5t-60.5 4.5q-40 0 -76 -12t-64.5 -26.5t-47 -27t-22.5 -14.5q-2 -1 -5.5 -2.5
t-5.5 -1.5q-10 0 -10 15l30 675h509q20 0 31.5 3t17.5 8.5t9 13t8 16.5h41l-24 -169h-525q-5 0 -13 -1t-8 -6q-1 -10 -2 -35.5t-2.5 -59.5t-3.5 -73t-3.5 -77t-2.5 -71.5t-2 -55.5q0 -12 1 -11q6 6 26.5 15.5t51 18t69 15t80.5 6.5q39 0 87.5 -11t98.5 -33t97 -55.5
t83.5 -79t59 -104t22.5 -129.5q0 -95 -23.5 -168t-63 -127.5t-92 -92t-111 -60t-119 -32.5t-115.5 -10q-16 0 -43 2t-59 7.5t-64.5 14.5t-60.5 23t-47 33t-23 45z" />
    <glyph glyph-name="six" unicode="6" horiz-adv-x="1049" 
d="M80 502q0 138 43 249.5t128 208.5t211.5 185t292.5 179q9 5 29 14t41.5 17.5t40.5 15t26 6.5q11 0 17.5 -2.5t6.5 -14.5q0 -8 -22 -22t-51.5 -30.5t-60 -33t-47.5 -28.5q-24 -16 -59 -41.5t-73.5 -56.5t-77 -66.5t-69.5 -72.5t-50.5 -73t-20.5 -69q8 0 18.5 5t25.5 11
t36 11t50 5q97 0 179.5 -36.5t142.5 -99t94 -146.5t34 -180q0 -97 -34.5 -181.5t-95.5 -147.5t-143 -99t-178 -36q-104 0 -185 46t-136.5 120.5t-84 169.5t-28.5 193zM247 444q0 -44 5.5 -92t19 -94.5t34.5 -88.5t52 -73.5t72.5 -50.5t95.5 -19q72 0 121.5 35.5t81 91.5
t45.5 124t14 133q0 82 -14.5 159.5t-49.5 137.5t-93.5 96.5t-146.5 36.5q-69 0 -114 -30t-72 -82.5t-38.5 -122.5t-12.5 -150v-11z" />
    <glyph glyph-name="seven" unicode="7" horiz-adv-x="1049" 
d="M291 -4q95 212 167 374t125.5 282t90.5 203t61.5 138t38 86t20 47.5t8 23t2.5 11.5q0 5 -6 10t-12 5h-550q-20 0 -37.5 -16t-23.5 -34l-54 -154q-3 -11 -8.5 -14.5t-13.5 -3.5t-13.5 2t-5.5 13l60 348q2 5 5.5 13t10.5 8h796q11 0 19.5 -6t8.5 -24q0 -8 -1 -19.5t-3 -24
t-5.5 -25t-7.5 -22.5l-560 -1244h-112v23z" />
    <glyph glyph-name="eight" unicode="8" horiz-adv-x="1049" 
d="M162 308q0 68 26 134t74 115q12 12 36.5 30.5l49 37t43 34t18.5 21.5q0 3 -0.5 7t-4.5 6q-40 40 -77 79t-65.5 81.5t-45.5 91t-17 107.5q0 73 23.5 133t66 103t103 67t134.5 24q65 0 125 -22.5t105.5 -63t73 -97t27.5 -123.5q0 -43 -13.5 -87.5t-36.5 -81.5
q-18 -27 -48.5 -55t-60 -50.5t-51 -38t-21.5 -18.5q0 -5 5.5 -10t8.5 -7q50 -42 94.5 -82t78 -86t53 -102.5t19.5 -130.5q0 -71 -27.5 -134.5t-75 -111.5t-110.5 -76t-135 -28q-71 0 -138.5 23.5t-120 67t-84.5 105.5t-32 138zM289 301q0 -57 18 -108.5t51 -90.5t79 -61.5
t102 -22.5q34 0 72 15.5t69.5 49.5t52 87t20.5 127q0 27 -11.5 55.5t-28.5 55.5t-38 51.5t-39 42.5q-11 11 -33 35t-48.5 48.5t-54 43t-48.5 18.5q-18 0 -32.5 -17t-25.5 -29q-56 -60 -80.5 -132.5t-24.5 -155.5v-12zM320 1126q0 -52 20 -96.5t52.5 -84.5t73.5 -76.5
t83 -71.5q8 -7 19.5 -10.5t19.5 -3.5q17 0 25.5 5t23.5 20q25 25 44 57t32.5 66.5t20.5 71t7 71.5q0 49 -13 96.5t-40 84.5t-68 59.5t-96 22.5q-46 0 -83.5 -17t-64.5 -45.5t-41.5 -67t-14.5 -81.5z" />
    <glyph glyph-name="nine" unicode="9" horiz-adv-x="1049" 
d="M103 -19q0 11 6 17t14 11q67 29 136.5 66.5t134 83t122 98t102.5 111.5q9 11 21.5 28.5t24 35.5t19.5 33t8 20q0 3 -1 5.5t-8 2.5l-102 -25.5t-106 -12.5q-95 0 -169 39.5t-126 103t-79 143.5t-27 162q0 89 30 174.5t85.5 152.5t134 108t174.5 41q111 0 200 -42.5
t151 -115t95.5 -168.5t33.5 -202q0 -140 -45 -262t-124.5 -223.5t-188 -181.5t-235.5 -135q-27 -12 -58.5 -25t-67 -24t-73 -18t-76.5 -7q-6 0 -6 6zM253 887q0 -66 19.5 -133t57 -120.5t91.5 -87.5t122 -34q24 0 51 3.5t53 11t49.5 17.5t40.5 24q20 16 31 52.5t16 80.5
t6 87.5t1 73.5q0 43 -3.5 94.5t-14.5 103t-30.5 99.5t-51 85t-77 59.5t-107.5 22.5q-52 0 -91.5 -19.5t-67.5 -52t-46.5 -75t-29.5 -88.5t-15 -92t-4 -86v-26z" />
    <glyph glyph-name="colon" unicode=":" horiz-adv-x="520" 
d="M130 103q0 26 10.5 49.5t28 41.5t41 28.5t50.5 10.5t50.5 -10.5t41.5 -28.5t28 -42t10 -50q0 -28 -10 -51.5t-28 -41t-41.5 -27t-50.5 -9.5t-50.5 10t-41 27t-28 41t-10.5 52zM130 799q0 26 10.5 49.5t28 41.5t41 28.5t50.5 10.5t50.5 -10.5t41.5 -28.5t28 -42t10 -50
q0 -28 -10 -51.5t-28 -41t-41.5 -27t-50.5 -9.5t-50.5 10t-41 27t-28 41t-10.5 52z" />
    <glyph glyph-name="semicolon" unicode=";" horiz-adv-x="520" 
d="M130 799q0 26 10.5 49.5t28 41.5t41 28.5t50.5 10.5t50.5 -10.5t41.5 -28.5t28 -42t10 -50q0 -28 -10 -51.5t-28 -41t-41.5 -27t-50.5 -9.5t-50.5 10t-41 27t-28 41t-10.5 52zM149 -260q0 8 6 15.5t14 13.5t15.5 11t11.5 9q17 15 36 34t34.5 41t26 45.5t10.5 49.5
q0 6 -0.5 13t-4 13.5t-11 10.5t-21.5 4q-29 0 -55 6.5t-46 20.5t-32 37.5t-12 58.5q0 24 10 44.5t26.5 35.5t38 24t43.5 9q40 0 70 -18t50 -47t30 -64.5t10 -69.5q0 -46 -13 -87.5t-36 -78.5t-54.5 -69t-69.5 -59q-14 -10 -31 -20t-31 -10q-10 0 -12.5 9.5t-2.5 17.5z" />
    <glyph glyph-name="less" unicode="&#x3c;" horiz-adv-x="1049" 
d="M368 626l508 -303v-154l-703 418v72l703 411v-149z" />
    <glyph glyph-name="equal" unicode="=" horiz-adv-x="1049" 
d="M959 859v-127h-870v127h870zM959 519v-127h-870v127h870z" />
    <glyph glyph-name="greater" unicode="&#x3e;" horiz-adv-x="1049" 
d="M174 921v149l700 -414v-71l-700 -416v154l505 303z" />
    <glyph glyph-name="question" unicode="?" horiz-adv-x="778" 
d="M272 358q-8 0 -19.5 13t-23.5 34.5t-23.5 47.5t-21 52.5t-16 50.5t-7.5 40q0 42 11.5 72.5t31.5 52t47 36.5t57 27t62.5 22.5t64.5 23.5q31 13 61.5 36t55 53.5t39.5 66t15 73.5q0 61 -24 99t-74 59t-127 28.5t-183 7.5q-18 1 -37 5.5t-34.5 13t-26 22.5t-10.5 35
q0 30 18.5 47t45.5 26t56 11t50 2q84 0 156 -29t124.5 -80.5t82.5 -123t30 -156.5q0 -59 -18 -112.5t-50 -99.5t-76 -83t-96 -62q-25 -12 -56.5 -22t-59.5 -24.5t-47 -36.5t-19 -58q0 -21 7 -39.5t17 -37.5t19.5 -38.5t15.5 -41.5q0 -5 -6.5 -9t-11.5 -4zM153 90q0 23 9 44
t24.5 36.5t36.5 25t45 9.5t44.5 -9.5t36 -25t24.5 -36.5t9 -44q0 -24 -9 -45t-24.5 -37t-36 -25.5t-44.5 -9.5t-45 9.5t-36.5 25.5t-24.5 37t-9 45z" />
    <glyph glyph-name="at" unicode="@" horiz-adv-x="1991" 
d="M1891 173q-51 -132 -129.5 -241.5t-183.5 -190t-235 -128.5t-282 -58q-130 0 -248 30t-219 85.5t-183 135t-140 178.5t-89.5 215.5t-31.5 246.5t31.5 253.5t89.5 234t140 203t183 159t219 104t248 37.5q121 0 224 -27t186 -75.5t146 -114.5t105.5 -144t64 -164.5
t21.5 -175.5q0 -107 -23 -201t-62.5 -173t-93 -141.5t-115 -106t-128.5 -66.5t-132 -23q-27 0 -63.5 2.5t-69 13.5t-55 35t-22.5 68q0 33 3 56t7 41.5t8 35t6 34.5q0 5 -1 10.5t-7 5.5q-8 0 -22 -11q-14 -10 -39.5 -33t-57.5 -51t-67.5 -58t-69 -54.5t-63 -40.5t-48.5 -16
q-38 0 -60.5 30t-34.5 71.5t-16 84.5t-4 70q0 46 12.5 95t29.5 91q43 104 116.5 192.5t167.5 153.5t203 102t222 37q13 0 15 -9.5t2 -18.5l-151 -692l-2 -16q-1 -7 -1.5 -13.5t-0.5 -11.5q0 -60 34 -92.5t88 -32.5q58 0 111.5 27t100.5 73t85.5 107t66 128t42.5 137t15 135
q0 127 -42 242t-126.5 204t-210.5 144t-294 61q-119 -3 -227.5 -38.5t-201.5 -97.5t-168 -146.5t-128.5 -185.5t-82 -215t-28.5 -233q0 -179 63.5 -329t175.5 -258t265 -168.5t332 -60.5q138 0 254.5 38.5t211 109.5t166.5 171.5t121 223.5h77zM712 329q0 -21 2 -48
t10.5 -51t25.5 -40t48 -16q37 0 68 20t63.5 52t70 73.5t86.5 85.5l99 455q0 11 -9 13.5t-18 2.5q-49 0 -100 -13.5t-97.5 -38t-86 -59t-65.5 -76.5q-50 -80 -71 -173.5t-26 -186.5z" />
    <glyph glyph-name="A" unicode="A" horiz-adv-x="1457" 
d="M5 32q0 8 8 8q19 1 44.5 5.5t52 19t51.5 43t42 78.5l408 1181q0 -1 0.5 1t0.5 4q0 7 -5.5 17.5t-5.5 15.5t4 5h200q2 -1 5.5 -2t5.5 -6l423 -1187q14 -27 22.5 -49t19.5 -40.5t29 -34t50 -28.5q14 -7 38 -15t46 -8q5 0 6.5 -3t1.5 -6v-23q0 -2 -1.5 -5t-6.5 -3h-612
q-5 0 -6.5 3t-1.5 5v24q0 2 1.5 5t6.5 3q4 0 8 0.5t6 0.5q11 1 31.5 2t44.5 3.5t48.5 8t44.5 16t33 27.5t13 42q0 6 -2 14l-151 426q-1 2 -3.5 9t-8 14.5t-14 13.5t-20.5 6h-355q-13 0 -22 -6t-15 -13t-9.5 -14t-3.5 -8l-150 -439v-9t2 -9q8 -25 29.5 -41.5t49.5 -26
t57.5 -13.5t52.5 -4h26q5 0 6.5 -3t1.5 -5v-24q0 -2 -1.5 -5t-6.5 -3h-511q-8 0 -8 8v24zM522 767q-2 -5 -3 -10t-1 -10q0 -6 3 -9.5t12 -3.5h295q11 0 14.5 4.5t3.5 10.5q0 5 -1 9t-3 9l-149 410q-10 27 -15 27t-8 -7.5t-8 -20.5z" />
    <glyph glyph-name="B" unicode="B" horiz-adv-x="1392" 
d="M10 32q0 2 1.5 5t6.5 3q19 0 48 2t61.5 7.5t65.5 15.5t59 25t42.5 36t16.5 50v1055q-4 51 -19.5 79.5t-40 42.5t-57 17.5t-71.5 3.5h-57q-5 0 -6.5 3t-1.5 5v25q0 2 1.5 5t6.5 3q1 0 10.5 0.5t33.5 0.5t65 0.5t107 0.5q14 0 41.5 1t62 2t72.5 2.5t73 2.5t63 2t44 1
q51 0 113.5 -3.5t126 -15.5t123.5 -34.5t106.5 -60t74.5 -92.5t28 -132q0 -46 -14.5 -84t-37 -67.5t-48.5 -51t-48.5 -36t-39 -21.5t-18.5 -8q57 -32 108.5 -70t90.5 -85.5t61.5 -104.5t22.5 -126q0 -81 -22 -143t-58 -108t-82.5 -77.5t-95.5 -52t-97.5 -32t-88.5 -16.5
t-67.5 -6t-35.5 -1h-722q-5 0 -6.5 3t-1.5 5v24zM511 221q0 -39 20 -68t51 -49t69.5 -30t76.5 -10q70 0 133.5 28.5t111.5 77t76 113t28 135.5q0 85 -30.5 152.5t-83.5 114t-125 71t-155 24.5h-159q-10 0 -11.5 -3.5t-1.5 -7.5v-548zM509 861q0 -3 3 -11t20 -8h246
q48 0 89.5 19t72 52t48 77t17.5 94q0 76 -24.5 130t-68 88.5t-103 51t-130.5 16.5q-52 -3 -85 -2.5t-52 -2.5t-26 -13t-7 -33v-399v-59z" />
    <glyph glyph-name="C" unicode="C" horiz-adv-x="1566" 
d="M105 696q0 112 28 211.5t79 183.5t123 151t159.5 113.5t187.5 71.5t209 25q92 0 177.5 -16.5t176.5 -38.5q15 -4 31.5 -10t31 -11.5t26.5 -9.5t18 -4q2 0 13.5 4t16.5 4h31q12 0 12 -17v-311q0 -6 -4.5 -8t-19.5 -2q-3 0 -8 0.5t-8 5.5q-2 3 -5 9.5t-6.5 13.5t-7 13
t-4.5 9q-75 150 -190 225.5t-265 75.5q-142 0 -251 -48t-183.5 -132t-112.5 -199.5t-38 -250.5q0 -95 19 -184.5t55.5 -168.5t90.5 -144.5t124.5 -113t157 -74t187.5 -26.5q85 0 161 28t139.5 74t113.5 105t84 121q2 5 4.5 5.5t7.5 0.5h13q3 0 6.5 -2.5t3.5 -10.5
q0 -3 -0.5 -8t-5.5 -14l-138 -304q-2 -3 -6 -5t-7 -2q-23 6 -32.5 7t-20.5 1q-30 0 -77.5 -10.5t-102 -22.5t-110.5 -22.5t-102 -10.5q-105 0 -204 23t-186 66.5t-159 107t-124 143.5t-80.5 176.5t-28.5 206.5z" />
    <glyph glyph-name="D" unicode="D" horiz-adv-x="1664" 
d="M53 0q-6 0 -7 3.5t-1 4.5v28q0 1 1 4.5t7 3.5h22q21 0 52 2.5t60 14t49.5 35t20.5 64.5v1096q0 31 -13.5 52.5t-34 35t-45.5 19.5t-47 6h-64q-6 0 -7 3.5t-1 4.5v28q0 1 1 4.5t7 3.5h22l321 7q58 2 125.5 2h125.5q63 0 113 -1.5t96 -6t93 -11.5t105 -19
q111 -23 206.5 -85t165 -150t109 -195t39.5 -219q0 -108 -30 -204.5t-83.5 -178t-127 -147t-161.5 -111t-187 -70t-203 -24.5h-700h-29zM452 125q0 -29 18.5 -45t49 -23.5t71.5 -8.5t86 -1q160 0 286.5 46t215 133t135.5 211.5t47 281.5q0 138 -43 257.5t-122.5 208
t-192.5 139.5t-254 51h-272q-15 0 -20 -6.5t-5 -20.5v-1218v-5z" />
    <glyph glyph-name="E" unicode="E" horiz-adv-x="1264" 
d="M7 36q0 1 1 4.5t7 3.5h22q42 3 86 3.5t80 11t59 37t23 82.5v1054q0 39 -16 63.5t-42 39.5t-59 22.5t-67 12.5h-21q-5 0 -6.5 3t-1.5 5v24q0 2 1.5 5t6.5 3h951q18 0 26 -6.5t10 -28.5l18 -290q0 -5 -5 -7.5t-12 -2.5q-8 0 -12 2t-7 6q-7 10 -10 29.5t-6.5 43.5t-10 50
t-19.5 48t-35.5 38.5t-57.5 22.5h-417q-13 0 -13 -13v-517q0 -10 10 -10h346q25 0 49.5 6.5t43 23.5t30 47.5t11.5 78.5q0 8 8 8h24q8 0 8 -8v-428q0 -5 -3 -6.5t-5 -1.5h-24q-5 0 -6.5 3t-1.5 5q0 56 -11.5 90.5t-30.5 54t-43.5 26t-51.5 6.5h-343q-10 0 -10 -10v-487
q0 -29 9 -46.5t24.5 -26.5t35.5 -12t42 -3h333q58 0 97 26.5t63 64.5t35.5 79t14.5 70q3 28 30 28q5 0 8.5 -4t3.5 -9l-33 -336q-2 -5 -5.5 -9.5t-8.5 -4.5h-1114q-6 0 -7 3.5t-1 4.5v14v14z" />
    <glyph glyph-name="F" unicode="F" horiz-adv-x="1167" 
d="M858 809q14 0 37 2.5t44.5 15t37 39t15.5 74.5q0 8 8 8h24q8 0 8 -8v-372q0 -5 -3 -6.5t-5 -1.5h-24q-5 0 -6.5 3t-1.5 5q0 54 -15.5 83.5t-36.5 43.5t-43.5 16.5t-36.5 2.5h-394q-12 0 -18 -7.5t-6 -19.5v-514q0 -27 10.5 -45.5t29 -32t43.5 -23.5t55 -19q15 -5 32 -9
t28 -4q6 0 7 -3.5t1 -4.5v-24q0 -2 -1.5 -5t-6.5 -3h-546q-5 0 -6.5 3t-1.5 5v24q0 2 1 5t7 3q11 0 28.5 4.5t26.5 8.5q43 19 70.5 50.5t27.5 76.5v1080q0 38 -21 60t-47.5 33t-50 14t-29.5 3h-4q-5 0 -6.5 3t-1.5 5v24q0 2 1.5 5t6.5 3h943q12 -2 18 -5.5t6 -17.5v-242
q0 -12 -3.5 -15t-12.5 -3h-12q-2 1 -5.5 17.5t-9.5 39t-14.5 45t-19.5 35.5q-14 15 -27 25t-29 16t-37 8t-51 2h-379q-20 0 -20 -20v-463q0 -23 24 -23h392v0z" />
    <glyph glyph-name="G" unicode="G" horiz-adv-x="1621" 
d="M115 717q0 101 27 194t76 174.5t117.5 148t150.5 114.5t175.5 74t192.5 26q79 0 155 -14t137 -31t100 -31t44 -14h12q8 0 12.5 1.5t8 3.5t7.5 3.5t12 1.5h25q2 0 6.5 -1.5t4.5 -9.5v-333q0 -11 -6.5 -15t-15.5 -4h-4q-9 1 -14 10t-8 20t-4.5 21t-2.5 15
q-100 313 -422 313q-90 0 -167 -25.5t-139.5 -70.5t-111 -106.5t-81 -134.5t-49.5 -153.5t-17 -162.5q0 -85 16.5 -169.5t49.5 -161t82 -142t113.5 -113.5t144 -75t173.5 -27q33 0 74 4t81 13.5t74.5 26t53.5 42.5v274q0 43 -10.5 76.5t-38.5 56.5t-76 35t-123 12
q-6 0 -8.5 5.5t-2.5 13.5q0 5 2.5 11.5t8.5 6.5h610q8 0 9.5 -6t1.5 -12q0 -5 -2 -10t-9 -9q-27 -11 -55.5 -19t-52.5 -21t-39.5 -35.5t-15.5 -61.5v-325q0 -8 -6.5 -13t-20.5 -11q-56 -27 -120 -49.5t-130.5 -39t-133.5 -26t-128 -9.5q-155 0 -290 51.5t-236 148
t-159 234.5t-58 310z" />
    <glyph glyph-name="H" unicode="H" horiz-adv-x="1712" 
d="M68 0q-5 0 -6.5 3t-1.5 5v24q0 2 1.5 5t6.5 3q31 0 62.5 4.5t57.5 19.5t42.5 43t16.5 76v1067q0 34 -11 57t-31 37.5t-48 21.5t-62 9q-8 0 -8 8v19q0 8 7 8h502q5 0 6.5 -3t1.5 -5v-19q0 -6 -8 -6q-30 0 -58 -5.5t-49 -20.5t-34 -42.5t-13 -72.5v-462q0 -10 3 -13t13 -3
h788q10 0 13 3t3 13v478q-2 9 -2.5 16.5t-1.5 14.5q-5 24 -29 41t-56.5 28t-68 16t-64.5 7q-8 0 -8 8v19q0 8 7 8h577q5 0 6.5 -3t1.5 -5v-19q0 -6 -8 -6q-30 0 -58.5 -5.5t-51 -20.5t-36 -42.5t-13.5 -72.5v-1055q0 -26 7.5 -46.5t23.5 -40.5q16 -22 52.5 -37t103.5 -17
q8 0 8 -8v-24q0 -8 -8 -8h-636q-5 0 -6.5 3t-1.5 5v24q0 2 1.5 5t6.5 3q30 0 73 4t83.5 17.5t69 39t28.5 69.5v477q0 10 -3 13t-13 3h-788q-10 0 -13 -3t-3 -13v-487q0 -34 15 -57t39.5 -37t56.5 -20t66 -6q6 0 7 -3t1 -5v-24q0 -2 -1 -5t-6 -3h-552v0z" />
    <glyph glyph-name="I" unicode="I" horiz-adv-x="699" 
d="M447 160q0 -34 10.5 -57t30 -37t48 -20t63.5 -6q8 0 8 -8v-24q0 -3 -1 -5.5t-7 -2.5h-501q-5 0 -6.5 3t-1.5 5v24q0 2 1.5 5t6.5 3q35 0 63.5 4.5t48.5 19.5t31 43t11 76v1067q0 34 -10.5 57t-30 37t-48 20t-63.5 6q-8 0 -8 8v24q0 8 8 8h501q5 0 6.5 -3t1.5 -5v-24
q0 -2 -1.5 -5t-6.5 -3q-35 0 -63.5 -4.5t-48.5 -19.5t-31 -43t-11 -76v-1067v0z" />
    <glyph glyph-name="J" unicode="J" horiz-adv-x="693" 
d="M246 1250q0 38 -13.5 61.5t-38.5 36.5t-61 17.5t-81 4.5q-8 0 -8 8v24q0 8 8 8h543q5 0 6.5 -3t1.5 -5v-24q0 -2 -1.5 -5t-6.5 -3q-31 0 -59 -4.5t-49 -19.5t-33.5 -43t-12.5 -76v-1237q0 -66 -14.5 -139t-42.5 -143t-69.5 -133t-96 -111t-122 -76t-146.5 -28
q-29 0 -63.5 8t-64.5 22t-51 33t-21 42q0 21 9.5 38t24 29t32.5 18.5t36 6.5q30 0 52 -7t38.5 -17.5t29 -23t26 -23t28 -17.5t35.5 -7q45 0 76.5 19t52 51.5t32 75.5t17 91.5t6.5 100t1 100.5v1350v0z" />
    <glyph glyph-name="K" unicode="K" horiz-adv-x="1524" 
d="M248 1250q0 34 -18.5 57t-47.5 37.5t-64.5 21.5t-69.5 9q-8 0 -8 8v19q0 8 7 8h588q5 0 6.5 -3t1.5 -5v-19q0 -6 -8 -6q-29 0 -62.5 -5t-62.5 -19t-48 -39t-19 -66v-441q0 -42 3 -65t14 -23q6 0 11.5 0.5t10.5 3.5q57 26 105 65.5t89 86t77 98t69 102.5q18 28 38 56.5
t36.5 56t27.5 53t11 49.5q0 31 -13 48t-33 25t-43 10t-43 2h-10q-5 0 -6.5 3t-1.5 5v19q0 2 1 5t7 3h578q5 0 6.5 -3t1.5 -5v-19q0 -3 -3 -7.5t-9 -4.5q-61 -2 -111.5 -11.5t-92.5 -30.5t-77.5 -56t-66.5 -87q-53 -90 -97 -154.5t-78.5 -109t-61 -72t-44.5 -46t-28.5 -30
t-12.5 -22.5q5 -10 23 -26.5t47.5 -43.5t70.5 -67t93 -98.5t115 -138t136 -183.5q35 -51 88 -89.5t119 -52.5q34 -8 54 -12t32 -5.5t19.5 -2t16.5 -0.5q5 0 6.5 -3t1.5 -5v-17q0 -8 -8 -8h-654q-8 0 -8 8v19q0 7 8 8q13 2 36.5 4t46 8t39.5 19t17 38q-2 17 -22.5 50
t-50.5 72.5t-64.5 80.5t-63.5 74q-35 39 -73.5 86.5t-80 89.5t-84.5 70t-85 28h-19q-8 0 -9 -3.5t-1 -10.5v-468q0 -45 18.5 -72.5t47 -42.5t62.5 -20t64 -5q5 0 6.5 -3t1.5 -5v-17q0 -2 -1.5 -5t-6.5 -3h-588q-7 0 -7 8v19q0 8 8 8q34 1 69.5 8.5t64.5 22t47.5 37.5
t18.5 57v1090z" />
    <glyph glyph-name="L" unicode="L" horiz-adv-x="1239" 
d="M48 0q-5 0 -6.5 3t-1.5 5v24q0 2 1 5t7 3h24q3 0 19.5 1.5t38 5t44.5 9.5t39 15q35 20 52 51.5t17 70.5v1058q0 36 -23.5 59t-56 36.5t-66 18.5t-53.5 5h-22q-5 0 -6.5 3.5t-1.5 4.5v24q0 2 1.5 5t6.5 3h677q5 0 6.5 -3t1.5 -5v-24q0 -2 -1.5 -5t-6.5 -3h-43
q-56 0 -104 -9t-78 -20q-23 -8 -29.5 -26.5t-6.5 -63.5v-1109q2 -17 18 -32t36 -15h395q35 0 66.5 15t58.5 38.5t50 51.5t42 54t34 46.5t26 29.5q5 3 9.5 6t9.5 3q10 0 10 -13q0 -6 -3 -12l-151 -296q-4 -8 -9 -13t-12 -5h-1009v0z" />
    <glyph glyph-name="M" unicode="M" horiz-adv-x="1929" 
d="M26 32q0 2 1.5 5t6.5 3q66 0 102.5 18.5t54 50t21.5 72.5t6 85q6 129 14.5 253.5t17 246t14 239.5t5.5 234v37q0 23 -15 40.5t-35.5 29.5t-41.5 18t-33 6q-8 0 -8 8v24q0 2 1 5t7 3h289q11 -2 18 -7.5t13 -14.5l469 -1045q5 -7 8 -12t10 -5q11 1 15.5 5.5t7.5 12.5
l464 1026q10 19 19 29.5t19 10.5h291q6 0 7 -3t1 -5v-24q0 -2 -1.5 -5t-6.5 -3q-2 0 -23.5 -4t-47 -15.5t-46.5 -33t-21 -56.5l60 -1105q1 -29 15.5 -49t35.5 -33t44.5 -19.5t44 -10t35 -4t15.5 -0.5q5 0 6.5 -3t1.5 -5v-24q0 -2 -1.5 -5t-6.5 -3h-568q-8 0 -8 8v24q0 8 8 8
q24 0 54.5 2.5t58.5 11.5t47 26.5t19 46.5l-53 955q-1 10 -6 10q-4 0 -7 -9l-497 -1076q-4 -7 -23 -7q-6 0 -13 1t-9 7l-490 1078l-4.5 10.5t-5.5 3.5q-7 0 -7 -13q0 -30 -3.5 -99t-9 -158t-11.5 -189t-11.5 -193t-9 -169.5t-3.5 -118.5v-41q4 -19 20 -34t40 -25t53 -15
t61 -5q5 0 5.5 -3t0.5 -5v-24q0 -8 -6 -8h-467q-8 0 -8 8v24z" />
    <glyph glyph-name="N" unicode="N" horiz-adv-x="1747" 
d="M68 0q-2 0 -5 2.5t-3 5.5v24q0 8 8 8h25t27.5 1t24.5 2t17 4q25 12 41 32t24.5 46t11.5 57t3 66v1039q0 27 -21.5 43.5t-50 25t-58 11.5t-44.5 3q-5 0 -6.5 3t-1.5 5v24q0 2 1.5 5t6.5 3h366l949 -1049q5 -5 7 -7.5t5 -2.5q4 0 5 3t1 6v689q0 99 -7 162t-26 98t-51 48
t-82 13h-51q-5 0 -6.5 3t-1.5 5v24q0 2 1.5 5t6.5 3h520q6 0 7 -3t1 -5v-24q0 -2 -1.5 -5t-6.5 -3q-20 0 -51.5 -8t-61.5 -23t-51.5 -37t-21.5 -50v-1223q0 -22 -6 -31.5t-31 -9.5q-20 0 -31 9t-26 26l-1031 1143q-7 7 -10 8.5t-8 1.5t-5 -10v-998q0 -28 13.5 -48.5
t34.5 -35t46.5 -23t50 -13.5t44 -6.5t29.5 -1.5q5 0 7 -4q1 -2 1 -4v-24q0 -2 -1.5 -5t-6.5 -3h-520v0z" />
    <glyph glyph-name="O" unicode="O" horiz-adv-x="1770" 
d="M874 -27q-45 0 -119 11.5t-159 42t-171.5 83.5t-156.5 135t-114 197.5t-44 271.5q0 104 28 199.5t79 177.5t124 148.5t163 114t195.5 73t221.5 25.5q100 0 194 -25.5t176 -71.5t149.5 -111.5t116.5 -145.5t76 -172.5t27 -192.5q0 -94 -26 -187t-75 -177.5t-119 -156.5
t-157.5 -125.5t-190.5 -83.5t-218 -30zM320 752q0 -84 18.5 -169t53.5 -163t87 -146.5t118.5 -118.5t148 -79t175.5 -29q135 0 234.5 53.5t164.5 142.5t97 204.5t32 238.5q0 135 -40.5 260.5t-117.5 222.5t-188.5 155.5t-253.5 58.5q-85 0 -157.5 -25t-131.5 -68.5
t-104 -103.5t-75 -130.5t-45.5 -147.5t-15.5 -156z" />
    <glyph glyph-name="P" unicode="P" horiz-adv-x="1211" 
d="M92 32q0 1 1 4.5t7 3.5q12 0 31.5 6t29.5 8q57 13 79.5 42.5t22.5 73.5v1056q0 50 -10 78.5t-29.5 43t-49 18t-68.5 3.5h-45q-11 0 -16 7.5t-5 16.5q0 5 2 10t11 7h6.5t19.5 0.5t37.5 1t61.5 1.5q111 2 221.5 7t221.5 5h101q87 -6 163.5 -39t132.5 -88t88.5 -129
t32.5 -161q0 -79 -32.5 -154.5t-84 -134.5t-115.5 -95.5t-126 -37.5l-300 12h-8t-10 -2t-4 -4t-1 -8v-411q0 -27 7 -47t23.5 -34.5t43 -23.5t64.5 -14q6 -1 19 -3t29 -4.5t30.5 -4.5t23.5 -2q6 0 7 -3t1 -5v-24q0 -2 -1.5 -5t-6.5 -3h-598q-5 0 -6.5 4t-1.5 16v12zM460 681
q1 -8 4.5 -14.5t14.5 -7.5q4 0 14.5 -1t24.5 -2t30.5 -2t32.5 -1q82 0 148.5 29.5t113 80.5t71.5 120t25 149q0 82 -25 146.5t-71 108t-110.5 66.5t-143.5 23q-14 0 -26 -0.5l-24 -1t-25.5 -1t-30.5 -1.5q-6 0 -15.5 -2.5t-9.5 -13.5v-645z" />
    <glyph glyph-name="Q" unicode="Q" horiz-adv-x="1767" 
d="M773 -17q-139 21 -260 82.5t-210.5 156t-141 218t-51.5 267.5q0 165 60 301.5t165 235t248.5 152.5t310.5 54q107 0 205 -24.5t182.5 -69.5t154 -110.5t118.5 -146.5t75.5 -177.5t26.5 -204.5q0 -104 -28.5 -195.5t-80 -171.5t-123 -148t-157.5 -125q-6 -4 -29 -15.5
t-48.5 -24t-46 -23.5t-20.5 -14q0 -4 6 -6q56 -40 108.5 -79.5t95 -73t72 -57t40.5 -32.5q40 -32 82.5 -62t89.5 -48q7 -3 22 -6t30 -7t26.5 -9t11.5 -11q0 -14 -11.5 -21.5t-29.5 -11t-39 -4t-39 -0.5q-74 0 -135.5 20t-124.5 54q-35 23 -67.5 45t-64 44.5t-64.5 46.5
t-70 52q-28 21 -51.5 43.5t-47 42t-49 34t-56.5 19.5q-19 3 -42 5t-43 5zM318 748q2 -88 22 -174t57 -164t90 -144.5t120.5 -115t149.5 -76t177 -27.5q109 0 204 45t165 127.5t110 199.5t40 260q0 132 -36 255t-109.5 220t-185.5 158.5t-264 70.5q-125 0 -225 -51
t-170 -137.5t-107.5 -202t-37.5 -244.5z" />
    <glyph glyph-name="R" unicode="R" horiz-adv-x="1419" 
d="M44 32q0 1 1 4.5t7 3.5t19 2t27 4t26 4.5t17 3.5q57 13 79.5 42.5t22.5 73.5v1056q0 50 -21 79t-48.5 43.5t-53 18t-34.5 3.5h-38q-5 0 -6.5 3t-1.5 5v24q0 2 1 4.5t7 3.5h4.5t14.5 0.5t32 1t59 1.5q111 2 221.5 7t221.5 5h101q86 -6 162 -39t132.5 -88t89 -129
t32.5 -161q0 -62 -18 -110.5t-49.5 -86.5t-75 -67t-94.5 -52l303 -495q38 -63 92 -110t120 -73q8 -2 9.5 -5.5t1.5 -8.5q0 -15 -8 -20t-25 -5q-85 0 -158 23t-139 82q-32 29 -61 66.5t-58 84.5l-259 406l-238 11h-8t-10 -2t-4 -4t-1 -8v-461q0 -27 7 -47t23.5 -34.5
t43 -23.5t64.5 -14q6 -1 17.5 -3t25 -4.5t26.5 -4.5t22 -2q6 0 7 -3t1 -5v-24q0 -2 -1.5 -5t-6.5 -3h-615q-5 0 -6.5 4t-1.5 16v12zM440 718q1 -8 4.5 -14.5t14.5 -7.5q4 0 14.5 -1t24.5 -2t30.5 -2t32.5 -1q99 0 167.5 24t111 68t61 107.5t18.5 142.5q0 82 -27 146
t-74 107.5t-111 66t-138 22.5q-14 0 -26 -0.5l-24 -1t-25.5 -1t-30.5 -1.5q-6 0 -15.5 -2.5t-9.5 -13.5v-606z" />
    <glyph glyph-name="S" unicode="S" horiz-adv-x="1026" 
d="M135 27q-13 0 -16 21q-11 94 -17 146t-8.5 78t-3 33.5t-0.5 10.5q0 11 2.5 16.5t16.5 5.5q7 0 14.5 -9.5t14.5 -23t12 -27t7 -20.5q52 -111 137 -168t212 -57q54 0 103 17t86.5 49t59.5 77t22 102q0 71 -28.5 128t-74.5 105t-105 90.5t-121 84.5t-121 86.5t-105 96.5
t-74.5 114.5t-28.5 141.5q0 76 32.5 136.5t85.5 103t120 65t136 22.5q37 0 74.5 -6.5t74 -15.5t73.5 -19.5t73 -19.5l56 7q5 0 7.5 -7.5t2.5 -14.5l26 -213l2 -10q2 -10 2 -12q0 -9 -15 -9q-6 0 -12.5 1.5t-8.5 3.5q-3 3 -7 12.5t-9.5 21.5l-11 24t-11.5 20
q-22 38 -55.5 70.5t-73.5 56t-84.5 37t-89.5 13.5q-39 0 -80 -14t-74.5 -38.5t-55 -59.5t-21.5 -77q0 -66 27.5 -120t72.5 -100t103 -88t118.5 -84.5t119.5 -88.5t106.5 -101.5t78 -122.5t35.5 -152q0 -89 -37.5 -158.5t-98.5 -117t-139 -72.5t-159 -25q-68 0 -118.5 10
t-87 22.5t-61.5 22.5t-42 10q-6 0 -9 -1z" />
    <glyph glyph-name="T" unicode="T" horiz-adv-x="1502" 
d="M653 1287q0 21 -8.5 23.5t-20.5 4.5h-384q-37 -8 -60.5 -29.5t-38.5 -50.5t-23 -62.5t-15 -64.5q-2 -9 -4 -21.5t-4 -14.5q-2 -3 -7 -3h-18q-6 0 -6 4v33l37 312q2 11 5.5 21t18.5 10q7 0 12 -4t9.5 -9.5t9 -10.5t10.5 -7q12 -5 22.5 -6.5t23.5 -1.5h1078q13 0 23.5 1.5
t22.5 6.5q6 2 10.5 7t9 10.5t9.5 9.5t12 4q15 0 18.5 -10t5.5 -21l37 -312v-33q0 -4 -6 -4h-18q-5 0 -7 3q-2 2 -4 14.5t-4 21.5q-7 31 -15 64.5t-23 62.5t-38.5 50.5t-60.5 29.5h-385q-12 -2 -20.5 -4.5t-8.5 -23.5v-1107q0 -30 15 -53.5t40.5 -41.5t60 -29t73.5 -15
q11 -1 28 -1h29q5 0 6.5 -3t1.5 -5v-24q0 -2 -1.5 -5t-6.5 -3h-687q-5 0 -6.5 3t-1.5 5v24q0 2 1.5 5t6.5 3h28.5t28.5 1q39 4 73.5 15t60 29t40.5 41.5t15 53.5v1107v0z" />
    <glyph glyph-name="U" unicode="U" horiz-adv-x="1672" 
d="M211 1250q0 29 -13.5 51.5t-36.5 37.5t-53 23t-64 8q-8 0 -8 8v24q0 8 7 8h542q5 0 6.5 -3t1.5 -5v-24q0 -2 -1.5 -5t-6.5 -3q-30 0 -61.5 -4t-58 -18t-43 -40.5t-16.5 -71.5v-716q0 -100 35 -182.5t97 -142t147.5 -92t187.5 -32.5t191 28t154.5 83t103 135.5t37.5 185.5
v636q0 34 -2.5 70t-16.5 68t-44 55.5t-85 32.5q-25 4 -41.5 4.5t-21.5 0.5q-8 0 -8 8v24q0 8 8 8h492q5 0 6.5 -3t1.5 -5v-24q0 -2 -2 -5t-6 -3q-36 0 -63.5 -5.5t-41.5 -11.5q-17 -7 -31 -20.5t-23.5 -30t-14.5 -34t-5 -32.5v-655q0 -141 -37 -253.5t-111.5 -191
t-187.5 -121t-264 -42.5q-72 0 -148.5 12t-149 36.5t-136.5 63t-112 91.5t-76 121t-28 153v800v0z" />
    <glyph glyph-name="V" unicode="V" horiz-adv-x="1505" 
d="M737 -27q-24 0 -31 22l-527 1277q-9 22 -24 37.5t-31 26t-30.5 16t-23.5 7.5q-7 2 -16 4t-17.5 3.5t-15.5 2.5t-8 1q-8 0 -8 8v24q0 8 8 8h590q6 0 7 -2.5t1 -5.5v-24q0 -2 -1.5 -5t-6.5 -3h-15q-25 -4 -57.5 -8t-61 -14.5t-48 -31t-19.5 -56.5q0 -13 4.5 -30t9.5 -28
l379 -922q1 -2 2.5 -3.5l3.5 -3.5t4 -3q5 0 11 11l348 942q7 20 7 40q0 35 -23 60.5t-64 32.5q-6 1 -19.5 3t-28.5 4.5t-29 4.5t-20 2q-8 0 -8 8v24q0 2 1 5t7 3h505q6 0 7 -3t1 -5v-24q0 -3 -1 -5.5t-7 -2.5h-37q-55 -11 -90 -42.5t-58 -74t-39 -91t-33 -93.5l-393 -1061
q-9 -25 -22 -30t-36 -5h-47v0z" />
    <glyph glyph-name="W" unicode="W" horiz-adv-x="2262" 
d="M1152 649l-273 -641q-11 -24 -23 -29.5t-35 -5.5h-47q-24 0 -31 23l-530 1276q-6 15 -25.5 29t-43 25.5t-46 19.5t-34.5 11q-7 2 -17 4.5t-19.5 4.5t-17.5 3t-10 1q-8 0 -8 8v24q0 8 8 8h570q6 0 7 -2.5t1 -5.5v-24q0 -2 -1.5 -5t-6.5 -3h-18q-39 0 -62.5 -9t-36.5 -22.5
t-17 -28.5t-4 -27q0 -22 6.5 -41t11.5 -40l383 -922q5 -10 19 -10q6 0 9 3t6 8l221 520l-195 471q-6 15 -25.5 29t-43 25.5t-46 19.5t-34.5 11q-14 5 -32 9t-23 4q-8 0 -8 8v24q0 8 8 8h916q6 0 7 -3t1 -5v-24q0 -3 -1 -5.5t-7 -2.5h-37q-36 0 -62 -10t-46.5 -31t-37.5 -53
t-35 -75l-130 -305l256 -616q5 -10 19 -10q6 0 9 3t6 8l423 995q12 28 12 47q0 26 -26.5 36.5t-88.5 10.5h-62q-8 0 -8 8v24q0 2 1 5t7 3h445q6 0 7 -3t1 -5v-24q0 -3 -1 -5.5t-7 -2.5h-47q-24 0 -41 -9.5t-31 -28.5t-27.5 -48.5t-30.5 -68.5l-514 -1207q-11 -24 -23 -29.5
t-35 -5.5h-47q-24 0 -32 22l-43 107zM1302 1323q0 23 -20 33.5t-66 12.5q-34 -2 -54.5 -11.5t-31.5 -22t-14.5 -27t-3.5 -25.5q0 -22 6.5 -41t11.5 -40l63 -153l97 227q12 28 12 47z" />
    <glyph glyph-name="X" unicode="X" horiz-adv-x="1611" 
d="M5 32q0 8 8 8h39q57 7 103 35t85.5 66t74 82t68.5 82l315 415l-305 393q-29 37 -56 75t-58.5 71t-69.5 58t-88 37q-10 4 -24.5 7t-30 5t-29.5 3t-24 1q-5 0 -6.5 3t-1.5 5v24q0 2 1.5 5t6.5 3h659q6 0 7 -3t1 -5v-24q0 -2 -1 -5t-7 -3q-36 0 -67 -1t-54 -6.5t-36 -18
t-13 -35.5q0 -8 6.5 -22.5t10.5 -20.5l278 -369q6 -6 7 -8t7 -2q9 0 16.5 7.5t14.5 15.5l270 346q19 23 19 51q0 24 -16.5 36.5t-39.5 18.5t-49 7t-45 1q-8 0 -8 8v25q0 2 1 4.5t7 2.5h537q6 0 7 -2.5t1 -5.5v-24q0 -3 -1 -5.5t-7 -2.5q-52 0 -96.5 -15.5t-83 -41t-73 -58.5
t-65.5 -69l-310 -405q1 -1 4 -6.5t17 -25t42.5 -58.5t80.5 -108t131.5 -173.5t196.5 -255.5q13 -17 30.5 -33t37.5 -30t41.5 -24t42.5 -14q12 -6 27.5 -7t30 -2t24.5 -5t10 -16q0 -16 -12.5 -19.5t-26.5 -3.5h-551q-5 0 -6.5 3t-1.5 5v24q0 2 1 4q1 3 7 4q9 2 31 1.5t44 3.5
t39 16t17 39q0 8 -4.5 19t-7.5 16l-352 465q-4 5 -7 7.5t-10 2.5q-8 0 -10.5 -2.5t-6.5 -7.5l-345 -455q-9 -12 -11.5 -20.5t-2.5 -19.5q0 -31 21.5 -43t50 -15t56 -2t38.5 -5q8 -4 8 -8v-24q0 -2 -1.5 -5t-6.5 -3h-543q-5 0 -6.5 3t-1.5 5v11v13z" />
    <glyph glyph-name="Y" unicode="Y" horiz-adv-x="1527" 
d="M492 30q0 6 7 10.5t17.5 7t22.5 4t21 2.5q76 8 107 37.5t31 88.5v331q0 4 -0.5 7t-2.5 8l-409 652q-17 27 -36.5 54.5t-43 52t-51 43t-59.5 26.5q-5 1 -16 3.5t-23 4.5t-23 4t-16 3q-10 1 -12 7.5t-2 15.5q0 5 2 11.5t13 6.5h572q11 0 14 -5t3 -13q0 -22 -17 -22
q-20 -2 -44 -4.5t-45 -10t-35.5 -22t-14.5 -41.5q0 -24 12 -43l338 -540q11 -16 13.5 -20.5t10.5 -4.5q7 0 13 8t14 21l270 459q12 24 27.5 51.5t15.5 56.5q0 28 -12 44.5t-30 25.5t-40 13t-43 7q-11 1 -14 7t-3 15q0 7 2.5 12.5t14.5 5.5h467q8 0 11 -6.5t3 -11.5
q0 -10 -4.5 -15t-12 -7.5t-16.5 -4t-18 -3.5q-50 -12 -86.5 -37t-71.5 -63q-5 -5 -14.5 -16t-10.5 -13l-395 -680v-373q0 -54 30.5 -85t107.5 -41q7 -1 18.5 -2.5t22.5 -4t19 -6.5t8 -10v-11q0 -14 -10 -17t-24 -3h-539q-14 0 -24 3t-10 17v10z" />
    <glyph glyph-name="Z" unicode="Z" horiz-adv-x="1460" 
d="M95 0q-7 0 -10.5 4.5t-5 11.5t-2 14.5t-0.5 12.5q0 11 4 22.5t12 20.5l935 1209q4 5 4 10q0 8 -7 9t-13 1h-607q-23 0 -48 -6.5t-47.5 -19t-40 -31.5t-26.5 -43q-3 -11 -10 -41.5t-19 -91.5q-2 -10 -6 -14.5t-21 -4.5q-12 0 -16 6l15 307q0 3 1 10.5t3 12.5q3 8 11 10
q4 1 8 1h1086q3 0 5.5 -5t5 -11.5t4 -14t1.5 -12.5q0 -21 -13 -40l-899 -1163q-3 -5 -11.5 -17t-8.5 -20q0 -14 16 -20.5t30 -6.5h705q28 0 51 11t42 27q30 24 49 57t30.5 69.5t16.5 74.5t8 74q2 11 7.5 13t14.5 2q5 0 10 -3.5t5 -8.5v-47l-21 -310q-1 -11 -1 -21.5
t-2.5 -18.5t-8 -13.5t-17.5 -5.5h-1219v0z" />
    <glyph glyph-name="bracketleft" unicode="[" horiz-adv-x="740" 
d="M702 1731v-86h-271q-73 0 -73 -73v-1755q0 -73 73 -73h294v-86h-520v2073h497z" />
    <glyph glyph-name="backslash" unicode="\" horiz-adv-x="665" 
d="M136.032 1452h-129.992l524.968 -1479h128.992z" />
    <glyph glyph-name="bracketright" unicode="]" horiz-adv-x="740" 
d="M15 -342v86h296q38 0 55 17.5t17 55.5v1755q0 38 -17 55.5t-55 17.5h-274v86h498v-2073h-520z" />
    <glyph glyph-name="asciicircum" unicode="^" horiz-adv-x="1049" 
d="M529 1186l-305 -507h-148l421 700h63l412 -700h-148z" />
    <glyph glyph-name="underscore" unicode="_" horiz-adv-x="1014" 
d="M-16 -205h1046v-115h-1046v115z" />
    <glyph glyph-name="grave" unicode="`" horiz-adv-x="700" 
d="M478 1067q-4 -4 -8 -4q-2 0 -6 4l-269 217q-20 17 -37.5 40t-17.5 54q0 29 20.5 51.5t51.5 22.5q18 0 37 -11.5t38 -37.5l213 -295q4 -4 4 -6t-4 -6z" />
    <glyph glyph-name="a" unicode="a" horiz-adv-x="885" 
d="M528 115q-60 -45 -98 -72.5t-64 -42.5t-45 -20t-41 -5q-38 0 -75.5 14.5t-67.5 41t-48.5 64t-18.5 84.5q0 39 12.5 70t46.5 58t92.5 51t151.5 48q50 13 80.5 28t56.5 29q17 9 19.5 16t2.5 13v192q0 33 -10 64.5t-29.5 55.5t-48.5 39t-67 15q-18 0 -39.5 -7t-41 -22
t-32.5 -38t-13 -56q0 -3 0.5 -9t1.5 -12.5t2 -11.5t1 -6q-2 -4 -21.5 -14.5t-44.5 -22t-48.5 -21.5t-33.5 -12q-11 0 -13.5 11.5t-2.5 22.5q0 43 23 90t65.5 86.5t102 65t133.5 25.5q57 0 106.5 -18.5t86 -50.5t58 -75t21.5 -91v-527q0 -26 24.5 -41.5t55.5 -15.5q18 0 31 5
t22.5 11.5t16 11.5t12.5 5q8 0 9 -6.5t1 -11.5q0 -17 -4.5 -24.5t-15.5 -15.5q-49 -36 -82 -57.5t-56 -33t-38 -15.5t-27 -4q-21 0 -36 11t-26.5 27t-19.5 34.5t-13.5 34.5t-8.5 26t-5 9zM227 199q0 -27 10.5 -50t27.5 -39.5t38.5 -25.5t44.5 -9q21 0 52 10.5t60.5 28
t50.5 40t21 45.5v203q0 11 -8 11q-2 0 -4 -1l-232 -108q-14 -10 -25.5 -18.5t-19.5 -20t-12 -27t-4 -39.5z" />
    <glyph glyph-name="b" unicode="b" horiz-adv-x="1099" 
d="M282 1639q4 2 8.5 4t6.5 2q17 0 17 -24v-784q0 -10 2.5 -20.5t12.5 -10.5q3 0 23.5 10t43.5 22q27 14 60 33q40 17 69.5 28t51.5 17t38.5 8.5t31.5 2.5q79 0 142 -40t107.5 -104.5t68.5 -145.5t24 -162q0 -100 -33 -191t-95.5 -160t-152 -110t-201.5 -41q-60 0 -105 4.5
t-82.5 12t-72.5 17.5t-75 20q-9 2 -11.5 8.5t-2.5 15.5v1348q0 24 -13 37.5t-33 20.5t-43 11.5t-44 10.5q-6 2 -9.5 5.5t-3.5 14.5q0 5 3 10t12 10zM326 741q-8 -5 -10 -10.5t-2 -13.5v-473q5 -47 26.5 -83t54.5 -60.5t74.5 -37t85.5 -12.5q72 0 126 34t90.5 87t55 119
t18.5 131q0 66 -18 134t-56 123.5t-97 90.5t-141 35q-55 0 -107.5 -18.5t-99.5 -45.5z" />
    <glyph glyph-name="c" unicode="c" horiz-adv-x="934" 
d="M90 395q1 151 39 253.5t105.5 164.5t159 88.5t199.5 26.5q32 0 68.5 -1.5t70.5 -9t62.5 -25t46.5 -48.5q5 -8 9.5 -18t4.5 -19q0 -38 -23.5 -54t-57.5 -16q-25 0 -44.5 9.5t-36.5 23.5t-32.5 30.5t-32.5 30.5t-37 23.5t-45 9.5q-48 0 -87.5 -17.5t-71.5 -47.5t-55 -69
t-39 -82t-23.5 -86.5t-7.5 -82.5q0 -78 17.5 -149.5t56.5 -126t101 -87t150 -32.5q45 0 86 15t76 40q16 11 31.5 26t28 29t21 23.5t11.5 9.5q9 0 16 -6t7 -14q0 -4 -0.5 -10t-5.5 -11q-72 -100 -168 -156.5t-217 -56.5q-87 0 -157.5 35t-121 93.5t-77.5 134.5t-27 159z" />
    <glyph glyph-name="d" unicode="d" horiz-adv-x="1090" 
d="M884 1639q4 2 8.5 4t6.5 2q17 0 17 -24v-1424q5 -44 25 -63t65 -19l58 4q4 0 5 -5.5t1 -11.5q0 -2 -2.5 -5t-12.5 -8l-266 -110q-2 -1 -10 -3.5t-9 -2.5q-7 0 -8.5 8.5t-1.5 16.5v91q0 10 -7 10q-3 0 -9 -3q-35 -20 -72 -42t-75.5 -40t-79 -29.5t-82.5 -11.5
q-90 0 -156 40t-109 103.5t-64 143t-21 158.5q0 98 36.5 185.5t101 153.5t151.5 105t188 39q31 0 61.5 -3.5t61.5 -12.5q12 -3 29 -9t34 -6q3 0 5 1q1 0 3 1l4 11v516q0 24 -13 37.5t-33 20.5t-43 11.5t-44 10.5q-6 2 -9.5 5.5t-3.5 14.5q0 5 3 10t12 10zM236 463
q0 -72 19.5 -141.5t59.5 -123.5t99.5 -87t139.5 -33q7 0 25.5 3.5t41.5 9t47.5 13.5t45 17.5t33.5 19t13 19.5v516q0 3 -2 10t-4 10q-2 2 -9.5 12t-10.5 13q-37 51 -89.5 80.5t-115.5 29.5q-75 0 -130 -33t-91 -85.5t-54 -118.5t-18 -131z" />
    <glyph glyph-name="e" unicode="e" horiz-adv-x="930" 
d="M70 405q0 98 28 192t82.5 167.5t135.5 118t187 44.5q53 0 98 -19t81.5 -50t64.5 -70.5t47 -79t28.5 -76t9.5 -62.5q0 -43 -21 -43h-580q-10 0 -13.5 -18t-3.5 -44q0 -84 25 -153.5t68.5 -119t101.5 -76.5t123 -27q64 0 131.5 28t133.5 90q2 2 5 2h5q6 0 11.5 -9.5
t10.5 -12.5q-32 -39 -75.5 -77.5t-94 -69t-104 -49t-105.5 -18.5q-84 0 -154 37.5t-120.5 98.5t-78 138.5t-27.5 157.5zM242 623q0 -8 5 -13.5t13 -5.5h377q26 0 26 23q0 39 -17.5 80t-46 74.5t-65.5 55t-77 21.5t-75.5 -20t-64 -51.5t-48 -71.5t-27.5 -80v-12z" />
    <glyph glyph-name="f" unicode="f" horiz-adv-x="624" 
d="M40 16q0 9 10 13q13 6 37 9.5t48 14t42 33t18 66.5v606q0 11 -12 11h-109q-12 0 -23 7.5t-11 21.5q0 11 11.5 18t28.5 12.5t37.5 11t37.5 13.5t28.5 18.5t11.5 27.5v33q0 100 13.5 200.5t48.5 190.5t94 163.5t151 119.5q60 30 114 48t120 18q14 0 44 -6.5t61 -18.5
t54 -29.5t23 -39.5q0 -8 -2.5 -14t-5.5 -15l-41 -88q-2 -4 -7.5 -10t-11.5 -6q-2 0 -4.5 1.5t-12.5 9.5q-23 18 -47 36.5t-50 34t-54 25t-57 9.5q-68 0 -114.5 -18.5t-77 -49t-47 -69t-24.5 -79t-9.5 -79t-1.5 -67.5v-291q0 -6 2.5 -7t7.5 -1h195q28 0 36.5 -5.5t12.5 -20.5
q6 -23 9 -42.5t3 -41.5q0 -13 -5 -17t-21 -4h-227q-2 0 -7.5 -1t-5.5 -9v-587q0 -44 22 -72t57.5 -43.5t80 -21.5t88.5 -6q18 -2 18 -13q0 -5 -2.5 -10.5t-15.5 -5.5h-549q-10 2 -10 16z" />
    <glyph glyph-name="g" unicode="g" horiz-adv-x="1148" 
d="M819 831q66 0 129.5 6t138.5 6q23 0 30 -5t11 -19q6 -23 9 -42.5t3 -41.5q0 -13 -5 -17t-20 -4h-222q6 -11 13 -23t13.5 -28.5t11 -38t4.5 -50.5q0 -68 -28.5 -131.5t-83.5 -113t-134.5 -79.5t-181.5 -30q-17 0 -30.5 1t-26 3t-26 6t-29.5 9q-15 -16 -40 -29.5
t-49.5 -27.5t-42 -30.5t-17.5 -37.5q0 -46 82.5 -66t266.5 -21q104 -1 176 -4.5t123 -13t85 -26.5t62 -45q44 -44 58 -88t14 -83t-18 -84.5t-54.5 -91t-91.5 -87t-129 -73.5t-167.5 -51t-206.5 -19q-95 0 -166 20t-117.5 52.5t-69.5 74.5t-23 87q0 53 25 87.5t63.5 65
t84.5 64t88 85.5q-50 4 -92.5 21t-73.5 41t-49 53t-18 59q0 42 27 66.5t66 42t82 32.5t75 39q-112 44 -173 121.5t-61 181.5q0 79 33 147.5t91 119t136.5 79.5t169.5 29q85 0 154.5 -25t120.5 -73zM222 -323q0 -43 28.5 -86.5t77 -79t114.5 -57.5t141 -22q78 0 151 24
t129 64t90 92.5t34 110.5q0 34 -13.5 60t-36 44t-52.5 28.5t-63 13.5q-16 1 -50 2.5t-77 3t-91 2.5t-92 2.5t-79 3.5t-53 4q-26 -30 -53.5 -53t-51 -46t-38.5 -49t-15 -62zM771 552q0 79 -19 140.5t-53 104t-81.5 64.5t-103.5 22q-35 0 -76 -11.5t-76.5 -43t-59.5 -86
t-24 -139.5q0 -54 14 -113.5t45 -109t80.5 -82t119.5 -32.5q53 0 96.5 21t74 58.5t47 90.5t16.5 116z" />
    <glyph glyph-name="h" unicode="h" horiz-adv-x="1124" 
d="M496 16q0 -14 -10 -16h-446q-10 2 -10 16q0 9 10 13q13 6 37 9.5t48 14t42 33t18 66.5v1247q0 24 -13 37.5t-33 20.5t-43 11.5t-44 10.5q-6 2 -9.5 5.5t-3.5 14.5q0 5 3 10t12 10l255 120q4 2 8.5 4t6.5 2q17 0 17 -24v-847q0 -4 1 -14t6 -10q7 0 10 3.5t9 9.5
q29 33 58.5 62.5t61.5 52t69.5 35.5t83.5 13q62 0 116.5 -14.5t95 -54t64 -109t23.5 -179.5v-417q0 -44 18 -66.5t42 -33t48 -14t37 -9.5q10 -4 10 -13q0 -14 -10 -16h-446q-10 2 -10 16q0 9 10 13q13 6 37 9.5t48 14t42 33t18 66.5v407q0 58 -3 109t-20.5 89t-56 59.5
t-108.5 21.5q-36 0 -80 -17.5t-83 -47t-65 -68t-26 -80.5v-473q0 -44 18 -66.5t42 -33t48 -14t37 -9.5q10 -4 10 -13z" />
    <glyph glyph-name="i" unicode="i" horiz-adv-x="576" 
d="M70 0q-10 2 -10 16q0 9 10 13q13 6 37 9.5t48 14t42 33t18 66.5v529q0 24 -13 37.5t-33 20.5t-43 11.5t-44 10.5q-6 2 -9.5 5.5t-3.5 14.5q0 5 3 10t12 10l255 120q4 2 8.5 4t6.5 2q17 0 17 -24v-751q0 -44 18 -66.5t42 -33t48 -14t37 -9.5q10 -4 10 -13q0 -14 -10 -16
h-446zM174 1307q0 46 30 73t76 27q19 0 36 -9t30 -23.5t20.5 -32t7.5 -35.5q0 -20 -7.5 -37.5t-20 -31.5t-29.5 -22t-35 -8q-45 0 -76.5 26t-31.5 73z" />
    <glyph glyph-name="j" unicode="j" horiz-adv-x="577" 
d="M339 921q4 2 8.5 4t6.5 2q17 0 17 -24v-1030q0 -47 -7 -97t-21.5 -99t-37.5 -94.5t-55 -82.5q-32 -43 -67 -70.5t-75.5 -43t-89 -21t-106.5 -5.5q-24 0 -51 11t-50.5 29t-39.5 41t-18 47q0 15 6.5 31t18.5 28.5t28.5 20.5t36.5 8q2 0 6.5 -1.5t18 -9.5t38.5 -26t68 -51
q20 -15 50.5 -23t84.5 -8q34 8 55 33.5t32.5 58.5t15 69t3.5 65v998q0 24 -13 37.5t-33 20.5t-43 11.5t-44 10.5q-6 2 -9.5 5.5t-3.5 14.5q0 5 3 10t12 10zM160 1307q0 46 30 73t77 27q19 0 36 -9t30 -23.5t20.5 -32t7.5 -35.5q0 -20 -7.5 -37.5t-20 -31.5t-29.5 -22t-35 -8
q-45 0 -77 26t-32 73z" />
    <glyph glyph-name="k" unicode="k" horiz-adv-x="1096" 
d="M510 17q0 -6 -2 -11.5t-8 -5.5h-446q-10 2 -10 16q0 9 10 13q13 6 37 9.5t48 14t42 33t18 66.5v1247q0 24 -13 37.5t-33 20.5t-43 11.5t-44 10.5q-6 2 -9.5 5.5t-3.5 14.5q0 5 3 10t12 10l255 120q4 2 8.5 4t6.5 2q17 0 17 -24v-998q8 -29 21 -34t26 -5q17 0 43.5 13.5
t57 34.5t61 47t55 51.5t40 47t15.5 33.5q0 20 -19 25.5t-42.5 8t-42.5 8t-19 24.5q0 14 13 18.5t28 4.5h381q4 0 10 -0.5t11.5 -3t9.5 -7t4 -12.5q0 -12 -23 -19t-57 -14.5t-71.5 -19t-65.5 -33.5l-287 -224q0 -8 7 -17.5t12 -14.5l411 -433q26 -27 53 -40t49 -19.5
t36 -10.5t14 -14q0 -5 -2 -11.5t-14 -6.5h-439q-7 0 -8.5 5.5t-1.5 11.5q0 7 10 12t25.5 8t30 8.5t24.5 14.5t10 26q0 11 -15 29t-28 35l-309 327q0 1 -1 2h-1q-6 0 -9 -15t-3 -34v-278q0 -44 18 -66.5t42 -33t48 -14t37 -9.5q10 -4 10 -12z" />
    <glyph glyph-name="l" unicode="l" horiz-adv-x="521" 
d="M486 16q0 -14 -10 -16h-446q-10 2 -10 16q0 9 10 13q13 6 37 9.5t48 14t42 33t18 66.5v1247q0 24 -13 37.5t-33 20.5t-43 11.5t-44 10.5q-6 2 -9.5 5.5t-3.5 14.5q0 5 3 10t12 10l255 120q4 2 8.5 4t6.5 2q17 0 17 -24v-1469q0 -44 18 -66.5t42 -33t48 -14t37 -9.5
q10 -4 10 -13z" />
    <glyph glyph-name="m" unicode="m" horiz-adv-x="1732" 
d="M321 970q4 2 8.5 4t6.5 2q17 0 17 -24v-166q1 -6 8 -6q6 0 14 4q45 24 88 49.5t86.5 46.5t87.5 34t89 13t76 -11t52 -28.5t34.5 -38t23.5 -39.5q1 -3 4 -7.5t7.5 -9.5t9 -8.5t9.5 -3.5q8 1 14.5 3.5t14.5 5.5q64 33 111 55.5t81 38t57.5 24t41.5 13t32 5.5t29 1
q49 0 85 -21t60.5 -55.5t40 -79t23.5 -91t11 -92t3 -82.5q0 -69 -4.5 -138.5t-4.5 -153.5v-58q0 -30 11 -50t28.5 -33t38.5 -19.5t41 -10.5t36.5 -6.5t25.5 -6.5q10 -4 10 -14q0 -14 -10 -16h-482q-10 2 -10 16q0 10 10 14q13 6 37 9.5t48 15t41.5 36.5t17.5 73
q5 31 6.5 68.5t1.5 82.5t-1 96.5t-1 114.5q0 49 -4.5 99.5t-22 92t-51.5 68t-94 26.5q-10 0 -25 -2.5t-41.5 -11.5t-68.5 -27t-106 -49q-8 -5 -16.5 -11.5t-9.5 -16.5v-538q0 -45 18 -68.5t42 -34t48 -14t37 -9.5q10 -4 10 -14q0 -14 -10 -16h-446q-10 2 -10 16q0 10 10 14
q13 6 37 9.5t48 14t42 34t18 68.5v498q0 157 -194 157q-23 0 -58 -12.5t-71.5 -31.5t-68 -40t-46.5 -39v-532q0 -45 18 -68.5t42 -34t48 -14t37 -9.5q10 -4 10 -14q0 -14 -10 -16h-446q-10 2 -10 16q0 10 10 14q13 6 37 9.5t48 14t42 33t18 67.5v576q0 24 -13 37.5t-33 20.5
t-43 11.5t-44 10.5q-6 2 -9.5 5.5t-3.5 14.5q0 5 3 10t12 10z" />
    <glyph glyph-name="n" unicode="n" horiz-adv-x="1164" 
d="M331 970q4 2 8.5 4t6.5 2q17 0 17 -24v-156q3 -10 8 -10t7.5 1t8.5 3q64 33 111 55.5t81 38t57.5 24t41.5 13t32 5.5t29 1q49 0 85 -21t60.5 -55.5t40 -79t23.5 -91t11 -92t3 -82.5q0 -69 -4.5 -138.5t-4.5 -153.5v-58q0 -30 11 -50t28.5 -33t38.5 -19.5t41 -10.5
t36.5 -6.5t25.5 -6.5q10 -4 10 -14q0 -14 -10 -16h-482q-10 2 -10 16q0 10 10 14q13 6 37 9.5t48 15t41.5 36.5t17.5 73q5 31 6.5 68.5t1.5 82.5t-1 96.5t-1 114.5q0 49 -4.5 99.5t-22 92t-51.5 68t-94 26.5q-10 0 -25 -2.5t-41.5 -11.5t-68.5 -27t-106 -49
q-8 -5 -16.5 -11.5t-9.5 -16.5v-538q0 -45 18 -68.5t42 -34t48 -14t37 -9.5q10 -4 10 -14q0 -14 -10 -16h-446q-10 2 -10 16q0 10 10 14q13 6 37 9.5t48 14t42 34t18 68.5v574q0 24 -13 37.5t-33 20.5t-43 11.5t-44 10.5q-6 2 -9.5 5.5t-3.5 14.5q0 5 3 10t12 10z" />
    <glyph glyph-name="o" unicode="o" horiz-adv-x="1107" 
d="M75 460q0 93 37.5 177.5t101.5 149.5t149 103.5t179 38.5q99 0 188 -36t156 -100t106.5 -150.5t39.5 -186.5q0 -103 -36 -191t-100 -153t-152 -102t-193 -37q-104 0 -191 38t-150.5 103.5t-99 154.5t-35.5 191zM241 523q0 -83 20.5 -170.5t63 -160t108.5 -119t158 -46.5
q71 0 122 31.5t84 81.5t48.5 112t15.5 124q0 49 -10.5 104.5t-31 110t-50.5 104t-69.5 87.5t-88 60.5t-105.5 22.5q-67 0 -117 -31t-83 -80.5t-49 -110.5t-16 -120z" />
    <glyph glyph-name="p" unicode="p" horiz-adv-x="1090" 
d="M291 973q8 4 16 4q16 0 16 -24v-127q0 -5 4.5 -8t7.5 -3q11 0 18 7q81 50 152 77t149 27q52 0 96 -21.5t80.5 -57t64.5 -82.5t46.5 -98t28.5 -103t10 -97q0 -72 -19 -137t-54 -121.5t-84 -103.5t-110 -81q-42 -23 -90 -37t-98 -14q-45 0 -87.5 6t-93.5 17
q-17 0 -18.5 -12t-2.5 -25v-427q0 -30 12.5 -49t32 -31.5t43 -19t45.5 -10.5t40 -6.5t27 -6.5q10 -4 10 -13q0 -14 -10 -16h-501q-10 2 -10 16q0 9 10 13q13 6 37 9.5t48 14t42 33t18 66.5v1199q0 24 -13 37.5t-33 20.5t-43 11.5t-44 10.5q-6 2 -9.5 5.5t-3.5 14.5q0 5 3 10
t12 10zM537 822q-54 0 -103.5 -15t-95.5 -49q-2 -1 -4.5 -3.5l-4.5 -4.5l-6 -6v-562q0 -3 1 -16.5t3 -24.5q2 -14 16.5 -26.5t35.5 -23t46.5 -19t49.5 -14t44.5 -8.5t32.5 -3q66 0 117 26.5t86 71t53 101.5t18 118q0 47 -5.5 98.5t-18.5 101.5t-35 95.5t-54 81t-75.5 57
t-100.5 24.5z" />
    <glyph glyph-name="q" unicode="q" horiz-adv-x="1096" 
d="M933 -468q0 -44 18 -66.5t42 -33t48 -14t37 -9.5q10 -4 10 -13q0 -14 -10 -16h-536q-10 2 -10 16q0 9 10 13q9 4 29.5 6.5t46.5 6.5t54 10.5t51.5 19t38.5 31.5t15 49v568q0 5 -1 5.5t-3 0.5q-5 0 -18 -8q-53 -30 -93.5 -53t-76.5 -39t-71 -24.5t-77 -8.5q-51 0 -96 19.5
t-82 53.5t-67 79t-50 95.5t-31 104t-11 103.5q0 101 37.5 191.5t103 159t153 108.5t187.5 40q66 0 125 -16.5t116 -47.5h7q13 0 26 11t25 24.5t21.5 25t15.5 11.5h10q2 0 4 -0.5t2 -5.5v-1397zM251 417q0 -76 27.5 -137.5t71 -105t97 -67t105.5 -23.5q29 0 60 6.5t61 18
t57 27.5t47 36v454q0 64 -19.5 110t-52.5 75.5t-75.5 43.5t-87.5 14q-64 0 -117.5 -33t-92 -93t-60 -143t-21.5 -183z" />
    <glyph glyph-name="r" unicode="r" horiz-adv-x="747" 
d="M331 921q4 2 8.5 4t6.5 2q17 0 17 -24v-162q0 -3 0.5 -7.5t5.5 -4.5t8 3.5t6 6.5q18 24 39 53.5t44.5 55.5t49 43.5t51.5 17.5q18 0 48.5 -8.5t60 -20t50.5 -24.5t21 -22t-6 -28.5t-15.5 -39t-22 -34.5t-25.5 -15q-2 0 -3 0.5t-2 0.5q-17 6 -35.5 14.5t-37 16.5t-38 13.5
t-38.5 5.5q-30 0 -59 -17t-51.5 -42.5t-36.5 -54t-14 -50.5v-452q0 -30 12.5 -49t32 -31.5t43 -19t45.5 -10.5t40 -6.5t27 -6.5q10 -4 10 -13q0 -14 -10 -16h-501q-10 2 -10 16q0 9 10 13q13 6 37 9.5t48 14t42 33t18 66.5v529q0 24 -13 37.5t-33 20.5t-43 11.5t-44 10.5
q-6 2 -9.5 5.5t-3.5 14.5q0 5 3 10t12 10z" />
    <glyph glyph-name="s" unicode="s" horiz-adv-x="685" 
d="M89 -27q-2 0 -6 27.5t-7.5 66t-7 80.5t-3.5 71q0 11 3.5 13t12.5 2q7 0 12.5 -5t9.5 -12.5t6.5 -15.5t5.5 -14q17 -37 37 -66.5t46 -50.5t59 -32.5t75 -11.5q32 0 58 13t44 35t27.5 49t9.5 56q0 54 -30 93t-74.5 71t-97 62.5t-97 67.5t-74.5 86t-30 118q0 48 25.5 93.5
t67 80.5t94.5 56t109 21q31 0 59.5 -5t52 -12t39 -14t20.5 -11q7 -5 11 -12.5t6 -19.5t2.5 -31t0.5 -46v-92q0 -9 -3 -15.5t-15 -6.5q-11 0 -14.5 4t-6.5 13q-12 31 -29.5 62.5t-40.5 56.5t-53.5 40.5t-68.5 15.5q-28 0 -52.5 -10.5t-42.5 -31t-28.5 -51t-10.5 -69.5
q0 -15 11 -31.5t28 -33t37.5 -32.5t40.5 -28q51 -32 105 -63.5t98 -70.5t72 -89.5t28 -120.5q0 -58 -24 -104.5t-64 -78.5t-91.5 -49.5t-106.5 -17.5q-28 0 -56 5t-51 11.5t-38 11.5t-17 5q-9 0 -16 -5t-13.5 -11.5t-12.5 -11.5t-14 -5h-17v0z" />
    <glyph glyph-name="t" unicode="t" horiz-adv-x="647" 
d="M151 769h-75q-14 0 -22 7t-9 15q0 5 2 11t5 8q40 26 76 58t70 64q10 11 27 33t35.5 43.5t37 38t31.5 16.5q12 0 12 -14q0 -7 -3.5 -21.5t-8.5 -32.5t-11 -38t-11 -39q0 -8 2.5 -13t13.5 -6h255q16 0 22 -5.5t9 -14.5q2 -5 4 -17.5t4 -27.5t3.5 -31t1.5 -28q0 -6 -8 -6
h-301q-5 0 -5.5 -2t-0.5 -7v-552q0 -32 8 -56t20.5 -40t28.5 -24t32 -8q46 0 76.5 13.5t53 29.5t40.5 29.5t38 13.5q8 0 8 -7q0 -14 -2 -21.5t-6 -12.5q-2 -3 -21 -27.5t-51 -52t-74 -50t-90 -22.5q-54 0 -95 20t-68 53.5t-40.5 76.5t-13.5 89v557z" />
    <glyph glyph-name="u" unicode="u" horiz-adv-x="1124" 
d="M164 736q-3 29 -26.5 49.5t-50.5 26.5q-7 2 -15.5 2.5t-15.5 2t-11.5 5t-4.5 12.5q0 8 2.5 14t13.5 9l229 66q6 2 12.5 3t12.5 1q10 0 10 -17v-671q0 -37 18 -64.5t47.5 -45.5t68 -27t79.5 -9q33 0 65.5 7.5t62 20.5t53.5 31.5t40 41.5v542q-3 29 -26.5 49.5t-50.5 26.5
q-7 2 -15.5 2.5t-15.5 2t-11.5 5t-4.5 12.5q0 8 2.5 14t13.5 9l229 66q6 2 12.5 3t12.5 1q4 0 7 -3.5t3 -16.5v-710q5 -44 25 -63t65 -19l58 4q4 0 5 -5.5t1 -11.5q0 -2 -2.5 -5t-12.5 -8l-266 -110q-2 -1 -10 -3.5t-9 -2.5q-7 0 -8.5 8.5t-1.5 16.5v90q-2 7 -4 8.5t-6 1.5
q-5 0 -8 -2t-8 -4q-35 -18 -78.5 -39t-91.5 -39t-98.5 -30t-99.5 -12q-28 0 -62 7.5t-64 25.5t-50 47.5t-20 73.5v610v0z" />
    <glyph glyph-name="v" unicode="v" horiz-adv-x="1036" 
d="M473 -27q-8 0 -13.5 11.5t-8.5 19.5l-265 717q-17 46 -49 80.5t-78 49.5q-7 2 -17 3t-19.5 3t-16 7t-6.5 16q0 20 24 20h445q6 0 7 -7t1 -10q0 -14 -11 -18.5t-28 -5.5t-36 -0.5t-36 -4.5t-28 -17.5t-11 -38.5q0 -3 3 -12.5t3 -11.5l203 -555q2 -5 6.5 -14.5t12.5 -9.5
q4 0 8.5 4.5t7.5 10.5t5 11.5t3 7.5q46 118 78.5 201.5t53.5 140t33 90.5t18 53.5t7 28.5t1 16q0 35 -22 57.5t-54 34.5q-9 2 -22.5 2t-26 2t-22 8t-9.5 20q0 8 7 12.5t15 4.5h379q8 -2 9.5 -7.5t1.5 -10.5q0 -7 -2 -10.5t-9.5 -6t-21 -4.5t-35.5 -6t-38.5 -20.5t-30 -38.5
t-23.5 -45.5t-19 -42.5l-273 -706q-3 -7 -8.5 -18t-13.5 -11h-79v0z" />
    <glyph glyph-name="w" unicode="w" horiz-adv-x="1642" 
d="M481 -27q-8 0 -13.5 11.5t-8.5 19.5l-265 717q-17 46 -49 80.5t-78 49.5q-7 2 -17 3t-19.5 3t-16 7t-6.5 16q0 20 24 20h445q6 0 7 -7t1 -10q0 -14 -11 -18.5t-27 -5.5t-35 -0.5t-35 -4.5t-27 -17.5t-11 -38.5q0 -3 1 -12.5t1 -11.5l203 -555q2 -5 6.5 -14.5t12.5 -9.5
q4 0 8.5 4.5t7.5 10.5t5 11.5t3 7.5q49 124 82 210t54.5 143t32.5 89t16 50q-17 46 -49 80.5t-78 49.5q-7 2 -17 3t-19.5 3t-16 7t-6.5 16q0 20 24 20h445q6 0 7 -7t1 -10q0 -14 -11 -18.5t-27 -5.5t-35 -0.5t-35 -4.5t-27 -17.5t-11 -38.5q0 -3 1 -12.5t1 -11.5l203 -555
q2 -5 6.5 -14.5t12.5 -9.5q4 0 8.5 4.5t7.5 10.5t5 11.5t3 7.5q47 118 79 201.5t53 140t33 90.5t18 53.5t7 28.5t1 16q0 35 -22 57.5t-54 34.5q-9 2 -22.5 2t-26 2t-22 8t-9.5 20q0 8 7 12.5t15 4.5h379q8 -2 9.5 -7.5t1.5 -10.5q0 -7 -2 -10.5t-9.5 -6t-21 -4.5t-35.5 -6
t-38.5 -20.5t-30 -38.5t-23.5 -45.5t-19 -42.5l-273 -706q-3 -7 -8.5 -18t-13.5 -11h-79q-8 0 -13.5 11.5t-8.5 19.5l-222 601l-233 -603q-3 -7 -8.5 -18t-13.5 -11h-79v0z" />
    <glyph glyph-name="x" unicode="x" horiz-adv-x="1017" 
d="M413 900q6 0 7 -7t1 -10q-1 -8 -16 -11.5t-33 -9t-33 -16.5t-15 -33q0 -9 2 -18t7 -14l155 -192q8 -9 16.5 -19.5t16.5 -10.5q5 0 13 10l147 171q13 15 19 26.5t6 30.5q0 30 -16 41.5t-35.5 17t-35.5 10.5t-16 22q0 4 1.5 8t9.5 4h307q6 0 7 -2.5t1 -14.5q0 -4 -1 -10
t-7 -9q-29 -8 -50 -17.5t-39 -22.5t-34.5 -30.5t-36.5 -41.5l-193 -232q-3 -5 -3.5 -7.5t-0.5 -8.5q0 -4 4 -10t15.5 -21t33.5 -42t58.5 -71.5t89 -110t126.5 -158.5q10 -13 27 -20.5t33.5 -14.5t28.5 -15.5t12 -22.5q0 -9 -2 -12t-10 -6h-394q-8 0 -9 8t-1 11
q0 13 16.5 15.5t37 5.5t37 12t16.5 36q0 14 -8.5 25t-16.5 20l-172 216q-8 11 -12.5 17t-18.5 6q-12 0 -19.5 -10.5t-15.5 -18.5l-157 -189q-13 -15 -17 -30.5t-4 -24.5q0 -18 13.5 -31.5t32.5 -22t38 -12.5t31 -4q4 0 5.5 -5t1.5 -10t-1.5 -9.5t-5.5 -4.5h-321
q-11 0 -13.5 4.5t-2.5 13.5t16 19t36.5 19.5t41 20t29.5 21.5l277 333q-1 2 -3.5 5t-11.5 14t-28 34.5t-53.5 66t-88 108.5t-130.5 162q-8 9 -22.5 16.5t-29.5 14t-25.5 13.5t-10.5 15q2 20 24 20h372z" />
    <glyph glyph-name="y" unicode="y" horiz-adv-x="1082" 
d="M343 -403q51 114 83.5 189t51 119t26 62t7.5 20q0 12 -6 23.5t-14 21.5l-330 689q-17 46 -49 80.5t-78 49.5q-7 2 -17 3t-19.5 3t-16 7t-6.5 16q0 20 24 20h445q6 0 7 -7t1 -10q0 -14 -11.5 -18.5t-28.5 -5.5t-36.5 -1t-36.5 -4.5t-28.5 -17t-11.5 -38.5q0 -3 4.5 -12.5
t4.5 -11.5l259 -555q2 -5 6.5 -14.5t12.5 -9.5q4 0 8.5 4.5t7.5 10.5t5 11.5t3 7.5q46 118 78.5 201.5t53.5 140t33 90.5t18 53.5t7 28.5t1 16q0 35 -22 58t-54 34q-9 3 -22.5 3t-26 1.5t-22 7.5t-9.5 20q0 8 7 12.5t15 4.5h379q8 -2 9.5 -7.5t1.5 -10.5q0 -7 -2 -10.5
t-9.5 -6t-21 -4.5t-35.5 -6q-21 -4 -37.5 -19t-29.5 -35t-23 -43t-18 -42l-470 -1165l-65 -138q-8 -17 -20.5 -27.5t-27 -16t-29.5 -7.5t-28 -2q-35 0 -56 23t-21 58q0 28 15.5 42.5t36.5 23.5t43.5 16.5t37.5 21.5l11 11t14 14.5t13 14.5t8 12z" />
    <glyph glyph-name="z" unicode="z" horiz-adv-x="915" 
d="M62 20q0 8 0.5 12t5.5 13l503 690q10 14 17.5 24t7.5 25q1 3 -13 4.5t-35 2.5t-44 1.5t-39 0.5h-205q-34 0 -56 -15t-36 -37.5t-23 -49t-16 -49t-14 -37.5t-19 -15q-3 0 -6.5 0.5t-3.5 3.5l57 334q2 9 7.5 10.5t13.5 1.5q7 0 11.5 -6t9 -13.5t11.5 -15t19 -10.5
q15 0 38 -1.5t59 -3t88 -2.5t126 -1q60 0 138.5 2t175.5 4q6 -2 8 -9t2 -14q0 -2 -5 -16.5t-11 -19.5l-516 -707q-4 -6 -7.5 -11t-3.5 -12q0 -5 0.5 -6.5t5.5 -1.5h385q27 0 47 11.5t35.5 29.5t27.5 38t23 38t22 29.5t24 11.5q14 0 14 -12l-74 -196q-2 -4 -4 -12t-5.5 -15.5
t-8 -13t-10.5 -5.5h-705q-22 0 -22 20z" />
    <glyph glyph-name="braceleft" unicode="{" horiz-adv-x="1058" 
d="M206 702q0 20 8.5 31.5t20.5 11.5q72 0 113 38.5t41 125.5q0 57 -13 112t-27 112q-15 58 -27.5 115.5t-12.5 119.5q0 81 36 143t93.5 105t128 67t139.5 29q35 3 63 3.5t44 0.5q37 0 37 -30q0 -19 -6 -30t-21 -11q-14 0 -33.5 -0.5t-38.5 -2.5q-57 -8 -105.5 -28t-84 -53
t-56 -78t-20.5 -103q0 -60 4.5 -118.5t15.5 -125.5q7 -45 12 -87t5 -84q0 -63 -21 -108t-43 -66q-16 -19 -29.5 -32t-23 -22.5t-15 -17.5t-5.5 -17t5.5 -17t15.5 -18.5t24 -24.5t32 -36q10 -11 20.5 -27.5t19.5 -38.5t14.5 -48.5t5.5 -57.5q0 -30 -5 -72.5t-16 -115.5
q-8 -54 -12 -111.5t-4 -109.5q0 -80 27.5 -133.5t68 -87t87.5 -52t85 -27.5q29 -8 50 -9t32 -1q10 0 12.5 -10t2.5 -29q0 -32 -15 -32h-32t-44 2q-39 2 -87.5 10t-98.5 25t-97.5 44t-84.5 66.5t-59.5 93t-22.5 123.5q0 59 12.5 117t27.5 115q14 57 27 110t13 103q0 42 -8 79
t-26.5 65.5t-48 46t-71.5 20.5q-12 3 -20.5 13t-8.5 25z" />
    <glyph glyph-name="bar" unicode="|" horiz-adv-x="431" 
d="M150 1645h131v-1680h-131v1680z" />
    <glyph glyph-name="braceright" unicode="}" horiz-adv-x="1063" 
d="M852 702q0 -15 -8.5 -25t-20.5 -13q-42 -3 -71.5 -20.5t-48 -46t-26.5 -65.5t-8 -79q0 -50 13 -103t27 -110q15 -57 27.5 -115t12.5 -117q0 -70 -22.5 -123.5t-59.5 -93t-84.5 -66.5t-97.5 -44t-98.5 -25t-87.5 -10q-23 -2 -44 -2h-32q-15 0 -15 32q0 19 2.5 29t12.5 10
q11 0 32 1t50 9q38 9 85 27.5t87.5 52t68 87t27.5 133.5q0 52 -4 109.5t-12 111.5q-11 73 -16 115.5t-5 72.5q0 31 5.5 57.5t14.5 48.5t19.5 38.5t20.5 27.5q18 22 32 36t24 24.5t15.5 18.5t5.5 17t-5.5 17t-15 17.5t-23 22.5t-29.5 32q-22 21 -43 66t-21 108q0 42 5 84
t12 87q11 67 15.5 125.5t4.5 118.5q0 58 -20.5 103t-56 78t-84 53t-105.5 28q-19 2 -38.5 2.5t-33.5 0.5q-15 0 -21 11t-6 30q0 30 37 30q16 0 44 -0.5t63 -3.5q69 -5 139.5 -29t128 -67t93.5 -105t36 -143q0 -62 -12.5 -119.5t-27.5 -115.5q-14 -57 -27 -112t-13 -112
q0 -26 6 -50.5t23 -46.5t47 -39t78 -28q12 0 20.5 -11.5t8.5 -31.5z" />
    <glyph glyph-name="asciitilde" unicode="~" horiz-adv-x="1049" 
d="M958 781q0 -74 -18 -132.5t-49 -99t-71 -62t-85 -21.5q-52 0 -95.5 21t-90.5 53q-53 36 -87.5 58t-59 33.5t-43 15t-39.5 3.5q-18 0 -37.5 -8.5t-35.5 -29t-26.5 -55t-11.5 -87.5h-119q0 75 18 133.5t49 99t71 61.5t85 21q25 0 48.5 -2t54.5 -13t72 -34.5t100 -66.5
q15 -9 32 -21t35 -22.5t36.5 -17.5t37.5 -7q21 0 41 9.5t35.5 31t25 56t9.5 83.5h118z" />
    <glyph glyph-name="nonbreakingspace" unicode="&#xa0;" horiz-adv-x="550" 
 />
    <glyph glyph-name="exclamdown" unicode="&#xa1;" horiz-adv-x="489" 
d="M130 805.006q0 -23.999 9 -44.9971q9 -20.999 24.5 -36.498t36 -24.499q20.5 -8.99902 43.5 -8.99902q24 0 45.5 9.99902q21.5 10 37 26.499t24.5 37.9971q9 21.499 9 44.498q0 23.998 -8.5 44.4971q-8.5 20.498 -23.5 36.4971t-35.5 24.999q-20.5 8.99902 -44.5 8.99902
q-26 0 -47 -9.49902t-37 -25.499q-16 -15.998 -24.5 -37.9971t-8.5 -45.9971zM273 434.028q-2 16.999 -9 27.998t-21 10.999t-21.5 -10.999t-9.5 -27.998l-74 -961.941v-51.9971q0 -13.999 15 -13.999q12 0 39.5 -1t50.5 -1h37t38 2q7 0 16.5 2.5t12.5 11.499v51.9971z" />
    <glyph glyph-name="cent" unicode="&#xa2;" horiz-adv-x="934" 
d="M90 395q1 142 35 241t94 161.5t143 92.5t181 36l69 194h130l-69 -194q25 -2 49.5 -6.5t46.5 -14t40.5 -24.5t31.5 -37q5 -8 9.5 -18t4.5 -19q0 -38 -23.5 -54t-57.5 -16q-23 0 -41.5 8t-34.5 21t-31 28t-30 29l-242 -681q36 -28 84 -43t108 -15q45 0 86 15t76 40
q16 11 31.5 26t28 29t21 23.5t11.5 9.5q9 0 16 -6t7 -14q0 -4 -0.5 -10t-5.5 -11q-72 -100 -168 -156.5t-217 -56.5q-70 0 -130 23l-126 -355h-129l148 418q-69 60 -107.5 148t-38.5 188zM262 479q0 -61 10.5 -118t33.5 -106l214 606q-22 -4 -43 -12.5t-37 -19.5
q-48 -27 -81.5 -65.5t-55 -84t-31.5 -97t-10 -103.5z" />
    <glyph glyph-name="sterling" unicode="&#xa3;" horiz-adv-x="1049" 
d="M177 623q-11 0 -17.5 4t-6.5 12v24q0 8 6.5 12.5t17.5 4.5h181q-20 39 -38.5 78t-33 79.5t-23.5 83.5t-9 89q0 78 28 145.5t75 117t109.5 78t131.5 28.5t133.5 -18t114 -49.5t79.5 -74t30 -90.5q0 -12 -4 -24t-11 -22.5t-18 -17t-24 -6.5q-22 0 -37 9t-26.5 24t-21 33.5
t-20.5 38.5q-21 36 -41.5 63t-45 45t-56 27t-73.5 9q-37 0 -73 -14.5t-65 -40t-47 -60t-18 -73.5q0 -72 17 -132.5t42.5 -115t55 -105.5t53.5 -105h189q11 0 17.5 -4.5t6.5 -12.5v-24q0 -8 -6.5 -12t-17.5 -4h-166q14 -38 22 -78.5t8 -86.5q0 -26 -2 -55.5t-6.5 -60.5
t-11 -61t-15.5 -56q22 -22 49.5 -44t58.5 -39t63 -28t63 -11q47 0 81 24t55.5 54t32 57t10.5 33h40q-2 -36 -17 -87t-48.5 -98t-89.5 -80t-140 -33q-44 0 -82.5 20.5t-68 45.5t-47.5 46.5t-21 22.5q-14 -21 -36 -44.5t-49 -44t-58 -33.5t-64 -13h-7q-44 0 -76 13t-52.5 34.5
t-30.5 50t-10 58.5q0 41 17.5 75t46 58t65.5 37.5t77 13.5q36 0 64 -6.5t47.5 -15t30 -15t12.5 -6.5q5 22 5 41q0 87 -28 163t-65 149h-211zM165 125q0 -20 7.5 -39t22 -34t34.5 -24.5t45 -9.5q38 0 68.5 18.5t53 43t36.5 49t19 36.5q-10 13 -25 29t-34.5 30t-45 23.5
t-56.5 9.5q-25 0 -47.5 -10.5t-40 -28.5t-27.5 -42t-10 -51z" />
    <glyph glyph-name="currency" unicode="&#xa4;" horiz-adv-x="1049" 
d="M246 473q-31 44 -48 96.5t-17 110.5q0 63 20 117t56 98l-196 198l63 63l197 -198q45 34 97.5 53t112.5 19q117 0 208 -67l194 194l62 -62l-194 -195q38 -45 60.5 -100.5t22.5 -119.5q0 -62 -20.5 -115.5t-53.5 -98.5l187 -188l-62 -62l-188 188q-46 -35 -100.5 -54.5
t-115.5 -19.5q-64 0 -121.5 21.5t-103.5 57.5l-192 -191l-62 62zM279 682q0 -53 20 -99t54 -81t80 -55t98 -20t98.5 20t81.5 55t55 81t20 99q0 52 -20 98t-55 80.5t-81.5 54t-98.5 19.5t-98 -19.5t-80 -54t-54 -80.5t-20 -98z" />
    <glyph glyph-name="yen" unicode="&#xa5;" horiz-adv-x="1569" 
d="M312 535q-16 0 -25.5 7t-9.5 18v36q0 11 9.5 18t25.5 7h323l-349 557q-17 27 -36.5 54.5t-43 52t-51 43t-59.5 26.5q-5 1 -16 3.5t-23 4.5t-23 4t-16 3q-10 1 -12 7.5t-2 15.5q0 5 2 11.5t13 6.5h572q11 0 14 -5t3 -13q0 -22 -17 -22q-20 -2 -44 -4.5t-45 -10t-35.5 -22
t-14.5 -41.5q0 -24 12 -43l338 -540q11 -16 13.5 -20.5t10.5 -4.5q7 0 13 8t14 21l270 459q12 24 27.5 51.5t15.5 56.5q0 28 -12 44.5t-30 25.5t-40 13t-43 7q-11 1 -14 7t-3 15q0 7 2.5 12.5t14.5 5.5h467q8 0 11 -6.5t3 -11.5q0 -10 -4.5 -15t-12 -7.5t-16.5 -4t-18 -3.5
q-50 -12 -86.5 -37t-71.5 -63q-5 -5 -14.5 -16t-10.5 -13l-356 -612h346q16 0 25.5 -7t9.5 -18v-36q0 -11 -9.5 -18t-25.5 -7h-385v-155h385q16 0 25.5 -7t9.5 -18v-36q0 -11 -9.5 -18t-25.5 -7h-385v-114q0 -54 30.5 -85t107.5 -41q7 -1 18.5 -2.5t22.5 -4t19 -6.5t8 -10
v-11q0 -14 -10 -17t-24 -3h-539q-14 0 -24 3t-10 17v10q0 6 7 10.5t17.5 7t22.5 4t21 2.5q76 8 107 37.5t31 88.5v114h-386q-16 0 -25.5 7t-9.5 18v36q0 11 9.5 18t25.5 7h386v131q0 4 -0.5 7t-2.5 8l-6 9h-377v0z" />
    <glyph glyph-name="brokenbar" unicode="&#xa6;" horiz-adv-x="788" 
d="M459 1645v-750h-121v750h121zM459 717v-752h-121v752h121z" />
    <glyph glyph-name="section" unicode="&#xa7;" horiz-adv-x="1114" 
d="M384 1436q-15 -25 -27.5 -51.5t-12.5 -55.5q0 -26 8 -56t21 -60t29 -57.5t32 -48.5q34 -60 88.5 -132t115.5 -154.5t122.5 -175.5t111.5 -195.5t81 -213.5t31 -229q0 -55 -14.5 -117.5t-44 -124.5t-75.5 -119.5t-109.5 -103t-144 -75.5t-180.5 -37q-25 0 -57 5.5
t-64.5 15.5t-64 24.5t-56 32.5t-39.5 39t-15 45q0 10 2.5 22.5t13 24t31.5 20t57 8.5q25 0 51.5 -25.5t59.5 -56.5t73.5 -56.5t92.5 -25.5q33 0 73 13t75 37.5t58.5 60t23.5 80.5q0 25 -10 56t-24 61.5t-29.5 57t-26.5 43.5q-76 112 -146 209t-131.5 184.5t-112 170
t-86 166.5t-55.5 173.5t-20 190.5q0 52 15.5 115.5t46.5 128.5t77.5 127t108.5 109.5t138.5 76.5t168.5 29q24 0 56 -5t66 -15t67.5 -24t60 -32t43 -39.5t16.5 -46.5q0 -9 -2.5 -22t-13 -24.5t-31.5 -20t-57 -8.5q-24 0 -51 25.5t-59.5 56.5t-73 56.5t-92.5 25.5
q-30 0 -52.5 -4.5t-43.5 -14t-43 -25.5t-51 -39zM263 1299q-41 -73 -61.5 -151t-20.5 -157q0 -51 8.5 -101t27.5 -98q13 -57 45 -123t74.5 -137t92 -145t99.5 -146t96.5 -140t82.5 -128q14 -21 29 -50.5t28.5 -63t25.5 -69t20 -67.5h1q42 61 59.5 129t17.5 155
q0 33 -2.5 61.5t-6.5 55t-9.5 52.5t-12.5 54q-14 59 -47.5 127t-78 140.5t-96 146.5t-101.5 145.5t-94 137.5t-73 122q-15 21 -31.5 52.5t-30.5 66t-25 69t-17 62.5z" />
    <glyph glyph-name="dieresis" unicode="&#xa8;" horiz-adv-x="700" 
d="M549 1112q-24 0 -45.5 9t-37.5 24.5t-25 36.5t-9 45q0 25 9 46.5t25 37.5t37.5 25.5t45.5 9.5q25 0 46.5 -9.5t37.5 -25.5t24.5 -37.5t8.5 -46.5q0 -24 -8.5 -45t-24.5 -36.5t-37.5 -24.5t-46.5 -9zM150 1112q-25 0 -46.5 9t-37 24.5t-24.5 36.5t-9 45q0 25 9 46.5
t24.5 37.5t37 25.5t46.5 9.5t46.5 -9.5t37 -25.5t24.5 -37.5t9 -46.5q0 -24 -9 -45t-24.5 -36.5t-37 -24.5t-46.5 -9z" />
    <glyph glyph-name="copyright" unicode="&#xa9;" horiz-adv-x="1717" 
d="M90 723q0 105 27 202t77 182t119 154t154 119t182 77t202 27t202 -27t182 -77t154 -119t119 -154t77 -182t27 -202t-27 -202t-77 -182t-119 -154t-154 -119t-182 -77t-202 -27t-202 27t-182 77t-154 119t-119 154t-77 182t-27 202zM186 724q0 -92 24 -177t67 -158.5
t103.5 -134.5t134.5 -104t158.5 -67t176.5 -24t177 24t158.5 67t134.5 104t104 134.5t67 158.5t24 177q0 91 -24 176t-67 159t-104 134.5t-134.5 103.5t-158.5 67t-177 24t-176.5 -24t-158.5 -67t-134.5 -103.5t-103.5 -134.5t-67 -159t-24 -176zM358 732q0 110 40.5 201
t110 156.5t163 101.5t200.5 36q60 0 115.5 -10.5t115.5 -25.5q20 -5 41 -14t29 -9q1 0 9 2.5t11 2.5h20q8 0 8 -11v-203q0 -5 -3 -6t-13 -1q-2 0 -5 0.5t-5 3.5q-3 5 -8 15t-7 15q-50 98 -125 147t-173 49q-93 0 -164.5 -31t-119.5 -86.5t-73 -131t-25 -163.5
q0 -93 27.5 -177.5t80 -148t130 -101.5t176.5 -38q56 0 103.5 16.5t88 45.5t74 68.5t60.5 84.5q1 4 8 4h8q7 0 7 -9q0 -2 -1.5 -7t-2.5 -7l-91 -199q-2 -5 -8 -5q-15 5 -21.5 5.5t-13.5 0.5q-19 0 -50 -7t-66.5 -15t-72.5 -15t-67 -7q-104 0 -196.5 33.5t-162.5 95t-111 149
t-41 195.5z" />
    <glyph glyph-name="ordfeminine" unicode="&#xaa;" horiz-adv-x="591" 
d="M355.259 970.838q-41.166 -30.8496 -67.2373 -49.7021q-26.0723 -18.8525 -43.9102 -29.1357q-17.8389 -10.2832 -30.874 -13.7109q-13.0361 -3.42773 -28.1299 -3.42773q-26.0723 0 -51.8008 9.94043t-46.3115 28.1074t-33.2754 43.875
q-12.6934 25.708 -12.6934 57.9287q0 26.7363 8.57617 47.9883t31.9043 39.7617q23.3271 18.5098 63.4639 34.9629t103.943 32.9062q34.3047 8.91211 55.2305 19.1953t38.7646 19.8809q11.6631 6.16992 13.3789 10.9688q1.71484 4.79883 1.71484 8.91211v131.625
q0 22.623 -6.86035 44.2178q-6.86133 21.5947 -20.2402 38.0479t-33.2754 26.7363q-19.8975 10.2832 -45.9688 10.2832q-12.3496 0 -27.1006 -4.79883t-28.1299 -15.082t-22.2988 -26.0508q-8.91895 -15.7676 -8.91895 -38.3906q0 -2.05664 0.342773 -6.16992
q0.34375 -4.11328 1.0293 -8.56934q0.686523 -4.45605 1.37207 -7.88379q0.686523 -3.42773 0.686523 -4.11328q-1.37207 -2.74219 -14.751 -9.94043t-30.5312 -15.082t-33.2754 -14.7393q-16.124 -6.85547 -22.9844 -8.22656q-7.54688 0 -9.2627 7.88379
q-1.71484 7.88379 -1.71484 15.4248q0 29.4785 15.7803 61.6992t44.9395 59.2998q29.1582 27.0791 69.9814 44.5605q40.8223 17.4814 91.5938 17.4814q39.1074 0 73.0693 -12.6826t59.0039 -34.6201q25.043 -21.9375 39.7939 -51.416t14.751 -62.3848v-361.283
q0 -17.8242 16.8096 -28.4502t38.0781 -10.626q12.3496 0 21.2686 3.42773q8.91992 3.42773 15.4375 7.88379t10.9775 7.88379t8.57617 3.42773q5.48926 0 6.1748 -4.45605q0.686523 -4.45605 0.686523 -7.88379q0 -11.6543 -3.08789 -16.7959
q-3.08691 -5.1416 -10.6348 -10.626q-33.6182 -24.6797 -56.2598 -39.4189q-22.6406 -14.7393 -38.4209 -22.623t-26.0713 -10.626q-10.292 -2.74219 -18.5254 -2.74219q-14.4082 0 -24.6992 7.54102t-18.1816 18.5098q-7.88965 10.9688 -13.3789 23.6514
q-5.48828 12.6826 -9.26172 23.6514t-5.83203 17.8242t-3.43066 6.16992zM148.744 1028.42q0 -18.5098 7.2041 -34.2773t18.8672 -27.0791q11.6641 -11.3115 26.415 -17.4814t30.5312 -6.16992q14.4082 0 35.6768 7.19824t41.5088 19.1953t34.6475 27.4219
q14.4082 15.4248 14.4082 31.1924v139.166q0 7.54102 -5.48828 7.54102q-1.37207 0 -2.74512 -0.685547l-159.174 -74.0391q-9.60547 -6.85547 -17.4951 -12.6826q-7.89062 -5.82715 -13.3789 -13.7109q-5.48926 -7.88379 -8.2334 -18.5098t-2.74414 -27.0791z" />
    <glyph glyph-name="guillemotleft" unicode="&#xab;" horiz-adv-x="791" 
d="M397 927l-188 -375l190 -373h-49l-282 373l282 375h47zM679 927l-188 -375l190 -373h-49l-282 373l282 375h47z" />
    <glyph glyph-name="logicalnot" unicode="&#xac;" horiz-adv-x="1049" 
d="M952 689v-508h-127v381h-737v127h864z" />
    <glyph glyph-name="uni00AD" unicode="&#xad;" horiz-adv-x="913" 
d="M828 578v-137h-743v137h743z" />
    <glyph glyph-name="registered" unicode="&#xae;" horiz-adv-x="1702" 
d="M90 723q0 105 27 202t77 182t119 154t154 119t182 77t202 27t202 -27t182 -77t154 -119t119 -154t77 -182t27 -202t-27 -202t-77 -182t-119 -154t-154 -119t-182 -77t-202 -27t-202 27t-182 77t-154 119t-119 154t-77 182t-27 202zM186 724q0 -92 24 -177t67 -158.5
t103.5 -134.5t134.5 -104t158.5 -67t176.5 -24t177 24t158.5 67t134.5 104t104 134.5t67 158.5t24 177q0 91 -24 176t-67 159t-104 134.5t-134.5 103.5t-158.5 67t-177 24t-176.5 -24t-158.5 -67t-134.5 -103.5t-103.5 -134.5t-67 -159t-24 -176zM450 339q0 1 1 3t4 2
q4 0 11.5 1t16 2.5t16 3t10.5 1.5q34 8 47.5 26t13.5 44v634q0 30 -12.5 47t-29 26t-32 11t-20.5 2h-23q-3 0 -4 2t-1 3v14q0 1 0.5 2.5t4.5 2.5h2.5t9 0.5t19 0.5t35.5 1q66 1 132.5 4t133.5 3h60q52 -4 97.5 -23.5t79.5 -52.5t53.5 -77.5t19.5 -96.5q0 -37 -11 -66.5
t-30 -52t-45 -40t-56 -31.5l181 -297q23 -38 55.5 -66t72.5 -44q4 -1 5 -3t1 -5q0 -9 -4.5 -12t-15.5 -3q-51 0 -94.5 14t-83.5 49q-19 17 -36.5 39.5t-34.5 51.5l-156 243l-142 7h-5t-6 -1q-2 -2 -2.5 -3t-0.5 -5v-276q0 -16 4 -28t14 -21t26 -14.5t39 -8.5q3 0 10 -1.5
t15 -3t16 -2.5t13 -1q4 0 4.5 -2t0.5 -3v-14q0 -1 -1 -3t-4 -2h-369q-3 0 -4 2.5t-1 9.5v7zM688 751q1 -5 3 -9t8 -4q3 0 9 -1t14.5 -1.5t18.5 -1t20 -0.5q59 0 100 14.5t66.5 41t36.5 64.5t11 85q0 49 -16 87.5t-44 64.5t-66.5 39.5t-83.5 13.5h-15t-14.5 -0.5t-15.5 -0.5
t-18 -1q-4 0 -9.5 -1.5t-5.5 -8.5v-363z" />
    <glyph glyph-name="macron" unicode="&#xaf;" horiz-adv-x="699" 
d="M26 1322h647v-129h-647v129z" />
    <glyph glyph-name="degree" unicode="&#xb0;" horiz-adv-x="1049" 
d="M368 1148q0 -32 12.5 -60.5t33.5 -49.5t49.5 -33.5t60.5 -12.5t60.5 12.5t49.5 33.5t33.5 49.5t12.5 60.5t-12.5 60.5t-33.5 49.5t-49.5 33t-60.5 12t-60.5 -12t-49.5 -33t-33.5 -49.5t-12.5 -60.5zM295 1150q0 48 18 89.5t49 72.5t72.5 49t89.5 18t89.5 -18t72.5 -49
t49 -72.5t18 -89.5t-18 -89.5t-49 -73t-72.5 -49.5t-89.5 -18t-89.5 18t-72.5 49.5t-49 73t-18 89.5z" />
    <glyph glyph-name="plusminus" unicode="&#xb1;" horiz-adv-x="1049" 
d="M88 689h371v367h135v-367h366v-127h-366v-378h-135v378h-371v127zM88 127h872v-127h-872v127z" />
    <glyph glyph-name="twosuperior" unicode="&#xb2;" horiz-adv-x="685" 
d="M48 568q0 11 5.5 19.5t13.5 16.5q39 42 85.5 85.5t93 87.5t90 88t77.5 87t54 85t20 82q0 35 -13 65.5t-36 53t-54 35.5t-67 13q-14 0 -30.5 -2t-34 -7t-34.5 -14t-31 -23q-29 -30 -42.5 -54.5t-22.5 -41.5t-18 -26.5t-28 -9.5q-6 0 -6 4q0 49 19.5 97t56 85.5t89.5 61
t120 23.5q57 0 103.5 -18t79.5 -50.5t51 -76t18 -94.5q0 -41 -20 -83t-53 -83t-75 -82t-85.5 -81.5t-85.5 -80t-74 -77.5h305q25 0 39 6t22.5 18.5t13.5 31.5t13 45h34l-31 -182q-2 -6 -4.5 -11t-10.5 -9h-544q-2 0 -2.5 2.5t-0.5 13.5z" />
    <glyph glyph-name="threesuperior" unicode="&#xb3;" horiz-adv-x="661" 
d="M46 641q0 11 1 21.5t5.5 19t15 14t30.5 5.5q21 0 41.5 -16.5t44.5 -37t53.5 -37.5t68.5 -17q45 3 76.5 22.5t51.5 49.5t29.5 67.5t9.5 76.5q0 48 -10.5 78.5t-28.5 48.5t-42.5 24.5t-51.5 6.5q-10 0 -24.5 -2.5t-33.5 -13.5q-4 -2 -9 -2q-11 0 -22 4t-11 15q0 2 4 6
t9.5 8.5l11 9t8.5 6.5q26 21 51 43.5t44.5 47t31.5 52.5t12 61q0 45 -35 68t-83 23q-41 0 -72 -14.5t-53 -34t-36.5 -41t-21.5 -34.5q-2 0 -8.5 0.5t-14 2t-13 3t-5.5 3.5t1 5q1 2 1.5 5t2.5 6q2 7 5 16q15 36 38.5 67t54 53.5t68 35.5t80.5 13q90 0 141 -38t51 -102
q0 -27 -9 -52.5t-24 -49.5t-34.5 -45.5t-40.5 -39.5q51 -2 87.5 -25.5t59 -57t33 -70t10.5 -64.5q0 -64 -31 -118.5t-78.5 -94.5t-104 -63t-106.5 -23q-27 0 -66 5t-75.5 17t-62 32t-25.5 51z" />
    <glyph glyph-name="acute" unicode="&#xb4;" horiz-adv-x="700" 
d="M172 1096q-4 4 -4 6t4 6l213 295q19 26 38 37.5t37 11.5q31 0 51.5 -22.5t20.5 -51.5q0 -31 -17.5 -54t-37.5 -40l-269 -217q-5 -3 -7 -3q-4 0 -4.5 0.5l-2.5 2.5z" />
    <glyph glyph-name="uni00B5" unicode="&#xb5;" horiz-adv-x="1100" 
d="M901 197q5 -44 25 -63t65 -19l58 4q4 0 5 -5.5t1 -11.5q0 -2 -2.5 -5t-12.5 -8l-266 -110q-2 -1 -10 -3.5t-9 -2.5q-7 0 -8.5 8.5t-1.5 16.5v96q-3 4 -10 4h-4t-2 -2q-82 -37 -133.5 -60.5t-85 -37.5t-57 -19.5t-48.5 -5.5q-45 0 -94 11v-548q0 -9 -1 -13t-8 -7l-135 -56
q-9 0 -10.5 3.5t-1.5 17.5v1498q0 14 1.5 17.5t10.5 3.5h132q9 0 10.5 -3.5t1.5 -17.5v-660q0 -34 21 -61.5t53.5 -46.5t70.5 -29t72 -10q4 0 22.5 2.5t42 8.5t49 15t44.5 21q12 8 28 17t31 28v715q0 14 1.5 17.5t10.5 3.5h132q9 0 10.5 -3.5t1.5 -17.5v-682z" />
    <glyph glyph-name="paragraph" unicode="&#xb6;" horiz-adv-x="1110" 
d="M661 -275q0 -19 -2.5 -26t-13.5 -7h-56q-11 0 -13 8.5t-2 28.5v1106q-42 2 -93.5 6t-104 16t-102.5 34.5t-88.5 61t-62 96t-23.5 140.5q0 98 23 166t66.5 113t107 70t145.5 37t181 14.5t214 2.5h213q25 0 25 -16v-39q0 -9 -5 -12.5t-22 -3.5h-133v-1811q0 -9 -3 -13.5
t-14 -4.5h-55q-11 0 -13.5 6.5t-2.5 28.5v1789h-166v-1791z" />
    <glyph glyph-name="periodcentered" unicode="&#xb7;" horiz-adv-x="520" 
d="M130 678q0 26 10.5 49.5t28 41.5t41 28.5t50.5 10.5t50.5 -10.5t41.5 -28.5t28 -41.5t10 -49.5q0 -28 -10 -52t-28 -41t-41.5 -27t-50.5 -10t-50.5 10t-41 27t-28 41t-10.5 52z" />
    <glyph glyph-name="cedilla" unicode="&#xb8;" horiz-adv-x="700" 
d="M481 0l-132 -154q41 -11 68 -31.5t43 -43t22.5 -43.5t6.5 -33q-5 -59 -36 -99.5t-77.5 -66.5t-104 -40.5t-115.5 -20.5q-23 0 -39.5 9.5t-16.5 33.5q0 6 4 14t12 11q13 4 36.5 8t50 9t54 13.5t49.5 22.5t36 35t14 52q0 25 -17 44.5t-40.5 33.5t-49 21.5t-43.5 9.5
l174 215h101z" />
    <glyph glyph-name="onesuperior" unicode="&#xb9;" horiz-adv-x="661" 
d="M146 577q0 2 1 12.5t5 10.5q31 2 51 3t33.5 2t21.5 3t15 6q9 5 11 16t2 28v585q0 1 -12 -7.5t-33 -22.5t-48.5 -30t-57.5 -30q-1 0 -1.5 -0.5t-2.5 -0.5q-3 0 -10.5 10.5t-12.5 19.5q-1 1 -1 4q0 1 3 4q21 13 48.5 34t57.5 46t59.5 53t54.5 56h75q8 0 10 -2t2 -9v-695
v-12.5t1 -17t3 -16t5 -10.5q11 -9 21 -11t31 -2q17 0 32 -0.5t22 -2.5q2 -1 2.5 -10t0.5 -14q0 -3 -0.5 -14t-4.5 -11h-380q-2 0 -3 11t-1 14z" />
    <glyph glyph-name="ordmasculine" unicode="&#xba;" horiz-adv-x="761" 
d="M29 1212q0 63 26 121.5t69.5 102.5t101.5 70.5t123 26.5q68 0 129 -25t107 -68.5t73 -102.5t27 -128q0 -71 -24.5 -131.5t-68.5 -105t-104.5 -70t-132.5 -25.5q-71 0 -130.5 26t-103 71.5t-68 106.5t-24.5 131zM143 1255q0 -57 14 -117t43 -109.5t74.5 -81.5t108.5 -32
q49 0 84 21.5t57.5 55.5t33 77t10.5 85q0 51 -16 110t-46.5 109t-76 83.5t-104.5 33.5q-46 0 -80.5 -21.5t-57 -55.5t-33.5 -76t-11 -82z" />
    <glyph glyph-name="guillemotright" unicode="&#xbb;" horiz-adv-x="791" 
d="M441 927l282 -375l-282 -373h-49l190 373l-188 375h47zM159 927l282 -375l-282 -373h-49l190 373l-188 375h47z" />
    <glyph glyph-name="onequarter" unicode="&#xbc;" horiz-adv-x="1550" 
d="M1317 1480h130l-1101 -1535h-129zM117 577q0 2 1 12.5t5 10.5q31 2 51 3t33.5 2t21.5 3t15 6q9 5 11 16t2 28v585q0 1 -12 -7.5t-33 -22.5t-48.5 -30t-57.5 -30q-1 0 -1.5 -0.5t-2.5 -0.5q-3 0 -10.5 10.5t-12.5 19.5q-1 1 -1 4q0 1 3 4q21 13 48.5 34t57.5 46t59.5 53
t54.5 56h75q8 0 10 -2t2 -9v-695v-12.5t1 -17t3 -16t5 -10.5q11 -9 21 -11t31 -2q17 0 32 -0.5t22 -2.5q2 -1 2.5 -10t0.5 -14q0 -3 -0.5 -14t-4.5 -11h-380q-2 0 -3 11t-1 14zM855 272q0 11 2 14l393 551q8 10 24.5 11.5t24.5 1.5h13t16 -1.5t13.5 -4.5t5.5 -9v-498h98
q7 0 13 -1.5t6 -9.5v-51q0 -14 -12 -14h-105v-247q0 -3 -2.5 -8t-7.5 -5h-98q-9 0 -11 5.5t-2 8.5v246h-356q-5 0 -10 1.5t-5 9.5zM1226 684l-237 -347h237v347z" />
    <glyph glyph-name="onehalf" unicode="&#xbd;" horiz-adv-x="1550" 
d="M1239 1480h130l-1101 -1535h-129zM888 17q0 11 5.5 19.5t13.5 16.5q39 42 85.5 85.5t93 87.5t90 88t77.5 87t54 85t20 82q0 35 -13 65.5t-36 53t-54 35.5t-67 13q-14 0 -30.5 -2t-34 -7t-34.5 -14t-31 -23q-29 -30 -42.5 -54.5t-22.5 -41.5t-18 -26.5t-28 -9.5q-6 0 -6 4
q0 49 19.5 97t56 85.5t89.5 61t120 23.5q57 0 103.5 -18t79.5 -50.5t51 -76t18 -94.5q0 -41 -20 -83t-53 -83t-75 -82t-85.5 -81.5t-85.5 -80t-74 -77.5h305q25 0 39 6t22.5 18.5t13.5 31.5t13 45h34l-31 -182q-2 -6 -4.5 -11t-10.5 -9h-544q-2 0 -2.5 2.5t-0.5 13.5z
M97 577q0 2 1 12.5t5 10.5q31 2 51 3t33.5 2t21.5 3t15 6q9 5 11 16t2 28v585q0 1 -12 -7.5t-33 -22.5t-48.5 -30t-57.5 -30q-1 0 -1.5 -0.5t-2.5 -0.5q-3 0 -10.5 10.5t-12.5 19.5q-1 1 -1 4q0 1 3 4q21 13 48.5 34t57.5 46t59.5 53t54.5 56h75q8 0 10 -2t2 -9v-695v-12.5
t1 -17t3 -16t5 -10.5q11 -9 21 -11t31 -2q17 0 32 -0.5t22 -2.5q2 -1 2.5 -10t0.5 -14q0 -3 -0.5 -14t-4.5 -11h-380q-2 0 -3 11t-1 14z" />
    <glyph glyph-name="threequarters" unicode="&#xbe;" horiz-adv-x="1550" 
d="M1329 1480h130l-1101 -1535h-129zM49 641q0 11 1 21.5t5.5 19t15 14t30.5 5.5q21 0 41.5 -16.5t44.5 -37t53.5 -37.5t68.5 -17q45 3 76.5 22.5t51.5 49.5t29.5 67.5t9.5 76.5q0 48 -10.5 78.5t-28.5 48.5t-42.5 24.5t-51.5 6.5q-10 0 -24.5 -2.5t-33.5 -13.5q-4 -2 -9 -2
q-11 0 -22 4t-11 15q0 2 4 6t9.5 8.5l11 9t8.5 6.5q26 21 51 43.5t44.5 47t31.5 52.5t12 61q0 45 -35 68t-83 23q-41 0 -72 -14.5t-53 -34t-36.5 -41t-21.5 -34.5q-2 0 -8.5 0.5t-14 2t-13 3t-5.5 3.5t1 5q1 2 1.5 5t2.5 6q2 7 5 16q15 36 38.5 67t54 53.5t68 35.5t80.5 13
q90 0 141 -38t51 -102q0 -27 -9 -52.5t-24 -49.5t-34.5 -45.5t-40.5 -39.5q51 -2 87.5 -25.5t59 -57t33 -70t10.5 -64.5q0 -64 -31 -118.5t-78.5 -94.5t-104 -63t-106.5 -23q-27 0 -66 5t-75.5 17t-62 32t-25.5 51zM852 272q0 11 2 14l393 551q8 10 24.5 11.5t24.5 1.5h13
t16 -1.5t13.5 -4.5t5.5 -9v-498h98q7 0 13 -1.5t6 -9.5v-51q0 -14 -12 -14h-105v-247q0 -3 -2.5 -8t-7.5 -5h-98q-9 0 -11 5.5t-2 8.5v246h-356q-5 0 -10 1.5t-5 9.5zM1223 684l-237 -347h237v347z" />
    <glyph glyph-name="questiondown" unicode="&#xbf;" horiz-adv-x="778" 
d="M617 305q0 -64 -25 -101t-64.5 -60t-88.5 -38.5t-96 -34.5q-31 -13 -61.5 -36t-55 -53.5t-39.5 -66t-15 -73.5q0 -62 24 -100t74 -59t127 -28t183 -7q18 -2 37 -6t34.5 -12.5t26 -22.5t10.5 -35q0 -30 -18.5 -47t-45.5 -26t-56 -11t-50 -2q-84 0 -156 29t-124.5 80.5
t-82.5 123t-30 156.5q0 32 6 67.5t19 67.5q29 75 86 129.5t130 91.5q25 12 56 22.5t59 25t47 36.5t19 58q0 21 -8 42t-21 46q-2 4 -6.5 12t-10 18t-9.5 20.5t-4 18.5q0 5 6.5 9t11.5 4q8 0 19.5 -13t23 -33.5t23.5 -45t21.5 -48t15 -43t6.5 -28.5zM625 811q0 -23 -9 -44
t-24.5 -37t-36.5 -25t-45 -9t-44.5 9t-36 25t-24.5 37t-9 44q0 24 9 45t24.5 37t36 25.5t44.5 9.5t45 -9.5t36.5 -25.5t24.5 -37t9 -45z" />
    <glyph glyph-name="Agrave" unicode="&#xc0;" horiz-adv-x="1457" 
d="M5 32q0 8 8 8q19 1 44.5 5.5t52 19t51.5 43t42 78.5l408 1181q0 -1 0.5 1t0.5 4q0 7 -5.5 17.5t-5.5 15.5t4 5h200q2 -1 5.5 -2t5.5 -6l423 -1187q14 -27 22.5 -49t19.5 -40.5t29 -34t50 -28.5q14 -7 38 -15t46 -8q5 0 6.5 -3t1.5 -6v-23q0 -2 -1.5 -5t-6.5 -3h-612
q-5 0 -6.5 3t-1.5 5v24q0 2 1.5 5t6.5 3q4 0 8 0.5t6 0.5q11 1 31.5 2t44.5 3.5t48.5 8t44.5 16t33 27.5t13 42q0 6 -2 14l-151 426q-1 2 -3.5 9t-8 14.5t-14 13.5t-20.5 6h-355q-13 0 -22 -6t-15 -13t-9.5 -14t-3.5 -8l-150 -439v-9t2 -9q8 -25 29.5 -41.5t49.5 -26
t57.5 -13.5t52.5 -4h26q5 0 6.5 -3t1.5 -5v-24q0 -2 -1.5 -5t-6.5 -3h-511q-8 0 -8 8v24zM522 767q-2 -5 -3 -10t-1 -10q0 -6 3 -9.5t12 -3.5h295q11 0 14.5 4.5t3.5 10.5q0 5 -1 9t-3 9l-149 410q-10 27 -15 27t-8 -7.5t-8 -20.5zM822 1565q-4 -4 -8 -4q-2 0 -6 4l-269 217
q-20 17 -37.5 40t-17.5 54q0 29 20.5 51.5t51.5 22.5q18 0 37 -11.5t38 -37.5l213 -295q4 -4 4 -6t-4 -6z" />
    <glyph glyph-name="Aacute" unicode="&#xc1;" horiz-adv-x="1457" 
d="M5 32q0 8 8 8q19 1 44.5 5.5t52 19t51.5 43t42 78.5l408 1181q0 -1 0.5 1t0.5 4q0 7 -5.5 17.5t-5.5 15.5t4 5h200q2 -1 5.5 -2t5.5 -6l423 -1187q14 -27 22.5 -49t19.5 -40.5t29 -34t50 -28.5q14 -7 38 -15t46 -8q5 0 6.5 -3t1.5 -6v-23q0 -2 -1.5 -5t-6.5 -3h-612
q-5 0 -6.5 3t-1.5 5v24q0 2 1.5 5t6.5 3q4 0 8 0.5t6 0.5q11 1 31.5 2t44.5 3.5t48.5 8t44.5 16t33 27.5t13 42q0 6 -2 14l-151 426q-1 2 -3.5 9t-8 14.5t-14 13.5t-20.5 6h-355q-13 0 -22 -6t-15 -13t-9.5 -14t-3.5 -8l-150 -439v-9t2 -9q8 -25 29.5 -41.5t49.5 -26
t57.5 -13.5t52.5 -4h26q5 0 6.5 -3t1.5 -5v-24q0 -2 -1.5 -5t-6.5 -3h-511q-8 0 -8 8v24zM522 767q-2 -5 -3 -10t-1 -10q0 -6 3 -9.5t12 -3.5h295q11 0 14.5 4.5t3.5 10.5q0 5 -1 9t-3 9l-149 410q-10 27 -15 27t-8 -7.5t-8 -20.5zM682 1595q-4 4 -4 6t4 6l213 295
q19 26 38 37.5t37 11.5q31 0 51.5 -22.5t20.5 -51.5q0 -31 -17.5 -54t-37.5 -40l-269 -217q-5 -3 -7 -3q-4 0 -4.5 0.5l-2.5 2.5z" />
    <glyph glyph-name="Acircumflex" unicode="&#xc2;" horiz-adv-x="1457" 
d="M5 32q0 8 8 8q19 1 44.5 5.5t52 19t51.5 43t42 78.5l408 1181q0 -1 0.5 1t0.5 4q0 7 -5.5 17.5t-5.5 15.5t4 5h200q2 -1 5.5 -2t5.5 -6l423 -1187q14 -27 22.5 -49t19.5 -40.5t29 -34t50 -28.5q14 -7 38 -15t46 -8q5 0 6.5 -3t1.5 -6v-23q0 -2 -1.5 -5t-6.5 -3h-612
q-5 0 -6.5 3t-1.5 5v24q0 2 1.5 5t6.5 3q4 0 8 0.5t6 0.5q11 1 31.5 2t44.5 3.5t48.5 8t44.5 16t33 27.5t13 42q0 6 -2 14l-151 426q-1 2 -3.5 9t-8 14.5t-14 13.5t-20.5 6h-355q-13 0 -22 -6t-15 -13t-9.5 -14t-3.5 -8l-150 -439v-9t2 -9q8 -25 29.5 -41.5t49.5 -26
t57.5 -13.5t52.5 -4h26q5 0 6.5 -3t1.5 -5v-24q0 -2 -1.5 -5t-6.5 -3h-511q-8 0 -8 8v24zM522 767q-2 -5 -3 -10t-1 -10q0 -6 3 -9.5t12 -3.5h295q11 0 14.5 4.5t3.5 10.5q0 5 -1 9t-3 9l-149 410q-10 27 -15 27t-8 -7.5t-8 -20.5zM732 1788q-3 3 -11 12t-10 9t-9.5 -9
t-10.5 -12l-214 -224q-2 -2 -5 -3t-5 -1q-3 0 -7 4t-8 9.5t-7 10.5t-3 8q0 5 7 15l238 323q6 6 12.5 13t11.5 7t12.5 -7t13.5 -15l248 -321q7 -11 7 -15q0 -3 -3 -8t-7 -10.5t-8 -9.5t-7 -4q-4 0 -8 4z" />
    <glyph glyph-name="Atilde" unicode="&#xc3;" horiz-adv-x="1457" 
d="M5 32q0 8 8 8q19 1 44.5 5.5t52 19t51.5 43t42 78.5l408 1181q0 -1 0.5 1t0.5 4q0 7 -5.5 17.5t-5.5 15.5t4 5h200q2 -1 5.5 -2t5.5 -6l423 -1187q14 -27 22.5 -49t19.5 -40.5t29 -34t50 -28.5q14 -7 38 -15t46 -8q5 0 6.5 -3t1.5 -6v-23q0 -2 -1.5 -5t-6.5 -3h-612
q-5 0 -6.5 3t-1.5 5v24q0 2 1.5 5t6.5 3q4 0 8 0.5t6 0.5q11 1 31.5 2t44.5 3.5t48.5 8t44.5 16t33 27.5t13 42q0 6 -2 14l-151 426q-1 2 -3.5 9t-8 14.5t-14 13.5t-20.5 6h-355q-13 0 -22 -6t-15 -13t-9.5 -14t-3.5 -8l-150 -439v-9t2 -9q8 -25 29.5 -41.5t49.5 -26
t57.5 -13.5t52.5 -4h26q5 0 6.5 -3t1.5 -5v-24q0 -2 -1.5 -5t-6.5 -3h-511q-8 0 -8 8v24zM522 767q-2 -5 -3 -10t-1 -10q0 -6 3 -9.5t12 -3.5h295q11 0 14.5 4.5t3.5 10.5q0 5 -1 9t-3 9l-149 410q-10 27 -15 27t-8 -7.5t-8 -20.5zM1033 1928q5 0 7.5 -5t4 -11.5t2 -13.5
t0.5 -11q0 -33 -11 -67t-32 -62t-51 -45.5t-68 -17.5q-41 0 -79 16t-74.5 35.5t-73.5 36t-76 16.5q-14 0 -29.5 -9t-28.5 -24.5t-21.5 -36.5t-8.5 -45q0 -8 -5 -10t-11 -2h-21q-8 0 -8 16q0 46 11 88t31 73t49 49.5t65 18.5q42 0 82 -16.5t79.5 -36t79 -36t78.5 -16.5
q18 0 32 10t23.5 25.5t14 33.5t4.5 33q0 6 5 10t11 4h19z" />
    <glyph glyph-name="Adieresis" unicode="&#xc4;" horiz-adv-x="1457" 
d="M5 32q0 8 8 8q19 1 44.5 5.5t52 19t51.5 43t42 78.5l408 1181q0 -1 0.5 1t0.5 4q0 7 -5.5 17.5t-5.5 15.5t4 5h200q2 -1 5.5 -2t5.5 -6l423 -1187q14 -27 22.5 -49t19.5 -40.5t29 -34t50 -28.5q14 -7 38 -15t46 -8q5 0 6.5 -3t1.5 -6v-23q0 -2 -1.5 -5t-6.5 -3h-612
q-5 0 -6.5 3t-1.5 5v24q0 2 1.5 5t6.5 3q4 0 8 0.5t6 0.5q11 1 31.5 2t44.5 3.5t48.5 8t44.5 16t33 27.5t13 42q0 6 -2 14l-151 426q-1 2 -3.5 9t-8 14.5t-14 13.5t-20.5 6h-355q-13 0 -22 -6t-15 -13t-9.5 -14t-3.5 -8l-150 -439v-9t2 -9q8 -25 29.5 -41.5t49.5 -26
t57.5 -13.5t52.5 -4h26q5 0 6.5 -3t1.5 -5v-24q0 -2 -1.5 -5t-6.5 -3h-511q-8 0 -8 8v24zM522 767q-2 -5 -3 -10t-1 -10q0 -6 3 -9.5t12 -3.5h295q11 0 14.5 4.5t3.5 10.5q0 5 -1 9t-3 9l-149 410q-10 27 -15 27t-8 -7.5t-8 -20.5zM929 1683q-24 0 -45.5 9t-37.5 24.5
t-25 36.5t-9 45q0 25 9 46.5t25 37.5t37.5 25.5t45.5 9.5q25 0 46.5 -9.5t37.5 -25.5t24.5 -37.5t8.5 -46.5q0 -24 -8.5 -45t-24.5 -36.5t-37.5 -24.5t-46.5 -9zM530 1683q-25 0 -46.5 9t-37 24.5t-24.5 36.5t-9 45q0 25 9 46.5t24.5 37.5t37 25.5t46.5 9.5t46.5 -9.5
t37 -25.5t24.5 -37.5t9 -46.5q0 -24 -9 -45t-24.5 -36.5t-37 -24.5t-46.5 -9z" />
    <glyph glyph-name="Aring" unicode="&#xc5;" horiz-adv-x="1457" 
d="M5 32q0 8 8 8q19 1 44.5 5.5t52 19t51.5 43t42 78.5l408 1181q0 -1 0.5 1t0.5 4q0 7 -5.5 17.5t-5.5 15.5t4 5h200q2 -1 5.5 -2t5.5 -6l423 -1187q14 -27 22.5 -49t19.5 -40.5t29 -34t50 -28.5q14 -7 38 -15t46 -8q5 0 6.5 -3t1.5 -6v-23q0 -2 -1.5 -5t-6.5 -3h-612
q-5 0 -6.5 3t-1.5 5v24q0 2 1.5 5t6.5 3q4 0 8 0.5t6 0.5q11 1 31.5 2t44.5 3.5t48.5 8t44.5 16t33 27.5t13 42q0 6 -2 14l-151 426q-1 2 -3.5 9t-8 14.5t-14 13.5t-20.5 6h-355q-13 0 -22 -6t-15 -13t-9.5 -14t-3.5 -8l-150 -439v-9t2 -9q8 -25 29.5 -41.5t49.5 -26
t57.5 -13.5t52.5 -4h26q5 0 6.5 -3t1.5 -5v-24q0 -2 -1.5 -5t-6.5 -3h-511q-8 0 -8 8v24zM522 767q-2 -5 -3 -10t-1 -10q0 -6 3 -9.5t12 -3.5h295q11 0 14.5 4.5t3.5 10.5q0 5 -1 9t-3 9l-149 410q-10 27 -15 27t-8 -7.5t-8 -20.5zM536 1800q0 37 14.5 70.5t39.5 59t58.5 40
t71.5 14.5t71.5 -14.5t58.5 -40t39.5 -59t14.5 -70.5q0 -38 -14.5 -71.5t-39.5 -58.5t-58.5 -39.5t-71.5 -14.5t-71.5 14.5t-58.5 39.5t-39.5 58.5t-14.5 71.5zM606 1800q0 -24 9 -45t24 -36t36 -24t45 -9q23 0 43.5 9t36.5 24t25 36t9 45q0 23 -9 43.5t-25 36.5t-36.5 25
t-43.5 9q-24 0 -45 -9t-36 -25t-24 -36.5t-9 -43.5z" />
    <glyph glyph-name="AE" unicode="&#xc6;" horiz-adv-x="1930" 
d="M0 18q0 10 7.5 17.5t18.5 12t24.5 7t24.5 4.5q26 5 42.5 17.5t29.5 29.5t24.5 38t26.5 42q124 200 218 353t164 267t118.5 193t80 132t48.5 83.5t25.5 47t10 23t1.5 12.5q0 21 -8.5 35.5t-22 23.5t-30.5 13t-34 4h-108q-3 0 -8 5.5t-5 11.5q0 7 3 13.5t15 6.5h1031
q18 0 26 -7t10 -29l18 -289q0 -5 -5 -7.5t-12 -2.5q-8 0 -12 2t-7 6q-7 10 -10 29.5t-6.5 43.5t-10 50t-19.5 48t-35.5 38.5t-57.5 22.5h-417q-13 0 -13 -13v-518q0 -10 10 -10h346q24 0 46.5 7t39.5 25t27.5 48t10.5 76q0 8 8 8h24q8 0 8 -8v-428q0 -5 -3 -6.5t-5 -1.5h-24
q-5 0 -6.5 3t-1.5 5q0 56 -11.5 90.5t-30.5 54t-43.5 26t-51.5 6.5h-333q-10 0 -10 -10v-486q0 -29 9 -46.5t24.5 -26.5t35.5 -12t42 -3h333q58 0 97 26.5t63 64.5t35.5 79t14.5 70q3 28 30 28q5 0 8.5 -4t3.5 -9l-33 -336q-2 -5 -5.5 -9.5t-8.5 -4.5h-1115q-11 0 -20.5 5.5
t-9.5 16.5q0 14 9.5 17.5t20.5 4.5q46 3 94 4t87.5 12t64.5 37.5t25 80.5v445h-320q-11 0 -20.5 -6t-17 -13.5t-12 -14t-5.5 -7.5l-265 -439q-3 -9 -3 -18q0 -27 23.5 -43t56.5 -25t67.5 -12t56.5 -4q10 -2 17 -8t7 -13q0 -9 -3.5 -14.5t-14.5 -5.5h-502q-12 0 -14 5t-2 13z
M627 735q-1 -2 -1 -6q0 -13 32 -13h293v469q-7 19 -12 19q-3 0 -9 -2t-12.5 -5.5t-12.5 -9t-8 -11.5l-262 -426z" />
    <glyph glyph-name="Ccedilla" unicode="&#xc7;" horiz-adv-x="1566" 
d="M105 696q0 112 28 211.5t79 183.5t123 151t159.5 113.5t187.5 71.5t209 25q92 0 177.5 -16.5t176.5 -38.5q15 -4 31.5 -10t31 -11.5t26.5 -9.5t18 -4q2 0 13.5 4t16.5 4h31q12 0 12 -17v-311q0 -6 -4.5 -8t-19.5 -2q-3 0 -8 0.5t-8 5.5q-2 3 -5 9.5t-6.5 13.5t-7 13
t-4.5 9q-75 150 -190 225.5t-265 75.5q-142 0 -251 -48t-183.5 -132t-112.5 -199.5t-38 -250.5q0 -95 19 -184.5t55.5 -168.5t90.5 -144.5t124.5 -113t157 -74t187.5 -26.5q85 0 161 28t139.5 74t113.5 105t84 121q2 5 4.5 5.5t7.5 0.5h13q3 0 6.5 -2.5t3.5 -10.5
q0 -3 -0.5 -8t-5.5 -14l-138 -304q-2 -3 -6 -5t-7 -2q-23 6 -32.5 7t-20.5 1q-30 0 -77.5 -10.5t-102 -22.5t-110.5 -22.5t-102 -10.5h-21l-109 -127q41 -11 68 -31.5t43 -43t22.5 -43.5t6.5 -33q-5 -59 -36 -99.5t-77.5 -66.5t-104 -40.5t-115.5 -20.5q-23 0 -39.5 9.5
t-16.5 33.5q0 6 4 14t12 11q14 4 37 8t49.5 9t54 13.5t49.5 22.5t36 35t14 52q0 25 -17 44.5t-40.5 33.5t-49 21.5t-43.5 9.5l158 196q-139 17 -260.5 74.5t-212 150t-142.5 216.5t-52 274z" />
    <glyph glyph-name="Egrave" unicode="&#xc8;" horiz-adv-x="1264" 
d="M7 36q0 1 1 4.5t7 3.5h22q42 3 86 3.5t80 11t59 37t23 82.5v1054q0 39 -16 63.5t-42 39.5t-59 22.5t-67 12.5h-21q-5 0 -6.5 3t-1.5 5v24q0 2 1.5 5t6.5 3h951q18 0 26 -6.5t10 -28.5l18 -290q0 -5 -5 -7.5t-12 -2.5q-8 0 -12 2t-7 6q-7 10 -10 29.5t-6.5 43.5t-10 50
t-19.5 48t-35.5 38.5t-57.5 22.5h-417q-13 0 -13 -13v-517q0 -10 10 -10h346q25 0 49.5 6.5t43 23.5t30 47.5t11.5 78.5q0 8 8 8h24q8 0 8 -8v-428q0 -5 -3 -6.5t-5 -1.5h-24q-5 0 -6.5 3t-1.5 5q0 56 -11.5 90.5t-30.5 54t-43.5 26t-51.5 6.5h-343q-10 0 -10 -10v-487
q0 -29 9 -46.5t24.5 -26.5t35.5 -12t42 -3h333q58 0 97 26.5t63 64.5t35.5 79t14.5 70q3 28 30 28q5 0 8.5 -4t3.5 -9l-33 -336q-2 -5 -5.5 -9.5t-8.5 -4.5h-1114q-6 0 -7 3.5t-1 4.5v14v14zM753 1565q-4 -4 -8 -4q-2 0 -6 4l-269 217q-20 17 -37.5 40t-17.5 54
q0 29 20.5 51.5t51.5 22.5q18 0 37 -11.5t38 -37.5l213 -295q4 -4 4 -6t-4 -6z" />
    <glyph glyph-name="Eacute" unicode="&#xc9;" horiz-adv-x="1264" 
d="M7 36q0 1 1 4.5t7 3.5h22q42 3 86 3.5t80 11t59 37t23 82.5v1054q0 39 -16 63.5t-42 39.5t-59 22.5t-67 12.5h-21q-5 0 -6.5 3t-1.5 5v24q0 2 1.5 5t6.5 3h951q18 0 26 -6.5t10 -28.5l18 -290q0 -5 -5 -7.5t-12 -2.5q-8 0 -12 2t-7 6q-7 10 -10 29.5t-6.5 43.5t-10 50
t-19.5 48t-35.5 38.5t-57.5 22.5h-417q-13 0 -13 -13v-517q0 -10 10 -10h346q25 0 49.5 6.5t43 23.5t30 47.5t11.5 78.5q0 8 8 8h24q8 0 8 -8v-428q0 -5 -3 -6.5t-5 -1.5h-24q-5 0 -6.5 3t-1.5 5q0 56 -11.5 90.5t-30.5 54t-43.5 26t-51.5 6.5h-343q-10 0 -10 -10v-487
q0 -29 9 -46.5t24.5 -26.5t35.5 -12t42 -3h333q58 0 97 26.5t63 64.5t35.5 79t14.5 70q3 28 30 28q5 0 8.5 -4t3.5 -9l-33 -336q-2 -5 -5.5 -9.5t-8.5 -4.5h-1114q-6 0 -7 3.5t-1 4.5v14v14zM502 1594q-4 4 -4 6t4 6l213 295q19 26 38 37.5t37 11.5q31 0 51.5 -22.5
t20.5 -51.5q0 -31 -17.5 -54t-37.5 -40l-269 -217q-5 -3 -7 -3q-4 0 -4.5 0.5l-2.5 2.5z" />
    <glyph glyph-name="Ecircumflex" unicode="&#xca;" horiz-adv-x="1264" 
d="M7 36q0 1 1 4.5t7 3.5h22q42 3 86 3.5t80 11t59 37t23 82.5v1054q0 39 -16 63.5t-42 39.5t-59 22.5t-67 12.5h-21q-5 0 -6.5 3t-1.5 5v24q0 2 1.5 5t6.5 3h951q18 0 26 -6.5t10 -28.5l18 -290q0 -5 -5 -7.5t-12 -2.5q-8 0 -12 2t-7 6q-7 10 -10 29.5t-6.5 43.5t-10 50
t-19.5 48t-35.5 38.5t-57.5 22.5h-417q-13 0 -13 -13v-517q0 -10 10 -10h346q25 0 49.5 6.5t43 23.5t30 47.5t11.5 78.5q0 8 8 8h24q8 0 8 -8v-428q0 -5 -3 -6.5t-5 -1.5h-24q-5 0 -6.5 3t-1.5 5q0 56 -11.5 90.5t-30.5 54t-43.5 26t-51.5 6.5h-343q-10 0 -10 -10v-487
q0 -29 9 -46.5t24.5 -26.5t35.5 -12t42 -3h333q58 0 97 26.5t63 64.5t35.5 79t14.5 70q3 28 30 28q5 0 8.5 -4t3.5 -9l-33 -336q-2 -5 -5.5 -9.5t-8.5 -4.5h-1114q-6 0 -7 3.5t-1 4.5v14v14zM656 1812q-3 3 -11 12t-10 9t-9.5 -9t-10.5 -12l-214 -224q-2 -2 -5 -3t-5 -1
q-3 0 -7 4t-8 9.5t-7 10.5t-3 8q0 5 7 15l238 323q6 6 12.5 13t11.5 7t12.5 -7t13.5 -15l248 -321q7 -11 7 -15q0 -3 -3 -8t-7 -10.5t-8 -9.5t-7 -4q-4 0 -8 4z" />
    <glyph glyph-name="Edieresis" unicode="&#xcb;" horiz-adv-x="1264" 
d="M7 36q0 1 1 4.5t7 3.5h22q42 3 86 3.5t80 11t59 37t23 82.5v1054q0 39 -16 63.5t-42 39.5t-59 22.5t-67 12.5h-21q-5 0 -6.5 3t-1.5 5v24q0 2 1.5 5t6.5 3h951q18 0 26 -6.5t10 -28.5l18 -290q0 -5 -5 -7.5t-12 -2.5q-8 0 -12 2t-7 6q-7 10 -10 29.5t-6.5 43.5t-10 50
t-19.5 48t-35.5 38.5t-57.5 22.5h-417q-13 0 -13 -13v-517q0 -10 10 -10h346q25 0 49.5 6.5t43 23.5t30 47.5t11.5 78.5q0 8 8 8h24q8 0 8 -8v-428q0 -5 -3 -6.5t-5 -1.5h-24q-5 0 -6.5 3t-1.5 5q0 56 -11.5 90.5t-30.5 54t-43.5 26t-51.5 6.5h-343q-10 0 -10 -10v-487
q0 -29 9 -46.5t24.5 -26.5t35.5 -12t42 -3h333q58 0 97 26.5t63 64.5t35.5 79t14.5 70q3 28 30 28q5 0 8.5 -4t3.5 -9l-33 -336q-2 -5 -5.5 -9.5t-8.5 -4.5h-1114q-6 0 -7 3.5t-1 4.5v14v14zM829 1683q-24 0 -45.5 9t-37.5 24.5t-25 36.5t-9 45q0 25 9 46.5t25 37.5
t37.5 25.5t45.5 9.5q25 0 46.5 -9.5t37.5 -25.5t24.5 -37.5t8.5 -46.5q0 -24 -8.5 -45t-24.5 -36.5t-37.5 -24.5t-46.5 -9zM430 1683q-25 0 -46.5 9t-37 24.5t-24.5 36.5t-9 45q0 25 9 46.5t24.5 37.5t37 25.5t46.5 9.5t46.5 -9.5t37 -25.5t24.5 -37.5t9 -46.5q0 -24 -9 -45
t-24.5 -36.5t-37 -24.5t-46.5 -9z" />
    <glyph glyph-name="Igrave" unicode="&#xcc;" horiz-adv-x="699" 
d="M447 160q0 -34 10.5 -57t30 -37t48 -20t63.5 -6q8 0 8 -8v-24q0 -3 -1 -5.5t-7 -2.5h-501q-5 0 -6.5 3t-1.5 5v24q0 2 1.5 5t6.5 3q35 0 63.5 4.5t48.5 19.5t31 43t11 76v1067q0 34 -10.5 57t-30 37t-48 20t-63.5 6q-8 0 -8 8v24q0 8 8 8h501q5 0 6.5 -3t1.5 -5v-24
q0 -2 -1.5 -5t-6.5 -3q-35 0 -63.5 -4.5t-48.5 -19.5t-31 -43t-11 -76v-1067v0zM498 1565q-4 -4 -8 -4q-2 0 -6 4l-269 217q-20 17 -37.5 40t-17.5 54q0 29 20.5 51.5t51.5 22.5q18 0 37 -11.5t38 -37.5l213 -295q4 -4 4 -6t-4 -6z" />
    <glyph glyph-name="Iacute" unicode="&#xcd;" horiz-adv-x="699" 
d="M447 160q0 -34 10.5 -57t30 -37t48 -20t63.5 -6q8 0 8 -8v-24q0 -3 -1 -5.5t-7 -2.5h-501q-5 0 -6.5 3t-1.5 5v24q0 2 1.5 5t6.5 3q35 0 63.5 4.5t48.5 19.5t31 43t11 76v1067q0 34 -10.5 57t-30 37t-48 20t-63.5 6q-8 0 -8 8v24q0 8 8 8h501q5 0 6.5 -3t1.5 -5v-24
q0 -2 -1.5 -5t-6.5 -3q-35 0 -63.5 -4.5t-48.5 -19.5t-31 -43t-11 -76v-1067v0zM252 1594q-4 4 -4 6t4 6l213 295q19 26 38 37.5t37 11.5q31 0 51.5 -22.5t20.5 -51.5q0 -31 -17.5 -54t-37.5 -40l-269 -217q-5 -3 -7 -3q-4 0 -4.5 0.5l-2.5 2.5z" />
    <glyph glyph-name="Icircumflex" unicode="&#xce;" horiz-adv-x="699" 
d="M447 160q0 -34 10.5 -57t30 -37t48 -20t63.5 -6q8 0 8 -8v-24q0 -3 -1 -5.5t-7 -2.5h-501q-5 0 -6.5 3t-1.5 5v24q0 2 1.5 5t6.5 3q35 0 63.5 4.5t48.5 19.5t31 43t11 76v1067q0 34 -10.5 57t-30 37t-48 20t-63.5 6q-8 0 -8 8v24q0 8 8 8h501q5 0 6.5 -3t1.5 -5v-24
q0 -2 -1.5 -5t-6.5 -3q-35 0 -63.5 -4.5t-48.5 -19.5t-31 -43t-11 -76v-1067v0zM366 1788q-3 3 -11 12t-10 9t-9.5 -9t-10.5 -12l-214 -224q-2 -2 -5 -3t-5 -1q-3 0 -7 4t-8 9.5t-7 10.5t-3 8q0 5 7 15l238 323q6 6 12.5 13t11.5 7t12.5 -7t13.5 -15l248 -321q7 -11 7 -15
q0 -3 -3 -8t-7 -10.5t-8 -9.5t-7 -4q-4 0 -8 4z" />
    <glyph glyph-name="Idieresis" unicode="&#xcf;" horiz-adv-x="699" 
d="M447 160q0 -34 10.5 -57t30 -37t48 -20t63.5 -6q8 0 8 -8v-24q0 -3 -1 -5.5t-7 -2.5h-501q-5 0 -6.5 3t-1.5 5v24q0 2 1.5 5t6.5 3q35 0 63.5 4.5t48.5 19.5t31 43t11 76v1067q0 34 -10.5 57t-30 37t-48 20t-63.5 6q-8 0 -8 8v24q0 8 8 8h501q5 0 6.5 -3t1.5 -5v-24
q0 -2 -1.5 -5t-6.5 -3q-35 0 -63.5 -4.5t-48.5 -19.5t-31 -43t-11 -76v-1067v0zM554 1683q-24 0 -45.5 9t-37.5 24.5t-25 36.5t-9 45q0 25 9 46.5t25 37.5t37.5 25.5t45.5 9.5q25 0 46.5 -9.5t37.5 -25.5t24.5 -37.5t8.5 -46.5q0 -24 -8.5 -45t-24.5 -36.5t-37.5 -24.5
t-46.5 -9zM155 1683q-25 0 -46.5 9t-37 24.5t-24.5 36.5t-9 45q0 25 9 46.5t24.5 37.5t37 25.5t46.5 9.5t46.5 -9.5t37 -25.5t24.5 -37.5t9 -46.5q0 -24 -9 -45t-24.5 -36.5t-37 -24.5t-46.5 -9z" />
    <glyph glyph-name="Eth" unicode="&#x189;" horiz-adv-x="1664" 
d="M60 664q-21 0 -21 25v36q0 25 21 25h199v506q0 31 -13.5 52.5t-34 35t-45.5 19.5t-47 6h-64q-6 0 -7 3.5t-1 4.5v28q0 1 1 4.5t7 3.5h22l321 7q58 2 125.5 2h125.5q63 0 113 -1.5t96 -6t93 -11.5t105 -19q111 -23 206.5 -85t165 -150t109 -195t39.5 -219
q0 -108 -30 -202.5t-83.5 -174.5t-127.5 -143.5t-162 -109t-187 -72.5t-202 -33h-729q-6 0 -7 3.5t-1 4.5v28q0 1 1 4.5t7 3.5h22q21 0 52 2.5t60 14t49.5 35t20.5 64.5v504h-199zM454 125q0 -29 18.5 -45t49 -23.5t71.5 -8.5t86 -1q160 0 286.5 46t215 133t135.5 211.5
t47 281.5q0 138 -43 257.5t-122.5 208t-192.5 139.5t-254 51h-272q-15 0 -20 -6.5t-5 -20.5v-598h328q9 0 15 -7t6 -18v-36q0 -11 -6 -18t-15 -7h-328v-539z" />
    <glyph glyph-name="Eth" unicode="&#x110;" horiz-adv-x="1664" 
d="M60 664q-21 0 -21 25v36q0 25 21 25h199v506q0 31 -13.5 52.5t-34 35t-45.5 19.5t-47 6h-64q-6 0 -7 3.5t-1 4.5v28q0 1 1 4.5t7 3.5h22l321 7q58 2 125.5 2h125.5q63 0 113 -1.5t96 -6t93 -11.5t105 -19q111 -23 206.5 -85t165 -150t109 -195t39.5 -219
q0 -108 -30 -202.5t-83.5 -174.5t-127.5 -143.5t-162 -109t-187 -72.5t-202 -33h-729q-6 0 -7 3.5t-1 4.5v28q0 1 1 4.5t7 3.5h22q21 0 52 2.5t60 14t49.5 35t20.5 64.5v504h-199zM454 125q0 -29 18.5 -45t49 -23.5t71.5 -8.5t86 -1q160 0 286.5 46t215 133t135.5 211.5
t47 281.5q0 138 -43 257.5t-122.5 208t-192.5 139.5t-254 51h-272q-15 0 -20 -6.5t-5 -20.5v-598h328q9 0 15 -7t6 -18v-36q0 -11 -6 -18t-15 -7h-328v-539z" />
    <glyph glyph-name="Eth" unicode="&#xd0;" horiz-adv-x="1664" 
d="M60 664q-21 0 -21 25v36q0 25 21 25h199v506q0 31 -13.5 52.5t-34 35t-45.5 19.5t-47 6h-64q-6 0 -7 3.5t-1 4.5v28q0 1 1 4.5t7 3.5h22l321 7q58 2 125.5 2h125.5q63 0 113 -1.5t96 -6t93 -11.5t105 -19q111 -23 206.5 -85t165 -150t109 -195t39.5 -219
q0 -108 -30 -202.5t-83.5 -174.5t-127.5 -143.5t-162 -109t-187 -72.5t-202 -33h-729q-6 0 -7 3.5t-1 4.5v28q0 1 1 4.5t7 3.5h22q21 0 52 2.5t60 14t49.5 35t20.5 64.5v504h-199zM454 125q0 -29 18.5 -45t49 -23.5t71.5 -8.5t86 -1q160 0 286.5 46t215 133t135.5 211.5
t47 281.5q0 138 -43 257.5t-122.5 208t-192.5 139.5t-254 51h-272q-15 0 -20 -6.5t-5 -20.5v-598h328q9 0 15 -7t6 -18v-36q0 -11 -6 -18t-15 -7h-328v-539z" />
    <glyph glyph-name="Ntilde" unicode="&#xd1;" horiz-adv-x="1747" 
d="M68 0q-2 0 -5 2.5t-3 5.5v24q0 8 8 8h25t27.5 1t24.5 2t17 4q25 12 41 32t24.5 46t11.5 57t3 66v1039q0 27 -21.5 43.5t-50 25t-58 11.5t-44.5 3q-5 0 -6.5 3t-1.5 5v24q0 2 1.5 5t6.5 3h366l949 -1049q5 -5 7 -7.5t5 -2.5q4 0 5 3t1 6v689q0 99 -7 162t-26 98t-51 48
t-82 13h-51q-5 0 -6.5 3t-1.5 5v24q0 2 1.5 5t6.5 3h520q6 0 7 -3t1 -5v-24q0 -2 -1.5 -5t-6.5 -3q-20 0 -51.5 -8t-61.5 -23t-51.5 -37t-21.5 -50v-1223q0 -22 -6 -31.5t-31 -9.5q-20 0 -31 9t-26 26l-1031 1143q-7 7 -10 8.5t-8 1.5t-5 -10v-998q0 -28 13.5 -48.5
t34.5 -35t46.5 -23t50 -13.5t44 -6.5t29.5 -1.5q5 0 7 -4q1 -2 1 -4v-24q0 -2 -1.5 -5t-6.5 -3h-520v0zM1208 1928q5 0 7.5 -5t4 -11.5t2 -13.5t0.5 -11q0 -33 -11 -67t-32 -62t-51 -45.5t-68 -17.5q-41 0 -79 16t-74.5 35.5t-73.5 36t-76 16.5q-14 0 -29.5 -9t-28.5 -24.5
t-21.5 -36.5t-8.5 -45q0 -8 -5 -10t-11 -2h-21q-8 0 -8 16q0 46 11 88t31 73t49 49.5t65 18.5q42 0 82 -16.5t79.5 -36t79 -36t78.5 -16.5q18 0 32 10t23.5 25.5t14 33.5t4.5 33q0 6 5 10t11 4h19z" />
    <glyph glyph-name="Ograve" unicode="&#xd2;" horiz-adv-x="1770" 
d="M874 -27q-45 0 -119 11.5t-159 42t-171.5 83.5t-156.5 135t-114 197.5t-44 271.5q0 104 28 199.5t79 177.5t124 148.5t163 114t195.5 73t221.5 25.5q100 0 194 -25.5t176 -71.5t149.5 -111.5t116.5 -145.5t76 -172.5t27 -192.5q0 -94 -26 -187t-75 -177.5t-119 -156.5
t-157.5 -125.5t-190.5 -83.5t-218 -30zM320 752q0 -84 18.5 -169t53.5 -163t87 -146.5t118.5 -118.5t148 -79t175.5 -29q135 0 234.5 53.5t164.5 142.5t97 204.5t32 238.5q0 135 -40.5 260.5t-117.5 222.5t-188.5 155.5t-253.5 58.5q-85 0 -157.5 -25t-131.5 -68.5
t-104 -103.5t-75 -130.5t-45.5 -147.5t-15.5 -156zM978 1590q-4 -4 -8 -4q-2 0 -6 4l-269 217q-20 17 -37.5 40t-17.5 54q0 29 20.5 51.5t51.5 22.5q18 0 37 -11.5t38 -37.5l213 -295q4 -4 4 -6t-4 -6z" />
    <glyph glyph-name="Oacute" unicode="&#xd3;" horiz-adv-x="1597" 
d="M874 -27q-45 0 -119 11.5t-159 42t-171.5 83.5t-156.5 135t-114 197.5t-44 271.5q0 104 28 199.5t79 177.5t124 148.5t163 114t195.5 73t221.5 25.5q100 0 194 -25.5t176 -71.5t149.5 -111.5t116.5 -145.5t76 -172.5t27 -192.5q0 -94 -26 -187t-75 -177.5t-119 -156.5
t-157.5 -125.5t-190.5 -83.5t-218 -30zM320 752q0 -84 18.5 -169t53.5 -163t87 -146.5t118.5 -118.5t148 -79t175.5 -29q135 0 234.5 53.5t164.5 142.5t97 204.5t32 238.5q0 135 -40.5 260.5t-117.5 222.5t-188.5 155.5t-253.5 58.5q-85 0 -157.5 -25t-131.5 -68.5
t-104 -103.5t-75 -130.5t-45.5 -147.5t-15.5 -156zM801 1619q-4 4 -4 6t4 6l213 295q19 26 38 37.5t37 11.5q31 0 51.5 -22.5t20.5 -51.5q0 -31 -17.5 -54t-37.5 -40l-269 -217q-5 -3 -7 -3q-4 0 -4.5 0.5l-2.5 2.5z" />
    <glyph glyph-name="Ocircumflex" unicode="&#xd4;" horiz-adv-x="1770" 
d="M874 -27q-45 0 -119 11.5t-159 42t-171.5 83.5t-156.5 135t-114 197.5t-44 271.5q0 104 28 199.5t79 177.5t124 148.5t163 114t195.5 73t221.5 25.5q100 0 194 -25.5t176 -71.5t149.5 -111.5t116.5 -145.5t76 -172.5t27 -192.5q0 -94 -26 -187t-75 -177.5t-119 -156.5
t-157.5 -125.5t-190.5 -83.5t-218 -30zM320 752q0 -84 18.5 -169t53.5 -163t87 -146.5t118.5 -118.5t148 -79t175.5 -29q135 0 234.5 53.5t164.5 142.5t97 204.5t32 238.5q0 135 -40.5 260.5t-117.5 222.5t-188.5 155.5t-253.5 58.5q-85 0 -157.5 -25t-131.5 -68.5
t-104 -103.5t-75 -130.5t-45.5 -147.5t-15.5 -156zM886 1813q-3 3 -11 12t-10 9t-9.5 -9t-10.5 -12l-214 -224q-2 -2 -5 -3t-5 -1q-3 0 -7 4t-8 9.5t-7 10.5t-3 8q0 5 7 15l238 323q6 6 12.5 13t11.5 7t12.5 -7t13.5 -15l248 -321q7 -11 7 -15q0 -3 -3 -8t-7 -10.5t-8 -9.5
t-7 -4q-4 0 -8 4z" />
    <glyph glyph-name="Otilde" unicode="&#xd5;" horiz-adv-x="1770" 
d="M874 -27q-45 0 -119 11.5t-159 42t-171.5 83.5t-156.5 135t-114 197.5t-44 271.5q0 104 28 199.5t79 177.5t124 148.5t163 114t195.5 73t221.5 25.5q100 0 194 -25.5t176 -71.5t149.5 -111.5t116.5 -145.5t76 -172.5t27 -192.5q0 -94 -26 -187t-75 -177.5t-119 -156.5
t-157.5 -125.5t-190.5 -83.5t-218 -30zM320 752q0 -84 18.5 -169t53.5 -163t87 -146.5t118.5 -118.5t148 -79t175.5 -29q135 0 234.5 53.5t164.5 142.5t97 204.5t32 238.5q0 135 -40.5 260.5t-117.5 222.5t-188.5 155.5t-253.5 58.5q-85 0 -157.5 -25t-131.5 -68.5
t-104 -103.5t-75 -130.5t-45.5 -147.5t-15.5 -156zM1178 1857q5 0 7.5 -5t4 -11.5t2 -13.5t0.5 -11q0 -33 -11 -67t-32 -62t-51 -45.5t-68 -17.5q-41 0 -79 16t-74.5 35.5t-73.5 36t-76 16.5q-14 0 -29.5 -9t-28.5 -24.5t-21.5 -36.5t-8.5 -45q0 -8 -5 -10t-11 -2h-21
q-8 0 -8 16q0 46 11 88t31 73t49 49.5t65 18.5q42 0 82 -16.5t79.5 -36t79 -36t78.5 -16.5q18 0 32 10t23.5 25.5t14 33.5t4.5 33q0 6 5 10t11 4h19z" />
    <glyph glyph-name="Odieresis" unicode="&#xd6;" horiz-adv-x="1770" 
d="M874 -27q-45 0 -119 11.5t-159 42t-171.5 83.5t-156.5 135t-114 197.5t-44 271.5q0 104 28 199.5t79 177.5t124 148.5t163 114t195.5 73t221.5 25.5q100 0 194 -25.5t176 -71.5t149.5 -111.5t116.5 -145.5t76 -172.5t27 -192.5q0 -94 -26 -187t-75 -177.5t-119 -156.5
t-157.5 -125.5t-190.5 -83.5t-218 -30zM320 752q0 -84 18.5 -169t53.5 -163t87 -146.5t118.5 -118.5t148 -79t175.5 -29q135 0 234.5 53.5t164.5 142.5t97 204.5t32 238.5q0 135 -40.5 260.5t-117.5 222.5t-188.5 155.5t-253.5 58.5q-85 0 -157.5 -25t-131.5 -68.5
t-104 -103.5t-75 -130.5t-45.5 -147.5t-15.5 -156zM1079 1614q-24 0 -45.5 9t-37.5 24.5t-25 36.5t-9 45q0 25 9 46.5t25 37.5t37.5 25.5t45.5 9.5q25 0 46.5 -9.5t37.5 -25.5t24.5 -37.5t8.5 -46.5q0 -24 -8.5 -45t-24.5 -36.5t-37.5 -24.5t-46.5 -9zM680 1614
q-25 0 -46.5 9t-37 24.5t-24.5 36.5t-9 45q0 25 9 46.5t24.5 37.5t37 25.5t46.5 9.5t46.5 -9.5t37 -25.5t24.5 -37.5t9 -46.5q0 -24 -9 -45t-24.5 -36.5t-37 -24.5t-46.5 -9z" />
    <glyph glyph-name="multiply" unicode="&#xd7;" horiz-adv-x="1049" 
d="M209 1029l315 -316l317 318l89 -88l-318 -318l320 -320l-88 -88l-320 320l-318 -318l-88 89l318 317l-316 315z" />
    <glyph glyph-name="Oslash" unicode="&#xd8;" horiz-adv-x="1770" 
d="M1666 1434l-202 -214q91 -96 143.5 -219.5t52.5 -266.5q0 -94 -26 -187t-75 -177.5t-119 -156.5t-157.5 -125.5t-190.5 -83.5t-218 -30q-36 0 -67 3t-59.5 7.5t-55 9.5t-54.5 10l-14 3q-30 6 -86.5 32t-122.5 74l-209 -221l-67 64l204 216q-46 42 -88 96.5t-74.5 122
t-51.5 148.5t-19 176q0 104 28 199.5t79 177.5t124 148.5t163 114t195.5 73t221.5 25.5q135 0 256 -45t219 -125l203 215zM320 753q0 -120 36.5 -238.5t105.5 -217.5l828 874q-78 97 -188 155t-253 58q-85 0 -157.5 -25t-131.5 -68.5t-104 -103.5t-75 -130.5t-45.5 -147.5
t-15.5 -156zM1449 687q0 110 -27 213.5t-79 192.5l-822 -868q75 -80 175.5 -128.5t224.5 -48.5q135 0 234.5 53.5t164.5 142.5t97 204.5t32 238.5z" />
    <glyph glyph-name="Ugrave" unicode="&#xd9;" horiz-adv-x="1672" 
d="M211 1250q0 29 -13.5 51.5t-36.5 37.5t-53 23t-64 8q-8 0 -8 8v24q0 8 7 8h542q5 0 6.5 -3t1.5 -5v-24q0 -2 -1.5 -5t-6.5 -3q-30 0 -61.5 -4t-58 -18t-43 -40.5t-16.5 -71.5v-716q0 -100 35 -182.5t97 -142t147.5 -92t187.5 -32.5t191 28t154.5 83t103 135.5t37.5 185.5
v636q0 34 -2.5 70t-16.5 68t-44 55.5t-85 32.5q-25 4 -41.5 4.5t-21.5 0.5q-8 0 -8 8v24q0 8 8 8h492q5 0 6.5 -3t1.5 -5v-24q0 -2 -2 -5t-6 -3q-36 0 -63.5 -5.5t-41.5 -11.5q-17 -7 -31 -20.5t-23.5 -30t-14.5 -34t-5 -32.5v-655q0 -141 -37 -253.5t-111.5 -191
t-187.5 -121t-264 -42.5q-72 0 -148.5 12t-149 36.5t-136.5 63t-112 91.5t-76 121t-28 153v800v0zM988 1565q-4 -4 -8 -4q-2 0 -6 4l-269 217q-20 17 -37.5 40t-17.5 54q0 29 20.5 51.5t51.5 22.5q18 0 37 -11.5t38 -37.5l213 -295q4 -4 4 -6t-4 -6z" />
    <glyph glyph-name="Uacute" unicode="&#xda;" horiz-adv-x="1672" 
d="M211 1250q0 29 -13.5 51.5t-36.5 37.5t-53 23t-64 8q-8 0 -8 8v24q0 8 7 8h542q5 0 6.5 -3t1.5 -5v-24q0 -2 -1.5 -5t-6.5 -3q-30 0 -61.5 -4t-58 -18t-43 -40.5t-16.5 -71.5v-716q0 -100 35 -182.5t97 -142t147.5 -92t187.5 -32.5t191 28t154.5 83t103 135.5t37.5 185.5
v636q0 34 -2.5 70t-16.5 68t-44 55.5t-85 32.5q-25 4 -41.5 4.5t-21.5 0.5q-8 0 -8 8v24q0 8 8 8h492q5 0 6.5 -3t1.5 -5v-24q0 -2 -2 -5t-6 -3q-36 0 -63.5 -5.5t-41.5 -11.5q-17 -7 -31 -20.5t-23.5 -30t-14.5 -34t-5 -32.5v-655q0 -141 -37 -253.5t-111.5 -191
t-187.5 -121t-264 -42.5q-72 0 -148.5 12t-149 36.5t-136.5 63t-112 91.5t-76 121t-28 153v800v0zM812 1594q-4 4 -4 6t4 6l213 295q19 26 38 37.5t37 11.5q31 0 51.5 -22.5t20.5 -51.5q0 -31 -17.5 -54t-37.5 -40l-269 -217q-5 -3 -7 -3q-4 0 -4.5 0.5l-2.5 2.5z" />
    <glyph glyph-name="Ucircumflex" unicode="&#xdb;" horiz-adv-x="1672" 
d="M211 1250q0 29 -13.5 51.5t-36.5 37.5t-53 23t-64 8q-8 0 -8 8v24q0 8 7 8h542q5 0 6.5 -3t1.5 -5v-24q0 -2 -1.5 -5t-6.5 -3q-30 0 -61.5 -4t-58 -18t-43 -40.5t-16.5 -71.5v-716q0 -100 35 -182.5t97 -142t147.5 -92t187.5 -32.5t191 28t154.5 83t103 135.5t37.5 185.5
v636q0 34 -2.5 70t-16.5 68t-44 55.5t-85 32.5q-25 4 -41.5 4.5t-21.5 0.5q-8 0 -8 8v24q0 8 8 8h492q5 0 6.5 -3t1.5 -5v-24q0 -2 -2 -5t-6 -3q-36 0 -63.5 -5.5t-41.5 -11.5q-17 -7 -31 -20.5t-23.5 -30t-14.5 -34t-5 -32.5v-655q0 -141 -37 -253.5t-111.5 -191
t-187.5 -121t-264 -42.5q-72 0 -148.5 12t-149 36.5t-136.5 63t-112 91.5t-76 121t-28 153v800v0zM886 1788q-3 3 -11 12t-10 9t-9.5 -9t-10.5 -12l-214 -224q-2 -2 -5 -3t-5 -1q-3 0 -7 4t-8 9.5t-7 10.5t-3 8q0 5 7 15l238 323q6 6 12.5 13t11.5 7t12.5 -7t13.5 -15
l248 -321q7 -11 7 -15q0 -3 -3 -8t-7 -10.5t-8 -9.5t-7 -4q-4 0 -8 4z" />
    <glyph glyph-name="Udieresis" unicode="&#xdc;" horiz-adv-x="1672" 
d="M211 1250q0 29 -13.5 51.5t-36.5 37.5t-53 23t-64 8q-8 0 -8 8v24q0 8 7 8h542q5 0 6.5 -3t1.5 -5v-24q0 -2 -1.5 -5t-6.5 -3q-30 0 -61.5 -4t-58 -18t-43 -40.5t-16.5 -71.5v-716q0 -100 35 -182.5t97 -142t147.5 -92t187.5 -32.5t191 28t154.5 83t103 135.5t37.5 185.5
v636q0 34 -2.5 70t-16.5 68t-44 55.5t-85 32.5q-25 4 -41.5 4.5t-21.5 0.5q-8 0 -8 8v24q0 8 8 8h492q5 0 6.5 -3t1.5 -5v-24q0 -2 -2 -5t-6 -3q-36 0 -63.5 -5.5t-41.5 -11.5q-17 -7 -31 -20.5t-23.5 -30t-14.5 -34t-5 -32.5v-655q0 -141 -37 -253.5t-111.5 -191
t-187.5 -121t-264 -42.5q-72 0 -148.5 12t-149 36.5t-136.5 63t-112 91.5t-76 121t-28 153v800v0zM1099 1683q-24 0 -45.5 9t-37.5 24.5t-25 36.5t-9 45q0 25 9 46.5t25 37.5t37.5 25.5t45.5 9.5q25 0 46.5 -9.5t37.5 -25.5t24.5 -37.5t8.5 -46.5q0 -24 -8.5 -45
t-24.5 -36.5t-37.5 -24.5t-46.5 -9zM700 1683q-25 0 -46.5 9t-37 24.5t-24.5 36.5t-9 45q0 25 9 46.5t24.5 37.5t37 25.5t46.5 9.5t46.5 -9.5t37 -25.5t24.5 -37.5t9 -46.5q0 -24 -9 -45t-24.5 -36.5t-37 -24.5t-46.5 -9z" />
    <glyph glyph-name="Yacute" unicode="&#xdd;" horiz-adv-x="1564" 
d="M492 30q0 6 7 10.5t17.5 7t22.5 4t21 2.5q76 8 107 37.5t31 88.5v331q0 4 -0.5 7t-2.5 8l-409 652q-17 27 -36.5 54.5t-43 52t-51 43t-59.5 26.5q-5 1 -16 3.5t-23 4.5t-23 4t-16 3q-10 1 -12 7.5t-2 15.5q0 5 2 11.5t13 6.5h572q11 0 14 -5t3 -13q0 -22 -17 -22
q-20 -2 -44 -4.5t-45 -10t-35.5 -22t-14.5 -41.5q0 -24 12 -43l338 -540q11 -16 13.5 -20.5t10.5 -4.5q7 0 13 8t14 21l270 459q12 24 27.5 51.5t15.5 56.5q0 28 -12 44.5t-30 25.5t-40 13t-43 7q-11 1 -14 7t-3 15q0 7 2.5 12.5t14.5 5.5h467q8 0 11 -6.5t3 -11.5
q0 -10 -4.5 -15t-12 -7.5t-16.5 -4t-18 -3.5q-50 -12 -86.5 -37t-71.5 -63q-5 -5 -14.5 -16t-10.5 -13l-395 -680v-373q0 -54 30.5 -85t107.5 -41q7 -1 18.5 -2.5t22.5 -4t19 -6.5t8 -10v-11q0 -14 -10 -17t-24 -3h-539q-14 0 -24 3t-10 17v10zM742 1594q-4 4 -4 6t4 6
l213 295q19 26 38 37.5t37 11.5q31 0 51.5 -22.5t20.5 -51.5q0 -31 -17.5 -54t-37.5 -40l-269 -217q-5 -3 -7 -3q-4 0 -4.5 0.5l-2.5 2.5z" />
    <glyph glyph-name="Thorn" unicode="&#xde;" horiz-adv-x="1160" 
d="M41 32q0 2 1.5 5t6.5 3q78 0 120.5 36.5t42.5 93.5v1056q0 77 -34 110t-111 33h-18q-5 0 -6.5 3.5t-1.5 5.5v24q0 2 1.5 5t6.5 3h519q5 0 6.5 -3t1.5 -5v-24q0 -2 -1.5 -5.5t-6.5 -3.5h-18q-30 0 -56 -2.5t-45.5 -12t-30.5 -28.5t-11 -52v-114q29 1 47.5 1.5t34.5 1.5
t34 1.5t47 0.5h101q87 -6 163.5 -38.5t132.5 -89.5t88.5 -137t32.5 -182q0 -48 -17 -95.5t-46 -91.5t-67 -82.5t-80.5 -67t-86.5 -44.5t-84 -16h-6l-271 7h-8t-11 -2q-4 -3 -4 -8v-146q0 -39 23 -64.5t58 -40.5t77.5 -21t81.5 -6q8 0 8 -7v-25q0 -8 -8 -8h-598q-5 0 -6.5 3
t-1.5 5v24zM407 421q1 -8 5.5 -14.5t15.5 -7.5q4 0 14.5 -1t24.5 -2t30.5 -2t32.5 -1q82 0 148.5 29.5t113 80.5t71.5 120t25 149q0 82 -25 146.5t-71 108t-110.5 66.5t-143.5 23q-14 0 -26 -0.5l-24 -1t-25.5 -1t-30.5 -1.5q-6 0 -14.5 -2.5t-10.5 -10.5v-648v-30z" />
    <glyph glyph-name="germandbls" unicode="&#xdf;" horiz-adv-x="1220" 
d="M546 903q81 8 145 36t108 73.5t67 108t23 139.5q0 72 -20 132t-56 103t-87 67t-113 24q-66 0 -117.5 -28.5t-87.5 -78.5t-55 -118.5t-19 -147.5v-1041q0 -44 7.5 -72t25.5 -43.5t48 -21.5t74 -6q18 -2 18 -13q0 -5 -2.5 -10.5t-15.5 -5.5h-456q-10 2 -10 16q0 9 10 13
q13 6 37 9.5t48 14t42 33t18 66.5v914q0 156 39.5 266t104 179.5t148 101.5t172.5 32q86 0 161 -28t130.5 -77t87.5 -115.5t32 -142.5q0 -64 -23.5 -122t-67.5 -107t-108 -89t-146 -68v-4q75 -15 151 -49.5t137 -90t99.5 -134t38.5 -180.5q0 -82 -20 -148.5t-53 -118
t-75.5 -89t-88.5 -62t-91 -36t-83 -11.5q-51 0 -82 22t-31 57q0 27 17 46.5t40 19.5q19 0 36.5 -8.5t34.5 -18.5t35.5 -18.5t40.5 -8.5q29 0 54 25t43 69.5t28.5 106t10.5 134.5q0 127 -28 223.5t-87 153.5q-27 27 -57.5 44.5t-65.5 27.5t-76 14t-90 4v37z" />
    <glyph glyph-name="agrave" unicode="&#xe0;" horiz-adv-x="885" 
d="M528 115q-60 -45 -98 -72.5t-64 -42.5t-45 -20t-41 -5q-38 0 -75.5 14.5t-67.5 41t-48.5 64t-18.5 84.5q0 39 12.5 70t46.5 58t92.5 51t151.5 48q50 13 80.5 28t56.5 29q17 9 19.5 16t2.5 13v192q0 33 -10 64.5t-29.5 55.5t-48.5 39t-67 15q-18 0 -39.5 -7t-41 -22
t-32.5 -38t-13 -56q0 -3 0.5 -9t1.5 -12.5t2 -11.5t1 -6q-2 -4 -21.5 -14.5t-44.5 -22t-48.5 -21.5t-33.5 -12q-11 0 -13.5 11.5t-2.5 22.5q0 43 23 90t65.5 86.5t102 65t133.5 25.5q57 0 106.5 -18.5t86 -50.5t58 -75t21.5 -91v-527q0 -26 24.5 -41.5t55.5 -15.5q18 0 31 5
t22.5 11.5t16 11.5t12.5 5q8 0 9 -6.5t1 -11.5q0 -17 -4.5 -24.5t-15.5 -15.5q-49 -36 -82 -57.5t-56 -33t-38 -15.5t-27 -4q-21 0 -36 11t-26.5 27t-19.5 34.5t-13.5 34.5t-8.5 26t-5 9zM227 199q0 -27 10.5 -50t27.5 -39.5t38.5 -25.5t44.5 -9q21 0 52 10.5t60.5 28
t50.5 40t21 45.5v203q0 11 -8 11q-2 0 -4 -1l-232 -108q-14 -10 -25.5 -18.5t-19.5 -20t-12 -27t-4 -39.5zM523 1067q-4 -4 -8 -4q-2 0 -6 4l-269 217q-20 17 -37.5 40t-17.5 54q0 29 20.5 51.5t51.5 22.5q18 0 37 -11.5t38 -37.5l213 -295q4 -4 4 -6t-4 -6z" />
    <glyph glyph-name="aacute" unicode="&#xe1;" horiz-adv-x="885" 
d="M528 115q-60 -45 -98 -72.5t-64 -42.5t-45 -20t-41 -5q-38 0 -75.5 14.5t-67.5 41t-48.5 64t-18.5 84.5q0 39 12.5 70t46.5 58t92.5 51t151.5 48q50 13 80.5 28t56.5 29q17 9 19.5 16t2.5 13v192q0 33 -10 64.5t-29.5 55.5t-48.5 39t-67 15q-18 0 -39.5 -7t-41 -22
t-32.5 -38t-13 -56q0 -3 0.5 -9t1.5 -12.5t2 -11.5t1 -6q-2 -4 -21.5 -14.5t-44.5 -22t-48.5 -21.5t-33.5 -12q-11 0 -13.5 11.5t-2.5 22.5q0 43 23 90t65.5 86.5t102 65t133.5 25.5q57 0 106.5 -18.5t86 -50.5t58 -75t21.5 -91v-527q0 -26 24.5 -41.5t55.5 -15.5q18 0 31 5
t22.5 11.5t16 11.5t12.5 5q8 0 9 -6.5t1 -11.5q0 -17 -4.5 -24.5t-15.5 -15.5q-49 -36 -82 -57.5t-56 -33t-38 -15.5t-27 -4q-21 0 -36 11t-26.5 27t-19.5 34.5t-13.5 34.5t-8.5 26t-5 9zM227 199q0 -27 10.5 -50t27.5 -39.5t38.5 -25.5t44.5 -9q21 0 52 10.5t60.5 28
t50.5 40t21 45.5v203q0 11 -8 11q-2 0 -4 -1l-232 -108q-14 -10 -25.5 -18.5t-19.5 -20t-12 -27t-4 -39.5zM315 1096q-4 4 -4 6t4 6l213 295q19 26 38 37.5t37 11.5q31 0 51.5 -22.5t20.5 -51.5q0 -31 -17.5 -54t-37.5 -40l-269 -217q-5 -3 -7 -3q-4 0 -4.5 0.5l-2.5 2.5z
" />
    <glyph glyph-name="acircumflex" unicode="&#xe2;" horiz-adv-x="885" 
d="M528 115q-60 -45 -98 -72.5t-64 -42.5t-45 -20t-41 -5q-38 0 -75.5 14.5t-67.5 41t-48.5 64t-18.5 84.5q0 39 12.5 70t46.5 58t92.5 51t151.5 48q50 13 80.5 28t56.5 29q17 9 19.5 16t2.5 13v192q0 33 -10 64.5t-29.5 55.5t-48.5 39t-67 15q-18 0 -39.5 -7t-41 -22
t-32.5 -38t-13 -56q0 -3 0.5 -9t1.5 -12.5t2 -11.5t1 -6q-2 -4 -21.5 -14.5t-44.5 -22t-48.5 -21.5t-33.5 -12q-11 0 -13.5 11.5t-2.5 22.5q0 43 23 90t65.5 86.5t102 65t133.5 25.5q57 0 106.5 -18.5t86 -50.5t58 -75t21.5 -91v-527q0 -26 24.5 -41.5t55.5 -15.5q18 0 31 5
t22.5 11.5t16 11.5t12.5 5q8 0 9 -6.5t1 -11.5q0 -17 -4.5 -24.5t-15.5 -15.5q-49 -36 -82 -57.5t-56 -33t-38 -15.5t-27 -4q-21 0 -36 11t-26.5 27t-19.5 34.5t-13.5 34.5t-8.5 26t-5 9zM227 199q0 -27 10.5 -50t27.5 -39.5t38.5 -25.5t44.5 -9q21 0 52 10.5t60.5 28
t50.5 40t21 45.5v203q0 11 -8 11q-2 0 -4 -1l-232 -108q-14 -10 -25.5 -18.5t-19.5 -20t-12 -27t-4 -39.5zM419 1291q-3 3 -11 12t-10 9t-9.5 -9t-10.5 -12l-214 -224q-2 -2 -5 -3t-5 -1q-3 0 -7 4t-8 9.5t-7 10.5t-3 8q0 5 7 15l238 323q6 6 12.5 13t11.5 7t12.5 -7
t13.5 -15l248 -321q7 -11 7 -15q0 -3 -3 -8t-7 -10.5t-8 -9.5t-7 -4q-4 0 -8 4z" />
    <glyph glyph-name="atilde" unicode="&#xe3;" horiz-adv-x="891" 
d="M534 115q-60 -45 -98 -72.5t-64 -42.5t-45 -20t-41 -5q-38 0 -75.5 14.5t-67.5 41t-48.5 64t-18.5 84.5q0 39 12.5 70t46.5 58t92.5 51t151.5 48q50 13 80.5 28t56.5 29q17 9 19.5 16t2.5 13v192q0 33 -10 64.5t-29.5 55.5t-48.5 39t-67 15q-18 0 -39.5 -7t-41 -22
t-32.5 -38t-13 -56q0 -3 0.5 -9t1.5 -12.5t2 -11.5t1 -6q-2 -4 -21.5 -14.5t-44.5 -22t-48.5 -21.5t-33.5 -12q-11 0 -13.5 11.5t-2.5 22.5q0 43 23 90t65.5 86.5t102 65t133.5 25.5q57 0 106.5 -18.5t86 -50.5t58 -75t21.5 -91v-527q0 -26 24.5 -41.5t55.5 -15.5q18 0 31 5
t22.5 11.5t16 11.5t12.5 5q8 0 9 -6.5t1 -11.5q0 -17 -4.5 -24.5t-15.5 -15.5q-49 -36 -82 -57.5t-56 -33t-38 -15.5t-27 -4q-21 0 -36 11t-26.5 27t-19.5 34.5t-13.5 34.5t-8.5 26t-5 9zM233 199q0 -27 10.5 -50t27.5 -39.5t38.5 -25.5t44.5 -9q21 0 52 10.5t60.5 28
t50.5 40t21 45.5v203q0 11 -8 11q-2 0 -4 -1l-232 -108q-14 -10 -25.5 -18.5t-19.5 -20t-12 -27t-4 -39.5zM710 1368q5 0 7.5 -5t4 -11.5t2 -13.5t0.5 -11q0 -33 -11 -67t-32 -62t-51 -45.5t-68 -17.5q-41 0 -79 16t-74.5 35.5t-73.5 36t-76 16.5q-14 0 -29.5 -9
t-28.5 -24.5t-21.5 -36.5t-8.5 -45q0 -8 -5 -10t-11 -2h-21q-8 0 -8 16q0 46 11 88t31 73t49 49.5t65 18.5q42 0 82 -16.5t79.5 -36t79 -36t78.5 -16.5q18 0 32 10t23.5 25.5t14 33.5t4.5 33q0 6 5 10t11 4h19z" />
    <glyph glyph-name="adieresis" unicode="&#xe4;" horiz-adv-x="902" 
d="M545 115q-60 -45 -98 -72.5t-64 -42.5t-45 -20t-41 -5q-38 0 -75.5 14.5t-67.5 41t-48.5 64t-18.5 84.5q0 39 12.5 70t46.5 58t92.5 51t151.5 48q50 13 80.5 28t56.5 29q17 9 19.5 16t2.5 13v192q0 33 -10 64.5t-29.5 55.5t-48.5 39t-67 15q-18 0 -39.5 -7t-41 -22
t-32.5 -38t-13 -56q0 -3 0.5 -9t1.5 -12.5t2 -11.5t1 -6q-2 -4 -21.5 -14.5t-44.5 -22t-48.5 -21.5t-33.5 -12q-11 0 -13.5 11.5t-2.5 22.5q0 43 23 90t65.5 86.5t102 65t133.5 25.5q57 0 106.5 -18.5t86 -50.5t58 -75t21.5 -91v-527q0 -26 24.5 -41.5t55.5 -15.5q18 0 31 5
t22.5 11.5t16 11.5t12.5 5q8 0 9 -6.5t1 -11.5q0 -17 -4.5 -24.5t-15.5 -15.5q-49 -36 -82 -57.5t-56 -33t-38 -15.5t-27 -4q-21 0 -36 11t-26.5 27t-19.5 34.5t-13.5 34.5t-8.5 26t-5 9zM244 199q0 -27 10.5 -50t27.5 -39.5t38.5 -25.5t44.5 -9q21 0 52 10.5t60.5 28
t50.5 40t21 45.5v203q0 11 -8 11q-2 0 -4 -1l-232 -108q-14 -10 -25.5 -18.5t-19.5 -20t-12 -27t-4 -39.5zM614 1112q-24 0 -45.5 9t-37.5 24.5t-25 36.5t-9 45q0 25 9 46.5t25 37.5t37.5 25.5t45.5 9.5q25 0 46.5 -9.5t37.5 -25.5t24.5 -37.5t8.5 -46.5q0 -24 -8.5 -45
t-24.5 -36.5t-37.5 -24.5t-46.5 -9zM215 1112q-25 0 -46.5 9t-37 24.5t-24.5 36.5t-9 45q0 25 9 46.5t24.5 37.5t37 25.5t46.5 9.5t46.5 -9.5t37 -25.5t24.5 -37.5t9 -46.5q0 -24 -9 -45t-24.5 -36.5t-37 -24.5t-46.5 -9z" />
    <glyph glyph-name="aring" unicode="&#xe5;" horiz-adv-x="885" 
d="M528 115q-60 -45 -98 -72.5t-64 -42.5t-45 -20t-41 -5q-38 0 -75.5 14.5t-67.5 41t-48.5 64t-18.5 84.5q0 39 12.5 70t46.5 58t92.5 51t151.5 48q50 13 80.5 28t56.5 29q17 9 19.5 16t2.5 13v192q0 33 -10 64.5t-29.5 55.5t-48.5 39t-67 15q-18 0 -39.5 -7t-41 -22
t-32.5 -38t-13 -56q0 -3 0.5 -9t1.5 -12.5t2 -11.5t1 -6q-2 -4 -21.5 -14.5t-44.5 -22t-48.5 -21.5t-33.5 -12q-11 0 -13.5 11.5t-2.5 22.5q0 43 23 90t65.5 86.5t102 65t133.5 25.5q57 0 106.5 -18.5t86 -50.5t58 -75t21.5 -91v-527q0 -26 24.5 -41.5t55.5 -15.5q18 0 31 5
t22.5 11.5t16 11.5t12.5 5q8 0 9 -6.5t1 -11.5q0 -17 -4.5 -24.5t-15.5 -15.5q-49 -36 -82 -57.5t-56 -33t-38 -15.5t-27 -4q-21 0 -36 11t-26.5 27t-19.5 34.5t-13.5 34.5t-8.5 26t-5 9zM227 199q0 -27 10.5 -50t27.5 -39.5t38.5 -25.5t44.5 -9q21 0 52 10.5t60.5 28
t50.5 40t21 45.5v203q0 11 -8 11q-2 0 -4 -1l-232 -108q-14 -10 -25.5 -18.5t-19.5 -20t-12 -27t-4 -39.5zM238 1263q0 37 14.5 70.5t39.5 59t58.5 40t71.5 14.5t71.5 -14.5t58.5 -40t39.5 -59t14.5 -70.5q0 -38 -14.5 -71.5t-39.5 -58.5t-58.5 -39.5t-71.5 -14.5
t-71.5 14.5t-58.5 39.5t-39.5 58.5t-14.5 71.5zM308 1263q0 -24 9 -45t24 -36t36 -24t45 -9q23 0 43.5 9t36.5 24t25 36t9 45q0 23 -9 43.5t-25 36.5t-36.5 25t-43.5 9q-24 0 -45 -9t-36 -25t-24 -36.5t-9 -43.5z" />
    <glyph glyph-name="ae" unicode="&#xe6;" horiz-adv-x="1378" 
d="M923 -27q-53 0 -100.5 15t-88 42t-74 64t-57.5 81q-33 -35 -83 -76t-109 -77q-17 -11 -31 -19.5t-29 -15.5t-32 -10.5t-39 -3.5q-38 0 -75.5 14.5t-67.5 41t-48.5 64t-18.5 84.5q0 39 12.5 70t46.5 58t92.5 51t151.5 48q50 13 80.5 28t56.5 29q17 9 19.5 16t2.5 13v192
q0 33 -10 63t-29.5 53.5t-48.5 39t-67 18.5q-18 0 -39.5 -7t-41 -22t-32.5 -38t-13 -56q0 -3 0.5 -9t1.5 -12.5t2 -11.5t1 -6q-2 -4 -21.5 -14.5t-44.5 -22t-48.5 -21.5t-33.5 -12q-11 0 -13.5 11.5t-2.5 22.5q0 44 24.5 86t61.5 76t79 58.5t77 33.5q49 13 102 13
q84 0 149 -52q26 -21 45.5 -44t33.5 -51q55 68 132.5 108.5t179.5 40.5q46 0 89 -8t83 -33q15 -8 33 -27t35.5 -43.5t34 -53t29.5 -56t20.5 -52t7.5 -40.5q0 -14 -5 -25.5t-19 -11.5h-580q-6 0 -9.5 -12t-5 -27t-1.5 -29v-18q0 -35 4 -75t12 -74q13 -57 44 -104t74 -81
t96 -52.5t110 -18.5q37 0 76.5 14t70.5 37q7 3 20.5 13t28.5 21.5t27.5 22t18.5 13.5q2 2 5 2h5q6 0 10.5 -6t9.5 -9q0 -15 -13.5 -29t-23.5 -22q-4 -5 -16.5 -16t-27 -22.5t-27.5 -21.5t-19 -14q-54 -40 -117.5 -68t-132.5 -28zM715 643q0 -8 5 -13.5t13 -5.5h367
q26 0 26 23q0 39 -15.5 77t-42.5 67.5t-62.5 48t-75.5 18.5t-75.5 -16.5t-64 -44.5t-48 -65t-27.5 -77v-12zM227 197q0 -27 10.5 -50t27.5 -39.5t38.5 -25.5t44.5 -9q21 0 52 10.5t60.5 28t50.5 40t21 45.5v203q0 11 -8 11q-2 0 -4 -1l-232 -108q-14 -10 -25.5 -18.5
t-19.5 -20t-12 -27t-4 -39.5z" />
    <glyph glyph-name="ccedilla" unicode="&#xe7;" horiz-adv-x="934" 
d="M90 395q1 151 39 253.5t105.5 164.5t159 88.5t199.5 26.5q32 0 68.5 -1.5t70.5 -9t62.5 -25t46.5 -48.5q5 -8 9.5 -18t4.5 -19q0 -38 -23.5 -54t-57.5 -16q-25 0 -44.5 9.5t-36.5 23.5t-32.5 30.5t-32.5 30.5t-37 23.5t-45 9.5q-26 0 -55.5 -10.5t-50.5 -24.5
q-48 -27 -81.5 -65.5t-55 -84t-31.5 -97t-10 -103.5q0 -78 17.5 -149.5t56.5 -126t101 -87t150 -32.5q45 0 86 15t76 40q16 11 31.5 26t28 29t21 23.5t11.5 9.5q9 0 16 -6t7 -14q0 -4 -0.5 -10t-5.5 -11q-51 -71 -114 -120.5t-138 -72.5l-126 -147q41 -11 68 -31.5t43 -43
t22.5 -43.5t6.5 -33q-5 -59 -36 -99.5t-77.5 -66.5t-104 -40.5t-115.5 -20.5q-23 0 -39.5 9.5t-16.5 33.5q0 6 4 14t12 11q13 4 36.5 8t50 9t54 13.5t49.5 22.5t36 35t14 52q0 25 -17 44.5t-40.5 33.5t-49 21.5t-43.5 9.5l152 188h-16q-87 0 -157.5 35t-121 93.5
t-77.5 134.5t-27 159z" />
    <glyph glyph-name="egrave" unicode="&#xe8;" horiz-adv-x="930" 
d="M70 405q0 98 28 192t82.5 167.5t135.5 118t187 44.5q53 0 98 -19t81.5 -50t64.5 -70.5t47 -79t28.5 -76t9.5 -62.5q0 -43 -21 -43h-580q-10 0 -13.5 -18t-3.5 -44q0 -84 25 -153.5t68.5 -119t101.5 -76.5t123 -27q64 0 131.5 28t133.5 90q2 2 5 2h5q6 0 11.5 -9.5
t10.5 -12.5q-32 -39 -75.5 -77.5t-94 -69t-104 -49t-105.5 -18.5q-84 0 -154 37.5t-120.5 98.5t-78 138.5t-27.5 157.5zM242 623q0 -8 5 -13.5t13 -5.5h377q26 0 26 23q0 39 -17.5 80t-46 74.5t-65.5 55t-77 21.5t-75.5 -20t-64 -51.5t-48 -71.5t-27.5 -80v-12zM556 1067
q-4 -4 -8 -4q-2 0 -6 4l-269 217q-20 17 -37.5 40t-17.5 54q0 29 20.5 51.5t51.5 22.5q18 0 37 -11.5t38 -37.5l213 -295q4 -4 4 -6t-4 -6z" />
    <glyph glyph-name="eacute" unicode="&#xe9;" horiz-adv-x="930" 
d="M70 405q0 98 28 192t82.5 167.5t135.5 118t187 44.5q53 0 98 -19t81.5 -50t64.5 -70.5t47 -79t28.5 -76t9.5 -62.5q0 -43 -21 -43h-580q-10 0 -13.5 -18t-3.5 -44q0 -84 25 -153.5t68.5 -119t101.5 -76.5t123 -27q64 0 131.5 28t133.5 90q2 2 5 2h5q6 0 11.5 -9.5
t10.5 -12.5q-32 -39 -75.5 -77.5t-94 -69t-104 -49t-105.5 -18.5q-84 0 -154 37.5t-120.5 98.5t-78 138.5t-27.5 157.5zM242 623q0 -8 5 -13.5t13 -5.5h377q26 0 26 23q0 39 -17.5 80t-46 74.5t-65.5 55t-77 21.5t-75.5 -20t-64 -51.5t-48 -71.5t-27.5 -80v-12zM362 1096
q-4 4 -4 6t4 6l213 295q19 26 38 37.5t37 11.5q31 0 51.5 -22.5t20.5 -51.5q0 -31 -17.5 -54t-37.5 -40l-269 -217q-5 -3 -7 -3q-4 0 -4.5 0.5l-2.5 2.5z" />
    <glyph glyph-name="ecircumflex" unicode="&#xea;" horiz-adv-x="930" 
d="M70 405q0 98 28 192t82.5 167.5t135.5 118t187 44.5q53 0 98 -19t81.5 -50t64.5 -70.5t47 -79t28.5 -76t9.5 -62.5q0 -43 -21 -43h-580q-10 0 -13.5 -18t-3.5 -44q0 -84 25 -153.5t68.5 -119t101.5 -76.5t123 -27q64 0 131.5 28t133.5 90q2 2 5 2h5q6 0 11.5 -9.5
t10.5 -12.5q-32 -39 -75.5 -77.5t-94 -69t-104 -49t-105.5 -18.5q-84 0 -154 37.5t-120.5 98.5t-78 138.5t-27.5 157.5zM242 623q0 -8 5 -13.5t13 -5.5h377q26 0 26 23q0 39 -17.5 80t-46 74.5t-65.5 55t-77 21.5t-75.5 -20t-64 -51.5t-48 -71.5t-27.5 -80v-12zM490 1291
q-3 3 -11 12t-10 9t-9.5 -9t-10.5 -12l-214 -224q-2 -2 -5 -3t-5 -1q-3 0 -7 4t-8 9.5t-7 10.5t-3 8q0 5 7 15l238 323q6 6 12.5 13t11.5 7t12.5 -7t13.5 -15l248 -321q7 -11 7 -15q0 -3 -3 -8t-7 -10.5t-8 -9.5t-7 -4q-4 0 -8 4z" />
    <glyph glyph-name="edieresis" unicode="&#xeb;" horiz-adv-x="930" 
d="M70 405q0 98 28 192t82.5 167.5t135.5 118t187 44.5q53 0 98 -19t81.5 -50t64.5 -70.5t47 -79t28.5 -76t9.5 -62.5q0 -43 -21 -43h-580q-10 0 -13.5 -18t-3.5 -44q0 -84 25 -153.5t68.5 -119t101.5 -76.5t123 -27q64 0 131.5 28t133.5 90q2 2 5 2h5q6 0 11.5 -9.5
t10.5 -12.5q-32 -39 -75.5 -77.5t-94 -69t-104 -49t-105.5 -18.5q-84 0 -154 37.5t-120.5 98.5t-78 138.5t-27.5 157.5zM242 623q0 -8 5 -13.5t13 -5.5h377q26 0 26 23q0 39 -17.5 80t-46 74.5t-65.5 55t-77 21.5t-75.5 -20t-64 -51.5t-48 -71.5t-27.5 -80v-12zM680 1112
q-24 0 -45.5 9t-37.5 24.5t-25 36.5t-9 45q0 25 9 46.5t25 37.5t37.5 25.5t45.5 9.5q25 0 46.5 -9.5t37.5 -25.5t24.5 -37.5t8.5 -46.5q0 -24 -8.5 -45t-24.5 -36.5t-37.5 -24.5t-46.5 -9zM281 1112q-25 0 -46.5 9t-37 24.5t-24.5 36.5t-9 45q0 25 9 46.5t24.5 37.5t37 25.5
t46.5 9.5t46.5 -9.5t37 -25.5t24.5 -37.5t9 -46.5q0 -24 -9 -45t-24.5 -36.5t-37 -24.5t-46.5 -9z" />
    <glyph glyph-name="igrave" unicode="&#xec;" horiz-adv-x="576" 
d="M586 16q0 -14 -10 -16h-446q-10 2 -10 16q0 9 10 13q13 6 37 9.5t48 14t42 33t18 66.5v529q0 24 -13 37.5t-33 20.5t-43 11.5t-44 10.5q-6 2 -9.5 5.5t-3.5 14.5q0 5 3 10t12 10l255 120q4 2 8.5 4t6.5 2q17 0 17 -24v-751q0 -44 18 -66.5t42 -33t48 -14t37 -9.5
q10 -4 10 -13zM399 1067q-4 -4 -8 -4q-2 0 -6 4l-269 217q-20 17 -37.5 40t-17.5 54q0 29 20.5 51.5t51.5 22.5q18 0 37 -11.5t38 -37.5l213 -295q4 -4 4 -6t-4 -6z" />
    <glyph glyph-name="iacute" unicode="&#xed;" horiz-adv-x="576" 
d="M526 16q0 -14 -10 -16h-446q-10 2 -10 16q0 9 10 13q13 6 37 9.5t48 14t42 33t18 66.5v529q0 24 -13 37.5t-33 20.5t-43 11.5t-44 10.5q-6 2 -9.5 5.5t-3.5 14.5q0 5 3 10t12 10l255 120q4 2 8.5 4t6.5 2q17 0 17 -24v-751q0 -44 18 -66.5t42 -33t48 -14t37 -9.5
q10 -4 10 -13zM153 1096q-4 4 -4 6t4 6l213 295q19 26 38 37.5t37 11.5q31 0 51.5 -22.5t20.5 -51.5q0 -31 -17.5 -54t-37.5 -40l-269 -217q-5 -3 -7 -3q-4 0 -4.5 0.5l-2.5 2.5z" />
    <glyph glyph-name="icircumflex" unicode="&#xee;" horiz-adv-x="608" 
d="M590 16q0 -14 -10 -16h-446q-10 2 -10 16q0 9 10 13q13 6 37 9.5t48 14t42 33t18 66.5v529q0 24 -13 37.5t-33 20.5t-43 11.5t-44 10.5q-6 2 -9.5 5.5t-3.5 14.5q0 5 3 10t12 10l255 120q4 2 8.5 4t6.5 2q17 0 17 -24v-751q0 -44 18 -66.5t42 -33t48 -14t37 -9.5
q10 -4 10 -13zM350 1291q-3 3 -11 12t-10 9t-9.5 -9t-10.5 -12l-214 -224q-2 -2 -5 -3t-5 -1q-3 0 -7 4t-8 9.5t-7 10.5t-3 8q0 5 7 15l238 323q6 6 12.5 13t11.5 7t12.5 -7t13.5 -15l248 -321q7 -11 7 -15q0 -3 -3 -8t-7 -10.5t-8 -9.5t-7 -4q-4 0 -8 4z" />
    <glyph glyph-name="idieresis" unicode="&#xef;" horiz-adv-x="691" 
d="M633 16q0 -14 -10 -16h-446q-10 2 -10 16q0 9 10 13q13 6 37 9.5t48 14t42 33t18 66.5v529q0 24 -13 37.5t-33 20.5t-43 11.5t-44 10.5q-6 2 -9.5 5.5t-3.5 14.5q0 5 3 10t12 10l255 120q4 2 8.5 4t6.5 2q17 0 17 -24v-751q0 -44 18 -66.5t42 -33t48 -14t37 -9.5
q10 -4 10 -13zM576 1112q-24 0 -45.5 9t-37.5 24.5t-25 36.5t-9 45q0 25 9 46.5t25 37.5t37.5 25.5t45.5 9.5q25 0 46.5 -9.5t37.5 -25.5t24.5 -37.5t8.5 -46.5q0 -24 -8.5 -45t-24.5 -36.5t-37.5 -24.5t-46.5 -9zM177 1112q-25 0 -46.5 9t-37 24.5t-24.5 36.5t-9 45
q0 25 9 46.5t24.5 37.5t37 25.5t46.5 9.5t46.5 -9.5t37 -25.5t24.5 -37.5t9 -46.5q0 -24 -9 -45t-24.5 -36.5t-37 -24.5t-46.5 -9z" />
    <glyph glyph-name="eth" unicode="&#xf0;" horiz-adv-x="1089" 
d="M527 1334q-51 63 -102 119t-95.5 98.5t-79 68t-51.5 25.5h123q52 -29 126 -93.5t155 -158.5l233 183l59 -78l-231 -180q66 -85 127.5 -186t108.5 -212.5t75.5 -232t28.5 -245.5q0 -100 -35 -185.5t-97 -148.5t-147.5 -99t-187.5 -36q-101 0 -185.5 37t-146 100.5t-96 150
t-34.5 185.5q0 90 36.5 172.5t99 145t144.5 100t174 37.5h2q22 0 51.5 -3t63.5 -11t70.5 -22.5t72.5 -38.5q2 -1 2 13v28q0 33 -16 77t-43.5 95t-64.5 107t-79 112l-221 -173l-59 77zM236 507q0 -53 9 -109.5t26.5 -110t45 -101t65.5 -83t86 -56.5t108 -21q69 0 119 31
t81.5 83t46.5 120t15 142q0 39 -10 86.5t-30 96t-49 94.5t-67 81.5t-85.5 57t-102.5 21.5q-65 0 -113.5 -30t-80.5 -78t-48 -107t-16 -117z" />
    <glyph glyph-name="ntilde" unicode="&#xf1;" horiz-adv-x="1164" 
d="M331 970q4 2 8.5 4t6.5 2q17 0 17 -24v-156q3 -10 8 -10t7.5 1t8.5 3q64 33 111 55.5t81 38t57.5 24t41.5 13t32 5.5t29 1q49 0 85 -21t60.5 -55.5t40 -79t23.5 -91t11 -92t3 -82.5q0 -69 -4.5 -138.5t-4.5 -153.5v-58q0 -30 11 -50t28.5 -33t38.5 -19.5t41 -10.5
t36.5 -6.5t25.5 -6.5q10 -4 10 -14q0 -14 -10 -16h-482q-10 2 -10 16q0 10 10 14q13 6 37 9.5t48 15t41.5 36.5t17.5 73q5 31 6.5 68.5t1.5 82.5t-1 96.5t-1 114.5q0 49 -4.5 99.5t-22 92t-51.5 68t-94 26.5q-10 0 -25 -2.5t-41.5 -11.5t-68.5 -27t-106 -49
q-8 -5 -16.5 -11.5t-9.5 -16.5v-538q0 -45 18 -68.5t42 -34t48 -14t37 -9.5q10 -4 10 -14q0 -14 -10 -16h-446q-10 2 -10 16q0 10 10 14q13 6 37 9.5t48 14t42 34t18 68.5v574q0 24 -13 37.5t-33 20.5t-43 11.5t-44 10.5q-6 2 -9.5 5.5t-3.5 14.5q0 5 3 10t12 10zM863 1368
q5 0 7.5 -5t4 -11.5t2 -13.5t0.5 -11q0 -33 -11 -67t-32 -62t-51 -45.5t-68 -17.5q-41 0 -79 16t-74.5 35.5t-73.5 36t-76 16.5q-14 0 -29.5 -9t-28.5 -24.5t-21.5 -36.5t-8.5 -45q0 -8 -5 -10t-11 -2h-21q-8 0 -8 16q0 46 11 88t31 73t49 49.5t65 18.5q42 0 82 -16.5
t79.5 -36t79 -36t78.5 -16.5q18 0 32 10t23.5 25.5t14 33.5t4.5 33q0 6 5 10t11 4h19z" />
    <glyph glyph-name="ograve" unicode="&#xf2;" horiz-adv-x="1107" 
d="M75 460q0 93 37.5 177.5t101.5 149.5t149 103.5t179 38.5q99 0 188 -36t156 -100t106.5 -150.5t39.5 -186.5q0 -103 -36 -191t-100 -153t-152 -102t-193 -37q-104 0 -191 38t-150.5 103.5t-99 154.5t-35.5 191zM241 523q0 -83 20.5 -170.5t63 -160t108.5 -119t158 -46.5
q71 0 122 31.5t84 81.5t48.5 112t15.5 124q0 49 -10.5 104.5t-31 110t-50.5 104t-69.5 87.5t-88 60.5t-105.5 22.5q-67 0 -117 -31t-83 -80.5t-49 -110.5t-16 -120zM698 1067q-4 -4 -8 -4q-2 0 -6 4l-269 217q-20 17 -37.5 40t-17.5 54q0 29 20.5 51.5t51.5 22.5
q18 0 37 -11.5t38 -37.5l213 -295q4 -4 4 -6t-4 -6z" />
    <glyph glyph-name="oacute" unicode="&#xf3;" horiz-adv-x="1107" 
d="M75 460q0 93 37.5 177.5t101.5 149.5t149 103.5t179 38.5q99 0 188 -36t156 -100t106.5 -150.5t39.5 -186.5q0 -103 -36 -191t-100 -153t-152 -102t-193 -37q-104 0 -191 38t-150.5 103.5t-99 154.5t-35.5 191zM241 523q0 -83 20.5 -170.5t63 -160t108.5 -119t158 -46.5
q71 0 122 31.5t84 81.5t48.5 112t15.5 124q0 49 -10.5 104.5t-31 110t-50.5 104t-69.5 87.5t-88 60.5t-105.5 22.5q-67 0 -117 -31t-83 -80.5t-49 -110.5t-16 -120zM422 1096q-4 4 -4 6t4 6l213 295q19 26 38 37.5t37 11.5q31 0 51.5 -22.5t20.5 -51.5q0 -31 -17.5 -54
t-37.5 -40l-269 -217q-5 -3 -7 -3q-4 0 -4.5 0.5l-2.5 2.5z" />
    <glyph glyph-name="ocircumflex" unicode="&#xf4;" horiz-adv-x="1107" 
d="M75 460q0 93 37.5 177.5t101.5 149.5t149 103.5t179 38.5q99 0 188 -36t156 -100t106.5 -150.5t39.5 -186.5q0 -103 -36 -191t-100 -153t-152 -102t-193 -37q-104 0 -191 38t-150.5 103.5t-99 154.5t-35.5 191zM241 523q0 -83 20.5 -170.5t63 -160t108.5 -119t158 -46.5
q71 0 122 31.5t84 81.5t48.5 112t15.5 124q0 49 -10.5 104.5t-31 110t-50.5 104t-69.5 87.5t-88 60.5t-105.5 22.5q-67 0 -117 -31t-83 -80.5t-49 -110.5t-16 -120zM574 1291q-3 3 -11 12t-10 9t-9.5 -9t-10.5 -12l-214 -224q-2 -2 -5 -3t-5 -1q-3 0 -7 4t-8 9.5t-7 10.5
t-3 8q0 5 7 15l238 323q6 6 12.5 13t11.5 7t12.5 -7t13.5 -15l248 -321q7 -11 7 -15q0 -3 -3 -8t-7 -10.5t-8 -9.5t-7 -4q-4 0 -8 4z" />
    <glyph glyph-name="otilde" unicode="&#xf5;" horiz-adv-x="1102" 
d="M75 460q0 93 37.5 177.5t101.5 149.5t149 103.5t179 38.5q99 0 188 -36t156 -100t106.5 -150.5t39.5 -186.5q0 -103 -36 -191t-100 -153t-152 -102t-193 -37q-104 0 -191 38t-150.5 103.5t-99 154.5t-35.5 191zM241 523q0 -83 20.5 -170.5t63 -160t108.5 -119t158 -46.5
q71 0 122 31.5t84 81.5t48.5 112t15.5 124q0 49 -10.5 104.5t-31 110t-50.5 104t-69.5 87.5t-88 60.5t-105.5 22.5q-67 0 -117 -31t-83 -80.5t-49 -110.5t-16 -120zM838 1368q5 0 7.5 -5t4 -11.5t2 -13.5t0.5 -11q0 -33 -11 -67t-32 -62t-51 -45.5t-68 -17.5q-41 0 -79 16
t-74.5 35.5t-73.5 36t-76 16.5q-14 0 -29.5 -9t-28.5 -24.5t-21.5 -36.5t-8.5 -45q0 -8 -5 -10t-11 -2h-21q-8 0 -8 16q0 46 11 88t31 73t49 49.5t65 18.5q42 0 82 -16.5t79.5 -36t79 -36t78.5 -16.5q18 0 32 10t23.5 25.5t14 33.5t4.5 33q0 6 5 10t11 4h19z" />
    <glyph glyph-name="odieresis" unicode="&#xf6;" horiz-adv-x="1107" 
d="M75 460q0 93 37.5 177.5t101.5 149.5t149 103.5t179 38.5q99 0 188 -36t156 -100t106.5 -150.5t39.5 -186.5q0 -103 -36 -191t-100 -153t-152 -102t-193 -37q-104 0 -191 38t-150.5 103.5t-99 154.5t-35.5 191zM241 523q0 -83 20.5 -170.5t63 -160t108.5 -119t158 -46.5
q71 0 122 31.5t84 81.5t48.5 112t15.5 124q0 49 -10.5 104.5t-31 110t-50.5 104t-69.5 87.5t-88 60.5t-105.5 22.5q-67 0 -117 -31t-83 -80.5t-49 -110.5t-16 -120zM759 1112q-24 0 -45.5 9t-37.5 24.5t-25 36.5t-9 45q0 25 9 46.5t25 37.5t37.5 25.5t45.5 9.5
q25 0 46.5 -9.5t37.5 -25.5t24.5 -37.5t8.5 -46.5q0 -24 -8.5 -45t-24.5 -36.5t-37.5 -24.5t-46.5 -9zM360 1112q-25 0 -46.5 9t-37 24.5t-24.5 36.5t-9 45q0 25 9 46.5t24.5 37.5t37 25.5t46.5 9.5t46.5 -9.5t37 -25.5t24.5 -37.5t9 -46.5q0 -24 -9 -45t-24.5 -36.5
t-37 -24.5t-46.5 -9z" />
    <glyph glyph-name="divide" unicode="&#xf7;" horiz-adv-x="1049" 
d="M88 690h872v-127h-872v127zM410 270q0 25 9 46.5t24.5 37.5t37 25.5t45.5 9.5q25 0 46 -9.5t37 -25.5t25 -37.5t9 -46.5q0 -24 -9 -45t-25 -36.5t-37 -25t-46 -9.5q-24 0 -45.5 9.5t-37 25t-24.5 36.5t-9 45zM410 975q0 24 9 45.5t24.5 37.5t37 25t45.5 9q25 0 46 -9
t37 -25t25 -37.5t9 -45.5q0 -25 -9 -46.5t-25 -37.5t-37 -25.5t-46 -9.5q-24 0 -45.5 9.5t-37 25.5t-24.5 37.5t-9 46.5z" />
    <glyph glyph-name="oslash" unicode="&#xf8;" horiz-adv-x="1155" 
d="M60 -50l170 172q-60 66 -93.5 152t-33.5 186q0 93 37.5 177.5t101.5 149.5t149 103.5t179 38.5q87 0 165.5 -28t143.5 -78l139 139l67 -62l-140 -140q54 -62 84.5 -139t30.5 -165q0 -103 -36 -191t-100 -153t-152 -102t-193 -37q-81 0 -152 23t-129 65l-175 -176z
M269 523q0 -72 15 -148t47 -143l451 486q-45 64 -107 105.5t-141 41.5q-67 0 -117 -31t-83 -80.5t-49 -110.5t-16 -120zM889 376q0 60 -15 127.5t-45 131.5l-449 -485q42 -56 101.5 -89.5t137.5 -33.5q71 0 122 31.5t84 81.5t48.5 112t15.5 124z" />
    <glyph glyph-name="ugrave" unicode="&#xf9;" horiz-adv-x="1124" 
d="M164 736q-3 29 -26.5 49.5t-50.5 26.5q-7 2 -15.5 2.5t-15.5 2t-11.5 5t-4.5 12.5q0 8 2.5 14t13.5 9l229 66q6 2 12.5 3t12.5 1q10 0 10 -17v-671q0 -37 18 -64.5t47.5 -45.5t68 -27t79.5 -9q33 0 65.5 7.5t62 20.5t53.5 31.5t40 41.5v542q-3 29 -26.5 49.5t-50.5 26.5
q-7 2 -15.5 2.5t-15.5 2t-11.5 5t-4.5 12.5q0 8 2.5 14t13.5 9l229 66q6 2 12.5 3t12.5 1q4 0 7 -3.5t3 -16.5v-710q5 -44 25 -63t65 -19l58 4q4 0 5 -5.5t1 -11.5q0 -2 -2.5 -5t-12.5 -8l-266 -110q-2 -1 -10 -3.5t-9 -2.5q-7 0 -8.5 8.5t-1.5 16.5v90q-2 7 -4 8.5t-6 1.5
q-5 0 -8 -2t-8 -4q-35 -18 -78.5 -39t-91.5 -39t-98.5 -30t-99.5 -12q-28 0 -62 7.5t-64 25.5t-50 47.5t-20 73.5v610v0zM658 1067q-4 -4 -8 -4q-2 0 -6 4l-269 217q-20 17 -37.5 40t-17.5 54q0 29 20.5 51.5t51.5 22.5q18 0 37 -11.5t38 -37.5l213 -295q4 -4 4 -6t-4 -6z
" />
    <glyph glyph-name="uacute" unicode="&#xfa;" horiz-adv-x="1122" 
d="M164 736q-3 29 -26.5 49.5t-50.5 26.5q-7 2 -15.5 2.5t-15.5 2t-11.5 5t-4.5 12.5q0 8 2.5 14t13.5 9l229 66q6 2 12.5 3t12.5 1q10 0 10 -17v-671q0 -37 18 -64.5t47.5 -45.5t68 -27t79.5 -9q33 0 65.5 7.5t62 20.5t53.5 31.5t40 41.5v542q-3 29 -26.5 49.5t-50.5 26.5
q-7 2 -15.5 2.5t-15.5 2t-11.5 5t-4.5 12.5q0 8 2.5 14t13.5 9l229 66q6 2 12.5 3t12.5 1q4 0 7 -3.5t3 -16.5v-710q5 -44 25 -63t65 -19l58 4q4 0 5 -5.5t1 -11.5q0 -2 -2.5 -5t-12.5 -8l-266 -110q-2 -1 -10 -3.5t-9 -2.5q-7 0 -8.5 8.5t-1.5 16.5v90q-2 7 -4 8.5t-6 1.5
q-5 0 -8 -2t-8 -4q-35 -18 -78.5 -39t-91.5 -39t-98.5 -30t-99.5 -12q-28 0 -62 7.5t-64 25.5t-50 47.5t-20 73.5v610v0zM452 1096q-4 4 -4 6t4 6l213 295q19 26 38 37.5t37 11.5q31 0 51.5 -22.5t20.5 -51.5q0 -31 -17.5 -54t-37.5 -40l-269 -217q-5 -3 -7 -3
q-4 0 -4.5 0.5l-2.5 2.5z" />
    <glyph glyph-name="ucircumflex" unicode="&#xfb;" horiz-adv-x="1122" 
d="M164 736q-3 29 -26.5 49.5t-50.5 26.5q-7 2 -15.5 2.5t-15.5 2t-11.5 5t-4.5 12.5q0 8 2.5 14t13.5 9l229 66q6 2 12.5 3t12.5 1q10 0 10 -17v-671q0 -37 18 -64.5t47.5 -45.5t68 -27t79.5 -9q33 0 65.5 7.5t62 20.5t53.5 31.5t40 41.5v542q-3 29 -26.5 49.5t-50.5 26.5
q-7 2 -15.5 2.5t-15.5 2t-11.5 5t-4.5 12.5q0 8 2.5 14t13.5 9l229 66q6 2 12.5 3t12.5 1q4 0 7 -3.5t3 -16.5v-710q5 -44 25 -63t65 -19l58 4q4 0 5 -5.5t1 -11.5q0 -2 -2.5 -5t-12.5 -8l-266 -110q-2 -1 -10 -3.5t-9 -2.5q-7 0 -8.5 8.5t-1.5 16.5v90q-2 7 -4 8.5t-6 1.5
q-5 0 -8 -2t-8 -4q-35 -18 -78.5 -39t-91.5 -39t-98.5 -30t-99.5 -12q-28 0 -62 7.5t-64 25.5t-50 47.5t-20 73.5v610v0zM519 1291q-3 3 -11 12t-10 9t-9.5 -9t-10.5 -12l-214 -224q-2 -2 -5 -3t-5 -1q-3 0 -7 4t-8 9.5t-7 10.5t-3 8q0 5 7 15l238 323q6 6 12.5 13t11.5 7
t12.5 -7t13.5 -15l248 -321q7 -11 7 -15q0 -3 -3 -8t-7 -10.5t-8 -9.5t-7 -4q-4 0 -8 4z" />
    <glyph glyph-name="udieresis" unicode="&#xfc;" horiz-adv-x="1122" 
d="M164 736q-3 29 -26.5 49.5t-50.5 26.5q-7 2 -15.5 2.5t-15.5 2t-11.5 5t-4.5 12.5q0 8 2.5 14t13.5 9l229 66q6 2 12.5 3t12.5 1q10 0 10 -17v-671q0 -37 18 -64.5t47.5 -45.5t68 -27t79.5 -9q33 0 65.5 7.5t62 20.5t53.5 31.5t40 41.5v542q-3 29 -26.5 49.5t-50.5 26.5
q-7 2 -15.5 2.5t-15.5 2t-11.5 5t-4.5 12.5q0 8 2.5 14t13.5 9l229 66q6 2 12.5 3t12.5 1q4 0 7 -3.5t3 -16.5v-710q5 -44 25 -63t65 -19l58 4q4 0 5 -5.5t1 -11.5q0 -2 -2.5 -5t-12.5 -8l-266 -110q-2 -1 -10 -3.5t-9 -2.5q-7 0 -8.5 8.5t-1.5 16.5v90q-2 7 -4 8.5t-6 1.5
q-5 0 -8 -2t-8 -4q-35 -18 -78.5 -39t-91.5 -39t-98.5 -30t-99.5 -12q-28 0 -62 7.5t-64 25.5t-50 47.5t-20 73.5v610v0zM739 1112q-24 0 -45.5 9t-37.5 24.5t-25 36.5t-9 45q0 25 9 46.5t25 37.5t37.5 25.5t45.5 9.5q25 0 46.5 -9.5t37.5 -25.5t24.5 -37.5t8.5 -46.5
q0 -24 -8.5 -45t-24.5 -36.5t-37.5 -24.5t-46.5 -9zM340 1112q-25 0 -46.5 9t-37 24.5t-24.5 36.5t-9 45q0 25 9 46.5t24.5 37.5t37 25.5t46.5 9.5t46.5 -9.5t37 -25.5t24.5 -37.5t9 -46.5q0 -24 -9 -45t-24.5 -36.5t-37 -24.5t-46.5 -9z" />
    <glyph glyph-name="yacute" unicode="&#xfd;" horiz-adv-x="1097" 
d="M343 -403q51 114 83.5 189t51 119t26 62t7.5 20q0 12 -6 23.5t-14 21.5l-330 689q-17 46 -49 80.5t-78 49.5q-7 2 -17 3t-19.5 3t-16 7t-6.5 16q0 20 24 20h445q6 0 7 -7t1 -10q0 -14 -11.5 -18.5t-28.5 -5.5t-36.5 -1t-36.5 -4.5t-28.5 -17t-11.5 -38.5q0 -3 4.5 -12.5
t4.5 -11.5l259 -555q2 -5 6.5 -14.5t12.5 -9.5q4 0 8.5 4.5t7.5 10.5t5 11.5t3 7.5q46 118 78.5 201.5t53.5 140t33 90.5t18 53.5t7 28.5t1 16q0 35 -22 58t-54 34q-9 3 -22.5 3t-26 1.5t-22 7.5t-9.5 20q0 8 7 12.5t15 4.5h379q8 -2 9.5 -7.5t1.5 -10.5q0 -7 -2 -10.5
t-9.5 -6t-21 -4.5t-35.5 -6q-21 -4 -37.5 -19t-29.5 -35t-23 -43t-18 -42l-470 -1165l-65 -138q-8 -17 -20.5 -27.5t-27 -16t-29.5 -7.5t-28 -2q-35 0 -56 23t-21 58q0 28 15.5 42.5t36.5 23.5t43.5 16.5t37.5 21.5l11 11t14 14.5t13 14.5t8 12zM482 1096q-4 4 -4 6t4 6
l213 295q19 26 38 37.5t37 11.5q31 0 51.5 -22.5t20.5 -51.5q0 -31 -17.5 -54t-37.5 -40l-269 -217q-5 -3 -7 -3q-4 0 -4.5 0.5l-2.5 2.5z" />
    <glyph glyph-name="thorn" unicode="&#xfe;" horiz-adv-x="1089" 
d="M291 1639q4 2 8.5 4t6.5 2q17 0 17 -24v-795q0 -5 4.5 -8t7.5 -3q11 0 18 7q81 50 152 77t149 27q52 0 96 -21.5t80.5 -57t64.5 -82.5t46.5 -98t28.5 -103t10 -97q0 -72 -19 -137t-54 -121.5t-84 -103.5t-110 -81q-42 -23 -90 -37t-98 -14q-45 0 -87.5 6t-93.5 17
q-17 0 -18.5 -12t-2.5 -25v-427q0 -30 12.5 -49t32 -31.5t43 -19t45.5 -10.5t40 -6.5t27 -6.5q10 -4 10 -13q0 -14 -10 -16h-501q-10 2 -10 16q0 9 10 13q13 6 37 9.5t48 14t42 33t18 66.5v1867q0 24 -13 37.5t-33 20.5t-43 11.5t-44 10.5q-6 2 -9.5 5.5t-3.5 14.5q0 5 3 10
t12 10zM537 822q-54 0 -103.5 -15t-95.5 -49q-2 -1 -4.5 -3.5l-4.5 -4.5l-6 -6v-562q0 -3 1 -16.5t3 -24.5q2 -14 16.5 -26.5t35.5 -23t46.5 -19t49.5 -14t44.5 -8.5t32.5 -3q66 0 117 26.5t86 71t53 101.5t18 118q0 47 -5.5 98.5t-18.5 101.5t-35 95.5t-54 81t-75.5 57
t-100.5 24.5z" />
    <glyph glyph-name="ydieresis" unicode="&#xff;" horiz-adv-x="1097" 
d="M343 -403q51 114 83.5 189t51 119t26 62t7.5 20q0 12 -6 23.5t-14 21.5l-330 689q-17 46 -49 80.5t-78 49.5q-7 2 -17 3t-19.5 3t-16 7t-6.5 16q0 20 24 20h445q6 0 7 -7t1 -10q0 -14 -11.5 -18.5t-28.5 -5.5t-36.5 -1t-36.5 -4.5t-28.5 -17t-11.5 -38.5q0 -3 4.5 -12.5
t4.5 -11.5l259 -555q2 -5 6.5 -14.5t12.5 -9.5q4 0 8.5 4.5t7.5 10.5t5 11.5t3 7.5q46 118 78.5 201.5t53.5 140t33 90.5t18 53.5t7 28.5t1 16q0 35 -22 58t-54 34q-9 3 -22.5 3t-26 1.5t-22 7.5t-9.5 20q0 8 7 12.5t15 4.5h379q8 -2 9.5 -7.5t1.5 -10.5q0 -7 -2 -10.5
t-9.5 -6t-21 -4.5t-35.5 -6q-21 -4 -37.5 -19t-29.5 -35t-23 -43t-18 -42l-470 -1165l-65 -138q-8 -17 -20.5 -27.5t-27 -16t-29.5 -7.5t-28 -2q-35 0 -56 23t-21 58q0 28 15.5 42.5t36.5 23.5t43.5 16.5t37.5 21.5l11 11t14 14.5t13 14.5t8 12zM749 1112q-24 0 -45.5 9
t-37.5 24.5t-25 36.5t-9 45q0 25 9 46.5t25 37.5t37.5 25.5t45.5 9.5q25 0 46.5 -9.5t37.5 -25.5t24.5 -37.5t8.5 -46.5q0 -24 -8.5 -45t-24.5 -36.5t-37.5 -24.5t-46.5 -9zM350 1112q-25 0 -46.5 9t-37 24.5t-24.5 36.5t-9 45q0 25 9 46.5t24.5 37.5t37 25.5t46.5 9.5
t46.5 -9.5t37 -25.5t24.5 -37.5t9 -46.5q0 -24 -9 -45t-24.5 -36.5t-37 -24.5t-46.5 -9z" />
    <glyph glyph-name="Amacron" unicode="&#x100;" horiz-adv-x="1457" 
d="M5 32q0 8 8 8q19 1 44.5 5.5t52 19t51.5 43t42 78.5l408 1181q0 -1 0.5 1t0.5 4q0 7 -5.5 17.5t-5.5 15.5t4 5h200q2 -1 5.5 -2t5.5 -6l423 -1187q14 -27 22.5 -49t19.5 -40.5t29 -34t50 -28.5q14 -7 38 -15t46 -8q5 0 6.5 -3t1.5 -6v-23q0 -2 -1.5 -5t-6.5 -3h-612
q-5 0 -6.5 3t-1.5 5v24q0 2 1.5 5t6.5 3q4 0 8 0.5t6 0.5q11 1 31.5 2t44.5 3.5t48.5 8t44.5 16t33 27.5t13 42q0 6 -2 14l-151 426q-1 2 -3.5 9t-8 14.5t-14 13.5t-20.5 6h-355q-13 0 -22 -6t-15 -13t-9.5 -14t-3.5 -8l-150 -439v-9t2 -9q8 -25 29.5 -41.5t49.5 -26
t57.5 -13.5t52.5 -4h26q5 0 6.5 -3t1.5 -5v-24q0 -2 -1.5 -5t-6.5 -3h-511q-8 0 -8 8v24zM522 767q-2 -5 -3 -10t-1 -10q0 -6 3 -9.5t12 -3.5h295q11 0 14.5 4.5t3.5 10.5q0 5 -1 9t-3 9l-149 410q-10 27 -15 27t-8 -7.5t-8 -20.5zM396 1864h647v-129h-647v129z" />
    <glyph glyph-name="amacron" unicode="&#x101;" horiz-adv-x="872" 
d="M528 115q-60 -45 -98 -72.5t-64 -42.5t-45 -20t-41 -5q-38 0 -75.5 14.5t-67.5 41t-48.5 64t-18.5 84.5q0 39 12.5 70t46.5 58t92.5 51t151.5 48q50 13 80.5 28t56.5 29q17 9 19.5 16t2.5 13v192q0 33 -10 64.5t-29.5 55.5t-48.5 39t-67 15q-18 0 -39.5 -7t-41 -22
t-32.5 -38t-13 -56q0 -3 0.5 -9t1.5 -12.5t2 -11.5t1 -6q-2 -4 -21.5 -14.5t-44.5 -22t-48.5 -21.5t-33.5 -12q-11 0 -13.5 11.5t-2.5 22.5q0 43 23 90t65.5 86.5t102 65t133.5 25.5q57 0 106.5 -18.5t86 -50.5t58 -75t21.5 -91v-527q0 -26 24.5 -41.5t55.5 -15.5q18 0 31 5
t22.5 11.5t16 11.5t12.5 5q8 0 9 -6.5t1 -11.5q0 -17 -4.5 -24.5t-15.5 -15.5q-49 -36 -82 -57.5t-56 -33t-38 -15.5t-27 -4q-21 0 -36 11t-26.5 27t-19.5 34.5t-13.5 34.5t-8.5 26t-5 9zM227 199q0 -27 10.5 -50t27.5 -39.5t38.5 -25.5t44.5 -9q21 0 52 10.5t60.5 28
t50.5 40t21 45.5v203q0 11 -8 11q-2 0 -4 -1l-232 -108q-14 -10 -25.5 -18.5t-19.5 -20t-12 -27t-4 -39.5zM100 1322h647v-129h-647v129z" />
    <glyph glyph-name="Abreve" unicode="&#x102;" horiz-adv-x="1457" 
d="M5 32q0 8 8 8q19 1 44.5 5.5t52 19t51.5 43t42 78.5l408 1181q0 -1 0.5 1t0.5 4q0 7 -5.5 17.5t-5.5 15.5t4 5h200q2 -1 5.5 -2t5.5 -6l423 -1187q14 -27 22.5 -49t19.5 -40.5t29 -34t50 -28.5q14 -7 38 -15t46 -8q5 0 6.5 -3t1.5 -6v-23q0 -2 -1.5 -5t-6.5 -3h-612
q-5 0 -6.5 3t-1.5 5v24q0 2 1.5 5t6.5 3q4 0 8 0.5t6 0.5q11 1 31.5 2t44.5 3.5t48.5 8t44.5 16t33 27.5t13 42q0 6 -2 14l-151 426q-1 2 -3.5 9t-8 14.5t-14 13.5t-20.5 6h-355q-13 0 -22 -6t-15 -13t-9.5 -14t-3.5 -8l-150 -439v-9t2 -9q8 -25 29.5 -41.5t49.5 -26
t57.5 -13.5t52.5 -4h26q5 0 6.5 -3t1.5 -5v-24q0 -2 -1.5 -5t-6.5 -3h-511q-8 0 -8 8v24zM522 767q-2 -5 -3 -10t-1 -10q0 -6 3 -9.5t12 -3.5h295q11 0 14.5 4.5t3.5 10.5q0 5 -1 9t-3 9l-149 410q-10 27 -15 27t-8 -7.5t-8 -20.5zM721 1638q-58 0 -107.5 26t-86 69.5
t-57.5 99.5t-21 117h31q0 -45 23.5 -80.5t59.5 -60.5t78 -38.5t80 -13.5q37 0 79 19t76.5 47.5t57.5 62.5t23 64h33q0 -56 -21.5 -111.5t-58.5 -100t-86 -72.5t-103 -28z" />
    <glyph glyph-name="abreve" unicode="&#x103;" horiz-adv-x="872" 
d="M528 115q-60 -45 -98 -72.5t-64 -42.5t-45 -20t-41 -5q-38 0 -75.5 14.5t-67.5 41t-48.5 64t-18.5 84.5q0 39 12.5 70t46.5 58t92.5 51t151.5 48q50 13 80.5 28t56.5 29q17 9 19.5 16t2.5 13v192q0 33 -10 64.5t-29.5 55.5t-48.5 39t-67 15q-18 0 -39.5 -7t-41 -22
t-32.5 -38t-13 -56q0 -3 0.5 -9t1.5 -12.5t2 -11.5t1 -6q-2 -4 -21.5 -14.5t-44.5 -22t-48.5 -21.5t-33.5 -12q-11 0 -13.5 11.5t-2.5 22.5q0 43 23 90t65.5 86.5t102 65t133.5 25.5q57 0 106.5 -18.5t86 -50.5t58 -75t21.5 -91v-527q0 -26 24.5 -41.5t55.5 -15.5q18 0 31 5
t22.5 11.5t16 11.5t12.5 5q8 0 9 -6.5t1 -11.5q0 -17 -4.5 -24.5t-15.5 -15.5q-49 -36 -82 -57.5t-56 -33t-38 -15.5t-27 -4q-21 0 -36 11t-26.5 27t-19.5 34.5t-13.5 34.5t-8.5 26t-5 9zM227 199q0 -27 10.5 -50t27.5 -39.5t38.5 -25.5t44.5 -9q21 0 52 10.5t60.5 28
t50.5 40t21 45.5v203q0 11 -8 11q-2 0 -4 -1l-232 -108q-14 -10 -25.5 -18.5t-19.5 -20t-12 -27t-4 -39.5zM424 1096q-58 0 -107.5 26t-86 69.5t-57.5 99.5t-21 117h31q0 -45 23.5 -80.5t59.5 -60.5t78 -38.5t80 -13.5q37 0 79 19t76.5 47.5t57.5 62.5t23 64h33
q0 -56 -21.5 -111.5t-58.5 -100t-86 -72.5t-103 -28z" />
    <glyph glyph-name="Aogonek" unicode="&#x104;" horiz-adv-x="1457" 
d="M5 32q0 8 8 8q19 1 44.5 5.5t52 19t51.5 43t42 78.5l408 1181q0 -1 0.5 1t0.5 4q0 7 -5.5 17.5t-5.5 15.5t4 5h200q2 -1 5.5 -2t5.5 -6l423 -1187q14 -27 22.5 -49t19.5 -40.5t29 -34t50 -28.5q14 -7 38 -15t46 -8q5 0 6.5 -3t1.5 -6v-23q0 -2 -1.5 -5t-6.5 -3h-612
q-5 0 -6.5 3t-1.5 5v24q0 2 1.5 5t6.5 3q4 0 8 0.5t6 0.5q11 1 31.5 2t44.5 3.5t48.5 8t44.5 16t33 27.5t13 42q0 6 -2 14l-151 426q-1 2 -3.5 9t-8 14.5t-14 13.5t-20.5 6h-355q-13 0 -22 -6t-15 -13t-9.5 -14t-3.5 -8l-150 -439v-9t2 -9q8 -25 29.5 -41.5t49.5 -26
t57.5 -13.5t52.5 -4h26q5 0 6.5 -3t1.5 -5v-24q0 -2 -1.5 -5t-6.5 -3h-511q-8 0 -8 8v24zM522 767q-2 -5 -3 -10t-1 -10q0 -6 3 -9.5t12 -3.5h295q11 0 14.5 4.5t3.5 10.5q0 5 -1 9t-3 9l-149 410q-10 27 -15 27t-8 -7.5t-8 -20.5zM1321 0q-2 -1 -15 -15.5t-29.5 -33
t-30.5 -36t-17 -24.5q-21 -35 -33.5 -65.5t-19 -55.5t-8.5 -45t-2 -34q0 -33 11.5 -59.5t31.5 -45.5t47.5 -29t60.5 -10q11 0 27 2t33 2q14 0 23 -5.5t9 -18.5q0 -16 -12.5 -27.5t-32 -18.5t-42.5 -10t-44 -3q-42 0 -86 8t-79.5 29t-58.5 58t-23 95q0 48 18.5 97.5t48 95
t66.5 84t75 65.5h82z" />
    <glyph glyph-name="aogonek" unicode="&#x105;" horiz-adv-x="872" 
d="M528 115q-60 -45 -98 -72.5t-64 -42.5t-45 -20t-41 -5q-38 0 -75.5 14.5t-67.5 41t-48.5 64t-18.5 84.5q0 39 12.5 70t46.5 58t92.5 51t151.5 48q50 13 80.5 28t56.5 29q17 9 19.5 16t2.5 13v192q0 33 -10 64.5t-29.5 55.5t-48.5 39t-67 15q-18 0 -39.5 -7t-41 -22
t-32.5 -38t-13 -56q0 -3 0.5 -9t1.5 -12.5t2 -11.5t1 -6q-2 -4 -21.5 -14.5t-44.5 -22t-48.5 -21.5t-33.5 -12q-11 0 -13.5 11.5t-2.5 22.5q0 43 23 90t65.5 86.5t102 65t133.5 25.5q57 0 106.5 -18.5t86 -50.5t58 -75t21.5 -91v-527q0 -26 24.5 -41.5t55.5 -15.5q18 0 31 5
t22.5 11.5t16 11.5t12.5 5q8 0 9 -6.5t1 -11.5q0 -17 -4.5 -24.5t-15.5 -15.5q-49 -36 -82 -57.5t-56 -33t-38 -15.5t-27 -4q-21 0 -36 11t-26.5 27t-19.5 34.5t-13.5 34.5t-8.5 26t-5 9zM227 199q0 -27 10.5 -50t27.5 -39.5t38.5 -25.5t44.5 -9q21 0 52 10.5t60.5 28
t50.5 40t21 45.5v203q0 11 -8 11q-2 0 -4 -1l-232 -108q-14 -10 -25.5 -18.5t-19.5 -20t-12 -27t-4 -39.5zM701 0q-2 -1 -15 -15.5t-29.5 -33t-30.5 -36t-17 -24.5q-21 -35 -33.5 -65.5t-19 -55.5t-8.5 -45t-2 -34q0 -33 11.5 -59.5t31.5 -45.5t47.5 -29t60.5 -10q11 0 27 2
t33 2q14 0 23 -5.5t9 -18.5q0 -16 -12.5 -27.5t-32 -18.5t-42.5 -10t-44 -3q-42 0 -86 8t-79.5 29t-58.5 58t-23 95q0 48 18.5 97.5t48 95t66.5 84t75 65.5h82z" />
    <glyph glyph-name="Cacute" unicode="&#x106;" horiz-adv-x="1566" 
d="M105 696q0 112 28 211.5t79 183.5t123 151t159.5 113.5t187.5 71.5t209 25q92 0 177.5 -16.5t176.5 -38.5q15 -4 31.5 -10t31 -11.5t26.5 -9.5t18 -4q2 0 13.5 4t16.5 4h31q12 0 12 -17v-311q0 -6 -4.5 -8t-19.5 -2q-3 0 -8 0.5t-8 5.5q-2 3 -5 9.5t-6.5 13.5t-7 13
t-4.5 9q-75 150 -190 225.5t-265 75.5q-142 0 -251 -48t-183.5 -132t-112.5 -199.5t-38 -250.5q0 -95 19 -184.5t55.5 -168.5t90.5 -144.5t124.5 -113t157 -74t187.5 -26.5q85 0 161 28t139.5 74t113.5 105t84 121q2 5 4.5 5.5t7.5 0.5h13q3 0 6.5 -2.5t3.5 -10.5
q0 -3 -0.5 -8t-5.5 -14l-138 -304q-2 -3 -6 -5t-7 -2q-23 6 -32.5 7t-20.5 1q-30 0 -77.5 -10.5t-102 -22.5t-110.5 -22.5t-102 -10.5q-105 0 -204 23t-186 66.5t-159 107t-124 143.5t-80.5 176.5t-28.5 206.5zM722 1594q-4 4 -4 6t4 6l213 295q19 26 38 37.5t37 11.5
q31 0 51.5 -22.5t20.5 -51.5q0 -31 -17.5 -54t-37.5 -40l-269 -217q-5 -3 -7 -3q-4 0 -4.5 0.5l-2.5 2.5z" />
    <glyph glyph-name="cacute" unicode="&#x107;" horiz-adv-x="934" 
d="M90 395q1 151 39 253.5t105.5 164.5t159 88.5t199.5 26.5q32 0 68.5 -1.5t70.5 -9t62.5 -25t46.5 -48.5q5 -8 9.5 -18t4.5 -19q0 -38 -23.5 -54t-57.5 -16q-25 0 -44.5 9.5t-36.5 23.5t-32.5 30.5t-32.5 30.5t-37 23.5t-45 9.5q-48 0 -87.5 -17.5t-71.5 -47.5t-55 -69
t-39 -82t-23.5 -86.5t-7.5 -82.5q0 -78 17.5 -149.5t56.5 -126t101 -87t150 -32.5q45 0 86 15t76 40q16 11 31.5 26t28 29t21 23.5t11.5 9.5q9 0 16 -6t7 -14q0 -4 -0.5 -10t-5.5 -11q-72 -100 -168 -156.5t-217 -56.5q-87 0 -157.5 35t-121 93.5t-77.5 134.5t-27 159z
M412 1096q-4 4 -4 6t4 6l213 295q19 26 38 37.5t37 11.5q31 0 51.5 -22.5t20.5 -51.5q0 -31 -17.5 -54t-37.5 -40l-269 -217q-5 -3 -7 -3q-4 0 -4.5 0.5l-2.5 2.5z" />
    <glyph glyph-name="Ccircumflex" unicode="&#x108;" horiz-adv-x="1566" 
d="M105 696q0 112 28 211.5t79 183.5t123 151t159.5 113.5t187.5 71.5t209 25q92 0 177.5 -16.5t176.5 -38.5q15 -4 31.5 -10t31 -11.5t26.5 -9.5t18 -4q2 0 13.5 4t16.5 4h31q12 0 12 -17v-311q0 -6 -4.5 -8t-19.5 -2q-3 0 -8 0.5t-8 5.5q-2 3 -5 9.5t-6.5 13.5t-7 13
t-4.5 9q-75 150 -190 225.5t-265 75.5q-142 0 -251 -48t-183.5 -132t-112.5 -199.5t-38 -250.5q0 -95 19 -184.5t55.5 -168.5t90.5 -144.5t124.5 -113t157 -74t187.5 -26.5q85 0 161 28t139.5 74t113.5 105t84 121q2 5 4.5 5.5t7.5 0.5h13q3 0 6.5 -2.5t3.5 -10.5
q0 -3 -0.5 -8t-5.5 -14l-138 -304q-2 -3 -6 -5t-7 -2q-23 6 -32.5 7t-20.5 1q-30 0 -77.5 -10.5t-102 -22.5t-110.5 -22.5t-102 -10.5q-105 0 -204 23t-186 66.5t-159 107t-124 143.5t-80.5 176.5t-28.5 206.5zM886 1788q-3 3 -11 12t-10 9t-9.5 -9t-10.5 -12l-214 -224
q-2 -2 -5 -3t-5 -1q-3 0 -7 4t-8 9.5t-7 10.5t-3 8q0 5 7 15l238 323q6 6 12.5 13t11.5 7t12.5 -7t13.5 -15l248 -321q7 -11 7 -15q0 -3 -3 -8t-7 -10.5t-8 -9.5t-7 -4q-4 0 -8 4z" />
    <glyph glyph-name="ccircumflex" unicode="&#x109;" horiz-adv-x="934" 
d="M90 395q1 151 39 253.5t105.5 164.5t159 88.5t199.5 26.5q32 0 68.5 -1.5t70.5 -9t62.5 -25t46.5 -48.5q5 -8 9.5 -18t4.5 -19q0 -38 -23.5 -54t-57.5 -16q-25 0 -44.5 9.5t-36.5 23.5t-32.5 30.5t-32.5 30.5t-37 23.5t-45 9.5q-48 0 -87.5 -17.5t-71.5 -47.5t-55 -69
t-39 -82t-23.5 -86.5t-7.5 -82.5q0 -78 17.5 -149.5t56.5 -126t101 -87t150 -32.5q45 0 86 15t76 40q16 11 31.5 26t28 29t21 23.5t11.5 9.5q9 0 16 -6t7 -14q0 -4 -0.5 -10t-5.5 -11q-72 -100 -168 -156.5t-217 -56.5q-87 0 -157.5 35t-121 93.5t-77.5 134.5t-27 159z
M536 1291q-3 3 -11 12t-10 9t-9.5 -9t-10.5 -12l-214 -224q-2 -2 -5 -3t-5 -1q-3 0 -7 4t-8 9.5t-7 10.5t-3 8q0 5 7 15l238 323q6 6 12.5 13t11.5 7t12.5 -7t13.5 -15l248 -321q7 -11 7 -15q0 -3 -3 -8t-7 -10.5t-8 -9.5t-7 -4q-4 0 -8 4z" />
    <glyph glyph-name="Cdotaccent" unicode="&#x10a;" horiz-adv-x="1566" 
d="M105 696q0 112 28 211.5t79 183.5t123 151t159.5 113.5t187.5 71.5t209 25q92 0 177.5 -16.5t176.5 -38.5q15 -4 31.5 -10t31 -11.5t26.5 -9.5t18 -4q2 0 13.5 4t16.5 4h31q12 0 12 -17v-311q0 -6 -4.5 -8t-19.5 -2q-3 0 -8 0.5t-8 5.5q-2 3 -5 9.5t-6.5 13.5t-7 13
t-4.5 9q-75 150 -190 225.5t-265 75.5q-142 0 -251 -48t-183.5 -132t-112.5 -199.5t-38 -250.5q0 -95 19 -184.5t55.5 -168.5t90.5 -144.5t124.5 -113t157 -74t187.5 -26.5q85 0 161 28t139.5 74t113.5 105t84 121q2 5 4.5 5.5t7.5 0.5h13q3 0 6.5 -2.5t3.5 -10.5
q0 -3 -0.5 -8t-5.5 -14l-138 -304q-2 -3 -6 -5t-7 -2q-23 6 -32.5 7t-20.5 1q-30 0 -77.5 -10.5t-102 -22.5t-110.5 -22.5t-102 -10.5q-105 0 -204 23t-186 66.5t-159 107t-124 143.5t-80.5 176.5t-28.5 206.5zM870 1683q-24 0 -45.5 9t-37.5 24.5t-25 36.5t-9 45
q0 25 9 46.5t25 37.5t37.5 25.5t45.5 9.5q25 0 46.5 -9.5t37.5 -25.5t24.5 -37.5t8.5 -46.5q0 -24 -8.5 -45t-24.5 -36.5t-37.5 -24.5t-46.5 -9z" />
    <glyph glyph-name="cdotaccent" unicode="&#x10b;" horiz-adv-x="934" 
d="M90 395q1 151 39 253.5t105.5 164.5t159 88.5t199.5 26.5q32 0 68.5 -1.5t70.5 -9t62.5 -25t46.5 -48.5q5 -8 9.5 -18t4.5 -19q0 -38 -23.5 -54t-57.5 -16q-25 0 -44.5 9.5t-36.5 23.5t-32.5 30.5t-32.5 30.5t-37 23.5t-45 9.5q-48 0 -87.5 -17.5t-71.5 -47.5t-55 -69
t-39 -82t-23.5 -86.5t-7.5 -82.5q0 -78 17.5 -149.5t56.5 -126t101 -87t150 -32.5q45 0 86 15t76 40q16 11 31.5 26t28 29t21 23.5t11.5 9.5q9 0 16 -6t7 -14q0 -4 -0.5 -10t-5.5 -11q-72 -100 -168 -156.5t-217 -56.5q-87 0 -157.5 35t-121 93.5t-77.5 134.5t-27 159z
M490 1112q-24 0 -45.5 9t-37.5 24.5t-25 36.5t-9 45q0 25 9 46.5t25 37.5t37.5 25.5t45.5 9.5q25 0 46.5 -9.5t37.5 -25.5t24.5 -37.5t8.5 -46.5q0 -24 -8.5 -45t-24.5 -36.5t-37.5 -24.5t-46.5 -9z" />
    <glyph glyph-name="Ccaron" unicode="&#x10c;" horiz-adv-x="1566" 
d="M105 696q0 112 28 211.5t79 183.5t123 151t159.5 113.5t187.5 71.5t209 25q92 0 177.5 -16.5t176.5 -38.5q15 -4 31.5 -10t31 -11.5t26.5 -9.5t18 -4q2 0 13.5 4t16.5 4h31q12 0 12 -17v-311q0 -6 -4.5 -8t-19.5 -2q-3 0 -8 0.5t-8 5.5q-2 3 -5 9.5t-6.5 13.5t-7 13
t-4.5 9q-75 150 -190 225.5t-265 75.5q-142 0 -251 -48t-183.5 -132t-112.5 -199.5t-38 -250.5q0 -95 19 -184.5t55.5 -168.5t90.5 -144.5t124.5 -113t157 -74t187.5 -26.5q85 0 161 28t139.5 74t113.5 105t84 121q2 5 4.5 5.5t7.5 0.5h13q3 0 6.5 -2.5t3.5 -10.5
q0 -3 -0.5 -8t-5.5 -14l-138 -304q-2 -3 -6 -5t-7 -2q-23 6 -32.5 7t-20.5 1q-30 0 -77.5 -10.5t-102 -22.5t-110.5 -22.5t-102 -10.5q-105 0 -204 23t-186 66.5t-159 107t-124 143.5t-80.5 176.5t-28.5 206.5zM1113 1946q4 4 8 4q3 0 7 -4t8 -9.5t7 -10.5t3 -8q0 -5 -7 -15
l-248 -321q-6 -8 -13.5 -15t-12.5 -7t-12.5 7.5t-12.5 14.5l-237 321q-7 10 -7 15q0 3 3 8t7 10.5t8 9.5t7 4q2 0 5 -1t5 -3l214 -224q3 -3 10.5 -12t9.5 -9t10 9t11 12z" />
    <glyph glyph-name="ccaron" unicode="&#x10d;" horiz-adv-x="934" 
d="M90 395q1 151 39 253.5t105.5 164.5t159 88.5t199.5 26.5q32 0 68.5 -1.5t70.5 -9t62.5 -25t46.5 -48.5q5 -8 9.5 -18t4.5 -19q0 -38 -23.5 -54t-57.5 -16q-25 0 -44.5 9.5t-36.5 23.5t-32.5 30.5t-32.5 30.5t-37 23.5t-45 9.5q-48 0 -87.5 -17.5t-71.5 -47.5t-55 -69
t-39 -82t-23.5 -86.5t-7.5 -82.5q0 -78 17.5 -149.5t56.5 -126t101 -87t150 -32.5q45 0 86 15t76 40q16 11 31.5 26t28 29t21 23.5t11.5 9.5q9 0 16 -6t7 -14q0 -4 -0.5 -10t-5.5 -11q-72 -100 -168 -156.5t-217 -56.5q-87 0 -157.5 35t-121 93.5t-77.5 134.5t-27 159z
M766 1449q4 4 8 4q3 0 7 -4t8 -9.5t7 -10.5t3 -8q0 -5 -7 -15l-248 -321q-6 -8 -13.5 -15t-12.5 -7t-12.5 7.5t-12.5 14.5l-237 321q-7 10 -7 15q0 3 3 8t7 10.5t8 9.5t7 4q2 0 5 -1t5 -3l214 -224q3 -3 10.5 -12t9.5 -9t10 9t11 12z" />
    <glyph glyph-name="Dcaron" unicode="&#x10e;" horiz-adv-x="1664" 
d="M53 0q-6 0 -7 3.5t-1 4.5v28q0 1 1 4.5t7 3.5h22q21 0 52 2.5t60 14t49.5 35t20.5 64.5v1096q0 31 -13.5 52.5t-34 35t-45.5 19.5t-47 6h-64q-6 0 -7 3.5t-1 4.5v28q0 1 1 4.5t7 3.5h22l321 7q58 2 125.5 2h125.5q63 0 113 -1.5t96 -6t93 -11.5t105 -19
q111 -23 206.5 -85t165 -150t109 -195t39.5 -219q0 -108 -30 -204.5t-83.5 -178t-127 -147t-161.5 -111t-187 -70t-203 -24.5h-700h-29zM452 125q0 -29 18.5 -45t49 -23.5t71.5 -8.5t86 -1q160 0 286.5 46t215 133t135.5 211.5t47 281.5q0 138 -43 257.5t-122.5 208
t-192.5 139.5t-254 51h-272q-15 0 -20 -6.5t-5 -20.5v-1218v-5zM963 1946q4 4 8 4q3 0 7 -4t8 -9.5t7 -10.5t3 -8q0 -5 -7 -15l-248 -321q-6 -8 -13.5 -15t-12.5 -7t-12.5 7.5t-12.5 14.5l-237 321q-7 10 -7 15q0 3 3 8t7 10.5t8 9.5t7 4q2 0 5 -1t5 -3l214 -224
q3 -3 10.5 -12t9.5 -9t10 9t11 12z" />
    <glyph glyph-name="dcaron" unicode="&#x10f;" horiz-adv-x="1329" 
d="M884 1639q4 2 8.5 4t6.5 2q17 0 17 -24v-1424q5 -44 25 -63t65 -19l58 4q4 0 5 -5.5t1 -11.5q0 -2 -2.5 -5t-12.5 -8l-266 -110q-2 -1 -10 -3.5t-9 -2.5q-7 0 -8.5 8.5t-1.5 16.5v91q0 10 -7 10q-3 0 -9 -3q-35 -20 -72 -42t-75.5 -40t-79 -29.5t-82.5 -11.5
q-90 0 -156 40t-109 103.5t-64 143t-21 158.5q0 98 36.5 185.5t101 153.5t151.5 105t188 39q31 0 61.5 -3.5t61.5 -12.5q12 -3 29 -9t34 -6q3 0 5 1q1 0 3 1l4 11v516q0 24 -13 37.5t-33 20.5t-43 11.5t-44 10.5q-6 2 -9.5 5.5t-3.5 14.5q0 5 3 10t12 10zM236 463
q0 -72 19.5 -141.5t59.5 -123.5t99.5 -87t139.5 -33q7 0 25.5 3.5t41.5 9t47.5 13.5t45 17.5t33.5 19t13 19.5v516q0 3 -2 10t-4 10q-2 2 -9.5 12t-10.5 13q-37 51 -89.5 80.5t-115.5 29.5q-75 0 -130 -33t-91 -85.5t-54 -118.5t-18 -131zM1068 1164q0 8 6 15.5t14 13.5
t15.5 11t11.5 9q17 15 36 34t34.5 41t26 45.5t10.5 49.5q0 6 -0.5 13.5t-4 14t-11 11t-21.5 4.5q-29 0 -55 6t-46 20t-32 37t-12 58q0 24 10 44.5t26.5 35.5t38 24t43.5 9q40 0 70 -18t50 -47t30 -64.5t10 -69.5q0 -46 -13 -87.5t-36 -78.5t-54.5 -69t-69.5 -59
q-14 -10 -31 -20t-31 -10q-10 0 -12.5 10.5t-2.5 16.5z" />
    <glyph glyph-name="dcroat" unicode="&#x111;" horiz-adv-x="1090" 
d="M462 1144q-25 0 -25 25v36q0 25 25 25h298v169q0 24 -13 37.5t-33 20.5t-43 11.5t-44 10.5q-6 2 -9.5 5.5t-3.5 14.5q0 5 3 10t12 10l255 120q4 2 8.5 4t6.5 2q17 0 17 -24v-391h121q25 0 25 -25v-36q0 -25 -25 -25h-121v-947q5 -44 25 -63t65 -19l58 4q4 0 5 -5.5
t1 -11.5q0 -2 -2.5 -5t-12.5 -8l-266 -110q-2 -1 -10 -3.5t-9 -2.5q-7 0 -8.5 8.5t-1.5 16.5v91q0 10 -7 10q-3 0 -9 -3q-35 -20 -72 -42t-75.5 -40t-79 -29.5t-82.5 -11.5q-90 0 -156 40t-109 103.5t-64 143t-21 158.5q0 98 36.5 185.5t101 153.5t151.5 105t188 39
q31 0 61.5 -3.5t61.5 -12.5q12 -3 29 -9t34 -6q3 0 5 1q1 0 3 1l4 11v261h-298zM236 463q0 -72 19.5 -141.5t59.5 -123.5t99.5 -87t139.5 -33q7 0 25.5 3.5t41.5 9t47.5 13.5t45 17.5t33.5 19t13 19.5v516q0 3 -2 10t-4 10q-2 2 -9.5 12t-10.5 13q-37 51 -89.5 80.5
t-115.5 29.5q-75 0 -130 -33t-91 -85.5t-54 -118.5t-18 -131z" />
    <glyph glyph-name="Emacron" unicode="&#x112;" horiz-adv-x="1264" 
d="M7 36q0 1 1 4.5t7 3.5h22q42 3 86 3.5t80 11t59 37t23 82.5v1054q0 39 -16 63.5t-42 39.5t-59 22.5t-67 12.5h-21q-5 0 -6.5 3t-1.5 5v24q0 2 1.5 5t6.5 3h951q18 0 26 -6.5t10 -28.5l18 -290q0 -5 -5 -7.5t-12 -2.5q-8 0 -12 2t-7 6q-7 10 -10 29.5t-6.5 43.5t-10 50
t-19.5 48t-35.5 38.5t-57.5 22.5h-417q-13 0 -13 -13v-517q0 -10 10 -10h346q25 0 49.5 6.5t43 23.5t30 47.5t11.5 78.5q0 8 8 8h24q8 0 8 -8v-428q0 -5 -3 -6.5t-5 -1.5h-24q-5 0 -6.5 3t-1.5 5q0 56 -11.5 90.5t-30.5 54t-43.5 26t-51.5 6.5h-343q-10 0 -10 -10v-487
q0 -29 9 -46.5t24.5 -26.5t35.5 -12t42 -3h333q58 0 97 26.5t63 64.5t35.5 79t14.5 70q3 28 30 28q5 0 8.5 -4t3.5 -9l-33 -336q-2 -5 -5.5 -9.5t-8.5 -4.5h-1114q-6 0 -7 3.5t-1 4.5v14v14zM296 1864h647v-129h-647v129z" />
    <glyph glyph-name="emacron" unicode="&#x113;" horiz-adv-x="930" 
d="M70 405q0 98 28 192t82.5 167.5t135.5 118t187 44.5q53 0 98 -19t81.5 -50t64.5 -70.5t47 -79t28.5 -76t9.5 -62.5q0 -43 -21 -43h-580q-10 0 -13.5 -18t-3.5 -44q0 -84 25 -153.5t68.5 -119t101.5 -76.5t123 -27q64 0 131.5 28t133.5 90q2 2 5 2h5q6 0 11.5 -9.5
t10.5 -12.5q-32 -39 -75.5 -77.5t-94 -69t-104 -49t-105.5 -18.5q-84 0 -154 37.5t-120.5 98.5t-78 138.5t-27.5 157.5zM242 623q0 -8 5 -13.5t13 -5.5h377q26 0 26 23q0 39 -17.5 80t-46 74.5t-65.5 55t-77 21.5t-75.5 -20t-64 -51.5t-48 -71.5t-27.5 -80v-12zM156 1322
h647v-129h-647v129z" />
    <glyph glyph-name="Ebreve" unicode="&#x114;" horiz-adv-x="1264" 
d="M7 36q0 1 1 4.5t7 3.5h22q42 3 86 3.5t80 11t59 37t23 82.5v1054q0 39 -16 63.5t-42 39.5t-59 22.5t-67 12.5h-21q-5 0 -6.5 3t-1.5 5v24q0 2 1.5 5t6.5 3h951q18 0 26 -6.5t10 -28.5l18 -290q0 -5 -5 -7.5t-12 -2.5q-8 0 -12 2t-7 6q-7 10 -10 29.5t-6.5 43.5t-10 50
t-19.5 48t-35.5 38.5t-57.5 22.5h-417q-13 0 -13 -13v-517q0 -10 10 -10h346q25 0 49.5 6.5t43 23.5t30 47.5t11.5 78.5q0 8 8 8h24q8 0 8 -8v-428q0 -5 -3 -6.5t-5 -1.5h-24q-5 0 -6.5 3t-1.5 5q0 56 -11.5 90.5t-30.5 54t-43.5 26t-51.5 6.5h-343q-10 0 -10 -10v-487
q0 -29 9 -46.5t24.5 -26.5t35.5 -12t42 -3h333q58 0 97 26.5t63 64.5t35.5 79t14.5 70q3 28 30 28q5 0 8.5 -4t3.5 -9l-33 -336q-2 -5 -5.5 -9.5t-8.5 -4.5h-1114q-6 0 -7 3.5t-1 4.5v14v14zM621 1638q-58 0 -107.5 26t-86 69.5t-57.5 99.5t-21 117h31q0 -45 23.5 -80.5
t59.5 -60.5t78 -38.5t80 -13.5q37 0 79 19t76.5 47.5t57.5 62.5t23 64h33q0 -56 -21.5 -111.5t-58.5 -100t-86 -72.5t-103 -28z" />
    <glyph glyph-name="ebreve" unicode="&#x115;" horiz-adv-x="930" 
d="M70 405q0 98 28 192t82.5 167.5t135.5 118t187 44.5q53 0 98 -19t81.5 -50t64.5 -70.5t47 -79t28.5 -76t9.5 -62.5q0 -43 -21 -43h-580q-10 0 -13.5 -18t-3.5 -44q0 -84 25 -153.5t68.5 -119t101.5 -76.5t123 -27q64 0 131.5 28t133.5 90q2 2 5 2h5q6 0 11.5 -9.5
t10.5 -12.5q-32 -39 -75.5 -77.5t-94 -69t-104 -49t-105.5 -18.5q-84 0 -154 37.5t-120.5 98.5t-78 138.5t-27.5 157.5zM242 623q0 -8 5 -13.5t13 -5.5h377q26 0 26 23q0 39 -17.5 80t-46 74.5t-65.5 55t-77 21.5t-75.5 -20t-64 -51.5t-48 -71.5t-27.5 -80v-12zM501 1096
q-58 0 -107.5 26t-86 69.5t-57.5 99.5t-21 117h31q0 -45 23.5 -80.5t59.5 -60.5t78 -38.5t80 -13.5q37 0 79 19t76.5 47.5t57.5 62.5t23 64h33q0 -56 -21.5 -111.5t-58.5 -100t-86 -72.5t-103 -28z" />
    <glyph glyph-name="Edotaccent" unicode="&#x116;" horiz-adv-x="1264" 
d="M7 36q0 1 1 4.5t7 3.5h22q42 3 86 3.5t80 11t59 37t23 82.5v1054q0 39 -16 63.5t-42 39.5t-59 22.5t-67 12.5h-21q-5 0 -6.5 3t-1.5 5v24q0 2 1.5 5t6.5 3h951q18 0 26 -6.5t10 -28.5l18 -290q0 -5 -5 -7.5t-12 -2.5q-8 0 -12 2t-7 6q-7 10 -10 29.5t-6.5 43.5t-10 50
t-19.5 48t-35.5 38.5t-57.5 22.5h-417q-13 0 -13 -13v-517q0 -10 10 -10h346q25 0 49.5 6.5t43 23.5t30 47.5t11.5 78.5q0 8 8 8h24q8 0 8 -8v-428q0 -5 -3 -6.5t-5 -1.5h-24q-5 0 -6.5 3t-1.5 5q0 56 -11.5 90.5t-30.5 54t-43.5 26t-51.5 6.5h-343q-10 0 -10 -10v-487
q0 -29 9 -46.5t24.5 -26.5t35.5 -12t42 -3h333q58 0 97 26.5t63 64.5t35.5 79t14.5 70q3 28 30 28q5 0 8.5 -4t3.5 -9l-33 -336q-2 -5 -5.5 -9.5t-8.5 -4.5h-1114q-6 0 -7 3.5t-1 4.5v14v14zM590 1683q-24 0 -45.5 9t-37.5 24.5t-25 36.5t-9 45q0 25 9 46.5t25 37.5
t37.5 25.5t45.5 9.5q25 0 46.5 -9.5t37.5 -25.5t24.5 -37.5t8.5 -46.5q0 -24 -8.5 -45t-24.5 -36.5t-37.5 -24.5t-46.5 -9z" />
    <glyph glyph-name="edotaccent" unicode="&#x117;" horiz-adv-x="917" 
d="M70 405q0 98 28 192t82.5 167.5t135.5 118t187 44.5q53 0 98 -19t81.5 -50t64.5 -70.5t47 -79t28.5 -76t9.5 -62.5q0 -43 -21 -43h-580q-10 0 -13.5 -18t-3.5 -44q0 -84 25 -153.5t68.5 -119t101.5 -76.5t123 -27q64 0 131.5 28t133.5 90q2 2 5 2h5q6 0 11.5 -9.5
t10.5 -12.5q-32 -39 -75.5 -77.5t-94 -69t-104 -49t-105.5 -18.5q-84 0 -154 37.5t-120.5 98.5t-78 138.5t-27.5 157.5zM242 623q0 -8 5 -13.5t13 -5.5h377q26 0 26 23q0 39 -17.5 80t-46 74.5t-65.5 55t-77 21.5t-75.5 -20t-64 -51.5t-48 -71.5t-27.5 -80v-12zM500 1112
q-24 0 -45.5 9t-37.5 24.5t-25 36.5t-9 45q0 25 9 46.5t25 37.5t37.5 25.5t45.5 9.5q25 0 46.5 -9.5t37.5 -25.5t24.5 -37.5t8.5 -46.5q0 -24 -8.5 -45t-24.5 -36.5t-37.5 -24.5t-46.5 -9z" />
    <glyph glyph-name="Eogonek" unicode="&#x118;" horiz-adv-x="1264" 
d="M7 36q0 1 1 4.5t7 3.5h22q42 3 86 3.5t80 11t59 37t23 82.5v1054q0 39 -16 63.5t-42 39.5t-59 22.5t-67 12.5h-21q-5 0 -6.5 3t-1.5 5v24q0 2 1.5 5t6.5 3h951q18 0 26 -6.5t10 -28.5l18 -290q0 -5 -5 -7.5t-12 -2.5q-8 0 -12 2t-7 6q-7 10 -10 29.5t-6.5 43.5t-10 50
t-19.5 48t-35.5 38.5t-57.5 22.5h-417q-13 0 -13 -13v-517q0 -10 10 -10h346q25 0 49.5 6.5t43 23.5t30 47.5t11.5 78.5q0 8 8 8h24q8 0 8 -8v-428q0 -5 -3 -6.5t-5 -1.5h-24q-5 0 -6.5 3t-1.5 5q0 56 -11.5 90.5t-30.5 54t-43.5 26t-51.5 6.5h-343q-10 0 -10 -10v-487
q0 -29 9 -46.5t24.5 -26.5t35.5 -12t42 -3h333q58 0 97 26.5t63 64.5t35.5 79t14.5 70q3 28 30 28q5 0 8.5 -4t3.5 -9l-33 -336q-2 -5 -5.5 -9.5t-8.5 -4.5h-1114q-6 0 -7 3.5t-1 4.5v14v14zM1021 0q-2 -1 -15 -15.5t-29.5 -33t-30.5 -36t-17 -24.5q-21 -35 -33.5 -65.5
t-19 -55.5t-8.5 -45t-2 -34q0 -33 11.5 -59.5t31.5 -45.5t47.5 -29t60.5 -10q11 0 27 2t33 2q14 0 23 -5.5t9 -18.5q0 -16 -12.5 -27.5t-32 -18.5t-42.5 -10t-44 -3q-42 0 -86 8t-79.5 29t-58.5 58t-23 95q0 48 18.5 97.5t48 95t66.5 84t75 65.5h82z" />
    <glyph glyph-name="eogonek" unicode="&#x119;" horiz-adv-x="930" 
d="M70 405q0 98 28 192t82.5 167.5t135.5 118t187 44.5q53 0 98 -19t81.5 -50t64.5 -70.5t47 -79t28.5 -76t9.5 -62.5q0 -43 -21 -43h-580q-10 0 -13.5 -18t-3.5 -44q0 -84 25 -153.5t68.5 -119t101.5 -76.5t123 -27q64 0 131.5 28t133.5 90q2 2 5 2h5q6 0 11.5 -9.5
t10.5 -12.5q-32 -39 -75.5 -77.5t-94 -69t-104 -49t-105.5 -18.5q-84 0 -154 37.5t-120.5 98.5t-78 138.5t-27.5 157.5zM242 623q0 -8 5 -13.5t13 -5.5h377q26 0 26 23q0 39 -17.5 80t-46 74.5t-65.5 55t-77 21.5t-75.5 -20t-64 -51.5t-48 -71.5t-27.5 -80v-12zM581 0
q-2 -1 -15 -15.5t-29.5 -33t-30.5 -36t-17 -24.5q-21 -35 -33.5 -65.5t-19 -55.5t-8.5 -45t-2 -34q0 -33 11.5 -59.5t31.5 -45.5t47.5 -29t60.5 -10q11 0 27 2t33 2q14 0 23 -5.5t9 -18.5q0 -16 -12.5 -27.5t-32 -18.5t-42.5 -10t-44 -3q-42 0 -86 8t-79.5 29t-58.5 58
t-23 95q0 48 18.5 97.5t48 95t66.5 84t75 65.5h82z" />
    <glyph glyph-name="Ecaron" unicode="&#x11a;" horiz-adv-x="1264" 
d="M7 36q0 1 1 4.5t7 3.5h22q42 3 86 3.5t80 11t59 37t23 82.5v1054q0 39 -16 63.5t-42 39.5t-59 22.5t-67 12.5h-21q-5 0 -6.5 3t-1.5 5v24q0 2 1.5 5t6.5 3h951q18 0 26 -6.5t10 -28.5l18 -290q0 -5 -5 -7.5t-12 -2.5q-8 0 -12 2t-7 6q-7 10 -10 29.5t-6.5 43.5t-10 50
t-19.5 48t-35.5 38.5t-57.5 22.5h-417q-13 0 -13 -13v-517q0 -10 10 -10h346q25 0 49.5 6.5t43 23.5t30 47.5t11.5 78.5q0 8 8 8h24q8 0 8 -8v-428q0 -5 -3 -6.5t-5 -1.5h-24q-5 0 -6.5 3t-1.5 5q0 56 -11.5 90.5t-30.5 54t-43.5 26t-51.5 6.5h-343q-10 0 -10 -10v-487
q0 -29 9 -46.5t24.5 -26.5t35.5 -12t42 -3h333q58 0 97 26.5t63 64.5t35.5 79t14.5 70q3 28 30 28q5 0 8.5 -4t3.5 -9l-33 -336q-2 -5 -5.5 -9.5t-8.5 -4.5h-1114q-6 0 -7 3.5t-1 4.5v14v14zM903 1946q4 4 8 4q3 0 7 -4t8 -9.5t7 -10.5t3 -8q0 -5 -7 -15l-248 -321
q-6 -8 -13.5 -15t-12.5 -7t-12.5 7.5t-12.5 14.5l-237 321q-7 10 -7 15q0 3 3 8t7 10.5t8 9.5t7 4q2 0 5 -1t5 -3l214 -224q3 -3 10.5 -12t9.5 -9t10 9t11 12z" />
    <glyph glyph-name="ecaron" unicode="&#x11b;" horiz-adv-x="930" 
d="M70 405q0 98 28 192t82.5 167.5t135.5 118t187 44.5q53 0 98 -19t81.5 -50t64.5 -70.5t47 -79t28.5 -76t9.5 -62.5q0 -43 -21 -43h-580q-10 0 -13.5 -18t-3.5 -44q0 -84 25 -153.5t68.5 -119t101.5 -76.5t123 -27q64 0 131.5 28t133.5 90q2 2 5 2h5q6 0 11.5 -9.5
t10.5 -12.5q-32 -39 -75.5 -77.5t-94 -69t-104 -49t-105.5 -18.5q-84 0 -154 37.5t-120.5 98.5t-78 138.5t-27.5 157.5zM242 623q0 -8 5 -13.5t13 -5.5h377q26 0 26 23q0 39 -17.5 80t-46 74.5t-65.5 55t-77 21.5t-75.5 -20t-64 -51.5t-48 -71.5t-27.5 -80v-12zM723 1449
q4 4 8 4q3 0 7 -4t8 -9.5t7 -10.5t3 -8q0 -5 -7 -15l-248 -321q-6 -8 -13.5 -15t-12.5 -7t-12.5 7.5t-12.5 14.5l-237 321q-7 10 -7 15q0 3 3 8t7 10.5t8 9.5t7 4q2 0 5 -1t5 -3l214 -224q3 -3 10.5 -12t9.5 -9t10 9t11 12z" />
    <glyph glyph-name="Gcircumflex" unicode="&#x11c;" horiz-adv-x="1621" 
d="M115 717q0 101 27 194t76 174.5t117.5 148t150.5 114.5t175.5 74t192.5 26q79 0 155 -14t137 -31t100 -31t44 -14h12q8 0 12.5 1.5t8 3.5t7.5 3.5t12 1.5h25q2 0 6.5 -1.5t4.5 -9.5v-333q0 -11 -6.5 -15t-15.5 -4h-4q-9 1 -14 10t-8 20t-4.5 21t-2.5 15
q-100 313 -422 313q-90 0 -167 -25.5t-139.5 -70.5t-111 -106.5t-81 -134.5t-49.5 -153.5t-17 -162.5q0 -85 16.5 -169.5t49.5 -161t82 -142t113.5 -113.5t144 -75t173.5 -27q33 0 74 4t81 13.5t74.5 26t53.5 42.5v274q0 43 -10.5 76.5t-38.5 56.5t-76 35t-123 12
q-6 0 -8.5 5.5t-2.5 13.5q0 5 2.5 11.5t8.5 6.5h610q8 0 9.5 -6t1.5 -12q0 -5 -2 -10t-9 -9q-27 -11 -55.5 -19t-52.5 -21t-39.5 -35.5t-15.5 -61.5v-325q0 -8 -6.5 -13t-20.5 -11q-56 -27 -120 -49.5t-130.5 -39t-133.5 -26t-128 -9.5q-155 0 -290 51.5t-236 148
t-159 234.5t-58 310zM886 1788q-3 3 -11 12t-10 9t-9.5 -9t-10.5 -12l-214 -224q-2 -2 -5 -3t-5 -1q-3 0 -7 4t-8 9.5t-7 10.5t-3 8q0 5 7 15l238 323q6 6 12.5 13t11.5 7t12.5 -7t13.5 -15l248 -321q7 -11 7 -15q0 -3 -3 -8t-7 -10.5t-8 -9.5t-7 -4q-4 0 -8 4z" />
    <glyph glyph-name="gcircumflex" unicode="&#x11d;" horiz-adv-x="1148" 
d="M819 831q66 0 129.5 6t138.5 6q23 0 30 -5t11 -19q6 -23 9 -42.5t3 -41.5q0 -13 -5 -17t-20 -4h-222q6 -11 13 -23t13.5 -28.5t11 -38t4.5 -50.5q0 -68 -28.5 -131.5t-83.5 -113t-134.5 -79.5t-181.5 -30q-17 0 -30.5 1t-26 3t-26 6t-29.5 9q-15 -16 -40 -29.5
t-49.5 -27.5t-42 -30.5t-17.5 -37.5q0 -46 82.5 -66t266.5 -21q104 -1 176 -4.5t123 -13t85 -26.5t62 -45q44 -44 58 -88t14 -83t-18 -84.5t-54.5 -91t-91.5 -87t-129 -73.5t-167.5 -51t-206.5 -19q-95 0 -166 20t-117.5 52.5t-69.5 74.5t-23 87q0 53 25 87.5t63.5 65
t84.5 64t88 85.5q-50 4 -92.5 21t-73.5 41t-49 53t-18 59q0 42 27 66.5t66 42t82 32.5t75 39q-112 44 -173 121.5t-61 181.5q0 79 33 147.5t91 119t136.5 79.5t169.5 29q85 0 154.5 -25t120.5 -73zM222 -323q0 -43 28.5 -86.5t77 -79t114.5 -57.5t141 -22q78 0 151 24
t129 64t90 92.5t34 110.5q0 34 -13.5 60t-36 44t-52.5 28.5t-63 13.5q-16 1 -50 2.5t-77 3t-91 2.5t-92 2.5t-79 3.5t-53 4q-26 -30 -53.5 -53t-51 -46t-38.5 -49t-15 -62zM771 552q0 79 -19 140.5t-53 104t-81.5 64.5t-103.5 22q-35 0 -76 -11.5t-76.5 -43t-59.5 -86
t-24 -139.5q0 -54 14 -113.5t45 -109t80.5 -82t119.5 -32.5q53 0 96.5 21t74 58.5t47 90.5t16.5 116zM546 1291q-3 3 -11 12t-10 9t-9.5 -9t-10.5 -12l-214 -224q-2 -2 -5 -3t-5 -1q-3 0 -7 4t-8 9.5t-7 10.5t-3 8q0 5 7 15l238 323q6 6 12.5 13t11.5 7t12.5 -7t13.5 -15
l248 -321q7 -11 7 -15q0 -3 -3 -8t-7 -10.5t-8 -9.5t-7 -4q-4 0 -8 4z" />
    <glyph glyph-name="Gbreve" unicode="&#x11e;" horiz-adv-x="1621" 
d="M115 717q0 101 27 194t76 174.5t117.5 148t150.5 114.5t175.5 74t192.5 26q79 0 155 -14t137 -31t100 -31t44 -14h12q8 0 12.5 1.5t8 3.5t7.5 3.5t12 1.5h25q2 0 6.5 -1.5t4.5 -9.5v-333q0 -11 -6.5 -15t-15.5 -4h-4q-9 1 -14 10t-8 20t-4.5 21t-2.5 15
q-100 313 -422 313q-90 0 -167 -25.5t-139.5 -70.5t-111 -106.5t-81 -134.5t-49.5 -153.5t-17 -162.5q0 -85 16.5 -169.5t49.5 -161t82 -142t113.5 -113.5t144 -75t173.5 -27q33 0 74 4t81 13.5t74.5 26t53.5 42.5v274q0 43 -10.5 76.5t-38.5 56.5t-76 35t-123 12
q-6 0 -8.5 5.5t-2.5 13.5q0 5 2.5 11.5t8.5 6.5h610q8 0 9.5 -6t1.5 -12q0 -5 -2 -10t-9 -9q-27 -11 -55.5 -19t-52.5 -21t-39.5 -35.5t-15.5 -61.5v-325q0 -8 -6.5 -13t-20.5 -11q-56 -27 -120 -49.5t-130.5 -39t-133.5 -26t-128 -9.5q-155 0 -290 51.5t-236 148
t-159 234.5t-58 310zM851 1639q-58 0 -107.5 26t-86 69.5t-57.5 99.5t-21 117h31q0 -45 23.5 -80.5t59.5 -60.5t78 -38.5t80 -13.5q37 0 79 19t76.5 47.5t57.5 62.5t23 64h33q0 -56 -21.5 -111.5t-58.5 -100t-86 -72.5t-103 -28z" />
    <glyph glyph-name="gbreve" unicode="&#x11f;" horiz-adv-x="1148" 
d="M819 831q66 0 129.5 6t138.5 6q23 0 30 -5t11 -19q6 -23 9 -42.5t3 -41.5q0 -13 -5 -17t-20 -4h-222q6 -11 13 -23t13.5 -28.5t11 -38t4.5 -50.5q0 -68 -28.5 -131.5t-83.5 -113t-134.5 -79.5t-181.5 -30q-17 0 -30.5 1t-26 3t-26 6t-29.5 9q-15 -16 -40 -29.5
t-49.5 -27.5t-42 -30.5t-17.5 -37.5q0 -46 82.5 -66t266.5 -21q104 -1 176 -4.5t123 -13t85 -26.5t62 -45q44 -44 58 -88t14 -83t-18 -84.5t-54.5 -91t-91.5 -87t-129 -73.5t-167.5 -51t-206.5 -19q-95 0 -166 20t-117.5 52.5t-69.5 74.5t-23 87q0 53 25 87.5t63.5 65
t84.5 64t88 85.5q-50 4 -92.5 21t-73.5 41t-49 53t-18 59q0 42 27 66.5t66 42t82 32.5t75 39q-112 44 -173 121.5t-61 181.5q0 79 33 147.5t91 119t136.5 79.5t169.5 29q85 0 154.5 -25t120.5 -73zM222 -323q0 -43 28.5 -86.5t77 -79t114.5 -57.5t141 -22q78 0 151 24
t129 64t90 92.5t34 110.5q0 34 -13.5 60t-36 44t-52.5 28.5t-63 13.5q-16 1 -50 2.5t-77 3t-91 2.5t-92 2.5t-79 3.5t-53 4q-26 -30 -53.5 -53t-51 -46t-38.5 -49t-15 -62zM771 552q0 79 -19 140.5t-53 104t-81.5 64.5t-103.5 22q-35 0 -76 -11.5t-76.5 -43t-59.5 -86
t-24 -139.5q0 -54 14 -113.5t45 -109t80.5 -82t119.5 -32.5q53 0 96.5 21t74 58.5t47 90.5t16.5 116zM572 1096q-58 0 -107.5 26t-86 69.5t-57.5 99.5t-21 117h31q0 -45 23.5 -80.5t59.5 -60.5t78 -38.5t80 -13.5q37 0 79 19t76.5 47.5t57.5 62.5t23 64h33
q0 -56 -21.5 -111.5t-58.5 -100t-86 -72.5t-103 -28z" />
    <glyph glyph-name="Gdotaccent" unicode="&#x120;" horiz-adv-x="1621" 
d="M115 717q0 101 27 194t76 174.5t117.5 148t150.5 114.5t175.5 74t192.5 26q79 0 155 -14t137 -31t100 -31t44 -14h12q8 0 12.5 1.5t8 3.5t7.5 3.5t12 1.5h25q2 0 6.5 -1.5t4.5 -9.5v-333q0 -11 -6.5 -15t-15.5 -4h-4q-9 1 -14 10t-8 20t-4.5 21t-2.5 15
q-100 313 -422 313q-90 0 -167 -25.5t-139.5 -70.5t-111 -106.5t-81 -134.5t-49.5 -153.5t-17 -162.5q0 -85 16.5 -169.5t49.5 -161t82 -142t113.5 -113.5t144 -75t173.5 -27q33 0 74 4t81 13.5t74.5 26t53.5 42.5v274q0 43 -10.5 76.5t-38.5 56.5t-76 35t-123 12
q-6 0 -8.5 5.5t-2.5 13.5q0 5 2.5 11.5t8.5 6.5h610q8 0 9.5 -6t1.5 -12q0 -5 -2 -10t-9 -9q-27 -11 -55.5 -19t-52.5 -21t-39.5 -35.5t-15.5 -61.5v-325q0 -8 -6.5 -13t-20.5 -11q-56 -27 -120 -49.5t-130.5 -39t-133.5 -26t-128 -9.5q-155 0 -290 51.5t-236 148
t-159 234.5t-58 310zM830 1683q-24 0 -45.5 9t-37.5 24.5t-25 36.5t-9 45q0 25 9 46.5t25 37.5t37.5 25.5t45.5 9.5q25 0 46.5 -9.5t37.5 -25.5t24.5 -37.5t8.5 -46.5q0 -24 -8.5 -45t-24.5 -36.5t-37.5 -24.5t-46.5 -9z" />
    <glyph glyph-name="gdotaccent" unicode="&#x121;" horiz-adv-x="1148" 
d="M819 831q66 0 129.5 6t138.5 6q23 0 30 -5t11 -19q6 -23 9 -42.5t3 -41.5q0 -13 -5 -17t-20 -4h-222q6 -11 13 -23t13.5 -28.5t11 -38t4.5 -50.5q0 -68 -28.5 -131.5t-83.5 -113t-134.5 -79.5t-181.5 -30q-17 0 -30.5 1t-26 3t-26 6t-29.5 9q-15 -16 -40 -29.5
t-49.5 -27.5t-42 -30.5t-17.5 -37.5q0 -46 82.5 -66t266.5 -21q104 -1 176 -4.5t123 -13t85 -26.5t62 -45q44 -44 58 -88t14 -83t-18 -84.5t-54.5 -91t-91.5 -87t-129 -73.5t-167.5 -51t-206.5 -19q-95 0 -166 20t-117.5 52.5t-69.5 74.5t-23 87q0 53 25 87.5t63.5 65
t84.5 64t88 85.5q-50 4 -92.5 21t-73.5 41t-49 53t-18 59q0 42 27 66.5t66 42t82 32.5t75 39q-112 44 -173 121.5t-61 181.5q0 79 33 147.5t91 119t136.5 79.5t169.5 29q85 0 154.5 -25t120.5 -73zM222 -323q0 -43 28.5 -86.5t77 -79t114.5 -57.5t141 -22q78 0 151 24
t129 64t90 92.5t34 110.5q0 34 -13.5 60t-36 44t-52.5 28.5t-63 13.5q-16 1 -50 2.5t-77 3t-91 2.5t-92 2.5t-79 3.5t-53 4q-26 -30 -53.5 -53t-51 -46t-38.5 -49t-15 -62zM771 552q0 79 -19 140.5t-53 104t-81.5 64.5t-103.5 22q-35 0 -76 -11.5t-76.5 -43t-59.5 -86
t-24 -139.5q0 -54 14 -113.5t45 -109t80.5 -82t119.5 -32.5q53 0 96.5 21t74 58.5t47 90.5t16.5 116zM520 1112q-24 0 -45.5 9t-37.5 24.5t-25 36.5t-9 45q0 25 9 46.5t25 37.5t37.5 25.5t45.5 9.5q25 0 46.5 -9.5t37.5 -25.5t24.5 -37.5t8.5 -46.5q0 -24 -8.5 -45
t-24.5 -36.5t-37.5 -24.5t-46.5 -9z" />
    <glyph glyph-name="Gcommaaccent" unicode="&#x122;" horiz-adv-x="1621" 
d="M115 717q0 101 27 194t76 174.5t117.5 148t150.5 114.5t175.5 74t192.5 26q79 0 155 -14t137 -31t100 -31t44 -14h12q8 0 12.5 1.5t8 3.5t7.5 3.5t12 1.5h25q2 0 6.5 -1.5t4.5 -9.5v-333q0 -11 -6.5 -15t-15.5 -4h-4q-9 1 -14 10t-8 20t-4.5 21t-2.5 15
q-100 313 -422 313q-90 0 -167 -25.5t-139.5 -70.5t-111 -106.5t-81 -134.5t-49.5 -153.5t-17 -162.5q0 -85 16.5 -169.5t49.5 -161t82 -142t113.5 -113.5t144 -75t173.5 -27q33 0 74 4t81 13.5t74.5 26t53.5 42.5v274q0 43 -10.5 76.5t-38.5 56.5t-76 35t-123 12
q-6 0 -8.5 5.5t-2.5 13.5q0 5 2.5 11.5t8.5 6.5h610q8 0 9.5 -6t1.5 -12q0 -5 -2 -10t-9 -9q-27 -11 -55.5 -19t-52.5 -21t-39.5 -35.5t-15.5 -61.5v-325q0 -8 -6.5 -13t-20.5 -11q-56 -27 -120 -49.5t-130.5 -39t-133.5 -26t-128 -9.5q-155 0 -290 51.5t-236 148
t-159 234.5t-58 310zM759 -613q0 8 6 15.5t14 13.5t15.5 11t11.5 9q17 15 36 34t34.5 41t26 45.5t10.5 49.5q0 6 -0.5 13t-4 13.5t-11 10.5t-21.5 4q-29 0 -55 6.5t-46 20.5t-32 37.5t-12 58.5q0 24 10 44.5t26.5 35.5t38 24t43.5 9q40 0 70 -18t50 -47t30 -64.5t10 -69.5
q0 -46 -13 -87.5t-36 -78.5t-54.5 -69t-69.5 -59q-14 -10 -31 -20t-31 -10q-10 0 -12.5 9.5t-2.5 17.5z" />
    <glyph glyph-name="gcommaaccent" unicode="&#x123;" horiz-adv-x="1148" 
d="M819 831q66 0 129.5 6t138.5 6q23 0 30 -5t11 -19q6 -23 9 -42.5t3 -41.5q0 -13 -5 -17t-20 -4h-222q6 -11 13 -23t13.5 -28.5t11 -38t4.5 -50.5q0 -68 -28.5 -131.5t-83.5 -113t-134.5 -79.5t-181.5 -30q-17 0 -30.5 1t-26 3t-26 6t-29.5 9q-15 -16 -40 -29.5
t-49.5 -27.5t-42 -30.5t-17.5 -37.5q0 -46 82.5 -66t266.5 -21q104 -1 176 -4.5t123 -13t85 -26.5t62 -45q44 -44 58 -88t14 -83t-18 -84.5t-54.5 -91t-91.5 -87t-129 -73.5t-167.5 -51t-206.5 -19q-95 0 -166 20t-117.5 52.5t-69.5 74.5t-23 87q0 53 25 87.5t63.5 65
t84.5 64t88 85.5q-50 4 -92.5 21t-73.5 41t-49 53t-18 59q0 42 27 66.5t66 42t82 32.5t75 39q-112 44 -173 121.5t-61 181.5q0 79 33 147.5t91 119t136.5 79.5t169.5 29q85 0 154.5 -25t120.5 -73zM222 -323q0 -43 28.5 -86.5t77 -79t114.5 -57.5t141 -22q78 0 151 24
t129 64t90 92.5t34 110.5q0 34 -13.5 60t-36 44t-52.5 28.5t-63 13.5q-16 1 -50 2.5t-77 3t-91 2.5t-92 2.5t-79 3.5t-53 4q-26 -30 -53.5 -53t-51 -46t-38.5 -49t-15 -62zM771 552q0 79 -19 140.5t-53 104t-81.5 64.5t-103.5 22q-35 0 -76 -11.5t-76.5 -43t-59.5 -86
t-24 -139.5q0 -54 14 -113.5t45 -109t80.5 -82t119.5 -32.5q53 0 96.5 21t74 58.5t47 90.5t16.5 116zM660.01 1618.06q0 -7.99902 -6 -15.499q-5.99902 -7.49902 -13.999 -13.499q-7.99902 -6 -15.499 -10.999q-7.49902 -5 -11.499 -9q-16.999 -14.999 -35.998 -33.998
q-18.999 -18.998 -34.498 -40.9971t-25.998 -45.4971q-10.499 -23.499 -10.499 -49.4971q0 -6 0.499023 -13.499q0.5 -7.5 4 -13.999q3.5 -6.5 11 -11q7.49902 -4.49902 21.498 -4.49902q28.998 0 54.9971 -6q25.998 -6 45.9971 -19.999t31.998 -36.998
q11.999 -22.998 11.999 -57.9961q0 -23.998 -9.99902 -44.4971q-10 -20.499 -26.499 -35.498t-37.9971 -23.998q-21.499 -9 -43.4971 -9q-39.998 0 -69.9961 17.999t-49.9971 46.9971t-29.998 64.4961t-9.99902 69.4961q0 45.9971 12.999 87.4941
q12.999 41.498 35.9971 78.4951q22.999 36.998 54.4971 68.9961t69.4961 58.9961q13.999 10 30.998 19.999t30.998 9.99902q9.99902 0 12.499 -10.499t2.5 -16.499z" />
    <glyph glyph-name="Hcircumflex" unicode="&#x124;" horiz-adv-x="1712" 
d="M68 0q-5 0 -6.5 3t-1.5 5v24q0 2 1.5 5t6.5 3q31 0 62.5 4.5t57.5 19.5t42.5 43t16.5 76v1067q0 34 -11 57t-31 37.5t-48 21.5t-62 9q-8 0 -8 8v19q0 8 7 8h502q5 0 6.5 -3t1.5 -5v-19q0 -6 -8 -6q-30 0 -58 -5.5t-49 -20.5t-34 -42.5t-13 -72.5v-462q0 -10 3 -13t13 -3
h788q10 0 13 3t3 13v478q-2 9 -2.5 16.5t-1.5 14.5q-5 24 -29 41t-56.5 28t-68 16t-64.5 7q-8 0 -8 8v19q0 8 7 8h577q5 0 6.5 -3t1.5 -5v-19q0 -6 -8 -6q-30 0 -58.5 -5.5t-51 -20.5t-36 -42.5t-13.5 -72.5v-1055q0 -26 7.5 -46.5t23.5 -40.5q16 -22 52.5 -37t103.5 -17
q8 0 8 -8v-24q0 -8 -8 -8h-636q-5 0 -6.5 3t-1.5 5v24q0 2 1.5 5t6.5 3q30 0 73 4t83.5 17.5t69 39t28.5 69.5v477q0 10 -3 13t-13 3h-788q-10 0 -13 -3t-3 -13v-487q0 -34 15 -57t39.5 -37t56.5 -20t66 -6q6 0 7 -3t1 -5v-24q0 -2 -1 -5t-6 -3h-552v0zM877 1788
q-3 3 -11 12t-10 9t-9.5 -9t-10.5 -12l-214 -224q-2 -2 -5 -3t-5 -1q-3 0 -7 4t-8 9.5t-7 10.5t-3 8q0 5 7 15l238 323q6 6 12.5 13t11.5 7t12.5 -7t13.5 -15l248 -321q7 -11 7 -15q0 -3 -3 -8t-7 -10.5t-8 -9.5t-7 -4q-4 0 -8 4z" />
    <glyph glyph-name="hcircumflex" unicode="&#x125;" horiz-adv-x="1124" 
d="M565 1903q-1 0 -3.5 -2t-10 -9t-22.5 -20.5t-41 -36.5t-64.5 -57.5t-92.5 -82.5q-2 -2 -5 -3t-5 -1q-3 0 -7 3.5t-8 8t-7 9t-3 6.5q0 6 7 13l238 274q6 5 12.5 11t11.5 6t12.5 -6t13.5 -12l248 -273q7 -9 7 -13q0 -2 -3 -6.5t-7 -9t-8 -8t-7 -3.5q-4 0 -8 4zM496 16
q0 -14 -10 -16h-446q-10 2 -10 16q0 9 10 13q13 6 37 9.5t48 14t42 33t18 66.5v1247q0 24 -13 37.5t-33 20.5t-43 11.5t-44 10.5q-6 2 -9.5 5.5t-3.5 14.5q0 5 3 10t12 10l255 120q4 2 8.5 4t6.5 2q17 0 17 -24v-847q0 -4 1 -14t6 -10q7 0 10 3.5t9 9.5q29 33 58.5 62.5
t61.5 52t69.5 35.5t83.5 13q62 0 116.5 -14.5t95 -54t64 -109t23.5 -179.5v-417q0 -44 18 -66.5t42 -33t48 -14t37 -9.5q10 -4 10 -13q0 -14 -10 -16h-446q-10 2 -10 16q0 9 10 13q13 6 37 9.5t48 14t42 33t18 66.5v407q0 58 -3 109t-20.5 89t-56 59.5t-108.5 21.5
q-36 0 -80 -17.5t-83 -47t-65 -68t-26 -80.5v-473q0 -44 18 -66.5t42 -33t48 -14t37 -9.5q10 -4 10 -13z" />
    <glyph glyph-name="Hbar" unicode="&#x126;" horiz-adv-x="1712" 
d="M68 0q-5 0 -6.5 3t-1.5 5v24q0 2 1.5 5t6.5 3q31 0 62.5 4.5t57.5 19.5t42.5 43t16.5 76v869h-128q-19 0 -30.5 7t-11.5 18v36q0 11 11.5 18t30.5 7h128v112q0 34 -11 57t-31 37.5t-48 21.5t-62 9q-8 0 -8 8v19q0 8 7 8h502q5 0 6.5 -3t1.5 -5v-19q0 -6 -8 -6
q-30 0 -58 -5.5t-49 -20.5t-34 -42.5t-13 -72.5v-98h820v114q-2 9 -2.5 16.5t-1.5 14.5q-5 24 -29 41t-56.5 28t-68 16t-64.5 7q-8 0 -8 8v19q0 8 7 8h577q5 0 6.5 -3t1.5 -5v-19q0 -6 -8 -6q-30 0 -58.5 -5.5t-51 -20.5t-36 -42.5t-13.5 -72.5v-98h126q19 0 30 -7t11 -18
v-36q0 -11 -11 -18t-30 -7h-126v-871q0 -26 7.5 -46.5t23.5 -40.5q16 -22 52.5 -37t103.5 -17q8 0 8 -8v-24q0 -8 -8 -8h-636q-5 0 -6.5 3t-1.5 5v24q0 2 1.5 5t6.5 3q30 0 73 4t83.5 17.5t69 39t28.5 69.5v477q0 10 -3 13t-13 3h-788q-10 0 -13 -3t-3 -13v-487
q0 -34 15 -57t39.5 -37t56.5 -20t66 -6q6 0 7 -3t1 -5v-24q0 -2 -1 -5t-6 -3h-552zM442 774q0 -10 3 -13t13 -3h788q10 0 13 3t3 13v278h-820v-278z" />
    <glyph glyph-name="hbar" unicode="&#x127;" horiz-adv-x="1124" 
d="M73 1144q-25 0 -25 25v36q0 25 25 25h112v169q0 24 -13 37.5t-33 20.5t-43 11.5t-44 10.5q-6 2 -9.5 5.5t-3.5 14.5q0 5 3 10t12 10l255 120q4 2 8.5 4t6.5 2q17 0 17 -24v-391h307q25 0 25 -25v-36q0 -25 -25 -25h-307v-370q0 -4 1 -14t6 -10q7 0 10 3.5t9 9.5
q29 33 58.5 62.5t61.5 52t69.5 35.5t83.5 13q62 0 116.5 -14.5t95 -54t64 -109t23.5 -179.5v-417q0 -44 18 -66.5t42 -33t48 -14t37 -9.5q10 -4 10 -13q0 -14 -10 -16h-446q-10 2 -10 16q0 9 10 13q13 6 37 9.5t48 14t42 33t18 66.5v407q0 58 -3 109t-20.5 89t-56 59.5
t-108.5 21.5q-36 0 -80 -17.5t-83 -47t-65 -68t-26 -80.5v-473q0 -44 18 -66.5t42 -33t48 -14t37 -9.5q10 -4 10 -13q0 -14 -10 -16h-446q-10 2 -10 16q0 9 10 13q13 6 37 9.5t48 14t42 33t18 66.5v992h-112v0z" />
    <glyph glyph-name="Itilde" unicode="&#x128;" horiz-adv-x="699" 
d="M447 160q0 -34 10.5 -57t30 -37t48 -20t63.5 -6q8 0 8 -8v-24q0 -3 -1 -5.5t-7 -2.5h-501q-5 0 -6.5 3t-1.5 5v24q0 2 1.5 5t6.5 3q35 0 63.5 4.5t48.5 19.5t31 43t11 76v1067q0 34 -10.5 57t-30 37t-48 20t-63.5 6q-8 0 -8 8v24q0 8 8 8h501q5 0 6.5 -3t1.5 -5v-24
q0 -2 -1.5 -5t-6.5 -3q-35 0 -63.5 -4.5t-48.5 -19.5t-31 -43t-11 -76v-1067v0zM638 1928q5 0 7.5 -5t4 -11.5t2 -13.5t0.5 -11q0 -33 -11 -67t-32 -62t-51 -45.5t-68 -17.5q-41 0 -79 16t-74.5 35.5t-73.5 36t-76 16.5q-14 0 -29.5 -9t-28.5 -24.5t-21.5 -36.5t-8.5 -45
q0 -8 -5 -10t-11 -2h-21q-8 0 -8 16q0 46 11 88t31 73t49 49.5t65 18.5q42 0 82 -16.5t79.5 -36t79 -36t78.5 -16.5q18 0 32 10t23.5 25.5t14 33.5t4.5 33q0 6 5 10t11 4h19z" />
    <glyph glyph-name="itilde" unicode="&#x129;" horiz-adv-x="576" 
d="M579 1368q5 0 7.5 -5t4 -11.5t2 -13.5t0.5 -11q0 -33 -11 -67t-32 -62t-51 -45.5t-68 -17.5q-41 0 -79 16t-74.5 35.5t-73.5 36t-76 16.5q-14 0 -29.5 -9t-28.5 -24.5t-21.5 -36.5t-8.5 -45q0 -8 -5 -10t-11 -2h-21q-8 0 -8 16q0 46 11 88t31 73t49 49.5t65 18.5
q42 0 82 -16.5t79.5 -36t79 -36t78.5 -16.5q18 0 32 10t23.5 25.5t14 33.5t4.5 33q0 6 5 10t11 4h19zM526 16q0 -14 -10 -16h-446q-10 2 -10 16q0 9 10 13q13 6 37 9.5t48 14t42 33t18 66.5v529q0 24 -13 37.5t-33 20.5t-43 11.5t-44 10.5q-6 2 -9.5 5.5t-3.5 14.5q0 5 3 10
t12 10l255 120q4 2 8.5 4t6.5 2q17 0 17 -24v-751q0 -44 18 -66.5t42 -33t48 -14t37 -9.5q10 -4 10 -13z" />
    <glyph glyph-name="Imacron" unicode="&#x12a;" horiz-adv-x="699" 
d="M447 160q0 -34 10.5 -57t30 -37t48 -20t63.5 -6q8 0 8 -8v-24q0 -3 -1 -5.5t-7 -2.5h-501q-5 0 -6.5 3t-1.5 5v24q0 2 1.5 5t6.5 3q35 0 63.5 4.5t48.5 19.5t31 43t11 76v1067q0 34 -10.5 57t-30 37t-48 20t-63.5 6q-8 0 -8 8v24q0 8 8 8h501q5 0 6.5 -3t1.5 -5v-24
q0 -2 -1.5 -5t-6.5 -3q-35 0 -63.5 -4.5t-48.5 -19.5t-31 -43t-11 -76v-1067v0zM26 1864h647v-129h-647v129z" />
    <glyph glyph-name="imacron" unicode="&#x12b;" horiz-adv-x="603" 
d="M543 16q0 -14 -10 -16h-446q-10 2 -10 16q0 9 10 13q13 6 37 9.5t48 14t42 33t18 66.5v529q0 24 -13 37.5t-33 20.5t-43 11.5t-44 10.5q-6 2 -9.5 5.5t-3.5 14.5q0 5 3 10t12 10l255 120q4 2 8.5 4t6.5 2q17 0 17 -24v-751q0 -44 18 -66.5t42 -33t48 -14t37 -9.5
q10 -4 10 -13zM-46 1322h647v-129h-647v129z" />
    <glyph glyph-name="Ibreve" unicode="&#x12c;" horiz-adv-x="699" 
d="M447 160q0 -34 10.5 -57t30 -37t48 -20t63.5 -6q8 0 8 -8v-24q0 -3 -1 -5.5t-7 -2.5h-501q-5 0 -6.5 3t-1.5 5v24q0 2 1.5 5t6.5 3q35 0 63.5 4.5t48.5 19.5t31 43t11 76v1067q0 34 -10.5 57t-30 37t-48 20t-63.5 6q-8 0 -8 8v24q0 8 8 8h501q5 0 6.5 -3t1.5 -5v-24
q0 -2 -1.5 -5t-6.5 -3q-35 0 -63.5 -4.5t-48.5 -19.5t-31 -43t-11 -76v-1067v0zM351 1639q-58 0 -107.5 26t-86 69.5t-57.5 99.5t-21 117h31q0 -45 23.5 -80.5t59.5 -60.5t78 -38.5t80 -13.5q37 0 79 19t76.5 47.5t57.5 62.5t23 64h33q0 -56 -21.5 -111.5t-58.5 -100
t-86 -72.5t-103 -28z" />
    <glyph glyph-name="ibreve" unicode="&#x12d;" horiz-adv-x="581" 
d="M526 16q0 -14 -10 -16h-446q-10 2 -10 16q0 9 10 13q13 6 37 9.5t48 14t42 33t18 66.5v529q0 24 -13 37.5t-33 20.5t-43 11.5t-44 10.5q-6 2 -9.5 5.5t-3.5 14.5q0 5 3 10t12 10l255 120q4 2 8.5 4t6.5 2q17 0 17 -24v-751q0 -44 18 -66.5t42 -33t48 -14t37 -9.5
q10 -4 10 -13zM272 1096q-58 0 -107.5 26t-86 69.5t-57.5 99.5t-21 117h31q0 -45 23.5 -80.5t59.5 -60.5t78 -38.5t80 -13.5q37 0 79 19t76.5 47.5t57.5 62.5t23 64h33q0 -56 -21.5 -111.5t-58.5 -100t-86 -72.5t-103 -28z" />
    <glyph glyph-name="Iogonek" unicode="&#x12e;" horiz-adv-x="699" 
d="M447 160q0 -34 10.5 -57t30 -37t48 -20t63.5 -6q8 0 8 -8v-24q0 -3 -1 -5.5t-7 -2.5h-501q-5 0 -6.5 3t-1.5 5v24q0 2 1.5 5t6.5 3q35 0 63.5 4.5t48.5 19.5t31 43t11 76v1067q0 34 -10.5 57t-30 37t-48 20t-63.5 6q-8 0 -8 8v24q0 8 8 8h501q5 0 6.5 -3t1.5 -5v-24
q0 -2 -1.5 -5t-6.5 -3q-35 0 -63.5 -4.5t-48.5 -19.5t-31 -43t-11 -76v-1067v0zM481 0q-2 -1 -15 -15.5t-29.5 -33t-30.5 -36t-17 -24.5q-21 -35 -33.5 -65.5t-19 -55.5t-8.5 -45t-2 -34q0 -33 11.5 -59.5t31.5 -45.5t47.5 -29t60.5 -10q11 0 27 2t33 2q14 0 23 -5.5
t9 -18.5q0 -16 -12.5 -27.5t-32 -18.5t-42.5 -10t-44 -3q-42 0 -86 8t-79.5 29t-58.5 58t-23 95q0 48 18.5 97.5t48 95t66.5 84t75 65.5h82z" />
    <glyph glyph-name="iogonek" unicode="&#x12f;" horiz-adv-x="576" 
d="M70 0q-10 2 -10 16q0 9 10 13q13 6 37 9.5t48 14t42 33t18 66.5v529q0 24 -13 37.5t-33 20.5t-43 11.5t-44 10.5q-6 2 -9.5 5.5t-3.5 14.5q0 5 3 10t12 10l255 120q4 2 8.5 4t6.5 2q17 0 17 -24v-751q0 -44 18 -66.5t42 -33t48 -14t37 -9.5q10 -4 10 -13q0 -14 -10 -16
h-446zM174 1307q0 46 30 73t76 27q19 0 36 -9t30 -23.5t20.5 -32t7.5 -35.5q0 -20 -7.5 -37.5t-20 -31.5t-29.5 -22t-35 -8q-45 0 -76.5 26t-31.5 73zM382 0q-2 -1 -15 -15.5t-29.5 -33t-30.5 -36t-17 -24.5q-21 -35 -33.5 -65.5t-19 -55.5t-8.5 -45t-2 -34
q0 -33 11.5 -59.5t31.5 -45.5t47.5 -29t60.5 -10q11 0 27 2t33 2q14 0 23 -5.5t9 -18.5q0 -16 -12.5 -27.5t-32 -18.5t-42.5 -10t-44 -3q-42 0 -86 8t-79.5 29t-58.5 58t-23 95q0 48 18.5 97.5t48 95t66.5 84t75 65.5h82z" />
    <glyph glyph-name="Idotaccent" unicode="&#x130;" horiz-adv-x="699" 
d="M447 160q0 -34 10.5 -57t30 -37t48 -20t63.5 -6q8 0 8 -8v-24q0 -3 -1 -5.5t-7 -2.5h-501q-5 0 -6.5 3t-1.5 5v24q0 2 1.5 5t6.5 3q35 0 63.5 4.5t48.5 19.5t31 43t11 76v1067q0 34 -10.5 57t-30 37t-48 20t-63.5 6q-8 0 -8 8v24q0 8 8 8h501q5 0 6.5 -3t1.5 -5v-24
q0 -2 -1.5 -5t-6.5 -3q-35 0 -63.5 -4.5t-48.5 -19.5t-31 -43t-11 -76v-1067v0zM350 1683q-24 0 -45.5 9t-37.5 24.5t-25 36.5t-9 45q0 25 9 46.5t25 37.5t37.5 25.5t45.5 9.5q25 0 46.5 -9.5t37.5 -25.5t24.5 -37.5t8.5 -46.5q0 -24 -8.5 -45t-24.5 -36.5t-37.5 -24.5
t-46.5 -9z" />
    <glyph glyph-name="dotlessi" unicode="&#x131;" horiz-adv-x="576" 
d="M526 16q0 -14 -10 -16h-446q-10 2 -10 16q0 9 10 13q13 6 37 9.5t48 14t42 33t18 66.5v529q0 24 -13 37.5t-33 20.5t-43 11.5t-44 10.5q-6 2 -9.5 5.5t-3.5 14.5q0 5 3 10t12 10l255 120q4 2 8.5 4t6.5 2q17 0 17 -24v-751q0 -44 18 -66.5t42 -33t48 -14t37 -9.5
q10 -4 10 -13z" />
    <glyph glyph-name="IJ" unicode="&#x132;" horiz-adv-x="1392" 
d="M447 160q0 -34 10.5 -57t30 -37t48 -20t63.5 -6q8 0 8 -8v-24q0 -3 -1 -5.5t-7 -2.5h-501q-5 0 -6.5 3t-1.5 5v24q0 2 1.5 5t6.5 3q35 0 63.5 4.5t48.5 19.5t31 43t11 76v1067q0 34 -10.5 57t-30 37t-48 20t-63.5 6q-8 0 -8 8v24q0 8 8 8h501q5 0 6.5 -3t1.5 -5v-24
q0 -2 -1.5 -5t-6.5 -3q-35 0 -63.5 -4.5t-48.5 -19.5t-31 -43t-11 -76v-1067v0zM945 1250q0 38 -13.5 61.5t-38.5 36.5t-61 17.5t-81 4.5q-8 0 -8 8v24q0 8 8 8h543q5 0 6.5 -3t1.5 -5v-24q0 -2 -1.5 -5t-6.5 -3q-31 0 -59 -4.5t-49 -19.5t-33.5 -43t-12.5 -76v-1237
q0 -66 -14.5 -139t-42.5 -143t-69.5 -133t-96 -111t-122 -76t-146.5 -28q-29 0 -63.5 8t-64.5 22t-51 33t-21 42q0 21 9.5 38t24 29t32.5 18.5t36 6.5q30 0 52 -7t38.5 -17.5t29 -23t26 -23t28 -17.5t35.5 -7q45 0 76.5 19t52 51.5t32 75.5t17 91.5t6.5 100t1 100.5v1350v0z
" />
    <glyph glyph-name="ij" unicode="&#x133;" horiz-adv-x="1104" 
d="M70 0q-10 2 -10 16q0 9 10 13q13 6 37 9.5t48 14t42 33t18 66.5v529q0 24 -13 37.5t-33 20.5t-43 11.5t-44 10.5q-6 2 -9.5 5.5t-3.5 14.5q0 5 3 10t12 10l255 120q4 2 8.5 4t6.5 2q17 0 17 -24v-751q0 -44 18 -66.5t42 -33t48 -14t37 -9.5q10 -4 10 -13q0 -14 -10 -16
h-446zM174 1307q0 46 30 73t76 27q19 0 36 -9t30 -23.5t20.5 -32t7.5 -35.5q0 -20 -7.5 -37.5t-20 -31.5t-29.5 -22t-35 -8q-45 0 -76.5 26t-31.5 73zM859 921q4 2 8.5 4t6.5 2q17 0 17 -24v-1030q0 -47 -7 -97t-21.5 -99t-37.5 -94.5t-55 -82.5q-32 -43 -67 -70.5
t-75.5 -43t-89 -21t-106.5 -5.5q-24 0 -51 11t-50.5 29t-39.5 41t-18 47q0 15 6.5 31t18.5 28.5t28.5 20.5t36.5 8q2 0 6.5 -1.5t18 -9.5t38.5 -26t68 -51q20 -15 50.5 -23t84.5 -8q34 8 55 33.5t32.5 58.5t15 69t3.5 65v998q0 24 -13 37.5t-33 20.5t-43 11.5t-44 10.5
q-6 2 -9.5 5.5t-3.5 14.5q0 5 3 10t12 10zM680 1307q0 46 30 73t77 27q19 0 36 -9t30 -23.5t20.5 -32t7.5 -35.5q0 -20 -7.5 -37.5t-20 -31.5t-29.5 -22t-35 -8q-45 0 -77 26t-32 73z" />
    <glyph glyph-name="Jcircumflex" unicode="&#x134;" horiz-adv-x="693" 
d="M246 1250q0 38 -13.5 61.5t-38.5 36.5t-61 17.5t-81 4.5q-8 0 -8 8v24q0 8 8 8h543q5 0 6.5 -3t1.5 -5v-24q0 -2 -1.5 -5t-6.5 -3q-31 0 -59 -4.5t-49 -19.5t-33.5 -43t-12.5 -76v-1237q0 -66 -14.5 -139t-42.5 -143t-69.5 -133t-96 -111t-122 -76t-146.5 -28
q-29 0 -63.5 8t-64.5 22t-51 33t-21 42q0 21 9.5 38t24 29t32.5 18.5t36 6.5q30 0 52 -7t38.5 -17.5t29 -23t26 -23t28 -17.5t35.5 -7q45 0 76.5 19t52 51.5t32 75.5t17 91.5t6.5 100t1 100.5v1350v0zM341 1788q-3 3 -11 12t-10 9t-9.5 -9t-10.5 -12l-214 -224q-2 -2 -5 -3
t-5 -1q-3 0 -7 4t-8 9.5t-7 10.5t-3 8q0 5 7 15l238 323q6 6 12.5 13t11.5 7t12.5 -7t13.5 -15l248 -321q7 -11 7 -15q0 -3 -3 -8t-7 -10.5t-8 -9.5t-7 -4q-4 0 -8 4z" />
    <glyph glyph-name="jcircumflex" unicode="&#x135;" horiz-adv-x="577" 
d="M305 1291q-3 3 -11 12t-10 9t-9.5 -9t-10.5 -12l-214 -224q-2 -2 -5 -3t-5 -1q-3 0 -7 4t-8 9.5t-7 10.5t-3 8q0 5 7 15l238 323q6 6 12.5 13t11.5 7t12.5 -7t13.5 -15l248 -321q7 -11 7 -15q0 -3 -3 -8t-7 -10.5t-8 -9.5t-7 -4q-4 0 -8 4zM339 921q4 2 8.5 4t6.5 2
q17 0 17 -24v-1030q0 -47 -7 -97t-21.5 -99t-37.5 -94.5t-55 -82.5q-32 -43 -67 -70.5t-75.5 -43t-89 -21t-106.5 -5.5q-24 0 -51 11t-50.5 29t-39.5 41t-18 47q0 15 6.5 31t18.5 28.5t28.5 20.5t36.5 8q2 0 6.5 -1.5t18 -9.5t38.5 -26t68 -51q20 -15 50.5 -23t84.5 -8
q34 8 55 33.5t32.5 58.5t15 69t3.5 65v998q0 24 -13 37.5t-33 20.5t-43 11.5t-44 10.5q-6 2 -9.5 5.5t-3.5 14.5q0 5 3 10t12 10z" />
    <glyph glyph-name="Kcommaaccent" unicode="&#x136;" horiz-adv-x="1524" 
d="M248 1250q0 34 -18.5 57t-47.5 37.5t-64.5 21.5t-69.5 9q-8 0 -8 8v19q0 8 7 8h588q5 0 6.5 -3t1.5 -5v-19q0 -6 -8 -6q-29 0 -62.5 -5t-62.5 -19t-48 -39t-19 -66v-441q0 -42 3 -65t14 -23q6 0 11.5 0.5t10.5 3.5q57 26 105 65.5t89 86t77 98t69 102.5q18 28 38 56.5
t36.5 56t27.5 53t11 49.5q0 31 -13 48t-33 25t-43 10t-43 2h-10q-5 0 -6.5 3t-1.5 5v19q0 2 1 5t7 3h578q5 0 6.5 -3t1.5 -5v-19q0 -3 -3 -7.5t-9 -4.5q-61 -2 -111.5 -11.5t-92.5 -30.5t-77.5 -56t-66.5 -87q-53 -90 -97 -154.5t-78.5 -109t-61 -72t-44.5 -46t-28.5 -30
t-12.5 -22.5q5 -10 23 -26.5t47.5 -43.5t70.5 -67t93 -98.5t115 -138t136 -183.5q35 -51 88 -89.5t119 -52.5q34 -8 54 -12t32 -5.5t19.5 -2t16.5 -0.5q5 0 6.5 -3t1.5 -5v-17q0 -8 -8 -8h-654q-8 0 -8 8v19q0 7 8 8q13 2 36.5 4t46 8t39.5 19t17 38q-2 17 -22.5 50
t-50.5 72.5t-64.5 80.5t-63.5 74q-35 39 -73.5 86.5t-80 89.5t-84.5 70t-85 28h-19q-8 0 -9 -3.5t-1 -10.5v-468q0 -45 18.5 -72.5t47 -42.5t62.5 -20t64 -5q5 0 6.5 -3t1.5 -5v-17q0 -2 -1.5 -5t-6.5 -3h-588q-7 0 -7 8v19q0 8 8 8q34 1 69.5 8.5t64.5 22t47.5 37.5
t18.5 57v1090zM639 -613q0 8 6 15.5t14 13.5t15.5 11t11.5 9q17 15 36 34t34.5 41t26 45.5t10.5 49.5q0 6 -0.5 13t-4 13.5t-11 10.5t-21.5 4q-29 0 -55 6.5t-46 20.5t-32 37.5t-12 58.5q0 24 10 44.5t26.5 35.5t38 24t43.5 9q40 0 70 -18t50 -47t30 -64.5t10 -69.5
q0 -46 -13 -87.5t-36 -78.5t-54.5 -69t-69.5 -59q-14 -10 -31 -20t-31 -10q-10 0 -12.5 9.5t-2.5 17.5z" />
    <glyph glyph-name="kcommaaccent" unicode="&#x137;" horiz-adv-x="1096" 
d="M510 17q0 -6 -2 -11.5t-8 -5.5h-446q-10 2 -10 16q0 9 10 13q13 6 37 9.5t48 14t42 33t18 66.5v1247q0 24 -13 37.5t-33 20.5t-43 11.5t-44 10.5q-6 2 -9.5 5.5t-3.5 14.5q0 5 3 10t12 10l255 120q4 2 8.5 4t6.5 2q17 0 17 -24v-998q8 -29 21 -34t26 -5q17 0 43.5 13.5
t57 34.5t61 47t55 51.5t40 47t15.5 33.5q0 20 -19 25.5t-42.5 8t-42.5 8t-19 24.5q0 14 13 18.5t28 4.5h381q4 0 10 -0.5t11.5 -3t9.5 -7t4 -12.5q0 -12 -23 -19t-57 -14.5t-71.5 -19t-65.5 -33.5l-287 -224q0 -8 7 -17.5t12 -14.5l411 -433q26 -27 53 -40t49 -19.5
t36 -10.5t14 -14q0 -5 -2 -11.5t-14 -6.5h-439q-7 0 -8.5 5.5t-1.5 11.5q0 7 10 12t25.5 8t30 8.5t24.5 14.5t10 26q0 11 -15 29t-28 35l-309 327q0 1 -1 2h-1q-6 0 -9 -15t-3 -34v-278q0 -44 18 -66.5t42 -33t48 -14t37 -9.5q10 -4 10 -12zM469 -613q0 8 6 15.5t14 13.5
t15.5 11t11.5 9q17 15 36 34t34.5 41t26 45.5t10.5 49.5q0 6 -0.5 13t-4 13.5t-11 10.5t-21.5 4q-29 0 -55 6.5t-46 20.5t-32 37.5t-12 58.5q0 24 10 44.5t26.5 35.5t38 24t43.5 9q40 0 70 -18t50 -47t30 -64.5t10 -69.5q0 -46 -13 -87.5t-36 -78.5t-54.5 -69t-69.5 -59
q-14 -10 -31 -20t-31 -10q-10 0 -12.5 9.5t-2.5 17.5z" />
    <glyph glyph-name="kgreenlandic" unicode="&#x138;" horiz-adv-x="1096" 
d="M510 17q0 -6 -2 -10.5t-8 -6.5h-446q-10 2 -10 16q0 9 10 13q13 6 37 9.5t48 14t42 33t18 66.5v578q0 24 -13 37.5t-33 20.5t-43 11.5t-44 10.5q-6 2 -9.5 5.5t-3.5 14.5q0 5 3 10t12 10l255 120q4 2 8.5 4t6.5 2q17 0 17 -24v-329q8 -29 21 -34t26 -5q17 0 43.5 13.5
t57 34.5t61 47t55 51.5t40 47t15.5 33.5q0 20 -19 25.5t-42.5 8t-42.5 8t-19 24.5q0 14 13 18.5t28 4.5h381q4 0 10 -0.5t11.5 -3t9.5 -7t4 -12.5q0 -12 -23 -19t-57 -14.5t-71.5 -19t-65.5 -33.5l-287 -224q0 -8 7 -17.5t12 -14.5l411 -433q26 -27 53 -40t49 -19.5
t36 -10.5t14 -14q0 -5 -2 -11.5t-14 -6.5h-429q-8 0 -14 4.5t-6 13.5q0 11 15.5 17t34.5 12t34.5 14.5t15.5 24.5q0 14 -15 30.5t-28 33.5l-309 327q0 1 -1 2h-1q-6 0 -9 -15t-3 -34v-278q0 -44 18 -66.5t42 -33t48 -14t37 -9.5q10 -4 10 -12z" />
    <glyph glyph-name="Lacute" unicode="&#x139;" horiz-adv-x="1239" 
d="M48 0q-5 0 -6.5 3t-1.5 5v24q0 2 1 5t7 3h24q3 0 19.5 1.5t38 5t44.5 9.5t39 15q35 20 52 51.5t17 70.5v1058q0 36 -23.5 59t-56 36.5t-66 18.5t-53.5 5h-22q-5 0 -6.5 3.5t-1.5 4.5v24q0 2 1.5 5t6.5 3h677q5 0 6.5 -3t1.5 -5v-24q0 -2 -1.5 -5t-6.5 -3h-43
q-56 0 -104 -9t-78 -20q-23 -8 -29.5 -26.5t-6.5 -63.5v-1109q2 -17 18 -32t36 -15h395q35 0 66.5 15t58.5 38.5t50 51.5t42 54t34 46.5t26 29.5q5 3 9.5 6t9.5 3q10 0 10 -13q0 -6 -3 -12l-151 -296q-4 -8 -9 -13t-12 -5h-1009v0zM292 1594q-4 4 -4 6t4 6l213 295
q19 26 38 37.5t37 11.5q31 0 51.5 -22.5t20.5 -51.5q0 -31 -17.5 -54t-37.5 -40l-269 -217q-5 -3 -7 -3q-4 0 -4.5 0.5l-2.5 2.5z" />
    <glyph glyph-name="lacute" unicode="&#x13a;" horiz-adv-x="521" 
d="M486 16q0 -14 -10 -16h-446q-10 2 -10 16q0 9 10 13q13 6 37 9.5t48 14t42 33t18 66.5v1247q0 24 -13 37.5t-33 20.5t-43 11.5t-44 10.5q-6 2 -9.5 5.5t-3.5 14.5q0 5 3 10t12 10l255 120q4 2 8.5 4t6.5 2q17 0 17 -24v-1469q0 -44 18 -66.5t42 -33t48 -14t37 -9.5
q10 -4 10 -13zM66 1756q0 4 4 8l282 230q20 16 37.5 23t32.5 7q31 0 49.5 -23t18.5 -51q0 -18 -7.5 -33t-19 -27t-25.5 -20.5t-28 -14.5l-316 -140q-1 -1 -4 -1q-7 0 -9 5z" />
    <glyph glyph-name="Lcommaaccent" unicode="&#x13b;" horiz-adv-x="1239" 
d="M48 0q-5 0 -6.5 3t-1.5 5v24q0 2 1 5t7 3h24q3 0 19.5 1.5t38 5t44.5 9.5t39 15q35 20 52 51.5t17 70.5v1058q0 36 -23.5 59t-56 36.5t-66 18.5t-53.5 5h-22q-5 0 -6.5 3.5t-1.5 4.5v24q0 2 1.5 5t6.5 3h677q5 0 6.5 -3t1.5 -5v-24q0 -2 -1.5 -5t-6.5 -3h-43
q-56 0 -104 -9t-78 -20q-23 -8 -29.5 -26.5t-6.5 -63.5v-1109q2 -17 18 -32t36 -15h395q35 0 66.5 15t58.5 38.5t50 51.5t42 54t34 46.5t26 29.5q5 3 9.5 6t9.5 3q10 0 10 -13q0 -6 -3 -12l-151 -296q-4 -8 -9 -13t-12 -5h-1009v0zM519 -613q0 8 6 15.5t14 13.5t15.5 11
t11.5 9q17 15 36 34t34.5 41t26 45.5t10.5 49.5q0 6 -0.5 13t-4 13.5t-11 10.5t-21.5 4q-29 0 -55 6.5t-46 20.5t-32 37.5t-12 58.5q0 24 10 44.5t26.5 35.5t38 24t43.5 9q40 0 70 -18t50 -47t30 -64.5t10 -69.5q0 -46 -13 -87.5t-36 -78.5t-54.5 -69t-69.5 -59
q-14 -10 -31 -20t-31 -10q-10 0 -12.5 9.5t-2.5 17.5z" />
    <glyph glyph-name="lcommaaccent" unicode="&#x13c;" horiz-adv-x="521" 
d="M486 16q0 -14 -10 -16h-446q-10 2 -10 16q0 9 10 13q13 6 37 9.5t48 14t42 33t18 66.5v1247q0 24 -13 37.5t-33 20.5t-43 11.5t-44 10.5q-6 2 -9.5 5.5t-3.5 14.5q0 5 3 10t12 10l255 120q4 2 8.5 4t6.5 2q17 0 17 -24v-1469q0 -44 18 -66.5t42 -33t48 -14t37 -9.5
q10 -4 10 -13zM149 -613q0 8 6 15.5t14 13.5t15.5 11t11.5 9q17 15 36 34t34.5 41t26 45.5t10.5 49.5q0 6 -0.5 13t-4 13.5t-11 10.5t-21.5 4q-29 0 -55 6.5t-46 20.5t-32 37.5t-12 58.5q0 24 10 44.5t26.5 35.5t38 24t43.5 9q40 0 70 -18t50 -47t30 -64.5t10 -69.5
q0 -46 -13 -87.5t-36 -78.5t-54.5 -69t-69.5 -59q-14 -10 -31 -20t-31 -10q-10 0 -12.5 9.5t-2.5 17.5z" />
    <glyph glyph-name="Lcaron" unicode="&#x13d;" horiz-adv-x="1239" 
d="M48 0q-5 0 -6.5 3t-1.5 5v24q0 2 1 5t7 3h24q3 0 19.5 1.5t38 5t44.5 9.5t39 15q35 20 52 51.5t17 70.5v1058q0 36 -23.5 59t-56 36.5t-66 18.5t-53.5 5h-22q-5 0 -6.5 3.5t-1.5 4.5v24q0 2 1.5 5t6.5 3h677q5 0 6.5 -3t1.5 -5v-24q0 -2 -1.5 -5t-6.5 -3h-43
q-56 0 -104 -9t-78 -20q-23 -8 -29.5 -26.5t-6.5 -63.5v-1109q2 -17 18 -32t36 -15h395q35 0 66.5 15t58.5 38.5t50 51.5t42 54t34 46.5t26 29.5q5 3 9.5 6t9.5 3q10 0 10 -13q0 -6 -3 -12l-151 -296q-4 -8 -9 -13t-12 -5h-1009v0zM938 914q0 8 6 15.5t14 13.5t15.5 11
t11.5 9q17 15 36 34t34.5 41t26 45.5t10.5 49.5q0 6 -0.5 13.5t-4 14t-11 11t-21.5 4.5q-29 0 -55 6t-46 20t-32 37t-12 58q0 24 10 44.5t26.5 35.5t38 24t43.5 9q40 0 70 -18t50 -47t30 -64.5t10 -69.5q0 -46 -13 -87.5t-36 -78.5t-54.5 -69t-69.5 -59q-14 -10 -31 -20
t-31 -10q-10 0 -12.5 10.5t-2.5 16.5z" />
    <glyph glyph-name="lcaron" unicode="&#x13e;" horiz-adv-x="747" 
d="M486 16q0 -14 -10 -16h-446q-10 2 -10 16q0 9 10 13q13 6 37 9.5t48 14t42 33t18 66.5v1247q0 24 -13 37.5t-33 20.5t-43 11.5t-44 10.5q-6 2 -9.5 5.5t-3.5 14.5q0 5 3 10t12 10l255 120q4 2 8.5 4t6.5 2q17 0 17 -24v-1469q0 -44 18 -66.5t42 -33t48 -14t37 -9.5
q10 -4 10 -13zM528 1147q0 8 6 15.5t14 13.5t15.5 11t11.5 9q17 15 36 34t34.5 41t26 45.5t10.5 49.5q0 6 -0.5 13.5t-4 14t-11 11t-21.5 4.5q-29 0 -55 6t-46 20t-32 37t-12 58q0 24 10 44.5t26.5 35.5t38 24t43.5 9q40 0 70 -18t50 -47t30 -64.5t10 -69.5q0 -46 -13 -87.5
t-36 -78.5t-54.5 -69t-69.5 -59q-14 -10 -31 -20t-31 -10q-10 0 -12.5 10.5t-2.5 16.5z" />
    <glyph glyph-name="Ldot" unicode="&#x13f;" horiz-adv-x="1239" 
d="M48 0q-5 0 -6.5 3t-1.5 5v24q0 2 1 5t7 3h24q3 0 19.5 1.5t38 5t44.5 9.5t39 15q35 20 52 51.5t17 70.5v1058q0 36 -23.5 59t-56 36.5t-66 18.5t-53.5 5h-22q-5 0 -6.5 3.5t-1.5 4.5v24q0 2 1.5 5t6.5 3h677q5 0 6.5 -3t1.5 -5v-24q0 -2 -1.5 -5t-6.5 -3h-43
q-56 0 -104 -9t-78 -20q-23 -8 -29.5 -26.5t-6.5 -63.5v-1109q2 -17 18 -32t36 -15h395q35 0 66.5 15t58.5 38.5t50 51.5t42 54t34 46.5t26 29.5q5 3 9.5 6t9.5 3q10 0 10 -13q0 -6 -3 -12l-151 -296q-4 -8 -9 -13t-12 -5h-1009v0zM900 543q-24 0 -45.5 9t-37.5 24.5
t-25 36.5t-9 45q0 25 9 46.5t25 37.5t37.5 25.5t45.5 9.5q25 0 46.5 -9.5t37.5 -25.5t24.5 -37.5t8.5 -46.5q0 -24 -8.5 -45t-24.5 -36.5t-37.5 -24.5t-46.5 -9z" />
    <glyph glyph-name="ldot" unicode="&#x140;" horiz-adv-x="783" 
d="M486 16q0 -14 -10 -16h-446q-10 2 -10 16q0 9 10 13q13 6 37 9.5t48 14t42 33t18 66.5v1247q0 24 -13 37.5t-33 20.5t-43 11.5t-44 10.5q-6 2 -9.5 5.5t-3.5 14.5q0 5 3 10t12 10l255 120q4 2 8.5 4t6.5 2q17 0 17 -24v-1469q0 -44 18 -66.5t42 -33t48 -14t37 -9.5
q10 -4 10 -13zM660 563q-24 0 -45.5 9t-37.5 24.5t-25 36.5t-9 45q0 25 9 46.5t25 37.5t37.5 25.5t45.5 9.5q25 0 46.5 -9.5t37.5 -25.5t24.5 -37.5t8.5 -46.5q0 -24 -8.5 -45t-24.5 -36.5t-37.5 -24.5t-46.5 -9z" />
    <glyph glyph-name="Lslash" unicode="&#x141;" horiz-adv-x="1239" 
d="M120 481q-5 -5 -14 -5q-13 0 -21 11l-21 29q-5 8 -5 16q0 12 12 20l212 148v551q0 36 -23.5 59t-56 36.5t-66 18.5t-53.5 5h-22q-5 0 -6.5 3.5t-1.5 4.5v24q0 2 1.5 5t6.5 3h677q5 0 6.5 -3t1.5 -5v-24q0 -2 -1.5 -5t-6.5 -3h-43q-56 0 -104 -9t-78 -20
q-23 -8 -29.5 -26.5t-6.5 -63.5v-414l312 218q5 5 14 5q13 0 21 -11l21 -29q2 -4 4.5 -7t2.5 -7q0 -13 -14 -22l-361 -253v-589q2 -17 18 -32t36 -15h395q35 0 66.5 15t58.5 38.5t50 51.5t42 54t34 46.5t26 29.5q5 3 9.5 6t9.5 3q10 0 10 -13q0 -6 -3 -12l-151 -296
q-4 -8 -9 -13t-12 -5h-1009q-5 0 -6.5 3t-1.5 5v24q0 2 1 5t7 3h24q3 0 19.5 1.5t38 5t44.5 9.5t39 15q35 20 52 51.5t17 70.5v402l-163 -114v0z" />
    <glyph glyph-name="lslash" unicode="&#x142;" horiz-adv-x="569" 
d="M74 555q-5 -4 -9.5 -5t-9.5 -1q-10 3 -16 11l-22 30q-4 10 -4 16q0 12 11 19l199 139v635q0 24 -13 37.5t-33 20.5t-43 11.5t-44 10.5q-6 2 -9.5 5.5t-3.5 14.5q0 5 3 10t12 10l255 120q4 2 8.5 4t6.5 2q17 0 17 -24v-747l178 125q5 3 9.5 3.5t9.5 1.5q11 -4 16 -11
l20 -29q6 -8 6 -15q0 -12 -10 -20l-229 -161v-616q0 -44 18 -66.5t42 -33t48 -14t37 -9.5q10 -4 10 -13q0 -14 -10 -16h-446q-10 2 -10 16q0 9 10 13q13 6 37 9.5t48 14t42 33t18 66.5v507l-149 -104v0z" />
    <glyph glyph-name="Nacute" unicode="&#x143;" horiz-adv-x="1747" 
d="M68 0q-2 0 -5 2.5t-3 5.5v24q0 8 8 8h25t27.5 1t24.5 2t17 4q25 12 41 32t24.5 46t11.5 57t3 66v1039q0 27 -21.5 43.5t-50 25t-58 11.5t-44.5 3q-5 0 -6.5 3t-1.5 5v24q0 2 1.5 5t6.5 3h366l949 -1049q5 -5 7 -7.5t5 -2.5q4 0 5 3t1 6v689q0 99 -7 162t-26 98t-51 48
t-82 13h-51q-5 0 -6.5 3t-1.5 5v24q0 2 1.5 5t6.5 3h520q6 0 7 -3t1 -5v-24q0 -2 -1.5 -5t-6.5 -3q-20 0 -51.5 -8t-61.5 -23t-51.5 -37t-21.5 -50v-1223q0 -22 -6 -31.5t-31 -9.5q-20 0 -31 9t-26 26l-1031 1143q-7 7 -10 8.5t-8 1.5t-5 -10v-998q0 -28 13.5 -48.5
t34.5 -35t46.5 -23t50 -13.5t44 -6.5t29.5 -1.5q5 0 7 -4q1 -2 1 -4v-24q0 -2 -1.5 -5t-6.5 -3h-520v0zM782 1594q-4 4 -4 6t4 6l213 295q19 26 38 37.5t37 11.5q31 0 51.5 -22.5t20.5 -51.5q0 -31 -17.5 -54t-37.5 -40l-269 -217q-5 -3 -7 -3q-4 0 -4.5 0.5l-2.5 2.5z" />
    </font>
</defs>
</svg>
