<?xml version="1.0" standalone="no"?>
<!DOCTYPE svg PUBLIC "-//W3C//DTD SVG 1.1//EN" "http://www.w3.org/Graphics/SVG/1.1/DTD/svg11.dtd" >
<svg xmlns="http://www.w3.org/2000/svg" xmlns:xlink="http://www.w3.org/1999/xlink" version="1.1">
<metadata>
Created by FontForge 20170910 at Mon Sep  2 14:30:18 2013
 By Jimmy Wärting
Copyright (c) 2013 by Nir Yenni. All rights reserved.
</metadata>
<defs>
<font id="Carmela" horiz-adv-x="922" >
  <font-face 
    font-family="Carmela"
    font-weight="400"
    font-stretch="normal"
    units-per-em="2048"
    panose-1="2 0 8 0 0 0 0 0 0 0"
    ascent="1638"
    descent="-410"
    bbox="-110 -673 1775 1477"
    underline-thickness="50"
    underline-position="-100"
    unicode-range="U+000D-FB4B"
  />
<missing-glyph horiz-adv-x="1633" 
d="M305 0v1421h1024v-1421h-1024zM1179 150v1121h-724v-1121h724z" />
    <glyph glyph-name=".notdef" horiz-adv-x="1633" 
d="M305 0v1421h1024v-1421h-1024zM1179 150v1121h-724v-1121h724z" />
    <glyph glyph-name=".null" horiz-adv-x="0" 
 />
    <glyph glyph-name="nonmarkingreturn" horiz-adv-x="2048" 
 />
    <glyph glyph-name="uni000D" unicode="&#xd;" horiz-adv-x="430" 
 />
    <glyph glyph-name="space" unicode=" " horiz-adv-x="430" 
 />
    <glyph glyph-name="exclam" unicode="!" horiz-adv-x="466" 
d="M150 351v743h166v-743h-166zM115 83q0 25 9.5 46.5t25.5 37.5t37.5 25.5t46.5 9.5t46.5 -9.5t37.5 -25.5t25.5 -37.5t9.5 -46.5t-9.5 -46.5t-25.5 -37.5t-37.5 -25.5t-46.5 -9.5t-46.5 9.5t-37.5 25.5t-25.5 37.5t-9.5 46.5z" />
    <glyph glyph-name="quotedbl" unicode="&#x22;" horiz-adv-x="618" 
d="M373 827v493h150v-493h-150zM95 827v493h150v-493h-150z" />
    <glyph glyph-name="numbersign" unicode="#" horiz-adv-x="1306" 
d="M1176 286h-306l-64 -286h-154l64 286h-259l-64 -286h-154l64 286h-179v150h213l57 254h-270v150h304l57 254h154l-57 -254h259l57 254h154l-57 -254h181v-150h-215l-57 -254h272v-150zM491 436h259l57 254h-259z" />
    <glyph glyph-name="dollar" unicode="$" horiz-adv-x="1146" 
d="M516 1320v-219q75 -5 142.5 -31.5t134.5 -65.5l-74 -124q-70 42 -144.5 62.5t-133.5 20.5q-39 0 -76 -11.5t-65.5 -34.5t-45.5 -57t-17 -78q0 -36 21 -62.5t52 -45.5t66.5 -31.5t64.5 -20.5q28 -8 67 -19.5t80 -28.5t81 -40.5t72 -54.5t51.5 -71t19.5 -90q0 -68 -25 -124
t-67 -97.5t-96 -68.5t-110 -37v-219h-150v219q-32 4 -72 13t-79 23t-75.5 33t-66.5 44l74 124q29 -29 68 -47.5t80 -29.5t80 -15.5t68 -4.5q39 0 79 12.5t73 36.5t53.5 59t20.5 79q0 36 -24.5 62t-59.5 45t-74 31.5t-68 20.5q-28 8 -65 19.5t-76 28.5t-76.5 40.5t-66.5 55
t-47 71.5t-18 90q0 68 22.5 122.5t60.5 95t88 66t103 35.5v219h150z" />
    <glyph glyph-name="percent" unicode="%" horiz-adv-x="1431" 
d="M140 814q0 49 10 101t34 95t63.5 70.5t97.5 27.5q56 0 109 -12t104 -26.5t100 -26.5t98 -12q20 0 49.5 2.5t60 11t57.5 23.5t42 40l126 -80l-659 -1042l-126 80l545 862q-12 -6 -37 -12.5t-59 -6.5q-37 0 -68 6.5t-58 15t-51.5 16t-46.5 10.5q11 -34 15 -72t4 -71
q0 -49 -10.5 -100.5t-34.5 -94t-63.5 -70t-98.5 -27.5q-58 0 -97 27.5t-62.5 70t-33.5 94t-10 100.5zM852 278q0 49 10 101t34 95t63.5 70.5t97.5 27.5t97.5 -27.5t63.5 -70.5t34 -95t10 -101t-10.5 -100.5t-34.5 -94t-63.5 -70t-98.5 -27.5q-58 0 -97 27.5t-62.5 70
t-33.5 94t-10 100.5zM987 278q0 -26 3.5 -53.5t11 -50.5t20.5 -38t33 -15q21 0 34.5 15t22 38t12 50.5t3.5 53.5t-3.5 54t-12 51.5t-22 38.5t-32.5 15q-20 0 -33.5 -15t-21.5 -38.5t-11.5 -51.5t-3.5 -54zM275 814q0 -26 3.5 -53.5t11 -50.5t20.5 -38t33 -15q21 0 34.5 15
t22 38t12 50.5t3.5 53.5t-3.5 54t-12 51.5t-22 38.5t-32.5 15q-20 0 -33.5 -15t-21.5 -38.5t-11.5 -51.5t-3.5 -54z" />
    <glyph glyph-name="quotesingle" unicode="'" horiz-adv-x="310" 
d="M80 827v493h150v-493h-150z" />
    <glyph glyph-name="parenleft" unicode="(" horiz-adv-x="598" 
d="M264 551q0 -90 9 -171t24 -153t34.5 -134.5t39.5 -113.5q47 -121 107 -215l-116 -84q-68 105 -121 240q-23 57 -44.5 126t-38.5 148.5t-27.5 169t-10.5 187.5t10.5 187.5t27.5 169t38.5 148.5t44.5 126q53 134 121 239l116 -84q-60 -93 -107 -214q-20 -51 -39.5 -113.5
t-34.5 -134.5t-24 -153.5t-9 -170.5z" />
    <glyph glyph-name="parenright" unicode=")" horiz-adv-x="598" 
d="M334 551q0 89 -9.5 170.5t-24.5 153.5t-34 134.5t-39 113.5q-48 121 -107 214l116 84q67 -105 121 -239q22 -57 44 -126t39 -148.5t27.5 -169t10.5 -187.5t-10.5 -187.5t-27.5 -169t-39 -148.5t-44 -126q-54 -135 -121 -240l-116 84q59 94 107 215q20 51 39 113.5
t34 134.5t24.5 153t9.5 171z" />
    <glyph glyph-name="asterisk" unicode="*" horiz-adv-x="874" 
d="M474 1180l227 75l44 -134l-228 -75l142 -194l-114 -82l-142 194l-141 -194l-114 82l141 194l-228 75l42 134l231 -76v242h140v-241zM446 1084q0 17 -12.5 30t-30.5 13t-30.5 -13t-12.5 -30q0 -18 12.5 -30.5t30.5 -12.5t30.5 12.5t12.5 30.5z" />
    <glyph glyph-name="plus" unicode="+" 
d="M536 922v-272h272v-150h-272v-272h-150v272h-272v150h272v272h150z" />
    <glyph glyph-name="comma" unicode="," horiz-adv-x="394" 
d="M40 -320q8 21 19.5 56t23 78t23 90.5t20.5 94.5t14.5 90t5.5 77h166q0 -34 -7.5 -77.5t-19.5 -90t-27.5 -94.5t-32.5 -90.5t-33.5 -77.5t-29.5 -56h-122z" />
    <glyph glyph-name="hyphen" unicode="-" horiz-adv-x="923" 
d="M749 500h-575v150h575v-150z" />
    <glyph glyph-name="period" unicode="." horiz-adv-x="458" 
d="M110 83q0 25 9.5 46.5t25.5 37.5t37.5 25.5t46.5 9.5t46.5 -9.5t37.5 -25.5t25.5 -37.5t9.5 -46.5t-9.5 -46.5t-25.5 -37.5t-37.5 -25.5t-46.5 -9.5t-46.5 9.5t-37.5 25.5t-25.5 37.5t-9.5 46.5z" />
    <glyph glyph-name="slash" unicode="/" horiz-adv-x="843" 
d="M154 -286l396 1707l146 -34l-396 -1707z" />
    <glyph glyph-name="zero" unicode="0" 
d="M69 547q0 62 8.5 128t27 128.5t48.5 118t73.5 97t101.5 65.5t133 24t133 -24t101.5 -65.5t73.5 -97t48.5 -118t27 -128.5t8.5 -128q0 -63 -8.5 -128.5t-27.5 -128t-49.5 -118t-74 -97t-102 -65.5t-132.5 -24q-75 0 -132.5 24t-101 65.5t-73.5 97t-48.5 118t-26.5 128
t-8 128.5zM214 547q0 -69 11.5 -143t39 -134.5t75 -99.5t119.5 -39t120 39t76.5 99.5t40.5 134.5t12 143t-11.5 143t-39.5 134.5t-76 99.5t-120 39t-120 -39t-76 -99.5t-39.5 -134.5t-11.5 -143z" />
    <glyph glyph-name="one" unicode="1" 
d="M217 897l295 197h132v-1094h-150v908l-197 -131z" />
    <glyph glyph-name="two" unicode="2" 
d="M111 992q47 32 102 58q48 22 110 40t134 18q73 0 137 -21.5t111.5 -63.5t75 -103t27.5 -140q0 -57 -23.5 -107.5t-64.5 -95t-96 -82.5t-118 -70q-43 -22 -86 -46.5t-77 -51.5t-55.5 -58t-21.5 -66q0 -11 1.5 -26t5.5 -27h537v-150h-663q-16 54 -24.5 104t-8.5 99
q0 58 25.5 107t70 91.5t104 79.5t128.5 72q47 24 87.5 50t70.5 54.5t47 59t17 63.5q0 44 -16.5 78.5t-44.5 58t-65.5 35.5t-80.5 12q-54 0 -101 -13.5t-82 -30.5q-41 -19 -77 -44z" />
    <glyph glyph-name="three" unicode="3" 
d="M355 639q18 4 46 9.5t59.5 14t63 20.5t57 29.5t41.5 41.5t16 56q0 30 -13.5 58t-39.5 49t-63 34t-85 13q-54 0 -99.5 -11t-78.5 -24q-39 -16 -69 -35l-68 128q40 24 89 43q42 16 99.5 29.5t126.5 13.5q81 0 145.5 -24.5t108.5 -66t67.5 -95.5t23.5 -112q0 -38 -10 -70
t-27 -58.5t-41 -48t-51 -38.5q32 -19 63 -45t55 -60.5t39 -78t15 -98.5q0 -85 -30 -146.5t-82 -101.5t-120.5 -59.5t-146.5 -19.5q-82 0 -149.5 18t-116.5 40q-57 26 -104 59l82 118q35 -26 79 -46q38 -17 90.5 -31t118.5 -14q48 0 91 11t75 33.5t50.5 57t18.5 81.5
q0 48 -18.5 86t-45 66.5t-54 46.5t-45.5 25q-40 -12 -76 -19t-65 -11z" />
    <glyph glyph-name="four" unicode="4" 
d="M872 228h-144v-228h-150v228h-437q-17 43 -27 86t-10 100q0 60 21 111.5t53 98t70.5 89t73.5 83.5l256 298h150v-716h144v-150zM578 378v498l-160 -182q-26 -29 -56 -64.5t-56 -72.5t-43.5 -73.5t-17.5 -69.5q0 -9 1.5 -18.5t4.5 -17.5h327z" />
    <glyph glyph-name="five" unicode="5" 
d="M796 944h-482q-3 -33 -5.5 -61.5t-5.5 -57.5t-6 -61.5t-7 -72.5h175q73 0 129 -16.5t97.5 -44t69.5 -63t45 -73.5t24 -76t7 -70q0 -77 -25 -143t-74 -115t-121.5 -76.5t-166.5 -27.5q-81 0 -147.5 12.5t-115.5 27.5q-57 18 -103 40l66 128q37 -18 84 -32q40 -12 94.5 -22
t121.5 -10q59 0 104 17t76 46t46.5 69t15.5 86q0 28 -10.5 62.5t-36 64.5t-69.5 50.5t-111 20.5h-334l50 548h615v-150z" />
    <glyph glyph-name="six" unicode="6" 
d="M753 964q-119 0 -204.5 -27t-144.5 -72.5t-95 -104t-55 -121.5q42 48 101.5 77.5t137.5 29.5q76 0 141 -30.5t112 -82t74 -120.5t27 -147t-27.5 -147t-77.5 -120.5t-121.5 -82t-159.5 -30.5t-159.5 30.5t-121.5 82t-77.5 120.5t-27.5 147q0 48 3 105t13 118t30 123.5
t53.5 120t83 107.5t120 87.5t163 59t212.5 21.5v-144zM461 602q-55 0 -100 -18.5t-76.5 -51t-48.5 -75.5t-17 -91t17 -91t48.5 -75.5t76.5 -51t100 -18.5t100 18.5t76.5 51t48.5 75.5t17 91t-17 91t-48.5 75.5t-76.5 51t-100 18.5z" />
    <glyph glyph-name="seven" unicode="7" 
d="M315 0q2 75 17 143.5t40 132t59.5 124t75.5 119.5q35 50 68.5 100t59.5 96.5t42 89.5t16 80q0 32 -6 59h-564v150h684q8 -21 15 -52q6 -26 11 -65t5 -92t-18.5 -108.5t-48.5 -112t-68 -114.5t-78 -115q-71 -101 -114.5 -209t-45.5 -226h-150z" />
    <glyph glyph-name="eight" unicode="8" 
d="M798 818q0 -39 -10 -74.5t-26 -67t-35 -58.5t-37 -47q70 -45 111.5 -111t41.5 -159q0 -55 -18 -111t-61.5 -101.5t-117.5 -74t-185 -28.5t-185 28.5t-117.5 74t-61.5 101.5t-18 111q0 52 14 99t36.5 87t49.5 72.5t53 57.5q-48 36 -78 87t-30 114q0 55 24 107.5t68.5 93
t106.5 65t138 24.5t138 -24.5t106.5 -65t68.5 -93t24 -107.5zM699 301q0 40 -17 71t-45 56t-64 43.5t-74 33.5t-76 26.5t-69 22.5q-18 -14 -41 -38.5t-43 -57t-33.5 -72.5t-13.5 -85q0 -30 11 -60.5t38.5 -55t73.5 -40t115 -15.5t115 15.5t73.5 40t38.5 55t11 60.5zM268 818
q0 -35 30.5 -64.5t75 -53t95.5 -41.5t92 -30q13 10 29 29t30.5 44t24 54.5t9.5 61.5q0 29 -14.5 55.5t-40 46.5t-61 32t-77.5 12t-77.5 -12t-61 -32t-40 -46.5t-14.5 -55.5z" />
    <glyph glyph-name="nine" unicode="9" 
d="M169 130q119 0 204.5 27t144.5 72t94.5 103.5t55.5 121.5q-43 -48 -102 -77t-137 -29q-76 0 -141 30.5t-112 82t-74 120.5t-27 147t27.5 147t77.5 120.5t121.5 82t159.5 30.5t159.5 -30.5t121.5 -82t77.5 -120.5t27.5 -147q0 -48 -3 -105t-13 -118t-30 -123.5t-53.5 -120
t-83 -107.5t-120 -87.5t-163 -59t-212.5 -21.5v144zM461 492q55 0 100 18.5t76.5 51t48.5 75.5t17 91t-17 91t-48.5 75.5t-76.5 51t-100 18.5t-100 -18.5t-76.5 -51t-48.5 -75.5t-17 -91t17 -91t48.5 -75.5t76.5 -51t100 -18.5z" />
    <glyph glyph-name="colon" unicode=":" horiz-adv-x="458" 
d="M110 83q0 25 9.5 46.5t25.5 37.5t37.5 25.5t46.5 9.5t46.5 -9.5t37.5 -25.5t25.5 -37.5t9.5 -46.5t-9.5 -46.5t-25.5 -37.5t-37.5 -25.5t-46.5 -9.5t-46.5 9.5t-37.5 25.5t-25.5 37.5t-9.5 46.5zM110 698q0 25 9.5 46.5t25.5 37.5t37.5 25.5t46.5 9.5t46.5 -9.5
t37.5 -25.5t25.5 -37.5t9.5 -46.5t-9.5 -46.5t-25.5 -37.5t-37.5 -25.5t-46.5 -9.5t-46.5 9.5t-37.5 25.5t-25.5 37.5t-9.5 46.5z" />
    <glyph glyph-name="semicolon" unicode=";" horiz-adv-x="386" 
d="M4 -320q8 21 19.5 56t23 78t23 90.5t20.5 94.5t14.5 90t5.5 77h166q0 -34 -7.5 -77.5t-19.5 -90t-27.5 -94.5t-32.5 -90.5t-33.5 -77.5t-29.5 -56h-122zM74 698q0 25 9.5 46.5t25.5 37.5t37.5 25.5t46.5 9.5t46.5 -9.5t37.5 -25.5t25.5 -37.5t9.5 -46.5t-9.5 -46.5
t-25.5 -37.5t-37.5 -25.5t-46.5 -9.5t-46.5 9.5t-37.5 25.5t-25.5 37.5t-9.5 46.5z" />
    <glyph glyph-name="less" unicode="&#x3c;" 
d="M803 994l-490 -422l490 -422l-94 -108l-616 530l616 532z" />
    <glyph glyph-name="equal" unicode="=" 
d="M748 666h-574v150h574v-150zM748 334h-574v150h574v-150z" />
    <glyph glyph-name="greater" unicode="&#x3e;" 
d="M213 1104l616 -532l-616 -530l-94 108l490 422l-490 422z" />
    <glyph glyph-name="question" unicode="?" horiz-adv-x="945" 
d="M106 1007q42 28 88.5 48.5t92.5 34.5t89.5 21t80.5 7q67 0 132.5 -15t116.5 -49.5t82.5 -89.5t31.5 -134q0 -50 -12.5 -90.5t-33.5 -74.5t-49 -63.5t-59 -57.5q-68 -63 -98 -117t-30 -77h-166q0 24 10 70t32 84t56 74t82 80q21 19 40.5 39t34 41t23 43.5t8.5 48.5
q0 41 -17.5 66t-45.5 38.5t-64.5 17.5t-73.5 4q-27 0 -59.5 -5.5t-67 -16t-69.5 -26.5t-67 -37zM337 83q0 25 9.5 46.5t25.5 37.5t37.5 25.5t46.5 9.5t46.5 -9.5t37.5 -25.5t25.5 -37.5t9.5 -46.5t-9.5 -46.5t-25.5 -37.5t-37.5 -25.5t-46.5 -9.5t-46.5 9.5t-37.5 25.5
t-25.5 37.5t-9.5 46.5z" />
    <glyph glyph-name="at" unicode="@" horiz-adv-x="1402" 
d="M1070 -67q-24 -53 -58.5 -99t-81.5 -80t-108.5 -54t-139.5 -20q-90 0 -163 38t-130 103.5t-98.5 152.5t-68 184.5t-39.5 200.5t-13 199t13 197.5t39.5 197.5t68 181t98.5 149t130 101t163 37t158.5 -26.5t119 -71.5t84 -103.5t53.5 -122t28.5 -128t8.5 -121.5v-405h98
v-150h-243v141q-24 -29 -51 -54.5t-59.5 -45t-70 -31t-81.5 -11.5q-48 0 -92.5 16t-79 49t-55 84t-20.5 122q0 59 22 110.5t65.5 90t107.5 61t148 22.5h166q0 43 -5 91.5t-18.5 96.5t-35.5 91.5t-56.5 76.5t-81.5 53t-110 20t-114.5 -31t-92.5 -84t-71 -123.5t-50 -150.5
t-29.5 -164.5t-9.5 -164.5q0 -81 9.5 -166.5t29.5 -167t50 -154t71 -127t92.5 -86.5t114.5 -32q53 0 95 12.5t74.5 35t55.5 54t39 68.5zM624 563q0 -33 8.5 -57t22.5 -39.5t33 -23t39 -7.5q43 0 80.5 18t70 46t60.5 62.5t51 67.5v67h-163q-53 0 -91 -13t-63 -35.5
t-36.5 -52.5t-11.5 -65v32z" />
    <glyph glyph-name="bracketleft" unicode="[" horiz-adv-x="659" 
d="M539 -320h-419v1741h419v-150h-269v-1441h269v-150z" />
    <glyph glyph-name="backslash" unicode="\" horiz-adv-x="843" 
d="M550 -320l-396 1707l146 34l396 -1707z" />
    <glyph glyph-name="bracketright" unicode="]" horiz-adv-x="659" 
d="M120 -170h269v1441h-269v150h419v-1741h-419v150z" />
    <glyph glyph-name="asciicircum" unicode="^" 
d="M118 805l343 616l343 -616l-131 -73l-212 385l-212 -385z" />
    <glyph glyph-name="underscore" unicode="_" horiz-adv-x="924" 
d="M925 -320h-926v150h926v-150z" />
    <glyph glyph-name="grave" unicode="`" horiz-adv-x="310" 
d="M80 827v493h150v-493h-150z" />
    <glyph glyph-name="braceleft" unicode="{" horiz-adv-x="795" 
d="M120 626h199q4 90 16.5 172t30 154.5t39 135.5t42.5 115q50 122 112 218l116 -84q-60 -94 -107 -215q-20 -51 -39.5 -113.5t-34.5 -134.5t-24 -153.5t-9 -170.5q0 -90 9 -171t24 -153t34.5 -134.5t39.5 -113.5q47 -121 107 -214l-116 -84q-62 96 -112 218
q-21 52 -42.5 115t-39 136t-30 155t-16.5 172h-199v150z" />
    <glyph glyph-name="bar" unicode="|" horiz-adv-x="370" 
d="M110 -320v1741h150v-1741h-150z" />
    <glyph glyph-name="braceright" unicode="}" horiz-adv-x="795" 
d="M675 476h-199q-4 -90 -16.5 -172t-30 -155t-39 -136t-42.5 -115q-50 -122 -112 -218l-116 84q59 93 107 214q20 51 39 113.5t34 134.5t24.5 153t9.5 171q0 89 -9.5 170.5t-24.5 153.5t-34 134.5t-39 113.5q-48 121 -107 215l116 84q62 -96 112 -218q21 -52 42.5 -115
t39 -135.5t30 -154.5t16.5 -172h199v-150z" />
    <glyph glyph-name="asciitilde" unicode="~" horiz-adv-x="1192" 
d="M50 450q24 44 58 86t76.5 75t92 53.5t102.5 20.5q55 0 115 -22t122 -49q27 -12 54 -23t52.5 -20t48.5 -14.5t42 -5.5q31 0 60.5 13.5t55.5 36t48.5 51t38.5 58.5l126 -68q-24 -44 -58 -86t-76.5 -75t-92 -53.5t-102.5 -20.5q-60 0 -124.5 23.5t-129.5 51.5
q-52 23 -100 41t-80 18q-31 0 -60.5 -13.5t-55.5 -36t-48.5 -51t-38.5 -58.5z" />
    <glyph glyph-name="uni00A0" unicode="&#xa0;" horiz-adv-x="430" 
 />
    <glyph glyph-name="copyright" unicode="&#xa9;" horiz-adv-x="1716" 
d="M295 545q0 -180 48.5 -310.5t128 -215t180.5 -125t206 -40.5t206 40.5t180.5 125t128 215t48.5 310.5t-48.5 310.5t-128 215t-180.5 125t-206 40.5t-206 -40.5t-180.5 -125t-128 -215t-48.5 -310.5zM150 545q0 145 28 263.5t77.5 211.5t116.5 161t146 112.5t165.5 66
t174.5 21.5t174.5 -21.5t165.5 -66t146 -112.5t116.5 -161t77.5 -211.5t28 -263.5t-28 -263.5t-77.5 -211.5t-116.5 -161t-146 -112.5t-165.5 -66t-174.5 -21.5t-174.5 21.5t-165.5 66t-146 112.5t-116.5 161t-77.5 211.5t-28 263.5zM1197 285q-37 -58 -73 -97.5
t-76.5 -63.5t-89 -34.5t-110.5 -10.5q-68 0 -133 27t-116 84t-82 145t-31 210q0 121 31 209t82 145t116 84.5t133 27.5q62 0 110.5 -10.5t89 -34.5t76.5 -63.5t73 -97.5l-122 -78q-25 39 -49 65.5t-50.5 43t-57.5 24t-70 7.5q-41 0 -80 -19t-69.5 -58t-49.5 -100t-19 -145
t19 -145t49.5 -100t69.5 -58t80 -19q39 0 70 7t57.5 23.5t50.5 43.5t49 66z" />
    <glyph glyph-name="guillemotleft" unicode="&#xab;" horiz-adv-x="1315" 
d="M757 1094l-418 -546l422 -548h-189l-422 548l420 546h187zM1161 1094l-418 -546l422 -548h-189l-422 548l420 546h187z" />
    <glyph glyph-name="uni00AD" unicode="&#xad;" horiz-adv-x="923" 
d="M749 500h-575v150h575v-150z" />
    <glyph glyph-name="registered" unicode="&#xae;" horiz-adv-x="1716" 
d="M150 545q0 145 28 263.5t77.5 211.5t116.5 161t146 112.5t165.5 66t174.5 21.5t174.5 -21.5t165.5 -66t146 -112.5t116.5 -161t77.5 -211.5t28 -263.5t-28 -263.5t-77.5 -211.5t-116.5 -161t-146 -112.5t-165.5 -66t-174.5 -21.5t-174.5 21.5t-165.5 66t-146 112.5
t-116.5 161t-77.5 211.5t-28 263.5zM295 545q0 -180 48.5 -310.5t128 -215t180.5 -125t206 -40.5t206 40.5t180.5 125t128 215t48.5 310.5t-48.5 310.5t-128 215t-180.5 125t-206 40.5t-206 -40.5t-180.5 -125t-128 -215t-48.5 -310.5zM711 166h-144v834h263q49 0 97 -13.5
t85.5 -43.5t61 -77.5t23.5 -114.5q0 -42 -6.5 -73.5t-21.5 -56t-40.5 -43t-62.5 -34.5q42 -25 69.5 -54t46 -61t32 -65.5t27 -67.5t31 -67t44.5 -63h-165q-19 31 -36.5 68.5t-36.5 75t-41 73.5t-49.5 63.5t-62 44t-79.5 16.5q-17 0 -35 -3v-338zM711 646q61 0 106.5 3
t75.5 14t45 31.5t15 56.5q0 31 -10 51.5t-27 32.5t-39 16.5t-47 4.5h-119v-210z" />
    <glyph glyph-name="degree" unicode="&#xb0;" 
d="M713 922q0 -54 -18.5 -101.5t-52 -83.5t-80.5 -57t-103 -21q-53 0 -98.5 20.5t-79 56t-53 83.5t-19.5 103q0 52 18.5 99.5t51.5 84t79 58.5t101 22q53 0 99 -20.5t80.5 -56t54.5 -83.5t20 -104zM573 922q0 26 -9 49t-24.5 39.5t-36 26t-44.5 9.5t-44.5 -10t-35 -27.5
t-22.5 -40t-8 -46.5q0 -26 8.5 -48.5t23.5 -39t35 -26t43 -9.5q25 0 46 10t36 26.5t23.5 39t8.5 47.5z" />
    <glyph glyph-name="twosuperior" unicode="&#xb2;" horiz-adv-x="722" 
d="M100 1343q36 25 76 44q35 17 79 31t92 14q50 0 94.5 -15t77.5 -44t52 -71.5t19 -97.5q0 -40 -16 -74.5t-43.5 -65t-64.5 -56t-80 -47.5q-25 -13 -50.5 -27t-45.5 -29t-33 -32t-13 -35v-15h347v-133h-456q-12 42 -19 79t-7 69q0 41 17 75t47 63t70 54t85 48
q56 28 93.5 59.5t37.5 66.5q0 48 -32.5 73t-79.5 25q-32 0 -62 -10t-54 -22q-28 -14 -53 -31z" />
    <glyph glyph-name="threesuperior" unicode="&#xb3;" horiz-adv-x="722" 
d="M285 1126q18 6 49 12.5t61 17t52 26.5t22 41q0 31 -29 54.5t-81 23.5q-32 0 -61.5 -8.5t-52.5 -18.5q-27 -12 -50 -27l-60 117q31 18 67 33q31 13 71 23.5t86 10.5q57 0 101.5 -17.5t75.5 -46t47 -66.5t16 -78q0 -46 -19 -79.5t-48 -56.5q18 -14 35 -31t30 -39.5t21 -50
t8 -60.5q0 -59 -20.5 -101.5t-56 -70.5t-83 -41.5t-100.5 -13.5q-55 0 -102.5 14t-83.5 31q-42 20 -77 46l75 106q25 -19 55 -33q26 -13 60 -23t73 -10q27 0 50.5 5.5t41 17.5t28 30t10.5 43q0 23 -9 42.5t-22 35.5t-28 27t-26 18q-25 -7 -54 -12t-52 -8z" />
    <glyph glyph-name="periodcentered" unicode="&#xb7;" horiz-adv-x="552" 
d="M417 598q0 -30 -11 -56t-29.5 -45t-44.5 -29.5t-56 -10.5q-28 0 -53.5 11.5t-45 30.5t-31 44.5t-11.5 54.5q0 30 11 55.5t29.5 44.5t44.5 29.5t56 10.5t56 -10.5t44.5 -29.5t29.5 -44.5t11 -55.5z" />
    <glyph glyph-name="onesuperior" unicode="&#xb9;" horiz-adv-x="722" 
d="M162 1281l208 140h110v-734h-135v560q-27 -19 -57.5 -38.5t-53.5 -36.5z" />
    <glyph glyph-name="guillemotright" unicode="&#xbb;" horiz-adv-x="1315" 
d="M745 1094l420 -546l-422 -548h-189l422 548l-418 546h187zM341 1094l420 -546l-422 -548h-189l422 548l-418 546h187z" />
    <glyph glyph-name="onequarter" unicode="&#xbc;" horiz-adv-x="1748" 
d="M1289 1341l-857 -1355l-126 80l857 1355zM1421 144h-91v-145h-135v145h-282q-13 33 -16 66t-3 71q0 34 10.5 64.5t27 57.5t37 52t41.5 48q47 53 93.5 109t102.5 121h124v-455h91v-134zM1195 278v246q-19 -23 -47 -53t-54.5 -63t-47 -67t-23.5 -63h172zM223 1281l208 140
h110v-734h-135v560q-27 -19 -57.5 -38.5t-53.5 -36.5z" />
    <glyph glyph-name="onehalf" unicode="&#xbd;" horiz-adv-x="1748" 
d="M1289 1341l-857 -1355l-126 80l857 1355zM1033 652q36 25 76 44q35 17 79 31t92 14q50 0 94.5 -15t77.5 -44t52 -71.5t19 -97.5q0 -40 -16 -74.5t-43.5 -65t-64.5 -56t-80 -47.5q-25 -13 -50.5 -27t-45.5 -29t-33 -32t-13 -35v-15h347v-133h-456q-12 42 -19 79t-7 69
q0 41 17 75t47 63t70 54t85 48q56 28 93.5 59.5t37.5 66.5q0 48 -32.5 73t-79.5 25q-32 0 -62 -10t-54 -22q-28 -14 -53 -31zM223 1281l208 140h110v-734h-135v560q-27 -19 -57.5 -38.5t-53.5 -36.5z" />
    <glyph glyph-name="threequarters" unicode="&#xbe;" horiz-adv-x="1748" 
d="M1289 1341l-857 -1355l-126 80l857 1355zM1421 144h-91v-145h-135v145h-272q-13 33 -21 66t-8 71q0 34 10.5 64.5t27 57.5t37 52t41.5 48q47 53 93.5 109t102.5 121h124v-455h91v-134zM1195 278v246q-19 -23 -47 -53t-54.5 -63t-47 -67t-23.5 -63h172zM285 1126
q18 6 49 12.5t61 17t52 26.5t22 41q0 31 -29 54.5t-81 23.5q-32 0 -61.5 -8.5t-52.5 -18.5q-27 -12 -50 -27l-60 117q31 18 67 33q31 13 71 23.5t86 10.5q57 0 101.5 -17.5t75.5 -46t47 -66.5t16 -78q0 -46 -19 -79.5t-48 -56.5q18 -14 35 -31t30 -39.5t21 -50t8 -60.5
q0 -59 -20.5 -101.5t-56 -70.5t-83 -41.5t-100.5 -13.5q-55 0 -102.5 14t-83.5 31q-42 20 -77 46l75 106q25 -19 55 -33q26 -13 60 -23t73 -10q27 0 50.5 5.5t41 17.5t28 30t10.5 43q0 23 -9 42.5t-22 35.5t-28 27t-26 18q-25 -7 -54 -12t-52 -8z" />
    <glyph glyph-name="multiply" unicode="&#xd7;" 
d="M835 824l-270 -270l270 -271l-104 -103l-270 270l-270 -270l-104 103l271 271l-271 270l104 103l270 -270l270 270z" />
    <glyph glyph-name="divide" unicode="&#xf7;" 
d="M174 500v150h574v-150h-574zM370 874q0 42 28.5 70t69.5 28q42 0 70 -28t28 -70q0 -41 -28 -69.5t-70 -28.5q-41 0 -69.5 28.5t-28.5 69.5zM370 276q0 41 28.5 69.5t69.5 28.5q42 0 70 -28.5t28 -69.5q0 -42 -28 -70t-70 -28q-41 0 -69.5 28t-28.5 70z" />
    <glyph glyph-name="uni05B0" unicode="&#x5b0;" horiz-adv-x="0" 
d="M620 -291v151h151v-151h-151zM620 -567v151h151v-151h-151z" />
    <glyph glyph-name="uni05B1" unicode="&#x5b1;" horiz-adv-x="0" 
d="M909 -291v151h151v-151h-151zM909 -567v151h151v-151h-151zM611 -291v151h151v-151h-151zM457 -567v151h151v-151h-151zM304 -291v151h151v-151h-151z" />
    <glyph glyph-name="uni05B2" unicode="&#x5b2;" horiz-adv-x="0" 
d="M909 -291v151h151v-151h-151zM909 -567v151h151v-151h-151zM304 -291v151h458v-151h-458z" />
    <glyph glyph-name="uni05B3" unicode="&#x5b3;" horiz-adv-x="0" 
d="M909 -291v151h151v-151h-151zM909 -567v151h151v-151h-151zM304 -291v151h458v-151h-174l20 -276h-151l20 276h-173z" />
    <glyph glyph-name="uni05B4" unicode="&#x5b4;" horiz-adv-x="0" 
d="M620 -291v151h150v-151h-150z" />
    <glyph glyph-name="uni05B5" unicode="&#x5b5;" horiz-adv-x="0" 
d="M776 -291v151h151v-151h-151zM469 -291v151h151v-151h-151z" />
    <glyph glyph-name="uni05B6" unicode="&#x5b6;" horiz-adv-x="0" 
d="M775 -291v151h151v-151h-151zM622 -567v151h150v-151h-150zM468 -291v151h151v-151h-151z" />
    <glyph glyph-name="uni05B7" unicode="&#x5b7;" horiz-adv-x="0" 
d="M467 -291v151h458v-151h-458z" />
    <glyph glyph-name="uni05B8" unicode="&#x5b8;" horiz-adv-x="0" 
d="M469 -291v151h458v-151h-174l20 -276h-151l20 276h-173z" />
    <glyph glyph-name="uni05B9" unicode="&#x5b9;" horiz-adv-x="0" 
d="M-110 1205v151h150v-151h-150z" />
    <glyph glyph-name="uni05BA" unicode="&#x5ba;" horiz-adv-x="0" 
d="M-110 1205v151h150v-151h-150z" />
    <glyph glyph-name="uni05BB" unicode="&#x5bb;" horiz-adv-x="0" 
d="M997 -673v151h151v-151h-151zM807 -480v151h151v-151h-151zM626 -291v151h151v-151h-151z" />
    <glyph glyph-name="uni05BC" unicode="&#x5bc;" horiz-adv-x="0" 
d="M541 462v150h150v-150h-150z" />
    <glyph glyph-name="uni05BE" unicode="&#x5be;" horiz-adv-x="718" 
d="M608 928h-498v166h498v-166z" />
    <glyph glyph-name="uni05C0" unicode="&#x5c0;" horiz-adv-x="540" 
d="M345 1320v-1548h-150v1548h150z" />
    <glyph glyph-name="uni05C1" unicode="&#x5c1;" horiz-adv-x="0" 
d="M-110 1205v151h150v-151h-150z" />
    <glyph glyph-name="uni05C2" unicode="&#x5c2;" horiz-adv-x="0" 
d="M-110 1205v151h150v-151h-150z" />
    <glyph glyph-name="uni05C7" unicode="&#x5c7;" horiz-adv-x="0" 
d="M469 -291v151h458v-151h-174l20 -276h-151l20 276h-173z" />
    <glyph glyph-name="uni05D0" unicode="&#x5d0;" horiz-adv-x="1147" 
d="M293 1123l128 -329q63 -44 120.5 -83t120.5 -82l194 494l151 -54l-206 -541q75 -63 120 -130.5t68.5 -135t30.5 -134t7 -128.5h-161q0 62 -8 120t-31.5 112.5t-65.5 105t-109 97.5l-278 195q-21 -39 -34.5 -72.5t-22 -76.5t-11.5 -103.5t-3 -153.5v-224h-166v224
q0 77 3.5 136t10 106t16.5 84t23.5 70t30.5 65t37 68l-123 325z" />
    <glyph glyph-name="uni05D1" unicode="&#x5d1;" horiz-adv-x="1030" 
d="M115 166h543v762h-540v166h706v-928h144v-166h-853v166z" />
    <glyph glyph-name="uni05D2" unicode="&#x5d2;" horiz-adv-x="794" 
d="M181 1094h404q0 -101 1.5 -175.5t5.5 -135.5t12 -115.5t22 -117.5q14 -66 25.5 -127.5t20 -126t13.5 -137t5 -159.5h-166q0 90 -3 154t-9 113.5t-14 90.5t-18 85q-70 -25 -112 -64t-64.5 -93t-29.5 -125t-7 -161h-166q0 112 15 208t53 173q39 78 107 132.5t174 84.5
q-8 40 -13 77t-8.5 75.5t-5.5 81.5t-3 96h-239v166z" />
    <glyph glyph-name="uni05D3" unicode="&#x5d3;" horiz-adv-x="1008" 
d="M603 0v928h-523v166h833v-166h-144v-928h-166z" />
    <glyph glyph-name="uni05D4" unicode="&#x5d4;" horiz-adv-x="1151" 
d="M165 928v166h821v-1094h-166v928h-655zM337 619v-619h-166v619h166z" />
    <glyph glyph-name="uni05D5" unicode="&#x5d5;" horiz-adv-x="593" 
d="M277 0v928h-166v166h332v-1094h-166z" />
    <glyph glyph-name="uni05D6" unicode="&#x5d6;" horiz-adv-x="658" 
d="M254 0q0 86 -3.5 146t-9 106.5t-11.5 84t-11.5 77.5t-9 88.5t-3.5 115.5q0 92 25.5 170t83.5 140h-249v166h529v-166q-49 0 -90.5 -22.5t-72 -63.5t-47.5 -98t-17 -126q0 -57 4 -104t10.5 -90t13.5 -85.5t13.5 -92t10.5 -109.5t4 -137h-170z" />
    <glyph glyph-name="uni05D7" unicode="&#x5d7;" horiz-adv-x="1141" 
d="M675 1094q69 0 129.5 -26t105.5 -71t71 -105.5t26 -129.5v-762h-166v762q0 34 -13 64.5t-35.5 53t-53 35.5t-64.5 13h-359v-928h-166v1094h525z" />
    <glyph glyph-name="uni05D8" unicode="&#x5d8;" horiz-adv-x="1157" 
d="M465 859q23 53 49.5 98.5t61 79t80.5 52.5t108 19q53 0 107 -19.5t97 -68.5t70 -132.5t27 -210.5q0 -146 -38.5 -272t-114 -219t-186 -146.5t-254.5 -53.5q-100 0 -186 17t-156 40v1051h166v-925q18 -5 41 -9t47 -7t47 -4.5t41 -1.5q117 0 199 43t134 116t75.5 169
t23.5 202q0 75 -8.5 126t-25.5 83t-43.5 46t-62.5 14q-31 0 -53.5 -13t-41 -34.5t-33.5 -50.5t-31 -61z" />
    <glyph glyph-name="uni05D9" unicode="&#x5d9;" horiz-adv-x="543" 
d="M251 556v372h-156v166h322v-538h-166z" />
    <glyph glyph-name="uni05DA" unicode="&#x5da;" horiz-adv-x="1004" 
d="M673 928h-558v166h724v-1414h-166v1248z" />
    <glyph glyph-name="uni05DB" unicode="&#x5db;" horiz-adv-x="972" 
d="M870 619q0 -82 -5 -160t-20.5 -146.5t-44 -126t-76 -99t-117 -64.5t-166.5 -23h-345v166h345q98 0 152 35t79.5 96t30.5 143.5t5 178.5q0 61 -3.5 108t-9.5 84t-13.5 65.5t-14.5 51.5h-573v166h685q24 -39 41 -90.5t28 -112.5t16.5 -130t5.5 -142z" />
    <glyph glyph-name="uni05DC" unicode="&#x5dc;" horiz-adv-x="977" 
d="M805 1094q14 -16 30.5 -39.5t30 -56.5t22.5 -77t9 -102q0 -80 -30 -149.5t-73.5 -128.5t-92.5 -109.5t-86 -92.5q-32 -37 -58.5 -73.5t-45.5 -77t-29 -86.5t-10 -102h-166q0 78 13 140t38 113.5t61 97t82 91.5q33 33 73.5 77t76.5 93.5t60.5 102.5t24.5 104q0 26 -8 57
t-25 52h-607v493h166v-327h544z" />
    <glyph glyph-name="uni05DD" unicode="&#x5dd;" horiz-adv-x="1122" 
d="M145 1094h535q69 0 129.5 -26t105.5 -71t71 -105.5t26 -129.5v-762h-867v1094zM311 166h535v596q0 34 -13 64.5t-35.5 53t-53 35.5t-64.5 13h-369v-762z" />
    <glyph glyph-name="uni05DE" unicode="&#x5de;" horiz-adv-x="1220" 
d="M743 946q-39 0 -87 -12t-93.5 -47.5t-84 -100t-57.5 -170.5l-114 -616h-166l54 296q22 119 39.5 205.5t17.5 153.5q0 60 -9.5 110t-26 95.5t-39.5 91t-50 96.5l145 75q13 -22 28.5 -50t30 -61.5t26.5 -71t18 -77.5q38 72 79 119.5t86 75t95.5 39t107.5 11.5
q69 0 129.5 -28.5t105.5 -76t71 -110t26 -131.5v-762h-507v166h341v596q0 34 -13 67t-35.5 59t-53 42t-64.5 16z" />
    <glyph glyph-name="uni05DF" unicode="&#x5df;" horiz-adv-x="593" 
d="M278 -320v1248h-158v166h324v-1414h-166z" />
    <glyph glyph-name="uni05E0" unicode="&#x5e0;" horiz-adv-x="699" 
d="M140 1094h394v-116t1 -84t2 -64.5t3.5 -56t5.5 -58t7 -71.5q7 -67 13 -118t10.5 -96.5t7 -89.5t2.5 -98q0 -40 -1 -73t-3.5 -62t-6.5 -55t-11 -52h-464v166h314q5 19 5.5 38.5t0.5 37.5q0 51 -2 93t-5 84t-8.5 87.5t-13.5 102.5q-7 51 -11.5 88t-7.5 71.5t-4.5 71.5
t-1.5 88h-226v166z" />
    <glyph glyph-name="uni05E1" unicode="&#x5e1;" horiz-adv-x="1107" 
d="M125 1094h570q99 0 163 -40t101.5 -106.5t52.5 -153t15 -179.5q0 -82 -9.5 -160.5t-31 -148.5t-57.5 -129t-88.5 -101.5t-124 -66t-164.5 -23.5q-99 0 -169 28.5t-117.5 75.5t-75.5 107.5t-42.5 123.5t-18.5 124t-4 110v539zM291 555q0 -79 11 -152.5t40.5 -130t80 -90.5
t129.5 -34q88 0 148 32t96.5 92t52.5 146.5t16 196.5q0 50 -4 105.5t-20.5 101.5t-50.5 76t-95 30h-404v-373z" />
    <glyph glyph-name="uni05E2" unicode="&#x5e2;" horiz-adv-x="1038" 
d="M100 0v166h313l-302 928h172l288 -908q51 19 86.5 56t57.5 91t32 124.5t10 157.5v479h161v-479q0 -82 -9.5 -159.5t-31 -146t-57.5 -125.5t-88.5 -98t-124 -63.5t-164.5 -22.5h-343z" />
    <glyph glyph-name="uni05E3" unicode="&#x5e3;" horiz-adv-x="1042" 
d="M609 1094q64 0 120 -24t98 -66t66 -98t24 -120v-1106h-166v1106q0 29 -11 55t-30.5 45.5t-45.5 30.5t-55 11h-327q-13 -15 -23 -36q-9 -18 -16 -44t-7 -58q0 -45 22 -77t57 -54.5t78.5 -36.5t85.5 -24l-36 -156q-64 15 -129.5 38t-118.5 63t-86.5 100t-33.5 147
q0 66 17 121.5t38 96.5q24 48 55 86h424z" />
    <glyph glyph-name="uni05E4" unicode="&#x5e4;" horiz-adv-x="1114" 
d="M681 1094q64 0 120 -24t98 -66t66 -98t24 -120v-786h-812v166h646v620q0 29 -11 55t-30.5 45.5t-45.5 30.5t-55 11h-347q-13 -15 -23 -36q-9 -18 -16 -44t-7 -58q0 -45 22 -77t57 -54.5t78.5 -36.5t85.5 -24l-36 -156q-64 15 -129.5 38t-118.5 63t-86.5 100t-33.5 147
q0 66 17 121.5t38 96.5q24 48 55 86h444z" />
    <glyph glyph-name="uni05E5" unicode="&#x5e5;" horiz-adv-x="1021" 
d="M311 480q34 12 72.5 27.5t77.5 35t75.5 43.5t66.5 52q38 36 62.5 77.5t39 95t20 122.5t5.5 161h166q0 -113 -8 -197.5t-28.5 -150.5t-55.5 -120t-89 -105q-46 -44 -100 -76.5t-108 -56.5t-105 -41t-91 -29v-638h-166v1414h166v-614z" />
    <glyph glyph-name="uni05E6" unicode="&#x5e6;" horiz-adv-x="1087" 
d="M789 166q2 5 3.5 13.5t1.5 14.5q0 31 -7.5 61.5t-29 62t-61.5 65t-105 69.5q-31 17 -70 36.5t-81.5 40t-85 42t-81.5 43.5q-68 39 -101.5 103.5t-33.5 168.5v208h166v-208q0 -55 18.5 -88t54.5 -57.5t88 -47t120 -56.5l191 457h175l-224 -537q79 -50 124.5 -100t69 -96.5
t30 -88.5t6.5 -78q0 -60 -5.5 -111.5t-14.5 -82.5h-777v166h629z" />
    <glyph glyph-name="uni05E7" unicode="&#x5e7;" horiz-adv-x="1039" 
d="M306 677v-997h-166v997h166zM792 619q0 61 -3.5 108t-9.5 84t-13.5 65.5t-14.5 51.5h-645v166h757q24 -39 41 -90.5t28 -112.5t16.5 -130t5.5 -142q0 -69 -23 -154.5t-73 -172t-129.5 -167t-193.5 -139.5l-74 144q88 46 151 106.5t103 126.5t58.5 132.5t18.5 123.5z" />
    <glyph glyph-name="uni05E8" unicode="&#x5e8;" horiz-adv-x="970" 
d="M85 1094h413q69 0 129.5 -26t105.5 -71t71 -105.5t26 -129.5v-762h-166v762q0 34 -13 64.5t-35.5 53t-53 35.5t-64.5 13h-413v166z" />
    <glyph glyph-name="uni05E9" unicode="&#x5e9;" horiz-adv-x="1266" 
d="M142 1094h166v-556q45 18 90 45t77 59q51 51 76 119.5t25 165.5v167h166v-167q0 -135 -40 -230.5t-113 -168.5q-28 -28 -65 -50.5t-76 -39.5t-75.5 -29t-64.5 -19v-217q33 -9 84 -18t129 -9q39 0 83 6.5t88.5 22.5t87.5 43.5t81 68.5q27 30 54 70.5t48 96t34 126.5
t13 163v351h166v-351q0 -107 -18 -194t-46 -157t-63.5 -122.5t-69.5 -90.5q-50 -55 -113 -92t-129 -59.5t-129.5 -32t-113.5 -9.5q-78 0 -142 9.5t-111 20.5q-55 13 -99 31v1047z" />
    <glyph glyph-name="uni05EA" unicode="&#x5ea;" horiz-adv-x="1167" 
d="M80 166h181q-3 47 -7.5 83.5t-9 69t-9.5 63t-8.5 65t-6 76t-2.5 95.5q0 46 7 90.5t21.5 85t37 74.5t54.5 60h-195v166h587q69 0 129.5 -26t105.5 -71t71 -105.5t26 -129.5v-762h-166v762q0 34 -13 64.5t-35.5 53t-53 35.5t-64.5 13h-123q-59 0 -101.5 -22.5t-70.5 -63.5
t-41.5 -98t-13.5 -126q0 -57 4 -104t10.5 -90t13.5 -85.5t13.5 -92t10.5 -109.5t4 -137h-356v166z" />
    <glyph glyph-name="geresh" unicode="&#x5f3;" horiz-adv-x="310" 
d="M80 827v493h150v-493h-150z" />
    <glyph glyph-name="gershayim" unicode="&#x5f4;" horiz-adv-x="618" 
d="M373 827v493h150v-493h-150zM95 827v493h150v-493h-150z" />
    <glyph glyph-name="uni2000" unicode="&#x2000;" horiz-adv-x="738" 
 />
    <glyph glyph-name="uni2001" unicode="&#x2001;" horiz-adv-x="1477" 
 />
    <glyph glyph-name="uni2002" unicode="&#x2002;" horiz-adv-x="738" 
 />
    <glyph glyph-name="uni2003" unicode="&#x2003;" horiz-adv-x="1477" 
 />
    <glyph glyph-name="uni2004" unicode="&#x2004;" horiz-adv-x="492" 
 />
    <glyph glyph-name="uni2005" unicode="&#x2005;" horiz-adv-x="369" 
 />
    <glyph glyph-name="uni2006" unicode="&#x2006;" horiz-adv-x="246" 
 />
    <glyph glyph-name="uni2007" unicode="&#x2007;" horiz-adv-x="246" 
 />
    <glyph glyph-name="uni2008" unicode="&#x2008;" horiz-adv-x="184" 
 />
    <glyph glyph-name="uni2009" unicode="&#x2009;" horiz-adv-x="295" 
 />
    <glyph glyph-name="uni200A" unicode="&#x200a;" horiz-adv-x="82" 
 />
    <glyph glyph-name="uni2010" unicode="&#x2010;" horiz-adv-x="923" 
d="M749 500h-575v150h575v-150z" />
    <glyph glyph-name="uni2011" unicode="&#x2011;" horiz-adv-x="923" 
d="M749 500h-575v150h575v-150z" />
    <glyph glyph-name="figuredash" unicode="&#x2012;" horiz-adv-x="923" 
d="M749 500h-575v150h575v-150z" />
    <glyph glyph-name="endash" unicode="&#x2013;" horiz-adv-x="1280" 
d="M1120 518h-960v166h960v-166z" />
    <glyph glyph-name="emdash" unicode="&#x2014;" horiz-adv-x="1676" 
d="M1514 518h-1354v166h1354v-166z" />
    <glyph glyph-name="quoteleft" unicode="&#x2018;" horiz-adv-x="310" 
d="M80 827v493h150v-493h-150z" />
    <glyph glyph-name="quoteright" unicode="&#x2019;" horiz-adv-x="310" 
d="M80 827v493h150v-493h-150z" />
    <glyph glyph-name="quotesinglbase" unicode="&#x201a;" horiz-adv-x="394" 
d="M40 -320q8 21 19.5 56t23 78t23 90.5t20.5 94.5t14.5 90t5.5 77h166q0 -34 -7.5 -77.5t-19.5 -90t-27.5 -94.5t-32.5 -90.5t-33.5 -77.5t-29.5 -56h-122z" />
    <glyph glyph-name="quotedblleft" unicode="&#x201c;" horiz-adv-x="618" 
d="M373 827v493h150v-493h-150zM95 827v493h150v-493h-150z" />
    <glyph glyph-name="quotedblright" unicode="&#x201d;" horiz-adv-x="618" 
d="M373 827v493h150v-493h-150zM95 827v493h150v-493h-150z" />
    <glyph glyph-name="quotedblbase" unicode="&#x201e;" horiz-adv-x="618" 
d="M373 827v493h150v-493h-150zM95 827v493h150v-493h-150z" />
    <glyph glyph-name="bullet" unicode="&#x2022;" horiz-adv-x="561" 
d="M431 598q0 -32 -11.5 -59.5t-32 -48t-48.5 -32.5t-60 -12t-59 12t-47 32.5t-31.5 48t-11.5 59.5q0 31 11.5 58.5t32 47.5t47.5 32t58 12q30 0 57.5 -11.5t48.5 -31.5t33.5 -47.5t12.5 -59.5z" />
    <glyph glyph-name="uni202F" unicode="&#x202f;" horiz-adv-x="295" 
 />
    <glyph glyph-name="perthousand" unicode="&#x2030;" horiz-adv-x="1944" 
d="M140 814q0 49 10 101t34 95t63.5 70.5t97.5 27.5q56 0 109 -12t104 -26.5t100 -26.5t98 -12q20 0 49.5 2.5t60 11t57.5 23.5t42 40l126 -80l-659 -1042l-126 80l545 862q-12 -6 -37 -12.5t-59 -6.5q-37 0 -68 6.5t-58 15t-51.5 16t-46.5 10.5q11 -34 15 -72t4 -71
q0 -49 -10.5 -100.5t-34.5 -94t-63.5 -70t-98.5 -27.5q-58 0 -97 27.5t-62.5 70t-33.5 94t-10 100.5zM852 278q0 49 10 101t34 95t63.5 70.5t97.5 27.5t97.5 -27.5t63.5 -70.5t34 -95t10 -101t-10.5 -100.5t-34.5 -94t-63.5 -70t-98.5 -27.5q-58 0 -97 27.5t-62.5 70
t-33.5 94t-10 100.5zM987 278q0 -26 3.5 -53.5t11 -50.5t20.5 -38t33 -15q21 0 34.5 15t22 38t12 50.5t3.5 53.5t-3.5 54t-12 51.5t-22 38.5t-32.5 15q-20 0 -33.5 -15t-21.5 -38.5t-11.5 -51.5t-3.5 -54zM275 814q0 -26 3.5 -53.5t11 -50.5t20.5 -38t33 -15q21 0 34.5 15
t22 38t12 50.5t3.5 53.5t-3.5 54t-12 51.5t-22 38.5t-32.5 15q-20 0 -33.5 -15t-21.5 -38.5t-11.5 -51.5t-3.5 -54zM1365 278q0 49 10 101t34 95t63.5 70.5t97.5 27.5t97.5 -27.5t63.5 -70.5t34 -95t10 -101t-10.5 -100.5t-34.5 -94t-63.5 -70t-98.5 -27.5q-58 0 -97 27.5
t-62.5 70t-33.5 94t-10 100.5zM1500 278q0 -26 3.5 -53.5t11 -50.5t20.5 -38t33 -15q21 0 34.5 15t22 38t12 50.5t3.5 53.5t-3.5 54t-12 51.5t-22 38.5t-32.5 15q-20 0 -33.5 -15t-21.5 -38.5t-11.5 -51.5t-3.5 -54z" />
    <glyph glyph-name="fraction" unicode="&#x2044;" horiz-adv-x="1304" 
d="M221 -27l698 1504l164 -78l-701 -1503z" />
    <glyph glyph-name="uni205F" unicode="&#x205f;" horiz-adv-x="369" 
 />
    <glyph glyph-name="uni20AA" unicode="&#x20aa;" horiz-adv-x="1624" 
d="M772 1094q69 0 129.5 -26t105.5 -71t71 -105.5t26 -129.5v-362h-166v362q0 34 -13 64.5t-35.5 53t-53 35.5t-64.5 13h-456v-928h-166v1094h622zM1534 1094v-332q0 -111 -9.5 -198t-26.5 -157t-42 -126t-56 -105q-24 -38 -64.5 -72.5t-95.5 -60.5t-123 -41.5t-146 -15.5
q-100 0 -179 9.5t-135 20.5q-65 13 -114 30v716h166v-588q45 -10 109.5 -18t152.5 -8q55 0 101 11t83 28.5t64 40t44 45.5q29 39 49 84t32.5 102.5t18 131.5t5.5 171v332h166z" />
    <glyph glyph-name="Euro" unicode="&#x20ac;" horiz-adv-x="1266" 
d="M380 547q0 -14 0.5 -28.5t1.5 -29.5h360v-150h-330q15 -42 39.5 -80t59.5 -66.5t83 -45t110 -16.5q55 0 98 14t79 40.5t68 66t65 90.5l122 -78q-43 -67 -86 -119t-93 -87t-111.5 -53.5t-141.5 -18.5q-104 0 -180 29.5t-129 78.5t-85.5 113t-49.5 132h-130v150h107
q-1 15 -1.5 29.5t-0.5 28.5q0 17 0.5 33.5t1.5 34.5h-107v150h132q18 66 51 128t86 110t128 76.5t177 28.5q80 0 141.5 -18.5t111.5 -53.5t93 -87t86 -119l-122 -78q-33 51 -65 90.5t-68 66t-79 40.5t-98 14q-60 0 -107 -16t-82 -43t-59 -63t-40 -76h326v-150h-359
q-3 -36 -3 -68z" />
    <glyph glyph-name="trademark" unicode="&#x2122;" horiz-adv-x="1851" 
d="M1557 646v601l-255 -255l-255 255v-601h-144v775h174l225 -225l226 225h173v-775h-144zM803 1277h-255v-631h-144v631h-254v144h653v-144z" />
    <glyph glyph-name="minus" unicode="&#x2212;" horiz-adv-x="948" 
d="M888 500h-828v150h828v-150z" />
    <glyph glyph-name="uniE000" unicode="&#xe000;" horiz-adv-x="500" 
d="M0 0v0v0v0v0z" />
    <glyph glyph-name="uniFB2A" unicode="&#xfb2a;" horiz-adv-x="1266" 
d="M142 1094h166v-556q45 18 90 45t77 59q51 51 76 119.5t25 165.5v167h166v-167q0 -135 -40 -230.5t-113 -168.5q-28 -28 -65 -50.5t-76 -39.5t-75.5 -29t-64.5 -19v-217q33 -9 84 -18t129 -9q39 0 83 6.5t88.5 22.5t87.5 43.5t81 68.5q27 30 54 70.5t48 96t34 126.5
t13 163v351h166v-351q0 -107 -18 -194t-46 -157t-63.5 -122.5t-69.5 -90.5q-50 -55 -113 -92t-129 -59.5t-129.5 -32t-113.5 -9.5q-78 0 -142 9.5t-111 20.5q-55 13 -99 31v1047zM1015 1205v151h150v-151h-150z" />
    <glyph glyph-name="uniFB2B" unicode="&#xfb2b;" horiz-adv-x="1266" 
d="M142 1094h166v-556q45 18 90 45t77 59q51 51 76 119.5t25 165.5v167h166v-167q0 -135 -40 -230.5t-113 -168.5q-28 -28 -65 -50.5t-76 -39.5t-75.5 -29t-64.5 -19v-217q33 -9 84 -18t129 -9q39 0 83 6.5t88.5 22.5t87.5 43.5t81 68.5q27 30 54 70.5t48 96t34 126.5
t13 163v351h166v-351q0 -107 -18 -194t-46 -157t-63.5 -122.5t-69.5 -90.5q-50 -55 -113 -92t-129 -59.5t-129.5 -32t-113.5 -9.5q-78 0 -142 9.5t-111 20.5q-55 13 -99 31v1047zM149 1205v151h150v-151h-150z" />
    <glyph glyph-name="shindageshshindothb" unicode="&#xfb2c;" horiz-adv-x="1266" 
d="M142 1094h166v-556q45 18 90 45t77 59q51 51 76 119.5t25 165.5v167h166v-167q0 -135 -40 -230.5t-113 -168.5q-28 -28 -65 -50.5t-76 -39.5t-75.5 -29t-64.5 -19v-217q33 -9 84 -18t129 -9q39 0 83 6.5t88.5 22.5t87.5 43.5t81 68.5q27 30 54 70.5t48 96t34 126.5
t13 163v351h166v-351q0 -107 -18 -194t-46 -157t-63.5 -122.5t-69.5 -90.5q-50 -55 -113 -92t-129 -59.5t-129.5 -32t-113.5 -9.5q-78 0 -142 9.5t-111 20.5q-55 13 -99 31v1047zM1015 1205v151h150v-151h-150zM630 305v150h150v-150h-150z" />
    <glyph glyph-name="shindageshsindothb" unicode="&#xfb2d;" horiz-adv-x="1266" 
d="M142 1094h166v-556q45 18 90 45t77 59q51 51 76 119.5t25 165.5v167h166v-167q0 -135 -40 -230.5t-113 -168.5q-28 -28 -65 -50.5t-76 -39.5t-75.5 -29t-64.5 -19v-217q33 -9 84 -18t129 -9q39 0 83 6.5t88.5 22.5t87.5 43.5t81 68.5q27 30 54 70.5t48 96t34 126.5
t13 163v351h166v-351q0 -107 -18 -194t-46 -157t-63.5 -122.5t-69.5 -90.5q-50 -55 -113 -92t-129 -59.5t-129.5 -32t-113.5 -9.5q-78 0 -142 9.5t-111 20.5q-55 13 -99 31v1047zM149 1205v151h150v-151h-150zM630 305v150h150v-150h-150z" />
    <glyph glyph-name="alefpatahhb" unicode="&#xfb2e;" horiz-adv-x="1147" 
d="M293 1123l128 -329q63 -44 120.5 -83t120.5 -82l194 494l151 -54l-206 -541q75 -63 120 -130.5t68.5 -135t30.5 -134t7 -128.5h-161q0 62 -8 120t-31.5 112.5t-65.5 105t-109 97.5l-278 195q-21 -39 -34.5 -72.5t-22 -76.5t-11.5 -103.5t-3 -153.5v-224h-166v224
q0 77 3.5 136t10 106t16.5 84t23.5 70t30.5 65t37 68l-123 325zM357 -291v151h458v-151h-458z" />
    <glyph glyph-name="alefqamatshb" unicode="&#xfb2f;" horiz-adv-x="1147" 
d="M293 1123l128 -329q63 -44 120.5 -83t120.5 -82l194 494l151 -54l-206 -541q75 -63 120 -130.5t68.5 -135t30.5 -134t7 -128.5h-161q0 62 -8 120t-31.5 112.5t-65.5 105t-109 97.5l-278 195q-21 -39 -34.5 -72.5t-22 -76.5t-11.5 -103.5t-3 -153.5v-224h-166v224
q0 77 3.5 136t10 106t16.5 84t23.5 70t30.5 65t37 68l-123 325zM349 -291v151h458v-151h-174l20 -276h-151l20 276h-173z" />
    <glyph glyph-name="alefdageshhb" unicode="&#xfb30;" horiz-adv-x="1147" 
d="M293 1123l128 -329q63 -44 120.5 -83t120.5 -82l194 494l151 -54l-206 -541q75 -63 120 -130.5t68.5 -135t30.5 -134t7 -128.5h-161q0 62 -8 120t-31.5 112.5t-65.5 105t-109 97.5l-278 195q-21 -39 -34.5 -72.5t-22 -76.5t-11.5 -103.5t-3 -153.5v-224h-166v224
q0 77 3.5 136t10 106t16.5 84t23.5 70t30.5 65t37 68l-123 325zM475 167v150h150v-150h-150z" />
    <glyph glyph-name="betdageshhb" unicode="&#xfb31;" horiz-adv-x="1030" 
d="M115 166h543v762h-540v166h706v-928h144v-166h-853v166zM311 462v150h150v-150h-150z" />
    <glyph glyph-name="gimeldageshhb" unicode="&#xfb32;" horiz-adv-x="794" 
d="M181 1094h404q0 -101 1.5 -175.5t5.5 -135.5t12 -115.5t22 -117.5q14 -66 25.5 -127.5t20 -126t13.5 -137t5 -159.5h-166q0 90 -3 154t-9 113.5t-14 90.5t-18 85q-70 -25 -112 -64t-64.5 -93t-29.5 -125t-7 -161h-166q0 112 15 208t53 173q39 78 107 132.5t174 84.5
q-8 40 -13 77t-8.5 75.5t-5.5 81.5t-3 96h-239v166zM123 657v150h150v-150h-150z" />
    <glyph glyph-name="daletdageshhb" unicode="&#xfb33;" horiz-adv-x="1008" 
d="M603 0v928h-523v166h833v-166h-144v-928h-166zM254 462v150h150v-150h-150z" />
    <glyph glyph-name="hedageshhb" unicode="&#xfb34;" horiz-adv-x="1151" 
d="M165 928v166h821v-1094h-166v928h-655zM337 619v-619h-166v619h166zM492 559v150h150v-150h-150z" />
    <glyph glyph-name="uniFB35" unicode="&#xfb35;" horiz-adv-x="593" 
d="M277 0v928h-166v166h332v-1094h-166zM34 462v150h150v-150h-150z" />
    <glyph glyph-name="zayindageshhb" unicode="&#xfb36;" horiz-adv-x="658" 
d="M254 0q0 86 -3.5 146t-9 106.5t-11.5 84t-11.5 77.5t-9 88.5t-3.5 115.5q0 92 25.5 170t83.5 140h-249v166h529v-166q-49 0 -90.5 -22.5t-72 -63.5t-47.5 -98t-17 -126q0 -57 4 -104t10.5 -90t13.5 -85.5t13.5 -92t10.5 -109.5t4 -137h-170zM-19 462v150h150v-150h-150z
" />
    <glyph glyph-name="tetdageshhb" unicode="&#xfb38;" horiz-adv-x="1157" 
d="M465 859q23 53 49.5 98.5t61 79t80.5 52.5t108 19q53 0 107 -19.5t97 -68.5t70 -132.5t27 -210.5q0 -146 -38.5 -272t-114 -219t-186 -146.5t-254.5 -53.5q-100 0 -186 17t-156 40v1051h166v-925q18 -5 41 -9t47 -7t47 -4.5t41 -1.5q117 0 199 43t134 116t75.5 169
t23.5 202q0 75 -8.5 126t-25.5 83t-43.5 46t-62.5 14q-31 0 -53.5 -13t-41 -34.5t-33.5 -50.5t-31 -61zM511 462v150h150v-150h-150z" />
    <glyph glyph-name="yoddageshhb" unicode="&#xfb39;" horiz-adv-x="543" 
d="M251 556v372h-156v166h322v-538h-166zM23 657v150h150v-150h-150z" />
    <glyph glyph-name="finalkafdageshhb" unicode="&#xfb3a;" horiz-adv-x="1004" 
d="M673 928h-558v166h724v-1414h-166v1248zM329 462v150h150v-150h-150z" />
    <glyph glyph-name="kafdageshhb" unicode="&#xfb3b;" horiz-adv-x="972" 
d="M870 619q0 -82 -5 -160t-20.5 -146.5t-44 -126t-76 -99t-117 -64.5t-166.5 -23h-345v166h345q98 0 152 35t79.5 96t30.5 143.5t5 178.5q0 61 -3.5 108t-9.5 84t-13.5 65.5t-14.5 51.5h-573v166h685q24 -39 41 -90.5t28 -112.5t16.5 -130t5.5 -142zM332 482v150h150v-150
h-150z" />
    <glyph glyph-name="lameddageshhb" unicode="&#xfb3c;" horiz-adv-x="977" 
d="M805 1094q14 -16 30.5 -39.5t30 -56.5t22.5 -77t9 -102q0 -80 -30 -149.5t-73.5 -128.5t-92.5 -109.5t-86 -92.5q-32 -37 -58.5 -73.5t-45.5 -77t-29 -86.5t-10 -102h-166q0 78 13 140t38 113.5t61 97t82 91.5q33 33 73.5 77t76.5 93.5t60.5 102.5t24.5 104q0 26 -8 57
t-25 52h-607v493h166v-327h544zM298 599v150h150v-150h-150z" />
    <glyph glyph-name="memdageshhb" unicode="&#xfb3e;" horiz-adv-x="1220" 
d="M743 946q-39 0 -87 -12t-93.5 -47.5t-84 -100t-57.5 -170.5l-114 -616h-166l54 296q22 119 39.5 205.5t17.5 153.5q0 60 -9.5 110t-26 95.5t-39.5 91t-50 96.5l145 75q13 -22 28.5 -50t30 -61.5t26.5 -71t18 -77.5q38 72 79 119.5t86 75t95.5 39t107.5 11.5
q69 0 129.5 -28.5t105.5 -76t71 -110t26 -131.5v-762h-507v166h341v596q0 34 -13 67t-35.5 59t-53 42t-64.5 16zM596 462v150h150v-150h-150z" />
    <glyph glyph-name="nundageshhb" unicode="&#xfb40;" horiz-adv-x="699" 
d="M140 1094h394v-116t1 -84t2 -64.5t3.5 -56t5.5 -58t7 -71.5q7 -67 13 -118t10.5 -96.5t7 -89.5t2.5 -98q0 -40 -1 -73t-3.5 -62t-6.5 -55t-11 -52h-464v166h314q5 19 5.5 38.5t0.5 37.5q0 51 -2 93t-5 84t-8.5 87.5t-13.5 102.5q-7 51 -11.5 88t-7.5 71.5t-4.5 71.5
t-1.5 88h-226v166zM122 482v150h150v-150h-150z" />
    <glyph glyph-name="samekhdageshhb" unicode="&#xfb41;" horiz-adv-x="1107" 
d="M125 1094h570q99 0 163 -40t101.5 -106.5t52.5 -153t15 -179.5q0 -82 -9.5 -160.5t-31 -148.5t-57.5 -129t-88.5 -101.5t-124 -66t-164.5 -23.5q-99 0 -169 28.5t-117.5 75.5t-75.5 107.5t-42.5 123.5t-18.5 124t-4 110v539zM291 555q0 -79 11 -152.5t40.5 -130t80 -90.5
t129.5 -34q88 0 148 32t96.5 92t52.5 146.5t16 196.5q0 50 -4 105.5t-20.5 101.5t-50.5 76t-95 30h-404v-373zM501 462v150h150v-150h-150z" />
    <glyph glyph-name="finalpedageshhb" unicode="&#xfb43;" horiz-adv-x="1042" 
d="M609 1094q64 0 120 -24t98 -66t66 -98t24 -120v-1106h-166v1106q0 29 -11 55t-30.5 45.5t-45.5 30.5t-55 11h-327q-13 -15 -23 -36q-9 -18 -16 -44t-7 -58q0 -45 22 -77t57 -54.5t78.5 -36.5t85.5 -24l-36 -156q-64 15 -129.5 38t-118.5 63t-86.5 100t-33.5 147
q0 66 17 121.5t38 96.5q24 48 55 86h424zM430 695v150h150v-150h-150z" />
    <glyph glyph-name="pedageshhb" unicode="&#xfb44;" horiz-adv-x="1114" 
d="M681 1094q64 0 120 -24t98 -66t66 -98t24 -120v-786h-812v166h646v620q0 29 -11 55t-30.5 45.5t-45.5 30.5t-55 11h-347q-13 -15 -23 -36q-9 -18 -16 -44t-7 -58q0 -45 22 -77t57 -54.5t78.5 -36.5t85.5 -24l-36 -156q-64 15 -129.5 38t-118.5 63t-86.5 100t-33.5 147
q0 66 17 121.5t38 96.5q24 48 55 86h444zM486 709v150h150v-150h-150z" />
    <glyph glyph-name="tsadidageshhb" unicode="&#xfb46;" horiz-adv-x="1087" 
d="M789 166q2 5 3.5 13.5t1.5 14.5q0 31 -7.5 61.5t-29 62t-61.5 65t-105 69.5q-31 17 -70 36.5t-81.5 40t-85 42t-81.5 43.5q-68 39 -101.5 103.5t-33.5 168.5v208h166v-208q0 -55 18.5 -88t54.5 -57.5t88 -47t120 -56.5l191 457h175l-224 -537q79 -50 124.5 -100t69 -96.5
t30 -88.5t6.5 -78q0 -60 -5.5 -111.5t-14.5 -82.5h-777v166h629zM428 856v150h150v-150h-150z" />
    <glyph glyph-name="qofdageshhb" unicode="&#xfb47;" horiz-adv-x="1039" 
d="M306 677v-997h-166v997h166zM792 619q0 61 -3.5 108t-9.5 84t-13.5 65.5t-14.5 51.5h-645v166h757q24 -39 41 -90.5t28 -112.5t16.5 -130t5.5 -142q0 -69 -23 -154.5t-73 -172t-129.5 -167t-193.5 -139.5l-74 144q88 46 151 106.5t103 126.5t58.5 132.5t18.5 123.5z
M466 600v150h150v-150h-150z" />
    <glyph glyph-name="reshdageshhb" unicode="&#xfb48;" horiz-adv-x="970" 
d="M85 1094h413q69 0 129.5 -26t105.5 -71t71 -105.5t26 -129.5v-762h-166v762q0 34 -13 64.5t-35.5 53t-53 35.5t-64.5 13h-413v166zM294 462v150h150v-150h-150z" />
    <glyph glyph-name="shindageshhb" unicode="&#xfb49;" horiz-adv-x="1266" 
d="M142 1094h166v-556q45 18 90 45t77 59q51 51 76 119.5t25 165.5v167h166v-167q0 -135 -40 -230.5t-113 -168.5q-28 -28 -65 -50.5t-76 -39.5t-75.5 -29t-64.5 -19v-217q33 -9 84 -18t129 -9q39 0 83 6.5t88.5 22.5t87.5 43.5t81 68.5q27 30 54 70.5t48 96t34 126.5
t13 163v351h166v-351q0 -107 -18 -194t-46 -157t-63.5 -122.5t-69.5 -90.5q-50 -55 -113 -92t-129 -59.5t-129.5 -32t-113.5 -9.5q-78 0 -142 9.5t-111 20.5q-55 13 -99 31v1047zM630 305v150h150v-150h-150z" />
    <glyph glyph-name="tavdageshhb" unicode="&#xfb4a;" horiz-adv-x="1167" 
d="M80 166h181q-3 47 -7.5 83.5t-9 69t-9.5 63t-8.5 65t-6 76t-2.5 95.5q0 46 7 90.5t21.5 85t37 74.5t54.5 60h-195v166h587q69 0 129.5 -26t105.5 -71t71 -105.5t26 -129.5v-762h-166v762q0 34 -13 64.5t-35.5 53t-53 35.5t-64.5 13h-123q-59 0 -101.5 -22.5t-70.5 -63.5
t-41.5 -98t-13.5 -126q0 -57 4 -104t10.5 -90t13.5 -85.5t13.5 -92t10.5 -109.5t4 -137h-356v166zM556 462v150h150v-150h-150z" />
    <glyph glyph-name="uniFB4B" unicode="&#xfb4b;" horiz-adv-x="593" 
d="M277 0v928h-166v166h332v-1094h-166zM213 1205v151h150v-151h-150z" />
  </font>
</defs>
</svg>
