<?xml version="1.0" standalone="no"?>
<!DOCTYPE svg PUBLIC "-//W3C//DTD SVG 1.1//EN" "http://www.w3.org/Graphics/SVG/1.1/DTD/svg11.dtd" >
<svg xmlns="http://www.w3.org/2000/svg" xmlns:xlink="http://www.w3.org/1999/xlink" version="1.1">
<metadata>
Created by FontForge 20170910 at Sat Sep 17 22:01:48 2011
 By Jimmy Wärting
Copyright .51 2004 by Maxim Iorsh (iorsh@math.technion.ac.il). Distributed under the terms of GNU General Public License version 2(http://www.gnu.org/licenses/gpl.html). 
All rights reserved.
</metadata>
<defs>
<font id="ComixNo2CLM-Medium" horiz-adv-x="233" >
  <font-face 
    font-family="Comix No2 CLM"
    font-weight="500"
    font-stretch="normal"
    units-per-em="1200"
    panose-1="2 0 6 3 0 0 0 0 0 0"
    ascent="800"
    descent="-400"
    bbox="-8.51667 -378 794 933.391"
    underline-thickness="50"
    underline-position="-150"
    unicode-range="U+0020-05EA"
  />
<missing-glyph horiz-adv-x="800" 
d="M170 630v-660h460v660h-460zM100 700h600v-800h-600v800z" />
    <glyph glyph-name=".notdef" horiz-adv-x="800" 
d="M170 630v-660h460v660h-460zM100 700h600v-800h-600v800z" />
    <glyph glyph-name=".null" horiz-adv-x="0" 
 />
    <glyph glyph-name="nonmarkingreturn" horiz-adv-x="400" 
 />
    <glyph glyph-name="space" unicode=" " horiz-adv-x="400" 
 />
    <glyph glyph-name="exclam" unicode="!" 
d="M202 549q0 -138 -18 -285q-3 -21 -19.5 -33.5t-37 -10t-33 19t-10.5 36.5q18 142 18 273q0 58 -3 115q-1 20 12.5 36t34 17t36 -12.5t17.5 -34.5q3 -60 3 -121zM56 52q0 30 21 51t51 21t51 -21t21 -51t-21 -51t-51 -21t-51 21t-21 51z" />
    <glyph glyph-name="quotedbl" unicode="&#x22;" horiz-adv-x="407" 
d="M311 422q31 45 43.5 109.5t13.5 155.5q0 21 -14.5 36t-35 15t-35.5 -14.5t-15 -34.5q-2 -157 -39 -211q-12 -17 -8 -37.5t21 -32t37.5 -7.5t31.5 21zM111 422q31 45 43.5 109.5t13.5 155.5q0 21 -14.5 36t-35 15t-35.5 -14.5t-15 -34.5q-2 -157 -39 -211
q-12 -17 -8 -37.5t21 -32t37.5 -7.5t31.5 21z" />
    <glyph glyph-name="percent" unicode="%" horiz-adv-x="742" 
d="M417 483q12 27 31 71.5t36 80t39 69.5q11 18 31.5 22t38 -7t21.5 -31.5t-7 -37.5q-19 -29 -33.5 -59.5t-33 -74.5t-33.5 -75l-231 -490q-9 -19 -28.5 -26t-38 2t-25.5 28.5t2 37.5zM113 535q13 34 41.5 55.5t65.5 21.5q53 0 86.5 -40.5t33.5 -95.5q0 -68 -46 -106.5
t-108 -38.5q-60 0 -103 32.5t-43 85.5q0 34 20 58t53 28zM127 430q19 -19 59 -19q32 0 53 16.5t21 48.5q0 22 -10.5 39t-29.5 17t-29 -17t-10 -42t-16 -37t-38 -6zM496 251q1 24 26 34.5t57 10.5q53 0 88.5 -36.5t35.5 -86.5q0 -28 -8.5 -56t-25.5 -54t-46.5 -42t-66.5 -16
q-53 0 -85 36.5t-32 94.5q0 55 26 96q11 17 31 19zM539 209q-1 -10 -6 -19q-14 -22 -14 -54q0 -51 37 -51q31 0 49 26t18 62q0 18 -12 30.5t-32 12.5q-5 0 -19.5 -3t-20.5 -4z" />
    <glyph glyph-name="quotesingle" unicode="'" horiz-adv-x="207" 
d="M111 422q31 45 43.5 109.5t13.5 155.5q0 21 -14.5 36t-35 15t-35.5 -14.5t-15 -34.5q-2 -157 -39 -211q-12 -17 -8 -37.5t21 -32t37.5 -7.5t31.5 21z" />
    <glyph glyph-name="parenleft" unicode="(" horiz-adv-x="340" 
d="M299 665q17 12 20.5 32.5t-8.5 37.5t-32 20.5t-37 -8.5q-94 -66 -153 -187.5t-59 -268.5q0 -121 45 -220.5t131 -189.5q15 -15 35.5 -15t35.5 14t15.5 35t-14.5 36q-77 79 -112.5 158t-35.5 182q0 122 49 223.5t120 150.5z" />
    <glyph glyph-name="parenright" unicode=")" horiz-adv-x="340" 
d="M51 -43q-17 -12 -20.5 -32.5t8.5 -37.5t32.5 -20.5t37.5 8.5q94 66 152.5 187.5t58.5 268.5q0 121 -44.5 220.5t-131.5 189.5q-14 15 -35 15t-36 -14t-15 -35t14 -36q77 -79 112.5 -158t35.5 -182q0 -122 -49 -223.5t-120 -150.5z" />
    <glyph glyph-name="asterisk" unicode="*" horiz-adv-x="577" 
d="M331 370l155 34q21 4 38.5 -7t21.5 -31.5t-7 -38t-31 -21.5l-139 -30l73 -101q12 -17 8.5 -37t-20.5 -32.5t-37 -9t-33 20.5l-80 112l-80 -111q-12 -17 -32.5 -20.5t-37.5 8.5t-20.5 32.5t8.5 37.5l74 103l-123 28q-20 5 -31 22.5t-6.5 37.5t22 31t37.5 7l139 -32l-9 139
q-1 20 12.5 36t34 17t36.5 -12.5t17 -34.5z" />
    <glyph glyph-name="plus" unicode="+" horiz-adv-x="582" 
d="M344 348q92 0 157 2q20 1 35 -13.5t16 -35t-13.5 -35.5t-35.5 -16q-82 -2 -160 -2q-1 -82 -5 -161q-1 -20 -16.5 -34t-36 -13t-34.5 16.5t-13 35.5q4 77 5 157q-84 1 -165 5q-21 1 -35 16.5t-13 36t16.5 34.5t35.5 13q80 -4 162 -5q0 78 -2 162q-1 20 13.5 35t35 15.5
t35.5 -13.5t16 -35q2 -85 2 -165z" />
    <glyph glyph-name="comma" unicode="," 
d="M195 26v-17q0 -108 -47 -217q-8 -19 -27.5 -26.5t-38.5 0.5t-26.5 27.5t0.5 38.5q35 79 39 156q-18 9 -28.5 26t-10.5 38q0 30 21 51t51 21t51 -21t21 -51q0 -14 -5 -26z" />
    <glyph glyph-name="hyphen" unicode="-" horiz-adv-x="474" 
d="M394 348q20 0 35 -14.5t15 -35t-14.5 -35.5t-35.5 -15q-165 -2 -316 6q-21 1 -35 16.5t-13 36t16.5 34.5t35.5 13q149 -8 312 -6z" />
    <glyph glyph-name="period" unicode="." 
d="M56 52q0 30 21 51t51 21t51 -21t21 -51t-21 -51t-51 -21t-51 21t-21 51z" />
    <glyph glyph-name="slash" unicode="/" horiz-adv-x="454" 
d="M246 483q12 27 31 71.5t36 80t39 69.5q11 18 31.5 22t38 -7t21.5 -31.5t-7 -37.5q-19 -29 -33.5 -59.5t-33 -74.5t-33.5 -75l-231 -490q-9 -19 -28.5 -26t-38 2t-25.5 28.5t2 37.5z" />
    <glyph glyph-name="zero" unicode="0" horiz-adv-x="632" 
d="M230 518q-2 -15 -11 -27q-42 -54 -65 -103.5t-23 -118.5q0 -86 34 -134.5t90 -48.5q91 0 198 92q27 41 38.5 74.5t11.5 81.5q0 88 -53.5 152t-121.5 64q-41 0 -61 -6t-37 -26zM102 499q21 42 37.5 66t42 45.5t61 30.5t85.5 9q76 0 140 -45.5t99.5 -117.5t35.5 -153
q0 -42 -7.5 -78t-24.5 -70.5t-31.5 -57t-41.5 -60.5q-20 -28 -53 -20q-96 -62 -190 -62q-72 0 -124 40.5t-76 103.5t-24 139q0 123 71 230z" />
    <glyph glyph-name="one" unicode="1" horiz-adv-x="402" 
d="M258 553q0 6 1.5 22.5t3 23t5 17.5t10 17t17.5 11q29 11 53.5 -11t24.5 -55q0 -12 -18 -53q-30 -248 -30 -334q0 -103 12 -141q6 -20 -3.5 -38.5t-29.5 -24.5t-38.5 3.5t-24.5 29.5q-8 26 -11.5 60.5t-4 51.5t-0.5 59q0 60 7 142q-56 -69 -133 -139q-16 -14 -36.5 -13
t-34.5 16.5t-13 36t16 34.5q155 140 227 285z" />
    <glyph glyph-name="two" unicode="2" horiz-adv-x="556" 
d="M51 470q0 69 54.5 123t126.5 54q56 0 101 -22t71 -57t40 -74.5t14 -77.5q0 -21 -4.5 -41.5t-11.5 -37.5t-19.5 -35.5t-23 -32t-28.5 -30t-29 -26.5t-32 -25t-30.5 -22t-30 -20.5t-26.5 -17.5q-20 -14 -45 -34q82 -12 184 -12q71 0 147 6q21 1 36.5 -12.5t17 -34t-12 -36
t-33.5 -17.5q-81 -6 -155 -6q-179 0 -295 33q-19 5 -29 20.5t-7 34.5q1 13 7.5 26.5t21 28t22.5 23t31 25t26.5 19t27.5 18.5q42 29 70.5 50.5t59 49.5t46 54.5t15.5 51.5q0 49 -32.5 90t-93.5 41q-30 0 -55.5 -25.5t-25.5 -51.5q0 -6 1.5 -11.5t2.5 -9.5t4 -8t4.5 -6.5
t6.5 -6.5t7 -5.5t8 -5.5t7 -5q17 -12 21.5 -32t-7 -37.5t-31.5 -21.5t-37 7q-87 57 -87 142z" />
    <glyph glyph-name="three" unicode="3" horiz-adv-x="639" 
d="M317 446q20 9 30.5 25t10.5 34q0 20 -14.5 32.5t-40.5 12.5q-41 0 -71 -26.5t-36 -59.5q-4 -20 -20.5 -32t-37 -8.5t-32.5 20.5t-9 37q12 68 69.5 118.5t136.5 50.5q68 0 111.5 -42t43.5 -103q0 -39 -17 -73q70 -23 116 -75t46 -126q0 -96 -75.5 -171t-173.5 -75
q-103 0 -182 23.5t-132 88.5q-13 16 -11 37t18 34t37 11t34 -18q33 -42 91 -59t145 -17q56 0 102.5 46t46.5 100q0 50 -48 83.5t-114 33.5q-2 0 -6 -2q-14 -3 -22.5 -5t-24 -3t-25 2t-19 12.5t-12.5 26.5q-6 33 18 47.5t67 19.5z" />
    <glyph glyph-name="four" unicode="4" horiz-adv-x="545" 
d="M390 297q-5 65 2 116q3 20 19 32.5t36.5 10t33.5 -19t10 -36.5q-3 -21 -3 -45t0.5 -36.5t4 -46.5t4.5 -43q3 -33 5 -63t4.5 -66.5t4.5 -62.5q1 -20 -12.5 -36t-34 -17.5t-36 12.5t-17 34.5t-5.5 77t-7 91.5q-8 -2 -16 -1q-187 18 -318 27q-32 2 -44 31.5t12 53.5
q13 14 73 73t84 83.5t64 71.5t67 88q12 17 32.5 21t37.5 -7.5t21 -31.5t-7 -38q-44 -65 -97 -123.5t-126 -129.5q86 -7 208 -20z" />
    <glyph glyph-name="five" unicode="5" horiz-adv-x="561" 
d="M426 547q-84 0 -243 -40q-2 -30 0 -64q44 17 90 17q52 0 96.5 -24t72.5 -62t44 -82.5t16 -87.5q0 -90 -64 -155t-154 -65q-73 0 -139 39t-106 98q-11 17 -7 37.5t21 32t37.5 7.5t32.5 -21q27 -42 70.5 -67.5t90.5 -25.5q48 0 83 35.5t35 84.5q0 59 -38 107.5t-91 48.5
q-54 0 -99 -35q-23 -18 -49 -7.5t-31 37.5q-20 110 -6 200q5 32 36 41q195 51 302 51q23 0 60 -3q20 -1 33.5 -17t12.5 -36.5t-17 -34t-36 -12.5q-34 3 -53 3z" />
    <glyph glyph-name="six" unicode="6" horiz-adv-x="660" 
d="M131 286q39 52 110 81t146 29q103 0 169.5 -55.5t66.5 -151.5q0 -47 -29.5 -87t-75 -65t-97.5 -39t-101 -14q-78 0 -143.5 31t-107 92.5t-41.5 142.5q0 84 51 170q28 47 65.5 87t86 73t111 51.5t131.5 18.5q21 0 35.5 -14.5t14.5 -35.5t-14.5 -35.5t-35.5 -14.5
q-105 0 -182 -49.5t-126 -132.5q-27 -45 -34 -82zM171 139q54 -55 149 -55q74 0 138.5 34.5t64.5 70.5q0 50 -35 78.5t-101 28.5q-81 0 -136 -35.5t-55 -77.5q0 -29 -25 -44z" />
    <glyph glyph-name="seven" unicode="7" horiz-adv-x="591" 
d="M483 541q-153 -7 -442 -3q-21 0 -35.5 15t-14 35.5t15.5 35t35 14.5q64 -1 157.5 -1.5t166.5 -1.5t149 -3q45 -1 65 -40.5t0 -81.5q-47 -97 -86 -207q-54 -149 -76 -276q-4 -21 -20.5 -33t-37 -8.5t-32.5 20.5t-9 37q15 88 38 166q-103 -26 -213 -41q-21 -3 -37.5 9
t-19.5 32.5t9.5 37.5t32.5 19q118 17 239 48q12 3 24 1l8 22q40 113 83 204z" />
    <glyph glyph-name="eight" unicode="8" horiz-adv-x="639" 
d="M263 551q-3 -17 -16 -28.5t-31 -12.5q-27 -1 -43 -16q38 -31 141 -73q130 53 159 76q-18 25 -70 40.5t-102 15.5q-22 0 -38 -2zM85 543q13 33 38 55.5t56.5 33.5t61 16t60.5 5q44 0 89 -9t88 -27t70 -50.5t27 -74.5q0 -19 -8.5 -36t-18 -28t-29.5 -23.5t-30 -17.5
t-34 -15.5t-27 -11.5q30 -19 56 -40t53 -48.5t43 -58.5t16 -60q0 -76 -65 -119q-72 -48 -218 -48q-52 0 -99 10t-88.5 30t-66 56.5t-24.5 84.5q0 15 3.5 29.5t8.5 26t14.5 24.5t16.5 22t20.5 21t20.5 18t22.5 16.5t20.5 14t19.5 12.5t15.5 10q-85 35 -115 87
q-12 21 -11 47.5t14 47.5zM313 311q-56 -26 -116 -71t-62 -73q-2 -27 27.5 -46t69 -27t81.5 -8q46 0 93 8t69 23q21 14 21 36q0 29 -68.5 82t-114.5 76z" />
    <glyph glyph-name="nine" unicode="9" horiz-adv-x="600" 
d="M449 591q24 -14 40.5 -47t19.5 -66q53 -132 53 -234q0 -121 -78 -190t-196 -69q-107 0 -237 89q-17 11 -21 31.5t7.5 37.5t32 21t37.5 -8q38 -25 91 -48t90 -23q79 0 126.5 41.5t47.5 117.5q0 40 -10 85q-65 -63 -154 -63q-54 0 -102.5 21t-81.5 64.5t-33 99.5
q0 49 27 88t68.5 62t87 35t88.5 12q62 0 97 -57zM405 468q-26 11 -30 38q-3 16 -10.5 29t-12.5 13q-65 0 -118 -29t-53 -68q0 -35 33.5 -60t83.5 -25q43 0 80 31t27 71z" />
    <glyph glyph-name="colon" unicode=":" 
d="M56 444q0 30 21 51t51 21t51 -21t21 -51t-21 -51t-51 -21t-51 21t-21 51zM56 52q0 30 21 51t51 21t51 -21t21 -51t-21 -51t-51 -21t-51 21t-21 51z" />
    <glyph glyph-name="semicolon" unicode=";" 
d="M56 444q0 30 21 51t51 21t51 -21t21 -51t-21 -51t-51 -21t-51 21t-21 51zM195 26v-17q0 -108 -47 -217q-8 -19 -27.5 -26.5t-38.5 0.5t-26.5 27.5t0.5 38.5q35 79 39 156q-18 9 -28.5 26t-10.5 38q0 30 21 51t51 21t51 -21t21 -51q0 -14 -5 -26z" />
    <glyph glyph-name="less" unicode="&#x3c;" horiz-adv-x="428" 
d="M156 302q30 29 59.5 54.5t76.5 64t64 53.5q16 13 18 33.5t-11.5 36.5t-34 18t-36.5 -12q-18 -15 -60 -49.5t-64.5 -53t-57.5 -50.5t-66 -64q-15 -16 -13.5 -38t18.5 -36q122 -97 271 -198q17 -12 37.5 -8t32 21t7.5 37.5t-21 31.5q-121 82 -220 159z" />
    <glyph glyph-name="equal" unicode="=" horiz-adv-x="582" 
d="M338 448q-133 0 -256 6q-20 1 -35.5 -13t-16.5 -34.5t13 -36t34 -16.5q126 -6 261 -6q80 0 165 2q21 1 35.5 16t13.5 35.5t-16 35t-35 13.5q-84 -2 -163 -2zM338 248q-133 0 -256 6q-20 1 -35.5 -13t-16.5 -34.5t13 -36t34 -16.5q126 -6 261 -6q80 0 165 2q21 1 35.5 16
t13.5 35.5t-16 35t-35 13.5q-84 -2 -163 -2z" />
    <glyph glyph-name="greater" unicode="&#x3e;" horiz-adv-x="428" 
d="M272 312q-30 -29 -59.5 -54.5t-76.5 -64.5t-64 -53q-16 -13 -18 -33.5t11.5 -36.5t34 -18t36.5 12q18 15 60 49.5t64.5 53t57.5 50.5t66 64q15 16 14 38t-19 36q-122 97 -271 198q-17 12 -37.5 8t-32 -21t-7.5 -37.5t21 -31.5q121 -82 220 -159z" />
    <glyph glyph-name="question" unicode="?" horiz-adv-x="541" 
d="M186 52q0 30 21 51t51 21t51 -21t21 -51t-21 -51t-51 -21t-51 21t-21 51zM38 527q-1 -21 13 -36.5t34.5 -16.5t36 13t16.5 35q2 50 47 78.5t94 27.5q52 -1 95 -35t45 -82q1 -18 -4.5 -26.5t-20.5 -20.5q-60 -47 -102.5 -95.5t-68.5 -113.5q-8 -19 0 -38t27 -27t38 0
t27 27q5 12 10.5 23t10.5 20t13 19t12 16t14.5 16.5t14.5 15t16.5 16t16.5 14.5t19.5 16.5t18.5 16.5q61 52 58 125q-3 60 -39 109.5t-89.5 76t-109.5 27.5q-95 3 -167 -55.5t-76 -145.5z" />
    <glyph glyph-name="bracketleft" unicode="[" horiz-adv-x="334" 
d="M130 655l7 -698l110 3q20 0 35 -14t16 -34.5t-13.5 -35.5t-35.5 -16l-160 -4q-22 -1 -36.5 13.5t-14.5 35.5l-8 798q0 22 13.5 36t35.5 15l174 4q21 0 36 -14t15 -35t-14 -36t-35 -15z" />
    <glyph glyph-name="backslash" unicode="\" horiz-adv-x="454" 
d="M208 483q-12 27 -31 71.5t-36 80t-39 69.5q-11 18 -31.5 22t-38 -7t-21.5 -31.5t7 -37.5q19 -29 33.5 -59.5t33 -74.5t33.5 -75l231 -490q9 -19 28.5 -26t38 2t25.5 28.5t-2 37.5z" />
    <glyph glyph-name="bracketright" unicode="]" horiz-adv-x="334" 
d="M204 -41l-7 698l-110 -3q-20 -1 -35 13.5t-16 35t13.5 35.5t35.5 16l160 4q22 1 36.5 -13.5t14.5 -36.5l8 -798q0 -21 -13.5 -35t-35.5 -15l-174 -4q-21 0 -36 14t-15 35t14 36t35 15z" />
    <glyph glyph-name="grave" unicode="`" horiz-adv-x="197" 
d="M87 716q-31 -45 -43.5 -109.5t-13.5 -155.5q0 -21 14.5 -36t35 -15t35.5 14.5t15 34.5q2 157 39 211q12 17 8 37.5t-21 32t-37.5 7.5t-31.5 -21z" />
    <glyph glyph-name="afii57664" unicode="&#x5d0;" horiz-adv-x="666" 
d="M500 197l113 -106q15 -14 15.5 -35t-13.5 -36t-35 -15.5t-36 13.5l-115 109q-20 0 -33.5 13.5t-14.5 31.5l-140 132q-70 -128 -117 -276q-7 -20 -25.5 -29.5t-38 -3t-29 25t-3.5 37.5q54 169 137 316q-25 24 -68.5 69t-59.5 61q-14 15 -14 35.5t15 35t35.5 14.5t35.5 -15
l112 -115l204 -191q47 83 74 152t30 139q1 21 16.5 35t36 13t34.5 -16.5t13 -36.5q-2 -50 -14 -99t-33 -97.5t-38 -81t-44 -79.5z" />
    <glyph glyph-name="afii57665" unicode="&#x5d1;" horiz-adv-x="700" 
d="M553 128q41 -1 77 -8q21 -3 32.5 -20t8 -37.5t-20.5 -32.5t-37 -8q-36 6 -81 6q-66 0 -200.5 -17t-204.5 -17q-35 0 -69 3q-20 2 -33.5 18t-11.5 36.5t18 33.5t37 12q29 -3 59 -3q44 0 96 5t114.5 13t97.5 11q1 14 10 25q83 110 83 216q0 70 -37 106t-94 36
q-158 0 -268 -81q-16 -12 -36.5 -9t-33 20t-9 37.5t19.5 32.5q136 100 327 100q97 0 164 -65t67 -177q0 -119 -75 -236z" />
    <glyph glyph-name="afii57666" unicode="&#x5d2;" horiz-adv-x="511" 
d="M336 306q-18 87 -39 169q-8 31 -46 31q-24 0 -36 -4t-33 -16q-17 -10 -37.5 -5t-30.5 23t-5 38t23 31q57 33 119 33q51 0 90.5 -29t52.5 -78q51 -201 88 -435q3 -21 -9 -37.5t-32.5 -20t-37 9t-20.5 32.5q-8 51 -16 99q-78 -91 -303 -152l-9 -3q-20 -5 -38 5t-23.5 30
t5 38t30.5 24q44 12 90 29.5t91 40t73.5 50t28.5 53.5q0 29 24 44z" />
    <glyph glyph-name="afii57667" unicode="&#x5d3;" horiz-adv-x="677" 
d="M434 499q-32 0 -92 2.5t-91 2.5q-61 0 -95 -6.5t-72 -22.5q-19 -9 -38 -1.5t-27.5 26.5t-1 38.5t26.5 27.5q85 38 207 38q35 0 95 -2.5t90 -2.5q79 0 158 12q21 3 37.5 -9t19.5 -32.5t-9 -37.5t-33 -20q-40 -6 -80 -9q5 -14 2 -29q-17 -72 -17 -197q0 -73 8.5 -139
t9.5 -94q1 -20 -13 -35.5t-35 -16t-36 13.5t-16 34q-1 15 -9.5 86t-8.5 151q0 136 20 220v2z" />
    <glyph glyph-name="afii57668" unicode="&#x5d4;" horiz-adv-x="684" 
d="M123 241q3 21 20 33t37.5 8.5t32.5 -20.5t8 -37q-6 -18 -2.5 -89t2.5 -95q-1 -21 -16.5 -35t-36 -13t-34.5 16.5t-13 35.5q1 23 -2 99t4 97zM387 610q59 0 106 -17.5t77.5 -47t50.5 -71t28.5 -86.5t8.5 -96q0 -126 -48 -273q-7 -19 -25.5 -28.5t-38 -3t-29 25t-3.5 38.5
q44 131 44 241q0 218 -171 218q-77 0 -145.5 -14.5t-154.5 -43.5q-20 -6 -38.5 3.5t-25 29t3 38t28.5 24.5q92 31 168.5 47t163.5 16z" />
    <glyph glyph-name="afii57669" unicode="&#x5d5;" horiz-adv-x="255" 
d="M181 375q0 -49 -1.5 -162t-1.5 -177q0 -21 -14.5 -35.5t-35.5 -14.5t-35.5 14.5t-14.5 35.5q0 66 1.5 178.5t1.5 160.5q0 112 -6 187q-1 21 12 36.5t34 17t36.5 -11.5t17.5 -34q6 -79 6 -195z" />
    <glyph glyph-name="afii57670" unicode="&#x5d6;" horiz-adv-x="377" 
d="M158 505q-53 1 -98 -5q-20 -2 -36.5 10.5t-19 33t10 37t33.5 18.5q45 6 95 6q22 0 73.5 -1.5t85.5 -1.5q21 0 35.5 -15t14.5 -35.5t-14.5 -35t-35.5 -14.5h-40q4 -27 -16 -45q-18 -16 -18 -130q0 -47 5.5 -145.5t5.5 -137.5q0 -20 -14.5 -35t-35.5 -15t-35.5 15t-14.5 35
q0 33 -5.5 132t-5.5 151q0 126 30 178z" />
    <glyph glyph-name="afii57671" unicode="&#x5d7;" horiz-adv-x="737" 
d="M130 507q129 104 275 104q72 0 132 -28.5t97.5 -75t58 -102.5t20.5 -114q0 -154 -44 -268q-7 -19 -26 -27.5t-38.5 -1t-28 26.5t-0.5 38q37 96 37 232q0 55 -23 104.5t-72 82.5t-113 33q-76 0 -130 -27.5t-115 -83.5q-10 -107 -10 -231q0 -58 2 -126q1 -21 -13 -36
t-35 -15.5t-36 13.5t-16 35q-2 68 -2 129q0 121 9 227q-12 27 5 50q5 37 18 50.5t48 10.5z" />
    <glyph glyph-name="afii57672" unicode="&#x5d8;" horiz-adv-x="701" 
d="M606 560q15 -4 26 -15t13 -27q12 -77 12 -172q0 -184 -67.5 -268.5t-202.5 -84.5q-88 0 -164.5 37.5t-124.5 110t-48 165.5q0 106 7 219q2 21 17.5 34.5t36 12t34.5 -17t12 -35.5q-7 -111 -7 -213q0 -94 68.5 -153.5t168.5 -59.5q42 0 71 11t52.5 38t35 77.5t11.5 126.5
q0 82 -7 135q-10 4 -25.5 13t-30 13t-38.5 4q-39 0 -55.5 -21t-16.5 -62q0 -21 -15 -35.5t-35.5 -14.5t-35 14.5t-14.5 35.5q0 83 45.5 133t126.5 50q42 0 83.5 -14.5t66.5 -36.5z" />
    <glyph glyph-name="afii57673" unicode="&#x5d9;" horiz-adv-x="221" 
d="M171 314q0 -21 -14 -36t-35 -15t-36 14t-15 35q-3 128 -21 246q-4 21 8.5 37.5t33 20t37 -9t19.5 -32.5q20 -125 23 -260z" />
    <glyph glyph-name="afii57674" unicode="&#x5da;" horiz-adv-x="667" 
d="M370 616q41 0 74 -5t58.5 -13t44.5 -23.5t32 -30t22.5 -38t14 -43t7.5 -50t3.5 -54t0.5 -59.5q0 -119 -14 -272q-21 -231 -21 -356q0 -21 -14.5 -35.5t-35 -14.5t-35.5 14.5t-15 35.5q0 129 22 365q13 149 13 263v8v30.5t-1.5 30.5t-4 32t-8 29.5t-13 28t-19.5 23
t-27.5 19t-36.5 11t-47 4.5q-46 0 -95.5 -10t-80 -20t-87.5 -32q-12 -5 -18 -7q-20 -7 -39 1.5t-26 28t1.5 38.5t27.5 26q5 2 27.5 10.5t29.5 11l28 10t30.5 10t29.5 8.5t32.5 8.5t32 6.5t35 6t34.5 3t38 1z" />
    <glyph glyph-name="afii57675" unicode="&#x5db;" horiz-adv-x="603" 
d="M261 607q140 0 226.5 -78.5t86.5 -216.5q0 -83 -28 -207q-11 -51 -47.5 -81.5t-92.5 -33.5q-124 -6 -211 2t-154 46q-18 10 -24 30t4 38t30 24t38 -5q85 -47 312 -35q23 2 33 9.5t15 27.5q25 113 25 185q0 53 -17 91.5t-46.5 60.5t-67 32.5t-82.5 10.5q-38 0 -64.5 -6.5
t-69.5 -25.5q-19 -8 -38.5 0t-27.5 27t0 38.5t27 27.5q95 39 173 39z" />
    <glyph glyph-name="afii57676" unicode="&#x5dc;" horiz-adv-x="588" 
d="M281 90q39 0 85 48t77 115.5t31 121.5q0 71 -54.5 102t-172.5 31q-23 0 -63 -4t-66 -4q-24 0 -52.5 9t-51.5 30.5t-18 49.5q2 16 8.5 54t10 61.5t7 55t3.5 55.5q0 33 -6 55q-5 20 5 38t30 23.5t38 -5t24 -30.5q9 -34 9 -81q0 -62 -26 -214q20 0 71.5 3.5t76.5 3.5
q327 0 327 -233q0 -41 -14 -92t-40.5 -102.5t-61.5 -94t-81.5 -69.5t-95.5 -27q-55 0 -155 9q-21 2 -34 18t-11 36.5t18 34t36 11.5q96 -9 146 -9z" />
    <glyph glyph-name="afii57677" unicode="&#x5dd;" horiz-adv-x="742" 
d="M189 591q111 14 217 14q57 0 105.5 -13.5t90 -42.5t66.5 -80.5t29 -120.5q5 -87 5 -124q0 -111 -28 -162q1 -19 -10 -33.5t-29 -18.5q-92 -20 -271 -20q-48 0 -87.5 10.5t-74 33.5t-55.5 65t-25 101q-3 58 -3 113q0 81 8 166q-24 -5 -48 -11q-20 -6 -38 4.5t-23.5 30.5
t5 38t30.5 23q54 15 112 24q12 4 24 3zM229 495q-10 -95 -10 -182q0 -52 3 -107q4 -67 39.5 -91.5t102.5 -24.5q125 0 218 13q20 30 20 121q0 34 -5 118q-4 90 -54.5 126.5t-136.5 36.5q-78 0 -177 -10z" />
    <glyph glyph-name="afii57678" unicode="&#x5de;" horiz-adv-x="666" 
d="M161 496q102 113 231 113q78 0 135 -41.5t83 -105.5t26 -141q0 -41 -3.5 -79t-15 -84t-30.5 -80.5t-53 -59.5t-79 -28q-109 -9 -196 27q-19 8 -27 27t0 38t27 27t38 0q65 -27 150 -20q43 4 66 67.5t23 164.5q0 86 -38 137t-106 51q-65 0 -115 -40.5t-97 -113.5
q-4 -7 -10 -12q1 -51 -1 -145.5t-2 -129.5q0 -21 -14.5 -35.5t-35 -14.5t-35.5 14.5t-15 35.5q0 39 1.5 119.5t1.5 119.5q0 140 -14 221q-4 20 8 37t32.5 21t37.5 -8t20 -33q4 -23 7 -49z" />
    <glyph glyph-name="afii57679" unicode="&#x5df;" horiz-adv-x="222" 
d="M154 185q0 -252 4 -460q0 -21 -14.5 -36t-35 -15t-35.5 14t-15 35q-4 209 -4 462q0 160 2 397q0 21 14.5 35.5t35.5 14.5t35.5 -15t14.5 -35q-2 -238 -2 -397z" />
    <glyph glyph-name="afii57680" unicode="&#x5e0;" horiz-adv-x="427" 
d="M186 607q50 0 89.5 -26t61.5 -65t36.5 -89.5t19 -92.5t4.5 -82q0 -78 -16 -128t-54.5 -80t-94.5 -42t-143 -12q-23 0 -45 3q-21 2 -33.5 18.5t-10 37t18.5 33.5t37 10q15 -2 33 -2q119 0 163.5 32.5t44.5 129.5q0 69 -12 125.5t-37.5 93t-61.5 36.5q-24 0 -37 -9
q-18 -11 -38 -7t-31.5 21.5t-7 38t21.5 31.5q39 25 92 25z" />
    <glyph glyph-name="afii57681" unicode="&#x5e1;" horiz-adv-x="626" 
d="M144 390q-8 -78 0 -130q10 -59 78 -112.5t124 -53.5h1h1q29 1 48.5 13t59.5 50q15 14 32.5 68t17.5 102q0 77 -43 128.5t-105 51.5h-1q-45 -1 -97 -26.5t-68 -62.5q-7 -13 -20 -21t-28 -7zM161 537q42 34 95.5 52t100.5 18h1q72 0 129.5 -39.5t88 -103t30.5 -137.5
q0 -73 -21.5 -140t-60.5 -104q-24 -22 -35 -31.5t-35 -26t-48.5 -23.5t-54.5 -8h-5q-60 0 -125 32.5t-115 91.5t-60 127q-18 113 19 285q5 21 22 32t38 7q27 -6 36 -32z" />
    <glyph glyph-name="afii57682" unicode="&#x5e2;" horiz-adv-x="655" 
d="M379 126q-41 13 -87 38t-94.5 64.5t-87 86t-63 107t-24.5 123.5q0 21 14.5 36t35 15t35.5 -14.5t15 -35.5q1 -54 27.5 -107t69.5 -94t90 -72.5t94 -50.5q19 -8 27 -25.5t2 -36.5q98 81 98 266q0 79 -16 94q-14 15 -14 35.5t14.5 35.5t35.5 14.5t35 -14.5q45 -45 45 -165
q0 -309 -245 -406q-66 -27 -141 -27q-111 0 -180 54q-17 12 -19.5 32.5t10 37t33 19.5t37.5 -10q42 -33 119 -33q69 0 134 33z" />
    <glyph glyph-name="afii57683" unicode="&#x5e3;" horiz-adv-x="677" 
d="M234 128q-65 0 -111 33.5t-66.5 85.5t-20.5 117q0 19 1.5 52t1.5 47q0 31 -4 54q-4 20 5.5 35.5t28.5 21.5q127 39 274 39q56 0 102.5 -17.5t78 -46t55 -68t37 -79t21.5 -84t10.5 -78t2.5 -66.5v-164v-179q0 -53 -4 -103q-2 -20 -17.5 -33.5t-36 -12t-34 17t-12.5 36.5
q4 46 4 95v179.5v163.5q0 46 -4.5 88t-18 89.5t-35.5 82t-60.5 57t-88.5 22.5q-106 0 -205 -24q1 -12 1 -26q0 -19 -1.5 -51.5t-1.5 -47.5q0 -66 25 -101t73 -35q8 0 15.5 0.5t15.5 3t13 3.5t13 5.5t11 6t12 8t11 8t12.5 9.5t11.5 9q17 13 37.5 10.5t33 -19t10 -37
t-18.5 -32.5q-1 -1 -10.5 -8.5t-12.5 -10t-13 -9.5t-15.5 -10l-16.5 -9t-18.5 -9t-19.5 -7.5t-22 -6.5t-23 -3.5t-26 -1.5z" />
    <glyph glyph-name="afii57684" unicode="&#x5e4;" horiz-adv-x="616" 
d="M139 452v-24q0 -35 5.5 -52.5t19.5 -26.5q21 -13 67 -13q34 0 47 6q19 9 38.5 2.5t28.5 -25t2.5 -38.5t-25.5 -29q-34 -16 -91 -16q-4 0 -15.5 -0.5t-15 0t-13 1t-13.5 1.5t-13 3.5t-16.5 6t-17.5 9t-22 12.5q-66 49 -66 159q0 1 4 94q1 32 31 44t53 -9q72 53 168 53
q62 0 113 -18t85.5 -47.5t58 -69t34 -81.5t10.5 -86q0 -152 -114 -290q-5 -7 -24.5 -14.5t-27.5 -7.5l-61 -1.5t-93 -1.5q-81 0 -132.5 7t-89.5 31q-18 11 -21.5 32t8.5 38q13 18 34.5 20t36.5 -9q14 -8 61 -13.5t103 -5.5q9 0 143 3q77 87 77 212q0 39 -10.5 73.5t-33.5 64
t-63 47t-94 17.5q-74 0 -122 -45q-14 -13 -34 -13z" />
    <glyph glyph-name="afii57685" unicode="&#x5e5;" horiz-adv-x="636" 
d="M296 218q43 22 79 51.5t68 69.5t50 92.5t18 112.5q0 35 10 52.5t38 18.5q26 1 39.5 -15t13.5 -56q0 -72 -21 -136.5t-57.5 -113.5t-77 -85.5t-87.5 -64.5q72 -85 108 -186t41 -228q1 -21 -13 -36t-34.5 -16t-36 13t-16.5 35q-6 150 -54.5 249.5t-161.5 190.5
q-81 65 -129.5 171t-53.5 220q-1 20 13 35.5t34.5 16.5t36 -13t16.5 -35q5 -108 53 -199.5t124 -143.5z" />
    <glyph glyph-name="afii57686" unicode="&#x5e6;" horiz-adv-x="675" 
d="M360 382q5 6 12 10q51 30 97 78.5t75 103.5q10 18 29.5 24t38 -3.5t24.5 -29.5t-4 -38q-65 -122 -176 -200q35 -19 54 -31.5t47.5 -37.5t53.5 -57q29 -37 29 -86q0 -52 -31.5 -83.5t-89.5 -30.5q-27 0 -69 3.5t-66 3.5q-33 0 -118 -6t-128 -6q-44 0 -75 5q-20 4 -32 21
t-8.5 37.5t20.5 32t38 8.5q22 -4 57 -4q36 0 121 6t124 6q30 0 78.5 -4t75.5 -3q5 13 0.5 27.5t-18.5 29.5t-28 27t-36 26t-33 20.5t-28 16.5q-7 4 -9 5q-7 4 -45 22.5t-75.5 40t-82 50t-82 62.5t-57.5 68q-18 32 -18 65q0 21 15 35t36 13.5t35 -15t14 -35.5q0 -18 48 -56
t94.5 -67t92.5 -54z" />
    <glyph glyph-name="afii57687" unicode="&#x5e7;" horiz-adv-x="692" 
d="M204 98q0 -63 -2 -133.5t-4.5 -159.5t-3.5 -134q0 -21 -15 -35t-36 -14t-35 15t-14 36q1 46 4 135t4.5 158.5t1.5 131.5q0 90 -4 166q-1 20 13 35.5t34.5 16.5t36 -13t16.5 -35q4 -78 4 -170zM240 609q256 0 362 -91q70 -60 70 -161q0 -96 -56 -182q-24 -36 -52.5 -63.5
t-50 -41.5t-47.5 -35t-45 -44q-13 -16 -33.5 -18.5t-36.5 10.5t-18.5 33.5t10.5 36.5q27 34 56.5 60t50 39t43.5 33.5t39 45.5q40 60 40 126q0 55 -34 85q-38 32 -119 49.5t-179 17.5q-85 0 -178 -11q-21 -3 -37 10t-18.5 33.5t10.5 37t33 18.5q99 12 190 12z" />
    <glyph glyph-name="afii57688" unicode="&#x5e8;" horiz-adv-x="606" 
d="M262 610q82 0 155 -36t119 -104.5t46 -152.5q0 -99 -30 -283q-3 -20 -20 -32t-37.5 -9t-32.5 20t-9 37q29 176 29 267q0 81 -65 137t-155 56q-95 0 -172 -41q-18 -10 -38 -3.5t-29.5 24.5t-3.5 38t25 29q98 53 218 53z" />
    <glyph glyph-name="afii57689" unicode="&#x5e9;" horiz-adv-x="795" 
d="M171 245q1 1 3 1q17 3 52.5 9t54 9.5t39.5 10.5t31 14q13 11 16.5 26.5t3.5 45.5q0 64 -27 189q-4 20 7 37.5t31.5 22t38 -7t21.5 -31.5q29 -135 29 -210q0 -104 -58 -150q-14 -11 -32 -20t-30 -14t-36.5 -10t-31 -6t-35.5 -5t-30 -4q57 -59 190 -59q72 0 115.5 14.5
t83.5 46.5q-1 9 2 18q41 137 41 265q0 49 -6 95q-3 20 10 36.5t33.5 19.5t37 -10t18.5 -33q7 -53 7 -108q0 -77 -14 -158.5t-35 -143.5q5 -27 -16 -45q-109 -97 -277 -97q-270 0 -330 212q-19 66 -19 195q0 109 -4 141q-2 21 10.5 37.5t33 19t37 -10.5t19.5 -33
q4 -39 4 -154q0 -103 12 -155z" />
    <glyph glyph-name="afii57690" unicode="&#x5ea;" horiz-adv-x="824" 
d="M259 517q38 45 95 69t118 24t118.5 -20t103 -56.5t73 -95t27.5 -130.5q0 -42 -6 -84.5t-17 -94.5t-15 -73q-3 -21 -20 -33t-37.5 -8.5t-32.5 20.5t-8 37q4 27 14.5 77.5t16 87.5t5.5 71q0 94 -64.5 148t-157.5 54q-41 0 -80 -17t-59 -44q-19 -25 -49 -19q1 -30 4 -86
t5 -102t2 -89q0 -37 -11.5 -72.5t-40 -62.5t-67.5 -27q-33 0 -64 11t-48.5 21.5t-44.5 30.5q-16 12 -19.5 32.5t9 37t33 20t37.5 -8.5q35 -27 52.5 -35.5t44.5 -8.5q19 26 19 62q0 58 -6 166t-7 155q-1 20 13.5 35t35.5 16q15 0 28 -8z" />
  </font>
</defs>
</svg>
