<?xml version="1.0" standalone="no"?>
<!DOCTYPE svg PUBLIC "-//W3C//DTD SVG 1.1//EN" "http://www.w3.org/Graphics/SVG/1.1/DTD/svg11.dtd" >
<svg xmlns="http://www.w3.org/2000/svg" xmlns:xlink="http://www.w3.org/1999/xlink" version="1.1">
<metadata>
Created by FontForge 20170910 at Fri Sep 28 12:29:20 2012
 By Jimmy Wärting
Digitized data copyright (c) 2010-2012 Google Corporation.
</metadata>
<defs>
<font id="Cousine" horiz-adv-x="1229" >
  <font-face 
    font-family="Cousine"
    font-weight="400"
    font-stretch="normal"
    units-per-em="2048"
    panose-1="2 7 4 9 2 2 5 2 4 4"
    ascent="1638"
    descent="-410"
    x-height="1082"
    cap-height="1349"
    bbox="-987 -615 1521 2009"
    underline-thickness="84"
    underline-position="-519"
    unicode-range="U+0020-FE23"
  />
<missing-glyph 
d="M127 0v750h770v-750h-770zM768 621h-512v-492h512v492z" />
    <glyph glyph-name=".notdef" 
d="M127 0v750h770v-750h-770zM768 621h-512v-492h512v492z" />
    <glyph glyph-name=".null" horiz-adv-x="0" 
 />
    <glyph glyph-name="nonmarkingreturn" 
 />
    <glyph glyph-name="space" unicode=" " 
 />
    <glyph glyph-name="space" unicode="&#xa0;" 
 />
    <glyph glyph-name="exclam" unicode="!" 
d="M689 397h-148l-24 951h196zM515 0v201h194v-201h-194z" />
    <glyph glyph-name="quotedbl" unicode="&#x22;" 
d="M908 845h-142l-40 639h224zM459 845h-141l-41 639h224z" />
    <glyph glyph-name="numbersign" unicode="#" 
d="M930 833l-67 -317h260v-108h-283l-88 -408h-110l86 408h-363l-84 -408h-110l84 408h-201v108h225l67 317h-241v108h263l89 408h110l-88 -408h363l88 408h110l-88 -408h211v-108h-233zM459 833l-69 -317h362l67 317h-360z" />
    <glyph glyph-name="dollar" unicode="$" 
d="M1150 380q0 -162 -120 -256.5t-344 -103.5v-161h-128v161q-422 14 -492 359l170 37q26 -126 106 -188.5t216 -69.5v489l-30 8q-168 41 -246.5 89.5t-115 116.5t-36.5 162q0 149 109.5 232.5t318.5 90.5v130h128v-130q186 -7 287 -79.5t146 -241.5l-174 -33
q-22 106 -86 160t-173 61v-426q172 -42 249 -78t123 -82t69 -106.5t23 -140.5zM302 1018q0 -57 23.5 -95.5t68.5 -64t164 -56.5v413q-126 -5 -191 -55.5t-65 -141.5zM978 383q0 66 -27.5 109t-77.5 71.5t-187 63.5v-471q144 9 218 67.5t74 159.5z" />
    <glyph glyph-name="percent" unicode="%" 
d="M221 0h-145l932 1353h147zM291 1361q283 0 283 -336q0 -167 -73 -254t-214 -87t-214 86t-73 255q0 167 70 251.5t221 84.5zM427 1025q0 119 -31.5 173.5t-105.5 54.5q-77 0 -110 -53t-33 -175q0 -116 33 -172t109 -56q71 0 104.5 55.5t33.5 172.5zM947 665
q283 0 283 -336q0 -167 -73 -254t-214 -87t-214 86t-73 255q0 167 70 251.5t221 84.5zM1083 329q0 119 -31.5 173.5t-105.5 54.5q-77 0 -110 -53t-33 -175q0 -116 33 -172t109 -56q71 0 104.5 55.5t33.5 172.5z" />
    <glyph glyph-name="ampersand" unicode="&#x26;" 
d="M1072 -12q-73 0 -143.5 35t-120.5 94q-153 -137 -347 -137q-199 0 -308.5 100t-109.5 278q0 268 292 419q-32 60 -53.5 136.5t-21.5 145.5q0 136 92.5 217t258.5 81q146 0 233.5 -72t87.5 -195q0 -75 -39.5 -133.5t-114 -109t-253.5 -125.5q132 -231 277 -389
q88 182 125 406l145 -43q-44 -236 -162 -462q43 -54 91.5 -79.5t88.5 -25.5q58 0 95 16v-135q-48 -22 -113 -22zM780 1085q0 70 -48 110.5t-124 40.5q-89 0 -144.5 -49t-55.5 -131q0 -110 61 -224q161 68 210 99.5t75 69t26 84.5zM706 217q-180 203 -316 441
q-179 -97 -179 -296q0 -115 69 -183t189 -68q64 0 126.5 27.5t110.5 78.5z" />
    <glyph glyph-name="quotesingle" unicode="'" 
d="M684 845h-141l-41 639h224z" />
    <glyph glyph-name="parenleft" unicode="(" 
d="M529 530q0 -275 85 -497t277 -458h-190q-192 236 -275.5 457.5t-83.5 499.5q0 273 82 492.5t277 459.5h190q-192 -236 -277 -458.5t-85 -495.5z" />
    <glyph glyph-name="parenright" unicode=")" 
d="M885 532q0 -280 -82.5 -500.5t-274.5 -456.5h-192q196 241 280 463.5t84 491.5q0 268 -84 490.5t-280 463.5h192q195 -240 276 -458t81 -494z" />
    <glyph glyph-name="asterisk" unicode="*" 
d="M671 1188l264 103l45 -132l-282 -73l185 -250l-119 -72l-150 258l-156 -256l-119 72l189 248l-280 73l45 134l267 -107l-12 297h136z" />
    <glyph glyph-name="plus" unicode="+" 
d="M687 608v-428h-147v428h-424v146h424v428h147v-428h424v-146h-424z" />
    <glyph glyph-name="comma" unicode="," 
d="M259 -363l169 662h265l-311 -662h-123z" />
    <glyph glyph-name="hyphen" unicode="-" 
d="M334 464v160h560v-160h-560z" />
    <glyph glyph-name="hyphen" unicode="&#xad;" 
d="M334 464v160h560v-160h-560z" />
    <glyph glyph-name="period" unicode="." 
d="M496 0v299h235v-299h-235z" />
    <glyph glyph-name="slash" unicode="/" 
d="M114 -20l821 1504h178l-817 -1504h-182z" />
    <glyph glyph-name="zero" unicode="0" 
d="M1103 675q0 -338 -124.5 -516.5t-367.5 -178.5t-365 177.5t-122 517.5q0 349 119 522t374 173q249 0 367.5 -174.5t118.5 -520.5zM920 675q0 290 -70.5 419.5t-232.5 129.5q-166 0 -238.5 -128t-72.5 -421q0 -285 73.5 -416.5t233.5 -131.5q159 0 233 135t74 413z
M496 555v249h235v-249h-235z" />
    <glyph glyph-name="one" unicode="1" 
d="M157 0v145h439v1021q-37 -78 -175.5 -136t-272.5 -58v148q148 0 279.5 65t183.5 164h166v-1204h353v-145h-973z" />
    <glyph glyph-name="two" unicode="2" 
d="M144 0v117q49 109 152.5 219.5t281.5 252.5q159 127 229 221t70 181q0 111 -69 171t-197 60q-114 0 -184.5 -62.5t-83.5 -175.5l-184 17q20 170 139 269.5t313 99.5q213 0 332 -96t119 -272q0 -115 -76 -229.5t-227 -234.5q-206 -164 -285.5 -241.5t-112.5 -150.5h723
v-146h-940z" />
    <glyph glyph-name="three" unicode="3" 
d="M1099 370q0 -186 -126 -288t-352 -102q-214 0 -342 97t-151 285l186 17q36 -250 307 -250q136 0 213.5 63t77.5 184q0 75 -45.5 126.5t-123.5 79t-175 27.5h-102v156h98q86 0 157.5 28.5t112.5 80.5t41 123q0 106 -66.5 165.5t-197.5 59.5q-119 0 -192.5 -61t-85.5 -172
l-181 14q20 173 143.5 270t317.5 97q212 0 329.5 -93.5t117.5 -260.5q0 -119 -79 -207t-216 -116v-4q151 -17 242.5 -106t91.5 -213z" />
    <glyph glyph-name="four" unicode="4" 
d="M937 319v-319h-180v319h-654v140l635 890h199v-888h188v-142h-188zM757 1154l-500 -693h500v693z" />
    <glyph glyph-name="five" unicode="5" 
d="M1099 444q0 -139 -59 -244t-172.5 -162.5t-268.5 -57.5q-197 0 -318 86t-153 249l182 21q57 -209 293 -209q141 0 225 84t84 229q0 124 -83 203t-222 79q-73 0 -136 -23t-126 -78h-176l47 728h801v-145h-635l-29 -425q117 90 291 90q204 0 329.5 -117.5t125.5 -307.5z
" />
    <glyph glyph-name="six" unicode="6" 
d="M1096 446q0 -212 -121.5 -339t-333.5 -127q-236 0 -363 172.5t-127 489.5q0 348 132 538t372 190q319 0 402 -287l-172 -31q-53 172 -232 172q-153 0 -238 -139t-85 -390q49 91 138 138.5t204 47.5q192 0 308 -118.5t116 -316.5zM913 438q0 144 -76.5 224t-207.5 80
q-74 0 -140 -33.5t-103.5 -93t-37.5 -134.5q0 -152 80.5 -254t206.5 -102q127 0 202.5 84t75.5 229z" />
    <glyph glyph-name="seven" unicode="7" 
d="M1069 1210q-473 -680 -473 -1210h-188q0 263 122.5 567.5t364.5 636.5h-737v145h911v-139z" />
    <glyph glyph-name="eight" unicode="8" 
d="M1094 378q0 -184 -124.5 -291t-355.5 -107q-226 0 -353.5 105t-127.5 291q0 129 79 219.5t202 111.5v4q-112 27 -180 114t-68 199q0 98 55.5 178t156.5 124t232 44q137 0 239 -44.5t156 -123.5t54 -180q0 -113 -69 -200t-181 -109v-4q130 -21 207.5 -109.5t77.5 -221.5z
M872 1012q0 111 -67.5 167.5t-194.5 56.5q-123 0 -191.5 -57t-68.5 -167q0 -111 69 -172t193 -61q260 0 260 233zM907 395q0 120 -78 184.5t-219 64.5q-136 0 -213.5 -69.5t-77.5 -183.5q0 -135 75.5 -205.5t221.5 -70.5q147 0 219 69t72 211z" />
    <glyph glyph-name="nine" unicode="9" 
d="M1087 703q0 -346 -133 -534.5t-377 -188.5q-165 0 -264.5 69.5t-142.5 224.5l172 27q54 -176 238 -176q154 0 240.5 139.5t88.5 385.5q-40 -90 -137 -144.5t-213 -54.5q-189 0 -303.5 127.5t-114.5 332.5q0 212 125.5 335.5t343.5 123.5q477 0 477 -667zM891 862
q0 161 -80 261.5t-207 100.5q-130 0 -205 -87t-75 -226q0 -143 75 -230.5t203 -87.5q76 0 143.5 34.5t106.5 96t39 138.5z" />
    <glyph glyph-name="colon" unicode=":" 
d="M496 0v299h235v-299h-235zM496 783v299h235v-299h-235z" />
    <glyph glyph-name="semicolon" unicode=";" 
d="M496 783v299h235v-299h-235zM352 -363l169 662h265l-311 -662h-123z" />
    <glyph glyph-name="semicolon" unicode="&#x37e;" 
d="M496 783v299h235v-299h-235zM352 -363l169 662h265l-311 -662h-123z" />
    <glyph glyph-name="less" unicode="&#x3c;" 
d="M116 571v205l995 418v-154l-858 -366l858 -367v-153z" />
    <glyph glyph-name="equal" unicode="=" 
d="M116 856v148h995v-148h-995zM116 344v148h995v-148h-995z" />
    <glyph glyph-name="greater" unicode="&#x3e;" 
d="M116 154v153l858 367l-858 366v154l995 -418v-205z" />
    <glyph glyph-name="question" unicode="?" 
d="M1073 1002q0 -73 -22 -130t-63.5 -105.5t-133.5 -114.5q-110 -80 -145.5 -117t-56 -80t-21.5 -98h-175q2 70 24.5 125.5t62 102t134.5 117.5q107 78 140.5 115t53.5 79.5t20 97.5q0 109 -79.5 167.5t-215.5 58.5q-135 0 -219.5 -73t-98.5 -199l-184 12
q26 197 159.5 303.5t340.5 106.5q223 0 351 -96.5t128 -271.5zM448 0v201h195v-201h-195z" />
    <glyph glyph-name="at" unicode="@" 
d="M1189 755q0 -298 -82.5 -474.5t-222.5 -176.5q-143 0 -143 157v8l2 30h-6q-34 -88 -95.5 -141.5t-139.5 -53.5q-106 0 -165.5 100t-59.5 285q0 161 48.5 304t132 225.5t186.5 82.5q71 0 116.5 -41.5t67.5 -131.5h5l32 151h116l-99 -507q-40 -210 -40 -278q0 -88 49 -88
q78 0 127.5 149t49.5 398q0 274 -109 444.5t-289 170.5q-148 0 -262 -107.5t-176 -302.5t-62 -444q0 -309 116 -494t318 -185q94 0 181 35t188 123l71 -87q-115 -99 -223 -144t-227 -45q-165 0 -290.5 97t-192.5 279.5t-67 420.5q0 286 77 507.5t220 342t331 120.5
q158 0 274.5 -90.5t179.5 -256t63 -382.5zM775 784q0 106 -35 160.5t-94 54.5q-63 0 -116 -66.5t-85.5 -188t-32.5 -253.5q0 -281 114 -281q74 0 133 95t87.5 252t28.5 227z" />
    <glyph glyph-name="A" unicode="A" 
d="M1034 0l-138 382h-563l-137 -382h-196l510 1349h217l501 -1349h-194zM616 1205l-12 -39l-69 -212l-151 -423h463l-173 500z" />
    <glyph glyph-name="B" unicode="B" 
d="M1152 380q0 -180 -137 -280t-381 -100h-472v1349h412q496 0 496 -327q0 -122 -72 -204t-196 -107q167 -18 258.5 -107t91.5 -224zM878 998q0 107 -75.5 152.5t-226.5 45.5h-223v-416h225q300 0 300 218zM959 397q0 114 -89 174t-265 60h-252v-478h266q175 0 257.5 60.5
t82.5 183.5z" />
    <glyph glyph-name="C" unicode="C" 
d="M314 681q0 -273 85.5 -409.5t261.5 -136.5q101 0 183 68.5t139 213.5l159 -65q-149 -372 -483 -372q-263 0 -404.5 181t-141.5 520q0 689 536 689q339 0 466 -335l-168 -65q-37 113 -115.5 178.5t-181.5 65.5q-171 0 -253.5 -129t-82.5 -404z" />
    <glyph glyph-name="D" unicode="D" 
d="M1125 688q0 -331 -153.5 -509.5t-439.5 -178.5h-370v1349h311q329 0 490.5 -164.5t161.5 -496.5zM933 688q0 264 -110 384.5t-349 120.5h-121v-1037h162q212 0 315 133t103 399z" />
    <glyph glyph-name="E" unicode="E" 
d="M162 0v1349h919v-156h-728v-422h668v-154h-668v-461h769v-156h-960z" />
    <glyph glyph-name="F" unicode="F" 
d="M385 1193v-494h676v-158h-676v-541h-191v1349h891v-156h-700z" />
    <glyph glyph-name="G" unicode="G" 
d="M1101 133q-229 -153 -462 -153q-250 0 -388 185.5t-138 515.5q0 347 132 518t397 171q346 0 461 -331l-171 -56q-80 231 -288 231q-169 0 -249.5 -126t-80.5 -407q0 -546 341 -546q68 0 141 21t119 53v336h-293v160h479v-572z" />
    <glyph glyph-name="H" unicode="H" 
d="M875 0v623h-522v-623h-191v1349h191v-566h522v566h191v-1349h-191z" />
    <glyph glyph-name="I" unicode="I" 
d="M202 1349h823v-156h-316v-1037h316v-156h-823v156h316v1037h-316v156z" />
    <glyph glyph-name="J" unicode="J" 
d="M986 420q0 -209 -105 -324.5t-295 -115.5q-171 0 -273 89t-137 281l187 31q18 -118 76.5 -182t147.5 -64q209 0 209 281v777h-311v156h501v-929z" />
    <glyph glyph-name="K" unicode="K" 
d="M1003 0l-487 638l-163 -169v-469h-191v1349h191v-673l572 673h225l-504 -572l581 -777h-224z" />
    <glyph glyph-name="L" unicode="L" 
d="M237 0v1349h191v-1193h672v-156h-863z" />
    <glyph glyph-name="M" unicode="M" 
d="M937 0v868q0 135 3 201l3 100q-64 -206 -95 -291l-164 -438h-137l-166 438q-18 46 -96 291l4 -301v-868h-160v1349h237l185 -489q21 -53 68 -231l26 90l44 140l185 490h225v-1349h-162z" />
    <glyph glyph-name="N" unicode="N" 
d="M836 0l-520 1130q16 -172 16 -254v-876h-170v1349h222l528 -1138q-18 144 -18 274v864h172v-1349h-230z" />
    <glyph glyph-name="O" unicode="O" 
d="M1126 681q0 -337 -132.5 -519t-380.5 -182q-249 0 -380 179t-131 522q0 337 130 513t383 176q247 0 379 -173.5t132 -515.5zM925 681q0 533 -310 533q-312 0 -312 -533q0 -270 79 -408t232 -138q163 0 237 140t74 406z" />
    <glyph glyph-name="P" unicode="P" 
d="M1119 945q0 -125 -59.5 -223t-170 -153t-255.5 -55h-281v-514h-191v1349h460q238 0 367.5 -106.5t129.5 -297.5zM927 942q0 254 -328 254h-246v-531h254q149 0 234.5 73t85.5 204z" />
    <glyph glyph-name="Q" unicode="Q" 
d="M1126 681q0 -290 -98.5 -465.5t-281.5 -219.5q41 -126 108 -183t168 -57q55 0 115 13v-134q-93 -22 -178 -22q-150 0 -247.5 84.5t-160.5 286.5q-219 22 -334 199.5t-115 497.5q0 337 130 513t383 176q247 0 379 -173.5t132 -515.5zM925 681q0 533 -310 533
q-312 0 -312 -533q0 -270 79 -408t232 -138q163 0 237 140t74 406z" />
    <glyph glyph-name="R" unicode="R" 
d="M957 0l-366 575h-238v-575h-191v1349h482q233 0 355 -96.5t122 -276.5q0 -149 -93.5 -251t-250.5 -128l400 -597h-220zM929 973q0 223 -304 223h-272v-470h280q143 0 219.5 64t76.5 183z" />
    <glyph glyph-name="S" unicode="S" 
d="M1128 370q0 -184 -134.5 -287t-383.5 -103q-457 0 -531 358l185 37q28 -129 116 -187.5t235 -58.5q159 0 241.5 62t82.5 176q0 70 -32.5 114t-85.5 72t-119.5 45.5t-134.5 34.5q-161 42 -229.5 75t-109.5 75.5t-62 97.5t-21 129q0 173 121.5 266.5t348.5 93.5
q212 0 324 -74t156 -250l-188 -33q-24 112 -96 162.5t-197 50.5q-283 0 -283 -213q0 -60 26.5 -97.5t72 -62t106 -40.5t129.5 -34q139 -35 200 -58.5t108.5 -53.5t81.5 -71t53.5 -96t19.5 -130z" />
    <glyph glyph-name="T" unicode="T" 
d="M709 1193v-1193h-190v1193h-443v156h1076v-156h-443z" />
    <glyph glyph-name="U" unicode="U" 
d="M1085 490q0 -267 -114 -388.5t-366 -121.5q-244 0 -353.5 117.5t-109.5 374.5v877h191v-851q0 -204 58.5 -283.5t212.5 -79.5q161 0 226 82t65 294v838h190v-859z" />
    <glyph glyph-name="V" unicode="V" 
d="M713 0h-198l-505 1349h201l320 -902q31 -86 84 -279q40 149 84 279l318 902h201z" />
    <glyph glyph-name="W" unicode="W" 
d="M1018 0h-208q-74 276 -112.5 420t-81.5 336q-29 -125 -53.5 -226t-143.5 -530h-208l-211 1349h189l109 -835q16 -131 33 -346q32 138 53.5 228t143.5 535h175q69 -253 108.5 -398t88.5 -365l35 346l104 835h189z" />
    <glyph glyph-name="X" unicode="X" 
d="M614 836l333 513h205l-435 -644l476 -705h-205l-374 573l-373 -573h-205l476 705l-435 644h205z" />
    <glyph glyph-name="Y" unicode="Y" 
d="M708 584v-584h-188v584l-484 765h205l374 -611l372 611h205z" />
    <glyph glyph-name="Z" unicode="Z" 
d="M1155 0h-1082v143l818 1050h-745v156h962v-139l-818 -1054h865v-156z" />
    <glyph glyph-name="bracketleft" unicode="[" 
d="M410 -425v1909h547v-139h-367v-1631h367v-139h-547z" />
    <glyph glyph-name="backslash" unicode="\" 
d="M932 -20l-817 1504h178l821 -1504h-182z" />
    <glyph glyph-name="bracketright" unicode="]" 
d="M270 -425v139h367v1631h-367v139h547v-1909h-547z" />
    <glyph glyph-name="asciicircum" unicode="^" 
d="M940 442l-329 803l-326 -803h-152l378 907h203l380 -907h-154z" />
    <glyph glyph-name="underscore" unicode="_" 
d="M-5 -220v96h1238v-96h-1238z" />
    <glyph glyph-name="grave" unicode="`" 
d="M702 1201l-300 230v29h197l227 -239v-20h-124z" />
    <glyph glyph-name="a" unicode="a" 
d="M1101 111q26 0 59 7v-112q-68 -16 -139 -16q-100 0 -145.5 52.5t-51.5 164.5h-6q-65 -121 -153.5 -174t-218.5 -53q-158 0 -238 86t-80 236q0 349 454 354l236 4v59q0 131 -53 188.5t-169 57.5q-118 0 -170 -42t-62 -130l-188 17q46 292 423 292q200 0 300.5 -93.5
t100.5 -270.5v-466q0 -80 21 -120.5t80 -40.5zM492 117q96 0 170 46t115 123t41 159v89l-190 -4q-118 -2 -180 -26t-96.5 -73.5t-34.5 -131.5t44.5 -132t130.5 -50z" />
    <glyph glyph-name="b" unicode="b" 
d="M1090 546q0 -284 -101.5 -425t-290.5 -141q-244 0 -334 184h-2q0 -48 -3.5 -100t-5.5 -64h-174q6 54 6 223v1261h180v-423q0 -65 -4 -157h4q91 200 334 200q391 0 391 -558zM904 540q0 224 -61.5 324.5t-192.5 100.5q-149 0 -217 -109.5t-68 -331.5q0 -209 66 -310
t217 -101q135 0 195.5 104.5t60.5 322.5z" />
    <glyph glyph-name="c" unicode="c" 
d="M130 542q0 270 129 415t373 145q182 0 300 -87.5t146 -235.5l-192 -14q-16 91 -80 143.5t-182 52.5q-158 0 -231.5 -98t-73.5 -317q0 -222 73.5 -324.5t230.5 -102.5q108 0 179 53t88 162l190 -12q-13 -96 -72.5 -174.5t-157.5 -123t-219 -44.5q-245 0 -373 144t-128 418
z" />
    <glyph glyph-name="d" unicode="d" 
d="M862 174q-49 -105 -130 -152.5t-202 -47.5q-202 0 -297 139t-95 419q0 566 392 566q121 0 202.5 -43t130.5 -141h2l-2 151v419h180v-1261q0 -169 6 -223h-172q-4 15 -7 73t-3 101h-5zM324 538q0 -222 59.5 -323.5t193.5 -101.5q146 0 216 105.5t70 335.5q0 215 -67.5 313
t-216.5 98q-135 0 -195 -103t-60 -324z" />
    <glyph glyph-name="e" unicode="e" 
d="M322 503q0 -182 80.5 -285t220.5 -103q103 0 180.5 44.5t103.5 121.5l158 -45q-44 -124 -161.5 -190t-280.5 -66q-236 0 -363 147t-127 421q0 267 124.5 410.5t359.5 143.5t356 -143t121 -432v-24h-772zM619 969q-134 0 -212 -87.5t-83 -240.5h584q-28 328 -289 328z" />
    <glyph glyph-name="f" unicode="f" 
d="M580 940v-940h-180v940h-262v142h262v25q0 205 96.5 291t321.5 86q72 0 155.5 -6.5t125.5 -14.5v-145q-30 5 -121.5 11t-138.5 6q-104 0 -157 -23t-77.5 -75t-24.5 -145v-10h491v-142h-491z" />
    <glyph glyph-name="g" unicode="g" 
d="M615 -424q-168 0 -270 69t-130 198l184 25q17 -75 73.5 -115.5t148.5 -40.5q248 0 248 315v194h-2q-49 -103 -136 -156t-207 -53q-198 0 -289.5 129.5t-91.5 407.5q0 283 98 416.5t302 133.5q113 0 196.5 -52.5t128.5 -149.5h3q0 30 4 101.5t8 83.5h171q-6 -54 -6 -224
v-826q0 -227 -106 -341.5t-327 -114.5zM869 551q0 193 -75 303.5t-206 110.5q-137 0 -198 -95.5t-61 -318.5q0 -151 25.5 -238.5t79.5 -127.5t151 -40q85 0 149.5 47.5t99.5 139t35 219.5z" />
    <glyph glyph-name="h" unicode="h" 
d="M185 1484h181v-390q0 -59 -9 -197h3q105 205 339 205q350 0 350 -381v-721h-181v695q0 136 -52.5 202t-167.5 66q-124 0 -203.5 -90.5t-79.5 -245.5v-627h-180v1484z" />
    <glyph glyph-name="i" unicode="i" 
d="M745 142h380v-142h-982v142h422v798h-319v142h499v-940zM545 1292v192h200v-192h-200z" />
    <glyph glyph-name="j" unicode="j" 
d="M836 -28q0 -187 -112 -292t-319 -105q-79 0 -161 13t-127 30v140q150 -34 273 -34q128 0 197 66t69 185v965h-407v142h587v-1110zM636 1292v192h200v-192h-200z" />
    <glyph glyph-name="k" unicode="k" 
d="M914 0l-366 499l-132 -98v-401h-180v1484h180v-927l475 525h211l-439 -465l462 -617h-211z" />
    <glyph glyph-name="l" unicode="l" 
d="M736 142h380v-142h-982v142h422v1200h-289v142h469v-1342z" />
    <glyph glyph-name="m" unicode="m" 
d="M531 0v686q0 154 -24.5 215.5t-89.5 61.5q-64 0 -103.5 -96t-39.5 -260v-607h-169v851q0 189 -6 231h149l6 -127v-48h2q34 102 86 148.5t130 46.5q88 0 131.5 -48t62.5 -148h2q40 106 95.5 151t140.5 45q118 0 169 -86t51 -295v-721h-168v686q0 154 -24.5 215.5
t-89.5 61.5q-66 0 -104.5 -84t-38.5 -252v-627h-168z" />
    <glyph glyph-name="n" unicode="n" 
d="M868 0v695q0 136 -52.5 202t-167.5 66q-124 0 -203.5 -90.5t-79.5 -245.5v-627h-180v851q0 189 -6 231h170q1 -5 2 -27t2.5 -50.5t3.5 -107.5h3q105 205 346 205q173 0 258 -93.5t85 -287.5v-721h-181z" />
    <glyph glyph-name="o" unicode="o" 
d="M1097 542q0 -273 -125.5 -417.5t-362.5 -144.5q-232 0 -355.5 146t-123.5 416q0 279 126.5 419.5t358.5 140.5q244 0 363 -139t119 -421zM908 542q0 215 -68.5 321t-221.5 106q-155 0 -227 -108t-72 -319q0 -210 72 -319.5t216 -109.5q159 0 230 107t71 322z" />
    <glyph glyph-name="p" unicode="p" 
d="M1090 546q0 -566 -392 -566q-246 0 -331 184h-5q4 -8 4 -166v-423h-181v1283q0 170 -6 224h175q1 -4 3 -29.5t4.5 -75t2.5 -73.5h4q50 105 127.5 152.5t202.5 47.5q198 0 295 -136.5t97 -421.5zM904 546q0 226 -61 322.5t-192 96.5q-151 0 -218 -109.5t-67 -331.5
q0 -213 67 -312t216 -99q133 0 194 101t61 332z" />
    <glyph glyph-name="q" unicode="q" 
d="M529 1098q129 0 206 -44.5t126 -139.5h2q0 30 3.5 93.5t8.5 75.5h175q-6 -54 -6 -282v-1226h-181v439l4 168h-2q-53 -107 -132 -157.5t-203 -50.5q-202 0 -297 140.5t-95 417.5q0 566 391 566zM863 554q0 212 -68 311.5t-216 99.5q-134 0 -194.5 -102t-60.5 -325
q0 -221 61 -323t192 -102q147 0 216.5 109t69.5 332z" />
    <glyph glyph-name="r" unicode="r" 
d="M1045 918q-112 19 -212 19q-161 0 -260 -121t-99 -308v-508h-180v701q0 76 -13.5 179t-38.5 202h171q40 -138 48 -250h5q50 112 98 164.5t114 79t161 26.5q104 0 206 -17v-167z" />
    <glyph glyph-name="s" unicode="s" 
d="M1060 309q0 -154 -116.5 -241.5t-322.5 -87.5t-313.5 64.5t-140.5 203.5l159 31q19 -86 81.5 -125.5t213.5 -39.5q270 0 270 171q0 64 -49 103.5t-150 64.5q-264 65 -335 102t-109 92.5t-38 138.5q0 147 106 230t307 83q176 0 281 -66.5t131 -193.5l-162 -20
q-11 72 -71 109t-179 37q-245 0 -245 -151q0 -60 41.5 -96t133.5 -58l119 -31q163 -40 234.5 -79t112.5 -97.5t41 -143.5z" />
    <glyph glyph-name="t" unicode="t" 
d="M190 940v142h170l58 282h120v-282h432v-142h-432v-652q0 -79 42.5 -117t139.5 -38q134 0 297 34v-137q-169 -46 -335 -46q-162 0 -243 68.5t-81 216.5v671h-168z" />
    <glyph glyph-name="u" unicode="u" 
d="M365 1082v-686q0 -156 49 -216.5t175 -60.5q129 0 204 88t75 248v627h181v-851q0 -189 6 -231h-170q-1 5 -2 27t-2.5 50.5t-3.5 107.5h-3q-62 -112 -143.5 -158.5t-202.5 -46.5q-178 0 -260.5 88.5t-82.5 292.5v721h180z" />
    <glyph glyph-name="v" unicode="v" 
d="M715 0h-213l-433 1082h202l268 -704l17 -53l52 -184l35 117l39 118l276 706h201z" />
    <glyph glyph-name="w" unicode="w" 
d="M1018 0h-204l-143 471l-57 202l-39 -139l-168 -534h-203l-183 1082h178l93 -607q33 -264 33 -326q39 160 58 214l135 424h193l130 -425q32 -105 55 -213q0 30 4 75t10 92.5t12 90.5t9 68l101 607h176z" />
    <glyph glyph-name="x" unicode="x" 
d="M932 0l-321 444l-323 -444h-194l415 556l-397 526h199l300 -421l298 421h201l-397 -524l420 -558h-201z" />
    <glyph glyph-name="y" unicode="y" 
d="M292 -425q-74 0 -124 11v135q38 -6 84 -6q79 0 148.5 59t117.5 188l18 49l-470 1071h192l264 -642q91 -224 98 -254l41 110l310 786h190l-456 -1082q-89 -235 -184.5 -330t-228.5 -95z" />
    <glyph glyph-name="z" unicode="z" 
d="M147 0v137l681 806h-641v139h844v-137l-682 -806h719v-139h-921z" />
    <glyph glyph-name="braceleft" unicode="{" 
d="M796 -425q-130 0 -212 84.5t-82 218.5v351q0 107 -73 167t-202 65v137q130 5 202.5 66t72.5 165v352q0 137 81 220t213 83h265v-139h-213q-91 0 -131 -44t-40 -151v-346q0 -98 -64 -172.5t-167 -99.5v-2q102 -24 166.5 -97.5t64.5 -176.5v-347q0 -106 40 -150.5
t131 -44.5h213v-139h-265z" />
    <glyph glyph-name="bar" unicode="|" 
d="M531 -425v1909h166v-1909h-166z" />
    <glyph glyph-name="braceright" unicode="}" 
d="M167 -425v139h213q91 0 131.5 44.5t40.5 150.5v347q0 102 64 176t166 98v2q-102 25 -166 100t-64 172v346q0 105 -40 150t-132 45h-213v139h265q133 0 213.5 -83t80.5 -220v-352q0 -105 73 -165.5t202 -65.5v-137q-130 -5 -202.5 -65.5t-72.5 -166.5v-351
q0 -135 -82 -219t-212 -84h-265z" />
    <glyph glyph-name="asciitilde" unicode="~" 
d="M371 807q102 0 235 -46q147 -51 190.5 -61t79.5 -10q130 0 244 92v-149q-60 -42 -117.5 -61t-142.5 -19q-69 0 -141.5 22t-145.5 48q-129 45 -217 45q-67 0 -125 -20.5t-123 -67.5v143q111 84 263 84z" />
    <glyph glyph-name="Adieresis" unicode="&#xc4;" 
d="M1034 0l-138 382h-563l-137 -382h-196l510 1349h217l501 -1349h-194zM616 1205l-12 -39l-69 -212l-151 -423h463l-173 500zM729 1445v184h163v-184h-163zM335 1445v184h165v-184h-165z" />
    <glyph glyph-name="Aring" unicode="&#xc5;" 
d="M1034 0l-138 382h-563l-137 -382h-196l510 1349h217l501 -1349h-194zM616 1205l-12 -39l-69 -212l-151 -423h463l-173 500zM859 1433q0 -87 -65.5 -143.5t-176.5 -56.5q-112 0 -177 56.5t-65 143.5q0 89 66.5 144t175.5 55q111 0 176.5 -55.5t65.5 -143.5zM738 1433
q0 37 -32.5 60t-88.5 23q-55 0 -88.5 -23t-33.5 -60q0 -38 33.5 -61t88.5 -23q56 0 88.5 23t32.5 61z" />
    <glyph glyph-name="Ccedilla" unicode="&#xc7;" 
d="M314 681q0 -273 85.5 -409.5t261.5 -136.5q101 0 183 68.5t139 213.5l159 -65q-149 -372 -483 -372q-263 0 -404.5 181t-141.5 520q0 689 536 689q339 0 466 -335l-168 -65q-37 113 -115.5 178.5t-181.5 65.5q-171 0 -253.5 -129t-82.5 -404zM837 -258q0 -186 -274 -186
q-57 0 -90 4v98q50 -6 86 -6q147 0 147 86q0 40 -30.5 61t-102.5 21q-43 0 -57 -2l65 182h107l-39 -100q94 -3 141 -44.5t47 -113.5z" />
    <glyph glyph-name="Eacute" unicode="&#xc9;" 
d="M162 0v1349h919v-156h-728v-422h668v-154h-668v-461h769v-156h-960zM493 1445v20l227 239h197v-29l-300 -230h-124z" />
    <glyph glyph-name="Ntilde" unicode="&#xd1;" 
d="M836 0l-520 1130q16 -172 16 -254v-876h-170v1349h222l528 -1138q-18 144 -18 274v864h172v-1349h-230zM770 1446q-42 0 -84 18.5t-82 41t-78.5 41t-73.5 18.5q-25 0 -40 -9.5t-25 -27.5t-21 -82h-111q11 96 34.5 145t64.5 76t104 27q44 0 86 -18.5t82 -41t77 -41
t70 -18.5q37 0 57 23.5t30 95.5h112q-16 -138 -65.5 -193t-136.5 -55z" />
    <glyph glyph-name="Odieresis" unicode="&#xd6;" 
d="M1126 681q0 -337 -132.5 -519t-380.5 -182q-249 0 -380 179t-131 522q0 337 130 513t383 176q247 0 379 -173.5t132 -515.5zM925 681q0 533 -310 533q-312 0 -312 -533q0 -270 79 -408t232 -138q163 0 237 140t74 406zM732 1445v184h163v-184h-163zM338 1445v184h165
v-184h-165z" />
    <glyph glyph-name="Udieresis" unicode="&#xdc;" 
d="M1085 490q0 -267 -114 -388.5t-366 -121.5q-244 0 -353.5 117.5t-109.5 374.5v877h191v-851q0 -204 58.5 -283.5t212.5 -79.5q161 0 226 82t65 294v838h190v-859zM729 1445v184h163v-184h-163zM335 1445v184h165v-184h-165z" />
    <glyph glyph-name="aacute" unicode="&#xe1;" 
d="M1101 111q26 0 59 7v-112q-68 -16 -139 -16q-100 0 -145.5 52.5t-51.5 164.5h-6q-65 -121 -153.5 -174t-218.5 -53q-158 0 -238 86t-80 236q0 349 454 354l236 4v59q0 131 -53 188.5t-169 57.5q-118 0 -170 -42t-62 -130l-188 17q46 292 423 292q200 0 300.5 -93.5
t100.5 -270.5v-466q0 -80 21 -120.5t80 -40.5zM492 117q96 0 170 46t115 123t41 159v89l-190 -4q-118 -2 -180 -26t-96.5 -73.5t-34.5 -131.5t44.5 -132t130.5 -50zM479 1201v20l227 239h197v-29l-300 -230h-124z" />
    <glyph glyph-name="agrave" unicode="&#xe0;" 
d="M1101 111q26 0 59 7v-112q-68 -16 -139 -16q-100 0 -145.5 52.5t-51.5 164.5h-6q-65 -121 -153.5 -174t-218.5 -53q-158 0 -238 86t-80 236q0 349 454 354l236 4v59q0 131 -53 188.5t-169 57.5q-118 0 -170 -42t-62 -130l-188 17q46 292 423 292q200 0 300.5 -93.5
t100.5 -270.5v-466q0 -80 21 -120.5t80 -40.5zM492 117q96 0 170 46t115 123t41 159v89l-190 -4q-118 -2 -180 -26t-96.5 -73.5t-34.5 -131.5t44.5 -132t130.5 -50zM588 1201l-300 230v29h197l227 -239v-20h-124z" />
    <glyph glyph-name="acircumflex" unicode="&#xe2;" 
d="M1101 111q26 0 59 7v-112q-68 -16 -139 -16q-100 0 -145.5 52.5t-51.5 164.5h-6q-65 -121 -153.5 -174t-218.5 -53q-158 0 -238 86t-80 236q0 349 454 354l236 4v59q0 131 -53 188.5t-169 57.5q-118 0 -170 -42t-62 -130l-188 17q46 292 423 292q200 0 300.5 -93.5
t100.5 -270.5v-466q0 -80 21 -120.5t80 -40.5zM492 117q96 0 170 46t115 123t41 159v89l-190 -4q-118 -2 -180 -26t-96.5 -73.5t-34.5 -131.5t44.5 -132t130.5 -50zM927 1221v-20h-105l-219 138h-2l-232 -138h-104v20l254 239h164z" />
    <glyph glyph-name="adieresis" unicode="&#xe4;" 
d="M1101 111q26 0 59 7v-112q-68 -16 -139 -16q-100 0 -145.5 52.5t-51.5 164.5h-6q-65 -121 -153.5 -174t-218.5 -53q-158 0 -238 86t-80 236q0 349 454 354l236 4v59q0 131 -53 188.5t-169 57.5q-118 0 -170 -42t-62 -130l-188 17q46 292 423 292q200 0 300.5 -93.5
t100.5 -270.5v-466q0 -80 21 -120.5t80 -40.5zM492 117q96 0 170 46t115 123t41 159v89l-190 -4q-118 -2 -180 -26t-96.5 -73.5t-34.5 -131.5t44.5 -132t130.5 -50zM713 1219v184h163v-184h-163zM319 1219v184h165v-184h-165z" />
    <glyph glyph-name="atilde" unicode="&#xe3;" 
d="M1101 111q26 0 59 7v-112q-68 -16 -139 -16q-100 0 -145.5 52.5t-51.5 164.5h-6q-65 -121 -153.5 -174t-218.5 -53q-158 0 -238 86t-80 236q0 349 454 354l236 4v59q0 131 -53 188.5t-169 57.5q-118 0 -170 -42t-62 -130l-188 17q46 292 423 292q200 0 300.5 -93.5
t100.5 -270.5v-466q0 -80 21 -120.5t80 -40.5zM492 117q96 0 170 46t115 123t41 159v89l-190 -4q-118 -2 -180 -26t-96.5 -73.5t-34.5 -131.5t44.5 -132t130.5 -50zM762 1201q-42 0 -84 18.5t-82 41t-78.5 41t-73.5 18.5q-25 0 -40 -9.5t-25 -27.5t-21 -82h-111
q11 96 34.5 145t64.5 76t104 27q44 0 86 -18.5t82 -41t77 -41t70 -18.5q37 0 57 23.5t30 95.5h112q-16 -138 -65.5 -193t-136.5 -55z" />
    <glyph glyph-name="aring" unicode="&#xe5;" 
d="M1101 111q26 0 59 7v-112q-68 -16 -139 -16q-100 0 -145.5 52.5t-51.5 164.5h-6q-65 -121 -153.5 -174t-218.5 -53q-158 0 -238 86t-80 236q0 349 454 354l236 4v59q0 131 -53 188.5t-169 57.5q-118 0 -170 -42t-62 -130l-188 17q46 292 423 292q200 0 300.5 -93.5
t100.5 -270.5v-466q0 -80 21 -120.5t80 -40.5zM492 117q96 0 170 46t115 123t41 159v89l-190 -4q-118 -2 -180 -26t-96.5 -73.5t-34.5 -131.5t44.5 -132t130.5 -50zM848 1348q0 -87 -65.5 -143.5t-176.5 -56.5q-112 0 -177 56.5t-65 143.5q0 89 66.5 144t175.5 55
q111 0 176.5 -55.5t65.5 -143.5zM727 1348q0 37 -32.5 60t-88.5 23q-55 0 -88.5 -23t-33.5 -60q0 -38 33.5 -61t88.5 -23q56 0 88.5 23t32.5 61z" />
    <glyph glyph-name="ccedilla" unicode="&#xe7;" 
d="M130 542q0 270 129 415t373 145q182 0 300 -87.5t146 -235.5l-192 -14q-16 91 -80 143.5t-182 52.5q-158 0 -231.5 -98t-73.5 -317q0 -222 73.5 -324.5t230.5 -102.5q108 0 179 53t88 162l190 -12q-13 -96 -72.5 -174.5t-157.5 -123t-219 -44.5q-245 0 -373 144t-128 418
zM820 -258q0 -186 -274 -186q-57 0 -90 4v98q50 -6 86 -6q147 0 147 86q0 40 -30.5 61t-102.5 21q-43 0 -57 -2l65 182h107l-39 -100q94 -3 141 -44.5t47 -113.5z" />
    <glyph glyph-name="eacute" unicode="&#xe9;" 
d="M322 503q0 -182 80.5 -285t220.5 -103q103 0 180.5 44.5t103.5 121.5l158 -45q-44 -124 -161.5 -190t-280.5 -66q-236 0 -363 147t-127 421q0 267 124.5 410.5t359.5 143.5t356 -143t121 -432v-24h-772zM619 969q-134 0 -212 -87.5t-83 -240.5h584q-28 328 -289 328z
M513 1201v20l227 239h197v-29l-300 -230h-124z" />
    <glyph glyph-name="egrave" unicode="&#xe8;" 
d="M322 503q0 -182 80.5 -285t220.5 -103q103 0 180.5 44.5t103.5 121.5l158 -45q-44 -124 -161.5 -190t-280.5 -66q-236 0 -363 147t-127 421q0 267 124.5 410.5t359.5 143.5t356 -143t121 -432v-24h-772zM619 969q-134 0 -212 -87.5t-83 -240.5h584q-28 328 -289 328z
M623 1201l-300 230v29h197l227 -239v-20h-124z" />
    <glyph glyph-name="ecircumflex" unicode="&#xea;" 
d="M322 503q0 -182 80.5 -285t220.5 -103q103 0 180.5 44.5t103.5 121.5l158 -45q-44 -124 -161.5 -190t-280.5 -66q-236 0 -363 147t-127 421q0 267 124.5 410.5t359.5 143.5t356 -143t121 -432v-24h-772zM619 969q-134 0 -212 -87.5t-83 -240.5h584q-28 328 -289 328z
M952 1221v-20h-105l-219 138h-2l-232 -138h-104v20l254 239h164z" />
    <glyph glyph-name="edieresis" unicode="&#xeb;" 
d="M322 503q0 -182 80.5 -285t220.5 -103q103 0 180.5 44.5t103.5 121.5l158 -45q-44 -124 -161.5 -190t-280.5 -66q-236 0 -363 147t-127 421q0 267 124.5 410.5t359.5 143.5t356 -143t121 -432v-24h-772zM619 969q-134 0 -212 -87.5t-83 -240.5h584q-28 328 -289 328z
M737 1219v184h163v-184h-163zM343 1219v184h165v-184h-165z" />
    <glyph glyph-name="iacute" unicode="&#xed;" 
d="M745 142h380v-142h-982v142h422v798h-319v142h499v-940zM506 1201v20l227 239h197v-29l-300 -230h-124z" />
    <glyph glyph-name="igrave" unicode="&#xec;" 
d="M745 142h380v-142h-982v142h422v798h-319v142h499v-940zM635 1201l-300 230v29h197l227 -239v-20h-124z" />
    <glyph glyph-name="icircumflex" unicode="&#xee;" 
d="M745 142h380v-142h-982v142h422v798h-319v142h499v-940zM955 1221v-20h-105l-219 138h-2l-232 -138h-104v20l254 239h164z" />
    <glyph glyph-name="idieresis" unicode="&#xef;" 
d="M745 142h380v-142h-982v142h422v798h-319v142h499v-940zM770 1219v184h163v-184h-163zM376 1219v184h165v-184h-165z" />
    <glyph glyph-name="ntilde" unicode="&#xf1;" 
d="M868 0v695q0 136 -52.5 202t-167.5 66q-124 0 -203.5 -90.5t-79.5 -245.5v-627h-180v851q0 189 -6 231h170q1 -5 2 -27t2.5 -50.5t3.5 -107.5h3q105 205 346 205q173 0 258 -93.5t85 -287.5v-721h-181zM780 1201q-42 0 -84 18.5t-82 41t-78.5 41t-73.5 18.5
q-25 0 -40 -9.5t-25 -27.5t-21 -82h-111q11 96 34.5 145t64.5 76t104 27q44 0 86 -18.5t82 -41t77 -41t70 -18.5q37 0 57 23.5t30 95.5h112q-16 -138 -65.5 -193t-136.5 -55z" />
    <glyph glyph-name="oacute" unicode="&#xf3;" 
d="M1097 542q0 -273 -125.5 -417.5t-362.5 -144.5q-232 0 -355.5 146t-123.5 416q0 279 126.5 419.5t358.5 140.5q244 0 363 -139t119 -421zM908 542q0 215 -68.5 321t-221.5 106q-155 0 -227 -108t-72 -319q0 -210 72 -319.5t216 -109.5q159 0 230 107t71 322zM503 1201v20
l227 239h197v-29l-300 -230h-124z" />
    <glyph glyph-name="ograve" unicode="&#xf2;" 
d="M1097 542q0 -273 -125.5 -417.5t-362.5 -144.5q-232 0 -355.5 146t-123.5 416q0 279 126.5 419.5t358.5 140.5q244 0 363 -139t119 -421zM908 542q0 215 -68.5 321t-221.5 106q-155 0 -227 -108t-72 -319q0 -210 72 -319.5t216 -109.5q159 0 230 107t71 322zM632 1201
l-300 230v29h197l227 -239v-20h-124z" />
    <glyph glyph-name="ocircumflex" unicode="&#xf4;" 
d="M1097 542q0 -273 -125.5 -417.5t-362.5 -144.5q-232 0 -355.5 146t-123.5 416q0 279 126.5 419.5t358.5 140.5q244 0 363 -139t119 -421zM908 542q0 215 -68.5 321t-221.5 106q-155 0 -227 -108t-72 -319q0 -210 72 -319.5t216 -109.5q159 0 230 107t71 322zM945 1221
v-20h-105l-219 138h-2l-232 -138h-104v20l254 239h164z" />
    <glyph glyph-name="odieresis" unicode="&#xf6;" 
d="M1097 542q0 -273 -125.5 -417.5t-362.5 -144.5q-232 0 -355.5 146t-123.5 416q0 279 126.5 419.5t358.5 140.5q244 0 363 -139t119 -421zM908 542q0 215 -68.5 321t-221.5 106q-155 0 -227 -108t-72 -319q0 -210 72 -319.5t216 -109.5q159 0 230 107t71 322zM729 1219
v184h163v-184h-163zM335 1219v184h165v-184h-165z" />
    <glyph glyph-name="otilde" unicode="&#xf5;" 
d="M1097 542q0 -273 -125.5 -417.5t-362.5 -144.5q-232 0 -355.5 146t-123.5 416q0 279 126.5 419.5t358.5 140.5q244 0 363 -139t119 -421zM908 542q0 215 -68.5 321t-221.5 106q-155 0 -227 -108t-72 -319q0 -210 72 -319.5t216 -109.5q159 0 230 107t71 322zM770 1201
q-42 0 -84 18.5t-82 41t-78.5 41t-73.5 18.5q-25 0 -40 -9.5t-25 -27.5t-21 -82h-111q11 96 34.5 145t64.5 76t104 27q44 0 86 -18.5t82 -41t77 -41t70 -18.5q37 0 57 23.5t30 95.5h112q-16 -138 -65.5 -193t-136.5 -55z" />
    <glyph glyph-name="uacute" unicode="&#xfa;" 
d="M365 1082v-686q0 -156 49 -216.5t175 -60.5q129 0 204 88t75 248v627h181v-851q0 -189 6 -231h-170q-1 5 -2 27t-2.5 50.5t-3.5 107.5h-3q-62 -112 -143.5 -158.5t-202.5 -46.5q-178 0 -260.5 88.5t-82.5 292.5v721h180zM492 1201v20l227 239h197v-29l-300 -230h-124z
" />
    <glyph glyph-name="ugrave" unicode="&#xf9;" 
d="M365 1082v-686q0 -156 49 -216.5t175 -60.5q129 0 204 88t75 248v627h181v-851q0 -189 6 -231h-170q-1 5 -2 27t-2.5 50.5t-3.5 107.5h-3q-62 -112 -143.5 -158.5t-202.5 -46.5q-178 0 -260.5 88.5t-82.5 292.5v721h180zM608 1201l-300 230v29h197l227 -239v-20h-124z
" />
    <glyph glyph-name="ucircumflex" unicode="&#xfb;" 
d="M365 1082v-686q0 -156 49 -216.5t175 -60.5q129 0 204 88t75 248v627h181v-851q0 -189 6 -231h-170q-1 5 -2 27t-2.5 50.5t-3.5 107.5h-3q-62 -112 -143.5 -158.5t-202.5 -46.5q-178 0 -260.5 88.5t-82.5 292.5v721h180zM945 1221v-20h-105l-219 138h-2l-232 -138h-104
v20l254 239h164z" />
    <glyph glyph-name="udieresis" unicode="&#xfc;" 
d="M365 1082v-686q0 -156 49 -216.5t175 -60.5q129 0 204 88t75 248v627h181v-851q0 -189 6 -231h-170q-1 5 -2 27t-2.5 50.5t-3.5 107.5h-3q-62 -112 -143.5 -158.5t-202.5 -46.5q-178 0 -260.5 88.5t-82.5 292.5v721h180zM729 1219v184h163v-184h-163zM335 1219v184h165
v-184h-165z" />
    <glyph glyph-name="dagger" unicode="&#x2020;" 
d="M685 989l-14 -1202h-115l-14 1202l-360 -17v164l360 -19l-26 366h195l-26 -366l361 19v-164z" />
    <glyph glyph-name="degree" unicode="&#xb0;" 
d="M901 1085q0 -119 -84.5 -202t-202.5 -83t-202.5 84t-84.5 201t83.5 201t203.5 84t203.5 -83t83.5 -202zM792 1085q0 76 -51.5 128t-126.5 52t-126.5 -53t-51.5 -127t52.5 -127t125.5 -53q74 0 126 52.5t52 127.5z" />
    <glyph glyph-name="cent" unicode="&#xa2;" 
d="M635 269q113 0 186.5 56t90.5 161l182 -12q-21 -142 -128 -234t-268 -106v-195h-128v195q-208 15 -322.5 152.5t-114.5 369.5q0 240 116 380.5t321 158.5v184h128v-184q157 -13 259 -97.5t131 -224.5l-185 -14q-17 91 -82.5 145t-187.5 54q-156 0 -236.5 -100.5
t-80.5 -289.5q0 -198 84 -298.5t235 -100.5z" />
    <glyph glyph-name="sterling" unicode="&#xa3;" 
d="M1171 240q-50 -240 -234 -240h-881v154q87 44 122.5 83t54 95.5t18.5 138.5v141h-186v142h186v220q0 194 108.5 295t313.5 101q153 0 255 -60.5t136 -169.5l-174 -57q-22 63 -80.5 95t-136.5 32q-122 0 -182 -57.5t-60 -182.5v-216h408v-142h-408v-139q0 -128 -36 -199.5
t-119 -115.5h600q59 0 87.5 26.5t39.5 79.5z" />
    <glyph glyph-name="section" unicode="&#xa7;" 
d="M632 1484q173 0 279.5 -66.5t133.5 -193.5l-161 -20q-14 79 -78.5 119.5t-173.5 40.5q-125 0 -189.5 -44.5t-64.5 -115.5q0 -48 30 -83t85.5 -61t185.5 -57q147 -35 225 -76.5t121 -100.5t43 -140q0 -99 -59.5 -174t-159.5 -99q112 -48 162.5 -112.5t50.5 -155.5
q0 -148 -115.5 -232.5t-325.5 -84.5q-209 0 -318.5 66.5t-143.5 205.5l161 31q20 -93 91.5 -138t209.5 -45q131 0 206 48t75 133q0 56 -32 95t-90.5 67t-217.5 67q-195 45 -280 123t-85 190q0 89 61.5 163t166.5 104q-96 32 -151.5 99t-55.5 153q0 139 105.5 216.5
t308.5 77.5zM910 663q0 72 -69.5 124t-245.5 93q-109 -6 -173.5 -59t-64.5 -137q0 -49 29.5 -85.5t85 -63.5t184.5 -60q119 2 186.5 52.5t67.5 135.5z" />
    <glyph glyph-name="bullet" unicode="&#x2022;" 
d="M891 682q0 -117 -83.5 -199t-197.5 -82q-111 0 -192.5 82t-81.5 199q0 115 81 194.5t193 79.5q115 0 198 -79.5t83 -194.5z" />
    <glyph glyph-name="paragraph" unicode="&#xb6;" 
d="M951 1227v-1551h-132v1551h-197v-1551h-133v958q-168 0 -265 92.5t-97 262.5q0 169 98.5 264.5t271.5 95.5h583v-122h-129z" />
    <glyph glyph-name="germandbls" unicode="&#xdf;" 
d="M1167 295q0 -152 -95 -238t-263 -86q-171 0 -283 49l-2 164q58 -33 135 -51t146 -18q92 0 141 47.5t49 126.5q0 67 -41 119.5t-141 113.5q-92 55 -137.5 118t-45.5 145q0 61 28.5 111t82.5 95q58 48 84.5 90t26.5 92q0 77 -67 123.5t-176 46.5q-148 0 -217.5 -80
t-69.5 -242v-1021h-180v1027q0 227 117.5 342t349.5 115q190 0 302.5 -80.5t112.5 -216.5q0 -138 -113 -239q-71 -63 -92 -93t-21 -64q0 -42 33 -76.5t152 -114.5q89 -60 136.5 -135t47.5 -170z" />
    <glyph glyph-name="registered" unicode="&#xae;" 
d="M1197 761q0 -227 -71 -390.5t-203 -248t-309 -84.5t-308.5 85.5t-203 248.5t-71.5 389t71 389t203.5 248.5t308.5 85.5t308.5 -85t203.5 -247.5t71 -390.5zM1105 761q0 301 -130 464.5t-361 163.5q-151 0 -260.5 -72.5t-168.5 -214t-59 -341.5q0 -299 127.5 -464
t360.5 -165t362 164t129 465zM815 343l-199 336h-161v-336h-127v831h307q142 0 217.5 -63t75.5 -174q0 -102 -52 -163.5t-137 -80.5l221 -350h-145zM801 935q0 69 -47.5 105t-128.5 36h-170v-301h182q80 0 122 42.5t42 117.5z" />
    <glyph glyph-name="copyright" unicode="&#xa9;" 
d="M398 763q0 -153 59 -239.5t165 -86.5q65 0 113 37t83 119l115 -35q-52 -118 -128.5 -171.5t-182.5 -53.5q-168 0 -260.5 113.5t-92.5 316.5q0 202 89 313t257 111q217 0 303 -209l-114 -33q-26 67 -74.5 102t-112.5 35q-107 0 -163 -80.5t-56 -238.5zM1197 761
q0 -227 -71 -390.5t-203 -248t-309 -84.5t-308.5 85.5t-203 248.5t-71.5 389t71 389t203.5 248.5t308.5 85.5t308.5 -85t203.5 -247.5t71 -390.5zM1105 761q0 301 -130 464.5t-361 163.5q-151 0 -260.5 -72.5t-168.5 -214t-59 -341.5q0 -299 127.5 -464t360.5 -165t362 164
t129 465z" />
    <glyph glyph-name="trademark" unicode="&#x2122;" 
d="M1119 842v512l-6 -18l-200 -494h-89q-153 388 -200 512v-512h-105v641h156l184 -465l13 -35l61 158l139 342h152v-641h-105zM286 1391v-549h-111v549h-171v92h457v-92h-175z" />
    <glyph glyph-name="acute" unicode="&#xb4;" 
d="M402 1201v20l227 239h197v-29l-300 -230h-124z" />
    <glyph glyph-name="dieresis" unicode="&#xa8;" 
d="M729 1219v184h163v-184h-163zM335 1219v184h165v-184h-165z" />
    <glyph glyph-name="notequal" unicode="&#x2260;" 
d="M499 344l-152 -289h-145l151 289h-237v148h311l190 364h-501v148h573l154 292h143l-152 -292h277v-148h-350l-191 -364h541v-148h-612z" />
    <glyph glyph-name="AE" unicode="&#xc6;" 
d="M646 412h-335l-142 -412h-168l486 1349h667v-152h-337v-430h327v-150h-327v-465h378v-152h-549v412zM646 1202h-73q-4 -16 -42.5 -146t-168.5 -495h284v641z" />
    <glyph glyph-name="Oslash" unicode="&#xd8;" 
d="M1126 681q0 -337 -132.5 -519t-380.5 -182q-218 0 -346 138l-117 -156l-94 65l141 189q-95 174 -95 465q0 337 130 513t383 176q217 0 345 -134l116 156l94 -65l-140 -187q96 -170 96 -459zM925 681q0 164 -30 278l-512 -686q79 -138 231 -138q163 0 237 140t74 406z
M303 681q0 -166 30 -282l512 684q-77 131 -230 131q-312 0 -312 -533z" />
    <glyph glyph-name="infinity" unicode="&#x221e;" 
d="M1195 590q0 -166 -80 -276.5t-202 -110.5q-185 0 -304 282q-56 -126 -135 -201t-161 -75q-126 0 -205 106t-79 281q0 171 80.5 279t203.5 108q183 0 298 -283q130 277 304 277q127 0 203.5 -106.5t76.5 -280.5zM889 846q-61 0 -112.5 -63t-99.5 -193q45 -128 96 -192
t117 -64q72 0 119 71.5t47 186.5q0 107 -47 180.5t-120 73.5zM546 596q-44 128 -95.5 192t-118.5 64q-71 0 -117 -73t-46 -185q0 -115 46 -184.5t119 -69.5q117 0 212 256z" />
    <glyph glyph-name="plusminus" unicode="&#xb1;" 
d="M687 680v-395h-147v395h-424v145h424v394h147v-394h424v-145h-424zM116 0v145h995v-145h-995z" />
    <glyph glyph-name="lessequal" unicode="&#x2264;" 
d="M117 631v205l995 395v-154l-858 -344l858 -344v-153zM115 0v145h995v-145h-995z" />
    <glyph glyph-name="greaterequal" unicode="&#x2265;" 
d="M116 236v153l858 344l-858 344v154l995 -395v-205zM116 0v145h995v-145h-995z" />
    <glyph glyph-name="yen" unicode="&#xa5;" 
d="M764 679h321v-142h-383v-137h383v-144h-383v-256h-178v256h-381v144h381l2 137h-383v142h320l-411 670h199l361 -617l365 617h199z" />
    <glyph glyph-name="mu1" unicode="&#xb5;" 
d="M916 0q-2 11 -6 92t-4 107h-4q-106 -219 -334 -219q-82 0 -146 32t-96 90h-4q4 -43 4 -122v-373h-182v1475h182v-644q0 -317 264 -317q131 0 219 96.5t88 247.5v617h181v-849q0 -191 6 -233h-168z" />
    <glyph glyph-name="partialdiff" unicode="&#x2202;" 
d="M1123 938q0 -179 -46 -370t-130.5 -324.5t-202 -202t-262.5 -68.5q-181 0 -279 100.5t-98 282.5q0 118 42 243.5t112 215t167.5 139.5t214.5 50q100 0 177 -49.5t114 -133.5h4q5 63 5 117q0 196 -73 300.5t-218 104.5q-60 0 -129 -19.5t-121 -55.5l39 147q124 62 246 62
q210 0 324 -138t114 -401zM906 680q-21 89 -88 146t-152 57q-101 0 -183 -66.5t-135 -198t-53 -260.5q0 -115 55.5 -182t155.5 -67q95 0 177.5 74.5t141 206t81.5 290.5z" />
    <glyph glyph-name="summation" unicode="&#x2211;" 
d="M27 -455v109l635 802l-619 787v106h1090v-152h-846l584 -739l-600 -761h930v-152h-1174z" />
    <glyph glyph-name="product" unicode="&#x220f;" 
d="M938 -455v1642h-642v-1642h-191v1804h1017v-1804h-184z" />
    <glyph glyph-name="integral" unicode="&#x222b;" 
d="M878 1368q-83 0 -127.5 -59.5t-44.5 -173.5v-1235q0 -172 -87 -263.5t-250 -91.5q-79 0 -134 19v147q60 -24 117 -24q170 0 170 233v1233q0 172 87 263t253 91q87 0 131 -18v-148q-49 27 -115 27z" />
    <glyph glyph-name="ordfeminine" unicode="&#xaa;" 
d="M206 870q0 117 90 178.5t268 63.5l191 4v43q0 182 -180 182q-84 0 -130 -34t-57 -111l-149 10q18 106 106 166t234 60q153 0 236 -67t83 -200v-291q0 -58 15.5 -88t58.5 -30q25 0 49 8v-94q-50 -13 -102 -13q-154 0 -160 160h-4q-43 -77 -116 -121.5t-175 -44.5
q-121 0 -189.5 57t-68.5 162zM353 890q0 -64 41 -101t111 -37q69 0 126.5 34t90.5 88.5t33 108.5v51l-154 -4q-130 -3 -189 -36.5t-59 -103.5z" />
    <glyph glyph-name="ordmasculine" unicode="&#xba;" 
d="M1002 1042q0 -183 -102.5 -287t-288.5 -104q-182 0 -283.5 107t-101.5 284q0 182 103 286t286 104q189 0 288 -100.5t99 -289.5zM853 1042q0 151 -60 218t-174 67q-241 0 -241 -285q0 -140 59 -213t172 -73q117 0 180.5 66.5t63.5 219.5z" />
    <glyph glyph-name="Ohm" unicode="&#x2126;" 
d="M615 1370q245 0 388.5 -162t143.5 -437q0 -189 -87 -353.5t-250 -272.5q117 11 161 11h200v-156h-483v224q134 98 199 230t65 304q0 224 -86 340t-250 116q-168 0 -253 -118t-85 -338q0 -173 65.5 -304.5t198.5 -229.5v-224h-483v156h200q44 0 161 -11
q-163 109 -250 273.5t-87 352.5q0 276 143.5 437.5t388.5 161.5z" />
    <glyph glyph-name="ae" unicode="&#xe6;" 
d="M679 503v-17q5 -371 185 -371q75 0 119.5 47t60.5 119l138 -45q-68 -256 -314 -256q-121 0 -189.5 55t-102.5 177q-52 -122 -126.5 -177t-171.5 -55q-129 0 -193.5 82t-64.5 240q0 349 330 354l167 4v59q0 135 -32 190.5t-104 55.5q-74 0 -107.5 -40.5t-40.5 -131.5
l-168 17q19 151 96.5 221.5t218.5 70.5q176 0 247 -139q85 139 246 139q166 0 250.5 -141.5t84.5 -433.5v-24h-529zM189 299q0 -82 28.5 -132t85.5 -50q64 0 112 44.5t75 120t27 163.5v89l-122 -4q-79 -2 -119.5 -26t-63.5 -74t-23 -131zM859 969q-82 0 -128.5 -87
t-49.5 -241h361q-9 171 -53 249.5t-130 78.5z" />
    <glyph glyph-name="oslash" unicode="&#xf8;" 
d="M1117 542q0 -272 -130 -417t-378 -145q-204 0 -331 107l-77 -87l-76 68l84 95q-99 142 -99 379q0 272 128.5 416t376.5 144q213 0 335 -100l72 82l78 -68l-80 -90q97 -137 97 -384zM928 542q0 147 -33 242l-509 -576q77 -95 221 -95q168 0 244.5 106.5t76.5 322.5z
M299 542q0 -146 34 -238l509 576q-75 89 -224 89q-164 0 -241.5 -107.5t-77.5 -319.5z" />
    <glyph glyph-name="questiondown" unicode="&#xbf;" 
d="M153 79q0 73 22 130t63.5 105.5t133.5 115.5q110 79 145.5 116t56 80t21.5 98h175q-2 -70 -24.5 -125.5t-62 -102t-134.5 -116.5q-107 -79 -140.5 -116t-53.5 -79.5t-20 -97.5q0 -109 79.5 -167.5t215.5 -58.5q135 0 219.5 73t98.5 199l184 -12q-26 -197 -159.5 -303.5
t-340.5 -106.5q-223 0 -351 96.5t-128 271.5zM778 1081v-201h-195v201h195z" />
    <glyph glyph-name="exclamdown" unicode="&#xa1;" 
d="M539 685h148l24 -951h-196zM713 1082v-201h-194v201h194z" />
    <glyph glyph-name="logicalnot" unicode="&#xac;" 
d="M966 180v428h-850v146h995v-574h-145z" />
    <glyph glyph-name="radical" unicode="&#x221a;" 
d="M649 -14h-106l-283 792h-182v117h270l242 -690l430 1415h129z" />
    <glyph glyph-name="florin" unicode="&#x192;" 
d="M909 1369q79 0 160 -23l-40 -136q-54 19 -130 19q-84 0 -122 -30.5t-58 -125.5l-27 -137h302l-25 -131h-303l-243 -1230h-180l243 1230h-252l27 131h251l29 152q36 154 125.5 217.5t242.5 63.5z" />
    <glyph glyph-name="approxequal" unicode="&#x2248;" 
d="M860 758q-69 0 -141.5 21.5t-145.5 47.5q-133 45 -217 45q-63 0 -120 -18.5t-128 -69.5v144q114 84 263 84q77 0 150.5 -22t143.5 -47l15 -5q89 -30 128 -37.5t68 -7.5q130 0 244 94v-149q-60 -42 -117.5 -61t-142.5 -19zM876 473q130 0 244 92v-147
q-60 -45 -118.5 -63.5t-141.5 -18.5q-69 0 -141.5 22t-145.5 48q-133 47 -217 47q-67 0 -125 -20.5t-123 -67.5v141q111 84 263 84q102 0 235 -46q147 -51 190.5 -61t79.5 -10z" />
    <glyph glyph-name="uni2206" unicode="&#x2206;" 
d="M12 0v145l477 1264h244l483 -1262v-147h-1204zM612 1274l-98 -277l-310 -841h820l-314 841z" />
    <glyph glyph-name="guillemotleft" unicode="&#xab;" 
d="M940 141l-338 365v63l338 371h178v-31l-338 -372l340 -367v-29h-180zM463 141l-336 365v63l336 371h177v-31l-335 -372l337 -367v-29h-179z" />
    <glyph glyph-name="guillemotright" unicode="&#xbb;" 
d="M762 141h-178v29l338 367l-336 372v31h176l338 -371v-63zM287 141h-180v29l338 367l-336 372v31h178l335 -371v-63z" />
    <glyph glyph-name="ellipsis" unicode="&#x2026;" 
d="M938 0v219h174v-219h-174zM529 0v219h172v-219h-172zM117 0v219h175v-219h-175z" />
    <glyph glyph-name="Agrave" unicode="&#xc0;" 
d="M1034 0l-138 382h-563l-137 -382h-196l510 1349h217l501 -1349h-194zM616 1205l-12 -39l-69 -212l-151 -423h463l-173 500zM609 1444l-300 230v29h197l227 -239v-20h-124z" />
    <glyph glyph-name="Atilde" unicode="&#xc3;" 
d="M1034 0l-138 382h-563l-137 -382h-196l510 1349h217l501 -1349h-194zM616 1205l-12 -39l-69 -212l-151 -423h463l-173 500zM770 1445q-42 0 -84 18.5t-82 41t-78.5 41t-73.5 18.5q-25 0 -40 -9.5t-25 -27.5t-21 -82h-111q11 96 34.5 145t64.5 76t104 27q44 0 86 -18.5
t82 -41t77 -41t70 -18.5q37 0 57 23.5t30 95.5h112q-16 -138 -65.5 -193t-136.5 -55z" />
    <glyph glyph-name="Otilde" unicode="&#xd5;" 
d="M1126 681q0 -337 -132.5 -519t-380.5 -182q-249 0 -380 179t-131 522q0 337 130 513t383 176q247 0 379 -173.5t132 -515.5zM925 681q0 533 -310 533q-312 0 -312 -533q0 -270 79 -408t232 -138q163 0 237 140t74 406zM770 1445q-42 0 -84 18.5t-82 41t-78.5 41
t-73.5 18.5q-25 0 -40 -9.5t-25 -27.5t-21 -82h-111q11 96 34.5 145t64.5 76t104 27q44 0 86 -18.5t82 -41t77 -41t70 -18.5q37 0 57 23.5t30 95.5h112q-16 -138 -65.5 -193t-136.5 -55z" />
    <glyph glyph-name="OE" unicode="&#x152;" 
d="M609 0q-57 -5 -98 -5q-255 0 -373 169t-118 517q0 350 118.5 512t374.5 162q58 0 109 -6h558v-152h-398v-440h367v-150h-367v-455h439v-152h-612zM512 140q72 0 100 6v1057q-38 6 -99 6q-163 0 -237.5 -128t-74.5 -400q0 -275 77 -408t234 -133z" />
    <glyph glyph-name="oe" unicode="&#x153;" 
d="M712 503q0 -189 43.5 -288.5t124.5 -99.5q65 0 104 47t53 119l138 -45q-63 -256 -293 -256q-182 0 -263 183q-83 -183 -266 -183q-157 0 -241 144.5t-84 417.5q0 279 85 419.5t247 140.5q187 0 266 -177q85 177 259 177q319 0 319 -575v-24h-492zM543 542
q0 219 -39.5 323t-130.5 104t-133.5 -104t-42.5 -323q0 -429 170 -429q94 0 135 104.5t41 324.5zM875 969q-72 0 -115 -86.5t-46 -241.5h324q-8 171 -48 249.5t-115 78.5z" />
    <glyph glyph-name="endash" unicode="&#x2013;" 
d="M170 451v137h888v-137h-888z" />
    <glyph glyph-name="emdash" unicode="&#x2014;" 
d="M-10 451v137h1248v-137h-1248z" />
    <glyph glyph-name="quotedblleft" unicode="&#x201c;" 
d="M611 1484l-169 -622h-265l311 622h123zM1050 1484l-169 -622h-265l311 622h123z" />
    <glyph glyph-name="quotedblright" unicode="&#x201d;" 
d="M617 862l169 622h265l-311 -622h-123zM178 862l169 622h265l-311 -622h-123z" />
    <glyph glyph-name="quoteleft" unicode="&#x2018;" 
d="M831 1484l-169 -622h-265l311 622h123z" />
    <glyph glyph-name="quoteright" unicode="&#x2019;" 
d="M399 862l169 622h265l-311 -622h-123z" />
    <glyph glyph-name="divide" unicode="&#xf7;" 
d="M529 958v183h168v-183h-168zM116 608v146h995v-146h-995zM529 223v183h168v-183h-168z" />
    <glyph glyph-name="lozenge" unicode="&#x25ca;" 
d="M654 0h-82l-457 719l457 721h82l459 -719zM615 1286l-354 -565l354 -574l352 574z" />
    <glyph glyph-name="ydieresis" unicode="&#xff;" 
d="M292 -425q-74 0 -124 11v135q38 -6 84 -6q79 0 148.5 59t117.5 188l18 49l-470 1071h192l264 -642q91 -224 98 -254l41 110l310 786h190l-456 -1082q-89 -235 -184.5 -330t-228.5 -95zM734 1219v184h163v-184h-163zM340 1219v184h165v-184h-165z" />
    <glyph glyph-name="Ydieresis" unicode="&#x178;" 
d="M708 584v-584h-188v584l-484 765h205l374 -611l372 611h205zM730 1445v184h163v-184h-163zM336 1445v184h165v-184h-165z" />
    <glyph glyph-name="fraction" unicode="&#x2044;" 
d="M322 0h-118l703 1349h115z" />
    <glyph glyph-name="fraction" unicode="&#x2215;" 
d="M322 0h-118l703 1349h115z" />
    <glyph glyph-name="Euro" unicode="&#x20ac;" 
d="M873 463h-459q17 -172 94.5 -250t228.5 -78q75 0 144 21.5t166 82.5l76 -135q-100 -67 -195 -95.5t-201 -28.5q-221 0 -348.5 120t-156.5 360h-131v144h119l-4 75q0 43 4 79h-119v142h129q58 470 509 470q106 0 197 -26.5t182 -89.5l-82 -140q-138 100 -282 100
q-164 0 -238 -72.5t-94 -243.5h461v-141h-475l-2 -78l3 -74h474v-142z" />
    <glyph glyph-name="guilsinglleft" unicode="&#x2039;" 
d="M682 141l-336 365v63l336 371h177v-31l-335 -372l337 -367v-29h-179z" />
    <glyph glyph-name="guilsinglright" unicode="&#x203a;" 
d="M544 141h-178v29l338 367l-336 372v31h176l337 -371v-63z" />
    <glyph glyph-name="fi" unicode="&#xfb01;" 
d="M416 951v-951h-180v951h-152v131h152v122q0 148 65 213t199 65q75 0 127 -12v-137q-45 8 -80 8q-69 0 -100 -35t-31 -127v-97h211v-131h-211zM881 1312v172h180v-172h-180zM881 0v1082h180v-1082h-180z" />
    <glyph glyph-name="fl" unicode="&#xfb02;" 
d="M416 951v-951h-180v951h-152v131h152v122q0 148 65 213t199 65q75 0 127 -12v-137q-45 8 -80 8q-69 0 -100 -35t-31 -127v-97h211v-131h-211zM881 0v1484h180v-1484h-180z" />
    <glyph glyph-name="daggerdbl" unicode="&#x2021;" 
d="M1046 298v-164l-361 19l26 -366h-195l26 366l-360 -19v164l360 -17l34 354l-34 354l-360 -17v164l360 -19l-26 366h195l-26 -366l361 19v-164l-361 17l-34 -354l34 -354z" />
    <glyph glyph-name="periodcentered" unicode="&#x2219;" 
d="M496 420v299h235v-299h-235z" />
    <glyph glyph-name="quotesinglbase" unicode="&#x201a;" 
d="M349 -363l169 622h265l-311 -622h-123z" />
    <glyph glyph-name="quotedblbase" unicode="&#x201e;" 
d="M617 -364l169 622h265l-311 -622h-123zM178 -364l169 622h265l-311 -622h-123z" />
    <glyph glyph-name="perthousand" unicode="&#x2030;" 
d="M147 395h-145l583 639h147zM236 1411q117 0 172.5 -74.5t55.5 -221.5q0 -149 -59.5 -225t-172.5 -76q-116 0 -174 77t-58 224q0 148 57 222t179 74zM334 1115q0 98 -22.5 143t-76.5 45q-57 0 -81 -43.5t-24 -144.5t25 -144.5t79 -43.5q100 0 100 188zM495 597
q229 0 229 -296q0 -149 -59.5 -225t-172.5 -76q-115 0 -174 76t-59 225q0 148 57 222t179 74zM594 301q0 101 -24 144.5t-76 43.5q-56 0 -80.5 -43t-24.5 -145q0 -95 24 -141.5t80 -46.5q51 0 76 44.5t25 143.5zM1000 597q117 0 172.5 -74.5t55.5 -221.5q0 -149 -59.5 -225
t-172.5 -76q-114 0 -173 76.5t-59 224.5t57 222t179 74zM1099 301q0 101 -24 144.5t-76 43.5q-57 0 -81 -43.5t-24 -144.5t25 -144.5t79 -43.5q101 0 101 188z" />
    <glyph glyph-name="Acircumflex" unicode="&#xc2;" 
d="M1034 0l-138 382h-563l-137 -382h-196l510 1349h217l501 -1349h-194zM616 1205l-12 -39l-69 -212l-151 -423h463l-173 500zM945 1465v-20h-105l-219 138h-2l-232 -138h-104v20l254 239h164z" />
    <glyph glyph-name="Ecircumflex" unicode="&#xca;" 
d="M162 0v1349h919v-156h-728v-422h668v-154h-668v-461h769v-156h-960zM945 1465v-20h-105l-219 138h-2l-232 -138h-104v20l254 239h164z" />
    <glyph glyph-name="Aacute" unicode="&#xc1;" 
d="M1034 0l-138 382h-563l-137 -382h-196l510 1349h217l501 -1349h-194zM616 1205l-12 -39l-69 -212l-151 -423h463l-173 500zM495 1445v20l227 239h197v-29l-300 -230h-124z" />
    <glyph glyph-name="Edieresis" unicode="&#xcb;" 
d="M162 0v1349h919v-156h-728v-422h668v-154h-668v-461h769v-156h-960zM749 1445v184h163v-184h-163zM355 1445v184h165v-184h-165z" />
    <glyph glyph-name="Egrave" unicode="&#xc8;" 
d="M162 0v1349h919v-156h-728v-422h668v-154h-668v-461h769v-156h-960zM631 1445l-300 230v29h197l227 -239v-20h-124z" />
    <glyph glyph-name="Iacute" unicode="&#xcd;" 
d="M202 1349h823v-156h-316v-1037h316v-156h-823v156h316v1037h-316v156zM505 1445v20l227 239h197v-29l-300 -230h-124z" />
    <glyph glyph-name="Icircumflex" unicode="&#xce;" 
d="M202 1349h823v-156h-316v-1037h316v-156h-823v156h316v1037h-316v156zM945 1465v-20h-105l-219 138h-2l-232 -138h-104v20l254 239h164z" />
    <glyph glyph-name="Idieresis" unicode="&#xcf;" 
d="M202 1349h823v-156h-316v-1037h316v-156h-823v156h316v1037h-316v156zM729 1445v184h163v-184h-163zM335 1445v184h165v-184h-165z" />
    <glyph glyph-name="Igrave" unicode="&#xcc;" 
d="M202 1349h823v-156h-316v-1037h316v-156h-823v156h316v1037h-316v156zM621 1445l-300 230v29h197l227 -239v-20h-124z" />
    <glyph glyph-name="Oacute" unicode="&#xd3;" 
d="M1126 681q0 -337 -132.5 -519t-380.5 -182q-249 0 -380 179t-131 522q0 337 130 513t383 176q247 0 379 -173.5t132 -515.5zM925 681q0 533 -310 533q-312 0 -312 -533q0 -270 79 -408t232 -138q163 0 237 140t74 406zM500 1445v20l227 239h197v-29l-300 -230h-124z" />
    <glyph glyph-name="Ocircumflex" unicode="&#xd4;" 
d="M1126 681q0 -337 -132.5 -519t-380.5 -182q-249 0 -380 179t-131 522q0 337 130 513t383 176q247 0 379 -173.5t132 -515.5zM925 681q0 533 -310 533q-312 0 -312 -533q0 -270 79 -408t232 -138q163 0 237 140t74 406zM945 1465v-20h-105l-219 138h-2l-232 -138h-104v20
l254 239h164z" />
    <glyph glyph-name="Ograve" unicode="&#xd2;" 
d="M1126 681q0 -337 -132.5 -519t-380.5 -182q-249 0 -380 179t-131 522q0 337 130 513t383 176q247 0 379 -173.5t132 -515.5zM925 681q0 533 -310 533q-312 0 -312 -533q0 -270 79 -408t232 -138q163 0 237 140t74 406zM616 1445l-300 230v29h197l227 -239v-20h-124z" />
    <glyph glyph-name="Uacute" unicode="&#xda;" 
d="M1085 490q0 -267 -114 -388.5t-366 -121.5q-244 0 -353.5 117.5t-109.5 374.5v877h191v-851q0 -204 58.5 -283.5t212.5 -79.5q161 0 226 82t65 294v838h190v-859zM488 1445v20l227 239h197v-29l-300 -230h-124z" />
    <glyph glyph-name="Ucircumflex" unicode="&#xdb;" 
d="M1085 490q0 -267 -114 -388.5t-366 -121.5q-244 0 -353.5 117.5t-109.5 374.5v877h191v-851q0 -204 58.5 -283.5t212.5 -79.5q161 0 226 82t65 294v838h190v-859zM945 1465v-20h-105l-219 138h-2l-232 -138h-104v20l254 239h164z" />
    <glyph glyph-name="Ugrave" unicode="&#xd9;" 
d="M1085 490q0 -267 -114 -388.5t-366 -121.5q-244 0 -353.5 117.5t-109.5 374.5v877h191v-851q0 -204 58.5 -283.5t212.5 -79.5q161 0 226 82t65 294v838h190v-859zM605 1445l-300 230v29h197l227 -239v-20h-124z" />
    <glyph glyph-name="dotlessi" unicode="&#x131;" 
d="M745 142h380v-142h-982v142h422v798h-319v142h499v-940z" />
    <glyph glyph-name="circumflex" unicode="&#x2c6;" 
d="M945 1221v-20h-105l-219 138h-2l-232 -138h-104v20l254 239h164z" />
    <glyph glyph-name="tilde" unicode="&#x2dc;" 
d="M770 1201q-42 0 -84 18.5t-82 41t-78.5 41t-73.5 18.5q-25 0 -40 -9.5t-25 -27.5t-21 -82h-111q11 96 34.5 145t64.5 76t104 27q44 0 86 -18.5t82 -41t77 -41t70 -18.5q37 0 57 23.5t30 95.5h112q-16 -138 -65.5 -193t-136.5 -55z" />
    <glyph glyph-name="uni02C9" unicode="&#x2c9;" 
d="M888 1236h-551v127h551v-127z" />
    <glyph glyph-name="breve" unicode="&#x2d8;" 
d="M613 1201q-124 0 -207.5 71t-104.5 188h127q17 -63 60 -98t125 -35q85 0 127.5 35t59.5 98h127q-24 -119 -106.5 -189t-207.5 -70z" />
    <glyph glyph-name="dotaccent" unicode="&#x2d9;" 
d="M515 1292v192h200v-192h-200z" />
    <glyph glyph-name="ring" unicode="&#x2da;" 
d="M856 1348q0 -87 -65.5 -143.5t-176.5 -56.5q-112 0 -177 56.5t-65 143.5q0 89 66.5 144t175.5 55q111 0 176.5 -55.5t65.5 -143.5zM735 1348q0 37 -32.5 60t-88.5 23q-55 0 -88.5 -23t-33.5 -60q0 -38 33.5 -61t88.5 -23q56 0 88.5 23t32.5 61z" />
    <glyph glyph-name="cedilla" unicode="&#xb8;" 
d="M483 -258q0 -186 -274 -186q-57 0 -90 4v98q50 -6 86 -6q147 0 147 86q0 40 -30.5 61t-102.5 21q-43 0 -57 -2l65 182h107l-39 -100q94 -3 141 -44.5t47 -113.5z" />
    <glyph glyph-name="hungarumlaut" unicode="&#x2dd;" 
d="M393 1201v20l207 239h187v-29l-300 -230h-94zM29 1201v20l207 239h187v-29l-300 -230h-94z" />
    <glyph glyph-name="ogonek" unicode="&#x2db;" 
d="M791 -400q-63 -27 -139 -27q-105 0 -158 51t-53 136q0 68 41.5 133.5t113.5 106.5h133q-64 -36 -105.5 -98.5t-41.5 -128.5q0 -42 24.5 -66t69.5 -24q54 0 115 24v-107z" />
    <glyph glyph-name="caron" unicode="&#x2c7;" 
d="M701 1201h-164l-254 239v20h104l232 -138h2l219 138h105v-20z" />
    <glyph glyph-name="Lslash" unicode="&#x141;" 
d="M237 0v458l-117 -61l-66 121l183 96v735h191v-636l292 151l61 -121l-353 -185v-402h672v-156h-863z" />
    <glyph glyph-name="lslash" unicode="&#x142;" 
d="M736 884l225 129l62 -113l-287 -164v-594h380v-142h-982v142h422v493l-218 -123l-64 112l282 159v559h-339v142h519v-600z" />
    <glyph glyph-name="Scaron" unicode="&#x160;" 
d="M1128 370q0 -184 -134.5 -287t-383.5 -103q-457 0 -531 358l185 37q28 -129 116 -187.5t235 -58.5q159 0 241.5 62t82.5 176q0 70 -32.5 114t-85.5 72t-119.5 45.5t-134.5 34.5q-161 42 -229.5 75t-109.5 75.5t-62 97.5t-21 129q0 173 121.5 266.5t348.5 93.5
q212 0 324 -74t156 -250l-188 -33q-24 112 -96 162.5t-197 50.5q-283 0 -283 -213q0 -60 26.5 -97.5t72 -62t106 -40.5t129.5 -34q139 -35 200 -58.5t108.5 -53.5t81.5 -71t53.5 -96t19.5 -130zM701 1445h-164l-254 239v20h104l232 -138h2l219 138h105v-20z" />
    <glyph glyph-name="scaron" unicode="&#x161;" 
d="M1060 309q0 -154 -116.5 -241.5t-322.5 -87.5t-313.5 64.5t-140.5 203.5l159 31q19 -86 81.5 -125.5t213.5 -39.5q270 0 270 171q0 64 -49 103.5t-150 64.5q-264 65 -335 102t-109 92.5t-38 138.5q0 147 106 230t307 83q176 0 281 -66.5t131 -193.5l-162 -20
q-11 72 -71 109t-179 37q-245 0 -245 -151q0 -60 41.5 -96t133.5 -58l119 -31q163 -40 234.5 -79t112.5 -97.5t41 -143.5zM706 1201h-164l-254 239v20h104l232 -138h2l219 138h105v-20z" />
    <glyph glyph-name="Zcaron" unicode="&#x17d;" 
d="M1155 0h-1082v143l818 1050h-745v156h962v-139l-818 -1054h865v-156zM711 1445h-164l-254 239v20h104l232 -138h2l219 138h105v-20z" />
    <glyph glyph-name="zcaron" unicode="&#x17e;" 
d="M147 0v137l681 806h-641v139h844v-137l-682 -806h719v-139h-921zM702 1201h-164l-254 239v20h104l232 -138h2l219 138h105v-20z" />
    <glyph glyph-name="brokenbar" unicode="&#xa6;" 
d="M531 676v778h166v-778h-166zM531 -455v779h166v-779h-166z" />
    <glyph glyph-name="Eth" unicode="&#xd0;" 
d="M1125 688q0 -331 -153.5 -509.5t-439.5 -178.5h-370v597h-135v149h135v603h311q329 0 490.5 -164.5t161.5 -496.5zM642 597h-289v-441h162q212 0 315 133t103 399q0 264 -110 384.5t-349 120.5h-121v-447h289v-149z" />
    <glyph glyph-name="eth" unicode="&#xf0;" 
d="M612 979q137 0 231 -59q-85 195 -220 317l-260 -115l-55 110l218 94q-109 87 -242 158h209q80 -36 170 -102l264 114l55 -108l-211 -92q331 -301 331 -780v-6q0 -261 -125.5 -395.5t-371.5 -134.5q-232 0 -356 129t-124 372q0 244 124 371t363 127zM913 481
q0 192 -70.5 278.5t-226.5 86.5q-157 0 -229.5 -87t-72.5 -278q0 -190 72 -279t217 -89q161 0 235.5 87.5t74.5 280.5z" />
    <glyph glyph-name="Yacute" unicode="&#xdd;" 
d="M708 584v-584h-188v584l-484 765h205l374 -611l372 611h205zM503 1445v20l227 239h197v-29l-300 -230h-124z" />
    <glyph glyph-name="yacute" unicode="&#xfd;" 
d="M292 -425q-74 0 -124 11v135q38 -6 84 -6q79 0 148.5 59t117.5 188l18 49l-470 1071h192l264 -642q91 -224 98 -254l41 110l310 786h190l-456 -1082q-89 -235 -184.5 -330t-228.5 -95zM509 1201v20l227 239h197v-29l-300 -230h-124z" />
    <glyph glyph-name="Thorn" unicode="&#xde;" 
d="M1119 692q0 -128 -58 -227.5t-167.5 -155t-259.5 -55.5h-281v-254h-191v1349h191v-235h269q239 0 368 -111t129 -311zM927 688q0 134 -82 208.5t-246 74.5h-246v-576h254q153 0 236.5 77.5t83.5 215.5z" />
    <glyph glyph-name="thorn" unicode="&#xfe;" 
d="M904 546q0 226 -61 322.5t-192 96.5q-151 0 -218 -109.5t-67 -331.5q0 -213 67 -312t216 -99q133 0 194 101t61 332zM368 904q50 105 127.5 152.5t202.5 47.5q198 0 295 -136.5t97 -421.5q0 -566 -392 -566q-246 0 -331 184h-5q4 -8 4 -166v-423h-181v1909h180v-423
q0 -65 -4 -157h7z" />
    <glyph glyph-name="minus" unicode="&#x2212;" 
d="M117 608v146h995v-146h-995z" />
    <glyph glyph-name="multiply" unicode="&#xd7;" 
d="M157 330l354 354l-352 352l104 103l350 -353l350 351l105 -105l-350 -348l352 -352l-102 -105l-353 353l-356 -355z" />
    <glyph glyph-name="onesuperior" unicode="&#xb9;" 
d="M291 563v107h265v610q-25 -50 -104 -82.5t-167 -32.5v109q99 0 173.5 36.5t107.5 99.5h121v-740h236v-107h-632z" />
    <glyph glyph-name="twosuperior" unicode="&#xb2;" 
d="M314 563l-2 103q31 69 95 133t172 139q97 66 141 123t44 117q0 62 -35.5 99.5t-109.5 37.5q-68 0 -112 -36.5t-52 -104.5l-133 8q13 108 95 173.5t208 65.5q131 0 203.5 -63.5t72.5 -175.5q0 -75 -47 -142t-143 -135q-132 -93 -182 -139t-74 -96h459l2 -107h-602z" />
    <glyph glyph-name="threesuperior" unicode="&#xb3;" 
d="M921 795q0 -116 -77.5 -180t-219.5 -64q-286 0 -318 227l136 13q18 -136 182 -136q160 0 160 148q0 137 -189 137h-61v109h57q80 0 126 36t46 101q0 60 -37 94.5t-108 34.5q-68 0 -110 -35t-48 -100l-135 12q13 109 91.5 169t205.5 60q130 0 204 -59.5t74 -157.5
q0 -75 -43 -130t-133 -75v-2q91 -9 144 -61.5t53 -140.5z" />
    <glyph glyph-name="onehalf" unicode="&#xbd;" 
d="M53 589v107h135v513q-20 -39 -73 -67t-98 -28v119q50 0 102 31.5t79 84.5h121v-653h116v-107h-382zM306 0h-118l703 1349h115zM678 1v97q27 62 80.5 119t143.5 125q82 61 117 109t35 101q0 121 -111 121q-61 0 -90.5 -31t-37.5 -92l-130 5q13 102 82.5 160t180.5 58
q120 0 180.5 -56t60.5 -159q0 -131 -160 -251q-117 -89 -154.5 -124.5t-54.5 -74.5h380v-107h-522z" />
    <glyph glyph-name="onequarter" unicode="&#xbc;" 
d="M63 589v107h135v513q-20 -39 -73 -67t-98 -28v119q50 0 102 31.5t79 84.5h121v-653h116v-107h-382zM322 0h-118l703 1349h115zM1107 162v-161h-127v161h-375v99l361 502h141v-500h122v-101h-122zM981 635q-34 -51 -266 -372h265v321z" />
    <glyph glyph-name="threequarters" unicode="&#xbe;" 
d="M526 794q0 -101 -69 -162t-188 -61q-107 0 -175 56t-83 156l136 13q9 -60 41.5 -90.5t80.5 -30.5q54 0 87 30t33 95q0 120 -149 120h-41v109h37q68 0 100 28.5t32 94.5q0 53 -27 78t-68 25q-45 0 -78 -31.5t-39 -88.5l-135 12q13 100 80 157t172 57q109 0 170.5 -55
t61.5 -147q0 -66 -33.5 -108.5t-102.5 -68.5v-2q82 -18 119.5 -68t37.5 -118zM347 0h-118l703 1349h115zM1107 162v-161h-127v161h-375v99l361 502h141v-500h122v-101h-122zM981 635q-34 -51 -266 -372h265v321z" />
    <glyph glyph-name="franc" unicode="&#x20a3;" 
d="M400 1193v-444h676v-158h-676v-203h391v-129h-391v-259h-191v259h-175v129h175v961h891v-156h-700z" />
    <glyph glyph-name="Gbreve" unicode="&#x11e;" 
d="M1101 133q-229 -153 -462 -153q-250 0 -388 185.5t-138 515.5q0 347 132 518t397 171q346 0 461 -331l-171 -56q-80 231 -288 231q-169 0 -249.5 -126t-80.5 -407q0 -546 341 -546q68 0 141 21t119 53v336h-293v160h479v-572zM616 1446q-124 0 -207.5 71t-104.5 188h127
q17 -63 60 -98t125 -35q85 0 127.5 35t59.5 98h127q-24 -119 -106.5 -189t-207.5 -70z" />
    <glyph glyph-name="gbreve" unicode="&#x11f;" 
d="M615 -424q-168 0 -270 69t-130 198l184 25q17 -75 73.5 -115.5t148.5 -40.5q248 0 248 315v194h-2q-49 -103 -136 -156t-207 -53q-198 0 -289.5 129.5t-91.5 407.5q0 283 98 416.5t302 133.5q113 0 196.5 -52.5t128.5 -149.5h3q0 30 4 101.5t8 83.5h171q-6 -54 -6 -224
v-826q0 -227 -106 -341.5t-327 -114.5zM869 551q0 193 -75 303.5t-206 110.5q-137 0 -198 -95.5t-61 -318.5q0 -151 25.5 -238.5t79.5 -127.5t151 -40q85 0 149.5 47.5t99.5 139t35 219.5zM604 1201q-124 0 -207.5 71t-104.5 188h127q17 -63 60 -98t125 -35q85 0 127.5 35
t59.5 98h127q-24 -119 -106.5 -189t-207.5 -70z" />
    <glyph glyph-name="Idotaccent" unicode="&#x130;" 
d="M202 1349h823v-156h-316v-1037h316v-156h-823v156h316v1037h-316v156zM515 1446v192h200v-192h-200z" />
    <glyph glyph-name="Scedilla" unicode="&#x15e;" 
d="M1128 370q0 -184 -134.5 -287t-383.5 -103q-457 0 -531 358l185 37q28 -129 116 -187.5t235 -58.5q159 0 241.5 62t82.5 176q0 70 -32.5 114t-85.5 72t-119.5 45.5t-134.5 34.5q-161 42 -229.5 75t-109.5 75.5t-62 97.5t-21 129q0 173 121.5 266.5t348.5 93.5
q212 0 324 -74t156 -250l-188 -33q-24 112 -96 162.5t-197 50.5q-283 0 -283 -213q0 -60 26.5 -97.5t72 -62t106 -40.5t129.5 -34q139 -35 200 -58.5t108.5 -53.5t81.5 -71t53.5 -96t19.5 -130zM815 -258q0 -186 -274 -186q-57 0 -90 4v98q50 -6 86 -6q147 0 147 86
q0 40 -30.5 61t-102.5 21q-43 0 -57 -2l65 182h107l-39 -100q94 -3 141 -44.5t47 -113.5z" />
    <glyph glyph-name="scedilla" unicode="&#x15f;" 
d="M1060 309q0 -154 -116.5 -241.5t-322.5 -87.5t-313.5 64.5t-140.5 203.5l159 31q19 -86 81.5 -125.5t213.5 -39.5q270 0 270 171q0 64 -49 103.5t-150 64.5q-264 65 -335 102t-109 92.5t-38 138.5q0 147 106 230t307 83q176 0 281 -66.5t131 -193.5l-162 -20
q-11 72 -71 109t-179 37q-245 0 -245 -151q0 -60 41.5 -96t133.5 -58l119 -31q163 -40 234.5 -79t112.5 -97.5t41 -143.5zM825 -258q0 -186 -274 -186q-57 0 -90 4v98q50 -6 86 -6q147 0 147 86q0 40 -30.5 61t-102.5 21q-43 0 -57 -2l65 182h107l-39 -100q94 -3 141 -44.5
t47 -113.5z" />
    <glyph glyph-name="Cacute" unicode="&#x106;" 
d="M314 681q0 -273 85.5 -409.5t261.5 -136.5q101 0 183 68.5t139 213.5l159 -65q-149 -372 -483 -372q-263 0 -404.5 181t-141.5 520q0 689 536 689q339 0 466 -335l-168 -65q-37 113 -115.5 178.5t-181.5 65.5q-171 0 -253.5 -129t-82.5 -404zM534 1445v20l227 239h197
v-29l-300 -230h-124z" />
    <glyph glyph-name="cacute" unicode="&#x107;" 
d="M130 542q0 270 129 415t373 145q182 0 300 -87.5t146 -235.5l-192 -14q-16 91 -80 143.5t-182 52.5q-158 0 -231.5 -98t-73.5 -317q0 -222 73.5 -324.5t230.5 -102.5q108 0 179 53t88 162l190 -12q-13 -96 -72.5 -174.5t-157.5 -123t-219 -44.5q-245 0 -373 144t-128 418
zM504 1201v20l227 239h197v-29l-300 -230h-124z" />
    <glyph glyph-name="Ccaron" unicode="&#x10c;" 
d="M314 681q0 -273 85.5 -409.5t261.5 -136.5q101 0 183 68.5t139 213.5l159 -65q-149 -372 -483 -372q-263 0 -404.5 181t-141.5 520q0 689 536 689q339 0 466 -335l-168 -65q-37 113 -115.5 178.5t-181.5 65.5q-171 0 -253.5 -129t-82.5 -404zM718 1446h-164l-254 239v20
h104l232 -138h2l219 138h105v-20z" />
    <glyph glyph-name="ccaron" unicode="&#x10d;" 
d="M130 542q0 270 129 415t373 145q182 0 300 -87.5t146 -235.5l-192 -14q-16 91 -80 143.5t-182 52.5q-158 0 -231.5 -98t-73.5 -317q0 -222 73.5 -324.5t230.5 -102.5q108 0 179 53t88 162l190 -12q-13 -96 -72.5 -174.5t-157.5 -123t-219 -44.5q-245 0 -373 144t-128 418
zM697 1201h-164l-254 239v20h104l232 -138h2l219 138h105v-20z" />
    <glyph glyph-name="dcroat" unicode="&#x111;" 
d="M1043 1196v-973q0 -169 6 -223h-172q-4 15 -7 73t-3 101h-5q-49 -105 -130 -152.5t-202 -47.5q-202 0 -297 135.5t-95 407.5q0 555 392 555q121 0 202.5 -43t130.5 -141h2l-2 151v157h-300v131h300v157h180v-157h131v-131h-131zM324 523q0 -215 59 -312.5t194 -97.5
q147 0 216.5 103t69.5 322q0 207 -66.5 304t-217.5 97q-134 0 -194.5 -101.5t-60.5 -314.5z" />
    <glyph glyph-name="overscore" unicode="&#xaf;" 
d="M-5 1522v96h1238v-96h-1238z" />
    <glyph glyph-name="middot.001" unicode="&#xb7;" 
d="M496 420v299h235v-299h-235z" />
    <glyph glyph-name="Abreve" unicode="&#x102;" 
d="M1034 0l-138 382h-563l-137 -382h-196l510 1349h217l501 -1349h-194zM616 1205l-12 -39l-69 -212l-151 -423h463l-173 500zM613 1446q-124 0 -207.5 71t-104.5 188h127q17 -63 60 -98t125 -35q85 0 127.5 35t59.5 98h127q-24 -119 -106.5 -189t-207.5 -70z" />
    <glyph glyph-name="abreve" unicode="&#x103;" 
d="M1101 111q26 0 59 7v-112q-68 -16 -139 -16q-100 0 -145.5 52.5t-51.5 164.5h-6q-65 -121 -153.5 -174t-218.5 -53q-158 0 -238 86t-80 236q0 349 454 354l236 4v59q0 131 -53 188.5t-169 57.5q-118 0 -170 -42t-62 -130l-188 17q46 292 423 292q200 0 300.5 -93.5
t100.5 -270.5v-466q0 -80 21 -120.5t80 -40.5zM492 117q96 0 170 46t115 123t41 159v89l-190 -4q-118 -2 -180 -26t-96.5 -73.5t-34.5 -131.5t44.5 -132t130.5 -50zM594 1201q-124 0 -207.5 71t-104.5 188h127q17 -63 60 -98t125 -35q85 0 127.5 35t59.5 98h127
q-24 -119 -106.5 -189t-207.5 -70z" />
    <glyph glyph-name="Aogonek" unicode="&#x104;" 
d="M1034 0l-138 382h-563l-137 -382h-196l510 1349h217l501 -1349h-194zM616 1205l-12 -39l-69 -212l-151 -423h463l-173 500zM1247 -389q-63 -27 -139 -27q-105 0 -158 51t-53 136q0 68 41.5 133.5t113.5 106.5h133q-64 -36 -105.5 -98.5t-41.5 -128.5q0 -42 24.5 -66
t69.5 -24q54 0 115 24v-107z" />
    <glyph glyph-name="aogonek" unicode="&#x105;" 
d="M1101 111q26 0 59 7v-112q-68 -16 -139 -16q-100 0 -145.5 52.5t-51.5 164.5h-6q-65 -121 -153.5 -174t-218.5 -53q-158 0 -238 86t-80 236q0 349 454 354l236 4v59q0 131 -53 188.5t-169 57.5q-118 0 -170 -42t-62 -130l-188 17q46 292 423 292q200 0 300.5 -93.5
t100.5 -270.5v-466q0 -80 21 -120.5t80 -40.5zM492 117q96 0 170 46t115 123t41 159v89l-190 -4q-118 -2 -180 -26t-96.5 -73.5t-34.5 -131.5t44.5 -132t130.5 -50zM1160 -400q-63 -27 -139 -27q-105 0 -158 51t-53 136q0 68 41.5 133.5t113.5 106.5h133
q-64 -36 -105.5 -98.5t-41.5 -128.5q0 -42 24.5 -66t69.5 -24q54 0 115 24v-107z" />
    <glyph glyph-name="Dcaron" unicode="&#x10e;" 
d="M1125 688q0 -331 -153.5 -509.5t-439.5 -178.5h-370v1349h311q329 0 490.5 -164.5t161.5 -496.5zM933 688q0 264 -110 384.5t-349 120.5h-121v-1037h162q212 0 315 133t103 399zM672 1446h-164l-254 239v20h104l232 -138h2l219 138h105v-20z" />
    <glyph glyph-name="dcaron" unicode="&#x10f;" 
d="M663 174q-49 -105 -115.5 -152.5t-163.5 -47.5q-170 0 -261.5 145.5t-91.5 412.5q0 269 94 417.5t259 148.5q98 0 164 -43t115 -141h2l-2 151v419h180v-1261q0 -169 6 -223h-172q-4 15 -7 73t-3 101h-4zM217 538q0 -217 46.5 -321t151.5 -104q111 0 179.5 120t68.5 321
q0 189 -66.5 300t-180.5 111q-103 0 -151 -104t-48 -323zM955 1159v33l79 292h197v-37l-171 -288h-105z" />
    <glyph glyph-name="Dcroat" unicode="&#x110;" 
d="M1125 688q0 -331 -153.5 -509.5t-439.5 -178.5h-370v597h-135v149h135v603h311q329 0 490.5 -164.5t161.5 -496.5zM642 597h-289v-441h162q212 0 315 133t103 399q0 264 -110 384.5t-349 120.5h-121v-447h289v-149z" />
    <glyph glyph-name="Eogonek" unicode="&#x118;" 
d="M162 0v1349h919v-156h-728v-422h668v-154h-668v-461h769v-156h-960zM1122 -400q-63 -27 -139 -27q-105 0 -158 51t-53 136q0 68 41.5 133.5t113.5 106.5h133q-64 -36 -105.5 -98.5t-41.5 -128.5q0 -42 24.5 -66t69.5 -24q54 0 115 24v-107z" />
    <glyph glyph-name="eogonek" unicode="&#x119;" 
d="M322 503q0 -182 80.5 -285t220.5 -103q103 0 180.5 44.5t103.5 121.5l158 -45q-44 -124 -161.5 -190t-280.5 -66q-236 0 -363 147t-127 421q0 267 124.5 410.5t359.5 143.5t356 -143t121 -432v-24h-772zM619 969q-134 0 -212 -87.5t-83 -240.5h584q-28 328 -289 328z
M853 -400q-63 -27 -139 -27q-105 0 -158 51t-53 136q0 68 41.5 133.5t113.5 106.5h133q-64 -36 -105.5 -98.5t-41.5 -128.5q0 -42 24.5 -66t69.5 -24q54 0 115 24v-107z" />
    <glyph glyph-name="Ecaron" unicode="&#x11a;" 
d="M162 0v1349h919v-156h-728v-422h668v-154h-668v-461h769v-156h-960zM701 1446h-164l-254 239v20h104l232 -138h2l219 138h105v-20z" />
    <glyph glyph-name="ecaron" unicode="&#x11b;" 
d="M322 503q0 -182 80.5 -285t220.5 -103q103 0 180.5 44.5t103.5 121.5l158 -45q-44 -124 -161.5 -190t-280.5 -66q-236 0 -363 147t-127 421q0 267 124.5 410.5t359.5 143.5t356 -143t121 -432v-24h-772zM619 969q-134 0 -212 -87.5t-83 -240.5h584q-28 328 -289 328z
M694 1201h-164l-254 239v20h104l232 -138h2l219 138h105v-20z" />
    <glyph glyph-name="Lacute" unicode="&#x139;" 
d="M237 0v1349h191v-1193h672v-156h-863zM304 1446v20l227 239h197v-29l-300 -230h-124z" />
    <glyph glyph-name="lacute" unicode="&#x13a;" 
d="M736 142h380v-142h-982v142h422v1065h-289v142h469v-1207zM531 1445v20l227 240h197v-29l-300 -231h-124z" />
    <glyph glyph-name="Lcaron" unicode="&#x13d;" 
d="M237 0v1349h191v-1193h672v-156h-863zM775 1024v33l79 292h197v-37l-171 -288h-105z" />
    <glyph glyph-name="lcaron" unicode="&#x13e;" 
d="M687 142h380v-142h-982v142h422v1200h-289v142h469v-1342zM895 1159v33l79 292h197v-37l-171 -288h-105z" />
    <glyph glyph-name="Ldot" unicode="&#x13f;" 
d="M237 0v1349h191v-1193h672v-156h-863zM671 608v192h200v-192h-200z" />
    <glyph glyph-name="ldot" unicode="&#x140;" 
d="M736 142h380v-142h-982v142h422v1200h-289v142h469v-1342zM931 608v192h200v-192h-200z" />
    <glyph glyph-name="Nacute" unicode="&#x143;" 
d="M836 0l-520 1130q16 -172 16 -254v-876h-170v1349h222l528 -1138q-18 144 -18 274v864h172v-1349h-230zM524 1446v20l227 239h197v-29l-300 -230h-124z" />
    <glyph glyph-name="nacute" unicode="&#x144;" 
d="M868 0v695q0 136 -52.5 202t-167.5 66q-124 0 -203.5 -90.5t-79.5 -245.5v-627h-180v851q0 189 -6 231h170q1 -5 2 -27t2.5 -50.5t3.5 -107.5h3q105 205 346 205q173 0 258 -93.5t85 -287.5v-721h-181zM539 1201v20l227 239h197v-29l-300 -230h-124z" />
    <glyph glyph-name="Ncaron" unicode="&#x147;" 
d="M836 0l-520 1130q16 -172 16 -254v-876h-170v1349h222l528 -1138q-18 144 -18 274v864h172v-1349h-230zM707 1446h-164l-254 239v20h104l232 -138h2l219 138h105v-20z" />
    <glyph glyph-name="ncaron" unicode="&#x148;" 
d="M868 0v695q0 136 -52.5 202t-167.5 66q-124 0 -203.5 -90.5t-79.5 -245.5v-627h-180v851q0 189 -6 231h170q1 -5 2 -27t2.5 -50.5t3.5 -107.5h3q105 205 346 205q173 0 258 -93.5t85 -287.5v-721h-181zM701 1201h-164l-254 239v20h104l232 -138h2l219 138h105v-20z" />
    <glyph glyph-name="Ohungarumlaut" unicode="&#x150;" 
d="M1126 681q0 -337 -132.5 -519t-380.5 -182q-249 0 -380 179t-131 522q0 337 130 513t383 176q247 0 379 -173.5t132 -515.5zM925 681q0 533 -310 533q-312 0 -312 -533q0 -270 79 -408t232 -138q163 0 237 140t74 406zM694 1445v20l207 239h187v-29l-300 -230h-94z
M330 1445v20l207 239h187v-29l-300 -230h-94z" />
    <glyph glyph-name="ohungarumlaut" unicode="&#x151;" 
d="M1097 542q0 -273 -125.5 -417.5t-362.5 -144.5q-232 0 -355.5 146t-123.5 416q0 279 126.5 419.5t358.5 140.5q244 0 363 -139t119 -421zM908 542q0 215 -68.5 321t-221.5 106q-155 0 -227 -108t-72 -319q0 -210 72 -319.5t216 -109.5q159 0 230 107t71 322zM713 1201v20
l207 239h187v-29l-300 -230h-94zM349 1201v20l207 239h187v-29l-300 -230h-94z" />
    <glyph glyph-name="Racute" unicode="&#x154;" 
d="M957 0l-366 575h-238v-575h-191v1349h482q233 0 355 -96.5t122 -276.5q0 -149 -93.5 -251t-250.5 -128l400 -597h-220zM929 973q0 223 -304 223h-272v-470h280q143 0 219.5 64t76.5 183zM474 1446v20l227 239h197v-29l-300 -230h-124z" />
    <glyph glyph-name="racute" unicode="&#x155;" 
d="M1045 918q-112 19 -212 19q-161 0 -260 -121t-99 -308v-508h-180v701q0 76 -13.5 179t-38.5 202h171q40 -138 48 -250h5q50 112 98 164.5t114 79t161 26.5q104 0 206 -17v-167zM491 1201v20l227 239h197v-29l-300 -230h-124z" />
    <glyph glyph-name="Rcaron" unicode="&#x158;" 
d="M957 0l-366 575h-238v-575h-191v1349h482q233 0 355 -96.5t122 -276.5q0 -149 -93.5 -251t-250.5 -128l400 -597h-220zM929 973q0 223 -304 223h-272v-470h280q143 0 219.5 64t76.5 183zM682 1446h-164l-254 239v20h104l232 -138h2l219 138h105v-20z" />
    <glyph glyph-name="rcaron" unicode="&#x159;" 
d="M1045 918q-112 19 -212 19q-161 0 -260 -121t-99 -308v-508h-180v701q0 76 -13.5 179t-38.5 202h171q40 -138 48 -250h5q50 112 98 164.5t114 79t161 26.5q104 0 206 -17v-167zM721 1201h-164l-254 239v20h104l232 -138h2l219 138h105v-20z" />
    <glyph glyph-name="Sacute" unicode="&#x15a;" 
d="M1128 370q0 -184 -134.5 -287t-383.5 -103q-457 0 -531 358l185 37q28 -129 116 -187.5t235 -58.5q159 0 241.5 62t82.5 176q0 70 -32.5 114t-85.5 72t-119.5 45.5t-134.5 34.5q-161 42 -229.5 75t-109.5 75.5t-62 97.5t-21 129q0 173 121.5 266.5t348.5 93.5
q212 0 324 -74t156 -250l-188 -33q-24 112 -96 162.5t-197 50.5q-283 0 -283 -213q0 -60 26.5 -97.5t72 -62t106 -40.5t129.5 -34q139 -35 200 -58.5t108.5 -53.5t81.5 -71t53.5 -96t19.5 -130zM522 1446v20l227 239h197v-29l-300 -230h-124z" />
    <glyph glyph-name="sacute" unicode="&#x15b;" 
d="M1060 309q0 -154 -116.5 -241.5t-322.5 -87.5t-313.5 64.5t-140.5 203.5l159 31q19 -86 81.5 -125.5t213.5 -39.5q270 0 270 171q0 64 -49 103.5t-150 64.5q-264 65 -335 102t-109 92.5t-38 138.5q0 147 106 230t307 83q176 0 281 -66.5t131 -193.5l-162 -20
q-11 72 -71 109t-179 37q-245 0 -245 -151q0 -60 41.5 -96t133.5 -58l119 -31q163 -40 234.5 -79t112.5 -97.5t41 -143.5zM488 1201v20l227 239h197v-29l-300 -230h-124z" />
    <glyph glyph-name="Tcommaaccent" unicode="&#x162;" 
d="M709 1193v-1193h-190v1193h-443v156h1076v-156h-443zM446 -423v33l79 292h197v-37l-171 -288h-105z" />
    <glyph glyph-name="tcommaaccent" unicode="&#x163;" 
d="M190 940v142h170l58 282h120v-282h432v-142h-432v-652q0 -79 42.5 -117t139.5 -38q134 0 297 34v-137q-169 -46 -335 -46q-162 0 -243 68.5t-81 216.5v671h-168zM480 -423v33l79 292h197v-37l-171 -288h-105z" />
    <glyph glyph-name="Tcaron" unicode="&#x164;" 
d="M709 1193v-1193h-190v1193h-443v156h1076v-156h-443zM701 1446h-164l-254 239v20h104l232 -138h2l219 138h105v-20z" />
    <glyph glyph-name="tcaron" unicode="&#x165;" 
d="M101 940v142h170l58 282h120v-282h432v-142h-432v-652q0 -79 42.5 -117t139.5 -38q134 0 297 34v-137q-169 -46 -335 -46q-162 0 -243 68.5t-81 216.5v671h-168zM945 1159v33l79 292h197v-37l-171 -288h-105z" />
    <glyph glyph-name="Uring" unicode="&#x16e;" 
d="M1085 490q0 -267 -114 -388.5t-366 -121.5q-244 0 -353.5 117.5t-109.5 374.5v877h191v-851q0 -204 58.5 -283.5t212.5 -79.5q161 0 226 82t65 294v838h190v-859zM856 1506q0 -87 -65.5 -143.5t-176.5 -56.5q-112 0 -177 56.5t-65 143.5q0 89 66.5 144t175.5 55
q111 0 176.5 -55.5t65.5 -143.5zM735 1506q0 37 -32.5 60t-88.5 23q-55 0 -88.5 -23t-33.5 -60q0 -38 33.5 -61t88.5 -23q56 0 88.5 23t32.5 61z" />
    <glyph glyph-name="uring" unicode="&#x16f;" 
d="M365 1082v-686q0 -156 49 -216.5t175 -60.5q129 0 204 88t75 248v627h181v-851q0 -189 6 -231h-170q-1 5 -2 27t-2.5 50.5t-3.5 107.5h-3q-62 -112 -143.5 -158.5t-202.5 -46.5q-178 0 -260.5 88.5t-82.5 292.5v721h180zM856 1348q0 -87 -65.5 -143.5t-176.5 -56.5
q-112 0 -177 56.5t-65 143.5q0 89 66.5 144t175.5 55q111 0 176.5 -55.5t65.5 -143.5zM735 1348q0 37 -32.5 60t-88.5 23q-55 0 -88.5 -23t-33.5 -60q0 -38 33.5 -61t88.5 -23q56 0 88.5 23t32.5 61z" />
    <glyph glyph-name="Uhungarumlaut" unicode="&#x170;" 
d="M1085 490q0 -267 -114 -388.5t-366 -121.5q-244 0 -353.5 117.5t-109.5 374.5v877h191v-851q0 -204 58.5 -283.5t212.5 -79.5q161 0 226 82t65 294v838h190v-859zM705 1446v20l207 239h187v-29l-300 -230h-94zM341 1446v20l207 239h187v-29l-300 -230h-94z" />
    <glyph glyph-name="uhungarumlaut" unicode="&#x171;" 
d="M365 1082v-686q0 -156 49 -216.5t175 -60.5q129 0 204 88t75 248v627h181v-851q0 -189 6 -231h-170q-1 5 -2 27t-2.5 50.5t-3.5 107.5h-3q-62 -112 -143.5 -158.5t-202.5 -46.5q-178 0 -260.5 88.5t-82.5 292.5v721h180zM711 1201v20l207 239h187v-29l-300 -230h-94z
M347 1201v20l207 239h187v-29l-300 -230h-94z" />
    <glyph glyph-name="Zacute" unicode="&#x179;" 
d="M1155 0h-1082v143l818 1050h-745v156h962v-139l-818 -1054h865v-156zM504 1446v20l227 239h197v-29l-300 -230h-124z" />
    <glyph glyph-name="zacute" unicode="&#x17a;" 
d="M147 0v137l681 806h-641v139h844v-137l-682 -806h719v-139h-921zM487 1201v20l227 239h197v-29l-300 -230h-124z" />
    <glyph glyph-name="Zdotaccent" unicode="&#x17b;" 
d="M1155 0h-1082v143l818 1050h-745v156h962v-139l-818 -1054h865v-156zM528 1446v192h200v-192h-200z" />
    <glyph glyph-name="zdotaccent" unicode="&#x17c;" 
d="M147 0v137l681 806h-641v139h844v-137l-682 -806h719v-139h-921zM512 1292v192h200v-192h-200z" />
    <glyph glyph-name="Gamma" unicode="&#x393;" 
d="M415 0h-191v1349h891v-156h-700v-1193z" />
    <glyph glyph-name="Theta" unicode="&#x398;" 
d="M1126 681q0 -337 -132.5 -519t-380.5 -182q-249 0 -380 179t-131 522q0 337 130 513t383 176q247 0 379 -173.5t132 -515.5zM925 681q0 533 -310 533q-312 0 -312 -533q0 -270 79 -408t232 -138q163 0 237 140t74 406zM782 757v-154h-335v154h335z" />
    <glyph glyph-name="Phi" unicode="&#x3a6;" 
d="M1221 706q0 -138 -60 -253.5t-167.5 -181t-247.5 -65.5h-41v-217h-181v217h-41q-139 0 -247 65t-168 181.5t-60 253.5q0 220 131 350.5t355 130.5h30v172h181v-172h29q224 0 355.5 -130t131.5 -351zM1027 702q0 164 -82.5 253t-234.5 89h-5v-696h12q147 0 228.5 96.5
t81.5 257.5zM202 702q0 -162 81.5 -258t228.5 -96h12v696h-8q-149 0 -231.5 -88t-82.5 -254z" />
    <glyph glyph-name="alpha" unicode="&#x3b1;" 
d="M886 237q-115 -257 -359 -257q-205 0 -301.5 138t-96.5 418q0 284 108.5 425t317.5 141q126 0 215.5 -67t134.5 -188h2q23 119 73 235h188q-50 -106 -92 -259.5t-50 -251.5q5 -160 34.5 -314t76.5 -257h-183q-24 61 -41.5 132.5t-22.5 104.5h-4zM318 542
q0 -222 57 -322.5t189 -100.5q120 0 202.5 115.5t108.5 311.5q-29 211 -105 317t-195 106q-136 0 -196.5 -100.5t-60.5 -326.5z" />
    <glyph glyph-name="delta" unicode="&#x3b4;" 
d="M920 471q0 86 -28 160t-68.5 135t-138.5 163q-184 -65 -284 -185t-100 -273q0 -163 83.5 -260.5t227.5 -97.5q147 0 227.5 92t80.5 266zM648 1341l-154 8l316 -313q128 -126 183.5 -205.5t85.5 -165.5t30 -190q0 -222 -134 -358.5t-363 -136.5q-230 0 -365 132.5
t-135 360.5q0 189 121 330t359 223l-319 328v130h748v-143h-373z" />
    <glyph glyph-name="epsilon" unicode="&#x3b5;" 
d="M621 114q108 0 203.5 42t159.5 119l105 -100q-80 -97 -202.5 -146t-277.5 -49q-214 0 -324 82t-110 233q0 108 77.5 183t196.5 86v2q-107 13 -174 81t-67 166q0 133 116 211t312 78q148 0 253.5 -43t172.5 -142l-128 -88q-47 71 -119.5 105t-177.5 34
q-128 0 -187.5 -42.5t-59.5 -116.5q0 -88 95.5 -132t332.5 -44v-135q-256 0 -356 -49.5t-100 -150.5q0 -91 66 -137.5t193 -46.5z" />
    <glyph glyph-name="sigma" unicode="&#x3c3;" 
d="M1078 491q0 -241 -130.5 -376t-359.5 -135q-240 0 -368 140.5t-128 403.5q0 265 150 411.5t428 146.5h559v-142h-155l-148 6v-4q84 -126 118 -231.5t34 -219.5zM889 488q0 244 -124 452h-89q-186 0 -290 -107.5t-104 -306.5q0 -413 298 -413q151 0 230 96.5t79 278.5z
" />
    <glyph glyph-name="tau" unicode="&#x3c4;" 
d="M401 940q-82 0 -156 -12t-96 -25v150q24 12 77.5 20.5t105.5 8.5h720v-142h-374v-684q0 -135 124 -135q56 0 136 10v-131q-23 -6 -80 -13t-113 -7q-128 0 -187.5 59.5t-59.5 187.5v713h-97z" />
    <glyph glyph-name="phi" unicode="&#x3c6;" 
d="M1177 565q0 -273 -125.5 -421.5t-364.5 -161.5v-407h-160v407q-233 11 -355 153t-122 410q0 229 106.5 378.5t298.5 182.5l21 -136q-122 -28 -189.5 -142t-67.5 -287q0 -416 308 -432v580q0 195 79 305t228 110q160 0 251.5 -145.5t91.5 -393.5zM1008 567
q0 191 -45.5 302.5t-126.5 111.5q-149 0 -149 -289v-583q321 13 321 458z" />
    <glyph glyph-name="underscoredbl" unicode="&#x2017;" 
d="M-5 -220v96h1238v-96h-1238zM-5 -425v96h1238v-96h-1238z" />
    <glyph glyph-name="exclamdbl" unicode="&#x203c;" 
d="M411 397h-148l-24 951h196zM237 0v201h194v-201h-194zM968 397h-148l-24 951h196zM794 0v201h194v-201h-194z" />
    <glyph glyph-name="nsuperior" unicode="&#x207f;" 
d="M770 519v398q0 90 -27 125t-97 35q-72 0 -114.5 -50t-42.5 -144v-364h-128v511l-4 139h119l6 -111h2q35 65 84.5 94t123.5 29q110 0 158.5 -54t48.5 -175v-433h-129z" />
    <glyph glyph-name="peseta" unicode="&#x20a7;" 
d="M582 1015q0 -165 -85 -263t-230 -98h-61v-654h-161v1349h210q327 0 327 -334zM1204 173q0 -83 -48 -133t-138 -50q-74 0 -123 41.5t-60 121.5l108 17q16 -88 77 -88q26 0 43 18.5t17 58.5q0 36 -22.5 67t-70.5 64q-77 52 -109.5 102.5t-32.5 106.5q0 79 47 122t134 43
q70 0 114 -43t52 -115l-109 -12q-5 44 -22.5 61.5t-36.5 17.5q-55 0 -55 -73q0 -37 26.5 -65.5t77.5 -63.5q131 -89 131 -198zM420 1012q0 100 -38.5 147t-119.5 47h-56v-411h64q75 0 112.5 57t37.5 160zM445 553v97h90l59 142h71v-142h149v-97h-149v-384q0 -78 68 -78
q45 0 72 7v-97q-51 -11 -103 -11q-168 0 -168 161v402h-89z" />
    <glyph glyph-name="arrowleft" unicode="&#x2190;" 
d="M231 297q57 -67 119 -197h-72q-127 149 -270 222v36q143 73 270 222h72q-62 -130 -119 -197h989v-86h-989z" />
    <glyph glyph-name="arrowup" unicode="&#x2191;" 
d="M571 928q-67 -57 -197 -119v72q149 127 222 270h36q73 -143 222 -270v-72q-130 62 -197 119v-989h-86v989z" />
    <glyph glyph-name="arrowright" unicode="&#x2192;" 
d="M997 383q-57 67 -119 197h72q127 -149 270 -222v-36q-143 -73 -270 -222h-72q62 130 119 197h-989v86h989z" />
    <glyph glyph-name="arrowdown" unicode="&#x2193;" 
d="M657 162q67 57 197 119v-72q-149 -127 -222 -270h-36q-73 143 -222 270v72q130 -62 197 -119v989h86v-989z" />
    <glyph glyph-name="arrowboth" unicode="&#x2194;" 
d="M231 297q57 -67 119 -197h-72q-127 149 -270 222v36q143 73 270 222h72q-62 -130 -119 -197h766q-57 67 -119 197h72q127 -149 270 -222v-36q-143 -73 -270 -222h-72q62 130 119 197h-766z" />
    <glyph glyph-name="arrowupdn" unicode="&#x2195;" 
d="M571 928q-67 -57 -197 -119v72q149 127 222 270h36q73 -143 222 -270v-72q-130 62 -197 119v-766q67 57 197 119v-72q-149 -127 -222 -270h-36q-73 143 -222 270v72q130 -62 197 -119v766z" />
    <glyph glyph-name="arrowupdnbse" unicode="&#x21a8;" 
d="M374 -104h480v-80h-480v80zM571 928q-67 -57 -197 -119v72q149 127 222 270h36q73 -143 222 -270v-72q-130 62 -197 119v-766q67 57 197 119v-72q-149 -127 -222 -270h-36q-73 143 -222 270v72q130 -62 197 -119v766z" />
    <glyph glyph-name="orthogonal" unicode="&#x221f;" 
d="M52 1223h94v-1129h1030v-94h-1124v1223z" />
    <glyph glyph-name="intersection" unicode="&#x2229;" 
d="M156 -2v512q0 150 58 269.5t162.5 186t234.5 66.5q131 0 236.5 -66t165 -187t59.5 -269v-512h-103v514q0 190 -98 304t-258 114q-162 0 -258 -113t-96 -307v-512h-103z" />
    <glyph glyph-name="equivalence" unicode="&#x2261;" 
d="M116 956v148h995v-148h-995zM116 244v148h995v-148h-995zM116 600v148h995v-148h-995z" />
    <glyph glyph-name="house" unicode="&#x2302;" 
d="M138 0v635l476 448l476 -448v-635h-952zM221 85h786v512l-393 370l-393 -370v-512z" />
    <glyph glyph-name="revlogicalnot" unicode="&#x2310;" 
d="M262 608v-428h-147l1 574h995v-146h-849z" />
    <glyph glyph-name="integraltp" unicode="&#x2320;" 
d="M687 -615h-145v1822q0 233 82 365.5t231 132.5q70 0 120.5 -36.5t50.5 -92.5q0 -39 -25 -63.5t-60 -24.5q-39 0 -60.5 18t-36 39.5t-28 39.5t-35.5 18q-51 0 -72.5 -75.5t-21.5 -242.5v-1900z" />
    <glyph glyph-name="integralbt" unicode="&#x2321;" 
d="M542 1705h145v-1822q0 -237 -83 -367.5t-230 -130.5q-70 0 -120.5 36.5t-50.5 92.5q0 39 25 63.5t60 24.5q39 0 60.5 -18t36 -39.5t28 -39.5t35.5 -18q51 0 72.5 75.5t21.5 242.5v1900z" />
    <glyph glyph-name="uni2500" unicode="&#x2500;" 
d="M-10 555v145h1249v-145h-1249z" />
    <glyph glyph-name="uni2502" unicode="&#x2502;" 
d="M542 1705h145v-2320h-145v2320z" />
    <glyph glyph-name="uni250C" unicode="&#x250c;" 
d="M542 700h697v-145h-552v-1170h-145v1315z" />
    <glyph glyph-name="uni2510" unicode="&#x2510;" 
d="M-10 555v145h697v-1315h-145v1170h-552z" />
    <glyph glyph-name="uni2514" unicode="&#x2514;" 
d="M542 1705h145v-1005h552v-145h-697v1150z" />
    <glyph glyph-name="uni2518" unicode="&#x2518;" 
d="M-10 555v145h552v1005h145v-1150h-697z" />
    <glyph glyph-name="uni251C" unicode="&#x251c;" 
d="M542 1705h145v-1005h552v-145h-552v-1170h-145v2320z" />
    <glyph glyph-name="uni2524" unicode="&#x2524;" 
d="M-10 555v145h552v1005h145v-2320h-145v1170h-552z" />
    <glyph glyph-name="uni252C" unicode="&#x252c;" 
d="M-10 555v145h1249v-145h-552v-1170h-145v1170h-552z" />
    <glyph glyph-name="uni2534" unicode="&#x2534;" 
d="M-10 555v145h552v1005h145v-1005h552v-145h-1249z" />
    <glyph glyph-name="uni253C" unicode="&#x253c;" 
d="M-10 555v145h552v1005h145v-1005h552v-145h-552v-1170h-145v1170h-552z" />
    <glyph glyph-name="uni2550" unicode="&#x2550;" 
d="M-10 735v145h1249v-145h-1249zM-10 375v145h1249v-145h-1249z" />
    <glyph glyph-name="uni2551" unicode="&#x2551;" 
d="M362 1705h145v-2320h-145v2320zM722 1705h145v-2320h-145v2320z" />
    <glyph glyph-name="uni2552" unicode="&#x2552;" 
d="M542 880h697v-145h-552v-215h552v-145h-552v-990h-145v1495z" />
    <glyph glyph-name="uni2553" unicode="&#x2553;" 
d="M1239 700v-145h-372v-1170h-145v1170h-215v-1170h-145v1315h877z" />
    <glyph glyph-name="uni2554" unicode="&#x2554;" 
d="M362 880h877v-145h-732v-1350h-145v1495zM722 520h517v-145h-372v-990h-145v1135z" />
    <glyph glyph-name="uni2555" unicode="&#x2555;" 
d="M-10 375v145h552v215h-552v145h697v-1495h-145v990h-552z" />
    <glyph glyph-name="uni2556" unicode="&#x2556;" 
d="M-10 555v145h877v-1315h-145v1170h-215v-1170h-145v1170h-372z" />
    <glyph glyph-name="uni2557" unicode="&#x2557;" 
d="M867 880v-1495h-145v1350h-732v145h877zM507 -615h-145v990h-372v145h517v-1135z" />
    <glyph glyph-name="uni2558" unicode="&#x2558;" 
d="M542 1705h145v-825h552v-145h-552v-215h552v-145h-697v1330z" />
    <glyph glyph-name="uni2559" unicode="&#x2559;" 
d="M722 1705h145v-1005h372v-145h-877v1150h145v-1005h215v1005z" />
    <glyph glyph-name="uni255A" unicode="&#x255a;" 
d="M362 1705h145v-1185h732v-145h-877v1330zM722 1705h145v-825h372v-145h-517v970z" />
    <glyph glyph-name="uni255B" unicode="&#x255b;" 
d="M-10 375v145h552v215h-552v145h552v825h145v-1330h-697z" />
    <glyph glyph-name="uni255C" unicode="&#x255c;" 
d="M867 555h-877v145h372v1005h145v-1005h215v1005h145v-1150z" />
    <glyph glyph-name="uni255D" unicode="&#x255d;" 
d="M867 375h-877v145h732v1185h145v-1330zM362 1705h145v-970h-517v145h372v825z" />
    <glyph glyph-name="uni255E" unicode="&#x255e;" 
d="M542 1705h145v-825h552v-145h-552v-215h552v-145h-552v-990h-145v2320z" />
    <glyph glyph-name="uni255F" unicode="&#x255f;" 
d="M722 1705h145v-1005h372v-145h-372v-1170h-145v2320zM362 1705h145v-2320h-145v2320z" />
    <glyph glyph-name="uni2560" unicode="&#x2560;" 
d="M507 -615h-145v2320h145v-2320zM722 520h517v-145h-372v-990h-145v1135zM722 1705h145v-825h372v-145h-517v970z" />
    <glyph glyph-name="uni2561" unicode="&#x2561;" 
d="M-10 375v145h552v215h-552v145h552v825h145v-2320h-145v990h-552z" />
    <glyph glyph-name="uni2562" unicode="&#x2562;" 
d="M-10 555v145h372v1005h145v-2320h-145v1170h-372zM722 1705h145v-2320h-145v2320z" />
    <glyph glyph-name="uni2563" unicode="&#x2563;" 
d="M722 1705h145v-2320h-145v2320zM362 1705h145v-970h-517v145h372v825zM507 -615h-145v990h-372v145h517v-1135z" />
    <glyph glyph-name="uni2564" unicode="&#x2564;" 
d="M-10 375v145h1249v-145h-552v-990h-145v990h-552zM-10 735v145h1249v-145h-1249z" />
    <glyph glyph-name="uni2565" unicode="&#x2565;" 
d="M-10 555v145h1249v-145h-372v-1170h-145v1170h-215v-1170h-145v1170h-372z" />
    <glyph glyph-name="uni2566" unicode="&#x2566;" 
d="M507 -615h-145v990h-372v145h517v-1135zM722 520h517v-145h-372v-990h-145v1135zM1239 880v-145h-1249v145h1249z" />
    <glyph glyph-name="uni2567" unicode="&#x2567;" 
d="M-10 735v145h552v825h145v-825h552v-145h-1249zM-10 375v145h1249v-145h-1249z" />
    <glyph glyph-name="uni2568" unicode="&#x2568;" 
d="M-10 555v145h372v1005h145v-1005h215v1005h145v-1005h372v-145h-1249z" />
    <glyph glyph-name="uni2569" unicode="&#x2569;" 
d="M722 1705h145v-825h372v-145h-517v970zM362 1705h145v-970h-517v145h372v825zM-10 375v145h1249v-145h-1249z" />
    <glyph glyph-name="uni256A" unicode="&#x256a;" 
d="M-10 375v145h552v215h-552v145h552v825h145v-825h552v-145h-552v-215h552v-145h-552v-990h-145v990h-552z" />
    <glyph glyph-name="uni256B" unicode="&#x256b;" 
d="M722 1705h145v-1005h372v-145h-372v-1170h-145v1170h-215v-1170h-145v1170h-372v145h372v1005h145v-1005h215v1005z" />
    <glyph glyph-name="uni256C" unicode="&#x256c;" 
d="M722 1705h145v-825h372v-145h-517v970zM507 -615h-145v990h-372v145h517v-1135zM722 520h517v-145h-372v-990h-145v1135zM362 1705h145v-970h-517v145h372v825z" />
    <glyph glyph-name="upblock" unicode="&#x2580;" 
d="M1229 627h-1229v1078h1229v-1078z" />
    <glyph glyph-name="dnblock" unicode="&#x2584;" 
d="M1229 -615h-1229v1242h1229v-1242z" />
    <glyph glyph-name="block" unicode="&#x2588;" 
d="M1229 -615h-1229v2320h1229v-2320z" />
    <glyph glyph-name="lfblock" unicode="&#x258c;" 
d="M615 -615h-615v2320h615v-2320z" />
    <glyph glyph-name="rtblock" unicode="&#x2590;" 
d="M1229 -615h-615v2320h615v-2320z" />
    <glyph glyph-name="ltshade" unicode="&#x2591;" 
d="M0 1320h103v-98h-103v98zM410 1320h103v-98h-103v98zM820 1320h103v-98h-103v98zM205 1125h102v-96h-102v96zM615 1125h102v-96h-102v96zM1025 1125h102v-96h-102v96zM0 933h103v-96h-103v96zM410 933h103v-96h-103v96zM820 933h103v-96h-103v96zM205 738h102v-96h-102
v96zM615 738h102v-96h-102v96zM1025 738h102v-96h-102v96zM0 546h103v-96h-103v96zM410 546h103v-96h-103v96zM820 546h103v-96h-103v96zM615 351h102v-96h-102v96zM1025 351h102v-96h-102v96zM205 351h102v-96h-102v96zM820 159h103v-97h-103v97zM410 159h103v-97h-103v97z
M0 159h103v-97h-103v97zM205 -36h102v-94h-102v94zM615 -36h102v-94h-102v94zM1025 -36h102v-94h-102v94zM820 -228h103v-97h-103v97zM410 -228h103v-97h-103v97zM0 -228h103v-97h-103v97zM205 -421h102v-96h-102v96zM615 -421h102v-96h-102v96zM1025 -421h102v-96h-102v96z
M205 1512h102v-98h-102v98zM615 1512h102v-98h-102v98zM1025 1512h102v-98h-102v98zM0 1705h103v-96h-103v96zM410 1705h103v-96h-103v96zM820 1705h103v-96h-103v96z" />
    <glyph glyph-name="shade" unicode="&#x2592;" 
d="M102 1320h103v-98h-103v98zM307 1320h103v-98h-103v98zM512 1320h103v-98h-103v98zM717 1320h103v-98h-103v98zM922 1320h103v-98h-103v98zM1127 1320h103v-98h-103v98zM0 1125h102v-96h-102v96zM205 1125h102v-96h-102v96zM410 1125h102v-96h-102v96zM615 1125h102v-96
h-102v96zM820 1125h102v-96h-102v96zM1025 1125h102v-96h-102v96zM102 933h103v-96h-103v96zM307 933h103v-96h-103v96zM512 933h103v-96h-103v96zM717 933h103v-96h-103v96zM922 933h103v-96h-103v96zM1127 933h103v-96h-103v96zM0 738h102v-96h-102v96zM205 738h102v-96
h-102v96zM410 738h102v-96h-102v96zM615 738h102v-96h-102v96zM820 738h102v-96h-102v96zM1025 738h102v-96h-102v96zM102 546h103v-96h-103v96zM307 546h103v-96h-103v96zM512 546h103v-96h-103v96zM717 546h103v-96h-103v96zM922 546h103v-96h-103v96zM1127 546h103v-96
h-103v96zM0 351h102v-96h-102v96zM410 351h102v-96h-102v96zM615 351h102v-96h-102v96zM820 351h102v-96h-102v96zM1025 351h102v-96h-102v96zM205 351h102v-96h-102v96zM1127 159h103v-97h-103v97zM922 159h103v-97h-103v97zM717 159h103v-97h-103v97zM512 159h103v-97
h-103v97zM307 159h103v-97h-103v97zM102 159h103v-97h-103v97zM0 -36h102v-94h-102v94zM205 -36h102v-94h-102v94zM410 -36h102v-94h-102v94zM615 -36h102v-94h-102v94zM820 -36h102v-94h-102v94zM1025 -36h102v-94h-102v94zM1127 -228h103v-97h-103v97zM922 -228h103v-97
h-103v97zM717 -228h103v-97h-103v97zM512 -228h103v-97h-103v97zM307 -228h103v-97h-103v97zM102 -228h103v-97h-103v97zM0 -421h102v-96h-102v96zM205 -421h102v-96h-102v96zM410 -421h102v-96h-102v96zM615 -421h102v-96h-102v96zM820 -421h102v-96h-102v96zM1025 -421
h102v-96h-102v96zM0 1512h102v-98h-102v98zM205 1512h102v-98h-102v98zM410 1512h102v-98h-102v98zM615 1512h102v-98h-102v98zM820 1512h102v-98h-102v98zM1025 1512h102v-98h-102v98zM102 1705h103v-96h-103v96zM307 1705h103v-96h-103v96zM512 1705h103v-96h-103v96z
M717 1705h103v-96h-103v96zM922 1705h103v-96h-103v96zM1127 1705h103v-96h-103v96z" />
    <glyph glyph-name="dkshade" unicode="&#x2593;" 
d="M1230 -615h-1230v290h102v97h-102v290h102v97h-102v291h102v96h-102v289h102v98h-102v289h102v98h-102v289h102v96h103v-96h102v96h103v-96h102v96h103v-96h102v96h103v-96h102v96h103v-96h102v96h103v-193h-103v-98h103v-289h-103v-96h103v-291h-103v-96h103v-291h-103
v-96h103v-291h-103v-94h103v-291h-103v-96h103v-98zM102 1125v-96h103v96h-103zM307 1125v-96h103v96h-103zM512 1125v-96h103v96h-103zM717 1125v-96h103v96h-103zM922 933h-102v-98h102v98zM717 933h-102v-98h102v98zM512 933h-102v-98h102v98zM307 933h-102v-98h102v98z
M102 738v-96h103v96h-103zM307 738v-96h103v96h-103zM512 738v-96h103v96h-103zM717 738v-96h103v96h-103zM307 546h-102v-96h102v96zM410 546v-96h102v96h-102zM615 546v-96h102v96h-102zM820 546v-96h102v96h-102zM102 351v-96h103v96h-103zM512 351v-96h103v96h-103z
M410 255v96h-103v-96h103zM717 351v-96h103v96h-103zM922 62v97h-102v-97h102zM717 62v97h-102v-97h102zM512 62v97h-102v-97h102zM307 62v97h-102v-97h102zM102 -36v-94h103v94h-103zM307 -36v-94h103v94h-103zM512 -36v-94h103v94h-103zM717 -36v-94h103v94h-103z
M922 -325v97h-102v-97h102zM717 -325v97h-102v-97h102zM512 -325v97h-102v-97h102zM307 -325v97h-102v-97h102zM102 -421v-96h103v96h-103zM307 -421v-96h103v96h-103zM512 -421v-96h103v96h-103zM717 -421v-96h103v96h-103zM922 1320h-102v-98h102v98zM717 1320h-102v-98
h102v98zM512 1320h-102v-98h102v98zM307 1320h-102v-98h102v98zM820 1512h-103v-98h103v98zM615 1512h-103v-98h103v98zM410 1512h-103v-98h103v98zM205 1512h-103v-98h103v98zM922 1125v-96h103v96h-103zM1127 933h-102v-98h102v98zM922 738v-96h103v96h-103zM1025 546v-96
h102v96h-102zM922 351v-96h103v96h-103zM1127 62v97h-102v-97h102zM922 -36v-94h103v94h-103zM1127 -325v97h-102v-97h102zM922 -421v-96h103v96h-103zM1127 1320h-102v-98h102v98zM1025 1512h-103v-98h103v98z" />
    <glyph glyph-name="filledbox" unicode="&#x25a0;" 
d="M119 1108h991v-991h-991v991z" />
    <glyph glyph-name="filledrect" unicode="&#x25ac;" 
d="M8 546h1213v-476h-1213v476z" />
    <glyph glyph-name="triagup" unicode="&#x25b2;" 
d="M15 50l600 1148l598 -1148h-1198z" />
    <glyph glyph-name="triagrt" unicode="&#x25ba;" 
d="M52 1196l1175 -610l-1175 -613v1223z" />
    <glyph glyph-name="triagdn" unicode="&#x25bc;" 
d="M1213 1121l-598 -1148l-600 1148h1198z" />
    <glyph glyph-name="triaglf" unicode="&#x25c4;" 
d="M1177 1196v-1223l-1175 613z" />
    <glyph glyph-name="circle" unicode="&#x25cb;" 
d="M163 612q0 122 60 227t164.5 165.5t225.5 60.5q122 0 227 -60.5t165.5 -166t60.5 -226.5t-60.5 -225.5t-165 -164.5t-227.5 -60q-122 0 -226 60t-164 164t-60 226zM249 612q0 -98 49 -182.5t132.5 -133t182.5 -48.5q98 0 182.5 48t134.5 133t50 183t-49 183.5
t-134.5 134.5t-183.5 49q-97 0 -181.5 -49t-133.5 -133.5t-49 -184.5z" />
    <glyph glyph-name="invbullet" unicode="&#x25d8;" 
d="M37 0v1155h1155v-1155h-1155zM172 577q0 -118 59 -220t160.5 -161t220.5 -59q118 0 220.5 59t161.5 161.5t59 219.5q0 118 -59 220.5t-161 161.5t-221 59q-118 0 -220.5 -59.5t-161 -161.5t-58.5 -220z" />
    <glyph glyph-name="invcircle" unicode="&#x25d9;" 
d="M37 0v1155h1155v-1155h-1155zM249 577q0 97 49 182t134 134t182 49t182 -49t134 -134t49 -182t-49 -182t-134 -134t-182 -49t-182 49t-134 134t-49 182zM172 577q0 -118 59 -220t160.5 -161t220.5 -59q118 0 220.5 59t161.5 161.5t59 219.5q0 118 -59 220.5t-161 161.5
t-221 59q-118 0 -220.5 -59.5t-161 -161.5t-58.5 -220z" />
    <glyph glyph-name="smileface" unicode="&#x263a;" 
d="M27 589q0 158 78.5 294t214.5 214.5t294 78.5t293.5 -78.5t214.5 -214.5t79 -294t-78.5 -294t-214.5 -214.5t-294 -78.5t-294 78.5t-214.5 214.5t-78.5 294zM90 589q0 -140 70 -261.5t191.5 -192t262.5 -70.5q140 0 261.5 70.5t191.5 192.5t70 261q0 140 -70 261
t-191 191.5t-262 70.5q-140 0 -261.5 -70t-192 -192t-70.5 -261zM326 741q0 29 20.5 50t49.5 21t50 -21t21 -50t-21 -49.5t-50 -20.5t-49.5 20.5t-20.5 49.5zM761 741q0 29 20.5 50t49.5 21t50 -21t21 -50t-21 -49.5t-50 -20.5t-49.5 20.5t-20.5 49.5zM353 442
q58 -78 120.5 -107t140.5 -29q80 0 142 29.5t119 106.5l58 -49q-112 -177 -319 -177q-71 0 -128.5 20t-101 54t-89.5 103z" />
    <glyph glyph-name="invsmileface" unicode="&#x263b;" 
d="M27 589q0 158 78.5 294t214.5 214.5t294 78.5t293.5 -78.5t214.5 -214.5t79 -294t-78.5 -294t-214.5 -214.5t-294 -78.5t-294 78.5t-214.5 214.5t-78.5 294zM326 741q0 -29 20.5 -49.5t49.5 -20.5t50 20.5t21 49.5t-21 50t-50 21t-49.5 -21t-20.5 -50zM761 741
q0 -29 20.5 -49.5t49.5 -20.5t50 20.5t21 49.5t-21 50t-50 21t-49.5 -21t-20.5 -50zM295 393q45 -68 88.5 -102t100.5 -54.5t130 -20.5q207 0 319 177l-58 49q-58 -78 -120.5 -107t-140.5 -29q-79 0 -141.5 29.5t-119.5 106.5z" />
    <glyph glyph-name="sun" unicode="&#x263c;" 
d="M224 907l164 -165q87 69 190 79v233h72v-233q102 -9 189 -79l165 165l51 -51l-165 -165q70 -87 79 -189h233v-72h-233q-10 -103 -79 -190l165 -164l-51 -51l-165 164q-87 -70 -189 -79v-232h-72v232q-103 10 -190 79l-164 -164l-51 51l164 164q-69 87 -79 190h-232v72
h232q9 102 79 189l-164 165zM329 466q0 -118 82.5 -201.5t202.5 -83.5t202.5 83.5t82.5 201.5t-83.5 201.5t-201.5 83.5t-201.5 -83.5t-83.5 -201.5z" />
    <glyph glyph-name="female" unicode="&#x2640;" 
d="M344 376h234v202q-114 14 -188 99t-74 197q0 123 87.5 210.5t210.5 87.5t210.5 -87.5t87.5 -210.5q0 -111 -74 -196t-188 -100v-202h234v-72h-234v-234h-72v234h-234v72zM388 874q0 -94 66 -160t160 -66q95 0 160.5 67t65.5 159q0 93 -66 159.5t-160 66.5
q-91 0 -158.5 -65t-67.5 -161z" />
    <glyph glyph-name="male" unicode="&#x2642;" 
d="M164 412q0 123 87.5 210.5t210.5 87.5q102 0 183 -64l257 257l-226 20l-2 55h331l23 -23v-331l-55 2l-20 226l-257 -257q64 -81 64 -183q0 -123 -87.5 -210.5t-210.5 -87.5t-210.5 87.5t-87.5 210.5zM236 412q0 -94 66 -160t160 -66q95 0 160.5 67t65.5 159
q0 93 -66 159.5t-160 66.5q-91 0 -158.5 -65t-67.5 -161z" />
    <glyph glyph-name="spade" unicode="&#x2660;" 
d="M640 1195q0 -86 71 -192.5t180 -192.5q130 -102 182.5 -177.5t52.5 -154.5q0 -108 -68 -173t-167 -65q-60 0 -126 28.5t-103 71.5q0 -133 87.5 -208.5t232.5 -75.5v-56h-736v56q145 0 232.5 75.5t87.5 208.5q-38 -43 -104 -71.5t-125 -28.5q-100 0 -167.5 65t-67.5 173
q0 77 49.5 150t185.5 182q109 85 180 192.5t71 192.5h52z" />
    <glyph glyph-name="club" unicode="&#x2663;" 
d="M614 1195q85 0 147 -30.5t96 -85t34 -118.5q0 -67 -33.5 -133.5t-84.5 -102.5l55 3q135 0 219 -68.5t84 -181.5q0 -108 -68 -173t-167 -65q-61 0 -129 29.5t-105 70.5q0 -133 87.5 -208.5t232.5 -75.5v-56h-736v56q145 0 232.5 75.5t87.5 208.5q-36 -41 -103.5 -70.5
t-130.5 -29.5q-100 0 -167.5 65t-67.5 173q0 114 84 182t219 68l55 -3q-51 36 -84.5 102.5t-33.5 133.5q0 64 34 118.5t96 85t147 30.5z" />
    <glyph glyph-name="heart" unicode="&#x2665;" 
d="M588 -1q0 68 -59.5 172.5t-191.5 262.5q-235 285 -235 446q0 70 33.5 127t90.5 89t121 32q89 0 161.5 -65.5t102.5 -164.5h6q30 100 103 165t161 65q64 0 121 -32t90.5 -89.5t33.5 -126.5q0 -161 -235 -446q-108 -133 -152.5 -200t-71.5 -126.5t-27 -108.5h-52z" />
    <glyph glyph-name="diamond" unicode="&#x2666;" 
d="M132 597v3q249 284 476 598h12q227 -314 476 -598v-3q-249 -284 -476 -598h-12q-227 314 -476 598z" />
    <glyph glyph-name="musicalnote" unicode="&#x266a;" 
d="M788 272q35 38 55.5 95.5t20.5 122.5q0 104 -55 186.5t-145 112.5v-598q0 -68 -68 -117.5t-154 -49.5q-69 0 -114.5 34t-45.5 90q0 65 68.5 115t151.5 50q58 0 100 -23v836h38q12 -116 133 -239q87 -89 125.5 -171.5t38.5 -184.5q0 -72 -27.5 -140t-75.5 -119h-46z" />
    <glyph glyph-name="musicalnotedbl" unicode="&#x266b;" 
d="M862 44q-69 0 -114.5 34t-45.5 90q0 65 68.5 115t151.5 50q58 0 100 -23v435l-528 -81v-543q0 -68 -68 -117.5t-154 -49.5q-69 0 -114.5 34t-45.5 90q0 65 68.5 115t151.5 50q58 0 100 -23v835l652 100v-944q0 -68 -68 -117.5t-154 -49.5zM494 804l528 81v120l-528 -81
v-120z" />
    <glyph glyph-name="IJ" unicode="&#x132;" 
d="M98 1349h191v-1349h-191v1349zM768 135q104 0 151.5 71.5t47.5 209.5v777h-271v156h461v-929q0 -211 -101 -325.5t-289 -114.5q-168 0 -260.5 86.5t-129.5 283.5l186 31q20 -129 71.5 -187.5t133.5 -58.5z" />
    <glyph glyph-name="ij" unicode="&#x133;" 
d="M237 1082h179v-1082h-180zM216 1292v192h200v-192h-200zM881 1082h180v-1110q0 -187 -112 -292t-319 -105q-79 0 -161 13t-127 30v140q150 -34 273 -34q128 0 197 66t69 185v1107zM861 1292v192h200v-192h-200z" />
    <glyph glyph-name="napostrophe" unicode="&#x149;" 
d="M973 0v695q0 136 -52.5 202t-167.5 66q-124 0 -203.5 -90.5t-79.5 -245.5v-627h-180v851q0 189 -6 231h170q1 -5 2 -27t2.5 -50.5t3.5 -107.5h3q105 205 346 205q173 0 258 -93.5t85 -287.5v-721h-181zM5 1025v33l79 292h197v-37l-171 -288h-105z" />
    <glyph glyph-name="minute" unicode="&#x2032;" 
d="M684 845h-141l-41 639h224z" />
    <glyph glyph-name="second" unicode="&#x2033;" 
d="M908 845h-142l-40 639h224zM459 845h-141l-41 639h224z" />
    <glyph glyph-name="uni2105" unicode="&#x2105;" 
d="M1229 404q0 -201 -71 -308.5t-199 -107.5t-196.5 107.5t-68.5 308.5q0 211 66.5 316t202.5 105q266 0 266 -421zM1081 404q0 165 -28 237.5t-90 72.5q-66 0 -94 -73t-28 -237q0 -154 28.5 -230t91.5 -76q61 0 90.5 74t29.5 232zM146 945q0 -144 34.5 -226.5t91.5 -82.5
q83 0 104 169l141 -9q-13 -121 -78 -197.5t-163 -76.5q-135 0 -205.5 111.5t-70.5 308.5q0 202 70 310t205 108q94 0 155 -67.5t82 -191.5l-143 -11q-10 72 -31.5 114.5t-66.5 42.5q-125 0 -125 -302zM322 0h-118l703 1349h115z" />
    <glyph glyph-name="uni2113" unicode="&#x2113;" 
d="M710 78q51 0 90 52t56 161h69q-40 -311 -259 -311q-115 0 -181.5 83t-66.5 231v175q-51 -27 -132 -58v73q79 31 132 59v587q0 147 65.5 223t188.5 76q105 0 168 -81.5t63 -218.5q0 -185 -88 -345t-231 -242v-244q0 -101 36 -160.5t90 -59.5zM812 1122q0 99 -36 165
t-91 66q-50 0 -75.5 -51.5t-25.5 -172.5v-507q102 69 165 206.5t63 293.5z" />
    <glyph glyph-name="uni25A1" unicode="&#x25a1;" 
d="M2 1225h1225v-1225h-1225v1225zM78 1149v-1073h1073v1073h-1073z" />
    <glyph glyph-name="uni25AA" unicode="&#x25aa;" 
d="M868 383h-508v508h508v-508z" />
    <glyph glyph-name="uni25AB" unicode="&#x25ab;" 
d="M868 383h-508v508h508v-508zM792 459v354h-356v-354h356z" />
    <glyph glyph-name="uni25CF" unicode="&#x25cf;" 
d="M614 1018q110 0 218.5 -58t165.5 -167t57 -215q0 -183 -129 -312t-312 -129q-182 0 -311 129.5t-129 311.5q0 108 55.5 214.5t163 166t221.5 59.5z" />
    <glyph glyph-name="openbullet" unicode="&#x25e6;" 
d="M862 637q0 -107 -75.5 -177.5t-172.5 -70.5q-68 0 -124 32.5t-90 89.5t-34 126q0 103 73.5 175.5t174.5 72.5q103 0 174 -74q74 -71 74 -174zM786 637q0 70 -51 121t-121 51t-121 -51t-51 -121q0 -71 49 -121.5t123 -50.5q77 0 124.5 52.5t47.5 119.5z" />
    <glyph glyph-name="Amacron" unicode="&#x100;" 
d="M1034 0l-138 382h-563l-137 -382h-196l510 1349h217l501 -1349h-194zM616 1205l-12 -39l-69 -212l-151 -423h463l-173 500zM890 1503h-551v127h551v-127z" />
    <glyph glyph-name="amacron" unicode="&#x101;" 
d="M1101 111q26 0 59 7v-112q-68 -16 -139 -16q-100 0 -145.5 52.5t-51.5 164.5h-6q-65 -121 -153.5 -174t-218.5 -53q-158 0 -238 86t-80 236q0 349 454 354l236 4v59q0 131 -53 188.5t-169 57.5q-118 0 -170 -42t-62 -130l-188 17q46 292 423 292q200 0 300.5 -93.5
t100.5 -270.5v-466q0 -80 21 -120.5t80 -40.5zM492 117q96 0 170 46t115 123t41 159v89l-190 -4q-118 -2 -180 -26t-96.5 -73.5t-34.5 -131.5t44.5 -132t130.5 -50zM851 1236h-551v127h551v-127z" />
    <glyph glyph-name="Ccircumflex" unicode="&#x108;" 
d="M314 681q0 -273 85.5 -409.5t261.5 -136.5q101 0 183 68.5t139 213.5l159 -65q-149 -372 -483 -372q-263 0 -404.5 181t-141.5 520q0 689 536 689q339 0 466 -335l-168 -65q-37 113 -115.5 178.5t-181.5 65.5q-171 0 -253.5 -129t-82.5 -404zM965 1466v-20h-105l-219 138
h-2l-232 -138h-104v20l254 239h164z" />
    <glyph glyph-name="ccircumflex" unicode="&#x109;" 
d="M130 542q0 270 129 415t373 145q182 0 300 -87.5t146 -235.5l-192 -14q-16 91 -80 143.5t-182 52.5q-158 0 -231.5 -98t-73.5 -317q0 -222 73.5 -324.5t230.5 -102.5q108 0 179 53t88 162l190 -12q-13 -96 -72.5 -174.5t-157.5 -123t-219 -44.5q-245 0 -373 144t-128 418
zM945 1221v-20h-105l-219 138h-2l-232 -138h-104v20l254 239h164z" />
    <glyph glyph-name="Cdotaccent" unicode="&#x10a;" 
d="M314 681q0 -273 85.5 -409.5t261.5 -136.5q101 0 183 68.5t139 213.5l159 -65q-149 -372 -483 -372q-263 0 -404.5 181t-141.5 520q0 689 536 689q339 0 466 -335l-168 -65q-37 113 -115.5 178.5t-181.5 65.5q-171 0 -253.5 -129t-82.5 -404zM545 1446v192h200v-192h-200
z" />
    <glyph glyph-name="cdotaccent" unicode="&#x10b;" 
d="M130 542q0 270 129 415t373 145q182 0 300 -87.5t146 -235.5l-192 -14q-16 91 -80 143.5t-182 52.5q-158 0 -231.5 -98t-73.5 -317q0 -222 73.5 -324.5t230.5 -102.5q108 0 179 53t88 162l190 -12q-13 -96 -72.5 -174.5t-157.5 -123t-219 -44.5q-245 0 -373 144t-128 418
zM535 1292v192h200v-192h-200z" />
    <glyph glyph-name="Emacron" unicode="&#x112;" 
d="M162 0v1349h919v-156h-728v-422h668v-154h-668v-461h769v-156h-960zM906 1503h-551v127h551v-127z" />
    <glyph glyph-name="emacron" unicode="&#x113;" 
d="M322 503q0 -182 80.5 -285t220.5 -103q103 0 180.5 44.5t103.5 121.5l158 -45q-44 -124 -161.5 -190t-280.5 -66q-236 0 -363 147t-127 421q0 267 124.5 410.5t359.5 143.5t356 -143t121 -432v-24h-772zM619 969q-134 0 -212 -87.5t-83 -240.5h584q-28 328 -289 328z
M890 1236h-551v127h551v-127z" />
    <glyph glyph-name="Ebreve" unicode="&#x114;" 
d="M162 0v1349h919v-156h-728v-422h668v-154h-668v-461h769v-156h-960zM613 1446q-124 0 -207.5 71t-104.5 188h127q17 -63 60 -98t125 -35q85 0 127.5 35t59.5 98h127q-24 -119 -106.5 -189t-207.5 -70z" />
    <glyph glyph-name="ebreve" unicode="&#x115;" 
d="M322 503q0 -182 80.5 -285t220.5 -103q103 0 180.5 44.5t103.5 121.5l158 -45q-44 -124 -161.5 -190t-280.5 -66q-236 0 -363 147t-127 421q0 267 124.5 410.5t359.5 143.5t356 -143t121 -432v-24h-772zM619 969q-134 0 -212 -87.5t-83 -240.5h584q-28 328 -289 328z
M617 1201q-124 0 -207.5 71t-104.5 188h127q17 -63 60 -98t125 -35q85 0 127.5 35t59.5 98h127q-24 -119 -106.5 -189t-207.5 -70z" />
    <glyph glyph-name="Edotaccent" unicode="&#x116;" 
d="M162 0v1349h919v-156h-728v-422h668v-154h-668v-461h769v-156h-960zM515 1446v192h200v-192h-200z" />
    <glyph glyph-name="edotaccent" unicode="&#x117;" 
d="M322 503q0 -182 80.5 -285t220.5 -103q103 0 180.5 44.5t103.5 121.5l158 -45q-44 -124 -161.5 -190t-280.5 -66q-236 0 -363 147t-127 421q0 267 124.5 410.5t359.5 143.5t356 -143t121 -432v-24h-772zM619 969q-134 0 -212 -87.5t-83 -240.5h584q-28 328 -289 328z
M517 1298v192h200v-192h-200z" />
    <glyph glyph-name="Gcircumflex" unicode="&#x11c;" 
d="M1101 133q-229 -153 -462 -153q-250 0 -388 185.5t-138 515.5q0 347 132 518t397 171q346 0 461 -331l-171 -56q-80 231 -288 231q-169 0 -249.5 -126t-80.5 -407q0 -546 341 -546q68 0 141 21t119 53v336h-293v160h479v-572zM945 1466v-20h-105l-219 138h-2l-232 -138
h-104v20l254 239h164z" />
    <glyph glyph-name="gcircumflex" unicode="&#x11d;" 
d="M615 -424q-168 0 -270 69t-130 198l184 25q17 -75 73.5 -115.5t148.5 -40.5q248 0 248 315v194h-2q-49 -103 -136 -156t-207 -53q-198 0 -289.5 129.5t-91.5 407.5q0 283 98 416.5t302 133.5q113 0 196.5 -52.5t128.5 -149.5h3q0 30 4 101.5t8 83.5h171q-6 -54 -6 -224
v-826q0 -227 -106 -341.5t-327 -114.5zM869 551q0 193 -75 303.5t-206 110.5q-137 0 -198 -95.5t-61 -318.5q0 -151 25.5 -238.5t79.5 -127.5t151 -40q85 0 149.5 47.5t99.5 139t35 219.5zM936 1221v-20h-105l-219 138h-2l-232 -138h-104v20l254 239h164z" />
    <glyph glyph-name="Gdotaccent" unicode="&#x120;" 
d="M1101 133q-229 -153 -462 -153q-250 0 -388 185.5t-138 515.5q0 347 132 518t397 171q346 0 461 -331l-171 -56q-80 231 -288 231q-169 0 -249.5 -126t-80.5 -407q0 -546 341 -546q68 0 141 21t119 53v336h-293v160h479v-572zM525 1446v192h200v-192h-200z" />
    <glyph glyph-name="gdotaccent" unicode="&#x121;" 
d="M615 -424q-168 0 -270 69t-130 198l184 25q17 -75 73.5 -115.5t148.5 -40.5q248 0 248 315v194h-2q-49 -103 -136 -156t-207 -53q-198 0 -289.5 129.5t-91.5 407.5q0 283 98 416.5t302 133.5q113 0 196.5 -52.5t128.5 -149.5h3q0 30 4 101.5t8 83.5h171q-6 -54 -6 -224
v-826q0 -227 -106 -341.5t-327 -114.5zM869 551q0 193 -75 303.5t-206 110.5q-137 0 -198 -95.5t-61 -318.5q0 -151 25.5 -238.5t79.5 -127.5t151 -40q85 0 149.5 47.5t99.5 139t35 219.5zM506 1292v192h200v-192h-200z" />
    <glyph glyph-name="Gcommaaccent" unicode="&#x122;" 
d="M1101 133q-229 -153 -462 -153q-250 0 -388 185.5t-138 515.5q0 347 132 518t397 171q346 0 461 -331l-171 -56q-80 231 -288 231q-169 0 -249.5 -126t-80.5 -407q0 -546 341 -546q68 0 141 21t119 53v336h-293v160h479v-572zM475 -423v33l79 292h197v-37l-171 -288h-105
z" />
    <glyph glyph-name="gcommaaccent" unicode="&#x123;" 
d="M615 -424q-168 0 -270 69t-130 198l184 25q17 -75 73.5 -115.5t148.5 -40.5q248 0 248 315v194h-2q-49 -103 -136 -156t-207 -53q-198 0 -289.5 129.5t-91.5 407.5q0 283 98 416.5t302 133.5q113 0 196.5 -52.5t128.5 -149.5h3q0 30 4 101.5t8 83.5h171q-6 -54 -6 -224
v-826q0 -227 -106 -341.5t-327 -114.5zM869 551q0 193 -75 303.5t-206 110.5q-137 0 -198 -95.5t-61 -318.5q0 -151 25.5 -238.5t79.5 -127.5t151 -40q85 0 149.5 47.5t99.5 139t35 219.5zM750 1536v-33l-79 -292h-197v37l171 288h105z" />
    <glyph glyph-name="Hcircumflex" unicode="&#x124;" 
d="M875 0v623h-522v-623h-191v1349h191v-566h522v566h191v-1349h-191zM945 1466v-20h-105l-219 138h-2l-232 -138h-104v20l254 239h164z" />
    <glyph glyph-name="hcircumflex" unicode="&#x125;" 
d="M185 1349h181v-315q0 -59 -9 -197h3q105 205 339 205q350 0 350 -381v-661h-181v635q0 136 -52.5 202t-167.5 66q-124 0 -203.5 -90.5t-79.5 -245.5v-567h-180v1349zM945 1465v-20h-105l-219 139h-2l-232 -139h-104v20l254 240h164z" />
    <glyph glyph-name="Hbar" unicode="&#x126;" 
d="M162 1153v196h191v-196h522v196h191v-196h160v-148h-160v-1005h-191v623h-522v-623h-191v1005h-160v148h160zM875 783v222h-522v-222h522z" />
    <glyph glyph-name="hbar" unicode="&#x127;" 
d="M185 1484h181v-157h299v-131h-299v-132q0 -59 -9 -197h3q105 205 339 205q350 0 350 -381v-691h-181v665q0 136 -52.5 202t-167.5 66q-124 0 -203.5 -90.5t-79.5 -245.5v-597h-180v1196h-132v131h132v157z" />
    <glyph glyph-name="Itilde" unicode="&#x128;" 
d="M202 1349h823v-156h-316v-1037h316v-156h-823v156h316v1037h-316v156zM771 1446q-42 0 -84 18.5t-82 41t-78.5 41t-73.5 18.5q-25 0 -40 -9.5t-25 -27.5t-21 -82h-111q11 96 34.5 145t64.5 76t104 27q44 0 86 -18.5t82 -41t77 -41t70 -18.5q37 0 57 23.5t30 95.5h112
q-16 -138 -65.5 -193t-136.5 -55z" />
    <glyph glyph-name="itilde" unicode="&#x129;" 
d="M745 142h380v-142h-982v142h422v798h-319v142h499v-940zM770 1201q-42 0 -84 18.5t-82 41t-78.5 41t-73.5 18.5q-25 0 -40 -9.5t-25 -27.5t-21 -82h-111q11 96 34.5 145t64.5 76t104 27q44 0 86 -18.5t82 -41t77 -41t70 -18.5q37 0 57 23.5t30 95.5h112
q-16 -138 -65.5 -193t-136.5 -55z" />
    <glyph glyph-name="Imacron" unicode="&#x12a;" 
d="M202 1349h823v-156h-316v-1037h316v-156h-823v156h316v1037h-316v156zM890 1503h-551v127h551v-127z" />
    <glyph glyph-name="imacron" unicode="&#x12b;" 
d="M745 142h380v-142h-982v142h422v798h-319v142h499v-940zM896 1236h-551v127h551v-127z" />
    <glyph glyph-name="Ibreve" unicode="&#x12c;" 
d="M202 1349h823v-156h-316v-1037h316v-156h-823v156h316v1037h-316v156zM613 1445q-124 0 -207.5 71t-104.5 188h127q17 -63 60 -98t125 -35q85 0 127.5 35t59.5 98h127q-24 -119 -106.5 -189t-207.5 -70z" />
    <glyph glyph-name="ibreve" unicode="&#x12d;" 
d="M745 142h380v-142h-982v142h422v798h-319v142h499v-940zM633 1201q-124 0 -207.5 71t-104.5 188h127q17 -63 60 -98t125 -35q85 0 127.5 35t59.5 98h127q-24 -119 -106.5 -189t-207.5 -70z" />
    <glyph glyph-name="Iogonek" unicode="&#x12e;" 
d="M202 1349h823v-156h-316v-1037h316v-156h-823v156h316v1037h-316v156zM804 -400q-63 -27 -139 -27q-105 0 -158 51t-53 136q0 68 41.5 133.5t113.5 106.5h133q-64 -36 -105.5 -98.5t-41.5 -128.5q0 -42 24.5 -66t69.5 -24q54 0 115 24v-107z" />
    <glyph glyph-name="iogonek" unicode="&#x12f;" 
d="M745 142h380v-142h-982v142h422v798h-319v142h499v-940zM545 1292v192h200v-192h-200zM847 -400q-63 -27 -139 -27q-105 0 -158 51t-53 136q0 68 41.5 133.5t113.5 106.5h133q-64 -36 -105.5 -98.5t-41.5 -128.5q0 -42 24.5 -66t69.5 -24q54 0 115 24v-107z" />
    <glyph glyph-name="Jcircumflex" unicode="&#x134;" 
d="M986 420q0 -209 -105 -324.5t-295 -115.5q-171 0 -273 89t-137 281l187 31q18 -118 76.5 -182t147.5 -64q209 0 209 281v777h-311v156h501v-929zM1065 1466v-20h-105l-219 138h-2l-232 -138h-104v20l254 239h164z" />
    <glyph glyph-name="jcircumflex" unicode="&#x135;" 
d="M836 -28q0 -187 -112 -292t-319 -105q-79 0 -161 13t-127 30v140q150 -34 273 -34q128 0 197 66t69 185v965h-407v142h587v-1110zM1048 1221v-20h-105l-219 138h-2l-232 -138h-104v20l254 239h164z" />
    <glyph glyph-name="Kcommaaccent" unicode="&#x136;" 
d="M1003 0l-487 638l-163 -169v-469h-191v1349h191v-673l572 673h225l-504 -572l581 -777h-224zM475 -423v33l79 292h197v-37l-171 -288h-105z" />
    <glyph glyph-name="kcommaaccent" unicode="&#x137;" 
d="M914 0l-366 499l-132 -98v-401h-180v1484h180v-927l475 525h211l-439 -465l462 -617h-211zM475 -423v33l79 292h197v-37l-171 -288h-105z" />
    <glyph glyph-name="kgreenlandic" unicode="&#x138;" 
d="M914 0l-366 494l-132 -98v-396h-180v1082h180v-538l475 538h211l-439 -465l462 -617h-211z" />
    <glyph glyph-name="Lcommaaccent" unicode="&#x13b;" 
d="M237 0v1349h191v-1193h672v-156h-863zM485 -423v33l79 292h197v-37l-171 -288h-105z" />
    <glyph glyph-name="lcommaaccent" unicode="&#x13c;" 
d="M736 142h380v-142h-982v142h422v1200h-289v142h469v-1342zM475 -423v33l79 292h197v-37l-171 -288h-105z" />
    <glyph glyph-name="Ncommaaccent" unicode="&#x145;" 
d="M836 0l-520 1130q16 -172 16 -254v-876h-170v1349h222l528 -1138q-18 144 -18 274v864h172v-1349h-230zM444 -423v33l79 292h197v-37l-171 -288h-105z" />
    <glyph glyph-name="ncommaaccent" unicode="&#x146;" 
d="M868 0v695q0 136 -52.5 202t-167.5 66q-124 0 -203.5 -90.5t-79.5 -245.5v-627h-180v851q0 189 -6 231h170q1 -5 2 -27t2.5 -50.5t3.5 -107.5h3q105 205 346 205q173 0 258 -93.5t85 -287.5v-721h-181zM448 -423v33l79 292h197v-37l-171 -288h-105z" />
    <glyph glyph-name="Eng" unicode="&#x14a;" 
d="M1109 542q0 -301 -81 -431.5t-258 -130.5q-92 0 -157.5 31.5t-127.5 120.5l131 100q43 -60 78 -79.5t81 -19.5q79 0 116 94t37 319v417q0 137 -58 202.5t-182 65.5q-141 0 -232 -91.5t-91 -244.5v-895h-180v1119q0 189 -6 231h170q1 -5 2 -27t2.5 -50.5t3.5 -107.5h3
q106 205 386 205q363 0 363 -381v-447z" />
    <glyph glyph-name="eng" unicode="&#x14b;" 
d="M648 963q-124 0 -203.5 -90.5t-79.5 -245.5v-627h-180v851q0 189 -6 231h170q1 -5 2 -27t2.5 -50.5t3.5 -107.5h3q105 205 346 205q173 0 258 -93.5t85 -287.5v-855q0 -151 -60 -221t-181 -70q-77 0 -127 9v139l62 -6q69 0 97 36t28 140v802q0 136 -52.5 202t-167.5 66z
" />
    <glyph glyph-name="Omacron" unicode="&#x14c;" 
d="M1126 681q0 -337 -132.5 -519t-380.5 -182q-249 0 -380 179t-131 522q0 337 130 513t383 176q247 0 379 -173.5t132 -515.5zM925 681q0 533 -310 533q-312 0 -312 -533q0 -270 79 -408t232 -138q163 0 237 140t74 406zM890 1503h-551v127h551v-127z" />
    <glyph glyph-name="omacron" unicode="&#x14d;" 
d="M1097 542q0 -273 -125.5 -417.5t-362.5 -144.5q-232 0 -355.5 146t-123.5 416q0 279 126.5 419.5t358.5 140.5q244 0 363 -139t119 -421zM908 542q0 215 -68.5 321t-221.5 106q-155 0 -227 -108t-72 -319q0 -210 72 -319.5t216 -109.5q159 0 230 107t71 322zM890 1236
h-551v127h551v-127z" />
    <glyph glyph-name="Obreve" unicode="&#x14e;" 
d="M1126 681q0 -337 -132.5 -519t-380.5 -182q-249 0 -380 179t-131 522q0 337 130 513t383 176q247 0 379 -173.5t132 -515.5zM925 681q0 533 -310 533q-312 0 -312 -533q0 -270 79 -408t232 -138q163 0 237 140t74 406zM613 1446q-124 0 -207.5 71t-104.5 188h127
q17 -63 60 -98t125 -35q85 0 127.5 35t59.5 98h127q-24 -119 -106.5 -189t-207.5 -70z" />
    <glyph glyph-name="obreve" unicode="&#x14f;" 
d="M1097 542q0 -273 -125.5 -417.5t-362.5 -144.5q-232 0 -355.5 146t-123.5 416q0 279 126.5 419.5t358.5 140.5q244 0 363 -139t119 -421zM908 542q0 215 -68.5 321t-221.5 106q-155 0 -227 -108t-72 -319q0 -210 72 -319.5t216 -109.5q159 0 230 107t71 322zM613 1201
q-124 0 -207.5 71t-104.5 188h127q17 -63 60 -98t125 -35q85 0 127.5 35t59.5 98h127q-24 -119 -106.5 -189t-207.5 -70z" />
    <glyph glyph-name="Rcommaaccent" unicode="&#x156;" 
d="M957 0l-366 575h-238v-575h-191v1349h482q233 0 355 -96.5t122 -276.5q0 -149 -93.5 -251t-250.5 -128l400 -597h-220zM929 973q0 223 -304 223h-272v-470h280q143 0 219.5 64t76.5 183zM472 -423v33l79 292h197v-37l-171 -288h-105z" />
    <glyph glyph-name="rcommaaccent" unicode="&#x157;" 
d="M1045 918q-112 19 -212 19q-161 0 -260 -121t-99 -308v-508h-180v701q0 76 -13.5 179t-38.5 202h171q40 -138 48 -250h5q50 112 98 164.5t114 79t161 26.5q104 0 206 -17v-167zM203 -423v33l79 292h197v-37l-171 -288h-105z" />
    <glyph glyph-name="Scircumflex" unicode="&#x15c;" 
d="M1128 370q0 -184 -134.5 -287t-383.5 -103q-457 0 -531 358l185 37q28 -129 116 -187.5t235 -58.5q159 0 241.5 62t82.5 176q0 70 -32.5 114t-85.5 72t-119.5 45.5t-134.5 34.5q-161 42 -229.5 75t-109.5 75.5t-62 97.5t-21 129q0 173 121.5 266.5t348.5 93.5
q212 0 324 -74t156 -250l-188 -33q-24 112 -96 162.5t-197 50.5q-283 0 -283 -213q0 -60 26.5 -97.5t72 -62t106 -40.5t129.5 -34q139 -35 200 -58.5t108.5 -53.5t81.5 -71t53.5 -96t19.5 -130zM949 1466v-20h-105l-219 138h-2l-232 -138h-104v20l254 239h164z" />
    <glyph glyph-name="scircumflex" unicode="&#x15d;" 
d="M1060 309q0 -154 -116.5 -241.5t-322.5 -87.5t-313.5 64.5t-140.5 203.5l159 31q19 -86 81.5 -125.5t213.5 -39.5q270 0 270 171q0 64 -49 103.5t-150 64.5q-264 65 -335 102t-109 92.5t-38 138.5q0 147 106 230t307 83q176 0 281 -66.5t131 -193.5l-162 -20
q-11 72 -71 109t-179 37q-245 0 -245 -151q0 -60 41.5 -96t133.5 -58l119 -31q163 -40 234.5 -79t112.5 -97.5t41 -143.5zM960 1221v-20h-105l-219 138h-2l-232 -138h-104v20l254 239h164z" />
    <glyph glyph-name="Tbar" unicode="&#x166;" 
d="M709 1193v-424h240v-149h-240v-620h-190v620h-240v149h240v424h-443v156h1076v-156h-443z" />
    <glyph glyph-name="tbar" unicode="&#x167;" 
d="M980 647v-132h-432v-227q0 -79 42.5 -117t139.5 -38q134 0 297 34v-137q-169 -46 -335 -46q-162 0 -243 68.5t-81 216.5v246h-168v132h168v293h-168v142h170l58 282h120v-282h432v-142h-432v-293h432z" />
    <glyph glyph-name="Utilde" unicode="&#x168;" 
d="M1085 490q0 -267 -114 -388.5t-366 -121.5q-244 0 -353.5 117.5t-109.5 374.5v877h191v-851q0 -204 58.5 -283.5t212.5 -79.5q161 0 226 82t65 294v838h190v-859zM771 1446q-42 0 -84 18.5t-82 41t-78.5 41t-73.5 18.5q-25 0 -40 -9.5t-25 -27.5t-21 -82h-111
q11 96 34.5 145t64.5 76t104 27q44 0 86 -18.5t82 -41t77 -41t70 -18.5q37 0 57 23.5t30 95.5h112q-16 -138 -65.5 -193t-136.5 -55z" />
    <glyph glyph-name="utilde" unicode="&#x169;" 
d="M365 1082v-686q0 -156 49 -216.5t175 -60.5q129 0 204 88t75 248v627h181v-851q0 -189 6 -231h-170q-1 5 -2 27t-2.5 50.5t-3.5 107.5h-3q-62 -112 -143.5 -158.5t-202.5 -46.5q-178 0 -260.5 88.5t-82.5 292.5v721h180zM771 1201q-42 0 -84 18.5t-82 41t-78.5 41
t-73.5 18.5q-25 0 -40 -9.5t-25 -27.5t-21 -82h-111q11 96 34.5 145t64.5 76t104 27q44 0 86 -18.5t82 -41t77 -41t70 -18.5q37 0 57 23.5t30 95.5h112q-16 -138 -65.5 -193t-136.5 -55z" />
    <glyph glyph-name="Umacron" unicode="&#x16a;" 
d="M1085 490q0 -267 -114 -388.5t-366 -121.5q-244 0 -353.5 117.5t-109.5 374.5v877h191v-851q0 -204 58.5 -283.5t212.5 -79.5q161 0 226 82t65 294v838h190v-859zM890 1503h-551v127h551v-127z" />
    <glyph glyph-name="umacron" unicode="&#x16b;" 
d="M365 1082v-686q0 -156 49 -216.5t175 -60.5q129 0 204 88t75 248v627h181v-851q0 -189 6 -231h-170q-1 5 -2 27t-2.5 50.5t-3.5 107.5h-3q-62 -112 -143.5 -158.5t-202.5 -46.5q-178 0 -260.5 88.5t-82.5 292.5v721h180zM890 1236h-551v127h551v-127z" />
    <glyph glyph-name="Ubreve" unicode="&#x16c;" 
d="M1085 490q0 -267 -114 -388.5t-366 -121.5q-244 0 -353.5 117.5t-109.5 374.5v877h191v-851q0 -204 58.5 -283.5t212.5 -79.5q161 0 226 82t65 294v838h190v-859zM613 1446q-124 0 -207.5 71t-104.5 188h127q17 -63 60 -98t125 -35q85 0 127.5 35t59.5 98h127
q-24 -119 -106.5 -189t-207.5 -70z" />
    <glyph glyph-name="ubreve" unicode="&#x16d;" 
d="M365 1082v-686q0 -156 49 -216.5t175 -60.5q129 0 204 88t75 248v627h181v-851q0 -189 6 -231h-170q-1 5 -2 27t-2.5 50.5t-3.5 107.5h-3q-62 -112 -143.5 -158.5t-202.5 -46.5q-178 0 -260.5 88.5t-82.5 292.5v721h180zM613 1201q-124 0 -207.5 71t-104.5 188h127
q17 -63 60 -98t125 -35q85 0 127.5 35t59.5 98h127q-24 -119 -106.5 -189t-207.5 -70z" />
    <glyph glyph-name="Uogonek" unicode="&#x172;" 
d="M1085 490q0 -267 -114 -388.5t-366 -121.5q-244 0 -353.5 117.5t-109.5 374.5v877h191v-851q0 -204 58.5 -283.5t212.5 -79.5q161 0 226 82t65 294v838h190v-859zM850 -400q-63 -27 -139 -27q-105 0 -158 51t-53 136q0 68 41.5 133.5t113.5 106.5h133
q-64 -36 -105.5 -98.5t-41.5 -128.5q0 -42 24.5 -66t69.5 -24q54 0 115 24v-107z" />
    <glyph glyph-name="uogonek" unicode="&#x173;" 
d="M365 1082v-686q0 -156 49 -216.5t175 -60.5q129 0 204 88t75 248v627h181v-851q0 -189 6 -231h-170q-1 5 -2 27t-2.5 50.5t-3.5 107.5h-3q-62 -112 -143.5 -158.5t-202.5 -46.5q-178 0 -260.5 88.5t-82.5 292.5v721h180zM1080 -400q-63 -27 -139 -27q-105 0 -158 51
t-53 136q0 68 41.5 133.5t113.5 106.5h133q-64 -36 -105.5 -98.5t-41.5 -128.5q0 -42 24.5 -66t69.5 -24q54 0 115 24v-107z" />
    <glyph glyph-name="Wcircumflex" unicode="&#x174;" 
d="M1018 0h-208q-74 276 -112.5 420t-81.5 336q-29 -125 -53.5 -226t-143.5 -530h-208l-211 1349h189l109 -835q16 -131 33 -346q32 138 53.5 228t143.5 535h175q69 -253 108.5 -398t88.5 -365l35 346l104 835h189zM941 1466v-20h-105l-219 138h-2l-232 -138h-104v20
l254 239h164z" />
    <glyph glyph-name="wcircumflex" unicode="&#x175;" 
d="M1018 0h-204l-143 471l-57 202l-39 -139l-168 -534h-203l-183 1082h178l93 -607q33 -264 33 -326q39 160 58 214l135 424h193l130 -425q32 -105 55 -213q0 30 4 75t10 92.5t12 90.5t9 68l101 607h176zM941 1221v-20h-105l-219 138h-2l-232 -138h-104v20l254 239h164z" />
    <glyph glyph-name="Ycircumflex" unicode="&#x176;" 
d="M708 584v-584h-188v584l-484 765h205l374 -611l372 611h205zM941 1466v-20h-105l-219 138h-2l-232 -138h-104v20l254 239h164z" />
    <glyph glyph-name="ycircumflex" unicode="&#x177;" 
d="M292 -425q-74 0 -124 11v135q38 -6 84 -6q79 0 148.5 59t117.5 188l18 49l-470 1071h192l264 -642q91 -224 98 -254l41 110l310 786h190l-456 -1082q-89 -235 -184.5 -330t-228.5 -95zM941 1221v-20h-105l-219 138h-2l-232 -138h-104v20l254 239h164z" />
    <glyph glyph-name="longs" unicode="&#x17f;" 
d="M580 0h-180v1107q0 205 96.5 291t321.5 86q72 0 155.5 -6.5t125.5 -14.5v-145q-30 5 -121.5 11t-138.5 6q-104 0 -157 -23t-77.5 -75t-24.5 -145v-1092z" />
    <glyph glyph-name="Aringacute" unicode="&#x1fa;" 
d="M856 1211q0 -103 -87 -160l459 -1051h-194l-138 323h-563l-137 -323h-196l465 1047q-93 57 -93 164q0 89 66.5 144t175.5 55q111 0 176.5 -55.5t65.5 -143.5zM625 1011h-18l-14 -41q-37 -112 -58 -159l-140 -335h441l-135 335q-66 171 -76 200zM525 1445v20l227 240h197
v-29l-300 -231h-124zM735 1211q0 37 -32.5 60t-88.5 23q-55 0 -88.5 -23t-33.5 -60q0 -38 33.5 -61t88.5 -23q56 0 88.5 23t32.5 61z" />
    <glyph glyph-name="aringacute" unicode="&#x1fb;" 
d="M846 1256q0 -52 -25.5 -97t-78.5 -73q258 -60 258 -348v-466q0 -80 21 -120.5t80 -40.5q26 0 59 7v-112q-68 -16 -139 -16q-100 0 -145.5 52.5t-51.5 164.5h-6q-65 -121 -153.5 -174t-218.5 -53q-158 0 -238 86t-80 236q0 349 454 354l236 4v59q0 131 -53 188.5
t-169 57.5q-118 0 -170 -42t-62 -130l-188 17q36 233 283 280q-49 28 -73 72t-24 94q0 89 66.5 144t175.5 55q111 0 176.5 -55.5t65.5 -143.5zM492 117q96 0 170 46t115 123t41 159v89l-190 -4q-118 -2 -180 -26t-96.5 -73.5t-34.5 -131.5t44.5 -132t130.5 -50zM508 1496v20
l227 189h197v-29l-300 -180h-124zM725 1256q0 37 -32.5 60t-88.5 23q-55 0 -88.5 -23t-33.5 -60q0 -38 33.5 -61t88.5 -23q56 0 88.5 23t32.5 61z" />
    <glyph glyph-name="AEacute" unicode="&#x1fc;" 
d="M646 412h-335l-142 -412h-168l486 1349h667v-152h-337v-430h327v-150h-327v-465h378v-152h-549v412zM646 1202h-73q-4 -16 -42.5 -146t-168.5 -495h284v641zM647 1446v20l227 239h197v-29l-300 -230h-124z" />
    <glyph glyph-name="aeacute" unicode="&#x1fd;" 
d="M679 503v-17q5 -371 185 -371q75 0 119.5 47t60.5 119l138 -45q-68 -256 -314 -256q-121 0 -189.5 55t-102.5 177q-52 -122 -126.5 -177t-171.5 -55q-129 0 -193.5 82t-64.5 240q0 349 330 354l167 4v59q0 135 -32 190.5t-104 55.5q-74 0 -107.5 -40.5t-40.5 -131.5
l-168 17q19 151 96.5 221.5t218.5 70.5q176 0 247 -139q85 139 246 139q166 0 250.5 -141.5t84.5 -433.5v-24h-529zM189 299q0 -82 28.5 -132t85.5 -50q64 0 112 44.5t75 120t27 163.5v89l-122 -4q-79 -2 -119.5 -26t-63.5 -74t-23 -131zM859 969q-82 0 -128.5 -87
t-49.5 -241h361q-9 171 -53 249.5t-130 78.5zM492 1201v20l227 239h197v-29l-300 -230h-124z" />
    <glyph glyph-name="Oslashacute" unicode="&#x1fe;" 
d="M1126 681q0 -337 -132.5 -519t-380.5 -182q-218 0 -346 138l-117 -156l-94 65l141 189q-95 174 -95 465q0 337 130 513t383 176q217 0 345 -134l116 156l94 -65l-140 -187q96 -170 96 -459zM925 681q0 164 -30 278l-512 -686q79 -138 231 -138q163 0 237 140t74 406z
M303 681q0 -166 30 -282l512 684q-77 131 -230 131q-312 0 -312 -533zM502 1446v20l227 239h197v-29l-300 -230h-124z" />
    <glyph glyph-name="oslashacute" unicode="&#x1ff;" 
d="M1117 542q0 -272 -130 -417t-378 -145q-204 0 -331 107l-77 -87l-76 68l84 95q-99 142 -99 379q0 272 128.5 416t376.5 144q213 0 335 -100l72 82l78 -68l-80 -90q97 -137 97 -384zM928 542q0 147 -33 242l-509 -576q77 -95 221 -95q168 0 244.5 106.5t76.5 322.5z
M299 542q0 -146 34 -238l509 576q-75 89 -224 89q-164 0 -241.5 -107.5t-77.5 -319.5zM502 1201v20l227 239h197v-29l-300 -230h-124z" />
    <glyph glyph-name="anoteleia" unicode="&#x387;" 
d="M496 420v299h235v-299h-235z" />
    <glyph glyph-name="Wgrave" unicode="&#x1e80;" 
d="M1018 0h-208q-74 276 -112.5 420t-81.5 336q-29 -125 -53.5 -226t-143.5 -530h-208l-211 1349h189l109 -835q16 -131 33 -346q32 138 53.5 228t143.5 535h175q69 -253 108.5 -398t88.5 -365l35 346l104 835h189zM643 1446l-300 230v29h197l227 -239v-20h-124z" />
    <glyph glyph-name="wgrave" unicode="&#x1e81;" 
d="M1018 0h-204l-143 471l-57 202l-39 -139l-168 -534h-203l-183 1082h178l93 -607q33 -264 33 -326q39 160 58 214l135 424h193l130 -425q32 -105 55 -213q0 30 4 75t10 92.5t12 90.5t9 68l101 607h176zM582 1201l-300 230v29h197l227 -239v-20h-124z" />
    <glyph glyph-name="Wacute" unicode="&#x1e82;" 
d="M1018 0h-208q-74 276 -112.5 420t-81.5 336q-29 -125 -53.5 -226t-143.5 -530h-208l-211 1349h189l109 -835q16 -131 33 -346q32 138 53.5 228t143.5 535h175q69 -253 108.5 -398t88.5 -365l35 346l104 835h189zM505 1446v20l227 239h197v-29l-300 -230h-124z" />
    <glyph glyph-name="wacute" unicode="&#x1e83;" 
d="M1018 0h-204l-143 471l-57 202l-39 -139l-168 -534h-203l-183 1082h178l93 -607q33 -264 33 -326q39 160 58 214l135 424h193l130 -425q32 -105 55 -213q0 30 4 75t10 92.5t12 90.5t9 68l101 607h176zM496 1201v20l227 239h197v-29l-300 -230h-124z" />
    <glyph glyph-name="Wdieresis" unicode="&#x1e84;" 
d="M1018 0h-208q-74 276 -112.5 420t-81.5 336q-29 -125 -53.5 -226t-143.5 -530h-208l-211 1349h189l109 -835q16 -131 33 -346q32 138 53.5 228t143.5 535h175q69 -253 108.5 -398t88.5 -365l35 346l104 835h189zM730 1446v184h163v-184h-163zM336 1446v184h165v-184h-165
z" />
    <glyph glyph-name="wdieresis" unicode="&#x1e85;" 
d="M1018 0h-204l-143 471l-57 202l-39 -139l-168 -534h-203l-183 1082h178l93 -607q33 -264 33 -326q39 160 58 214l135 424h193l130 -425q32 -105 55 -213q0 30 4 75t10 92.5t12 90.5t9 68l101 607h176zM730 1219v184h163v-184h-163zM336 1219v184h165v-184h-165z" />
    <glyph glyph-name="Ygrave" unicode="&#x1ef2;" 
d="M708 584v-584h-188v584l-484 765h205l374 -611l372 611h205zM632 1446l-300 230v29h197l227 -239v-20h-124z" />
    <glyph glyph-name="ygrave" unicode="&#x1ef3;" 
d="M292 -425q-74 0 -124 11v135q38 -6 84 -6q79 0 148.5 59t117.5 188l18 49l-470 1071h192l264 -642q91 -224 98 -254l41 110l310 786h190l-456 -1082q-89 -235 -184.5 -330t-228.5 -95zM643 1201l-300 230v29h197l227 -239v-20h-124z" />
    <glyph glyph-name="quotereversed" unicode="&#x201b;" 
d="M709 862l-311 622h265l169 -622h-123z" />
    <glyph glyph-name="uni203E" unicode="&#x203e;" 
d="M-5 1452v96h1238v-96h-1238z" />
    <glyph glyph-name="lira" unicode="&#x20a4;" 
d="M1126 311q-17 -150 -105 -230.5t-232 -80.5h-698v154q103 54 139 115.5t36 168.5v25h-186v142h186v152h-186v141h186v76q0 195 103 295.5t299 100.5q147 0 247 -60.5t134 -169.5l-174 -57q-20 63 -75.5 101t-127.5 38q-114 0 -170 -57.5t-56 -182.5v-84h408v-141h-408
v-152h408v-142h-408v-7q0 -215 -169 -303h483q174 0 203 176z" />
    <glyph glyph-name="estimated" unicode="&#x212e;" 
d="M626 -34q-158 0 -278 72.5t-186.5 204t-66.5 288.5q0 166 67 293.5t190.5 199.5t273.5 72q152 0 273.5 -71t188.5 -200t67 -294h-827v-356q50 -54 131.5 -89t166.5 -35q132 0 224.5 54t170.5 180l72 -42q-98 -155 -208 -216t-259 -61zM924 616v277q-51 53 -132 85.5
t-168 32.5q-179 0 -296 -117v-278h596z" />
    <glyph glyph-name="oneeighth" unicode="&#x215b;" 
d="M37 589v107h135v513q-20 -39 -73 -67t-98 -28v119q50 0 102 31.5t79 84.5h121v-653h116v-107h-382zM301 0h-118l703 1349h115zM1064 564q0 60 -23 84.5t-74 24.5q-56 0 -76 -29.5t-20 -79.5q0 -56 25.5 -85t71.5 -29q47 0 71.5 26t24.5 88zM1085 221q0 128 -118 128
q-58 0 -86.5 -31t-28.5 -97q0 -132 118 -132q58 0 86.5 29.5t28.5 102.5zM1219 212q0 -108 -63 -166t-187 -58q-122 0 -186.5 57.5t-64.5 166.5q0 147 121 185v3q-101 49 -101 176q0 89 61.5 143t167.5 54q110 0 170.5 -53t60.5 -145q0 -128 -102 -174v-3q66 -19 94.5 -64
t28.5 -122z" />
    <glyph glyph-name="threeeighths" unicode="&#x215c;" 
d="M524 794q0 -101 -69 -162t-188 -61q-107 0 -175 56t-83 156l136 13q9 -60 41.5 -90.5t80.5 -30.5q54 0 87 30t33 95q0 120 -149 120h-41v109h37q68 0 100 28.5t32 94.5q0 53 -27 78t-68 25q-45 0 -78 -31.5t-39 -88.5l-135 12q13 100 80 157t172 57q109 0 170.5 -55
t61.5 -147q0 -66 -33.5 -108.5t-102.5 -68.5v-2q82 -18 119.5 -68t37.5 -118zM318 0h-118l703 1349h115zM1064 564q0 60 -23 84.5t-74 24.5q-56 0 -76 -29.5t-20 -79.5q0 -56 25.5 -85t71.5 -29q47 0 71.5 26t24.5 88zM1085 221q0 128 -118 128q-58 0 -86.5 -31t-28.5 -97
q0 -132 118 -132q58 0 86.5 29.5t28.5 102.5zM1219 212q0 -108 -63 -166t-187 -58q-122 0 -186.5 57.5t-64.5 166.5q0 147 121 185v3q-101 49 -101 176q0 89 61.5 143t167.5 54q110 0 170.5 -53t60.5 -145q0 -128 -102 -174v-3q66 -19 94.5 -64t28.5 -122z" />
    <glyph glyph-name="fiveeighths" unicode="&#x215d;" 
d="M540 835q0 -122 -65.5 -187.5t-183.5 -65.5q-219 0 -254 191l133 15q11 -54 39.5 -77.5t78.5 -23.5q117 0 117 148q0 136 -116 136q-40 0 -65 -15t-46 -45h-129l33 438h426v-113h-318l-19 -215q52 59 134 59q112 0 173.5 -63t61.5 -182zM330 0h-118l703 1349h115z
M1064 564q0 60 -23 84.5t-74 24.5q-56 0 -76 -29.5t-20 -79.5q0 -56 25.5 -85t71.5 -29q47 0 71.5 26t24.5 88zM1085 221q0 128 -118 128q-58 0 -86.5 -31t-28.5 -97q0 -132 118 -132q58 0 86.5 29.5t28.5 102.5zM1219 212q0 -108 -63 -166t-187 -58q-122 0 -186.5 57.5
t-64.5 166.5q0 147 121 185v3q-101 49 -101 176q0 89 61.5 143t167.5 54q110 0 170.5 -53t60.5 -145q0 -128 -102 -174v-3q66 -19 94.5 -64t28.5 -122z" />
    <glyph glyph-name="seveneighths" unicode="&#x215e;" 
d="M576 1248q-124 -172 -170.5 -264t-68 -186.5t-21.5 -208.5h-133q0 164 56.5 306.5t207.5 340.5h-390v113h519v-101zM247 0h-118l703 1349h115zM1032 564q0 60 -23 84.5t-74 24.5q-56 0 -76 -29.5t-20 -79.5q0 -56 25.5 -85t71.5 -29q47 0 71.5 26t24.5 88zM1053 221
q0 128 -118 128q-58 0 -86.5 -31t-28.5 -97q0 -132 118 -132q58 0 86.5 29.5t28.5 102.5zM1187 212q0 -108 -63 -166t-187 -58q-122 0 -186.5 57.5t-64.5 166.5q0 147 121 185v3q-101 49 -101 176q0 89 61.5 143t167.5 54q110 0 170.5 -53t60.5 -145q0 -128 -102 -174v-3
q66 -19 94.5 -64t28.5 -122z" />
    <glyph glyph-name="undercommaaccent" 
d="M475 -423v33l79 292h197v-37l-171 -288h-105z" />
    <glyph glyph-name="tonos" unicode="&#x384;" 
d="M475 1201v33l79 292h197v-37l-171 -288h-105z" />
    <glyph glyph-name="dieresistonos" unicode="&#x385;" 
d="M521 1201v33l54 367h197v-37l-146 -363h-105zM775 1219v184h143v-184h-143zM311 1219v184h145v-184h-145z" />
    <glyph glyph-name="Alphatonos" unicode="&#x386;" 
d="M1034 0l-138 382h-563l-137 -382h-196l510 1349h217l501 -1349h-194zM616 1205l-12 -39l-69 -212l-151 -423h463l-173 500zM1 1025v33l79 292h197v-37l-171 -288h-105z" />
    <glyph glyph-name="Epsilontonos" unicode="&#x388;" 
d="M259 0v1349h919v-156h-728v-422h668v-154h-668v-461h769v-156h-960zM-49 1025v33l79 292h197v-37l-171 -288h-105z" />
    <glyph glyph-name="Etatonos" unicode="&#x389;" 
d="M943 0v623h-424v-623h-191v1349h191v-566h424v566h186v-1349h-186zM0 1024v33l79 292h197v-37l-171 -288h-105z" />
    <glyph glyph-name="Iotatonos" unicode="&#x38a;" 
d="M329 1349h823v-156h-316v-1037h316v-156h-823v156h316v1037h-316v156zM1 1025v33l79 292h197v-37l-171 -288h-105z" />
    <glyph glyph-name="Omicrontonos" unicode="&#x38c;" 
d="M1196 681q0 -337 -132.5 -519t-380.5 -182q-249 0 -380 179t-131 522q0 337 130 513t383 176q247 0 379 -173.5t132 -515.5zM995 681q0 533 -310 533q-312 0 -312 -533q0 -270 79 -408t232 -138q163 0 237 140t74 406zM-49 1025v33l79 292h197v-37l-171 -288h-105z" />
    <glyph glyph-name="Upsilontonos" unicode="&#x38e;" 
d="M845 584v-584h-188v584l-354 765h201l248 -601l246 601h201zM0 1024v33l79 292h197v-37l-171 -288h-105z" />
    <glyph glyph-name="Omegatonos" unicode="&#x38f;" 
d="M653 1370q227 0 364.5 -164t137.5 -435q0 -203 -82.5 -363.5t-234.5 -262.5q95 11 141 11h200v-156h-463v224q124 91 184 218t60 316q0 215 -79 335.5t-227 120.5t-228 -119.5t-80 -336.5q0 -189 60 -315.5t184 -218.5v-224h-463v156h200q46 0 141 -11
q-152 101 -234.5 261.5t-82.5 364.5q0 177 63 314t177 211t262 74zM-50 1024v33l79 292h197v-37l-171 -288h-105z" />
    <glyph glyph-name="iotadieresistonos" unicode="&#x390;" 
d="M648 346q0 -111 40 -161.5t124 -50.5q110 0 211 106l94 -120q-127 -140 -306 -140q-177 0 -260 88.5t-83 280.5v591h-319v142h499v-736zM508 1201v33l54 367h197v-37l-146 -363h-105zM762 1219v184h143v-184h-143zM298 1219v184h145v-184h-145z" />
    <glyph glyph-name="Alpha" unicode="&#x391;" 
d="M1034 0l-138 382h-563l-137 -382h-196l510 1349h217l501 -1349h-194zM616 1205l-12 -39l-69 -212l-151 -423h463l-173 500z" />
    <glyph glyph-name="Beta" unicode="&#x392;" 
d="M1152 380q0 -180 -137 -280t-381 -100h-472v1349h412q496 0 496 -327q0 -122 -72 -204t-196 -107q167 -18 258.5 -107t91.5 -224zM878 998q0 107 -75.5 152.5t-226.5 45.5h-223v-416h225q300 0 300 218zM959 397q0 114 -89 174t-265 60h-252v-478h266q175 0 257.5 60.5
t82.5 183.5z" />
    <glyph glyph-name="Delta" unicode="&#x394;" 
d="M12 0v145l477 1204h244l483 -1202v-147h-1204zM612 1214q-3 -10 -34.5 -102.5t-55 -153t-318.5 -802.5h820l-314 781q-51 131 -87 246z" />
    <glyph glyph-name="Epsilon" unicode="&#x395;" 
d="M162 0v1349h919v-156h-728v-422h668v-154h-668v-461h769v-156h-960z" />
    <glyph glyph-name="Zeta" unicode="&#x396;" 
d="M1155 0h-1082v143l818 1050h-745v156h962v-139l-818 -1054h865v-156z" />
    <glyph glyph-name="Eta" unicode="&#x397;" 
d="M875 0v623h-522v-623h-191v1349h191v-566h522v566h191v-1349h-191z" />
    <glyph glyph-name="Iota" unicode="&#x399;" 
d="M202 1349h823v-156h-316v-1037h316v-156h-823v156h316v1037h-316v156z" />
    <glyph glyph-name="Kappa" unicode="&#x39a;" 
d="M1003 0l-487 638l-163 -169v-469h-191v1349h191v-673l572 673h225l-504 -572l581 -777h-224z" />
    <glyph glyph-name="Lambda" unicode="&#x39b;" 
d="M1218 0h-201l-318 902q-48 144 -84 279q-53 -193 -84 -279l-320 -902h-201l505 1349h198z" />
    <glyph glyph-name="Mu" unicode="&#x39c;" 
d="M937 0v868q0 135 3 201l3 100q-64 -206 -95 -291l-164 -438h-137l-166 438q-18 46 -96 291l4 -301v-868h-160v1349h237l185 -489q21 -53 68 -231l26 90l44 140l185 490h225v-1349h-162z" />
    <glyph glyph-name="Nu" unicode="&#x39d;" 
d="M836 0l-520 1130q16 -172 16 -254v-876h-170v1349h222l528 -1138q-18 144 -18 274v864h172v-1349h-230z" />
    <glyph glyph-name="Xi" unicode="&#x39e;" 
d="M155 1193v156h919v-156h-919zM135 0v156h959v-156h-959zM949 771v-154h-669v154h669z" />
    <glyph glyph-name="Omicron" unicode="&#x39f;" 
d="M1126 681q0 -337 -132.5 -519t-380.5 -182q-249 0 -380 179t-131 522q0 337 130 513t383 176q247 0 379 -173.5t132 -515.5zM925 681q0 533 -310 533q-312 0 -312 -533q0 -270 79 -408t232 -138q163 0 237 140t74 406z" />
    <glyph glyph-name="Pi" unicode="&#x3a0;" 
d="M163 0v1349h903v-1349h-191v1193h-521v-1193h-191z" />
    <glyph glyph-name="Rho" unicode="&#x3a1;" 
d="M1119 945q0 -125 -59.5 -223t-170 -153t-255.5 -55h-281v-514h-191v1349h460q238 0 367.5 -106.5t129.5 -297.5zM927 942q0 254 -328 254h-246v-531h254q149 0 234.5 73t85.5 204z" />
    <glyph glyph-name="Sigma" unicode="&#x3a3;" 
d="M108 0v162l538 549l-521 477v161h999v-156h-784l458 -415v-124l-490 -498h877v-156h-1077z" />
    <glyph glyph-name="Tau" unicode="&#x3a4;" 
d="M709 1193v-1193h-190v1193h-443v156h1076v-156h-443z" />
    <glyph glyph-name="Upsilon" unicode="&#x3a5;" 
d="M708 584v-584h-188v584l-484 765h205l374 -611l372 611h205z" />
    <glyph glyph-name="Chi" unicode="&#x3a7;" 
d="M614 836l333 513h205l-435 -644l476 -705h-205l-374 573l-373 -573h-205l476 705l-435 644h205z" />
    <glyph glyph-name="Psi" unicode="&#x3a8;" 
d="M537 0v397h-58q-203 0 -316.5 139.5t-113.5 379.5v433h161v-437q0 -182 72 -280.5t204 -98.5h51v816h155v-816h51q133 0 204.5 100t71.5 279v437h161v-433q0 -240 -114 -379.5t-316 -139.5h-58v-397h-155z" />
    <glyph glyph-name="Omega" unicode="&#x3a9;" 
d="M615 1370q245 0 388.5 -162t143.5 -437q0 -189 -87 -353.5t-250 -272.5q117 11 161 11h200v-156h-483v224q134 98 199 230t65 304q0 224 -86 340t-250 116q-168 0 -253 -118t-85 -338q0 -173 65.5 -304.5t198.5 -229.5v-224h-483v156h200q44 0 161 -11
q-163 109 -250 273.5t-87 352.5q0 276 143.5 437.5t388.5 161.5z" />
    <glyph glyph-name="Iotadieresis" unicode="&#x3aa;" 
d="M202 1349h823v-156h-316v-1037h316v-156h-823v156h316v1037h-316v156zM731 1486v184h163v-184h-163zM337 1486v184h165v-184h-165z" />
    <glyph glyph-name="Upsilondieresis" unicode="&#x3ab;" 
d="M708 584v-584h-188v584l-484 765h205l374 -611l372 611h205zM747 1486v184h163v-184h-163zM353 1486v184h165v-184h-165z" />
    <glyph glyph-name="alphatonos" unicode="&#x3ac;" 
d="M886 237q-115 -257 -359 -257q-205 0 -301.5 138t-96.5 418q0 284 108.5 425t317.5 141q126 0 215.5 -67t134.5 -188h2q23 119 73 235h188q-50 -106 -92 -259.5t-50 -251.5q5 -160 34.5 -314t76.5 -257h-183q-24 61 -41.5 132.5t-22.5 104.5h-4zM318 542
q0 -222 57 -322.5t189 -100.5q120 0 202.5 115.5t108.5 311.5q-29 211 -105 317t-195 106q-136 0 -196.5 -100.5t-60.5 -326.5zM535 1201v33l79 292h197v-37l-171 -288h-105z" />
    <glyph glyph-name="epsilontonos" unicode="&#x3ad;" 
d="M621 114q108 0 203.5 42t159.5 119l105 -100q-80 -97 -202.5 -146t-277.5 -49q-214 0 -324 82t-110 233q0 108 77.5 183t196.5 86v2q-107 13 -174 81t-67 166q0 133 116 211t312 78q148 0 253.5 -43t172.5 -142l-128 -88q-47 71 -119.5 105t-177.5 34
q-128 0 -187.5 -42.5t-59.5 -116.5q0 -88 95.5 -132t332.5 -44v-135q-256 0 -356 -49.5t-100 -150.5q0 -91 66 -137.5t193 -46.5zM555 1201v33l79 292h197v-37l-171 -288h-105z" />
    <glyph glyph-name="etatonos" unicode="&#x3ae;" 
d="M868 -425v1120q0 136 -52.5 202t-167.5 66q-124 0 -203.5 -90.5t-79.5 -245.5v-627h-180v851q0 189 -6 231h170q1 -5 2 -27t2.5 -50.5t3.5 -107.5h3q105 205 346 205q173 0 258 -93.5t85 -287.5v-1146h-181zM555 1201v33l79 292h197v-37l-171 -288h-105z" />
    <glyph glyph-name="iotatonos" unicode="&#x3af;" 
d="M648 346q0 -111 40 -161.5t124 -50.5q110 0 211 106l94 -120q-127 -140 -306 -140q-177 0 -260 88.5t-83 280.5v591h-319v142h499v-736zM505 1201v33l79 292h197v-37l-171 -288h-105z" />
    <glyph glyph-name="upsilondieresistonos" unicode="&#x3b0;" 
d="M1092 571q0 -286 -125 -438.5t-360 -152.5q-227 0 -335.5 108t-108.5 331v663h181v-669q0 -294 271 -294q152 0 222 107.5t70 340.5q0 130 -36.5 283.5t-77.5 231.5h188q53 -118 82 -256t29 -255zM506 1201v33l54 367h197v-37l-146 -363h-105zM760 1219v184h143v-184
h-143zM296 1219v184h145v-184h-145z" />
    <glyph glyph-name="beta" unicode="&#x3b2;" 
d="M1127 405q0 -198 -118.5 -311.5t-338.5 -113.5q-183 0 -318 94h-6q6 -114 6 -202v-297h-180v1452q0 237 114 347t340 110q197 0 301.5 -91.5t104.5 -257.5q0 -253 -223 -340q148 -29 233 -131t85 -259zM859 1133q0 98 -60.5 154t-170.5 56q-147 0 -211.5 -77.5
t-64.5 -244.5v-816q64 -43 146.5 -67.5t163.5 -24.5q141 0 217 77t76 212q0 143 -103 222t-300 79v142q151 11 229 84t78 204z" />
    <glyph glyph-name="gamma" unicode="&#x3b3;" 
d="M255 1082l271 -657q13 -32 50 -134t41 -120q6 21 33 92t321 819h197l-437 -1029q-69 -182 -105 -477h-191q25 192 89 435l-471 1071h202z" />
    <glyph glyph-name="zeta" unicode="&#x3b6;" 
d="M375 379q0 -78 57.5 -127.5t172.5 -73.5l124 -29q153 -35 227.5 -71t110 -85.5t35.5 -113.5q0 -101 -83 -242l-126 56q23 31 39 72t16 69q0 51 -67 88t-246 72q-174 35 -266.5 82.5t-138.5 119.5t-46 165q0 189 167 427t533 554v6q-72 -6 -157 -6h-462v142h802v-138
q-268 -243 -412 -413t-212 -306.5t-68 -247.5z" />
    <glyph glyph-name="eta" unicode="&#x3b7;" 
d="M868 -425v1120q0 136 -52.5 202t-167.5 66q-124 0 -203.5 -90.5t-79.5 -245.5v-627h-180v851q0 189 -6 231h170q1 -5 2 -27t2.5 -50.5t3.5 -107.5h3q105 205 346 205q173 0 258 -93.5t85 -287.5v-1146h-181z" />
    <glyph glyph-name="theta" unicode="&#x3b8;" 
d="M1078 733q0 -381 -120 -567t-348 -186q-224 0 -341.5 190.5t-117.5 562.5q0 750 465 750q239 0 350.5 -184.5t111.5 -565.5zM608 113q143 0 209 136.5t71 423.5h-547q5 -276 69.5 -418t197.5 -142zM619 1354q-142 0 -207 -133.5t-71 -416.5h547q-5 283 -67.5 416.5
t-201.5 133.5z" />
    <glyph glyph-name="iota" unicode="&#x3b9;" 
d="M648 346q0 -111 40 -161.5t124 -50.5q110 0 211 106l94 -120q-127 -140 -306 -140q-177 0 -260 88.5t-83 280.5v591h-319v142h499v-736z" />
    <glyph glyph-name="kappa" unicode="&#x3ba;" 
d="M914 0l-366 494l-132 -98v-396h-180v1082h180v-538l475 538h211l-439 -465l462 -617h-211z" />
    <glyph glyph-name="lambda" unicode="&#x3bb;" 
d="M563 965q-86 236 -112.5 286t-55.5 69.5t-79 19.5q-30 0 -81 -12l-35 132q27 8 76 16t85 8q75 0 125 -28t92 -93.5t101 -221.5l427 -1141h-190l-207 577q-10 27 -33.5 102.5t-31.5 111.5q-30 -90 -86 -216l-257 -575h-187z" />
    <glyph glyph-name="mu" unicode="&#x3bc;" 
d="M156 -425v1507h181v-686q0 -138 53.5 -207.5t172.5 -69.5q128 0 201 87t73 249v627h180v-816q0 -75 17.5 -110t60.5 -35q25 0 54 8v-129q-65 -20 -113 -20q-91 0 -138.5 47t-52.5 147h-3q-106 -194 -299 -194q-67 0 -121.5 20.5t-85.5 58.5v-484h-180z" />
    <glyph glyph-name="nu" unicode="&#x3bd;" 
d="M1078 846q0 -179 -106 -400t-300 -446h-170l-410 1082h189l331 -928q149 185 217.5 352.5t68.5 330.5q0 135 -49 245h177q52 -97 52 -236z" />
    <glyph glyph-name="xi" unicode="&#x3be;" 
d="M191 354q0 116 60.5 211.5t175 159t275.5 85.5v2q-177 11 -275.5 82.5t-98.5 187.5q0 106 72.5 170t230.5 90v8l-28 -1l-256 -7h-94v142h734v-136q-259 -31 -370 -91.5t-111 -156.5q0 -97 98.5 -151.5t339.5 -71.5v-131q-251 -30 -406.5 -126.5t-155.5 -240.5
q0 -79 56 -130t166 -78l122 -30q148 -36 207 -67t92.5 -78t33.5 -117q0 -96 -83 -237l-126 56q23 31 39 72t16 69q0 55 -59.5 90t-213.5 65q-170 34 -261.5 81t-135.5 117.5t-44 161.5z" />
    <glyph glyph-name="omicron" unicode="&#x3bf;" 
d="M1097 542q0 -273 -125.5 -417.5t-362.5 -144.5q-232 0 -355.5 146t-123.5 416q0 279 126.5 419.5t358.5 140.5q244 0 363 -139t119 -421zM908 542q0 215 -68.5 321t-221.5 106q-155 0 -227 -108t-72 -319q0 -210 72 -319.5t216 -109.5q159 0 230 107t71 322z" />
    <glyph glyph-name="rho" unicode="&#x3c1;" 
d="M1108 516q0 -238 -121.5 -387t-315.5 -149q-107 0 -186.5 32.5t-147.5 110.5h-4q4 -60 4 -123v-425h-180v1006q0 245 121 383.5t334 138.5q142 0 256 -72.5t177 -207t63 -307.5zM915 524q0 209 -85.5 327.5t-229.5 118.5q-263 0 -263 -393v-317q59 -72 142 -109.5
t169 -37.5q127 0 197 106t70 305z" />
    <glyph glyph-name="sigma1" unicode="&#x3c2;" 
d="M688 961q-150 0 -235.5 -140t-85.5 -356q0 -82 30.5 -135.5t100 -94t223.5 -86.5q57 -17 117.5 -36t110.5 -49t82.5 -75t32.5 -113q0 -44 -18 -98.5t-65 -133.5l-126 56q23 31 39 72t16 69q0 34 -26 59.5t-79 47.5t-178 54q-189 48 -277.5 103.5t-131 140t-42.5 212.5
q0 176 69 332.5t182.5 234t260.5 77.5q113 0 205.5 -39t154.5 -113l-113 -114q-115 125 -247 125z" />
    <glyph glyph-name="upsilon" unicode="&#x3c5;" 
d="M1092 571q0 -286 -125 -438.5t-360 -152.5q-227 0 -335.5 108t-108.5 331v663h181v-669q0 -294 271 -294q152 0 222 107.5t70 340.5q0 130 -36.5 283.5t-77.5 231.5h188q53 -118 82 -256t29 -255z" />
    <glyph glyph-name="chi" unicode="&#x3c7;" 
d="M627 239l-363 -663h-188l470 825l-190 343q-59 107 -106 163t-98 56q-31 0 -60 -15l-34 131q55 25 128 25q90 0 152 -55t147 -211l162 -295l294 539h187l-398 -697l436 -809h-190z" />
    <glyph glyph-name="psi" unicode="&#x3c8;" 
d="M692 114q161 2 223.5 76t62.5 246v646h159v-644q0 -243 -104 -349.5t-341 -108.5v-405h-160v405q-236 2 -340 108.5t-104 349.5v644h161v-646q0 -171 61.5 -244t221.5 -78v1226h160v-1226z" />
    <glyph glyph-name="omega" unicode="&#x3c9;" 
d="M695 449q0 -154 46 -245t119 -91q71 0 108.5 104.5t37.5 294.5q0 194 -51.5 312.5t-148.5 144.5l31 134q156 -32 248 -193.5t92 -392.5q0 -248 -81 -392.5t-223 -144.5q-100 0 -166 73.5t-90 193.5h-4q-24 -121 -90.5 -194t-165.5 -73q-141 0 -222.5 144t-81.5 393
q0 230 91.5 391.5t248.5 194.5l31 -134q-97 -26 -148.5 -142t-51.5 -315q0 -189 37.5 -294t108.5 -105q75 0 120.5 91.5t45.5 244.5v252h159v-252z" />
    <glyph glyph-name="iotadieresis" unicode="&#x3ca;" 
d="M648 346q0 -111 40 -161.5t124 -50.5q110 0 211 106l94 -120q-127 -140 -306 -140q-177 0 -260 88.5t-83 280.5v591h-319v142h499v-736zM701 1219v184h163v-184h-163zM307 1219v184h165v-184h-165z" />
    <glyph glyph-name="upsilondieresis" unicode="&#x3cb;" 
d="M1092 571q0 -286 -125 -438.5t-360 -152.5q-227 0 -335.5 108t-108.5 331v663h181v-669q0 -294 271 -294q152 0 222 107.5t70 340.5q0 130 -36.5 283.5t-77.5 231.5h188q53 -118 82 -256t29 -255zM701 1219v184h163v-184h-163zM307 1219v184h165v-184h-165z" />
    <glyph glyph-name="omicrontonos" unicode="&#x3cc;" 
d="M1097 542q0 -273 -125.5 -417.5t-362.5 -144.5q-232 0 -355.5 146t-123.5 416q0 279 126.5 419.5t358.5 140.5q244 0 363 -139t119 -421zM908 542q0 215 -68.5 321t-221.5 106q-155 0 -227 -108t-72 -319q0 -210 72 -319.5t216 -109.5q159 0 230 107t71 322zM535 1201v33
l79 292h197v-37l-171 -288h-105z" />
    <glyph glyph-name="upsilontonos" unicode="&#x3cd;" 
d="M1092 571q0 -286 -125 -438.5t-360 -152.5q-227 0 -335.5 108t-108.5 331v663h181v-669q0 -294 271 -294q152 0 222 107.5t70 340.5q0 130 -36.5 283.5t-77.5 231.5h188q53 -118 82 -256t29 -255zM495 1201v33l79 292h197v-37l-171 -288h-105z" />
    <glyph glyph-name="omegatonos" unicode="&#x3ce;" 
d="M695 449q0 -154 46 -245t119 -91q71 0 108.5 104.5t37.5 294.5q0 194 -51.5 312.5t-148.5 144.5l31 134q156 -32 248 -193.5t92 -392.5q0 -248 -81 -392.5t-223 -144.5q-100 0 -166 73.5t-90 193.5h-4q-24 -121 -90.5 -194t-165.5 -73q-141 0 -222.5 144t-81.5 393
q0 230 91.5 391.5t248.5 194.5l31 -134q-97 -26 -148.5 -142t-51.5 -315q0 -189 37.5 -294t108.5 -105q75 0 120.5 91.5t45.5 244.5v252h159v-252zM520 1201v33l79 292h197v-37l-171 -288h-105z" />
    <glyph glyph-name="uni0401" unicode="&#x401;" 
d="M162 0v1349h919v-156h-728v-422h668v-154h-668v-461h769v-156h-960zM749 1445v184h163v-184h-163zM355 1445v184h165v-184h-165z" />
    <glyph glyph-name="uni0402" unicode="&#x402;" 
d="M869 -20q-78 0 -143 40t-98 102l101 114q29 -51 61.5 -76.5t77.5 -25.5q44 0 74 51t30 161v199q0 122 -40 176.5t-136 54.5q-115 0 -312 -50v-726h-190v1193h-294v156h823v-156h-339v-322q129 36 196.5 47.5t123.5 11.5q182 0 270 -88.5t88 -276.5v-224q0 -171 -77 -266
t-216 -95z" />
    <glyph glyph-name="uni0403" unicode="&#x403;" 
d="M415 0h-191v1349h891v-156h-700v-1193zM522 1446v20l227 239h197v-29l-300 -230h-124z" />
    <glyph glyph-name="uni0404" unicode="&#x404;" 
d="M315 609q21 -474 346 -474q101 0 183 68.5t139 213.5l159 -65q-149 -372 -483 -372q-263 0 -404.5 181t-141.5 520q0 689 536 689q339 0 466 -335l-168 -65q-37 113 -115.5 178.5t-181.5 65.5q-160 0 -242.5 -113.5t-92.5 -346.5h427v-145h-427z" />
    <glyph glyph-name="uni0405" unicode="&#x405;" 
d="M1128 370q0 -184 -134.5 -287t-383.5 -103q-457 0 -531 358l185 37q28 -129 116 -187.5t235 -58.5q159 0 241.5 62t82.5 176q0 70 -32.5 114t-85.5 72t-119.5 45.5t-134.5 34.5q-161 42 -229.5 75t-109.5 75.5t-62 97.5t-21 129q0 173 121.5 266.5t348.5 93.5
q212 0 324 -74t156 -250l-188 -33q-24 112 -96 162.5t-197 50.5q-283 0 -283 -213q0 -60 26.5 -97.5t72 -62t106 -40.5t129.5 -34q139 -35 200 -58.5t108.5 -53.5t81.5 -71t53.5 -96t19.5 -130z" />
    <glyph glyph-name="uni0406" unicode="&#x406;" 
d="M202 1349h823v-156h-316v-1037h316v-156h-823v156h316v1037h-316v156z" />
    <glyph glyph-name="uni0407" unicode="&#x407;" 
d="M202 1349h823v-156h-316v-1037h316v-156h-823v156h316v1037h-316v156zM730 1445v184h163v-184h-163zM336 1445v184h165v-184h-165z" />
    <glyph glyph-name="uni0408" unicode="&#x408;" 
d="M986 420q0 -209 -105 -324.5t-295 -115.5q-171 0 -273 89t-137 281l187 31q18 -118 76.5 -182t147.5 -64q209 0 209 281v777h-311v156h501v-929z" />
    <glyph glyph-name="uni0409" unicode="&#x409;" 
d="M1201 393q0 -173 -102 -283t-263 -110h-225v1209h-181l-29 -428q-22 -338 -53.5 -502.5t-89 -229.5t-177.5 -65q-53 0 -81 10v132q19 -7 51 -7q58 0 86.5 32.5t48 112t35.5 218t70 867.5h491v-576h42q171 0 274 -102.5t103 -277.5zM1039 391q0 108 -59 175t-149 67h-49
v-492h57q90 0 145 68t55 182z" />
    <glyph glyph-name="uni040A" unicode="&#x40a;" 
d="M732 1349v-576h92q171 0 274 -102.5t103 -277.5q0 -173 -102 -283t-263 -110h-275v633h-329v-633h-161v1349h161v-576h329v576h171zM1039 391q0 108 -59 175t-149 67h-99v-492h107q90 0 145 68t55 182z" />
    <glyph glyph-name="uni040B" unicode="&#x40b;" 
d="M972 0v545q0 122 -40 176.5t-136 54.5q-115 0 -312 -50v-726h-190v1193h-294v156h823v-156h-339v-322q129 36 196.5 47.5t123.5 11.5q182 0 270 -88.5t88 -276.5v-565h-190z" />
    <glyph glyph-name="uni040C" unicode="&#x40c;" 
d="M168 1349h191v-589q93 0 172 50.5t152 159.5l251 379h202l-296 -430q-41 -60 -77 -101.5t-91 -82.5l509 -735h-222l-427 647q-36 -15 -87 -26.5t-86 -11.5v-609h-191v1349zM489 1446v20l227 239h197v-29l-300 -230h-124z" />
    <glyph glyph-name="uni040E" unicode="&#x40e;" 
d="M272 -20q-62 0 -129.5 19t-113.5 51l81 144q94 -59 166 -59q38 0 67 10t56 36.5t55.5 70.5t103.5 188l-538 909h215l417 -739l349 739h205l-532 -1031q-78 -152 -132 -216t-116.5 -93t-153.5 -29zM628 1445q-358 0 -367 260h164q5 -77 51 -113t152 -36q105 0 151.5 36
t51.5 113h164q-9 -260 -367 -260z" />
    <glyph glyph-name="uni040F" unicode="&#x40f;" 
d="M524 -425v425h-368v1349h191v-1189h534v1189h191v-1349h-368v-425h-180z" />
    <glyph glyph-name="uni0410" unicode="&#x410;" 
d="M1034 0l-138 382h-563l-137 -382h-196l510 1349h217l501 -1349h-194zM616 1205l-12 -39l-69 -212l-151 -423h463l-173 500z" />
    <glyph glyph-name="uni0411" unicode="&#x411;" 
d="M1172 393q0 -183 -127.5 -288t-357.5 -105h-525v1349h918v-156h-727v-410h322q242 0 369.5 -102t127.5 -288zM980 387q0 121 -82 178.5t-246 57.5h-299v-472h307q164 0 242 56t78 180z" />
    <glyph glyph-name="uni0412" unicode="&#x412;" 
d="M1152 380q0 -180 -137 -280t-381 -100h-472v1349h412q496 0 496 -327q0 -122 -72 -204t-196 -107q167 -18 258.5 -107t91.5 -224zM878 998q0 107 -75.5 152.5t-226.5 45.5h-223v-416h225q300 0 300 218zM959 397q0 114 -89 174t-265 60h-252v-478h266q175 0 257.5 60.5
t82.5 183.5z" />
    <glyph glyph-name="uni0413" unicode="&#x413;" 
d="M415 0h-191v1349h891v-156h-700v-1193z" />
    <glyph glyph-name="uni0414" unicode="&#x414;" 
d="M1024 150h175v-558h-160v408h-874v-408h-160v558h119q93 116 145.5 280.5t83.5 408.5l67 510h604v-1199zM858 1199h-295l-49 -378q-33 -243 -77.5 -398.5t-117.5 -272.5h539v1049z" />
    <glyph glyph-name="uni0415" unicode="&#x415;" 
d="M162 0v1349h919v-156h-728v-422h668v-154h-668v-461h769v-156h-960z" />
    <glyph glyph-name="uni0416" unicode="&#x416;" 
d="M534 0v607l-25 6l-77 20l-247 -633h-185l314 719q-61 61 -104 158l-201 472h173l148 -386q41 -103 88.5 -152t115.5 -65v603h160v-603q68 16 115.5 65t88.5 152l148 386h173l-201 -472q-40 -92 -105 -157l315 -720h-185l-247 633l-16 -5l-86 -21v-607h-160z" />
    <glyph glyph-name="uni0417" unicode="&#x417;" 
d="M621 -20q-203 0 -336 81t-218 267l165 77q119 -272 382 -272q153 0 241 69t88 186q0 122 -96 179t-298 57h-71v148h71q180 0 267 61t87 166q0 101 -76 158t-204 57q-126 0 -214 -59t-138 -188l-175 61q70 173 202 257t332 84q211 0 337.5 -97t126.5 -256
q0 -118 -72 -197.5t-208 -112.5q148 -22 235 -106.5t87 -208.5q0 -121 -62.5 -214.5t-180.5 -145t-272 -51.5z" />
    <glyph glyph-name="uni0418" unicode="&#x418;" 
d="M162 0v1349h172v-864q0 -130 -18 -274l528 1138h222v-1349h-170v876q0 82 16 254l-520 -1130h-230z" />
    <glyph glyph-name="uni0419" unicode="&#x419;" 
d="M162 0v1349h172v-864q0 -130 -18 -274l528 1138h222v-1349h-170v876q0 82 16 254l-520 -1130h-230zM610 1445q-358 0 -367 260h164q5 -77 51 -113t152 -36q105 0 151.5 36t51.5 113h164q-9 -260 -367 -260z" />
    <glyph glyph-name="uni041A" unicode="&#x41a;" 
d="M168 1349h191v-589q93 0 172 50.5t152 159.5l251 379h202l-296 -430q-41 -60 -77 -101.5t-91 -82.5l509 -735h-222l-427 647q-36 -15 -87 -26.5t-86 -11.5v-609h-191v1349z" />
    <glyph glyph-name="uni041B" unicode="&#x41b;" 
d="M931 1189h-378l-43 -338q-50 -395 -99 -563.5t-122 -236t-205 -67.5q-58 0 -86 10v152q19 -7 56 -7q61 0 99 38t67 119.5t56 223.5t53 349l61 480h727v-1349h-186v1189z" />
    <glyph glyph-name="uni041C" unicode="&#x41c;" 
d="M937 0v868q0 135 3 201l3 100q-64 -206 -95 -291l-164 -438h-137l-166 438q-18 46 -96 291l4 -301v-868h-160v1349h237l185 -489q21 -53 68 -231l26 90l44 140l185 490h225v-1349h-162z" />
    <glyph glyph-name="uni041D" unicode="&#x41d;" 
d="M875 0v623h-522v-623h-191v1349h191v-566h522v566h191v-1349h-191z" />
    <glyph glyph-name="uni041E" unicode="&#x41e;" 
d="M1126 681q0 -337 -132.5 -519t-380.5 -182q-249 0 -380 179t-131 522q0 337 130 513t383 176q247 0 379 -173.5t132 -515.5zM925 681q0 533 -310 533q-312 0 -312 -533q0 -270 79 -408t232 -138q163 0 237 140t74 406z" />
    <glyph glyph-name="uni041F" unicode="&#x41f;" 
d="M875 0v1189h-522v-1189h-191v1349h904v-1349h-191z" />
    <glyph glyph-name="uni0420" unicode="&#x420;" 
d="M1119 945q0 -125 -59.5 -223t-170 -153t-255.5 -55h-281v-514h-191v1349h460q238 0 367.5 -106.5t129.5 -297.5zM927 942q0 254 -328 254h-246v-531h254q149 0 234.5 73t85.5 204z" />
    <glyph glyph-name="uni0421" unicode="&#x421;" 
d="M314 681q0 -273 85.5 -409.5t261.5 -136.5q101 0 183 68.5t139 213.5l159 -65q-149 -372 -483 -372q-263 0 -404.5 181t-141.5 520q0 689 536 689q339 0 466 -335l-168 -65q-37 113 -115.5 178.5t-181.5 65.5q-171 0 -253.5 -129t-82.5 -404z" />
    <glyph glyph-name="uni0422" unicode="&#x422;" 
d="M709 1193v-1193h-190v1193h-443v156h1076v-156h-443z" />
    <glyph glyph-name="uni0423" unicode="&#x423;" 
d="M272 -20q-62 0 -129.5 19t-113.5 51l81 144q94 -59 166 -59q38 0 67 10t56 36.5t55.5 70.5t103.5 188l-538 909h215l417 -739l349 739h205l-532 -1031q-78 -152 -132 -216t-116.5 -93t-153.5 -29z" />
    <glyph glyph-name="uni0424" unicode="&#x424;" 
d="M1221 706q0 -138 -60 -253.5t-167.5 -181t-247.5 -65.5h-41v-217h-181v217h-41q-139 0 -247 65t-168 181.5t-60 253.5q0 220 131 350.5t355 130.5h30v172h181v-172h29q224 0 355.5 -130t131.5 -351zM1027 702q0 164 -82.5 253t-234.5 89h-5v-696h12q147 0 228.5 96.5
t81.5 257.5zM202 702q0 -162 81.5 -258t228.5 -96h12v696h-8q-149 0 -231.5 -88t-82.5 -254z" />
    <glyph glyph-name="uni0425" unicode="&#x425;" 
d="M614 836l333 513h205l-435 -644l476 -705h-205l-374 573l-373 -573h-205l476 705l-435 644h205z" />
    <glyph glyph-name="uni0426" unicode="&#x426;" 
d="M1207 160v-585h-180v425h-899v1349h191v-1189h522v1189h191v-1189h175z" />
    <glyph glyph-name="uni0427" unicode="&#x427;" 
d="M883 478q-167 -37 -241.5 -47.5t-136.5 -10.5q-206 0 -308 93.5t-102 271.5v564h190v-544q0 -231 234 -231q119 0 364 49v726h190v-1349h-190v478z" />
    <glyph glyph-name="uni0428" unicode="&#x428;" 
d="M89 0v1349h162v-1209h282v1209h162v-1209h282v1209h162v-1349h-1050z" />
    <glyph glyph-name="uni0429" unicode="&#x429;" 
d="M1086 -425v425h-1000v1349h162v-1209h257v1209h162v-1209h257v1209h162v-1209h142v-565h-142z" />
    <glyph glyph-name="uni042A" unicode="&#x42a;" 
d="M526 783h132q242 0 369.5 -102t127.5 -288q0 -183 -127.5 -288t-357.5 -105h-335v1193h-335v156h526v-566zM963 391q0 121 -82 176.5t-246 55.5h-109v-472h117q164 0 242 58t78 182z" />
    <glyph glyph-name="uni042B" unicode="&#x42b;" 
d="M835 393q0 -183 -128.5 -288t-356.5 -105h-245v1349h171v-576h62q246 0 371.5 -100t125.5 -280zM673 391q0 242 -328 242h-69v-492h77q165 0 242.5 62.5t77.5 187.5zM952 0v1349h171v-1349h-171z" />
    <glyph glyph-name="uni042C" unicode="&#x42c;" 
d="M1172 393q0 -183 -127.5 -288t-357.5 -105h-525v1349h191v-566h322q242 0 369.5 -102t127.5 -288zM980 387q0 121 -82 178.5t-246 57.5h-299v-472h307q164 0 242 56t78 180z" />
    <glyph glyph-name="uni042D" unicode="&#x42d;" 
d="M487 609v145h426q-10 226 -89.5 343t-244.5 117q-103 0 -181.5 -65.5t-115.5 -178.5l-168 65q68 173 184 254t282 81q536 0 536 -689q0 -339 -141.5 -520t-404.5 -181q-162 0 -283 90t-200 282l159 65q56 -144 138.5 -213t183.5 -69q162 0 248 116t97 358h-426z" />
    <glyph glyph-name="uni042E" unicode="&#x42e;" 
d="M1175 681q0 -342 -100 -521.5t-290 -179.5q-178 0 -276 161t-109 468h-153v-609h-161v1349h161v-595h153q11 308 110 462t277 154q188 0 288 -172t100 -517zM1003 681q0 278 -53 410.5t-164 132.5q-109 0 -162 -132.5t-53 -410.5q0 -556 215 -556q217 0 217 556z" />
    <glyph glyph-name="uni042F" unicode="&#x42f;" 
d="M52 0l400 597q-157 26 -250.5 128t-93.5 251q0 180 122.5 276.5t354.5 96.5h482v-1349h-191v575h-238l-366 -575h-220zM300 973q0 -120 76 -183.5t220 -63.5h280v470h-272q-304 0 -304 -223z" />
    <glyph glyph-name="uni0430" unicode="&#x430;" 
d="M1101 111q26 0 59 7v-112q-68 -16 -139 -16q-100 0 -145.5 52.5t-51.5 164.5h-6q-65 -121 -153.5 -174t-218.5 -53q-158 0 -238 86t-80 236q0 349 454 354l236 4v59q0 131 -53 188.5t-169 57.5q-118 0 -170 -42t-62 -130l-188 17q46 292 423 292q200 0 300.5 -93.5
t100.5 -270.5v-466q0 -80 21 -120.5t80 -40.5zM492 117q96 0 170 46t115 123t41 159v89l-190 -4q-118 -2 -180 -26t-96.5 -73.5t-34.5 -131.5t44.5 -132t130.5 -50z" />
    <glyph glyph-name="uni0431" unicode="&#x431;" 
d="M918 502q0 202 -66 297.5t-215 95.5q-159 0 -233.5 -96.5t-74.5 -296.5q0 -194 69.5 -291.5t218.5 -97.5q161 0 231 93.5t70 295.5zM675 1027q222 0 327 -130.5t105 -392.5q0 -265 -125 -394.5t-363 -129.5q-246 0 -362.5 161t-116.5 495q0 262 54 423.5t169 252.5
t316 130q138 27 377 60v-161q-206 -26 -338 -51q-155 -28 -229 -62t-116 -89.5t-62.5 -144t-24.5 -232.5q46 128 147 196.5t242 68.5z" />
    <glyph glyph-name="uni0432" unicode="&#x432;" 
d="M647 1082q200 0 300 -70t100 -201q0 -94 -58 -156t-165 -82v-7q129 -17 193.5 -82.5t64.5 -171.5q0 -147 -109.5 -229.5t-302.5 -82.5h-485v1082h462zM365 133h276q138 0 194 42.5t56 135.5q0 101 -59.5 142.5t-202.5 41.5h-264v-362zM365 945v-320h256q128 0 182.5 36
t54.5 126q0 82 -51 120t-172 38h-270z" />
    <glyph glyph-name="uni0433" unicode="&#x433;" 
d="M1050 1082v-142h-605v-940h-180v1082h785z" />
    <glyph glyph-name="uni0434" unicode="&#x434;" 
d="M831 940h-316q-36 -267 -81.5 -462.5t-109.5 -335.5h507v798zM1142 -408h-163v408h-794v-408h-163v550h119q78 128 133 358t98 582h624v-940h146v-550z" />
    <glyph glyph-name="uni0435" unicode="&#x435;" 
d="M322 503q0 -182 80.5 -285t220.5 -103q103 0 180.5 44.5t103.5 121.5l158 -45q-44 -124 -161.5 -190t-280.5 -66q-236 0 -363 147t-127 421q0 267 124.5 410.5t359.5 143.5t356 -143t121 -432v-24h-772zM619 969q-134 0 -212 -87.5t-83 -240.5h584q-28 328 -289 328z" />
    <glyph glyph-name="uni0436" unicode="&#x436;" 
d="M537 0v480q-30 4 -57.5 15.5t-40.5 21.5l-253 -517h-185l335 608q-21 23 -51 63.5t-275 410.5h178l148 -239q65 -104 110 -152t91 -65v456h154v-456q48 18 92.5 66.5t108.5 150.5l148 239h178l-216 -325q-71 -106 -111 -149l336 -608h-185l-253 517q-12 -9 -39.5 -21
t-58.5 -16v-480h-154z" />
    <glyph glyph-name="uni0437" unicode="&#x437;" 
d="M602 -20q-197 0 -306 59.5t-158 194.5l159 44q26 -84 102 -124t207 -40q264 0 264 185q0 95 -105.5 147.5t-290.5 52.5v137q183 0 280.5 45t97.5 127q0 160 -247 160q-129 0 -193 -35.5t-76 -108.5l-162 20q24 137 131.5 197.5t300.5 60.5q198 0 313.5 -76.5
t115.5 -208.5q0 -65 -36.5 -118t-100.5 -86.5t-136 -41.5v-2q128 -14 213.5 -87t85.5 -178q0 -154 -118.5 -239t-340.5 -85z" />
    <glyph glyph-name="uni0438" unicode="&#x438;" 
d="M359 1082v-592l-10 -277l499 869h197v-1082h-172v660q0 65 7 165l3 48l-506 -873h-192v1082h174z" />
    <glyph glyph-name="uni0439" unicode="&#x439;" 
d="M359 1082v-592l-10 -277l499 869h197v-1082h-172v660q0 65 7 165l3 48l-506 -873h-192v1082h174zM615 1200q-358 0 -367 260h164q5 -77 51 -113t152 -36q105 0 151.5 36t51.5 113h164q-9 -260 -367 -260z" />
    <glyph glyph-name="uni043A" unicode="&#x43a;" 
d="M218 1082h180v-474q113 0 187 47t148 158l180 269h194l-226 -325q-78 -111 -150 -163l385 -594h-204l-317 509q-34 -15 -89 -25t-108 -10v-474h-180v1082z" />
    <glyph glyph-name="uni043B" unicode="&#x43b;" 
d="M867 0v940h-381l-46 -326q-36 -257 -75.5 -390.5t-99 -188.5t-165.5 -55q-50 0 -94 13v129q25 -9 68 -9q58 0 94.5 74t69.5 240.5t100 654.5h710v-1082h-181z" />
    <glyph glyph-name="uni043C" unicode="&#x43c;" 
d="M974 0v724q0 53 8 229l-285 -953h-153l-294 951q6 -75 6 -227v-724h-154v1082h250l200 -641q53 -169 68 -306q22 159 68 306l200 641h239v-1082h-153z" />
    <glyph glyph-name="uni043D" unicode="&#x43d;" 
d="M361 1082v-458h507v458h180v-1082h-180v493h-507v-493h-180v1082h180z" />
    <glyph glyph-name="uni043E" unicode="&#x43e;" 
d="M1097 542q0 -273 -125.5 -417.5t-362.5 -144.5q-232 0 -355.5 146t-123.5 416q0 279 126.5 419.5t358.5 140.5q244 0 363 -139t119 -421zM908 542q0 215 -68.5 321t-221.5 106q-155 0 -227 -108t-72 -319q0 -210 72 -319.5t216 -109.5q159 0 230 107t71 322z" />
    <glyph glyph-name="uni043F" unicode="&#x43f;" 
d="M1048 1082v-1082h-180v940h-507v-940h-180v1082h867z" />
    <glyph glyph-name="uni0440" unicode="&#x440;" 
d="M1090 546q0 -566 -392 -566q-246 0 -331 184h-5q4 -8 4 -166v-423h-181v1283q0 170 -6 224h175q1 -4 3 -29.5t4.5 -75t2.5 -73.5h4q50 105 127.5 152.5t202.5 47.5q198 0 295 -136.5t97 -421.5zM904 546q0 226 -61 322.5t-192 96.5q-151 0 -218 -109.5t-67 -331.5
q0 -213 67 -312t216 -99q133 0 194 101t61 332z" />
    <glyph glyph-name="uni0441" unicode="&#x441;" 
d="M130 542q0 270 129 415t373 145q182 0 300 -87.5t146 -235.5l-192 -14q-16 91 -80 143.5t-182 52.5q-158 0 -231.5 -98t-73.5 -317q0 -222 73.5 -324.5t230.5 -102.5q108 0 179 53t88 162l190 -12q-13 -96 -72.5 -174.5t-157.5 -123t-219 -44.5q-245 0 -373 144t-128 418
z" />
    <glyph glyph-name="uni0442" unicode="&#x442;" 
d="M130 1082h968v-142h-394v-940h-180v940h-394v142z" />
    <glyph glyph-name="uni0443" unicode="&#x443;" 
d="M292 -425q-74 0 -124 11v135q38 -6 84 -6q79 0 148.5 59t117.5 188l18 49l-470 1071h192l264 -642q91 -224 98 -254l41 110l310 786h190l-456 -1082q-89 -235 -184.5 -330t-228.5 -95z" />
    <glyph glyph-name="uni0444" unicode="&#x444;" 
d="M1157 542q0 -252 -119 -394.5t-345 -163.5v-409h-155v408q-226 19 -347 163.5t-121 395.5q0 253 120 395t348 162v385h155v-385q235 -19 349.5 -157.5t114.5 -399.5zM259 542q0 -382 279 -425v846q-141 -20 -210 -124.5t-69 -296.5zM968 542q0 195 -67 299.5t-208 122.5
v-845q275 41 275 423z" />
    <glyph glyph-name="uni0445" unicode="&#x445;" 
d="M932 0l-321 444l-323 -444h-194l415 556l-397 526h199l300 -421l298 421h201l-397 -524l420 -558h-201z" />
    <glyph glyph-name="uni0446" unicode="&#x446;" 
d="M356 1082v-951h507v951h180v-951h147v-539h-163v408h-851v1082h180z" />
    <glyph glyph-name="uni0447" unicode="&#x447;" 
d="M334 1082v-402q0 -78 50.5 -120t147.5 -42q117 0 309 52v512h180v-1082h-180v466q-231 -91 -393 -91q-146 0 -220 79t-74 217v411h180z" />
    <glyph glyph-name="uni0448" unicode="&#x448;" 
d="M102 0v1082h160v-951h272v951h160v-951h273v951h160v-1082h-1025z" />
    <glyph glyph-name="uni0449" unicode="&#x449;" 
d="M92 0v1082h160v-951h249v951h160v-951h249v951h160v-951h143v-539h-143v408h-978z" />
    <glyph glyph-name="uni044A" unicode="&#x44a;" 
d="M735 624q205 0 310 -73.5t105 -232.5q0 -154 -108 -236t-306 -82h-409v940h-328v142h508v-458h228zM507 127h202q130 0 190 46t60 145q0 94 -58 137.5t-191 43.5h-203v-372z" />
    <glyph glyph-name="uni044B" unicode="&#x44b;" 
d="M425 624q205 0 310 -73.5t105 -232.5q0 -154 -108 -236t-306 -82h-320v1082h164v-458h155zM270 127h155q125 0 182.5 47t57.5 144q0 94 -56.5 137.5t-182.5 43.5h-156v-372zM958 0v1082h164v-1082h-164z" />
    <glyph glyph-name="uni044C" unicode="&#x44c;" 
d="M650 624q205 0 310 -73.5t105 -232.5q0 -154 -108 -236t-306 -82h-447v1082h180v-458h266zM384 127h240q130 0 190 46t60 145q0 94 -58 137.5t-191 43.5h-241v-372z" />
    <glyph glyph-name="uni044D" unicode="&#x44d;" 
d="M1084 542q0 -274 -128.5 -418t-372.5 -144q-121 0 -221.5 44.5t-162.5 123.5t-75 174l190 12q15 -102 89 -158.5t188 -56.5q145 0 219 88t83 275h-382v131h382q-8 178 -82 263t-221 85q-118 0 -187 -52.5t-85 -143.5l-192 14q31 150 153.5 236.5t302.5 86.5
q244 0 373 -145t129 -415z" />
    <glyph glyph-name="uni044E" unicode="&#x44e;" 
d="M234 624h169q17 226 120 352t270 126q177 0 280 -152t103 -410q0 -263 -101 -411.5t-283 -148.5q-178 0 -281.5 137.5t-109.5 375.5h-167v-493h-164v1082h164v-458zM574 540q0 -203 55.5 -315t159.5 -112t159 110t55 317q0 139 -26.5 233.5t-73.5 145t-108 50.5
q-108 0 -164.5 -110.5t-56.5 -318.5z" />
    <glyph glyph-name="uni044F" unicode="&#x44f;" 
d="M587 458l-315 -458h-203l344 471q-249 52 -249 312q0 149 108 224t315 75h432v-1082h-180v458h-252zM839 955h-234q-130 0 -190 -46t-60 -139q0 -94 53.5 -140.5t177.5 -46.5h253v372z" />
    <glyph glyph-name="uni0451" unicode="&#x451;" 
d="M322 503q0 -182 80.5 -285t220.5 -103q103 0 180.5 44.5t103.5 121.5l158 -45q-44 -124 -161.5 -190t-280.5 -66q-236 0 -363 147t-127 421q0 267 124.5 410.5t359.5 143.5t356 -143t121 -432v-24h-772zM619 969q-134 0 -212 -87.5t-83 -240.5h584q-28 328 -289 328z
M737 1219v184h163v-184h-163zM343 1219v184h165v-184h-165z" />
    <glyph glyph-name="uni0452" unicode="&#x452;" 
d="M185 1484h181v-157h299v-131h-299v-132q0 -59 -9 -197h3q105 205 339 205q350 0 350 -381v-825q0 -153 -60 -222t-180 -69q-77 0 -127 9v139l62 -6q70 0 97 36t27 140v772q0 136 -52.5 202t-167.5 66q-124 0 -203.5 -90.5t-79.5 -245.5v-597h-180v1196h-132v131h132v157z
" />
    <glyph glyph-name="uni0453" unicode="&#x453;" 
d="M1050 1082v-142h-605v-940h-180v1082h785zM549 1201v20l227 239h197v-29l-300 -230h-124z" />
    <glyph glyph-name="uni0454" unicode="&#x454;" 
d="M145 542q0 270 129 415t373 145q183 0 305.5 -88.5t150.5 -234.5l-192 -14q-16 91 -85 143.5t-187 52.5q-144 0 -218 -82t-85 -266h382v-131h-382q11 -192 85 -277.5t217 -85.5q113 0 187 56t90 159l190 -12q-13 -95 -75 -174t-162 -123.5t-222 -44.5q-245 0 -373 144
t-128 418z" />
    <glyph glyph-name="uni0455" unicode="&#x455;" 
d="M1060 309q0 -154 -116.5 -241.5t-322.5 -87.5t-313.5 64.5t-140.5 203.5l159 31q19 -86 81.5 -125.5t213.5 -39.5q270 0 270 171q0 64 -49 103.5t-150 64.5q-264 65 -335 102t-109 92.5t-38 138.5q0 147 106 230t307 83q176 0 281 -66.5t131 -193.5l-162 -20
q-11 72 -71 109t-179 37q-245 0 -245 -151q0 -60 41.5 -96t133.5 -58l119 -31q163 -40 234.5 -79t112.5 -97.5t41 -143.5z" />
    <glyph glyph-name="uni0456" unicode="&#x456;" 
d="M745 142h380v-142h-982v142h422v798h-319v142h499v-940zM545 1292v192h200v-192h-200z" />
    <glyph glyph-name="uni0457" unicode="&#x457;" 
d="M745 142h380v-142h-982v142h422v798h-319v142h499v-940zM770 1219v184h163v-184h-163zM376 1219v184h165v-184h-165z" />
    <glyph glyph-name="uni0458" unicode="&#x458;" 
d="M836 -28q0 -187 -112 -292t-319 -105q-79 0 -161 13t-127 30v140q150 -34 273 -34q128 0 197 66t69 185v965h-407v142h587v-1110zM636 1292v192h200v-192h-200z" />
    <glyph glyph-name="uni0459" unicode="&#x459;" 
d="M796 624q395 0 395 -306q0 -150 -103 -234t-291 -84h-207v961h-165l-40 -443q-20 -215 -51 -329t-81 -161.5t-144 -47.5q-47 0 -84 11v129q21 -7 58 -7q48 0 74 34.5t43.5 120.5t35.5 273l53 541h456v-458h51zM745 117h51q230 0 230 201q0 191 -229 191h-52v-392z" />
    <glyph glyph-name="uni045A" unicode="&#x45a;" 
d="M246 1082v-458h331v458h154v-458h54q205 0 310 -73.5t105 -232.5q0 -154 -108 -236t-306 -82h-209v503h-331v-503h-154v1082h154zM731 117h54q128 0 189 50t61 151q0 94 -58 142.5t-191 48.5h-55v-392z" />
    <glyph glyph-name="uni045B" unicode="&#x45b;" 
d="M185 1484h181v-157h299v-131h-299v-132q0 -59 -9 -197h3q105 205 339 205q350 0 350 -381v-691h-181v665q0 136 -52.5 202t-167.5 66q-124 0 -203.5 -90.5t-79.5 -245.5v-597h-180v1196h-132v131h132v157z" />
    <glyph glyph-name="uni045C" unicode="&#x45c;" 
d="M218 1082h180v-474q113 0 187 47t148 158l180 269h194l-226 -325q-78 -111 -150 -163l385 -594h-204l-317 509q-34 -15 -89 -25t-108 -10v-474h-180v1082zM508 1201v20l227 239h197v-29l-300 -230h-124z" />
    <glyph glyph-name="uni045E" unicode="&#x45e;" 
d="M292 -425q-74 0 -124 11v135q38 -6 84 -6q79 0 148.5 59t117.5 188l18 49l-470 1071h192l264 -642q91 -224 98 -254l41 110l310 786h190l-456 -1082q-89 -235 -184.5 -330t-228.5 -95zM613 1200q-358 0 -367 260h164q5 -77 51 -113t152 -36q105 0 151.5 36t51.5 113h164
q-9 -260 -367 -260z" />
    <glyph glyph-name="uni045F" unicode="&#x45f;" 
d="M181 0v1082h180v-951h507v951h180v-1082h-352v-425h-163v425h-352z" />
    <glyph glyph-name="uni0490" unicode="&#x490;" 
d="M962 1349v356h180v-512h-725v-1192h-191v1348h736z" />
    <glyph glyph-name="uni0491" unicode="&#x491;" 
d="M424 0h-180v1082h623v402h163v-544h-606v-940z" />
    <glyph glyph-name="uni2015" unicode="&#x2015;" 
d="M-10 451v137h1248v-137h-1248z" />
    <glyph glyph-name="uni2116" unicode="&#x2116;" 
d="M426 0l-270 1050l3 -88q3 -57 3 -166v-796h-140v1349h192l278 -1058q-8 160 -8 274v784h141v-1349h-199zM1209 690q0 -208 -60 -299.5t-191 -91.5q-245 0 -245 391q0 390 249 390q128 0 187.5 -93.5t59.5 -296.5zM1060 690q0 151 -20.5 214.5t-74.5 63.5q-56 0 -78 -62.5
t-22 -215.5q0 -150 19.5 -214.5t72.5 -64.5q58 0 80.5 60.5t22.5 218.5zM744 0v136h435v-136h-435z" />
    <glyph glyph-name="pi" unicode="&#x3c0;" 
d="M982 940v-674q0 -76 21 -110.5t73 -34.5q31 0 66 8l20 -129q-77 -20 -143 -20q-115 0 -166 56.5t-51 190.5v713h-372v-72q0 -603 -68 -868h-188q39 155 59.5 383t20.5 477v80q-80 0 -145 -12t-87 -25v150q24 12 77.5 20.5t105.5 8.5h981v-142h-204z" />
    <glyph glyph-name="currency" unicode="&#xa4;" 
d="M182 684q0 138 78 252l-100 100l104 103l99 -101q114 82 254 82q137 0 251 -80l97 97l104 -105l-96 -96q80 -117 80 -252q0 -138 -82 -252l100 -100l-102 -105l-101 101q-114 -78 -251 -78q-143 0 -252 80l-105 -105l-102 105l102 102q-78 114 -78 252zM336 686
q0 -114 82 -197t199 -83q114 0 197 81t83 199q0 116 -82.5 198.5t-197.5 82.5q-117 0 -199 -83.5t-82 -197.5z" />
    <glyph glyph-name="cyrillicbreve" 
d="M628 1200q-358 0 -367 260h164q5 -77 51 -113t152 -36q105 0 151.5 36t51.5 113h164q-9 -260 -367 -260z" />
    <glyph glyph-name="caroncommaaccent" 
d="M475 1159v33l79 292h197v-37l-171 -288h-105z" />
    <glyph glyph-name="commaaccentrotate" 
d="M751 1536v-33l-79 -292h-197v37l171 288h105z" />
    <glyph glyph-name="dotlessj" 
d="M836 -28q0 -187 -112 -292t-319 -105q-79 0 -161 13t-127 30v140q150 -34 273 -34q128 0 197 66t69 185v965h-407v142h587v-1110z" />
    <glyph glyph-name="onefraction" 
d="M329 589v107h135v513q-20 -39 -73 -67t-98 -28v119q50 0 102 31.5t79 84.5h121v-653h116v-107h-382z" />
    <glyph glyph-name="twofraction" 
d="M250 589v97q27 62 80.5 119t143.5 125q82 61 117 109t35 101q0 121 -111 121q-61 0 -90.5 -31t-37.5 -92l-130 5q13 102 82.5 160t180.5 58q120 0 180.5 -56t60.5 -159q0 -131 -160 -251q-117 -89 -154.5 -124.5t-54.5 -74.5h380v-107h-522z" />
    <glyph glyph-name="threefraction" 
d="M749 794q0 -101 -69 -162t-188 -61q-107 0 -175 56t-83 156l136 13q9 -60 41.5 -90.5t80.5 -30.5q54 0 87 30t33 95q0 120 -149 120h-41v109h37q68 0 100 28.5t32 94.5q0 53 -27 78t-68 25q-45 0 -78 -31.5t-39 -88.5l-135 12q13 100 80 157t172 57q109 0 170.5 -55
t61.5 -147q0 -66 -33.5 -108.5t-102.5 -68.5v-2q82 -18 119.5 -68t37.5 -118z" />
    <glyph glyph-name="fourfraction" 
d="M699 748v-161h-127v161h-375v99l361 502h141v-500h122v-101h-122zM573 1221q-34 -51 -266 -372h265v321z" />
    <glyph glyph-name="fivefraction" 
d="M763 835q0 -122 -65.5 -187.5t-183.5 -65.5q-219 0 -254 191l133 15q11 -54 39.5 -77.5t78.5 -23.5q117 0 117 148q0 136 -116 136q-40 0 -65 -15t-46 -45h-129l33 438h426v-113h-318l-19 -215q52 59 134 59q112 0 173.5 -63t61.5 -182z" />
    <glyph glyph-name="sevenfraction" 
d="M771 1248q-124 -172 -170.5 -264t-68 -186.5t-21.5 -208.5h-133q0 164 56.5 306.5t207.5 340.5h-390v113h519v-101z" />
    <glyph glyph-name="eightfraction" 
d="M619 1152q0 60 -23 84.5t-74 24.5q-56 0 -76 -29.5t-20 -79.5q0 -56 25.5 -85t71.5 -29q47 0 71.5 26t24.5 88zM640 809q0 128 -118 128q-58 0 -86.5 -31t-28.5 -97q0 -132 118 -132q58 0 86.5 29.5t28.5 102.5zM774 800q0 -108 -63 -166t-187 -58q-122 0 -186.5 57.5
t-64.5 166.5q0 147 121 185v3q-101 49 -101 176q0 89 61.5 143t167.5 54q110 0 170.5 -53t60.5 -145q0 -128 -102 -174v-3q66 -19 94.5 -64t28.5 -122z" />
    <glyph glyph-name="uni200C" unicode="&#x200c;" horiz-adv-x="0" 
d="M42 1287v-1560h-84v1560h84z" />
    <glyph glyph-name="uni200D" unicode="&#x200d;" horiz-adv-x="0" 
d="M42 -273h-84v1369l-127 -128l-55 55l169 168l-169 167l55 56l169 -170l169 170l55 -56l-169 -167l169 -168l-55 -55l-127 128v-1369z" />
    <glyph glyph-name="uni200E" unicode="&#x200e;" horiz-adv-x="0" 
d="M435 1193l-223 -219l-55 55l132 125h-248v-1427h-82v1506h330l-132 125l55 56z" />
    <glyph glyph-name="uni200F" unicode="&#x200f;" horiz-adv-x="0" 
d="M40 -273h-82v1427h-248l132 -125l-55 -55l-223 219l223 221l55 -56l-132 -125h330v-1506z" />
    <glyph glyph-name="uni202A" unicode="&#x202a;" horiz-adv-x="0" 
d="M42 1154v-1427h-83v1506h476v-79h-393z" />
    <glyph glyph-name="uni202B" unicode="&#x202b;" horiz-adv-x="0" 
d="M-435 1154v79h476v-1506h-83v1427h-393z" />
    <glyph glyph-name="uni202D" unicode="&#x202d;" horiz-adv-x="0" 
d="M238 977h-196v-1250h-84v1250h-196v434h476v-79h-395v-277h395v-78z" />
    <glyph glyph-name="uni202E" unicode="&#x202e;" horiz-adv-x="0" 
d="M-238 1055h395v277h-395v79h476v-434h-196v-1250h-84v1250h-196v78z" />
    <glyph glyph-name="uni202C" unicode="&#x202c;" horiz-adv-x="0" 
d="M238 977h-196v-1250h-84v1250h-196v434h476v-434z" />
    <glyph glyph-name="uni206E" unicode="&#x206e;" horiz-adv-x="0" 
d="M42 -273h-84v1285l-197 181l239 221l239 -221l-197 -181v-1285zM126 1193l-126 113l-126 -113l126 -112z" />
    <glyph glyph-name="uni206F" unicode="&#x206f;" horiz-adv-x="0" 
d="M-238 1055h196v277h-196v79h280v-356h196v-78h-196v-1250h-84v1250h-196v78z" />
    <glyph glyph-name="uni206A" unicode="&#x206a;" horiz-adv-x="0" 
d="M-238 1055h196v277h-196v79h476v-79h-196v-277h196v-78h-196v-1250h-84v1250h-196v78z" />
    <glyph glyph-name="uni206B" unicode="&#x206b;" horiz-adv-x="0" 
d="M-157 1055h314v277h-314v-277zM-238 977v434h476v-434h-196v-1250h-84v1250h-196z" />
    <glyph glyph-name="uni206C" unicode="&#x206c;" horiz-adv-x="0" 
d="M42 -273h-84v1318l-198 366h480l-198 -366v-1318z" />
    <glyph glyph-name="uni206D" unicode="&#x206d;" horiz-adv-x="0" 
d="M42 977v-1250h-84v1250h-198l240 441l240 -441h-198z" />
    <glyph glyph-name="Ohorn" unicode="&#x1a0;" 
d="M1126 681q0 -337 -132.5 -519t-380.5 -182q-249 0 -380 179t-131 522q0 345 132.5 517t380.5 172q332 0 450 -305q82 63 82 177h-88v167h195v-106q0 -212 -162 -322q34 -127 34 -300zM925 681q0 533 -310 533q-312 0 -312 -533q0 -270 79 -408t232 -138q163 0 237 140
t74 406z" />
    <glyph glyph-name="ohorn" unicode="&#x1a1;" 
d="M1097 542q0 -273 -125.5 -417.5t-362.5 -144.5q-232 0 -355.5 146t-123.5 416q0 279 126.5 419.5t358.5 140.5q397 0 466 -377q95 67 95 196h-88v167h195v-106q0 -114 -48 -203.5t-142 -144.5q4 -44 4 -92zM908 542q0 215 -68.5 321t-221.5 106t-226 -105t-73 -322
q0 -210 72 -319.5t216 -109.5q159 0 230 107t71 322z" />
    <glyph glyph-name="Uhorn" unicode="&#x1af;" 
d="M1025 1019q95 29 139.5 84.5t44.5 138.5h-88v167h195v-106q0 -153 -73 -249t-218 -129v-435q0 -265 -106.5 -387.5t-343.5 -122.5q-227 0 -330 117t-103 375v877h191v-851q0 -208 52.5 -285.5t188.5 -77.5q145 0 203 81t58 295v838h190v-330z" />
    <glyph glyph-name="uhorn" unicode="&#x1b0;" 
d="M360 1082v-686q0 -157 43 -217t161 -60q121 0 190 88.5t69 247.5v627h181v-396q82 35 117 87t35 142h-88v167h195v-106q0 -149 -61.5 -241.5t-197.5 -141.5v-362q0 -189 6 -231h-170q-1 5 -2 27t-2.5 50.5t-3.5 107.5h-3q-64 -115 -140 -160t-186 -45q-170 0 -246.5 88.5
t-76.5 292.5v721h180z" />
    <glyph glyph-name="hookabovecomb" unicode="&#x309;" horiz-adv-x="0" 
d="M-223 1665q0 31 -25.5 48t-67.5 17q-72 0 -142 -24l-31 99q90 30 196 30q237 0 237 -149q0 -59 -40.5 -101.5t-131.5 -53.5v-50h-112v120q69 3 93 18t24 46z" />
    <glyph glyph-name="tildecomb" unicode="&#x303;" horiz-adv-x="0" 
d="M-442 1532q-42 0 -84 18.5t-81 41t-74.5 41t-66.5 18.5q-55 0 -82 -31t-36 -88h-91q11 102 35 154.5t64.5 83t103.5 30.5q44 0 86 -18.5t81 -41t73.5 -41t64.5 -18.5q100 0 117 119h92q-17 -148 -67 -208t-135 -60z" />
    <glyph glyph-name="dotbelow.alt1" horiz-adv-x="0" 
d="M-251 -321v192h200v-192h-200z" />
    <glyph glyph-name="dong" unicode="&#x20ab;" 
d="M1043 1196v-973q0 -169 6 -223h-172q-4 15 -7 73t-3 101h-5q-49 -105 -130 -152.5t-202 -47.5q-202 0 -297 135.5t-95 407.5q0 555 392 555q121 0 202.5 -43t130.5 -141h2l-2 151v157h-300v131h300v157h180v-157h131v-131h-131zM324 523q0 -215 59 -312.5t194 -97.5
q147 0 216.5 103t69.5 322q0 207 -66.5 304t-217.5 97q-134 0 -194.5 -101.5t-60.5 -314.5zM170 -298v137h888v-137h-888z" />
    <glyph glyph-name="onethird" unicode="&#x2153;" 
d="M53 589v107h135v513q-20 -39 -73 -67t-98 -28v119q50 0 102 31.5t79 84.5h121v-653h116v-107h-382zM306 0h-118l703 1349h115zM1177 206q0 -101 -69 -162t-188 -61q-107 0 -175 56t-83 156l136 13q9 -60 41.5 -90.5t80.5 -30.5q54 0 87 30t33 95q0 120 -149 120h-41v109
h37q68 0 100 28.5t32 94.5q0 53 -27 78t-68 25q-45 0 -78 -31.5t-39 -88.5l-135 12q13 100 80 157t172 57q109 0 170.5 -55t61.5 -147q0 -66 -33.5 -108.5t-102.5 -68.5v-2q82 -18 119.5 -68t37.5 -118z" />
    <glyph glyph-name="twothirds" unicode="&#x2154;" 
d="M-26 589v97q27 62 80.5 119t143.5 125q82 61 117 109t35 101q0 121 -111 121q-61 0 -90.5 -31t-37.5 -92l-130 5q13 102 82.5 160t180.5 58q120 0 180.5 -56t60.5 -159q0 -131 -160 -251q-117 -89 -154.5 -124.5t-54.5 -74.5h380v-107h-522zM306 0h-118l703 1349h115z
M1177 206q0 -101 -69 -162t-188 -61q-107 0 -175 56t-83 156l136 13q9 -60 41.5 -90.5t80.5 -30.5q54 0 87 30t33 95q0 120 -149 120h-41v109h37q68 0 100 28.5t32 94.5q0 53 -27 78t-68 25q-45 0 -78 -31.5t-39 -88.5l-135 12q13 100 80 157t172 57q109 0 170.5 -55
t61.5 -147q0 -66 -33.5 -108.5t-102.5 -68.5v-2q82 -18 119.5 -68t37.5 -118z" />
    <glyph glyph-name="hookabove.alt4" horiz-adv-x="0" 
d="M-183 1506q0 31 -25.5 48t-67.5 17q-72 0 -142 -24l-31 99q90 30 196 30q237 0 237 -149q0 -59 -40.5 -101.5t-131.5 -53.5v-20h-112v90q69 3 93 18t24 46z" />
    <glyph glyph-name="gravecomb" unicode="&#x300;" horiz-adv-x="0" 
d="M-273 1548l-243 250v29h207l130 -259v-20h-94z" />
    <glyph glyph-name="acutecomb" unicode="&#x301;" horiz-adv-x="0" 
d="M-363 1548v20l130 259h207v-29l-243 -250h-94z" />
    <glyph glyph-name="dotbelowcomb" unicode="&#x323;" horiz-adv-x="0" 
d="M-779 -321v192h200v-192h-200z" />
    <glyph glyph-name="dotlessi.alt1" 
d="M745 142h380v-142h-982v142h422v798h-319v142h499v-940z" />
    <glyph glyph-name="Adotbelow" unicode="&#x1ea0;" 
d="M1034 0l-138 382h-563l-137 -382h-196l510 1349h217l501 -1349h-194zM616 1205l-12 -39l-69 -212l-151 -423h463l-173 500zM514 -321v192h200v-192h-200z" />
    <glyph glyph-name="adotbelow" unicode="&#x1ea1;" 
d="M1101 111q26 0 59 7v-112q-68 -16 -139 -16q-100 0 -145.5 52.5t-51.5 164.5h-6q-65 -121 -153.5 -174t-218.5 -53q-158 0 -238 86t-80 236q0 349 454 354l236 4v59q0 131 -53 188.5t-169 57.5q-118 0 -170 -42t-62 -130l-188 17q46 292 423 292q200 0 300.5 -93.5
t100.5 -270.5v-466q0 -80 21 -120.5t80 -40.5zM492 117q96 0 170 46t115 123t41 159v89l-190 -4q-118 -2 -180 -26t-96.5 -73.5t-34.5 -131.5t44.5 -132t130.5 -50zM497 -321v192h200v-192h-200z" />
    <glyph glyph-name="Ahookabove" unicode="&#x1ea2;" 
d="M1034 0l-138 382h-563l-137 -382h-196l510 1349h217l501 -1349h-194zM616 1205l-12 -39l-69 -212l-151 -423h463l-173 500zM674 1665q0 31 -25.5 48t-67.5 17q-72 0 -142 -24l-31 99q90 30 196 30q237 0 237 -149q0 -59 -40.5 -101.5t-131.5 -53.5v-50h-112v120
q69 3 93 18t24 46z" />
    <glyph glyph-name="ahookabove" unicode="&#x1ea3;" 
d="M1101 111q26 0 59 7v-112q-68 -16 -139 -16q-100 0 -145.5 52.5t-51.5 164.5h-6q-65 -121 -153.5 -174t-218.5 -53q-158 0 -238 86t-80 236q0 349 454 354l236 4v59q0 131 -53 188.5t-169 57.5q-118 0 -170 -42t-62 -130l-188 17q46 292 423 292q200 0 300.5 -93.5
t100.5 -270.5v-466q0 -80 21 -120.5t80 -40.5zM492 117q96 0 170 46t115 123t41 159v89l-190 -4q-118 -2 -180 -26t-96.5 -73.5t-34.5 -131.5t44.5 -132t130.5 -50zM641 1356q0 31 -25.5 48t-67.5 17q-72 0 -142 -24l-31 99q90 30 196 30q237 0 237 -149q0 -59 -40.5 -101.5
t-131.5 -53.5v-50h-112v120q69 3 93 18t24 46z" />
    <glyph glyph-name="Acircumflexacute" unicode="&#x1ea4;" 
d="M1034 0l-138 382h-563l-137 -382h-196l510 1349h217l501 -1349h-194zM616 1205l-12 -39l-69 -212l-151 -423h463l-173 500zM929 1818h217v-12l-226 -176h-96v10zM940 1465v-20h-105l-219 169h-2l-222 -169h-104v20l224 270h204z" />
    <glyph glyph-name="acircumflexacute" unicode="&#x1ea5;" 
d="M1101 111q26 0 59 7v-112q-68 -16 -139 -16q-100 0 -145.5 52.5t-51.5 164.5h-6q-65 -121 -153.5 -174t-218.5 -53q-158 0 -238 86t-80 236q0 349 454 354l236 4v59q0 131 -53 188.5t-169 57.5q-118 0 -170 -42t-62 -130l-188 17q46 292 423 292q200 0 300.5 -93.5
t100.5 -270.5v-466q0 -80 21 -120.5t80 -40.5zM492 117q96 0 170 46t115 123t41 159v89l-190 -4q-118 -2 -180 -26t-96.5 -73.5t-34.5 -131.5t44.5 -132t130.5 -50zM915 1574h217v-12l-226 -176h-96v10zM926 1221v-20h-105l-219 169h-2l-222 -169h-104v20l224 270h204z" />
    <glyph glyph-name="Acircumflexgrave" unicode="&#x1ea6;" 
d="M1034 0l-138 382h-563l-137 -382h-196l510 1349h217l501 -1349h-194zM616 1205l-12 -39l-69 -212l-151 -423h463l-173 500zM404 1640v-10h-96l-226 176v12h217zM937 1465v-20h-105l-219 169h-2l-222 -169h-104v20l224 270h204z" />
    <glyph glyph-name="acircumflexgrave" unicode="&#x1ea7;" 
d="M1101 111q26 0 59 7v-112q-68 -16 -139 -16q-100 0 -145.5 52.5t-51.5 164.5h-6q-65 -121 -153.5 -174t-218.5 -53q-158 0 -238 86t-80 236q0 349 454 354l236 4v59q0 131 -53 188.5t-169 57.5q-118 0 -170 -42t-62 -130l-188 17q46 292 423 292q200 0 300.5 -93.5
t100.5 -270.5v-466q0 -80 21 -120.5t80 -40.5zM492 117q96 0 170 46t115 123t41 159v89l-190 -4q-118 -2 -180 -26t-96.5 -73.5t-34.5 -131.5t44.5 -132t130.5 -50zM386 1390v-10h-96l-226 176v12h217zM494 1485h204l224 -270v-20h-104l-222 169h-2l-219 -169h-105v20z" />
    <glyph glyph-name="Acircumflexhookabove" unicode="&#x1ea8;" 
d="M1034 0l-138 382h-563l-137 -382h-196l510 1349h217l501 -1349h-194zM616 1205l-12 -39l-69 -212l-151 -423h463l-173 500zM954 1715q0 35 -59 35q-51 0 -91 -16l-20 64q58 20 125 20q152 0 152 -96q0 -44 -33.5 -72t-87.5 -28v-23h-61v78q75 0 75 38zM937 1465v-20h-105
l-219 169h-2l-222 -169h-104v20l224 270h204z" />
    <glyph glyph-name="acircumflexhookabove" unicode="&#x1ea9;" 
d="M1101 111q26 0 59 7v-112q-68 -16 -139 -16q-100 0 -145.5 52.5t-51.5 164.5h-6q-65 -121 -153.5 -174t-218.5 -53q-158 0 -238 86t-80 236q0 349 454 354l236 4v59q0 131 -53 188.5t-169 57.5q-118 0 -170 -42t-62 -130l-188 17q46 292 423 292q200 0 300.5 -93.5
t100.5 -270.5v-466q0 -80 21 -120.5t80 -40.5zM492 117q96 0 170 46t115 123t41 159v89l-190 -4q-118 -2 -180 -26t-96.5 -73.5t-34.5 -131.5t44.5 -132t130.5 -50zM949 1511q0 44 -76 44q-61 0 -114 -19l-26 80q70 24 159 24q192 0 192 -112q0 -48 -33 -82.5t-106 -43.5
v-38h-91v94q42 2 68.5 11t26.5 42zM927 1208v-20h-105l-219 169h-2l-222 -169h-104v20l224 270h204z" />
    <glyph glyph-name="Acircumflextilde" unicode="&#x1eaa;" 
d="M1034 0l-138 382h-563l-137 -382h-196l510 1349h217l501 -1349h-194zM616 1205l-12 -39l-69 -212l-151 -423h463l-173 500zM741 1624q-51 0 -135 38q-85 37 -121 37q-45 0 -67.5 -17.5t-30.5 -57.5h-91q11 82 32.5 118t59.5 56t101 20q55 0 138 -37q83 -38 117 -38
q48 0 69.5 19t27.5 56h92q-12 -81 -33 -118t-58.5 -56.5t-100.5 -19.5zM615 1512l-151 -67h-155v12l209 141h195l208 -143v-10h-155z" />
    <glyph glyph-name="acircumflextilde" unicode="&#x1eab;" 
d="M1101 111q26 0 59 7v-112q-68 -16 -139 -16q-100 0 -145.5 52.5t-51.5 164.5h-6q-65 -121 -153.5 -174t-218.5 -53q-158 0 -238 86t-80 236q0 349 454 354l236 4v59q0 131 -53 188.5t-169 57.5q-118 0 -170 -42t-62 -130l-188 17q46 292 423 292q200 0 300.5 -93.5
t100.5 -270.5v-466q0 -80 21 -120.5t80 -40.5zM492 117q96 0 170 46t115 123t41 159v89l-190 -4q-118 -2 -180 -26t-96.5 -73.5t-34.5 -131.5t44.5 -132t130.5 -50zM492 1481h204l224 -270v-20h-104l-222 169h-2l-219 -169h-105v20zM708 1571q-51 0 -135 38q-85 37 -121 37
q-45 0 -67.5 -17.5t-30.5 -57.5h-91q11 82 32.5 118t59.5 56t101 20q55 0 138 -37q83 -38 117 -38q48 0 69.5 19t27.5 56h92q-12 -81 -33 -118t-58.5 -56.5t-100.5 -19.5z" />
    <glyph glyph-name="Acircumflexdotbelow" unicode="&#x1eac;" 
d="M1034 0l-138 382h-563l-137 -382h-196l510 1349h217l501 -1349h-194zM616 1205l-12 -39l-69 -212l-151 -423h463l-173 500zM514 -321v192h200v-192h-200zM945 1465v-20h-105l-219 138h-2l-232 -138h-104v20l254 239h164z" />
    <glyph glyph-name="acircumflexdotbelow" unicode="&#x1ead;" 
d="M1101 111q26 0 59 7v-112q-68 -16 -139 -16q-100 0 -145.5 52.5t-51.5 164.5h-6q-65 -121 -153.5 -174t-218.5 -53q-158 0 -238 86t-80 236q0 349 454 354l236 4v59q0 131 -53 188.5t-169 57.5q-118 0 -170 -42t-62 -130l-188 17q46 292 423 292q200 0 300.5 -93.5
t100.5 -270.5v-466q0 -80 21 -120.5t80 -40.5zM492 117q96 0 170 46t115 123t41 159v89l-190 -4q-118 -2 -180 -26t-96.5 -73.5t-34.5 -131.5t44.5 -132t130.5 -50zM933 1221v-20h-105l-219 138h-2l-232 -138h-104v20l254 239h164zM476 -321v192h200v-192h-200z" />
    <glyph glyph-name="Abreveacute" unicode="&#x1eae;" 
d="M1034 0l-138 382h-563l-137 -382h-196l510 1349h217l501 -1349h-194zM616 1205l-12 -39l-69 -212l-151 -423h463l-173 500zM649 1818h226v-12l-221 -146h-130v10zM613 1445q-129 0 -211.5 66.5t-100.5 182.5h107q17 -68 70 -95.5t137 -27.5t136 28t69 95h107
q-22 -120 -103.5 -184.5t-210.5 -64.5z" />
    <glyph glyph-name="abreveacute" unicode="&#x1eaf;" 
d="M1101 111q26 0 59 7v-112q-68 -16 -139 -16q-100 0 -145.5 52.5t-51.5 164.5h-6q-65 -121 -153.5 -174t-218.5 -53q-158 0 -238 86t-80 236q0 349 454 354l236 4v59q0 131 -53 188.5t-169 57.5q-118 0 -170 -42t-62 -130l-188 17q46 292 423 292q200 0 300.5 -93.5
t100.5 -270.5v-466q0 -80 21 -120.5t80 -40.5zM492 117q96 0 170 46t115 123t41 159v89l-190 -4q-118 -2 -180 -26t-96.5 -73.5t-34.5 -131.5t44.5 -132t130.5 -50zM589 1201q-132 0 -223 85t-109 224h117q28 -153 217 -153q186 0 215 153h117q-21 -142 -110.5 -225.5
t-223.5 -83.5zM482 1530v20l217 226h207v-29l-310 -217h-114z" />
    <glyph glyph-name="Abrevegrave" unicode="&#x1eb0;" 
d="M1034 0l-138 382h-563l-137 -382h-196l510 1349h217l501 -1349h-194zM616 1205l-12 -39l-69 -212l-151 -423h463l-173 500zM710 1670v-10h-130l-221 146v12h226zM617 1445q-129 0 -211.5 66.5t-100.5 182.5h107q17 -68 70 -95.5t137 -27.5t136 28t69 95h107
q-22 -120 -103.5 -184.5t-210.5 -64.5z" />
    <glyph glyph-name="abrevegrave" unicode="&#x1eb1;" 
d="M1101 111q26 0 59 7v-112q-68 -16 -139 -16q-100 0 -145.5 52.5t-51.5 164.5h-6q-65 -121 -153.5 -174t-218.5 -53q-158 0 -238 86t-80 236q0 349 454 354l236 4v59q0 131 -53 188.5t-169 57.5q-118 0 -170 -42t-62 -130l-188 17q46 292 423 292q200 0 300.5 -93.5
t100.5 -270.5v-466q0 -80 21 -120.5t80 -40.5zM492 117q96 0 170 46t115 123t41 159v89l-190 -4q-118 -2 -180 -26t-96.5 -73.5t-34.5 -131.5t44.5 -132t130.5 -50zM587 1201q-135 0 -224 84t-110 225h117q29 -153 215 -153q189 0 217 153h117q-18 -140 -109 -224.5
t-223 -84.5zM580 1530l-310 217v29h207l217 -226v-20h-114z" />
    <glyph glyph-name="Abrevehookabove" unicode="&#x1eb2;" 
d="M1034 0l-138 382h-563l-137 -382h-196l510 1349h217l501 -1349h-194zM616 1205l-12 -39l-69 -212l-151 -423h463l-173 500zM613 1445q-129 0 -211.5 66.5t-100.5 182.5h107q17 -68 70 -95.5t137 -27.5t136 28t69 95h107q-22 -120 -103.5 -184.5t-210.5 -64.5zM643 1715
q0 35 -59 35q-51 0 -91 -16l-20 64q58 20 125 20q152 0 152 -96q0 -48 -37 -74t-110 -26h-35v55q75 0 75 38z" />
    <glyph glyph-name="abrevehookabove" unicode="&#x1eb3;" 
d="M1101 111q26 0 59 7v-112q-68 -16 -139 -16q-100 0 -145.5 52.5t-51.5 164.5h-6q-65 -121 -153.5 -174t-218.5 -53q-158 0 -238 86t-80 236q0 349 454 354l236 4v59q0 131 -53 188.5t-169 57.5q-118 0 -170 -42t-62 -130l-188 17q46 292 423 292q200 0 300.5 -93.5
t100.5 -270.5v-466q0 -80 21 -120.5t80 -40.5zM492 117q96 0 170 46t115 123t41 159v89l-190 -4q-118 -2 -180 -26t-96.5 -73.5t-34.5 -131.5t44.5 -132t130.5 -50zM603 1201q-132 0 -223 85t-109 224h117q28 -153 217 -153q186 0 215 153h117q-21 -142 -110.5 -225.5
t-223.5 -83.5zM655 1675q0 55 -93 55q-72 0 -142 -24l-31 99q90 30 196 30q237 0 237 -139q0 -59 -40.5 -101.5t-131.5 -53.5v-40h-112v110q69 3 93 18t24 46z" />
    <glyph glyph-name="Abrevetilde" unicode="&#x1eb4;" 
d="M1034 0l-138 382h-563l-137 -382h-196l510 1349h217l501 -1349h-194zM616 1205l-12 -39l-69 -212l-151 -423h463l-173 500zM615 1445q-102 0 -168.5 53t-80.5 146h85q29 -83 166 -83q135 0 164 83h85q-21 -100 -85.5 -149.5t-165.5 -49.5zM741 1664q-35 0 -69 9.5
t-66.5 20.5t-63 20.5t-57.5 9.5q-81 0 -98 -60h-91q12 65 33 93.5t58.5 44.5t101.5 16q36 0 71 -9.5t67 -20.5t61.5 -20.5t55.5 -9.5q48 0 69.5 15.5t27.5 44.5h92q-11 -64 -32 -93.5t-59 -45t-101 -15.5z" />
    <glyph glyph-name="abrevetilde" unicode="&#x1eb5;" 
d="M1101 111q26 0 59 7v-112q-68 -16 -139 -16q-100 0 -145.5 52.5t-51.5 164.5h-6q-65 -121 -153.5 -174t-218.5 -53q-158 0 -238 86t-80 236q0 349 454 354l236 4v59q0 131 -53 188.5t-169 57.5q-118 0 -170 -42t-62 -130l-188 17q46 292 423 292q200 0 300.5 -93.5
t100.5 -270.5v-466q0 -80 21 -120.5t80 -40.5zM492 117q96 0 170 46t115 123t41 159v89l-190 -4q-118 -2 -180 -26t-96.5 -73.5t-34.5 -131.5t44.5 -132t130.5 -50zM600 1201q-132 0 -223 85t-109 224h117q28 -153 217 -153q186 0 215 153h117q-21 -142 -110.5 -225.5
t-223.5 -83.5zM725 1581q-51 0 -135 38q-85 37 -121 37q-45 0 -67.5 -17.5t-30.5 -57.5h-91q11 82 32.5 118t59.5 56t101 20q55 0 138 -37q83 -38 117 -38q48 0 69.5 19t27.5 56h92q-12 -81 -33 -118t-58.5 -56.5t-100.5 -19.5z" />
    <glyph glyph-name="Abrevedotbelow" unicode="&#x1eb6;" 
d="M1034 0l-138 382h-563l-137 -382h-196l510 1349h217l501 -1349h-194zM616 1205l-12 -39l-69 -212l-151 -423h463l-173 500zM613 1446q-124 0 -207.5 71t-104.5 188h127q17 -63 60 -98t125 -35q85 0 127.5 35t59.5 98h127q-24 -119 -106.5 -189t-207.5 -70zM514 -321v192
h200v-192h-200z" />
    <glyph glyph-name="abrevedotbelow" unicode="&#x1eb7;" 
d="M1101 111q26 0 59 7v-112q-68 -16 -139 -16q-100 0 -145.5 52.5t-51.5 164.5h-6q-65 -121 -153.5 -174t-218.5 -53q-158 0 -238 86t-80 236q0 349 454 354l236 4v59q0 131 -53 188.5t-169 57.5q-118 0 -170 -42t-62 -130l-188 17q46 292 423 292q200 0 300.5 -93.5
t100.5 -270.5v-466q0 -80 21 -120.5t80 -40.5zM492 117q96 0 170 46t115 123t41 159v89l-190 -4q-118 -2 -180 -26t-96.5 -73.5t-34.5 -131.5t44.5 -132t130.5 -50zM594 1201q-124 0 -207.5 71t-104.5 188h127q17 -63 60 -98t125 -35q85 0 127.5 35t59.5 98h127
q-24 -119 -106.5 -189t-207.5 -70zM486 -321v192h200v-192h-200z" />
    <glyph glyph-name="Edotbelow" unicode="&#x1eb8;" 
d="M162 0v1349h919v-156h-728v-422h668v-154h-668v-461h769v-156h-960zM555 -321v192h200v-192h-200z" />
    <glyph glyph-name="edotbelow" unicode="&#x1eb9;" 
d="M322 503q0 -182 80.5 -285t220.5 -103q103 0 180.5 44.5t103.5 121.5l158 -45q-44 -124 -161.5 -190t-280.5 -66q-236 0 -363 147t-127 421q0 267 124.5 410.5t359.5 143.5t356 -143t121 -432v-24h-772zM619 969q-134 0 -212 -87.5t-83 -240.5h584q-28 328 -289 328z
M522 -321v192h200v-192h-200z" />
    <glyph glyph-name="Ehookabove" unicode="&#x1eba;" 
d="M162 0v1349h919v-156h-728v-422h668v-154h-668v-461h769v-156h-960zM692 1665q0 31 -25.5 48t-67.5 17q-72 0 -142 -24l-31 99q90 30 196 30q237 0 237 -149q0 -59 -40.5 -101.5t-131.5 -53.5v-50h-112v120q69 3 93 18t24 46z" />
    <glyph glyph-name="ehookabove" unicode="&#x1ebb;" 
d="M322 503q0 -182 80.5 -285t220.5 -103q103 0 180.5 44.5t103.5 121.5l158 -45q-44 -124 -161.5 -190t-280.5 -66q-236 0 -363 147t-127 421q0 267 124.5 410.5t359.5 143.5t356 -143t121 -432v-24h-772zM619 969q-134 0 -212 -87.5t-83 -240.5h584q-28 328 -289 328z
M666 1356q0 31 -25.5 48t-67.5 17q-72 0 -142 -24l-31 99q90 30 196 30q237 0 237 -149q0 -59 -40.5 -101.5t-131.5 -53.5v-50h-112v120q69 3 93 18t24 46z" />
    <glyph glyph-name="Etilde" unicode="&#x1ebc;" 
d="M162 0v1349h919v-156h-728v-422h668v-154h-668v-461h769v-156h-960zM771 1446q-42 0 -84 18.5t-82 41t-78.5 41t-73.5 18.5q-25 0 -40 -9.5t-25 -27.5t-21 -82h-111q11 96 34.5 145t64.5 76t104 27q44 0 86 -18.5t82 -41t77 -41t70 -18.5q37 0 57 23.5t30 95.5h112
q-16 -138 -65.5 -193t-136.5 -55z" />
    <glyph glyph-name="etilde" unicode="&#x1ebd;" 
d="M322 503q0 -182 80.5 -285t220.5 -103q103 0 180.5 44.5t103.5 121.5l158 -45q-44 -124 -161.5 -190t-280.5 -66q-236 0 -363 147t-127 421q0 267 124.5 410.5t359.5 143.5t356 -143t121 -432v-24h-772zM619 969q-134 0 -212 -87.5t-83 -240.5h584q-28 328 -289 328z
M771 1201q-42 0 -84 18.5t-82 41t-78.5 41t-73.5 18.5q-25 0 -40 -9.5t-25 -27.5t-21 -82h-111q11 96 34.5 145t64.5 76t104 27q44 0 86 -18.5t82 -41t77 -41t70 -18.5q37 0 57 23.5t30 95.5h112q-16 -138 -65.5 -193t-136.5 -55z" />
    <glyph glyph-name="Ecircumflexacute" unicode="&#x1ebe;" 
d="M162 0v1349h919v-156h-728v-422h668v-154h-668v-461h769v-156h-960zM949 1818h217v-12l-226 -176h-96v10zM960 1465v-20h-105l-219 169h-2l-222 -169h-104v20l224 270h204z" />
    <glyph glyph-name="ecircumflexacute" unicode="&#x1ebf;" 
d="M322 503q0 -182 80.5 -285t220.5 -103q103 0 180.5 44.5t103.5 121.5l158 -45q-44 -124 -161.5 -190t-280.5 -66q-236 0 -363 147t-127 421q0 267 124.5 410.5t359.5 143.5t356 -143t121 -432v-24h-772zM619 969q-134 0 -212 -87.5t-83 -240.5h584q-28 328 -289 328z
M940 1574h217v-12l-226 -176h-96v10zM951 1221v-20h-105l-219 169h-2l-222 -169h-104v20l224 270h204z" />
    <glyph glyph-name="Ecircumflexgrave" unicode="&#x1ec0;" 
d="M162 0v1349h919v-156h-728v-422h668v-154h-668v-461h769v-156h-960zM428 1640v-10h-96l-226 176v12h217zM961 1465v-20h-105l-219 169h-2l-222 -169h-104v20l224 270h204z" />
    <glyph glyph-name="ecircumflexgrave" unicode="&#x1ec1;" 
d="M322 503q0 -182 80.5 -285t220.5 -103q103 0 180.5 44.5t103.5 121.5l158 -45q-44 -124 -161.5 -190t-280.5 -66q-236 0 -363 147t-127 421q0 267 124.5 410.5t359.5 143.5t356 -143t121 -432v-24h-772zM619 969q-134 0 -212 -87.5t-83 -240.5h584q-28 328 -289 328z
M407 1396v-10h-96l-226 176v12h217zM515 1491h204l224 -270v-20h-104l-222 169h-2l-219 -169h-105v20z" />
    <glyph glyph-name="Ecircumflexhookabove" unicode="&#x1ec2;" 
d="M162 0v1349h919v-156h-728v-422h668v-154h-668v-461h769v-156h-960zM972 1715q0 35 -59 35q-51 0 -91 -16l-20 64q58 20 125 20q152 0 152 -96q0 -44 -33.5 -72t-87.5 -28v-23h-61v78q75 0 75 38zM955 1465v-20h-105l-219 169h-2l-222 -169h-104v20l224 270h204z" />
    <glyph glyph-name="ecircumflexhookabove" unicode="&#x1ec3;" 
d="M322 503q0 -182 80.5 -285t220.5 -103q103 0 180.5 44.5t103.5 121.5l158 -45q-44 -124 -161.5 -190t-280.5 -66q-236 0 -363 147t-127 421q0 267 124.5 410.5t359.5 143.5t356 -143t121 -432v-24h-772zM619 969q-134 0 -212 -87.5t-83 -240.5h584q-28 328 -289 328z
M968 1524q0 44 -76 44q-61 0 -114 -19l-26 80q70 24 159 24q192 0 192 -112q0 -48 -33 -82.5t-106 -43.5v-38h-91v94q42 2 68.5 11t26.5 42zM946 1221v-20h-105l-219 169h-2l-222 -169h-104v20l224 270h204z" />
    <glyph glyph-name="Ecircumflextilde" unicode="&#x1ec4;" 
d="M162 0v1349h919v-156h-728v-422h668v-154h-668v-461h769v-156h-960zM757 1624q-51 0 -135 38q-85 37 -121 37q-45 0 -67.5 -17.5t-30.5 -57.5h-91q11 82 32.5 118t59.5 56t101 20q55 0 138 -37q83 -38 117 -38q48 0 69.5 19t27.5 56h92q-12 -81 -33 -118t-58.5 -56.5
t-100.5 -19.5zM631 1512l-151 -67h-155v12l209 141h195l208 -143v-10h-155z" />
    <glyph glyph-name="ecircumflextilde" unicode="&#x1ec5;" 
d="M322 503q0 -182 80.5 -285t220.5 -103q103 0 180.5 44.5t103.5 121.5l158 -45q-44 -124 -161.5 -190t-280.5 -66q-236 0 -363 147t-127 421q0 267 124.5 410.5t359.5 143.5t356 -143t121 -432v-24h-772zM619 969q-134 0 -212 -87.5t-83 -240.5h584q-28 328 -289 328z
M522 1491h204l224 -270v-20h-104l-222 169h-2l-219 -169h-105v20zM738 1581q-51 0 -135 38q-85 37 -121 37q-45 0 -67.5 -17.5t-30.5 -57.5h-91q11 82 32.5 118t59.5 56t101 20q55 0 138 -37q83 -38 117 -38q48 0 69.5 19t27.5 56h92q-12 -81 -33 -118t-58.5 -56.5
t-100.5 -19.5z" />
    <glyph glyph-name="Ecircumflexdotbelow" unicode="&#x1ec6;" 
d="M162 0v1349h919v-156h-728v-422h668v-154h-668v-461h769v-156h-960zM945 1465v-20h-105l-219 138h-2l-232 -138h-104v20l254 239h164zM544 -321v192h200v-192h-200z" />
    <glyph glyph-name="ecircumflexdotbelow" unicode="&#x1ec7;" 
d="M322 503q0 -182 80.5 -285t220.5 -103q103 0 180.5 44.5t103.5 121.5l158 -45q-44 -124 -161.5 -190t-280.5 -66q-236 0 -363 147t-127 421q0 267 124.5 410.5t359.5 143.5t356 -143t121 -432v-24h-772zM619 969q-134 0 -212 -87.5t-83 -240.5h584q-28 328 -289 328z
M952 1221v-20h-105l-219 138h-2l-232 -138h-104v20l254 239h164zM533 -321v192h200v-192h-200z" />
    <glyph glyph-name="Ihookabove" unicode="&#x1ec8;" 
d="M202 1349h823v-156h-316v-1037h316v-156h-823v156h316v1037h-316v156zM663 1665q0 31 -25.5 48t-67.5 17q-72 0 -142 -24l-31 99q90 30 196 30q237 0 237 -149q0 -59 -40.5 -101.5t-131.5 -53.5v-50h-112v120q69 3 93 18t24 46z" />
    <glyph glyph-name="ihookabove" unicode="&#x1ec9;" 
d="M745 142h380v-142h-982v142h422v798h-319v142h499v-940zM663 1377q0 31 -25.5 48t-67.5 17q-72 0 -142 -24l-31 99q90 30 196 30q237 0 237 -149q0 -59 -40.5 -101.5t-131.5 -53.5v-50h-112v120q69 3 93 18t24 46z" />
    <glyph glyph-name="Idotbelow" unicode="&#x1eca;" 
d="M202 1349h823v-156h-316v-1037h316v-156h-823v156h316v1037h-316v156zM514 -321v192h200v-192h-200z" />
    <glyph glyph-name="idotbelow" unicode="&#x1ecb;" 
d="M745 142h380v-142h-982v142h422v798h-319v142h499v-940zM545 1292v192h200v-192h-200zM542 -321v192h200v-192h-200z" />
    <glyph glyph-name="Odotbelow" unicode="&#x1ecc;" 
d="M1126 681q0 -337 -132.5 -519t-380.5 -182q-249 0 -380 179t-131 522q0 337 130 513t383 176q247 0 379 -173.5t132 -515.5zM925 681q0 533 -310 533q-312 0 -312 -533q0 -270 79 -408t232 -138q163 0 237 140t74 406zM514 -321v192h200v-192h-200z" />
    <glyph glyph-name="odotbelow" unicode="&#x1ecd;" 
d="M1097 542q0 -273 -125.5 -417.5t-362.5 -144.5q-232 0 -355.5 146t-123.5 416q0 279 126.5 419.5t358.5 140.5q244 0 363 -139t119 -421zM908 542q0 215 -68.5 321t-221.5 106q-155 0 -227 -108t-72 -319q0 -210 72 -319.5t216 -109.5q159 0 230 107t71 322zM514 -321
v192h200v-192h-200z" />
    <glyph glyph-name="Ohookabove" unicode="&#x1ece;" 
d="M1126 681q0 -337 -132.5 -519t-380.5 -182q-249 0 -380 179t-131 522q0 337 130 513t383 176q247 0 379 -173.5t132 -515.5zM925 681q0 533 -310 533q-312 0 -312 -533q0 -270 79 -408t232 -138q163 0 237 140t74 406zM663 1665q0 31 -25.5 48t-67.5 17q-72 0 -142 -24
l-31 99q90 30 196 30q237 0 237 -149q0 -59 -40.5 -101.5t-131.5 -53.5v-50h-112v120q69 3 93 18t24 46z" />
    <glyph glyph-name="ohookabove" unicode="&#x1ecf;" 
d="M1097 542q0 -273 -125.5 -417.5t-362.5 -144.5q-232 0 -355.5 146t-123.5 416q0 279 126.5 419.5t358.5 140.5q244 0 363 -139t119 -421zM908 542q0 215 -68.5 321t-221.5 106q-155 0 -227 -108t-72 -319q0 -210 72 -319.5t216 -109.5q159 0 230 107t71 322zM663 1377
q0 31 -25.5 48t-67.5 17q-72 0 -142 -24l-31 99q90 30 196 30q237 0 237 -149q0 -59 -40.5 -101.5t-131.5 -53.5v-50h-112v120q69 3 93 18t24 46z" />
    <glyph glyph-name="Ocircumflexacute" unicode="&#x1ed0;" 
d="M1126 681q0 -337 -132.5 -519t-380.5 -182q-249 0 -380 179t-131 522q0 337 130 513t383 176q247 0 379 -173.5t132 -515.5zM925 681q0 533 -310 533q-312 0 -312 -533q0 -270 79 -408t232 -138q163 0 237 140t74 406zM916 1818h217v-12l-226 -176h-96v10zM927 1465v-20
h-105l-219 169h-2l-222 -169h-104v20l224 270h204z" />
    <glyph glyph-name="ocircumflexacute" unicode="&#x1ed1;" 
d="M1097 542q0 -273 -125.5 -417.5t-362.5 -144.5q-232 0 -355.5 146t-123.5 416q0 279 126.5 419.5t358.5 140.5q244 0 363 -139t119 -421zM908 542q0 215 -68.5 321t-221.5 106q-155 0 -227 -108t-72 -319q0 -210 72 -319.5t216 -109.5q159 0 230 107t71 322zM929 1574
h217v-12l-226 -176h-96v10zM940 1221v-20h-105l-219 169h-2l-222 -169h-104v20l224 270h204z" />
    <glyph glyph-name="Ocircumflexgrave" unicode="&#x1ed2;" 
d="M1126 681q0 -337 -132.5 -519t-380.5 -182q-249 0 -380 179t-131 522q0 337 130 513t383 176q247 0 379 -173.5t132 -515.5zM925 681q0 533 -310 533q-312 0 -312 -533q0 -270 79 -408t232 -138q163 0 237 140t74 406zM395 1640v-10h-96l-226 176v12h217zM928 1465v-20
h-105l-219 169h-2l-222 -169h-104v20l224 270h204z" />
    <glyph glyph-name="ocircumflexgrave" unicode="&#x1ed3;" 
d="M1097 542q0 -273 -125.5 -417.5t-362.5 -144.5q-232 0 -355.5 146t-123.5 416q0 279 126.5 419.5t358.5 140.5q244 0 363 -139t119 -421zM908 542q0 215 -68.5 321t-221.5 106q-155 0 -227 -108t-72 -319q0 -210 72 -319.5t216 -109.5q159 0 230 107t71 322zM410 1396
v-10h-96l-226 176v12h217zM518 1491h204l224 -270v-20h-104l-222 169h-2l-219 -169h-105v20z" />
    <glyph glyph-name="Ocircumflexhookabove" unicode="&#x1ed4;" 
d="M1126 681q0 -337 -132.5 -519t-380.5 -182q-249 0 -380 179t-131 522q0 337 130 513t383 176q247 0 379 -173.5t132 -515.5zM925 681q0 533 -310 533q-312 0 -312 -533q0 -270 79 -408t232 -138q163 0 237 140t74 406zM967 1715q0 35 -59 35q-51 0 -91 -16l-20 64
q58 20 125 20q152 0 152 -96q0 -44 -33.5 -72t-87.5 -28v-23h-61v78q75 0 75 38zM950 1465v-20h-105l-219 169h-2l-222 -169h-104v20l224 270h204z" />
    </font>
</defs>
</svg>
