<?xml version="1.0" standalone="no"?>
<!DOCTYPE svg PUBLIC "-//W3C//DTD SVG 1.1//EN" "http://www.w3.org/Graphics/SVG/1.1/DTD/svg11.dtd" >
<svg>
<metadata>
Created by FontForge 20090914 at Fri Oct 13 00:18:43 2017
 By www-data
Copyright (c) 2011 by Maxim Iorsh (maxim.iorsh@gmail.com). Distributed under the terms of GNU General Public License version 2(http://www.gnu.org/licenses/gpl-2.0.html). 
All rights reserved.
</metadata>
<defs>
<font id="DorianCLM-BookItalic" horiz-adv-x="0" >
  <font-face 
    font-family="Dorian CLM"
    font-weight="400"
    font-style="italic"
    font-stretch="normal"
    units-per-em="1000"
    panose-1="0 0 0 0 0 0 0 0 0 0"
    ascent="800"
    descent="-200"
    bbox="-728.001 -434.001 1321 1089.09"
    underline-thickness="50"
    underline-position="-100"
    slope="-15"
    unicode-range="U+0020-U+FB4F"
  />
<missing-glyph horiz-adv-x="890" 
d="M319 650l-187 -700h600l187 700h-600zM283 700h700l-215 -800h-700z" />
    <glyph glyph-name=".notdef" horiz-adv-x="890" 
d="M319 650l-187 -700h600l187 700h-600zM283 700h700l-215 -800h-700z" />
    <glyph glyph-name=".notdef" horiz-adv-x="890" 
d="M319 650l-187 -700h600l187 700h-600zM283 700h700l-215 -800h-700z" />
    <glyph glyph-name="space" unicode=" " horiz-adv-x="460" 
 />
    <glyph glyph-name="exclam" unicode="!" horiz-adv-x="381" 
d="M162 241l-11 15l121 453l74 51l10 -14l-121 -453zM111 -32l-55 94l94 55l55 -95z" />
    <glyph glyph-name="quotedbl" unicode="&#x22;" horiz-adv-x="399" 
d="M464 804l11 -15c17.333 -42 19 -89 5 -141c-14.667 -54.667 -44 -104 -88 -148l-73 -52l-11 15c44 44 73.333 93.333 88 148c14 52 12.333 99 -5 141zM264 804l11 -15c17.333 -42 19 -89 5 -141c-14.667 -54.667 -44 -104 -88 -148l-73 -52l-11 15
c44 44 73.333 93.333 88 148c14 52 12.333 99 -5 141z" />
    <glyph glyph-name="numbersign" unicode="#" horiz-adv-x="934" 
d="M832 165l-49 -35h-701l-7 10l49 35h701zM911 458l-50 -35h-701l-6 10l49 35h701zM555 -41l-10 14l165 617l74 52l10 -15l-165 -617zM212 -41l-10 14l165 617l74 52l10 -15l-165 -617z" />
    <glyph glyph-name="dollar" unicode="$" horiz-adv-x="833" 
d="M666 390l-9.99609 14.9971c11.333 8.66699 21.166 19 29.499 31s13.666 25.667 15.999 41s-2.16699 30.333 -13.5 45c-22.667 30 -61 48.667 -115 56l-58 -222c38.667 -13.333 64.667 -22.666 78 -27.999c66.667 -25.333 111 -58 133 -98
c12 -21.333 17 -42.166 15 -62.499s-8 -38.666 -18 -54.999s-23 -29.833 -39 -40.5l-72 -50c-46.667 -32 -113.334 -50 -200.001 -54l-23 -90l-57 -40l-8 12l30 117c-110 3.33301 -183 30.333 -219 81c-18 25.333 -25.333 51.833 -22 79.5s17 51.834 41 72.501l51 35l11 -15
c-18 -14.667 -27.833 -33.167 -29.5 -55.5s4.16602 -41.5 17.499 -57.5c31.333 -39.333 87.666 -63 168.999 -71l69 264c-26.667 9.33301 -47 16.833 -61 22.5s-30.667 13.167 -50 22.5s-35.166 19.5 -47.499 30.5s-22.5 23.5 -30.5 37.5
c-9.33301 15.333 -12.833 30.666 -10.5 45.999s7 28.833 14 40.5s15.167 20.834 24.5 27.501l70 48c2.66699 2 6 4 10 6c56.667 34.667 114 55.667 172 63l22 82l57 40l8 -11l-28 -108h1c78.667 0 135.667 -23.667 171 -71c14.667 -20 20 -42.333 16 -67
c-4.66699 -28.667 -23 -54.334 -55 -77.001zM516.004 580.997c-64.667 -2 -125.334 -17.334 -182.001 -46.001c-9.33301 -12 -15 -25.167 -17 -39.5s1.66699 -28.166 11 -41.499c22.667 -28 67.334 -54.333 134.001 -79zM430.004 32.9961l13 0.000976562
c76 0 139.333 10.667 190 32c9.33301 11.333 17 23.833 23 37.5s9 28.667 9 45s-4.66699 30.5 -14 42.5c-22.667 27.333 -62 52.666 -118 75.999l-38 15z" />
    <glyph glyph-name="percent" unicode="%" horiz-adv-x="869" 
d="M436 435l8 -11.002c-4 -2.66699 -7.66699 -5.33398 -11 -8.00098l-58 -40v-1c-28.667 -19.333 -60 -29 -94 -29c-46.667 0 -82 17 -106 51l-8 11c-15.333 22.667 -21.333 48 -18 76c4 33.333 20.333 62.333 49 87l44 31c-7.33301 -3.33301 -14.666 -7 -21.999 -11
l-21 -15l-8 12l10 8l57 40c28.667 20 60.334 30 95.001 30c46.667 0 81.667 -17 105 -51l8 -12c14 -19.333 20.667 -41.333 20 -66c10 -4.66699 20.667 -7.33398 32 -8.00098c28 -2 55.333 -0.666992 82 4s48.167 10.334 64.5 17.001s40.5 17.334 72.5 32.001
c6.66699 2.66699 12 5 16 7l1 -2l43 36l116 31l4 -17l-738 -630l-116 -31l-4 17l648 553c-34 -15.333 -59 -26.166 -75 -32.499s-37.667 -12.166 -65 -17.499s-55 -7 -83 -5c-3.33301 0 -6.33301 0.333008 -9 1c-8.66699 -19.333 -21.334 -36.333 -38.001 -51l-46 -32
c7.33301 3.33301 14.666 7 21.999 11zM776 54.998l8.00098 -11.001c-3.33301 -3.33301 -6.66602 -6.33301 -9.99902 -9l-58 -40c-28.667 -20 -60 -30 -94 -30c-46.667 0 -82 17 -106 51l-8 12c-16 22 -22 47.333 -18 76c4 33.333 20 62 48 86l45 32
c-8 -3.33301 -15.333 -7 -22 -11l-21 -15l-9 11c3.33301 2.66699 7 5.33398 11 8.00098l57 40c28.667 20 60 30 94 30c47.333 0 82.666 -17 105.999 -51l8 -11c16 -22.667 22.333 -48 19 -76c-4.66699 -33.333 -20.667 -62 -48 -86l-46 -33
c7.33301 3.33301 14.666 7 21.999 11zM257.001 606.997l6.00098 -7c-28 -24.667 -44.333 -53.667 -49 -87c-3.33301 -26 1.66699 -49.333 15 -70c24 -30.667 57.667 -46 101 -46c16 0 32 2.33301 48 7l-6 9c27.333 24 43 52.667 47 86c1.33301 8 1.66602 16 0.999023 24
c-1.33301 1.33301 -2.33301 2.66602 -3 3.99902v0l-7 9c-8.66699 12.667 -13.667 27.334 -15 44.001c-24.667 22.667 -55.334 34 -92.001 34c-15.333 0 -30.666 -2.33301 -45.999 -7zM598.002 226.997l6 -8.00098c-28.667 -24 -45 -53 -49 -87
c-3.33301 -25.333 1.66699 -48.666 15 -69.999c24 -30 57.667 -45 101 -45c16 0 31.667 2.33301 47 7l-5 8c27.333 24.667 43 53.334 47 86.001c3.33301 25.333 -1.33398 48.666 -14.001 69.999c-24.667 30.667 -58.667 46 -102 46c-15.333 0 -30.666 -2.33301 -45.999 -7z
" />
    <glyph glyph-name="quotesingle" unicode="'" horiz-adv-x="199" 
d="M264 804l11 -15c17.333 -42 19 -89 5 -141c-14.667 -54.667 -44 -104 -88 -148l-73 -52l-11 15c44 44 73.333 93.333 88 148c14 52 12.333 99 -5 141z" />
    <glyph glyph-name="parenleft" unicode="(" horiz-adv-x="313" 
d="M132 -113l-10.001 15c-27.333 88.667 -36.5 177.334 -27.5 266.001s32.833 174.667 71.5 258s93.334 168.666 164.001 255.999l74 51l14 -21c-53.333 -64.667 -97.5 -128.167 -132.5 -190.5s-62 -125.5 -81 -189.5s-28.5 -128.667 -28.5 -194s10 -132 30 -200z" />
    <glyph glyph-name="parenright" unicode=")" horiz-adv-x="313" 
d="M244 723l10 -15c26.667 -88.667 35.667 -177.334 27 -266.001s-32.5 -174.667 -71.5 -258s-93.5 -168.666 -163.5 -255.999l-74 -51l-14 21c52.667 64.667 96.5 128.167 131.5 190.5s62 125.5 81 189.5s28.5 128.667 28.5 194s-9.66699 132 -29 200z" />
    <glyph glyph-name="asterisk" unicode="*" horiz-adv-x="713" 
d="M483 622l9 -16l-62 -232l258 71l9 -15l-78 -45l-186 -52l84 -210l-78 -45l-9 16l-74 186l-147 -157l-78 -45l-9 16l207 221l-214 70l-9 15l78 45l171 -55l50 187z" />
    <glyph glyph-name="plus" unicode="+" horiz-adv-x="820" 
d="M549 583l10 -15l-134 -500l-74 -51l-10 15l134 500zM777 316l-65 -45h-580l-9 13l65 45h580z" />
    <glyph glyph-name="comma" unicode="," horiz-adv-x="302" 
d="M-11 -234l-10.001 13.999c45.333 40.667 75 87.334 89 140.001c12.667 48 9.66699 91 -9 129l81 57l10 -15c18.667 -38.667 21.334 -82 8.00098 -130c-14 -52 -43.333 -98.333 -88 -139z" />
    <glyph glyph-name="hyphen" unicode="-" horiz-adv-x="565" 
d="M510 317l-74 -51h-328l-11 15l74 51h329z" />
    <glyph glyph-name="period" unicode="." horiz-adv-x="341" 
d="M121 -32l-55 94l94 55l55 -95z" />
    <glyph glyph-name="slash" unicode="/" horiz-adv-x="516" 
d="M-36 -141l-7 16l611 816l91 42l7 -16l-611 -816z" />
    <glyph glyph-name="zero" unicode="0" horiz-adv-x="749" 
d="M161 493l-10 14l23 18l73 51c64 44.667 134 67 210 67c50 0 95.5 -10.167 136.5 -30.5s73.833 -47.833 98.5 -82.5l10 -15v0c35.333 -50 49 -106.333 41 -169c-9.33301 -73.333 -44.666 -137 -105.999 -191l-74 -52l-10 15c61.333 54 96.666 117.667 105.999 191
c7.33301 59.333 -4.66699 113.333 -36 162c-24.667 32.667 -57 58.5 -97 77.5s-84.333 28.5 -133 28.5c-65.333 0 -127 -17 -185 -51zM641 131l10.001 -14c-7.33301 -6.66699 -15.333 -13 -24 -19l-74 -51v-1c-64 -44 -133.667 -66 -209 -66c-50 0 -95.5 10.167 -136.5 30.5
s-73.833 47.833 -98.5 82.5l-11 15c-34.667 50 -48 106.333 -40 169c9.33301 74.667 45.333 139 108 193l74 52l10 -15c-62.667 -54.667 -98.667 -119 -108 -193c-7.33301 -59.333 4.66699 -113.333 36 -162c24.667 -32.667 57 -58.5 97 -77.5s84 -28.5 132 -28.5
c65.333 0 126.666 16.667 183.999 50z" />
    <glyph glyph-name="one" unicode="1" horiz-adv-x="486" 
d="M49 381l71 86c116.667 26.667 216 69 298 127l73 51l11 -15l-165 -616l-74 -51l-10 15l155 580l-68 -48c-103.333 -72.667 -197 -120.667 -281 -144z" />
    <glyph glyph-name="two" unicode="2" horiz-adv-x="694" 
d="M639 30l-74.0039 -50.999c-168.667 38.667 -336.667 38.667 -504 0c-21.333 -4.66699 -42.666 -10 -63.999 -16l-11 14l74 52l46 22c134.667 65.333 260 143.666 376 234.999c92 72 138 146.333 138 223c0 30 -7.33301 54.667 -22 74c-36.667 50 -105 75 -205 75
c-52 0 -101 -11 -147 -33c-21.333 -22.667 -34 -48 -38 -76c-3.33301 -22 0.666992 -40.667 12 -56c20.667 -27.333 60.667 -43.333 120 -48l10 -15l-73 -52c-60.667 2 -105.667 24 -135 66c-6.66699 10 -11.667 22 -15 36s-4 26.333 -2 37c6 38 29 71 69 99l74 52
c25.333 18 54.833 31.833 88.5 41.5s66.834 14.5 99.501 14.5c104.667 0 177.667 -29.333 219 -88c17.333 -24.667 27 -52.667 29 -84c2.66699 -37.333 -6.66602 -74 -27.999 -110s-56.666 -76 -105.999 -120c-44 -39.333 -84.667 -72.333 -122 -99
c-80.667 -58 -161 -111.667 -241 -161c137.333 22 278 16.333 422 -17z" />
    <glyph glyph-name="three" unicode="3" horiz-adv-x="698" 
d="M150 582l73.998 51c12.667 -11.333 26.334 -20.833 41.001 -28.5s31.167 -13.334 49.5 -17.001s35 -6.66699 50 -9s34 -2.5 57 -0.5s41.5 3.66699 55.5 5s34.167 4.83301 60.5 10.5s45.333 9.66699 57 12s31.5 7 59.5 14l54 13.5l11 -15l-262 -239
c68 -12 117.667 -39.667 149 -83c19.333 -28 31 -58.167 35 -90.5s-0.5 -65.333 -13.5 -99s-34.167 -63.834 -63.5 -90.501c-8.66699 -8 -18.334 -15.667 -29.001 -23l-73 -52h-1c-39.333 -27.333 -85 -46.166 -137 -56.499s-103 -9.83301 -153 1.5
c-61.333 14 -103.666 38 -126.999 72c-8.66699 11.333 -15.167 23.833 -19.5 37.5s-5.66602 28.834 -3.99902 45.501s7.5 32.667 17.5 48l73 51l11 -15c-12.667 -18.667 -19 -38.667 -19 -60s5.66699 -39.333 17 -54c12.667 -16 32 -29.5 58 -40.5s53.333 -18.5 82 -22.5
c78.667 -12 153.667 0 225 36c38.667 37.333 62.167 81 70.5 131s-0.166992 92.333 -25.5 127c-30.667 41.333 -84 66 -160 74l-10 14l250 228c-26.667 -6.66699 -44.5 -11 -53.5 -13l-52.5 -12c-26 -6 -44.833 -9.83301 -56.5 -11.5s-29.167 -4 -52.5 -7
s-41.5 -4.16699 -54.5 -3.5l-49 2.5c-19.667 1 -36.167 3.83301 -49.5 8.5s-27.333 10.667 -42 18s-28 16.333 -40 27z" />
    <glyph glyph-name="four" unicode="4" horiz-adv-x="687" 
d="M492 680l9.99902 -15.0029c-15.333 -56 -34 -106 -56 -150s-49.5 -85.5 -82.5 -124.5s-68 -74.667 -105 -107s-83.833 -69.166 -140.5 -110.499c67.333 16 139.333 26 216 30s149.334 1.33301 218.001 -8l3 -5l50 188l74 51l11 -15l-108 -400l-73 -51l-11 15l52 194
l-62 -43c-76 10 -157.667 11.833 -245 5.5s-166.333 -20.166 -237 -41.499l-11 15c44 32.667 80 60.5 108 83.5s58.167 50.667 90.5 83s59.166 63.5 80.499 93.5s41.833 65.333 61.5 106s35.834 84.334 48.501 131.001z" />
    <glyph glyph-name="five" unicode="5" horiz-adv-x="678" 
d="M711 619l-73.999 -52.002c-50.667 -12 -95.5 -20.833 -134.5 -26.5s-78 -8.16699 -117 -7.5s-72.833 6.33398 -101.5 17.001c-31.333 -81.333 -67 -149.333 -107 -204c48 18 103 27 165 27c120 0 204 -35 252 -105c22.667 -34 34.334 -69 35.001 -105
c0 -30.667 -7.83301 -60.167 -23.5 -88.5s-37.167 -52.166 -64.5 -71.499l-73 -51c-2.66699 -2 -5 -3.66699 -7 -5c-34 -22 -73.333 -39.5 -118 -52.5s-88.334 -19.5 -131.001 -19.5c-86 1.33301 -148.667 30.333 -188 87c-30 43.333 -34.667 82.666 -14 117.999l74 51
l10 -14c-19.333 -34 -17 -68 7 -102c17.333 -24.667 42 -43.167 74 -55.5s67.333 -18.166 106 -17.499c71.333 0 140.666 17 207.999 51c37.333 39.333 55.666 84 54.999 134c0 33.333 -9 63 -27 89c-21.333 30 -53 52.667 -95 68s-90 23 -144 23
c-56 0 -109 -8.33301 -159 -25l-11 15c32 43.333 58 90.333 78 141s34 98.667 42 144l74 51c35.333 -16.667 74.333 -27 117 -31s84.834 -3.33301 126.501 2s93.5 15 155.5 29z" />
    <glyph glyph-name="six" unicode="6" horiz-adv-x="733" 
d="M104 66c-33.333 46.667 -48.4971 101.5 -45.4971 164.5s23.833 124.167 62.5 183.5c44.667 69.333 96.667 124.666 156 165.999l74 52c4 2.66699 7.33301 5 10 7c32 20.667 64.5 36.5 97.5 47.5s67.5 16.667 103.5 17s70.333 -6.16699 103 -19.5
c22 -9.33301 38 -22 48 -38c8.66699 -12 12.667 -27.5 12 -46.5s-7 -35.167 -19 -48.5l-74 -51l-10 14c11.333 12 18.333 25 21 39s0.666992 27 -6 39s-18 21.333 -34 28c-44 15.333 -90.5 20 -139.5 14s-95.167 -21 -138.5 -45c-45.333 -38 -85.333 -84 -120 -138
c-36.667 -56 -57.334 -113.667 -62.001 -173s7.66602 -112 36.999 -158c22 -32 53.5 -55.333 94.5 -70s86.5 -20 136.5 -16c44.667 3.33301 86 14.333 124 33c14 13.333 26 28 36 44c22 33.333 34.833 68.833 38.5 106.5s-2.83301 68.834 -19.5 93.501
c-22 31.333 -51.833 53 -89.5 65s-76.667 14.5 -117 7.5s-78.833 -21.167 -115.5 -42.5l-10 15l74 51c39.333 23.333 80 38 122 44s82.167 1.83301 120.5 -12.5s68.833 -39.166 91.5 -74.499c20.667 -30 30.167 -64.333 28.5 -103s-14.834 -76.334 -39.501 -113.001
c-18.667 -28.667 -42.334 -53 -71.001 -73l-74 -51v-1l-6 -4c-45.333 -30 -97.333 -47 -156 -51c-109.333 -8.66699 -190.666 24 -243.999 98z" />
    <glyph glyph-name="seven" unicode="7" horiz-adv-x="644" 
d="M63 582l73.999 50.9951c62 -20 160.167 -31.167 294.5 -33.5s238.5 8.83398 312.5 33.501l10 -15l-74 -51c-1.33301 -1.33301 -3 -2.33301 -5 -3c-79.333 -64 -145.666 -146.667 -198.999 -248c26 -3.33301 49.667 -8.66602 71 -15.999l11 -15l-74 -51
c-13.333 4.66699 -27 8.33398 -41 11.001c-30 -68.667 -54.667 -145.667 -74 -231l-74 -51l-10 15c24 102.667 55 193.667 93 273c-42 1.33301 -85.667 -3.33398 -131 -14.001l-10 15l73 51c35.333 8.66699 70 13.334 104 14.001c56 96.667 125.333 174.334 208 233.001
c-83.333 -15.333 -182.5 -20.666 -297.5 -15.999s-198.833 15.667 -251.5 33z" />
    <glyph glyph-name="eight" unicode="8" horiz-adv-x="748" 
d="M293 383c-32 23.333 -52.0039 48.335 -60.0039 75.002c-12.667 42 -1 75.667 35 101l74 52c5.33301 3.33301 11 6.66602 17 9.99902l10 -15l-31 -21c-26.667 -25.333 -33.667 -55.333 -21 -90c6.66699 -18 23.667 -36 51 -54c6 -4 12.333 -7.83301 19 -11.5
s14.167 -7.33398 22.5 -11.001l21 -9.5c5.66699 -2.66699 13.834 -5.83398 24.501 -9.50098s18.334 -6.5 23.001 -8.5s13.334 -5.16699 26.001 -9.5l25 -8.5l17 12c6 4 12 7.66699 18 11c5.33301 4.66699 10 9 14 13c23.333 21.333 41.333 42.166 54 62.499
s20.667 42.833 24 67.5c3.33301 27.333 -1.66699 48.333 -15 63c-31.333 36.667 -80.666 55 -147.999 55c-77.333 0 -156.333 -24 -237 -72l-10 15l73 51c80.667 48 160 72 238 72c74.667 0 128.667 -22.667 162 -68c16.667 -23.333 23.334 -48.666 20.001 -75.999
c-6 -46 -31.667 -90.667 -77 -134c-12 -11.333 -27.333 -23.333 -46 -36l-1 -1l-62 -44l15 -5c53.333 -20.667 94.333 -51 123 -91c37.333 -51.333 40.333 -99.666 9 -144.999c-14 -20 -31.667 -37.333 -53 -52l-73 -52h-1c-56 -39.333 -134.333 -59 -235 -59
c-131.333 0 -219 31.667 -263 95c-10 14 -17 29 -21 45c-9.33301 38 -4.33301 72.333 15 103s50.666 61.334 93.999 92.001l74 52l40 26c4.66699 3.33301 10 6.66602 16 9.99902zM316.996 367.002l-17.9971 -12.999c-31.333 -15.333 -59.333 -31 -84 -47
c-66 -53.333 -91.667 -110 -77 -170c5.33301 -20.667 16.666 -38.5 33.999 -53.5s38.666 -26.5 63.999 -34.5s51.666 -13.667 78.999 -17s56 -5 86 -5c78 0 143.333 12 196 36c6.66699 7.33301 13 15.333 19 24c28.667 41.333 28.667 83.666 0 126.999
c-22 32 -59.333 58 -112 78c-12.667 5.33301 -33.167 12.833 -61.5 22.5s-52.333 18.5 -72 26.5s-37.5 16.667 -53.5 26z" />
    <glyph glyph-name="nine" unicode="9" horiz-adv-x="708" 
d="M526 263l-74.002 -51c-48 -29.333 -96.667 -44 -146 -44c-38 0 -72.5 8 -103.5 24s-56.167 38 -75.5 66c-44 62.667 -44.667 130.334 -2 203.001c16.667 28 39.334 52 68.001 72l73 52h1c41.333 29.333 90 46 146 50c108.667 8.66699 190.667 -26 246 -104
c21.333 -29.333 34.5 -64.666 39.5 -105.999s3.33301 -82.833 -5 -124.5s-22.166 -82.167 -41.499 -121.5c-33.333 -70.667 -83 -131 -149 -181c-4 -3.33301 -8 -6.33301 -12 -9l-74 -52c-44 -30.667 -91.833 -49.834 -143.5 -57.501s-103.5 -1.83398 -155.5 17.499
c-28.667 12 -51 29.667 -67 53c-12.667 18 -19.667 36.333 -21 55l73 51l11 -14c0.666992 -14.667 5 -27.334 13 -38.001c11.333 -16.667 29.333 -30 54 -40c45.333 -17.333 90.333 -24.333 135 -21s87.667 16 129 38c53.333 46 94.333 99.667 123 161
c17.333 36 30.333 74.167 39 114.5s11.5 80.833 8.5 121.5s-13.833 74 -32.5 100c-24 34 -56.5 58.667 -97.5 74s-86.167 21 -135.5 17c-38.667 -3.33301 -74.334 -12.666 -107.001 -27.999c-13.333 -13.333 -24.666 -28 -33.999 -44c-20.667 -34 -31 -68 -31 -102
s8.33301 -62 25 -84c16.667 -24 40 -42.833 70 -56.5s62 -20.5 96 -20.5c49.333 0 98 14.667 146 44z" />
    <glyph glyph-name="colon" unicode=":" horiz-adv-x="341" 
d="M212 356l-54 94l94 55l55 -94zM111 -32l-55 94l94 55l55 -95z" />
    <glyph glyph-name="semicolon" unicode=";" horiz-adv-x="341" 
d="M6 -234l-11.001 13.999c45.333 40.667 75 87.334 89 140.001c12.667 48 9.66699 91 -9 129l81 57l10 -15c18.667 -38.667 21.334 -82 8.00098 -130c-14 -52 -43.333 -98.333 -88 -139zM211.999 355.999l-54 94l94 55l55 -94z" />
    <glyph glyph-name="less" unicode="&#x3c;" horiz-adv-x="584" 
d="M475 75l-64 -63l-333 250l-13 13l64 63l467 250l13 -13l-64 -63l-378 -202l295 -222z" />
    <glyph glyph-name="equal" unicode="=" horiz-adv-x="820" 
d="M758 228l-74 -51h-580l-10 15l74 51h580zM806 408l-74 -51h-580l-10 15l74 51h580z" />
    <glyph glyph-name="greater" unicode="&#x3e;" horiz-adv-x="584" 
d="M179 525l64 63l333 -250l13 -13l-64 -63l-467 -250l-13 13l64 63l378 202l-295 222z" />
    <glyph glyph-name="question" unicode="?" horiz-adv-x="574" 
d="M228 -32l-54 94l94 55l54 -95zM340 236l-74 -51.001c-2.66699 2 -4.66699 4.33301 -6 7l-11 14c-8 12 -8.33301 27.667 -1 47c12 32 38.333 62.333 79 91l74 51v1c2.66699 1.33301 5.33398 3 8.00098 5c33.333 28.667 50 62.667 50 102c0 18 -4.33301 34.667 -13 50
c-35.333 42.667 -98.666 64 -189.999 64c-41.333 0 -78 -6.33301 -110 -19c-18.667 -22.667 -30.667 -50 -36 -82c-3.33301 -21.333 -0.333008 -40.333 9 -57v-1l10 -14l-73 -52c-2.66699 2.66699 -4.66699 5.33398 -6 8.00098l-11 14c-12.667 18.667 -17 40.667 -13 66
c8 47.333 31 84.333 69 111l73 51c39.333 27.333 89.666 41 150.999 41c48 0 88.667 -6.33301 122 -19s57.666 -30 72.999 -52l11 -15c12 -17.333 18 -36.666 18 -57.999c0 -26.667 -6.5 -49.167 -19.5 -67.5s-31.5 -35.833 -55.5 -52.5l-74 -52
c-2.66699 -2 -5.66699 -4 -9 -6c-26 -22 -43.667 -46 -53 -72c-5.33301 -14.667 -6.33301 -27.334 -3 -38.001h1z" />
    <glyph glyph-name="bracketleft" unicode="[" horiz-adv-x="384" 
d="M558 719l-98 -69h-158l-185 -692h219l10 -15l-98 -69h-188l-11 15l208 776l98 69h193z" />
    <glyph glyph-name="backslash" unicode="\" horiz-adv-x="420" 
d="M154 737l8 -12l243 -811l-58 -40l-8 12l-243 811z" />
    <glyph glyph-name="bracketright" unicode="]" horiz-adv-x="384" 
d="M-86 -111l99 69h158l185 692h-219l-10 15l98 69h188l10 -15l-207 -776l-98 -69h-193z" />
    <glyph glyph-name="grave" unicode="`" horiz-adv-x="199" 
d="M164 448l-11 15c-17.333 42 -19 89 -5 141c14.667 54.667 44 104 88 148l73 52l11 -15c-44 -44 -73.333 -93.333 -88 -148c-14 -52 -12.333 -99 5 -141z" />
    <glyph glyph-name="sterling" unicode="&#xa3;" horiz-adv-x="803" 
d="M108 273l73 51c95.333 27.333 190.333 30 285 8l10 -14l-74 -52c-94 22 -188.667 19.333 -284 -8zM653 405l3.99805 2.99902c26.667 18.667 41.334 41.667 44.001 69c4 30.667 -2.66699 57.334 -20 80.001c-26.667 36.667 -68 55 -124 55c-51.333 0 -99 -11.667 -143 -35
h-1c-44 -38.667 -77.5 -85 -100.5 -139s-34.833 -111.667 -35.5 -173c-0.666992 -43.333 -10.667 -82.5 -30 -117.5s-53 -70.167 -101 -105.5c173.333 42 346 43 518 3l10 -15l-74 -51c-93.333 22 -186.5 31.833 -279.5 29.5s-189.167 -17.5 -288.5 -45.5l-11 14l51 36
c44 33.333 75 67 93 101s27.333 72 28 114c0.666992 61.333 12.5 119 35.5 173s56.5 100.333 100.5 139c12.667 10.667 25.334 20.334 38.001 29.001l74 52c54.667 38 114.667 57 180 57c59.333 0 104.666 -22.333 135.999 -67c21.333 -30 28.333 -63.667 21 -101
c-5.33301 -30.667 -21.666 -55.334 -48.999 -74.001l-64 -44l-2 -2z" />
    <glyph glyph-name="afii57799" unicode="&#x5b0;" 
d="M-94 -399l-57 82l81 57l58 -82zM-46 -219l-57 82l81 57l58 -82z" />
    <glyph glyph-name="afii57801" unicode="&#x5b1;" 
d="M-196 -384l-57 82l81 57l58 -82zM-247 -219l-57 82l82 57l57 -82zM-58 -219l-57 82l82 57l57 -82zM110 -389l-57 82l81 57l58 -82zM155 -219l-57 82l82 57l57 -82z" />
    <glyph glyph-name="afii57800" unicode="&#x5b2;" 
d="M-327 -151l74 51h306l10 -15l-74 -51h-305zM119 -399l-57 82l82 57l57 -82zM167 -219l-57 82l82 57l57 -82z" />
    <glyph glyph-name="afii57802" unicode="&#x5b3;" 
d="M119 -399l-57 82l82 57l57 -82zM167 -219l-57 82l82 57l57 -82zM-232 -377l49 182l35 28h-169l-8 12l71 56h306l8 -11l-71 -57h-97l-44 -164l-71 -57z" />
    <glyph glyph-name="afii57793" unicode="&#x5b4;" 
d="M-46 -220l-57 82l82 58l57 -82z" />
    <glyph glyph-name="afii57794" unicode="&#x5b5;" 
d="M-151 -219l-57 81l82 58l57 -82zM59 -219l-58 81l82 58l58 -82z" />
    <glyph glyph-name="afii57795" unicode="&#x5b6;" 
d="M-90 -385l-57 82l81 57l58 -81zM-151 -219l-57 82l82 57l57 -82zM59 -219l-57 82l82 57l57 -82z" />
    <glyph glyph-name="afii57798" unicode="&#x5b7;" 
d="M171 -114l-74 -52h-326l-10 15l74 52h325z" />
    <glyph glyph-name="afii57797" unicode="&#x5b8;" 
d="M-229 -167l-11 15l74 52h326l10 -15l-74 -52h-104l-35 -130l-74 -52l-10 15l38 142l36 25h-176z" />
    <glyph glyph-name="afii57806" unicode="&#x5b9;" 
d="M-12 616l-58 82l82 57l58 -82z" />
    <glyph glyph-name="uni05BA" unicode="&#x5ba;" 
d="M-12 616l-58 82l82 57l58 -82z" />
    <glyph glyph-name="afii57796" unicode="&#x5bb;" 
d="M-69 -307l-57 82l82 57l57 -81zM74 -394l-57 82l82 57l57 -82zM-214 -220l-57 82l82 58l57 -82z" />
    <glyph glyph-name="afii57807" unicode="&#x5bc;" 
d="M-14 223l-63 91l91 63l63 -91z" />
    <glyph glyph-name="afii57839" unicode="&#x5bd;" 
d="M-131 -398l-10 15l66 244l74 52l10 -15l-66 -245z" />
    <glyph glyph-name="afii57645" unicode="&#x5be;" horiz-adv-x="573" 
d="M141 542l74 51c109.333 -15.333 222 -15.333 338 0l10 -15l-74 -51c-116 -15.333 -228.667 -15.333 -338 0z" />
    <glyph glyph-name="afii57841" unicode="&#x5bf;" 
d="M-205 722l74 51h325l11 -15l-74 -51h-325z" />
    <glyph glyph-name="afii57842" unicode="&#x5c0;" horiz-adv-x="230" 
d="M92 -338l-11 11v1204l57 57l11 -11v-1204z" />
    <glyph glyph-name="afii57804" unicode="&#x5c1;" 
d="M833 645l-57 82l82 57l57 -82z" />
    <glyph glyph-name="afii57803" unicode="&#x5c2;" 
d="M232 648l-57 82l82 57l57 -82z" />
    <glyph glyph-name="afii57658" unicode="&#x5c3;" horiz-adv-x="341" 
d="M207 356l-54 94l94 55l55 -94zM106 -32l-55 94l94 55l55 -95z" />
    <glyph glyph-name="uni05C4" unicode="&#x5c4;" 
d="M-12 616l-58 82l82 57l58 -82z" />
    <glyph glyph-name="uni05C5" unicode="&#x5c5;" 
d="M-12 616l-58 82l82 57l58 -82z" />
    <glyph glyph-name="uni05C7" unicode="&#x5c7;" 
d="M-219 -152l74 52h285l10 -15l-73 -51h-83l-51 -191l-74 -51l-10 15l54 202l36 25h-158z" />
    <glyph glyph-name="afii57664" unicode="&#x5d0;" horiz-adv-x="710" 
d="M296 840l10.001 -15l-95 -359c6 5.33301 12.333 10 19 14l74 52c72 50.667 150.667 76 236 76c70.667 0 131.334 -17.667 182.001 -53l11 -15l-74 -52c-50.667 35.333 -111.334 53 -182.001 53c-69.333 0 -135.333 -17 -198 -51c-59.333 -52.667 -95 -112.667 -107 -180
c-10.667 -60 -0.333984 -114.333 30.999 -163c25.333 -32.667 58.666 -58.5 99.999 -77.5s87 -28.5 137 -28.5c84 0 161.667 24.333 233 73l10 -15l-74 -52c-70.667 -48 -148 -72 -232 -72c-127.333 0 -211.666 53 -252.999 159l-32 -120l-74 -51l-10 15l214 810z" />
    <glyph glyph-name="afii57665" unicode="&#x5d1;" horiz-adv-x="774" 
d="M28 -37l-17.001 22.998c17.333 37.333 39.333 65.333 66 84l74 52c21.333 15.333 45.5 24 72.5 26s55.167 -1.66699 84.5 -11s57.333 -19.833 84 -31.5l90.5 -39.5c33.667 -14.667 62.167 -25.334 85.5 -32.001c27.333 33.333 50.5 71.666 69.5 114.999
s30.167 87.666 33.5 132.999c6 66.667 -8.33301 126.667 -43 180c-26 34 -58.333 60.667 -97 80s-81 29 -127 29c-51.333 0 -100.666 -12.333 -147.999 -37c-65.333 -59.333 -101.666 -131 -108.999 -215l-73 -52l-11 15c4.66699 48.667 19.834 94.334 45.501 137.001
s58.5 78 98.5 106l74 52c57.333 40 119.666 60 186.999 60c47.333 0 90.833 -10.167 130.5 -30.5s72.167 -48.5 97.5 -84.5v-1h1l10 -15c38.667 -54.667 55 -117 49 -187c-5.33301 -57.333 -22 -112.666 -50 -165.999s-60.333 -96 -97 -128
c-4.66699 -3.33301 -9.33398 -7 -14.001 -11l-74 -51c-26.667 6.66699 -59.5 18.334 -98.5 35.001l-102.5 45.5c-29.333 13.667 -61.5 24.334 -96.5 32.001s-65.833 7.83398 -92.5 0.500977c-13.333 -16 -23 -36.667 -29 -62z" />
    <glyph glyph-name="afii57666" unicode="&#x5d2;" horiz-adv-x="646" 
d="M397 793l10.002 -14.0049c3.33301 -55.333 16.666 -99.333 39.999 -132c30 -41.333 75.333 -68 136 -80l12 -3l10 -14l-74 -52c-42 0.666992 -86.833 -4.83301 -134.5 -16.5s-87.167 -26.5 -118.5 -44.5l-20 -12c-44.667 -36 -81 -77 -109 -123
s-44.167 -92.667 -48.5 -140s7.16699 -91.666 34.5 -132.999c28 -39.333 68.333 -65.5 121 -78.5s107.334 -11.167 164.001 5.5c62.667 18.667 126.334 48.334 191.001 89.001c6 4.66699 11.667 9.33398 17 14.001l74 51l10 -14c-16 -14 -33.333 -27.333 -52 -40l-74 -52
c-75.333 -52.667 -152 -90.667 -230 -114c-62 -17.333 -119.833 -18 -173.5 -2s-94.834 45.333 -123.501 88c-32 48.667 -45.5 99.5 -40.5 152.5s24.167 104.333 57.5 154s77.666 93.834 132.999 132.501l74 52c18.667 12.667 38 25 58 37
c23.333 12.667 51.666 24.334 84.999 35.001c-21.333 14.667 -39.333 32.667 -54 54c-28 40 -44.333 89.667 -49 149z" />
    <glyph glyph-name="afii57667" unicode="&#x5d3;" horiz-adv-x="684" 
d="M350 253l74 52c35.333 -0.666992 67 -7.66699 95 -21l35 28c39.333 30.667 63.333 61.667 72 93c9.33301 36.667 3.66602 68.334 -17.001 95.001c-17.333 22.667 -42.166 40.167 -74.499 52.5s-67.833 18.5 -106.5 18.5c-80.667 0 -157 -20.333 -229 -61
c-40.667 -34.667 -68.334 -70.334 -83.001 -107.001l-73 -51l-11 14c19.333 48 58.666 93 117.999 135l74 51l1 1c80.667 56 169.667 84 267 84c42.667 0 80.834 -7.16699 114.501 -21.5s60.167 -34.833 79.5 -61.5c17.333 -25.333 26 -52 26 -80
c0 -50 -25 -92.667 -75 -128l-50 -36l-51 -36c18 -11.333 32.667 -25.333 44 -42c18.667 -27.333 28 -56.333 28 -87c0 -46.667 -18.667 -90.334 -56 -131.001l-74 -51l-10 15c37.333 40 56 83.667 56 131c0 27.333 -6.66699 50 -20 68
c-13.333 19.333 -32.666 34.333 -57.999 45s-54 16.334 -86 17.001z" />
    <glyph glyph-name="afii57668" unicode="&#x5d4;" horiz-adv-x="767" 
d="M61 195l74 52.002c23.333 15.333 46.833 22.166 70.5 20.499s42.834 -12.167 57.501 -31.5c18 -28 19.667 -63.5 5 -106.5s-39.667 -81.5 -75 -115.5l-74 -51l-10 15c37.333 36 63.5 73.5 78.5 112.5s14.833 69.167 -0.5 90.5c-12.667 14.667 -29.834 21.667 -51.501 21
s-43.167 -7.33398 -64.5 -20.001zM94 505.002l73.999 52c44 27.333 88.5 47.5 133.5 60.5s95.167 19.5 150.5 19.5c113.333 0 196 -37.333 248 -112l11 -14v-1c30 -42.667 45 -91.667 45 -147c0 -49.333 -9.66699 -99.333 -29 -150c-23.333 -62 -62 -128.333 -116 -199
l-74 -51l-10 15c54 70 92.667 136 116 198c19.333 50.667 29 100.667 29 150c0 52 -13.333 98.667 -40 140c-53.333 70 -134.333 105 -243 105c-55.333 0 -105.666 -6.5 -150.999 -19.5s-90 -33.167 -134 -60.5z" />
    <glyph glyph-name="afii57669" unicode="&#x5d5;" horiz-adv-x="291" 
d="M317 788l10 -14l-200 -760l-74 -51l-10 15l200 759z" />
    <glyph glyph-name="afii57670" unicode="&#x5d6;" horiz-adv-x="636" 
d="M388 783l10 -14.998c-0.666992 -40 -14.834 -81.667 -42.501 -125s-64.5 -85.333 -110.5 -126c60.667 20 123.334 25.667 188.001 17c60 -8 107.167 -32.167 141.5 -72.5s51.5 -93.166 51.5 -158.499c0 -53.333 -14.167 -104.333 -42.5 -153s-70.833 -92.667 -127.5 -132
l-73 -52h-1c-28 -20 -59 -38.333 -93 -55c-35.333 -16.667 -73.333 -25 -114 -25c-85.333 0 -148 25.333 -188 76c-15.333 20 -25.333 39.333 -30 58l74 52l10 -15c7.33301 -27.333 22.5 -49.833 45.5 -67.5s50.5 -28.834 82.5 -33.501
c71.333 -10.667 132.333 -3.33398 183 21.999c19.333 9.33301 37.666 19 54.999 29c44.667 36.667 78.5 78.167 101.5 124.5s34.5 93.166 34.5 140.499c0 56 -14.833 100.667 -44.5 134s-72.5 54 -128.5 62c-87.333 11.333 -169 -2 -245 -40l-11 15
c59.333 44.667 107.333 92.167 144 142.5s55.334 98.833 56.001 145.5z" />
    <glyph glyph-name="afii57671" unicode="&#x5d7;" horiz-adv-x="807" 
d="M152 505l74.001 52c42 27.333 84.333 47.5 127 60.5s90 19.5 142 19.5c104 0 181 -35.333 231 -106l10 -15l1 -1c30.667 -44 46 -94.667 46 -152c0 -49.333 -9.33301 -99.333 -28 -150c-22 -62 -58.667 -128.333 -110 -199l-73 -51l-11 15c51.333 70 88 136 110 198
c18.667 50.667 28 100.667 28 150c0 54 -14 102.333 -42 145c-50 66.667 -125 100 -225 100c-52.667 0 -100.334 -6.5 -143.001 -19.5s-84.667 -33.167 -126 -60.5zM216.001 495l11 -14l-125 -467l-74 -51l-10 15l125 466z" />
    <glyph glyph-name="afii57672" unicode="&#x5d8;" horiz-adv-x="698" 
d="M664 797l-74.001 -52.001h-9c-33.333 -2 -69 -8.83301 -107 -20.5s-72.333 -25.834 -103 -42.501c-154 -123.333 -230.333 -262.666 -229 -417.999c0.666992 -61.333 15.334 -112.666 44.001 -153.999c32 -46 83 -69 153 -69c55.333 0 107.666 13 156.999 39
c38.667 35.333 69 78.333 91 129c11.333 32.667 14.5 61.334 9.5 86.001s-16.167 46.334 -33.5 65.001l74 51c20.667 -18 34.5 -41.833 41.5 -71.5s4.5 -61.167 -7.5 -94.5c-28 -65.333 -70 -117.666 -126 -156.999l-74 -51c-58.667 -41.333 -124 -62 -196 -62
s-127.667 28.333 -167 85c-35.333 49.333 -52 111.666 -50 186.999c0.666992 20 2.5 39.667 5.5 59s10 44.5 21 75.5s25.5 61.167 43.5 90.5s44.167 62.166 78.5 98.499s74.166 71.166 119.499 104.499l4 2l74 52c30.667 21.333 68.334 39.833 113.001 55.5
s87.334 24.5 128.001 26.5h9z" />
    <glyph glyph-name="afii57673" unicode="&#x5d9;" horiz-adv-x="254" 
d="M110 269l-11 15l80 302l74 51l10 -14l-80 -302z" />
    <glyph glyph-name="afii57674" unicode="&#x5da;" horiz-adv-x="652" 
d="M169 -431l-10 14.999l57 218c12.667 47.333 28.334 84.333 47.001 111c8.66699 11.333 20.834 24.5 36.501 39.5s29.334 27.167 41.001 36.5l50.5 39c22 16.667 35.333 27 40 31c79.333 62 127 138.333 143 229c11.333 66 0 125.333 -34 178
c-24.667 32.667 -57 58.334 -97 77.001s-84.667 28 -134 28c-78 0 -151 -22.333 -219 -67l-20 -14l-10 15c2.66699 2 5.66699 4 9 6l74 52c70.667 49.333 147 74 229 74c51.333 0 97.5 -10 138.5 -30s73.833 -47.333 98.5 -82l10 -15c38 -54 51 -115.667 39 -185
c-16 -91.333 -63.667 -168 -143 -230l-40 -30l-50.5 -39c-11.667 -9.33301 -25.334 -21.5 -41.001 -36.5s-27.834 -28.5 -36.501 -40.5c-18.667 -26 -34.334 -63 -47.001 -111l-57 -218z" />
    <glyph glyph-name="afii57675" unicode="&#x5db;" horiz-adv-x="697" 
d="M100 490l-10 14.999l9 7l74 51c70.667 49.333 147 74 229 74c51.333 0 97.5 -10 138.5 -30s73.833 -47.333 98.5 -82l10 -15c38 -54 51 -115.667 39 -185c-8 -44 -25.167 -85.333 -51.5 -124s-59.5 -72 -99.5 -100l-74 -52c-70.667 -49.333 -147 -74 -229 -74
c-89.333 0 -161 28.333 -215 85l-10 15l74 51c53.333 -56.667 124.666 -85 213.999 -85c66.667 0 130.334 17 191.001 51c64 56 102.667 121.333 116 196c11.333 66 0 125.333 -34 178c-24.667 32.667 -57 58.334 -97 77.001s-84.667 28 -134 28
c-78 0 -151 -22.333 -219 -67z" />
    <glyph glyph-name="afii57676" unicode="&#x5dc;" horiz-adv-x="515" 
d="M937 1027l-73.998 -50.9971c-28.667 20 -61.667 32.167 -99 36.5s-72.666 1.16602 -105.999 -9.50098c-13.333 -4 -26.333 -9 -39 -15c-26 -25.333 -48.667 -56.333 -68 -93c-16.667 -31.333 -30 -68.833 -40 -112.5s-16.5 -81.834 -19.5 -114.501
s-5.5 -74.667 -7.5 -126c-6 -143.333 -29.333 -265.666 -70 -366.999c-27.333 -66.667 -59 -112.667 -95 -138l-73 -51c-20 -13.333 -43.333 -20 -70 -20c-36 0 -63.833 16.667 -83.5 50s-27.834 72.666 -24.501 117.999c4.66699 62.667 20.5 121.5 47.5 176.5
s61.5 100.167 103.5 135.5l73 51l11 -14c-42 -35.333 -76.5 -80.5 -103.5 -135.5s-42.833 -113.833 -47.5 -176.5c-3.33301 -46 4.66699 -82.667 24 -110c15.333 -21.333 36 -32 62 -32c11.333 0 22.333 1.66699 33 5c21.333 26 41 60.667 59 104
c40.667 101.333 64 223.666 70 366.999c2 51.333 4.5 93.333 7.5 126s9.5 70.834 19.5 114.501s23.333 81.5 40 113.5c28 52 62.333 92.333 103 121h1l73 52c24 16.667 49.667 29 77 37c33.333 11.333 68.666 14.666 105.999 9.99902s70.666 -17 99.999 -37z" />
    <glyph glyph-name="afii57677" unicode="&#x5dd;" horiz-adv-x="827" 
d="M194 478l10 -15v-11c-13.333 -190 -66 -368 -158 -534l-73 -51l-11 14c92 166 144.667 344 158 534v12zM269 570l-0.00195312 1c65.333 45.333 146.333 68 243 68c65.333 0 121.333 -12 168 -36c42 -21.333 76 -50.333 102 -87c28.667 -41.333 43 -88 43 -140
c0 -90 -38 -183 -114 -279c-15.333 -19.333 -30.333 -34.333 -45 -45l-73 -51l-1 -1c-21.333 -14.667 -45.333 -22 -72 -22c-44 0 -82.833 8.66699 -116.5 26s-65.5 42.333 -95.5 75c-8.66699 10 -20.667 25.667 -36 47c-28.667 41.333 -49.667 91 -63 149l70 48l10 -14
c12 -54.667 31.333 -102 58 -142c6.66699 -8.66699 13.334 -16.667 20.001 -24c30 -33.333 61.833 -58.5 95.5 -75.5s72.5 -25.5 116.5 -25.5c12.667 0 25 1.33301 37 4l11 14c76 96 114 189 114 279c0 50 -12 91.333 -36 124c-21.333 30 -51 54.667 -89 74
c-46.667 23.333 -102.667 35 -168 35c-77.333 0 -145.333 -14.667 -204 -44c-3.33301 -3.33301 -6.66602 -7 -9.99902 -11l-74 -51l-10 14c14 14.667 29 27.667 45 39z" />
    <glyph glyph-name="afii57678" unicode="&#x5de;" horiz-adv-x="797" 
d="M286 634l10.999 -14l306 -544c10 75.333 24.167 148.166 42.5 218.499s44.5 141 78.5 212s73.333 129.5 118 175.5l74 52l10 -15c-48.667 -50 -91 -115.167 -127 -195.5s-62.833 -159.166 -80.5 -236.499s-30.167 -156 -37.5 -236l-46 -32l3 -4l-65 -44l-11 15l-322 571
c-9.33301 -190.667 -62.666 -371.667 -159.999 -543l-74 -51l-10 15c100 175.333 153.667 361 161 557l68 48l-3 7z" />
    <glyph glyph-name="afii57679" unicode="&#x5df;" horiz-adv-x="296" 
d="M278 637l10 -14l-269 -1005l-74 -52l-10 15l269 1005z" />
    <glyph glyph-name="afii57680" unicode="&#x5e0;" horiz-adv-x="284" 
d="M278 637l9.99805 -14.002l-134 -506c-25.333 -96 -54.333 -172.333 -87 -229c-42 -71.333 -94.667 -129.333 -158 -174l-74 -52c-16 -11.333 -32.667 -21.666 -50 -30.999c-74.667 -39.333 -152.667 -59 -234 -59c-47.333 0 -95.166 7.83301 -143.499 23.5
s-84.833 41.167 -109.5 76.5c-17.333 24.667 -26 51 -26 79s7.66699 50.333 23 67l74 52l10 -15c-15.333 -16.667 -23 -39 -23 -67c0 -25.333 6.33301 -46.333 19 -63c21.333 -29.333 55.833 -51.166 103.5 -65.499s92.834 -21.5 135.501 -21.5c82 0 160 20 234 60
c4 2 8.33301 4.33301 13 7c48 40.667 88.667 89.667 122 147c32.667 56 61.667 132 87 228l134 506z" />
    <glyph glyph-name="afii57681" unicode="&#x5e1;" horiz-adv-x="766" 
d="M164 486l-11.0049 15.0059c3.33301 2 6.33301 4.33301 9 7l74 51c74.667 52 156.334 78 245.001 78c52.667 0 99.5 -9.83301 140.5 -29.5s73.833 -46.834 98.5 -81.501l10 -15v0c41.333 -58.667 54.333 -127.334 39 -206.001
c-7.33301 -39.333 -23.833 -76.833 -49.5 -112.5s-57.5 -66.834 -95.5 -93.501l-73 -51c-69.333 -48.667 -141.666 -73 -216.999 -73c-48 0 -92 9.5 -132 28.5s-71.667 45.167 -95 78.5l-11 15c-34 49.333 -46 106.666 -36 171.999c6 38 17 69.833 33 95.5
s41 53.167 75 82.5l74 51l10 -14c-34 -29.333 -59 -56.833 -75 -82.5s-27 -57.5 -33 -95.5c-9.33301 -62 1.33398 -117 32.001 -165c23.333 -31.333 54.5 -55.833 93.5 -73.5s81.5 -26.5 127.5 -26.5c60.667 0 120.334 16.333 179.001 49
c60.667 53.333 97 112.666 109 177.999c14.667 75.333 3.33398 141.666 -33.999 198.999c-24.667 32.667 -57 58.167 -97 76.5s-85.333 27.5 -136 27.5c-85.333 0 -164 -24 -236 -72z" />
    <glyph glyph-name="afii57682" unicode="&#x5e2;" horiz-adv-x="696" 
d="M329 528c-56.667 18 -121.666 32.3311 -194.999 42.998l-10 15l74 51c79.333 -11.333 148.666 -27 207.999 -47l7 -3l24 17c94.667 66.667 201.334 119.667 320.001 159l10 -15l-74 -51c-92.667 -31.333 -178.334 -70.666 -257.001 -117.999
c68.667 -27.333 122.667 -61.333 162 -102c8.66699 -8.66699 16.667 -18 24 -28l10 -15c26 -36.667 39.333 -77.5 40 -122.5s-11.333 -88.5 -36 -130.5c-27.333 -47.333 -60.333 -84.666 -99 -111.999h-1l-73 -52c-54 -37.333 -112.667 -56 -176 -56
c-44 0 -81 5.5 -111 16.5s-54 30.5 -72 58.5c-23.333 34.667 -35 72.834 -35 114.501s8.16699 80.167 24.5 115.5s38.833 69.666 67.5 102.999c50 58.667 106 111.667 168 159zM356.001 517.998c-42.667 -37.333 -79.667 -74.667 -111 -112
c-44.667 -54 -73.5 -108.333 -86.5 -163s-6.83301 -104.334 18.5 -149.001c28 -44.667 86 -67 174 -67c45.333 0 91 11.333 137 34c24 22.667 45.333 50.334 64 83.001c24 40.667 36 82.667 36 126s-11.667 83.333 -35 120c-5.33301 7.33301 -11.333 14.333 -18 21
c-42 42.667 -100 78 -174 106z" />
    <glyph glyph-name="afii57683" unicode="&#x5e3;" horiz-adv-x="624" 
d="M394 274l-39.998 -28.0039c-18.667 -15.333 -35.334 -34.666 -50.001 -57.999s-24.334 -48 -29.001 -74c-4 -25.333 -0.666992 -45 10 -59c13.333 -17.333 34 -26 62 -26c14 0 28 2.33301 42 7c24.667 27.333 46 61.333 64 102c18.667 44 35.5 91.833 50.5 143.5
s29.833 108.5 44.5 170.5s25.667 106.667 33 134l20 69l-5 -1c-26 -2.66699 -65 -3.83398 -117 -3.50098s-97.833 -2.33398 -137.5 -8.00098s-77.5 -17.5 -113.5 -35.5c-42.667 -41.333 -69 -91.166 -79 -149.499s-1.33301 -109.5 26 -153.5c4.66699 -6 10 -12 16 -18
l10 -14l-74 -52c-7.33301 7.33301 -14.333 15.666 -21 24.999l-10 14c-22.667 32 -34.5 69.333 -35.5 112s8.66699 84.334 29 125.001s49.166 74 86.499 100l74 52l1 1c23.333 16 47.333 28.833 72 38.5s50.334 16.334 77.001 20.001s50.167 6 70.5 7s46.166 1.5 77.499 1.5
s56 0.666992 74 2c44.667 131.333 103.334 224 176.001 278l6 4l74 52c33.333 23.333 66 35.333 98 36s56 -10.333 72 -33c10.667 -15.333 16.334 -31.666 17.001 -48.999s-2.66602 -34.5 -9.99902 -51.5s-18.333 -34.333 -33 -52s-31.334 -34.5 -50.001 -50.5
s-39.334 -32.333 -62.001 -49l-74 -51l-1 -1c-28.667 -20 -57.667 -37.667 -87 -53c-22 -11.333 -45 -20.666 -69 -27.999l-14 -47c-7.33301 -27.333 -18.333 -72 -33 -134s-29.5 -118.833 -44.5 -170.5s-31.833 -99.5 -50.5 -143.5
c-26.667 -61.333 -59.667 -105.666 -99 -132.999l-1 -1l-73 -51c-26 -18 -53 -27 -81 -27c-32 0 -56.667 12.333 -74 37c-19.333 28.667 -22.333 64.667 -9 108c14 45.333 43 83.333 87 114l1 1l73 51l22 15zM696.002 725.996l7.99805 1c38 8 73.667 20.667 107 38
c16.667 8 33.334 17.333 50.001 28c46 36 80.167 73 102.5 111s24.833 69.667 7.5 95c-10 14 -26.833 21.333 -50.5 22s-47.167 -4.33301 -70.5 -15c-61.333 -58.667 -112.666 -152 -153.999 -280z" />
    <glyph glyph-name="afii57684" unicode="&#x5e4;" horiz-adv-x="737" 
d="M119 472l-9.99902 14.001c10 8.66699 20.333 16.667 31 24l74 52c72 50.667 150.667 76 236 76c52 0 99.333 -10.333 142 -31s77 -48.334 103 -83.001c44 -60.667 59.667 -127 47 -199c-13.333 -75.333 -53 -141.333 -119 -198c-10 -8.66699 -20.333 -16.667 -31 -24
l-74 -52c-72.667 -50.667 -151.334 -76 -236.001 -76c-90.667 0 -159.334 30 -206.001 90c-30 38.667 -41 82 -33 130c7.33301 41.333 26.666 75.333 57.999 102l18 14l74 52h1c48.667 34 104 51 166 51c36 0 66.667 -11 92 -33l10 -15l-74 -51
c-25.333 22 -55.666 33 -90.999 33c-44 0 -86 -9.33301 -126 -28c-23.333 -25.333 -38 -54.666 -44 -87.999c-7.33301 -42.667 -0.666016 -78 20.001 -106c19.333 -26.667 46.333 -47.334 81 -62.001s73.667 -22 117 -22c69.333 0 135.333 17.333 198 52
c64 56 102.333 120.667 115 194c12 68 0.666992 126.333 -34 175c-24.667 34 -57.667 60.5 -99 79.5s-87.333 28.5 -138 28.5c-71.333 0 -139.333 -18.333 -204 -55z" />
    <glyph glyph-name="afii57685" unicode="&#x5e5;" horiz-adv-x="614" 
d="M304 274l-40.002 -28.0039c-19.333 -16 -36.666 -36 -51.999 -60s-24.5 -48.5 -27.5 -73.5s0.833008 -44.167 11.5 -57.5c12.667 -17.333 33 -26 61 -26c14.667 0 29 2.33301 43 7c24.667 27.333 45.667 61.333 63 102c33.333 76.667 68 182.667 104 318l-9 -4
c-104 -37.333 -194 -50.333 -270 -39c-47.333 7.33301 -82.666 27.333 -105.999 60c-24.667 34.667 -34.667 77.834 -30 129.501s23.667 101.5 57 149.5l73 52l11 -15c-30 -44 -48.5 -91 -55.5 -141s-0.166992 -90.333 20.5 -121c17.333 -25.333 48.333 -41.333 93 -48
c64.667 -9.33301 141 -0.666016 229 26.001l22 81c50 181.333 133.333 312.666 250 393.999l74 52c19.333 14 40 26.333 62 37c34 16 65 21.5 93 16.5s49 -17.833 63 -38.5c16 -27.333 19.333 -58.5 10 -93.5s-28.333 -72 -57 -111s-61 -75.667 -97 -110
s-72.667 -64.5 -110 -90.5l-74 -52c-2.66699 -2 -5 -3.66699 -7 -5c-53.333 -36.667 -106 -67.667 -158 -93c-36 -135.333 -70.667 -241 -104 -317c-26 -61.333 -59 -105.666 -99 -132.999v-1l-74 -51c-25.333 -18 -52 -27 -80 -27c-32 0 -57 12.667 -75 38
c-15.333 22 -21.333 47.333 -18 76s14.333 55.834 33 81.501s40 46.834 64 63.501l23.5 16.5l27.5 19l23 16.5l22 15zM561.998 534.996l9.99902 4.00098c54.667 23.333 110.334 53.666 167.001 90.999c84 64.667 148.333 133.167 193 205.5s56 124.5 34 156.5
c-10.667 16.667 -30.167 26 -58.5 28s-55.833 -3.66699 -82.5 -17c-8.66699 -4 -17 -8.33301 -25 -13c-98 -82.667 -169.333 -205 -214 -367z" />
    <glyph glyph-name="afii57686" unicode="&#x5e6;" horiz-adv-x="685" 
d="M193 573l-9.99707 14.998c8 22.667 21.5 45.834 40.5 69.501s41.833 44.834 68.5 63.501l74 51l1 1c56.667 39.333 117.667 59 183 59c63.333 0 111.333 -22.333 144 -67c18 -24 27 -50 27 -78c0 -43.333 -19.333 -81 -58 -113l-38 -31l-56 -39c14 -8 28 -18 42 -30
c12.667 -11.333 23.334 -23.333 32.001 -36c26 -36.667 38 -78.334 36 -125.001c-2.66699 -76 -31.334 -142.667 -86.001 -200c-12.667 -13.333 -26.667 -25.333 -42 -36l-74 -52c-59.333 -41.333 -138.333 -62 -237 -62c-42 0 -85.667 7.66699 -131 23s-79 39.333 -101 72
c-14 20 -22.333 40.333 -25 61l73 52l11 -15c2.66699 -18 8.33398 -32.667 17.001 -44c21.333 -28.667 53.666 -49.667 96.999 -63s84 -20 122 -20c78.667 0 144.667 13 198 39l8 8c54 57.333 82.667 124.333 86 201c1.33301 41.333 -8 77.333 -28 108
c-6 8.66699 -12.667 16.334 -20 23.001c-43.333 38 -94 57 -152 57c-24 0 -44.667 -2.33301 -62 -7l-10 15l73 51c17.333 4.66699 38 7 62 7c33.333 0 63.666 -6 90.999 -18l30 25c39.333 32 59 69.667 59 113c0 23.333 -6.66699 43.333 -20 60
c-28 36.667 -71.667 55 -131 55c-50.667 0 -99.334 -12 -146.001 -36c-36.667 -34 -61.334 -69 -74.001 -105z" />
    <glyph glyph-name="afii57687" unicode="&#x5e7;" horiz-adv-x="761" 
d="M53 352l-9.99902 13.999c21.333 52.667 61.666 100 120.999 142l74 51c74 52 157 78 249 78c50.667 0 96.667 -10 138 -30s74.333 -47.333 99 -82l10 -15c38 -54 50.667 -115.667 38 -185c-7.33301 -44 -24.333 -85.333 -51 -124s-59.667 -72 -99 -100l-74 -52h-1
c-70 -49.333 -146.333 -74 -229 -74l-10 15l74 51c66 0 129.667 17 191 51c64 56 102.333 121.333 115 196c12 66 1 125.333 -33 178c-24.667 32.667 -57.167 58.334 -97.5 77.001s-84.833 28 -133.5 28c-76 0 -146.333 -18 -211 -54c-41.333 -36 -70 -74 -86 -114z
M328.001 385.999l10 -15c-34.667 -46.667 -61.667 -95.334 -81 -146.001s-32.5 -99.334 -39.5 -146.001l-21.5 -141c-7.33301 -47.333 -20.833 -99.166 -40.5 -155.499s-46.834 -111.166 -81.501 -164.499l-74 -52l-10 15c34.667 54 61.834 109.167 81.501 165.5
s33.167 108.166 40.5 155.499l21.5 140.5c7 46.333 20.167 94.833 39.5 145.5s46.333 99.334 81 146.001z" />
    <glyph glyph-name="afii57688" unicode="&#x5e8;" horiz-adv-x="728" 
d="M54 505l73.999 52c44 27.333 88.5 47.5 133.5 60.5s95.167 19.5 150.5 19.5c113.333 0 196 -37.333 248 -112l11 -14v-1c30 -42.667 45 -91.667 45 -147c0 -49.333 -9.66699 -99.333 -29 -150c-23.333 -62 -62 -128.333 -116 -199l-74 -51l-10 15
c54 70 92.667 136 116 198c19.333 50.667 29 100.667 29 150c0 52 -13.333 98.667 -40 140c-53.333 70 -134.333 105 -243 105c-55.333 0 -105.666 -6.5 -150.999 -19.5s-90 -33.167 -134 -60.5z" />
    <glyph glyph-name="afii57689" unicode="&#x5e9;" horiz-adv-x="698" 
d="M597 114l9.99805 -14.0049c-2.66699 -2.66699 -5.66699 -5 -9 -7l-73 -51l-1 -1c-63.333 -44 -132 -66 -206 -66c-46.667 0 -88.334 8.83301 -125.001 26.5s-66.667 42.834 -90 75.501c-44.667 64 -53.667 141.333 -27 232c16.667 58.667 42.334 112.834 77.001 162.501
s76 91.167 124 124.5l73 52h1c61.333 42.667 128 68.667 200 78c39.333 4.66699 74.166 2.33398 104.499 -6.99902s53.833 -25.666 70.5 -48.999c13.333 -19.333 20.666 -41.666 21.999 -66.999s-3.33398 -49.666 -14.001 -72.999
c-20.667 -44.667 -57.667 -85.667 -111 -123l-74 -51v-1c-8.66699 -6 -17.667 -11.667 -27 -17c-98.667 -58.667 -208 -89 -328 -91l-11 15l74 51c116 2 221.667 30.333 317 85c44.667 38 73.334 80 86.001 126c4.66699 15.333 6.33398 31.833 5.00098 49.5
s-6.33301 31.834 -15 42.501c-30.667 38 -84.667 52.333 -162 43c-57.333 -6.66699 -111.666 -24.667 -162.999 -54c-80 -68 -135 -154.333 -165 -259c-25.333 -88.667 -19 -160.334 19 -215.001c20.667 -28.667 48.834 -50.834 84.501 -66.501s74.834 -23.5 117.501 -23.5
c70.667 0 136.667 20.333 198 61z" />
    <glyph glyph-name="afii57690" unicode="&#x5ea;" horiz-adv-x="912" 
d="M681 -37l-10.001 14.999c54 70 92.667 136 116 198c19.333 50.667 29 100.667 29 150c0 52 -13.333 98.667 -40 140c-53.333 70 -134.333 105 -243 105c-117.333 0 -220.666 -27.667 -309.999 -83l-44 -32l-11 15l22 16l74 52c93.333 65.333 204 98 332 98
c113.333 0 196.333 -37.333 249 -112l10 -14c30 -43.333 45 -92.666 45 -147.999c0 -49.333 -9.66699 -99.333 -29 -150c-23.333 -62 -62 -128.333 -116 -199zM-23.001 75.999l4.99902 -7c17.333 -19.333 48 -29 92 -29c20.667 0 42.334 4.66699 65.001 14
c31.333 35.333 55.333 84.333 72 147c25.333 95.333 44.333 185.666 57 270.999l74 51l10 -14c-12.667 -85.333 -31.667 -175.666 -57 -270.999c-22 -84.667 -57.333 -144 -106 -178l-74 -51l-14 -10c-30 -16.667 -60.333 -25 -91 -25c-44 0 -75.333 10.667 -94 32l-13 18z
" />
    <glyph glyph-name="afii57716" unicode="&#x5f0;" horiz-adv-x="582" 
d="M317 788l10 -14l-200 -760l-74 -51l-10 15l200 759zM608 788l10 -14l-200 -760l-74 -51l-10 15l200 759z" />
    <glyph glyph-name="afii57717" unicode="&#x5f1;" horiz-adv-x="545" 
d="M110 269l-11 15l80 302l74 51l10 -14l-80 -302zM571 788l10 -14l-200 -760l-74 -51l-10 15l200 759z" />
    <glyph glyph-name="afii57718" unicode="&#x5f2;" horiz-adv-x="508" 
d="M110 269l-11 15l80 302l74 51l10 -14l-80 -302zM364 269l-11 15l80 302l74 51l10 -14l-80 -302z" />
    <glyph glyph-name="uni05F3" unicode="&#x5f3;" horiz-adv-x="199" 
d="M264 804l11 -15c17.333 -42 19 -89 5 -141c-14.667 -54.667 -44 -104 -88 -148l-73 -52l-11 15c44 44 73.333 93.333 88 148c14 52 12.333 99 -5 141z" />
    <glyph glyph-name="uni05F4" unicode="&#x5f4;" horiz-adv-x="399" 
d="M464 804l11 -15c17.333 -42 19 -89 5 -141c-14.667 -54.667 -44 -104 -88 -148l-73 -52l-11 15c44 44 73.333 93.333 88 148c14 52 12.333 99 -5 141zM264 804l11 -15c17.333 -42 19 -89 5 -141c-14.667 -54.667 -44 -104 -88 -148l-73 -52l-11 15
c44 44 73.333 93.333 88 148c14 52 12.333 99 -5 141z" />
    <glyph glyph-name="afii61664" unicode="&#x200c;" 
 />
    <glyph glyph-name="afii301" unicode="&#x200d;" 
 />
    <glyph glyph-name="afii299" unicode="&#x200e;" 
 />
    <glyph glyph-name="afii300" unicode="&#x200f;" 
 />
    <glyph glyph-name="endash" unicode="&#x2013;" horiz-adv-x="761" 
d="M704 317l-74 -51h-562l-10 15l73 51h563z" />
    <glyph glyph-name="emdash" unicode="&#x2014;" horiz-adv-x="1061" 
d="M1004 317l-74 -51h-862l-10 15l73 51h863z" />
    <glyph glyph-name="afii00208" unicode="&#x2015;" horiz-adv-x="1361" 
d="M1304 317l-74 -51h-1162l-10 15l73 51h1163z" />
    <glyph glyph-name="quoteleft" unicode="&#x2018;" horiz-adv-x="214" 
d="M128 448l-11 15c-17.333 42 -19 89 -5 141c14.667 54.667 44 104 88 148l73 52l11 -15c-44 -44 -73.333 -93.333 -88 -148c-14 -52 -12.333 -99 5 -141z" />
    <glyph glyph-name="quoteright" unicode="&#x2019;" horiz-adv-x="214" 
d="M259 804l11 -15c17.333 -42 19 -89 5 -141c-14.667 -54.667 -44 -104 -88 -148l-73 -52l-11 15c44 44 73.333 93.333 88 148c14 52 12.333 99 -5 141z" />
    <glyph glyph-name="quotesinglbase" unicode="&#x201a;" horiz-adv-x="214" 
d="M137 104l11 -15c17.333 -42 19 -89 5 -141c-14.667 -54.667 -44 -104 -88 -148l-73 -52l-11 15c44 44 73.333 93.333 88 148c14 52 12.333 99 -5 141z" />
    <glyph glyph-name="quotedblleft" unicode="&#x201c;" horiz-adv-x="423" 
d="M128 448l-11 15c-17.333 42 -19 89 -5 141c14.667 54.667 44 104 88 148l73 52l11 -15c-44 -44 -73.333 -93.333 -88 -148c-14 -52 -12.333 -99 5 -141zM328 448l-11 15c-17.333 42 -19 89 -5 141c14.667 54.667 44 104 88 148l73 52l11 -15
c-44 -44 -73.333 -93.333 -88 -148c-14 -52 -12.333 -99 5 -141z" />
    <glyph glyph-name="quotedblright" unicode="&#x201d;" horiz-adv-x="423" 
d="M459 804l11 -15c17.333 -42 19 -89 5 -141c-14.667 -54.667 -44 -104 -88 -148l-73 -52l-11 15c44 44 73.333 93.333 88 148c14 52 12.333 99 -5 141zM259 804l11 -15c17.333 -42 19 -89 5 -141c-14.667 -54.667 -44 -104 -88 -148l-73 -52l-11 15
c44 44 73.333 93.333 88 148c14 52 12.333 99 -5 141z" />
    <glyph glyph-name="quotedblbase" unicode="&#x201e;" horiz-adv-x="423" 
d="M337 104l11 -15c17.333 -42 19 -89 5 -141c-14.667 -54.667 -44 -104 -88 -148l-73 -52l-11 15c44 44 73.333 93.333 88 148c14 52 12.333 99 -5 141zM137 104l11 -15c17.333 -42 19 -89 5 -141c-14.667 -54.667 -44 -104 -88 -148l-73 -52l-11 15
c44 44 73.333 93.333 88 148c14 52 12.333 99 -5 141z" />
    <glyph glyph-name="ellipsis" unicode="&#x2026;" horiz-adv-x="1071" 
d="M126 -32l-55 94l94 55l55 -95zM471 -32l-55 94l94 55l55 -95zM816 -32l-55 94l94 55l55 -95z" />
    <glyph glyph-name="afii57636" unicode="&#x20aa;" horiz-adv-x="1134" 
d="M290 506l10 -15l-126 -473l-74 -51l-10 15l126 473zM229 502l74.001 52.001c44 26 92 45.833 144 59.5s101 20.167 147 19.5c84 0 144.333 -26.333 181 -79l11 -15c15.333 -22.667 25.166 -48.667 29.499 -78s2.5 -57 -5.5 -83c-15.333 -58 -39 -111.333 -71 -160
l-74 -51l-10 15c32 48 55.667 101.333 71 160c15.333 56.667 8.66602 107.667 -20.001 153c-37.333 48 -96 72 -176 72c-45.333 0.666992 -94.166 -5.83301 -146.499 -19.5s-100.5 -33.834 -144.5 -60.501zM527.001 439.001l10 -14.9971l-86 -321
c48 -46.667 117 -70 207 -70c63.333 0 123.333 15.667 180 47c32.667 28.667 60.334 60.667 83.001 96s38.667 70.666 48 105.999c11.333 42 18.5 82 21.5 120s2.83301 70.167 -0.5 96.5s-9.33301 54.166 -18 83.499l74 51l10 -15
c8.66699 -28.667 14.667 -56.334 18 -83.001s3.5 -58.834 0.5 -96.501s-10.167 -77.834 -21.5 -120.501c-10.667 -40.667 -30.5 -81.667 -59.5 -123s-64.5 -76.666 -106.5 -105.999l-1 -1l-73 -51c-66.667 -46.667 -139.334 -70 -218.001 -70c-50 0 -92.5 6.33301 -127.5 19
s-65.167 33.334 -90.5 62.001l-11 15l87 325z" />
    <glyph glyph-name="Euro" unicode="&#x20ac;" horiz-adv-x="839" 
d="M719 120l10.999 -15.002c-2.66699 -1.33301 -5 -2.66602 -7 -3.99902l-74 -52c-78 -54.667 -161 -82 -249 -82c-48 0 -91.167 9 -129.5 27s-68.5 43 -90.5 75l-10 14l-1 1c-24.667 35.333 -37.334 76 -38.001 122h-68l-9 13l66 45h16l4 18c5.33301 18 12 36 20 54h-1
l-9 13l27 19c30.667 50.667 72.334 94.334 125.001 131.001l74 52c78 54.667 161 82 249 82c85.333 0 152.666 -26.333 201.999 -79l10 -15l-73 -52c-49.333 53.333 -117 80 -203 80c-72 0 -142.333 -19.333 -211 -58c-39.333 -34 -70.666 -72.333 -93.999 -115h427l9 -13
l-66 -45h-396c-2 -6 -3.66699 -12 -5 -18c-5.33301 -18 -8.66602 -36 -9.99902 -54h372l9 -13l-66 -45h-312c5.33301 -28.667 15.666 -54.667 30.999 -78c22.667 -30 52.5 -53.333 89.5 -70s78.833 -25 125.5 -25c84.667 0 165.334 26 242.001 78z" />
    <glyph glyph-name="minus" unicode="&#x2212;" horiz-adv-x="820" 
d="M784 327l-73 -51h-580l-11 15l74 51h580z" />
    <glyph glyph-name="uni25CC" unicode="&#x25cc;" horiz-adv-x="615" 
d="M76.5 233c7.66699 0 14.334 -2.66699 20.001 -8s8.5 -12 8.5 -20s-2.83301 -14.667 -8.5 -20s-12.334 -8 -20.001 -8s-14.167 2.66699 -19.5 8s-8 12 -8 20s2.66699 14.667 8 20s11.833 8 19.5 8zM211.5 98c7.66699 0 14.167 -2.66699 19.5 -8s8 -11.833 8 -19.5
s-2.66699 -14.167 -8 -19.5s-11.833 -8 -19.5 -8s-14.334 2.66699 -20.001 8s-8.5 11.833 -8.5 19.5s2.83301 14.167 8.5 19.5s12.334 8 20.001 8zM401.5 98c7.66699 0 14.167 -2.66699 19.5 -8s8 -11.833 8 -19.5s-2.66699 -14.167 -8 -19.5s-11.833 -8 -19.5 -8
s-14.167 2.66699 -19.5 8s-8 11.833 -8 19.5s2.66699 14.167 8 19.5s11.833 8 19.5 8zM536 233c8 0 14.667 -2.66699 20 -8s8 -12 8 -20s-2.66699 -14.667 -8 -20s-12 -8 -20 -8s-14.667 2.66699 -20 8s-8 12 -8 20s2.66699 14.667 8 20s12 8 20 8zM536 423
c8 0 14.667 -2.66699 20 -8s8 -12 8 -20s-2.66699 -14.667 -8 -20s-12 -8 -20 -8s-14.667 2.66699 -20 8s-8 12 -8 20s2.66699 14.667 8 20s12 8 20 8zM401.5 557c7.66699 0 14.167 -2.66699 19.5 -8s8 -11.833 8 -19.5s-2.66699 -14.167 -8 -19.5s-11.833 -8 -19.5 -8
s-14.167 2.66699 -19.5 8s-8 11.833 -8 19.5s2.66699 14.167 8 19.5s11.833 8 19.5 8zM211.5 557c7.66699 0 14.167 -2.66699 19.5 -8s8 -11.833 8 -19.5s-2.66699 -14.167 -8 -19.5s-11.833 -8 -19.5 -8s-14.334 2.66699 -20.001 8s-8.5 11.833 -8.5 19.5
s2.83301 14.167 8.5 19.5s12.334 8 20.001 8zM76.5 423c7.66699 0 14.334 -2.66699 20.001 -8s8.5 -12 8.5 -20s-2.83301 -14.667 -8.5 -20s-12.334 -8 -20.001 -8s-14.167 2.66699 -19.5 8s-8 12 -8 20s2.66699 14.667 8 20s11.833 8 19.5 8zM58 328
c8 0 14.667 -2.66699 20 -8s8 -12 8 -20s-2.66699 -14.667 -8 -20s-12 -8 -20 -8s-14.667 2.66699 -20 8s-8 12 -8 20s2.66699 14.667 8 20s12 8 20 8zM130.5 504c7.66699 0 14.334 -2.83301 20.001 -8.5s8.5 -12.334 8.5 -20.001s-2.83301 -14.167 -8.5 -19.5
s-12.334 -8 -20.001 -8s-14.167 2.66699 -19.5 8s-8 11.833 -8 19.5s2.66699 14.334 8 20.001s11.833 8.5 19.5 8.5zM130.5 152c7.66699 0 14.334 -2.66699 20.001 -8s8.5 -11.833 8.5 -19.5s-2.83301 -14.334 -8.5 -20.001s-12.334 -8.5 -20.001 -8.5
s-14.167 2.83301 -19.5 8.5s-8 12.334 -8 20.001s2.66699 14.167 8 19.5s11.833 8 19.5 8zM482.5 152c7.66699 0 14.167 -2.66699 19.5 -8s8 -11.833 8 -19.5s-2.66699 -14.334 -8 -20.001s-11.833 -8.5 -19.5 -8.5s-14.334 2.83301 -20.001 8.5s-8.5 12.334 -8.5 20.001
s2.83301 14.167 8.5 19.5s12.334 8 20.001 8zM482.5 504c7.66699 0 14.167 -2.83301 19.5 -8.5s8 -12.334 8 -20.001s-2.66699 -14.167 -8 -19.5s-11.833 -8 -19.5 -8s-14.334 2.66699 -20.001 8s-8.5 11.833 -8.5 19.5s2.83301 14.334 8.5 20.001s12.334 8.5 20.001 8.5z
M306.5 576c7.66699 0 14.167 -2.66699 19.5 -8s8 -11.833 8 -19.5s-2.66699 -14.167 -8 -19.5s-11.833 -8 -19.5 -8s-14.334 2.66699 -20.001 8s-8.5 11.833 -8.5 19.5s2.83301 14.167 8.5 19.5s12.334 8 20.001 8zM306.5 79c7.66699 0 14.167 -2.66699 19.5 -8
s8 -11.833 8 -19.5s-2.66699 -14.167 -8 -19.5s-11.833 -8 -19.5 -8s-14.334 2.66699 -20.001 8s-8.5 11.833 -8.5 19.5s2.83301 14.167 8.5 19.5s12.334 8 20.001 8zM554.5 328c7.66699 0 14.334 -2.66699 20.001 -8s8.5 -12 8.5 -20s-2.83301 -14.667 -8.5 -20
s-12.334 -8 -20.001 -8s-14.167 2.66699 -19.5 8s-8 12 -8 20s2.66699 14.667 8 20s11.833 8 19.5 8z" />
    <glyph glyph-name="lamed.initial" unicode="&#xe000;" horiz-adv-x="515" 
d="M818 880l-9.99805 15c6 34 2.66699 62 -10 84c-15.333 18 -36.833 28.833 -64.5 32.5s-52.834 0.833984 -75.501 -8.49902c-13.333 -4.66699 -26 -10.334 -38 -17.001c-27.333 -25.333 -50.333 -55.666 -69 -90.999c-16.667 -31.333 -30 -68.833 -40 -112.5
s-16.5 -81.834 -19.5 -114.501s-5.5 -74.667 -7.5 -126c-6 -143.333 -29.333 -265.666 -70 -366.999c-27.333 -66.667 -59 -112.667 -95 -138l-73 -51c-22 -15.333 -45.667 -23 -71 -23c-28 0 -50.667 12.333 -68 37l-11 15v1c-22 31.333 -31.333 70.666 -28 117.999
c4.66699 62.667 20.5 121.5 47.5 176.5s61.5 100.167 103.5 135.5l73 51l11 -14c-42 -35.333 -76.5 -80.5 -103.5 -135.5s-42.833 -113.833 -47.5 -176.5c-2.66699 -42.667 5 -79.667 23 -111c17.333 -20.667 38.333 -31 63 -31c11.333 0 22.333 1.66699 33 5
c21.333 26 41 60.667 59 104c40.667 101.333 64 223.666 70 366.999c2 51.333 4.5 93.333 7.5 126s9.5 70.834 19.5 114.501s23.333 81.5 40 113.5c26 48.667 60.667 88 104 118v1l74 51c23.333 16.667 48.666 30 75.999 40c24 10.667 50.667 13.5 80 8.5
s51.333 -17.833 66 -38.5v-1l10 -14c16.667 -23.333 21.667 -54 15 -92z" />
    <glyph glyph-name="nun.small" unicode="&#xe001;" horiz-adv-x="284" 
d="M278 637l9.99902 -14.001l-128 -485c-22.667 -86 -49 -154.333 -79 -205c-37.333 -64.667 -84.666 -117 -141.999 -157l-74 -52c-14.667 -10 -29.667 -19.333 -45 -28c-66.667 -35.333 -136.667 -53 -210 -53c-38 0 -75.667 5.5 -113 16.5s-64 28.167 -80 51.5l-10 14
c-10 14 -15 29.333 -15 46c0 24.667 7 44.667 21 60l73 52l11 -15c-13.333 -15.333 -20 -35.333 -20 -60c0 -14 3 -26.667 9 -38c18 -20.667 44.833 -36 80.5 -46s71.167 -15 106.5 -15c73.333 0 143.333 18 210 54l8 4c42 36 77.333 79 106 129
c30 50.667 56.333 119.334 79 206.001l128 484z" />
    <glyph glyph-name="nun.short" unicode="&#xe002;" horiz-adv-x="284" 
d="M278 637l10.0029 -13.9971l-138 -519c-22.667 -85.333 -46.667 -153 -72 -203c-40 -77.333 -89 -136.333 -147 -177l-74 -52c-2.66699 -2 -5.33398 -3.66699 -8.00098 -5c-53.333 -35.333 -108.333 -53 -165 -53c-27.333 0 -56 5.33301 -86 16s-53.333 27.667 -70 51
l-10 15c-12.667 18 -19.334 40.667 -20.001 68s5.66602 50.666 18.999 69.999l73 52l11 -15c-12.667 -16.667 -19 -38.334 -19 -65.001s5.33301 -48.667 16 -66c16.667 -20.667 39.5 -35.834 68.5 -45.501s56.167 -14.5 81.5 -14.5c44.667 0 89.334 11.667 134.001 35
c43.333 39.333 80.666 89 111.999 149c25.333 50 49.333 117.667 72 203l138 519z" />
    <glyph glyph-name="nun.short2" unicode="&#xe003;" horiz-adv-x="284" 
d="M-363 -64l10 -14.999c-10 -13.333 -15.667 -31 -17 -53s3 -41.667 13 -59c16 -18.667 37.667 -32.667 65 -42s54 -14 80 -14c42 0 83.667 10.667 125 32c37.333 34 69 76.333 95 127c24 46 46 106.667 66 182l130 492l74 51l10 -14l-130 -492
c-20 -76 -42 -136.667 -66 -182c-34.667 -67.333 -78 -119.333 -130 -156l-74 -52c-4 -2.66699 -7.66699 -5 -11 -7c-49.333 -31.333 -100.333 -47 -153 -47c-27.333 0 -55.333 5.16699 -84 15.5s-50.667 26.166 -66 47.499l-10 15c-13.333 18.667 -19.333 40.667 -18 66
c1.33301 22 7 39.667 17 53z" />
    <glyph glyph-name="nun.tiny" unicode="&#xe004;" horiz-adv-x="474" 
d="M500 637l9.99902 -13.998l-99 -377c-10.667 -40 -25 -76.667 -43 -110c-20 -36.667 -45.667 -66 -77 -88l-74 -52h-1c-5.33301 -4 -10.666 -7.33301 -15.999 -10c-33.333 -19.333 -67.666 -29 -102.999 -29c-41.333 0 -75.333 10.167 -102 30.5
s-41.334 51.166 -44.001 92.499l74 52l10 -15c0 -62.667 41.667 -94 125 -94c27.333 0 54.333 6 81 18c16.667 17.333 31 36.666 43 57.999c18 33.333 32.333 70 43 110l99 377z" />
    <glyph glyph-name="nun.tiny2" unicode="&#xe005;" horiz-adv-x="444" 
d="M439 637l10.002 -13.9971l-132 -506c-11.333 -43.333 -26.333 -82 -45 -116c-21.333 -37.333 -48.333 -67.333 -81 -90l-74 -52c-6.66699 -4.66699 -13.334 -9 -20.001 -13c-37.333 -20.667 -75 -31 -113 -31c-52.667 0 -94 11.667 -124 35c-6 4.66699 -11 10 -15 16
l-10 14c-12 17.333 -16.333 38.666 -13 63.999l73 52l11 -15c-2.66699 -21.333 0 -40 8 -56c2.66699 -2.66699 5.66699 -5.33398 9 -8.00098c30 -23.333 71.333 -35 124 -35c32 0 63.667 7 95 21c17.333 18 32.666 38.667 45.999 62c18.667 33.333 33.667 71.666 45 114.999
l132 506z" />
    <glyph glyph-name="vav.short" unicode="&#xe006;" horiz-adv-x="291" 
d="M277 637l10 -14l-160 -609l-74 -51l-10 15l160 608z" />
    <glyph glyph-name="lamed.short" unicode="&#xe007;" horiz-adv-x="515" 
d="M1028 1001l-73 -50.9971c-46 32.667 -98.667 50.167 -158 52.5s-113 -9.5 -161 -35.5c-52.667 -48 -90.167 -107.5 -112.5 -178.5s-35.5 -153.167 -39.5 -246.5c-6 -143.333 -29.333 -265.666 -70 -366.999c-27.333 -66.667 -59 -112.667 -95 -138l-73 -51
c-22 -15.333 -45.667 -23 -71 -23c-28 0 -50.667 12.333 -68 37l-11 15v1c-22 31.333 -31.333 70.666 -28 117.999c4.66699 62.667 20.5 121.5 47.5 176.5s61.5 100.167 103.5 135.5l73 51l11 -14c-42 -35.333 -76.5 -80.5 -103.5 -135.5s-42.833 -113.833 -47.5 -176.5
c-2.66699 -42.667 5 -79.667 23 -111c17.333 -20.667 38.333 -31 63 -31c11.333 0 22.333 1.66699 33 5c21.333 26 41 60.667 59 104c40.667 101.333 64 223.666 70 366.999c2 49.333 6.16699 94.166 12.5 134.499s16.333 80.833 30 121.5s32.667 77.667 57 111
s53.833 62 88.5 86l73 52c4.66699 3.33301 9.33398 6.33301 14.001 9c52.667 33.333 110.167 50.166 172.5 50.499s119.166 -17.5 170.499 -53.5z" />
    <glyph glyph-name="lamed.slanted" unicode="&#xe008;" horiz-adv-x="515" 
d="M1248 855l-10.999 14.999c-4 8 -8.66699 16 -14 24c-33.333 44.667 -75.833 77.667 -127.5 99s-105.834 30.333 -162.501 27s-112.667 -17.333 -168 -42c-16.667 -7.33301 -32.667 -15.666 -48 -24.999c-56.667 -47.333 -101.167 -105.333 -133.5 -174
s-58.5 -147.667 -78.5 -237l-19.5 -98c-8.33301 -42 -15 -74.5 -20 -97.5s-12.167 -50.5 -21.5 -82.5s-19.333 -61.667 -30 -89c-27.333 -66.667 -59 -112.667 -95 -138l-73 -51c-22 -15.333 -45.667 -23 -71 -23c-28 0 -50.667 12.333 -68 37l-11 15v1
c-22 31.333 -31.333 70.666 -28 117.999c4.66699 62.667 20.5 121.5 47.5 176.5s61.5 100.167 103.5 135.5l73 51l11 -14c-42 -35.333 -76.5 -80.5 -103.5 -135.5s-42.833 -113.833 -47.5 -176.5c-2.66699 -42.667 5 -79.667 23 -111c17.333 -20.667 38.333 -31 63 -31
c11.333 0 22.333 1.66699 33 5c21.333 26 41 60.667 59 104c10.667 27.333 20.667 57 30 89s16.5 59.5 21.5 82.5s11.667 55.5 20 97.5l19.5 98c10.667 46.667 22.334 89.334 35.001 128.001s28.5 77.5 47.5 116.5s42.333 74.833 70 107.5s59.167 61.334 94.5 86.001v1
l74 51c26.667 18.667 55.334 35 86.001 49c56.667 25.333 113.667 39.5 171 42.5s112.166 -6.83301 164.499 -29.5s95.166 -57.334 128.499 -104.001l10 -15c6.66699 -10 13 -20.333 19 -31z" />
    <glyph glyph-name="tav.longtail" unicode="&#xe009;" horiz-adv-x="927" 
d="M357 523l9.99902 -14c-12 -83.333 -31 -173.666 -57 -270.999c-22.667 -84.667 -58.667 -144.667 -108 -180l-74 -51v-1c-6 -4 -12 -7.33301 -18 -10c-37.333 -20 -72.5 -28.5 -105.5 -25.5s-61.833 17.167 -86.5 42.5c-15.333 14.667 -25.5 33.5 -30.5 56.5
s-2.83301 47.5 6.5 73.5c10 24 26 44 48 60l74 52l11 -15c-22 -15.333 -39 -35.666 -51 -60.999c-8.66699 -18 -11.667 -36.833 -9 -56.5s10 -35.834 22 -48.501c18.667 -20 42.5 -31.833 71.5 -35.5s59.5 0.833008 91.5 13.5c32.667 35.333 57.334 85 74.001 149
c26 97.333 45 187.666 57 270.999zM695.999 -37l-10.001 14.999c54 70 92.667 136 116 198c19.333 50.667 29 100.667 29 150c0 52 -13.333 98.667 -40 140c-53.333 70 -134.333 105 -243 105c-117.333 0 -220.666 -27.667 -309.999 -83l-44 -32l-11 15l22 16l74 52
c93.333 65.333 204 98 332 98c113.333 0 196.333 -37.333 249 -112l10 -14c30 -43.333 45 -92.666 45 -147.999c0 -49.333 -9.66699 -99.333 -29 -150c-23.333 -62 -62 -128.333 -116 -199z" />
    <glyph glyph-name="lamed.median" unicode="&#xe00a;" horiz-adv-x="515" 
d="M1235 907l-73.0029 -52.001c-41.333 56.667 -90.666 99.167 -147.999 127.5s-116.5 41.666 -177.5 39.999s-120.5 -16.5 -178.5 -44.5c-6.66699 -3.33301 -13 -6.66602 -19 -9.99902c-54 -47.333 -92.333 -106.666 -115 -177.999s-36 -154 -40 -248
c-6 -143.333 -29.333 -265.666 -70 -366.999c-27.333 -66.667 -59 -112.667 -95 -138l-73 -51c-22 -15.333 -45.667 -23 -71 -23c-27.333 0 -50 12.667 -68 38l-10 14c-22.667 32.667 -32.334 72.334 -29.001 119.001c4.66699 62.667 20.5 121.5 47.5 176.5
s61.5 100.167 103.5 135.5l73 51l11 -14c-42 -35.333 -76.5 -80.5 -103.5 -135.5s-42.833 -113.833 -47.5 -176.5c-2.66699 -42 5.33301 -79 24 -111c16.667 -20.667 37.334 -31 62.001 -31c11.333 0 22.333 1.66699 33 5c21.333 26 41 60.667 59 104
c40.667 101.333 64 223.666 70 366.999c2 49.333 6.33301 94.166 13 134.499s16.667 80.833 30 121.5s32.333 77.667 57 111s54.334 62.333 89.001 87h1l73 51c18 12.667 37.333 24 58 34c58 28.667 117.5 43.667 178.5 45s120.333 -12.167 178 -40.5
s106.834 -70.5 147.501 -126.5z" />
    <glyph glyph-name="nun.tiny.dagesh" unicode="&#xe00b;" horiz-adv-x="474" 
d="M187 223l-63 91l91 63l63 -91zM500 637l9.99902 -13.998l-99 -377c-10.667 -40 -25 -76.667 -43 -110c-20 -36.667 -45.667 -66 -77 -88l-74 -52h-1c-5.33301 -4 -10.666 -7.33301 -15.999 -10c-33.333 -19.333 -67.666 -29 -102.999 -29
c-41.333 0 -75.333 10.167 -102 30.5s-41.334 51.166 -44.001 92.499l74 52l10 -15c0 -62.667 41.667 -94 125 -94c27.333 0 54.333 6 81 18c16.667 17.333 31 36.666 43 57.999c18 33.333 32.333 70 43 110l99 377z" />
    <glyph glyph-name="patah.short" unicode="&#xe00e;" 
d="M101 -114l-74 -52h-186l-10 15l74 52h185z" />
    <glyph glyph-name="qamats.short" unicode="&#xe00f;" 
d="M-159 -167l-11 15l74 52h186l10 -15l-74 -52h-34l-35 -130l-74 -52l-10 15l38 142l36 25h-106z" />
    <glyph glyph-name="uniE801" unicode="&#xe801;" horiz-adv-x="291" 
d="M77 616l-58 82l82 57l58 -82zM317 788l10 -14l-200 -760l-74 -51l-10 15l200 759z" />
    <glyph glyph-name="uniE802" unicode="&#xe802;" horiz-adv-x="652" 
d="M98 -215l-57 82l81 57l58 -82zM146 -35l-57 82l81 57l58 -82zM169 -431l-10 14.999l57 218c12.667 47.333 28.334 84.333 47.001 111c8.66699 11.333 20.834 24.5 36.501 39.5s29.334 27.167 41.001 36.5l50.5 39c22 16.667 35.333 27 40 31
c79.333 62 127 138.333 143 229c11.333 66 0 125.333 -34 178c-24.667 32.667 -57 58.334 -97 77.001s-84.667 28 -134 28c-78 0 -151 -22.333 -219 -67l-20 -14l-10 15c2.66699 2 5.66699 4 9 6l74 52c70.667 49.333 147 74 229 74c51.333 0 97.5 -10 138.5 -30
s73.833 -47.333 98.5 -82l10 -15c38 -54 51 -115.667 39 -185c-16 -91.333 -63.667 -168 -143 -230l-40 -30l-50.5 -39c-11.667 -9.33301 -25.334 -21.5 -41.001 -36.5s-27.834 -28.5 -36.501 -40.5c-18.667 -26 -34.334 -63 -47.001 -111l-57 -218z" />
    <glyph glyph-name="uniE803" unicode="&#xe803;" horiz-adv-x="652" 
d="M7 81l-11 15l74 52h326l10 -15l-74 -52h-104l-35 -130l-74 -52l-10 15l38 142l36 25h-176zM169 -431l-10 14.999l57 218c12.667 47.333 28.334 84.333 47.001 111c8.66699 11.333 20.834 24.5 36.501 39.5s29.334 27.167 41.001 36.5l50.5 39c22 16.667 35.333 27 40 31
c79.333 62 127 138.333 143 229c11.333 66 0 125.333 -34 178c-24.667 32.667 -57 58.334 -97 77.001s-84.667 28 -134 28c-78 0 -151 -22.333 -219 -67l-20 -14l-10 15c2.66699 2 5.66699 4 9 6l74 52c70.667 49.333 147 74 229 74c51.333 0 97.5 -10 138.5 -30
s73.833 -47.333 98.5 -82l10 -15c38 -54 51 -115.667 39 -185c-16 -91.333 -63.667 -168 -143 -230l-40 -30l-50.5 -39c-11.667 -9.33301 -25.334 -21.5 -41.001 -36.5s-27.834 -28.5 -36.501 -40.5c-18.667 -26 -34.334 -63 -47.001 -111l-57 -218z" />
    <glyph glyph-name="uniE804" unicode="&#xe804;" horiz-adv-x="254" 
d="M90 77l-57 82l82 58l57 -82zM110 269l-11 15l80 302l74 51l10 -14l-80 -302z" />
    <glyph glyph-name="uniFB1D" unicode="&#xfb1d;" horiz-adv-x="254" 
d="M29 -220l-57 82l82 58l57 -82zM110 269l-11 15l80 302l74 51l10 -14l-80 -302z" />
    <glyph glyph-name="uniFB1E" unicode="&#xfb1e;" 
d="M-198 732l73.999 52c54.667 -16.667 109.667 -24.167 165 -22.5s109.666 11.167 162.999 28.5l10 -15l-73 -51c-53.333 -18 -107.666 -27.667 -162.999 -29s-110.666 6 -165.999 22z" />
    <glyph glyph-name="uniFB1F" unicode="&#xfb1f;" horiz-adv-x="508" 
d="M362.546 165l-51.7334 -52h-227.905l-6.99121 15l51.7334 52h227.206zM110 269l-11 15l80 302l74 51l10 -14l-80 -302zM364 269l-11 15l80 302l74 51l10 -14l-80 -302z" />
    <glyph glyph-name="uniFB20" unicode="&#xfb20;" horiz-adv-x="696" 
d="M329 528c-56.667 18 -121.666 32.3311 -194.999 42.998l-10 15l74 51c79.333 -11.333 148.666 -27 207.999 -47l7 -3l24 17c94.667 66.667 201.334 119.667 320.001 159l10 -15l-74 -51c-92.667 -31.333 -178.334 -70.666 -257.001 -117.999
c68.667 -27.333 122.667 -61.333 162 -102c8.66699 -8.66699 16.667 -18 24 -28l10 -15c26 -36.667 39.333 -77.5 40 -122.5s-11.333 -88.5 -36 -130.5c-27.333 -47.333 -60.333 -84.666 -99 -111.999h-1l-73 -52c-54 -37.333 -112.667 -56 -176 -56
c-44 0 -81 5.5 -111 16.5s-54 30.5 -72 58.5c-23.333 34.667 -35 72.834 -35 114.501s8.16699 80.167 24.5 115.5s38.833 69.666 67.5 102.999c50 58.667 106 111.667 168 159zM356.001 517.998c-42.667 -37.333 -79.667 -74.667 -111 -112
c-44.667 -54 -73.5 -108.333 -86.5 -163s-6.83301 -104.334 18.5 -149.001c28 -44.667 86 -67 174 -67c45.333 0 91 11.333 137 34c24 22.667 45.333 50.334 64 83.001c24 40.667 36 82.667 36 126s-11.667 83.333 -35 120c-5.33301 7.33301 -11.333 14.333 -18 21
c-42 42.667 -100 78 -174 106z" />
    <glyph glyph-name="uniFB29" unicode="&#xfb29;" horiz-adv-x="820" 
d="M127 253l-9 13l65 45h233l59 221l74 51l10 -15l-69 -257h273l10 -13l-66 -45h-580z" />
    <glyph glyph-name="uniFB2A" unicode="&#xfb2a;" horiz-adv-x="698" 
d="M833 645l-57 82l82 57l57 -82zM597 114l9.99805 -14.0049c-2.66699 -2.66699 -5.66699 -5 -9 -7l-73 -51l-1 -1c-63.333 -44 -132 -66 -206 -66c-46.667 0 -88.334 8.83301 -125.001 26.5s-66.667 42.834 -90 75.501c-44.667 64 -53.667 141.333 -27 232
c16.667 58.667 42.334 112.834 77.001 162.501s76 91.167 124 124.5l73 52h1c61.333 42.667 128 68.667 200 78c39.333 4.66699 74.166 2.33398 104.499 -6.99902s53.833 -25.666 70.5 -48.999c13.333 -19.333 20.666 -41.666 21.999 -66.999
s-3.33398 -49.666 -14.001 -72.999c-20.667 -44.667 -57.667 -85.667 -111 -123l-74 -51v-1c-8.66699 -6 -17.667 -11.667 -27 -17c-98.667 -58.667 -208 -89 -328 -91l-11 15l74 51c116 2 221.667 30.333 317 85c44.667 38 73.334 80 86.001 126
c4.66699 15.333 6.33398 31.833 5.00098 49.5s-6.33301 31.834 -15 42.501c-30.667 38 -84.667 52.333 -162 43c-57.333 -6.66699 -111.666 -24.667 -162.999 -54c-80 -68 -135 -154.333 -165 -259c-25.333 -88.667 -19 -160.334 19 -215.001
c20.667 -28.667 48.834 -50.834 84.501 -66.501s74.834 -23.5 117.501 -23.5c70.667 0 136.667 20.333 198 61z" />
    <glyph glyph-name="uniFB2B" unicode="&#xfb2b;" horiz-adv-x="698" 
d="M232 648l-57 82l82 57l57 -82zM597 114l9.99805 -14.0049c-2.66699 -2.66699 -5.66699 -5 -9 -7l-73 -51l-1 -1c-63.333 -44 -132 -66 -206 -66c-46.667 0 -88.334 8.83301 -125.001 26.5s-66.667 42.834 -90 75.501c-44.667 64 -53.667 141.333 -27 232
c16.667 58.667 42.334 112.834 77.001 162.501s76 91.167 124 124.5l73 52h1c61.333 42.667 128 68.667 200 78c39.333 4.66699 74.166 2.33398 104.499 -6.99902s53.833 -25.666 70.5 -48.999c13.333 -19.333 20.666 -41.666 21.999 -66.999
s-3.33398 -49.666 -14.001 -72.999c-20.667 -44.667 -57.667 -85.667 -111 -123l-74 -51v-1c-8.66699 -6 -17.667 -11.667 -27 -17c-98.667 -58.667 -208 -89 -328 -91l-11 15l74 51c116 2 221.667 30.333 317 85c44.667 38 73.334 80 86.001 126
c4.66699 15.333 6.33398 31.833 5.00098 49.5s-6.33301 31.834 -15 42.501c-30.667 38 -84.667 52.333 -162 43c-57.333 -6.66699 -111.666 -24.667 -162.999 -54c-80 -68 -135 -154.333 -165 -259c-25.333 -88.667 -19 -160.334 19 -215.001
c20.667 -28.667 48.834 -50.834 84.501 -66.501s74.834 -23.5 117.501 -23.5c70.667 0 136.667 20.333 198 61z" />
    <glyph glyph-name="uniFB2C" unicode="&#xfb2c;" horiz-adv-x="698" 
d="M833 645l-57 82l82 57l57 -82zM597 114l9.99805 -14.0049c-2.66699 -2.66699 -5.66699 -5 -9 -7l-73 -51l-1 -1c-63.333 -44 -132 -66 -206 -66c-46.667 0 -88.334 8.83301 -125.001 26.5s-66.667 42.834 -90 75.501c-44.667 64 -53.667 141.333 -27 232
c16.667 58.667 42.334 112.834 77.001 162.501s76 91.167 124 124.5l73 52h1c61.333 42.667 128 68.667 200 78c39.333 4.66699 74.166 2.33398 104.499 -6.99902s53.833 -25.666 70.5 -48.999c13.333 -19.333 20.666 -41.666 21.999 -66.999
s-3.33398 -49.666 -14.001 -72.999c-20.667 -44.667 -57.667 -85.667 -111 -123l-74 -51v-1c-8.66699 -6 -17.667 -11.667 -27 -17c-98.667 -58.667 -208 -89 -328 -91l-11 15l74 51c116 2 221.667 30.333 317 85c44.667 38 73.334 80 86.001 126
c4.66699 15.333 6.33398 31.833 5.00098 49.5s-6.33301 31.834 -15 42.501c-30.667 38 -84.667 52.333 -162 43c-57.333 -6.66699 -111.666 -24.667 -162.999 -54c-80 -68 -135 -154.333 -165 -259c-25.333 -88.667 -19 -160.334 19 -215.001
c20.667 -28.667 48.834 -50.834 84.501 -66.501s74.834 -23.5 117.501 -23.5c70.667 0 136.667 20.333 198 61zM427.998 418.995l-63 91l91 63l63 -91z" />
    <glyph glyph-name="uniFB2D" unicode="&#xfb2d;" horiz-adv-x="698" 
d="M232 648l-57 82l82 57l57 -82zM597 114l9.99805 -14.0049c-2.66699 -2.66699 -5.66699 -5 -9 -7l-73 -51l-1 -1c-63.333 -44 -132 -66 -206 -66c-46.667 0 -88.334 8.83301 -125.001 26.5s-66.667 42.834 -90 75.501c-44.667 64 -53.667 141.333 -27 232
c16.667 58.667 42.334 112.834 77.001 162.501s76 91.167 124 124.5l73 52h1c61.333 42.667 128 68.667 200 78c39.333 4.66699 74.166 2.33398 104.499 -6.99902s53.833 -25.666 70.5 -48.999c13.333 -19.333 20.666 -41.666 21.999 -66.999
s-3.33398 -49.666 -14.001 -72.999c-20.667 -44.667 -57.667 -85.667 -111 -123l-74 -51v-1c-8.66699 -6 -17.667 -11.667 -27 -17c-98.667 -58.667 -208 -89 -328 -91l-11 15l74 51c116 2 221.667 30.333 317 85c44.667 38 73.334 80 86.001 126
c4.66699 15.333 6.33398 31.833 5.00098 49.5s-6.33301 31.834 -15 42.501c-30.667 38 -84.667 52.333 -162 43c-57.333 -6.66699 -111.666 -24.667 -162.999 -54c-80 -68 -135 -154.333 -165 -259c-25.333 -88.667 -19 -160.334 19 -215.001
c20.667 -28.667 48.834 -50.834 84.501 -66.501s74.834 -23.5 117.501 -23.5c70.667 0 136.667 20.333 198 61zM427.998 418.995l-63 91l91 63l63 -91z" />
    <glyph glyph-name="uniFB2E" unicode="&#xfb2e;" horiz-adv-x="710" 
d="M511 -114l-74 -52h-326l-10 15l74 52h325zM296 840l10.001 -15l-95 -359c6 5.33301 12.333 10 19 14l74 52c72 50.667 150.667 76 236 76c70.667 0 131.334 -17.667 182.001 -53l11 -15l-74 -52c-50.667 35.333 -111.334 53 -182.001 53c-69.333 0 -135.333 -17 -198 -51
c-59.333 -52.667 -95 -112.667 -107 -180c-10.667 -60 -0.333984 -114.333 30.999 -163c25.333 -32.667 58.666 -58.5 99.999 -77.5s87 -28.5 137 -28.5c84 0 161.667 24.333 233 73l10 -15l-74 -52c-70.667 -48 -148 -72 -232 -72c-127.333 0 -211.666 53 -252.999 159
l-32 -120l-74 -51l-10 15l214 810z" />
    <glyph glyph-name="uniFB2F" unicode="&#xfb2f;" horiz-adv-x="710" 
d="M111 -167l-11 15l74 52h326l10 -15l-74 -52h-104l-35 -130l-74 -52l-10 15l38 142l36 25h-176zM296 840l10.001 -15l-95 -359c6 5.33301 12.333 10 19 14l74 52c72 50.667 150.667 76 236 76c70.667 0 131.334 -17.667 182.001 -53l11 -15l-74 -52
c-50.667 35.333 -111.334 53 -182.001 53c-69.333 0 -135.333 -17 -198 -51c-59.333 -52.667 -95 -112.667 -107 -180c-10.667 -60 -0.333984 -114.333 30.999 -163c25.333 -32.667 58.666 -58.5 99.999 -77.5s87 -28.5 137 -28.5c84 0 161.667 24.333 233 73l10 -15
l-74 -52c-70.667 -48 -148 -72 -232 -72c-127.333 0 -211.666 53 -252.999 159l-32 -120l-74 -51l-10 15l214 810z" />
    <glyph glyph-name="uniFB30" unicode="&#xfb30;" horiz-adv-x="710" 
d="M423 223l-63 91l91 63l63 -91zM296 840l10.001 -15l-95 -359c6 5.33301 12.333 10 19 14l74 52c72 50.667 150.667 76 236 76c70.667 0 131.334 -17.667 182.001 -53l11 -15l-74 -52c-50.667 35.333 -111.334 53 -182.001 53c-69.333 0 -135.333 -17 -198 -51
c-59.333 -52.667 -95 -112.667 -107 -180c-10.667 -60 -0.333984 -114.333 30.999 -163c25.333 -32.667 58.666 -58.5 99.999 -77.5s87 -28.5 137 -28.5c84 0 161.667 24.333 233 73l10 -15l-74 -52c-70.667 -48 -148 -72 -232 -72c-127.333 0 -211.666 53 -252.999 159
l-32 -120l-74 -51l-10 15l214 810z" />
    <glyph glyph-name="uniFB31" unicode="&#xfb31;" horiz-adv-x="774" 
d="M404 223l-63 91l91 63l63 -91zM28 -37l-17.001 22.998c17.333 37.333 39.333 65.333 66 84l74 52c21.333 15.333 45.5 24 72.5 26s55.167 -1.66699 84.5 -11s57.333 -19.833 84 -31.5l90.5 -39.5c33.667 -14.667 62.167 -25.334 85.5 -32.001
c27.333 33.333 50.5 71.666 69.5 114.999s30.167 87.666 33.5 132.999c6 66.667 -8.33301 126.667 -43 180c-26 34 -58.333 60.667 -97 80s-81 29 -127 29c-51.333 0 -100.666 -12.333 -147.999 -37c-65.333 -59.333 -101.666 -131 -108.999 -215l-73 -52l-11 15
c4.66699 48.667 19.834 94.334 45.501 137.001s58.5 78 98.5 106l74 52c57.333 40 119.666 60 186.999 60c47.333 0 90.833 -10.167 130.5 -30.5s72.167 -48.5 97.5 -84.5v-1h1l10 -15c38.667 -54.667 55 -117 49 -187c-5.33301 -57.333 -22 -112.666 -50 -165.999
s-60.333 -96 -97 -128c-4.66699 -3.33301 -9.33398 -7 -14.001 -11l-74 -51c-26.667 6.66699 -59.5 18.334 -98.5 35.001l-102.5 45.5c-29.333 13.667 -61.5 24.334 -96.5 32.001s-65.833 7.83398 -92.5 0.500977c-13.333 -16 -23 -36.667 -29 -62z" />
    <glyph glyph-name="uniFB32" unicode="&#xfb32;" horiz-adv-x="646" 
d="M356 127l-63 91l91 63l63 -91zM397 793l10.002 -14.0049c3.33301 -55.333 16.666 -99.333 39.999 -132c30 -41.333 75.333 -68 136 -80l12 -3l10 -14l-74 -52c-42 0.666992 -86.833 -4.83301 -134.5 -16.5s-87.167 -26.5 -118.5 -44.5l-20 -12
c-44.667 -36 -81 -77 -109 -123s-44.167 -92.667 -48.5 -140s7.16699 -91.666 34.5 -132.999c28 -39.333 68.333 -65.5 121 -78.5s107.334 -11.167 164.001 5.5c62.667 18.667 126.334 48.334 191.001 89.001c6 4.66699 11.667 9.33398 17 14.001l74 51l10 -14
c-16 -14 -33.333 -27.333 -52 -40l-74 -52c-75.333 -52.667 -152 -90.667 -230 -114c-62 -17.333 -119.833 -18 -173.5 -2s-94.834 45.333 -123.501 88c-32 48.667 -45.5 99.5 -40.5 152.5s24.167 104.333 57.5 154s77.666 93.834 132.999 132.501l74 52
c18.667 12.667 38 25 58 37c23.333 12.667 51.666 24.334 84.999 35.001c-21.333 14.667 -39.333 32.667 -54 54c-28 40 -44.333 89.667 -49 149z" />
    <glyph glyph-name="uniFB33" unicode="&#xfb33;" horiz-adv-x="684" 
d="M321 338l-63 91l91 63l63 -91zM350 253l74 52c35.333 -0.666992 67 -7.66699 95 -21l35 28c39.333 30.667 63.333 61.667 72 93c9.33301 36.667 3.66602 68.334 -17.001 95.001c-17.333 22.667 -42.166 40.167 -74.499 52.5s-67.833 18.5 -106.5 18.5
c-80.667 0 -157 -20.333 -229 -61c-40.667 -34.667 -68.334 -70.334 -83.001 -107.001l-73 -51l-11 14c19.333 48 58.666 93 117.999 135l74 51l1 1c80.667 56 169.667 84 267 84c42.667 0 80.834 -7.16699 114.501 -21.5s60.167 -34.833 79.5 -61.5
c17.333 -25.333 26 -52 26 -80c0 -50 -25 -92.667 -75 -128l-50 -36l-51 -36c18 -11.333 32.667 -25.333 44 -42c18.667 -27.333 28 -56.333 28 -87c0 -46.667 -18.667 -90.334 -56 -131.001l-74 -51l-10 15c37.333 40 56 83.667 56 131c0 27.333 -6.66699 50 -20 68
c-13.333 19.333 -32.666 34.333 -57.999 45s-54 16.334 -86 17.001z" />
    <glyph glyph-name="uniFB34" unicode="&#xfb34;" horiz-adv-x="767" 
d="M447 223l-63 91l91 63l63 -91zM61 195l74 52.002c23.333 15.333 46.833 22.166 70.5 20.499s42.834 -12.167 57.501 -31.5c18 -28 19.667 -63.5 5 -106.5s-39.667 -81.5 -75 -115.5l-74 -51l-10 15c37.333 36 63.5 73.5 78.5 112.5s14.833 69.167 -0.5 90.5
c-12.667 14.667 -29.834 21.667 -51.501 21s-43.167 -7.33398 -64.5 -20.001zM94 505.002l73.999 52c44 27.333 88.5 47.5 133.5 60.5s95.167 19.5 150.5 19.5c113.333 0 196 -37.333 248 -112l11 -14v-1c30 -42.667 45 -91.667 45 -147
c0 -49.333 -9.66699 -99.333 -29 -150c-23.333 -62 -62 -128.333 -116 -199l-74 -51l-10 15c54 70 92.667 136 116 198c19.333 50.667 29 100.667 29 150c0 52 -13.333 98.667 -40 140c-53.333 70 -134.333 105 -243 105c-55.333 0 -105.666 -6.5 -150.999 -19.5
s-90 -33.167 -134 -60.5z" />
    <glyph glyph-name="uniFB35" unicode="&#xfb35;" horiz-adv-x="411" 
d="M106 223l-63 91l91 63l63 -91zM437 788l10 -14l-200 -760l-74 -51l-10 15l200 759z" />
    <glyph glyph-name="uniFB36" unicode="&#xfb36;" horiz-adv-x="636" 
d="M266 140l-63 91l91 63l63 -91zM388 783l10 -14.998c-0.666992 -40 -14.834 -81.667 -42.501 -125s-64.5 -85.333 -110.5 -126c60.667 20 123.334 25.667 188.001 17c60 -8 107.167 -32.167 141.5 -72.5s51.5 -93.166 51.5 -158.499
c0 -53.333 -14.167 -104.333 -42.5 -153s-70.833 -92.667 -127.5 -132l-73 -52h-1c-28 -20 -59 -38.333 -93 -55c-35.333 -16.667 -73.333 -25 -114 -25c-85.333 0 -148 25.333 -188 76c-15.333 20 -25.333 39.333 -30 58l74 52l10 -15
c7.33301 -27.333 22.5 -49.833 45.5 -67.5s50.5 -28.834 82.5 -33.501c71.333 -10.667 132.333 -3.33398 183 21.999c19.333 9.33301 37.666 19 54.999 29c44.667 36.667 78.5 78.167 101.5 124.5s34.5 93.166 34.5 140.499c0 56 -14.833 100.667 -44.5 134
s-72.5 54 -128.5 62c-87.333 11.333 -169 -2 -245 -40l-11 15c59.333 44.667 107.333 92.167 144 142.5s55.334 98.833 56.001 145.5z" />
    <glyph glyph-name="uniFB37" unicode="&#xfb37;" horiz-adv-x="807" 
d="M418 223l-63 91l91 63l63 -91zM152 505l74.001 52c42 27.333 84.333 47.5 127 60.5s90 19.5 142 19.5c104 0 181 -35.333 231 -106l10 -15l1 -1c30.667 -44 46 -94.667 46 -152c0 -49.333 -9.33301 -99.333 -28 -150c-22 -62 -58.667 -128.333 -110 -199l-73 -51l-11 15
c51.333 70 88 136 110 198c18.667 50.667 28 100.667 28 150c0 54 -14 102.333 -42 145c-50 66.667 -125 100 -225 100c-52.667 0 -100.334 -6.5 -143.001 -19.5s-84.667 -33.167 -126 -60.5zM216.001 495l11 -14l-125 -467l-74 -51l-10 15l125 466z" />
    <glyph glyph-name="uniFB38" unicode="&#xfb38;" horiz-adv-x="698" 
d="M355 223l-63 91l91 63l63 -91zM664 797l-74.001 -52.001h-9c-33.333 -2 -69 -8.83301 -107 -20.5s-72.333 -25.834 -103 -42.501c-154 -123.333 -230.333 -262.666 -229 -417.999c0.666992 -61.333 15.334 -112.666 44.001 -153.999c32 -46 83 -69 153 -69
c55.333 0 107.666 13 156.999 39c38.667 35.333 69 78.333 91 129c11.333 32.667 14.5 61.334 9.5 86.001s-16.167 46.334 -33.5 65.001l74 51c20.667 -18 34.5 -41.833 41.5 -71.5s4.5 -61.167 -7.5 -94.5c-28 -65.333 -70 -117.666 -126 -156.999l-74 -51
c-58.667 -41.333 -124 -62 -196 -62s-127.667 28.333 -167 85c-35.333 49.333 -52 111.666 -50 186.999c0.666992 20 2.5 39.667 5.5 59s10 44.5 21 75.5s25.5 61.167 43.5 90.5s44.167 62.166 78.5 98.499s74.166 71.166 119.499 104.499l4 2l74 52
c30.667 21.333 68.334 39.833 113.001 55.5s87.334 24.5 128.001 26.5h9z" />
    <glyph glyph-name="uniFB39" unicode="&#xfb39;" horiz-adv-x="354" 
d="M120 357l-63 91l91 63l63 -91zM210 269l-11 15l80 302l74 51l10 -14l-80 -302z" />
    <glyph glyph-name="uniFB3A" unicode="&#xfb3a;" horiz-adv-x="652" 
d="M301 223l-63 91l91 63l63 -91zM169 -431l-10 14.999l57 218c12.667 47.333 28.334 84.333 47.001 111c8.66699 11.333 20.834 24.5 36.501 39.5s29.334 27.167 41.001 36.5l50.5 39c22 16.667 35.333 27 40 31c79.333 62 127 138.333 143 229
c11.333 66 0 125.333 -34 178c-24.667 32.667 -57 58.334 -97 77.001s-84.667 28 -134 28c-78 0 -151 -22.333 -219 -67l-20 -14l-10 15c2.66699 2 5.66699 4 9 6l74 52c70.667 49.333 147 74 229 74c51.333 0 97.5 -10 138.5 -30s73.833 -47.333 98.5 -82l10 -15
c38 -54 51 -115.667 39 -185c-16 -91.333 -63.667 -168 -143 -230l-40 -30l-50.5 -39c-11.667 -9.33301 -25.334 -21.5 -41.001 -36.5s-27.834 -28.5 -36.501 -40.5c-18.667 -26 -34.334 -63 -47.001 -111l-57 -218z" />
    <glyph glyph-name="uniFB3B" unicode="&#xfb3b;" horiz-adv-x="697" 
d="M321 223l-63 91l91 63l63 -91zM100 490l-10 14.999l9 7l74 51c70.667 49.333 147 74 229 74c51.333 0 97.5 -10 138.5 -30s73.833 -47.333 98.5 -82l10 -15c38 -54 51 -115.667 39 -185c-8 -44 -25.167 -85.333 -51.5 -124s-59.5 -72 -99.5 -100l-74 -52
c-70.667 -49.333 -147 -74 -229 -74c-89.333 0 -161 28.333 -215 85l-10 15l74 51c53.333 -56.667 124.666 -85 213.999 -85c66.667 0 130.334 17 191.001 51c64 56 102.667 121.333 116 196c11.333 66 0 125.333 -34 178c-24.667 32.667 -57 58.334 -97 77.001
s-84.667 28 -134 28c-78 0 -151 -22.333 -219 -67z" />
    <glyph glyph-name="uniFB3C" unicode="&#xfb3c;" horiz-adv-x="515" 
d="M252 180l-63 91l91 63l63 -91zM937 1027l-73.998 -50.9971c-28.667 20 -61.667 32.167 -99 36.5s-72.666 1.16602 -105.999 -9.50098c-13.333 -4 -26.333 -9 -39 -15c-26 -25.333 -48.667 -56.333 -68 -93c-16.667 -31.333 -30 -68.833 -40 -112.5
s-16.5 -81.834 -19.5 -114.501s-5.5 -74.667 -7.5 -126c-6 -143.333 -29.333 -265.666 -70 -366.999c-27.333 -66.667 -59 -112.667 -95 -138l-73 -51c-20 -13.333 -43.333 -20 -70 -20c-36 0 -63.833 16.667 -83.5 50s-27.834 72.666 -24.501 117.999
c4.66699 62.667 20.5 121.5 47.5 176.5s61.5 100.167 103.5 135.5l73 51l11 -14c-42 -35.333 -76.5 -80.5 -103.5 -135.5s-42.833 -113.833 -47.5 -176.5c-3.33301 -46 4.66699 -82.667 24 -110c15.333 -21.333 36 -32 62 -32c11.333 0 22.333 1.66699 33 5
c21.333 26 41 60.667 59 104c40.667 101.333 64 223.666 70 366.999c2 51.333 4.5 93.333 7.5 126s9.5 70.834 19.5 114.501s23.333 81.5 40 113.5c28 52 62.333 92.333 103 121h1l73 52c24 16.667 49.667 29 77 37c33.333 11.333 68.666 14.666 105.999 9.99902
s70.666 -17 99.999 -37z" />
    <glyph glyph-name="uniFB3D" unicode="&#xfb3d;" horiz-adv-x="827" 
d="M498 249l-63 91l91 63l63 -91zM194 478l10 -15v-11c-13.333 -190 -66 -368 -158 -534l-73 -51l-11 14c92 166 144.667 344 158 534v12zM269 570l-0.00195312 1c65.333 45.333 146.333 68 243 68c65.333 0 121.333 -12 168 -36c42 -21.333 76 -50.333 102 -87
c28.667 -41.333 43 -88 43 -140c0 -90 -38 -183 -114 -279c-15.333 -19.333 -30.333 -34.333 -45 -45l-73 -51l-1 -1c-21.333 -14.667 -45.333 -22 -72 -22c-44 0 -82.833 8.66699 -116.5 26s-65.5 42.333 -95.5 75c-8.66699 10 -20.667 25.667 -36 47
c-28.667 41.333 -49.667 91 -63 149l70 48l10 -14c12 -54.667 31.333 -102 58 -142c6.66699 -8.66699 13.334 -16.667 20.001 -24c30 -33.333 61.833 -58.5 95.5 -75.5s72.5 -25.5 116.5 -25.5c12.667 0 25 1.33301 37 4l11 14c76 96 114 189 114 279
c0 50 -12 91.333 -36 124c-21.333 30 -51 54.667 -89 74c-46.667 23.333 -102.667 35 -168 35c-77.333 0 -145.333 -14.667 -204 -44c-3.33301 -3.33301 -6.66602 -7 -9.99902 -11l-74 -51l-10 14c14 14.667 29 27.667 45 39z" />
    <glyph glyph-name="uniFB3E" unicode="&#xfb3e;" horiz-adv-x="797" 
d="M276 143l-63 91l91 63l63 -91zM286 634l10.999 -14l306 -544c10 75.333 24.167 148.166 42.5 218.499s44.5 141 78.5 212s73.333 129.5 118 175.5l74 52l10 -15c-48.667 -50 -91 -115.167 -127 -195.5s-62.833 -159.166 -80.5 -236.499s-30.167 -156 -37.5 -236l-46 -32
l3 -4l-65 -44l-11 15l-322 571c-9.33301 -190.667 -62.666 -371.667 -159.999 -543l-74 -51l-10 15c100 175.333 153.667 361 161 557l68 48l-3 7z" />
    <glyph glyph-name="uniFB3F" unicode="&#xfb3f;" horiz-adv-x="296" 
d="M278 637l10 -14l-269 -1005l-74 -52l-10 15l269 1005z" />
    <glyph glyph-name="uniFB40" unicode="&#xfb40;" horiz-adv-x="404" 
d="M106 223l-63 91l91 63l63 -91zM398 637l9.99805 -14.002l-134 -506c-25.333 -96 -54.333 -172.333 -87 -229c-42 -71.333 -94.667 -129.333 -158 -174l-74 -52c-16 -11.333 -32.667 -21.666 -50 -30.999c-74.667 -39.333 -152.667 -59 -234 -59
c-47.333 0 -95.166 7.83301 -143.499 23.5s-84.833 41.167 -109.5 76.5c-17.333 24.667 -26 51 -26 79s7.66699 50.333 23 67l74 52l10 -15c-15.333 -16.667 -23 -39 -23 -67c0 -25.333 6.33301 -46.333 19 -63c21.333 -29.333 55.833 -51.166 103.5 -65.499
s92.834 -21.5 135.501 -21.5c82 0 160 20 234 60c4 2 8.33301 4.33301 13 7c48 40.667 88.667 89.667 122 147c32.667 56 61.667 132 87 228l134 506z" />
    <glyph glyph-name="uniFB41" unicode="&#xfb41;" horiz-adv-x="766" 
d="M404 223l-63 91l91 63l63 -91zM164 486l-11.0049 15.0059c3.33301 2 6.33301 4.33301 9 7l74 51c74.667 52 156.334 78 245.001 78c52.667 0 99.5 -9.83301 140.5 -29.5s73.833 -46.834 98.5 -81.501l10 -15v0c41.333 -58.667 54.333 -127.334 39 -206.001
c-7.33301 -39.333 -23.833 -76.833 -49.5 -112.5s-57.5 -66.834 -95.5 -93.501l-73 -51c-69.333 -48.667 -141.666 -73 -216.999 -73c-48 0 -92 9.5 -132 28.5s-71.667 45.167 -95 78.5l-11 15c-34 49.333 -46 106.666 -36 171.999c6 38 17 69.833 33 95.5
s41 53.167 75 82.5l74 51l10 -14c-34 -29.333 -59 -56.833 -75 -82.5s-27 -57.5 -33 -95.5c-9.33301 -62 1.33398 -117 32.001 -165c23.333 -31.333 54.5 -55.833 93.5 -73.5s81.5 -26.5 127.5 -26.5c60.667 0 120.334 16.333 179.001 49
c60.667 53.333 97 112.666 109 177.999c14.667 75.333 3.33398 141.666 -33.999 198.999c-24.667 32.667 -57 58.167 -97 76.5s-85.333 27.5 -136 27.5c-85.333 0 -164 -24 -236 -72z" />
    <glyph glyph-name="uniFB42" unicode="&#xfb42;" horiz-adv-x="696" 
d="M360 169l-63 91l91 63l63 -91zM329 528c-56.667 18 -121.666 32.3311 -194.999 42.998l-10 15l74 51c79.333 -11.333 148.666 -27 207.999 -47l7 -3l24 17c94.667 66.667 201.334 119.667 320.001 159l10 -15l-74 -51
c-92.667 -31.333 -178.334 -70.666 -257.001 -117.999c68.667 -27.333 122.667 -61.333 162 -102c8.66699 -8.66699 16.667 -18 24 -28l10 -15c26 -36.667 39.333 -77.5 40 -122.5s-11.333 -88.5 -36 -130.5c-27.333 -47.333 -60.333 -84.666 -99 -111.999h-1l-73 -52
c-54 -37.333 -112.667 -56 -176 -56c-44 0 -81 5.5 -111 16.5s-54 30.5 -72 58.5c-23.333 34.667 -35 72.834 -35 114.501s8.16699 80.167 24.5 115.5s38.833 69.666 67.5 102.999c50 58.667 106 111.667 168 159zM356.001 517.998
c-42.667 -37.333 -79.667 -74.667 -111 -112c-44.667 -54 -73.5 -108.333 -86.5 -163s-6.83301 -104.334 18.5 -149.001c28 -44.667 86 -67 174 -67c45.333 0 91 11.333 137 34c24 22.667 45.333 50.334 64 83.001c24 40.667 36 82.667 36 126s-11.667 83.333 -35 120
c-5.33301 7.33301 -11.333 14.333 -18 21c-42 42.667 -100 78 -174 106z" />
    <glyph glyph-name="uniFB43" unicode="&#xfb43;" horiz-adv-x="624" 
d="M398 395l-63 91l91 63l63 -91zM394 274l-39.998 -28.0039c-18.667 -15.333 -35.334 -34.666 -50.001 -57.999s-24.334 -48 -29.001 -74c-4 -25.333 -0.666992 -45 10 -59c13.333 -17.333 34 -26 62 -26c14 0 28 2.33301 42 7c24.667 27.333 46 61.333 64 102
c18.667 44 35.5 91.833 50.5 143.5s29.833 108.5 44.5 170.5s25.667 106.667 33 134l20 69l-5 -1c-26 -2.66699 -65 -3.83398 -117 -3.50098s-97.833 -2.33398 -137.5 -8.00098s-77.5 -17.5 -113.5 -35.5c-42.667 -41.333 -69 -91.166 -79 -149.499
s-1.33301 -109.5 26 -153.5c4.66699 -6 10 -12 16 -18l10 -14l-74 -52c-7.33301 7.33301 -14.333 15.666 -21 24.999l-10 14c-22.667 32 -34.5 69.333 -35.5 112s8.66699 84.334 29 125.001s49.166 74 86.499 100l74 52l1 1c23.333 16 47.333 28.833 72 38.5
s50.334 16.334 77.001 20.001s50.167 6 70.5 7s46.166 1.5 77.499 1.5s56 0.666992 74 2c44.667 131.333 103.334 224 176.001 278l6 4l74 52c33.333 23.333 66 35.333 98 36s56 -10.333 72 -33c10.667 -15.333 16.334 -31.666 17.001 -48.999
s-2.66602 -34.5 -9.99902 -51.5s-18.333 -34.333 -33 -52s-31.334 -34.5 -50.001 -50.5s-39.334 -32.333 -62.001 -49l-74 -51l-1 -1c-28.667 -20 -57.667 -37.667 -87 -53c-22 -11.333 -45 -20.666 -69 -27.999l-14 -47c-7.33301 -27.333 -18.333 -72 -33 -134
s-29.5 -118.833 -44.5 -170.5s-31.833 -99.5 -50.5 -143.5c-26.667 -61.333 -59.667 -105.666 -99 -132.999l-1 -1l-73 -51c-26 -18 -53 -27 -81 -27c-32 0 -56.667 12.333 -74 37c-19.333 28.667 -22.333 64.667 -9 108c14 45.333 43 83.333 87 114l1 1l73 51l22 15z
M696.002 725.996l7.99805 1c38 8 73.667 20.667 107 38c16.667 8 33.334 17.333 50.001 28c46 36 80.167 73 102.5 111s24.833 69.667 7.5 95c-10 14 -26.833 21.333 -50.5 22s-47.167 -4.33301 -70.5 -15c-61.333 -58.667 -112.666 -152 -153.999 -280z" />
    <glyph glyph-name="uniFB44" unicode="&#xfb44;" horiz-adv-x="737" 
d="M400 120l-63 91l91 63l63 -91zM119 472l-9.99902 14.001c10 8.66699 20.333 16.667 31 24l74 52c72 50.667 150.667 76 236 76c52 0 99.333 -10.333 142 -31s77 -48.334 103 -83.001c44 -60.667 59.667 -127 47 -199c-13.333 -75.333 -53 -141.333 -119 -198
c-10 -8.66699 -20.333 -16.667 -31 -24l-74 -52c-72.667 -50.667 -151.334 -76 -236.001 -76c-90.667 0 -159.334 30 -206.001 90c-30 38.667 -41 82 -33 130c7.33301 41.333 26.666 75.333 57.999 102l18 14l74 52h1c48.667 34 104 51 166 51c36 0 66.667 -11 92 -33
l10 -15l-74 -51c-25.333 22 -55.666 33 -90.999 33c-44 0 -86 -9.33301 -126 -28c-23.333 -25.333 -38 -54.666 -44 -87.999c-7.33301 -42.667 -0.666016 -78 20.001 -106c19.333 -26.667 46.333 -47.334 81 -62.001s73.667 -22 117 -22c69.333 0 135.333 17.333 198 52
c64 56 102.333 120.667 115 194c12 68 0.666992 126.333 -34 175c-24.667 34 -57.667 60.5 -99 79.5s-87.333 28.5 -138 28.5c-71.333 0 -139.333 -18.333 -204 -55z" />
    <glyph glyph-name="uniFB45" unicode="&#xfb45;" horiz-adv-x="614" 
d="M331 251l-63 91l91 63l63 -91zM304 274l-40.002 -28.0039c-19.333 -16 -36.666 -36 -51.999 -60s-24.5 -48.5 -27.5 -73.5s0.833008 -44.167 11.5 -57.5c12.667 -17.333 33 -26 61 -26c14.667 0 29 2.33301 43 7c24.667 27.333 45.667 61.333 63 102
c33.333 76.667 68 182.667 104 318l-9 -4c-104 -37.333 -194 -50.333 -270 -39c-47.333 7.33301 -82.666 27.333 -105.999 60c-24.667 34.667 -34.667 77.834 -30 129.501s23.667 101.5 57 149.5l73 52l11 -15c-30 -44 -48.5 -91 -55.5 -141s-0.166992 -90.333 20.5 -121
c17.333 -25.333 48.333 -41.333 93 -48c64.667 -9.33301 141 -0.666016 229 26.001l22 81c50 181.333 133.333 312.666 250 393.999l74 52c19.333 14 40 26.333 62 37c34 16 65 21.5 93 16.5s49 -17.833 63 -38.5c16 -27.333 19.333 -58.5 10 -93.5s-28.333 -72 -57 -111
s-61 -75.667 -97 -110s-72.667 -64.5 -110 -90.5l-74 -52c-2.66699 -2 -5 -3.66699 -7 -5c-53.333 -36.667 -106 -67.667 -158 -93c-36 -135.333 -70.667 -241 -104 -317c-26 -61.333 -59 -105.666 -99 -132.999v-1l-74 -51c-25.333 -18 -52 -27 -80 -27
c-32 0 -57 12.667 -75 38c-15.333 22 -21.333 47.333 -18 76s14.333 55.834 33 81.501s40 46.834 64 63.501l23.5 16.5l27.5 19l23 16.5l22 15zM561.998 534.996l9.99902 4.00098c54.667 23.333 110.334 53.666 167.001 90.999c84 64.667 148.333 133.167 193 205.5
s56 124.5 34 156.5c-10.667 16.667 -30.167 26 -58.5 28s-55.833 -3.66699 -82.5 -17c-8.66699 -4 -17 -8.33301 -25 -13c-98 -82.667 -169.333 -205 -214 -367z" />
    <glyph glyph-name="uniFB46" unicode="&#xfb46;" horiz-adv-x="685" 
d="M328 170l-63 91l91 63l63 -91zM193 573l-9.99707 14.998c8 22.667 21.5 45.834 40.5 69.501s41.833 44.834 68.5 63.501l74 51l1 1c56.667 39.333 117.667 59 183 59c63.333 0 111.333 -22.333 144 -67c18 -24 27 -50 27 -78c0 -43.333 -19.333 -81 -58 -113l-38 -31
l-56 -39c14 -8 28 -18 42 -30c12.667 -11.333 23.334 -23.333 32.001 -36c26 -36.667 38 -78.334 36 -125.001c-2.66699 -76 -31.334 -142.667 -86.001 -200c-12.667 -13.333 -26.667 -25.333 -42 -36l-74 -52c-59.333 -41.333 -138.333 -62 -237 -62
c-42 0 -85.667 7.66699 -131 23s-79 39.333 -101 72c-14 20 -22.333 40.333 -25 61l73 52l11 -15c2.66699 -18 8.33398 -32.667 17.001 -44c21.333 -28.667 53.666 -49.667 96.999 -63s84 -20 122 -20c78.667 0 144.667 13 198 39l8 8c54 57.333 82.667 124.333 86 201
c1.33301 41.333 -8 77.333 -28 108c-6 8.66699 -12.667 16.334 -20 23.001c-43.333 38 -94 57 -152 57c-24 0 -44.667 -2.33301 -62 -7l-10 15l73 51c17.333 4.66699 38 7 62 7c33.333 0 63.666 -6 90.999 -18l30 25c39.333 32 59 69.667 59 113
c0 23.333 -6.66699 43.333 -20 60c-28 36.667 -71.667 55 -131 55c-50.667 0 -99.334 -12 -146.001 -36c-36.667 -34 -61.334 -69 -74.001 -105z" />
    <glyph glyph-name="uniFB47" unicode="&#xfb47;" horiz-adv-x="761" 
d="M477 223l-63 91l91 63l63 -91zM53 352l-9.99902 13.999c21.333 52.667 61.666 100 120.999 142l74 51c74 52 157 78 249 78c50.667 0 96.667 -10 138 -30s74.333 -47.333 99 -82l10 -15c38 -54 50.667 -115.667 38 -185c-7.33301 -44 -24.333 -85.333 -51 -124
s-59.667 -72 -99 -100l-74 -52h-1c-70 -49.333 -146.333 -74 -229 -74l-10 15l74 51c66 0 129.667 17 191 51c64 56 102.333 121.333 115 196c12 66 1 125.333 -33 178c-24.667 32.667 -57.167 58.334 -97.5 77.001s-84.833 28 -133.5 28c-76 0 -146.333 -18 -211 -54
c-41.333 -36 -70 -74 -86 -114zM328.001 385.999l10 -15c-34.667 -46.667 -61.667 -95.334 -81 -146.001s-32.5 -99.334 -39.5 -146.001l-21.5 -141c-7.33301 -47.333 -20.833 -99.166 -40.5 -155.499s-46.834 -111.166 -81.501 -164.499l-74 -52l-10 15
c34.667 54 61.834 109.167 81.501 165.5s33.167 108.166 40.5 155.499l21.5 140.5c7 46.333 20.167 94.833 39.5 145.5s46.333 99.334 81 146.001z" />
    <glyph glyph-name="uniFB48" unicode="&#xfb48;" horiz-adv-x="728" 
d="M346 223l-63 91l91 63l63 -91zM54 505l73.999 52c44 27.333 88.5 47.5 133.5 60.5s95.167 19.5 150.5 19.5c113.333 0 196 -37.333 248 -112l11 -14v-1c30 -42.667 45 -91.667 45 -147c0 -49.333 -9.66699 -99.333 -29 -150c-23.333 -62 -62 -128.333 -116 -199l-74 -51
l-10 15c54 70 92.667 136 116 198c19.333 50.667 29 100.667 29 150c0 52 -13.333 98.667 -40 140c-53.333 70 -134.333 105 -243 105c-55.333 0 -105.666 -6.5 -150.999 -19.5s-90 -33.167 -134 -60.5z" />
    <glyph glyph-name="uniFB49" unicode="&#xfb49;" horiz-adv-x="698" 
d="M428 419l-63 91l91 63l63 -91zM597 114l9.99805 -14.0049c-2.66699 -2.66699 -5.66699 -5 -9 -7l-73 -51l-1 -1c-63.333 -44 -132 -66 -206 -66c-46.667 0 -88.334 8.83301 -125.001 26.5s-66.667 42.834 -90 75.501c-44.667 64 -53.667 141.333 -27 232
c16.667 58.667 42.334 112.834 77.001 162.501s76 91.167 124 124.5l73 52h1c61.333 42.667 128 68.667 200 78c39.333 4.66699 74.166 2.33398 104.499 -6.99902s53.833 -25.666 70.5 -48.999c13.333 -19.333 20.666 -41.666 21.999 -66.999
s-3.33398 -49.666 -14.001 -72.999c-20.667 -44.667 -57.667 -85.667 -111 -123l-74 -51v-1c-8.66699 -6 -17.667 -11.667 -27 -17c-98.667 -58.667 -208 -89 -328 -91l-11 15l74 51c116 2 221.667 30.333 317 85c44.667 38 73.334 80 86.001 126
c4.66699 15.333 6.33398 31.833 5.00098 49.5s-6.33301 31.834 -15 42.501c-30.667 38 -84.667 52.333 -162 43c-57.333 -6.66699 -111.666 -24.667 -162.999 -54c-80 -68 -135 -154.333 -165 -259c-25.333 -88.667 -19 -160.334 19 -215.001
c20.667 -28.667 48.834 -50.834 84.501 -66.501s74.834 -23.5 117.501 -23.5c70.667 0 136.667 20.333 198 61z" />
    <glyph glyph-name="uniFB4A" unicode="&#xfb4a;" horiz-adv-x="912" 
d="M540 223l-63 91l91 63l63 -91zM681 -37l-10.001 14.999c54 70 92.667 136 116 198c19.333 50.667 29 100.667 29 150c0 52 -13.333 98.667 -40 140c-53.333 70 -134.333 105 -243 105c-117.333 0 -220.666 -27.667 -309.999 -83l-44 -32l-11 15l22 16l74 52
c93.333 65.333 204 98 332 98c113.333 0 196.333 -37.333 249 -112l10 -14c30 -43.333 45 -92.666 45 -147.999c0 -49.333 -9.66699 -99.333 -29 -150c-23.333 -62 -62 -128.333 -116 -199zM-23.001 75.999l4.99902 -7c17.333 -19.333 48 -29 92 -29
c20.667 0 42.334 4.66699 65.001 14c31.333 35.333 55.333 84.333 72 147c25.333 95.333 44.333 185.666 57 270.999l74 51l10 -14c-12.667 -85.333 -31.667 -175.666 -57 -270.999c-22 -84.667 -57.333 -144 -106 -178l-74 -51l-14 -10c-30 -16.667 -60.333 -25 -91 -25
c-44 0 -75.333 10.667 -94 32l-13 18z" />
    <glyph glyph-name="uniFB4B" unicode="&#xfb4b;" horiz-adv-x="291" 
d="M275 706l-58 82l82 57l58 -82zM277 637l10 -14l-160 -609l-74 -51l-10 15l160 608z" />
    <glyph glyph-name="uniFB4C" unicode="&#xfb4c;" horiz-adv-x="774" 
d="M273 722l74 51h325l11 -15l-74 -51h-325zM28 -37l-17.001 22.998c17.333 37.333 39.333 65.333 66 84l74 52c21.333 15.333 45.5 24 72.5 26s55.167 -1.66699 84.5 -11s57.333 -19.833 84 -31.5l90.5 -39.5c33.667 -14.667 62.167 -25.334 85.5 -32.001
c27.333 33.333 50.5 71.666 69.5 114.999s30.167 87.666 33.5 132.999c6 66.667 -8.33301 126.667 -43 180c-26 34 -58.333 60.667 -97 80s-81 29 -127 29c-51.333 0 -100.666 -12.333 -147.999 -37c-65.333 -59.333 -101.666 -131 -108.999 -215l-73 -52l-11 15
c4.66699 48.667 19.834 94.334 45.501 137.001s58.5 78 98.5 106l74 52c57.333 40 119.666 60 186.999 60c47.333 0 90.833 -10.167 130.5 -30.5s72.167 -48.5 97.5 -84.5v-1h1l10 -15c38.667 -54.667 55 -117 49 -187c-5.33301 -57.333 -22 -112.666 -50 -165.999
s-60.333 -96 -97 -128c-4.66699 -3.33301 -9.33398 -7 -14.001 -11l-74 -51c-26.667 6.66699 -59.5 18.334 -98.5 35.001l-102.5 45.5c-29.333 13.667 -61.5 24.334 -96.5 32.001s-65.833 7.83398 -92.5 0.500977c-13.333 -16 -23 -36.667 -29 -62z" />
    <glyph glyph-name="uniFB4D" unicode="&#xfb4d;" horiz-adv-x="697" 
d="M230 722l74 51h325l11 -15l-74 -51h-325zM100 490l-10 14.999l9 7l74 51c70.667 49.333 147 74 229 74c51.333 0 97.5 -10 138.5 -30s73.833 -47.333 98.5 -82l10 -15c38 -54 51 -115.667 39 -185c-8 -44 -25.167 -85.333 -51.5 -124s-59.5 -72 -99.5 -100l-74 -52
c-70.667 -49.333 -147 -74 -229 -74c-89.333 0 -161 28.333 -215 85l-10 15l74 51c53.333 -56.667 124.666 -85 213.999 -85c66.667 0 130.334 17 191.001 51c64 56 102.667 121.333 116 196c11.333 66 0 125.333 -34 178c-24.667 32.667 -57 58.334 -97 77.001
s-84.667 28 -134 28c-78 0 -151 -22.333 -219 -67z" />
    <glyph glyph-name="uniFB4E" unicode="&#xfb4e;" horiz-adv-x="737" 
d="M286 722l74 51h325l11 -15l-74 -51h-325zM119 472l-9.99902 14.001c10 8.66699 20.333 16.667 31 24l74 52c72 50.667 150.667 76 236 76c52 0 99.333 -10.333 142 -31s77 -48.334 103 -83.001c44 -60.667 59.667 -127 47 -199c-13.333 -75.333 -53 -141.333 -119 -198
c-10 -8.66699 -20.333 -16.667 -31 -24l-74 -52c-72.667 -50.667 -151.334 -76 -236.001 -76c-90.667 0 -159.334 30 -206.001 90c-30 38.667 -41 82 -33 130c7.33301 41.333 26.666 75.333 57.999 102l18 14l74 52h1c48.667 34 104 51 166 51c36 0 66.667 -11 92 -33
l10 -15l-74 -51c-25.333 22 -55.666 33 -90.999 33c-44 0 -86 -9.33301 -126 -28c-23.333 -25.333 -38 -54.666 -44 -87.999c-7.33301 -42.667 -0.666016 -78 20.001 -106c19.333 -26.667 46.333 -47.334 81 -62.001s73.667 -22 117 -22c69.333 0 135.333 17.333 198 52
c64 56 102.333 120.667 115 194c12 68 0.666992 126.333 -34 175c-24.667 34 -57.667 60.5 -99 79.5s-87.333 28.5 -138 28.5c-71.333 0 -139.333 -18.333 -204 -55z" />
    <glyph glyph-name="uniFB4F" unicode="&#xfb4f;" horiz-adv-x="995" 
d="M1235 907l-73.001 -51.999c-41.333 56.667 -90.666 99.167 -147.999 127.5s-116.5 41.666 -177.5 39.999s-120.5 -16.5 -178.5 -44.5c-6.66699 -3.33301 -13 -6.66602 -19 -9.99902c-54 -47.333 -92.333 -106.666 -115 -177.999s-36 -154 -40 -248
c-1.33301 -33.333 -3.33301 -64.333 -6 -93c12.667 11.333 26 21.666 40 30.999l73 52h1c71.333 50.667 150 76 236 76c70 0 130.667 -17.667 182 -53l10 -15l-74 -52c-50.667 35.333 -111.334 53 -182.001 53c-69.333 0 -135 -17 -197 -51
c-59.333 -52.667 -95 -112.667 -107 -180c-10.667 -60 -0.333984 -114.333 30.999 -163c24.667 -32.667 57.667 -58.5 99 -77.5s87.333 -28.5 138 -28.5c84 0 161.333 24.333 232 73l10 -15l-73 -52c-71.333 -48 -148.666 -72 -231.999 -72c-66.667 0 -124.5 16 -173.5 48
s-78.833 74.333 -89.5 127c-22.667 -52 -50.334 -89.667 -83.001 -113l-73 -51c-22 -15.333 -45.667 -23 -71 -23c-27.333 0 -50 12.667 -68 38l-10 14c-22.667 32.667 -32.334 72.334 -29.001 119.001c4.66699 62.667 20.5 121.5 47.5 176.5s61.5 100.167 103.5 135.5
l73 51l11 -14c-42 -35.333 -76.5 -80.5 -103.5 -135.5s-42.833 -113.833 -47.5 -176.5c-2.66699 -42 5.33301 -79 24 -111c16.667 -20.667 37.334 -31 62.001 -31c11.333 0 22.333 1.66699 33 5c21.333 26 41 60.667 59 104c40.667 101.333 64 223.666 70 366.999
c2 49.333 6.33301 94.166 13 134.499s16.667 80.833 30 121.5s32.333 77.667 57 111s54.334 62.333 89.001 87h1l73 51c18 12.667 37.333 24 58 34c58 28.667 117.5 43.667 178.5 45s120.333 -12.167 178 -40.5s106.834 -70.5 147.501 -126.5z" />
    <glyph glyph-name=".null" 
 />
    <glyph glyph-name="nonmarkingreturn" horiz-adv-x="333" 
 />
  </font>
</defs>
</svg>
