<?xml version="1.0" standalone="no"?>
<!DOCTYPE svg PUBLIC "-//W3C//DTD SVG 1.1//EN" "http://www.w3.org/Graphics/SVG/1.1/DTD/svg11.dtd" >
<svg>
<metadata>
Created by FontForge 20090914 at Fri Oct 13 00:16:46 2017
 By www-data
Copyright (c) 2003-2011 by Maxim Iorsh (maxim.iorsh@gmail.com). Distributed under the terms of GNU General Public License version 2(http://www.gnu.org/licenses/gpl-2.0.html). 
All rights reserved.
</metadata>
<defs>
<font id="DorianCLM-Book" horiz-adv-x="0" >
  <font-face 
    font-family="Dorian CLM"
    font-weight="400"
    font-stretch="normal"
    units-per-em="1000"
    panose-1="0 0 0 0 0 0 0 0 0 0"
    ascent="800"
    descent="-200"
    bbox="-284 -442.001 1325 934"
    underline-thickness="50"
    underline-position="-100"
    unicode-range="U+0020-U+FB4F"
  />
<missing-glyph horiz-adv-x="890" 
d="M145 650v-700h600v700h-600zM95 700h700v-800h-700v800z" />
    <glyph glyph-name=".notdef" horiz-adv-x="890" 
d="M145 650v-700h600v700h-600zM95 700h700v-800h-700v800z" />
    <glyph glyph-name=".notdef" horiz-adv-x="890" 
d="M145 650v-700h600v700h-600zM95 700h700v-800h-700v800z" />
    <glyph glyph-name="space" unicode=" " horiz-adv-x="490" 
 />
    <glyph glyph-name="exclam" unicode="!" horiz-adv-x="381" 
d="M147 689l71 71l14 -14v-435l-71 -71l-14 14v435zM191 -43l-86 85l86 86l85 -86z" />
    <glyph glyph-name="quotedbl" unicode="&#x22;" horiz-adv-x="399" 
d="M316 803l14 -14c26.667 -38.667 40 -82.667 40 -132c0 -50.667 -15 -96.667 -45 -138l-70 -70l-14 14c29.333 41.333 44 87.333 44 138c0 48.667 -13.333 92.667 -40 132zM116 803l14 -14c26.667 -38.667 40 -82.667 40 -132c0 -50.667 -15 -96.667 -45 -138l-70 -70
l-14 14c29.333 41.333 44 87.333 44 138c0 48.667 -13.333 92.667 -40 132z" />
    <glyph glyph-name="numbersign" unicode="#" horiz-adv-x="934" 
d="M159 192h657l14 -14l-64 -63h-657l-14 14zM766 408h-657l-14 14l64 63h657l14 -14zM595 -28v607l64 63l14 -14v-607l-64 -63zM330 628v-607l-64 -63l-14 14v607l64 63z" />
    <glyph glyph-name="dollar" unicode="$" horiz-adv-x="819" 
d="M719 550l-66.999 -66.999c-61.333 37.333 -128.333 60 -201 68v-203c53.333 -8 98.666 -17.5 135.999 -28.5s66.333 -26.833 87 -47.5l13 -13c20 -20 30 -44.333 30 -73c0 -30 -11 -56.333 -33 -79l-65 -64c-35.333 -35.333 -91.333 -57.333 -168 -66v-74l-57 -57l-11 11
v117c-92.667 2 -177.667 27.333 -255 76l-13 13l67 67c63.333 -39.333 130.333 -63.333 201 -72v218c-52.667 7.33301 -97.167 16.166 -133.5 26.499s-64.5 25.5 -84.5 45.5l-14 14c-19.333 18.667 -29 41.667 -29 69c0 28 10.667 52.667 32 74l64 64
c34.667 34.667 89.667 56 165 64v64l57 57l11 -11v-108c95.333 -2.66699 180.333 -26.667 255 -72zM383.001 555.001h-5.00098c-68 0 -125 -12 -171 -36c-6.66699 -14.667 -10 -28 -10 -40c0 -24 7.33301 -45 22 -63c30.667 -26 85.334 -45.333 164.001 -58v197zM451 55.001
c72 0 132 12.666 180 37.999c8 16 12 31.333 12 46c0 24.667 -8 46.334 -24 65.001c-31.333 27.333 -87.333 48 -168 62v-211z" />
    <glyph glyph-name="percent" unicode="%" horiz-adv-x="846" 
d="M112 6l9 16l589 610l65 -38l-9 -16l-589 -610zM390 399l-49 -49.001c-26.667 -26 -59 -39 -97 -39c-38.667 0 -71.334 13.333 -98.001 40l-10 10c-24.667 24.667 -37 53.834 -37 87.501s12.333 62.5 37 86.5l3 3l-9 9l49 50c26.667 25.333 59 38 97 38
c38.667 0 71.334 -13.333 98.001 -40l10 -10c24 -24.667 36 -53.667 36 -87c0.666992 -33.333 -11 -62 -35 -86l-4 -4zM763 52.999l-49 -49.001c-26.667 -26 -59 -39 -97 -39c-38.667 0 -71.334 13.333 -98.001 40l-10 10c-24.667 24.667 -37 53.834 -37 87.501
s12.333 62.5 37 86.5l3 3l-9 9l50 50c26 25.333 58 38 96 38c38.667 0 71.334 -13.333 98.001 -40l10 -10c24.667 -24.667 37 -53.667 37 -87s-12 -62 -36 -86l-4 -4zM188 566.998c-19.333 -23.333 -29 -49.666 -29 -78.999c0 -31.333 10.667 -58.666 32 -81.999
c26 -23.333 57 -35 93 -35c16.667 0 32.667 2.66699 48 8c19.333 23.333 29 49.666 29 78.999c0 31.333 -10.667 58.666 -32 81.999c-26 23.333 -57 35 -93 35c-16.667 0 -32.667 -2.66699 -48 -8zM561 220.998c-19.333 -23.333 -29 -49.666 -29 -78.999
c0 -31.333 10.667 -58.666 32 -81.999c26 -23.333 57 -35 93 -35c16.667 0 32.667 2.66699 48 8c19.333 23.333 29 49.666 29 78.999c0 31.333 -10.667 58.666 -32 81.999c-26 23.333 -57 35 -93 35c-16.667 0 -32.667 -2.66699 -48 -8z" />
    <glyph glyph-name="quotesingle" unicode="'" horiz-adv-x="199" 
d="M116 803l14 -14c26.667 -38.667 40 -82.667 40 -132c0 -50.667 -15 -96.667 -45 -138l-70 -70l-14 14c29.333 41.333 44 87.333 44 138c0 48.667 -13.333 92.667 -40 132z" />
    <glyph glyph-name="parenleft" unicode="(" horiz-adv-x="313" 
d="M208 -107l-14 14.001c-65.333 116 -98 237.333 -98 364s32.667 252 98 376l70 70l19 -19c-65.333 -124 -98.5 -248.333 -99.5 -373s30.5 -245.334 94.5 -362.001z" />
    <glyph glyph-name="parenright" unicode=")" horiz-adv-x="313" 
d="M105 707l14 -14.001c65.333 -116 98 -237.333 98 -364s-32.667 -252 -98 -376l-70 -70l-19 19c65.333 124 98.5 248.333 99.5 373s-30.5 245.334 -94.5 362.001z" />
    <glyph glyph-name="asterisk" unicode="*" horiz-adv-x="748" 
d="M428 380l229 69l11 -17l-82 -57l-139 -42l128 -193l-82 -57l-11 17l-114 170l-87 -130l-82 -57l-11 17l140 209l-222 66l-11 17l82 57l158 -48v159l82 57l11 -17v-220z" />
    <glyph glyph-name="plus" unicode="+" horiz-adv-x="848" 
d="M377 342v180l71 70l14 -14v-236h268l14 -14l-71 -70h-211v-180l-71 -70l-14 14v236h-268l-14 14l71 70h211z" />
    <glyph glyph-name="comma" unicode="," horiz-adv-x="302" 
d="M125 -91c0 44.667 -13.333 84.667 -40 120l76 76l14 -14c26.667 -35.333 40 -75.333 40 -120c0 -51.333 -16 -94.333 -48 -129l-75 -76l-14 14c31.333 38 47 81 47 129z" />
    <glyph glyph-name="hyphen" unicode="-" horiz-adv-x="584" 
d="M496 342l14 -14l-71 -70h-350l-14 14l71 70h350z" />
    <glyph glyph-name="period" unicode="." horiz-adv-x="341" 
d="M171 -43l-86 85l86 86l85 -86z" />
    <glyph glyph-name="slash" unicode="/" horiz-adv-x="446" 
d="M345 678l87 50l10 -18l-340 -788l-87 -50l-10 18z" />
    <glyph glyph-name="zero" unicode="0" horiz-adv-x="746" 
d="M639 127l-71 -70.999c-58.667 -56.667 -130 -85 -214 -85c-88 0 -163.667 31.667 -227 95c-58 58 -87 125 -87 201c0 74.667 27 139 81 193l51 52c-18 -11.333 -34.667 -24.333 -50 -39l-14 14l71 71c58.667 56 129.667 84 213 84c89.333 0 165.333 -31 228 -93
c57.333 -58 86 -125.667 86 -203c0 -73.333 -26 -137 -78 -191l-54 -54c18.667 11.333 35.667 24.666 51 39.999zM197 525.001l7.99902 -8c-54 -54.667 -81 -119 -81 -193c0 -73.333 25.333 -135.333 76 -186c55.333 -55.333 125.333 -83 210 -83c50.667 0 98 11.333 142 34
l-9 9c52.667 54 79 117.667 79 191c0 76 -24.667 138.667 -74 188c-54 54 -124.667 81 -212 81c-49.333 0 -95.666 -11 -138.999 -33z" />
    <glyph glyph-name="one" unicode="1" horiz-adv-x="520" 
d="M21 376l100 100c54 12.667 102.167 32.5 144.5 59.5s89.5 65.833 141.5 116.5l14 -14v-610l-70 -70l-14 14v582c-54 -51.333 -104.167 -92.833 -150.5 -124.5s-96.833 -54.167 -151.5 -67.5z" />
    <glyph glyph-name="two" unicode="2" horiz-adv-x="699" 
d="M141 429l-71 -69.999l-14 14c0 49.333 17.667 92 53 128l71 70c22.667 22.667 50.334 40.167 83.001 52.5s66 18.5 100 18.5c44.667 0 86.667 -7.33301 126 -22s71.666 -35.667 96.999 -63c35.333 -38 53 -84.667 53 -140c0 -78 -33 -144.333 -99 -199
c-16 -13.333 -33.167 -25.833 -51.5 -37.5s-40.833 -23.334 -67.5 -35.001l-61 -26.5c-14 -6 -39.667 -16 -77 -30s-61 -23 -71 -27h411l14 -14l-71 -70h-502l-14 14l71 70c96.667 37.333 177.5 71.5 242.5 102.5s111.167 60.167 138.5 87.5c38 38.667 57 80.667 57 126
c0 20 -4 39.833 -12 59.5s-18.333 35.834 -31 48.501c-48 48 -118 72 -210 72c-52 0 -99.333 -13.333 -142 -40c-15.333 -26.667 -23 -56.334 -23 -89.001z" />
    <glyph glyph-name="three" unicode="3" horiz-adv-x="731" 
d="M493 442c46.667 -15.333 84.3311 -34 112.998 -56c43.333 -34 65 -77.333 65 -130c0 -50 -19.333 -94.333 -58 -133l-68 -68l-2 -2c-26.667 -26 -59.167 -46.333 -97.5 -61s-78.166 -22 -119.499 -22c-100.667 0 -183 31.667 -247 95l-14 15l71 70
c63.333 -63.333 145.333 -95 246 -95c66.667 0 126.334 17.333 179.001 52c18.667 30 28 61.667 28 95c0 40.667 -13.333 74.667 -40 102c-30 30 -77.667 51.667 -143 65l-15 15l155 154h-447l-14 14l71 70h490l14 -14z" />
    <glyph glyph-name="four" unicode="4" horiz-adv-x="667" 
d="M408 652l14 -14c-2.66699 -18 -7.5 -36.667 -14.5 -56s-14.5 -36.833 -22.5 -52.5s-19.333 -33.667 -34 -54s-27 -36.833 -37 -49.5s-24.833 -29.5 -44.5 -50.5l-43 -45.5c-9 -9.33301 -24.667 -24.666 -47 -45.999s-36.5 -35.333 -42.5 -42h372l9 -8v138l70 70l14 -14
v-400l-70 -70l-14 14v250l-65 -64h-424l-14 14l71 70c49.333 50 92 98.667 128 146s63.667 98.666 83 153.999z" />
    <glyph glyph-name="five" unicode="5" horiz-adv-x="744" 
d="M175 385c40 29.333 78.999 50.332 116.999 62.999s81.667 19 131 19c76 0 138.333 -24 187 -72c41.333 -41.333 62 -90.666 62 -147.999c0 -52.667 -16.333 -101 -49 -145l-68 -68c-49.333 -42.667 -119.666 -64 -210.999 -64c-88.667 0 -168.667 33.333 -240 100l-14 14
l71 70c70.667 -66.667 150.667 -100 240 -100c38.667 0 70 2.5 94 7.5s49.333 13.5 76 25.5c12.667 31.333 19 67 19 107c0 54 -16 97 -48 129c-41.333 42 -102 63 -182 63c-98 0 -183.333 -26.667 -256 -80l-14 14v162l71 70l70 70h430l14 -14l-71 -70h-429v-153z" />
    <glyph glyph-name="six" unicode="6" horiz-adv-x="721" 
d="M174 340l67.001 67c47.333 21.333 99.333 32 156 32c94.667 0 169 -26.667 223 -80c36 -36 54 -76.667 54 -122c0 -48 -17.667 -89.667 -53 -125l-68 -68c-50 -49.333 -120 -74 -210 -74c-76.667 0 -140.667 25.333 -192 76l-14 14v0c-47.333 48 -71.333 107.333 -72 178
c-0.666992 96 29.666 174.333 90.999 235l71 71c31.333 32 68.833 56.333 112.5 73s88.167 25 133.5 25c32 0 62 -5.33301 90 -16l14 -14l-70 -71c-28 11.333 -58 17 -90 17c-78.667 0 -148.334 -22 -209.001 -66c-39.333 -55.333 -58.666 -121 -57.999 -197
c0.666992 -67.333 22.334 -124.333 65.001 -171c50 -46.667 111.667 -70 185 -70c66 0 122.333 14.333 169 43c15.333 26.667 23 55.667 23 87c0 42 -14 77 -42 105c-46 46 -115 69 -207 69c-56.667 0 -108.334 -10.667 -155.001 -32z" />
    <glyph glyph-name="seven" unicode="7" horiz-adv-x="594" 
d="M10 552l71 69.999h500l14 -14c-66 -94 -118.333 -185.167 -157 -273.5s-66 -183.833 -82 -286.5l-91 -90l-14 14c13.333 99.333 40.833 193.333 82.5 282s97.167 183.334 166.5 284.001h-476z" />
    <glyph glyph-name="eight" unicode="8" horiz-adv-x="742" 
d="M183 371l-13.998 14.999c-17.333 17.333 -26 38.666 -26 63.999c0 27.333 9.66699 50.666 29 69.999l71 71c17.333 17.333 40.333 30.166 69 38.499s59 12.5 91 12.5c30.667 0 60.667 -4.33301 90 -13s53 -22 71 -40l14 -14v0c19.333 -19.333 29 -42.666 29 -69.999
c0 -28 -8.66699 -50.667 -26 -68l-51 -51c45.333 -12 80.333 -30.333 105 -55l14 -14c26 -26 39 -57.333 39 -94c0 -42.667 -15.667 -79.667 -47 -111l-66 -66c-25.333 -25.333 -58.666 -44.666 -99.999 -57.999s-84 -19.5 -128 -18.5s-86.333 8.33301 -127 22
s-73.667 33.167 -99 58.5v0l-14 15c-32.667 32 -49 70.667 -49 116c0 34.667 12.667 65.667 38 93l71 70l14 -14c-26 -27.333 -38.667 -58 -38 -92c0 -42 14 -78.667 42 -110c25.333 -23.333 57.5 -41.166 96.5 -53.499s79.5 -19.166 121.5 -20.499
c72.667 -0.666992 135 14.333 187 45c12 22 18 46.333 18 73c0 33.333 -10.667 62 -32 86c-26.667 23.333 -63.334 40.333 -110.001 51c-34.667 8.66699 -72.334 13 -113.001 13c-80.667 0 -137.334 16.333 -170.001 49zM506.002 391.999c10.667 16 16.002 35 16.002 57
c0 23.333 -7.33301 44 -22 62c-18.667 15.333 -41.834 26.833 -69.501 34.5s-55.834 11.5 -84.501 11.5c-44.667 0 -84 -7.66699 -118 -23c-3.33301 -10.667 -5 -21.667 -5 -33c0 -22 6.33301 -41 19 -57c34.667 -28 88.667 -42 162 -42c36 0 70 -3.33301 102 -10z" />
    <glyph glyph-name="nine" unicode="9" horiz-adv-x="711" 
d="M553 272l-70.999 -70c-46.667 -21.333 -98.334 -32 -155.001 -32c-44 0 -85 6.16699 -123 18.5s-69 30.5 -93 54.5l-14 14c-31.333 31.333 -47 69.666 -47 114.999c0 48 17.333 89.667 52 125l71 71c50 49.333 120 74 210 74c75.333 0 137.333 -24.333 186 -73l15 -15
c54.667 -54.667 80 -126 76 -214c-4 -86 -34.333 -157.333 -91 -214l-71 -71c-57.333 -56.667 -125.666 -85 -204.999 -85c-68 0 -121.333 9.33301 -160 28l-15 14l71 70c39.333 -18.667 92.666 -28 159.999 -28c60.667 0 116.334 18 167.001 54
c36 50.667 55.667 109.334 59 176.001c4 83.333 -19 152.333 -69 207c-48.667 44.667 -108.334 67 -179.001 67c-66 0 -122.667 -14.333 -170 -43c-14.667 -26.667 -22 -55.667 -22 -87c0 -41.333 13.333 -77 40 -107c49.333 -44.667 118.666 -67 207.999 -67
c56.667 0 108.334 10.667 155.001 32z" />
    <glyph glyph-name="colon" unicode=":" horiz-adv-x="341" 
d="M171 -43l-86 85l86 86l85 -86zM171 344l-86 86l86 85l85 -85z" />
    <glyph glyph-name="semicolon" unicode=";" horiz-adv-x="341" 
d="M141 -91c0 44.667 -13.333 84.667 -40 120l76 76l14 -14c26.667 -35.333 40 -75.333 40 -120c0 -51.333 -16 -94.333 -48 -129l-75 -76l-14 14c31.333 38 47 81 47 129zM171 344l-86 86l86 85l85 -85z" />
    <glyph glyph-name="less" unicode="&#x3c;" horiz-adv-x="574" 
d="M59 258l-14 14l71 70l400 250l14 -14l-71 -70l-304 -190l361 -226l14 -14l-71 -70z" />
    <glyph glyph-name="equal" unicode="=" horiz-adv-x="849" 
d="M731 252l14 -14l-71 -70h-565l-14 14l71 70h565zM109 348l-14 14l71 70h565l14 -14l-71 -70h-565z" />
    <glyph glyph-name="greater" unicode="&#x3e;" horiz-adv-x="574" 
d="M420 282l-361 226l-14 14l71 70l400 -250l14 -14l-71 -70l-400 -250l-14 14l71 70z" />
    <glyph glyph-name="question" unicode="?" horiz-adv-x="609" 
d="M35 608l71.002 69.999c27.333 18 53.833 30.833 79.5 38.5s57.5 11.5 95.5 11.5c36.667 0 71.667 -5.5 105 -16.5s60.666 -26.833 81.999 -47.5l14 -15c25.333 -25.333 39.333 -56 42 -92c2.66699 -39.333 -11 -74 -41 -104l-71 -71
c-21.333 -21.333 -52 -40.666 -92 -57.999v-66l-71 -70l-14 14v110l71 70c2 1.33301 4 2 6 2c47.333 16 85.333 32.667 114 50c10.667 20.667 15 43 13 67c-2.66699 32.667 -14.334 61 -35.001 85c-44 38.667 -104 58 -180 58c-38 0 -69.833 -4 -95.5 -12
s-52.167 -20.667 -79.5 -38zM270.002 -43.001l-86 85l86 86l85 -86z" />
    <glyph glyph-name="bracketleft" unicode="[" horiz-adv-x="374" 
d="M109 -92l-14 14v700l71 70h155l14 -14l-71 -70h-94v-616h146l14 -14l-71 -70h-150z" />
    <glyph glyph-name="backslash" unicode="\" horiz-adv-x="434" 
d="M50 577l61 60l14 -14l260 -600l-61 -60l-14 14z" />
    <glyph glyph-name="bracketright" unicode="]" horiz-adv-x="374" 
d="M266 692l14 -14v-700l-71 -70h-155l-14 14l71 70h94v616h-146l-14 14l71 70h150z" />
    <glyph glyph-name="grave" unicode="`" horiz-adv-x="214" 
d="M95 449l-14 14c-26.667 38.667 -40 82.667 -40 132c0 50.667 14.667 96.667 44 138l71 70l14 -14c-30 -41.333 -45 -87.333 -45 -138c0 -48.667 13.333 -92.667 40 -132z" />
    <glyph glyph-name="sterling" unicode="&#xa3;" horiz-adv-x="831" 
d="M732 566l-71 -70.999c-67.333 42 -147.333 63 -240 63c-64.667 0 -119.334 -14.333 -164.001 -43c-22.667 -36 -35.667 -77.333 -39 -124c-0.666992 -10 -1 -20 -1 -30c89.333 6.66699 183 3.66699 281 -9l14 -14l-70 -71c-77.333 10 -150.666 14 -219.999 12
c7.33301 -46.667 21.666 -88 42.999 -124l-61 -94c166.667 23.333 339 22.333 517 -3l15 -15l-71 -70c-186.667 26 -368 26 -544 0l-14 14l73 111c-28.667 49.333 -44.667 107.666 -48 174.999c-17.333 -1.33301 -35 -3.33301 -53 -6l-14 14l70 70
c7.33301 59.333 30.333 108.333 69 147l71 71c48.667 48.667 116.334 73 203.001 73c92.667 0 172.667 -20.667 240 -62z" />
    <glyph glyph-name="afii57799" unicode="&#x5b0;" 
d="M0 -401l-71 70l71 71l71 -71zM0 -221l-71 70l71 71l71 -71z" />
    <glyph glyph-name="afii57801" unicode="&#x5b1;" 
d="M-106 -386l-71 70l71 71l70 -71zM-201 -221l-71 70l71 71l71 -71zM-12 -221l-70 70l70 71l71 -71zM201 -391l-71 70l71 71l71 -71zM201 -221l-71 70l71 71l71 -71z" />
    <glyph glyph-name="afii57800" unicode="&#x5b2;" 
d="M213 -401l-71 70l71 71l71 -71zM213 -221l-71 70l71 71l71 -71zM33 -167l57 57l-11 11h-306l-57 -56l12 -12h305z" />
    <glyph glyph-name="afii57802" unicode="&#x5b3;" 
d="M213 -401l-71 70l71 71l71 -71zM213 -221l-71 70l71 71l71 -71zM-131 -377v182l28 28h-169l-12 12l57 56h306l11 -11l-57 -57h-96v-164l-57 -57z" />
    <glyph glyph-name="afii57793" unicode="&#x5b4;" 
d="M0 -221l-71 70l71 71l71 -71z" />
    <glyph glyph-name="afii57794" unicode="&#x5b5;" 
d="M-105 -221l-71 70l71 71l71 -71zM105 -221l-71 70l71 71l71 -71z" />
    <glyph glyph-name="afii57795" unicode="&#x5b6;" 
d="M0 -386l-71 70l71 71l71 -71zM-105 -221l-71 70l71 71l71 -71zM105 -221l-71 70l71 71l71 -71z" />
    <glyph glyph-name="afii57798" unicode="&#x5b7;" 
d="M140 -167h-325l-12 12l57 56h325l12 -11z" />
    <glyph glyph-name="afii57797" unicode="&#x5b8;" 
d="M-34 -337v142l28 28h-179l-12 12l57 56h325l12 -11l-57 -57h-106v-124l-57 -57z" />
    <glyph glyph-name="afii57806" unicode="&#x5b9;" 
d="M0 615l-71 71l71 70l71 -70z" />
    <glyph glyph-name="uni05BA" unicode="&#x5ba;" 
d="M0 615l-71 71l71 70l71 -70z" />
    <glyph glyph-name="afii57796" unicode="&#x5bb;" 
d="M0 -309l-71 71l71 70l71 -70zM158 -396l-71 70l71 71l70 -71zM-158 -221l-70 70l70 71l71 -71z" />
    <glyph glyph-name="afii57807" unicode="&#x5bc;" 
d="M0 222l-78 78l78 78l78 -78z" />
    <glyph glyph-name="afii57839" unicode="&#x5bd;" 
d="M-23 -338l-11 11v200l57 57l11 -11v-200z" />
    <glyph glyph-name="afii57645" unicode="&#x5be;" horiz-adv-x="573" 
d="M75 562l71 70c109.333 -14.667 222 -14.667 338 0l15 -14l-71 -70c-116 -15.333 -228.667 -15.333 -338 0z" />
    <glyph glyph-name="afii57841" unicode="&#x5bf;" 
d="M-197 717l57 57h325l12 -11l-57 -57h-325z" />
    <glyph glyph-name="afii57842" unicode="&#x5c0;" horiz-adv-x="230" 
d="M92 -338l-11 11v1204l57 57l11 -11v-1204z" />
    <glyph glyph-name="afii57804" unicode="&#x5c1;" 
d="M737 615l-70 71l70 70l71 -70z" />
    <glyph glyph-name="afii57803" unicode="&#x5c2;" 
d="M265 615l-71 71l71 70l70 -70z" />
    <glyph glyph-name="afii57658" unicode="&#x5c3;" horiz-adv-x="341" 
d="M166 -43l-86 85l86 86l85 -86zM166 344l-86 86l86 85l85 -85z" />
    <glyph glyph-name="uni05C4" unicode="&#x5c4;" 
d="M0 615l-71 71l71 70l71 -70z" />
    <glyph glyph-name="uni05C5" unicode="&#x5c5;" 
d="M0 615l-71 71l71 70l71 -70z" />
    <glyph glyph-name="uni05C7" unicode="&#x5c7;" 
d="M-34 -397v202l28 28h-159l-12 12l57 56h285l12 -11l-57 -57h-86v-184l-57 -57z" />
    <glyph glyph-name="afii57664" unicode="&#x5d0;" horiz-adv-x="797" 
d="M53 578l64 64l440 -439c54 57.333 84.667 120.666 92 189.999c5.33301 59.333 -6.66699 117.333 -36 174l75 75l14 -14c27.333 -51.333 37.666 -111 30.999 -179c-6.66699 -72 -38 -136 -94 -192l-68 -68l166 -167l-64 -64l-439 439
c-54 -57.333 -84.667 -120.666 -92 -189.999c-5.33301 -59.333 6.66699 -117.333 36 -174l-75 -75l-14 14c-27.333 51.333 -37.666 111 -30.999 179c6.66699 72 38 136 94 192l68 68z" />
    <glyph glyph-name="afii57665" unicode="&#x5d1;" horiz-adv-x="774" 
d="M49 264l-14 13.999c0 80 28.667 148.667 86 206l71 70c58.667 58.667 130 88 214 88c90.667 0 166.667 -30.333 228 -91c57.333 -57.333 86 -129.666 86 -216.999c0 -39.333 -8.66699 -78.166 -26 -116.499s-40 -71.5 -68 -99.5l-55 -56h135l14 -14l-71 -70h-600l-14 14
l71 70h452l-8 8c56.667 65.333 84.667 137 84 215c0 79.333 -24.667 143.666 -74 192.999c-53.333 53.333 -123.666 80 -210.999 80c-64.667 0 -123.334 -18.667 -176.001 -56c-35.333 -50.667 -53 -106.667 -53 -168z" />
    <glyph glyph-name="afii57666" unicode="&#x5d2;" horiz-adv-x="636" 
d="M69 510l71 70c42.667 41.333 95.667 62 159 62c54 0 99.667 -18.667 137 -56c12 -12 22.167 -25.5 30.5 -40.5s15 -28.5 20 -40.5s9.66699 -29.833 14 -53.5s7.16602 -41.334 8.49902 -53.001s3.66602 -33.5 6.99902 -65.5c8.66699 -74 20 -135 34 -183
s37.333 -91 70 -129l-64 -63l-14 14c-38 44 -65 101 -81 171l-35 -35c-47.333 -47.333 -91.166 -82.166 -131.499 -104.499s-84.166 -33.5 -131.499 -33.5c-48 0 -87.333 15.333 -118 46c-18 18 -29.667 38 -35 60l71 71l14 -14c4 -18 11.667 -32.667 23 -44
c22.667 -22.667 56.334 -34 101.001 -34c42.667 0 82.5 9.16699 119.5 27.5s75.833 46.5 116.5 84.5c-5.33301 29.333 -11 68.333 -17 117c-6.66699 60 -14.834 108.167 -24.501 144.5s-25.5 65.5 -47.5 87.5c-28 28 -68 42 -120 42c-64 0 -118.333 -20.667 -163 -62z" />
    <glyph glyph-name="afii57667" unicode="&#x5d3;" horiz-adv-x="698" 
d="M6 572l70.001 70c196 -26.667 397.333 -26.667 604 0l14 -14l-70 -70c-21.333 -3.33301 -42.333 -6 -63 -8l1 -2c-34.667 -37.333 -58.334 -87.333 -71.001 -150c-8 -37.333 -12 -88.666 -12 -153.999v-216l-70 -70l-14 14v216c0 64.667 3.66699 115.667 11 153
c13.333 63.333 37.333 113.666 72 150.999l55 55c-172.667 -16.667 -343.667 -13 -513 11z" />
    <glyph glyph-name="afii57668" unicode="&#x5d4;" horiz-adv-x="788" 
d="M132 338l14 -13.999c27.333 -42.667 40.833 -90.834 40.5 -144.501s-13.833 -103.5 -40.5 -149.5l-73 -72l-14 14c26.667 45.333 40.167 94.833 40.5 148.5s-13.167 102.167 -40.5 145.5zM45 492.001l71 71.001c38.667 27.333 79.167 47.333 121.5 60s90.5 19 144.5 19
c104 0 187.333 -31 250 -93l14 -14c30.667 -30.667 53.667 -66 69 -106s23 -81 23 -123c0 -88.667 -29.667 -181.334 -89 -278.001l-71 -70l-14 14c59.333 96 89 188.667 89 278c0 40 -7.16699 79.333 -21.5 118s-35.5 73 -63.5 103c-62 58 -142.667 87 -242 87
c-54.667 0 -103.167 -6.5 -145.5 -19.5s-82.833 -33.167 -121.5 -60.5z" />
    <glyph glyph-name="afii57669" unicode="&#x5d5;" horiz-adv-x="284" 
d="M170 654l14 -14v-612l-70 -70l-14 14v612z" />
    <glyph glyph-name="afii57670" unicode="&#x5d6;" horiz-adv-x="466" 
d="M50 572l70 69.999c111.333 -35.333 215.333 -35.333 312 0l14 -14l-70 -70c-16 -6 -32 -11 -48 -15c-32.667 -37.333 -55 -85.666 -67 -144.999c-8 -37.333 -12 -88.666 -12 -153.999v-216l-70 -70l-14 14v216c0 64.667 3.66699 115.667 11 153
c13.333 63.333 37.333 113.666 72 150.999l44 44c-72 -11.333 -148 -4 -228 22z" />
    <glyph glyph-name="afii57671" unicode="&#x5d7;" horiz-adv-x="822" 
d="M80 492l69.999 71.001c38.667 27.333 79.167 47.333 121.5 60s90.833 19 145.5 19c104 0 187 -31 249 -93l14 -14c30.667 -30.667 53.834 -66 69.501 -106s23.5 -81 23.5 -123c0 -88.667 -30 -181.334 -90 -278.001l-71 -70l-14 14c60 96 90 188.667 90 278
c0 40 -7.16699 79.333 -21.5 118s-35.833 73 -64.5 103c-61.333 58 -142 87 -242 87c-79.333 0 -148.666 -15 -207.999 -45l12 -12v-473l-70 -70l-14 14v473l64 64c-16.667 -8.66699 -33.334 -19 -50.001 -31z" />
    <glyph glyph-name="afii57672" unicode="&#x5d8;" horiz-adv-x="792" 
d="M121 648l13.9971 -14c2 -282.667 55 -478.667 159 -588c0.666992 -1.33301 1.66699 -2.66602 3 -3.99902c126.667 0 226.667 26.333 300 79c16 22.667 29 47.667 39 75c20 50 26 104.333 18 163s-29.333 106.667 -64 144c-39.333 36.667 -88.666 55 -147.999 55
c-28.667 0 -54 -6 -76 -18c-12.667 -22.667 -20.667 -46 -24 -70l-71 -70l-14 14c5.33301 42.667 23.666 79.667 54.999 111l72 72c30.667 30 68.667 45 114 45c64.667 0 119.334 -22 164.001 -66c38.667 -39.333 63.5 -89 74.5 -149s5.83301 -118.333 -15.5 -175
c-16.667 -44 -40.667 -81.333 -72 -112l-71 -71c-37.333 -38 -84.666 -66 -141.999 -84s-119 -27 -185 -27c-7.33301 6 -15.666 14 -24.999 24c-111.333 111.333 -168.333 311.666 -171 600.999z" />
    <glyph glyph-name="afii57673" unicode="&#x5d9;" horiz-adv-x="264" 
d="M160 654l14 -14v-310l-70 -70l-14 14v310z" />
    <glyph glyph-name="afii57674" unicode="&#x5da;" horiz-adv-x="722" 
d="M31 477l70.001 70c71.333 63.333 158.666 95 261.999 95c45.333 0 88 -8 128 -24s73.667 -38 101 -66l14 -14h1c50 -50.667 75 -116.334 75 -197.001c0 -43.333 -8.66699 -84.166 -26 -122.499s-40.333 -71.833 -69 -100.5
c-32.667 -32.667 -56.334 -68.334 -71.001 -107.001c-10.667 -28.667 -16 -65.667 -16 -111v-272l-70 -70l-14 14v272c0 45.333 5 82.333 15 111c14.667 38.667 38.334 74.334 71.001 107.001c28.667 28.667 51.834 62 69.501 100s26.5 79 26.5 123
c0 76 -23.333 139.333 -70 190c-27.333 25.333 -60.333 45.5 -99 60.5s-79.334 22.5 -122.001 22.5c-104 0 -191.333 -31.667 -262 -95z" />
    <glyph glyph-name="afii57675" unicode="&#x5db;" horiz-adv-x="686" 
d="M37 501l70.001 70.999c28.667 22 63 39.167 103 51.5s80.667 18.5 122 18.5c91.333 0 166.666 -29.333 225.999 -88l14 -14v-1c55.333 -55.333 83 -123.666 83 -204.999c0 -78.667 -27.333 -145.667 -82 -201l-71 -70c-29.333 -30 -64.333 -53 -105 -69
s-84.667 -24 -132 -24c-89.333 0 -166 28 -230 84l-14 14l70 70c64 -56 141 -84 231 -84c75.333 0 141.333 20.333 198 61c34 48 51 102 51 162c0 78 -25.667 144.333 -77 199c-58 54.667 -131 82 -219 82c-40.667 0 -81 -6.33301 -121 -19s-74.333 -30 -103 -52z" />
    <glyph glyph-name="afii57676" unicode="&#x5dc;" horiz-adv-x="686" 
d="M108 3l71.001 71c40.667 -13.333 86 -20 136 -20c75.333 0 141.333 20.333 198 61c34 48 51 102 51 162c0 78 -25.667 144.333 -77 199c-58.667 54.667 -131.667 82 -219 82c-75.333 0 -143 -16 -203 -48l-14 14v249l70 70l14 -14v-227
c57.333 26.667 120.666 40 189.999 40c91.333 0 166.333 -29.333 225 -88h1l14 -14c55.333 -56 83 -124.667 83 -206c0 -78.667 -27.333 -145.667 -82 -201l-71 -70c-29.333 -30 -64.333 -53 -105 -69s-84.667 -24 -132 -24c-50 0 -95.333 6.33301 -136 19z" />
    <glyph glyph-name="afii57677" unicode="&#x5dd;" horiz-adv-x="763" 
d="M140 -8l69.999 70.001h414l3 3v224c0 66 -7.33301 115.333 -22 148c-8 18 -19.667 35.333 -35 52c-16.667 15.333 -35.334 28.333 -56.001 39c-53.333 26.667 -113.666 40 -180.999 40c-62 0 -121.667 -10 -179 -30l12 -13v-497l-70 -70l-14 14v497l67 68
c-29.333 -11.333 -57.666 -25 -84.999 -41l-14 14l55 55c78.667 51.333 173.667 77 285 77c66.667 0 126.667 -13.333 180 -40c24 -11.333 45.333 -26.333 64 -45l14 -14c18.667 -18.667 32.667 -38.334 42 -59.001c14.667 -33.333 22 -83 22 -149v-213l-10 -10l-26 -26
l-1 -2h-1l-70 -71l-36 -35h-414z" />
    <glyph glyph-name="afii57678" unicode="&#x5de;" horiz-adv-x="802" 
d="M66 -42l-13.999 14.0039c31.333 92.667 48.666 192.667 51.999 300c4 104 -6.33301 204 -31 300l71 70l14 -14c10.667 -40.667 18.667 -81.334 24 -122.001l57 58c26.667 24 59.334 43 98.001 57s77.667 21 117 21c42 0 83 -7.66699 123 -23s74 -37.333 102 -66l14 -14
c31.333 -30.667 53 -71.334 65 -122.001s12.333 -105.667 1 -165c-11.333 -62.667 -36.333 -113.334 -75 -152.001l-71 -71c-19.333 -19.333 -42.5 -34 -69.5 -44s-54.5 -15 -82.5 -15c-71.333 0 -128.333 15.333 -171 46l-14 14l70 71c43.333 -31.333 100.333 -47 171 -47
c42 0 80.333 10.333 115 31c20.667 33.333 35 70.333 43 111c10 56.667 9.66699 109.667 -1 159s-30.334 89.666 -59.001 120.999c-28 26 -61.333 46.167 -100 60.5s-78 21.5 -118 21.5c-38.667 0 -77 -6.83301 -115 -20.5s-70.333 -32.5 -97 -56.5
c4.66699 -48.667 6 -99.667 4 -153c-4 -106.667 -21.333 -206.667 -52 -300z" />
    <glyph glyph-name="afii57679" unicode="&#x5df;" horiz-adv-x="264" 
d="M160 654l15 -14v-1012l-71 -70l-14 14v1012z" />
    <glyph glyph-name="afii57680" unicode="&#x5e0;" horiz-adv-x="507" 
d="M18 -8l70 70h252l-3 3l-1 277c0 60.667 -2.33301 103.667 -7 129c-4 22 -13.667 40.667 -29 56c-22.667 22.667 -57.667 34 -105 34c-46 0 -89.333 -16 -130 -48l-14 14l71 71c20 16 39.167 27.333 57.5 34s41.833 10 70.5 10c49.333 0 89.333 -15.333 120 -46
c22 -22 36 -47.5 42 -76.5s9 -73.833 9 -134.5v-263l-66 -66l7 -8l-70 -70h-260z" />
    <glyph glyph-name="afii57681" unicode="&#x5e1;" horiz-adv-x="785" 
d="M103 488l71 71.001c67.333 55.333 147 83 239 83c102.667 0 183 -28.667 241 -86l14 -14v-1c54.667 -54.667 82 -128 82 -220c0 -77.333 -25.333 -141.333 -76 -192l-71 -70c-59.333 -59.333 -141.333 -89 -246 -89c-94 0 -168.667 27.667 -224 83l-14 14
c-50 50 -75 112.333 -75 187c0 65.333 27.333 125.666 82 180.999l71 70l14 -14c-54.667 -54.667 -82 -115 -82 -181c0 -70 22.667 -129.667 68 -179c55.333 -51.333 127.333 -77 216 -77c82.667 0 152 19 208 57c29.333 44.667 44 96 44 154c0 88 -25 159 -75 213
c-57.333 53.333 -135 80 -233 80c-92 0 -171.667 -28 -239 -84z" />
    <glyph glyph-name="afii57682" unicode="&#x5e2;" horiz-adv-x="756" 
d="M702 654l13.9961 -14c-4.66699 -86 -16.334 -173.667 -35.001 -263s-44 -157.666 -76 -204.999c-10 -14.667 -21.333 -28.334 -34 -41.001l-70 -71h-1c-25.333 -25.333 -55.166 -45.333 -89.499 -60s-70.166 -23.5 -107.499 -26.5s-73.666 -3 -108.999 0
s-71.666 9.16699 -108.999 18.5l-14 14l71 70c160.667 -37.333 286.334 -25 377.001 37c32 47.333 57.5 115.833 76.5 205.5s30.833 178.167 35.5 265.5zM212.996 143c38 -38 76.667 -67.668 116 -89.001l66 66l-14 14c-42 22.667 -73.667 45.334 -95 68.001
c-49.333 50.667 -85 113 -107 187s-36.333 157.667 -43 251l-14 14l-66 -65c6.66699 -96 21.5 -181.5 44.5 -256.5s60.5 -138.167 112.5 -189.5z" />
    <glyph glyph-name="afii57683" unicode="&#x5e3;" horiz-adv-x="735" 
d="M566 -442l-14.001 14.001c-24 73.333 -30.667 166.333 -20 279c2.66699 34.667 10.167 74.667 22.5 120s23.5 91.166 33.5 137.499s15 92.833 15 139.5c0 94 -27.333 170.333 -82 229c-58 54 -126.333 81 -205 81c-66 0 -122.667 -15 -170 -45
c-20.667 -33.333 -31 -70.333 -31 -111c0 -60.667 20 -111 60 -151s90.333 -60 151 -60l14 -14l-70 -71c-63.333 0 -119 24 -167 72s-72 103.667 -72 167c0 59.333 20 109.333 60 150l71 71c51.333 50.667 121.333 76 210 76c82.667 0 153.334 -29 212.001 -87l14 -15
c58.667 -58.667 88 -129.334 88 -212.001c0 -45.333 -5.16699 -92.333 -15.5 -141s-22 -97.167 -35 -145.5s-21.167 -89.833 -24.5 -124.5c-4.66699 -52.667 -4.66699 -104.667 0 -156s13 -95.666 25 -132.999z" />
    <glyph glyph-name="afii57684" unicode="&#x5e4;" horiz-adv-x="757" 
d="M348 261l-71.002 -69.999c-74.667 0 -135.667 23.667 -183 71c-30 30 -45 66 -45 108c0 46.667 17 87 51 121l71 71l1 1c54 52.667 128 79 222 79s171.333 -30 232 -90l14 -14v0c55.333 -55.333 83 -123.333 83 -204c0 -78 -27.333 -144.333 -82 -199l-71 -71
c-30 -30 -65.833 -53.167 -107.5 -69.5s-86.5 -24.5 -134.5 -24.5c-49.333 0 -95.666 8.66699 -138.999 26s-80.666 41.333 -111.999 72l-14 14l-15 16l70 71l14 -14l8 -8c31.333 -28.667 68 -51.334 110 -68.001s86.667 -25 134 -25c77.333 0 145.333 20.667 204 62
c33.333 48 50 101.667 50 161c0 77.333 -25.333 143 -76 197c-59.333 56 -134 84 -224 84c-71.333 0 -132.333 -16 -183 -48c-14.667 -25.333 -22 -53.333 -22 -84c0 -38 11.667 -68.667 35 -92c18 -18 42 -32.333 72 -43s61.333 -16 94 -16z" />
    <glyph glyph-name="afii57685" unicode="&#x5e5;" horiz-adv-x="709" 
d="M91 648l14.001 -14c14 -66 40.167 -132.833 78.5 -200.5s80.833 -126.834 127.5 -177.501c47.333 -51.333 86 -99.333 116 -144c59.333 75.333 97.833 152.333 115.5 231s11.167 152 -19.5 220l86 85l14 -14c22 -45.333 30.5 -95.5 25.5 -150.5
s-20.167 -110.333 -45.5 -166s-58.666 -108.834 -99.999 -159.501l-64 -64c88.667 -141.333 116.667 -296.666 84 -465.999l-63 -62l-14 14c9.33301 46.667 14.166 91.667 14.499 135s-3.83398 83.833 -12.501 121.5s-19.5 73 -32.5 106s-29.833 65.5 -50.5 97.5
s-41 60.833 -61 86.5s-43.333 52.834 -70 81.501c-46.667 50.667 -89.167 109.667 -127.5 177s-64.5 134.333 -78.5 201z" />
    <glyph glyph-name="afii57686" unicode="&#x5e6;" horiz-adv-x="740" 
d="M597 62c18 17.333 23.666 36.665 16.999 57.998c-5.33301 15.333 -17.5 27.666 -36.5 36.999s-47.5 18 -85.5 26c-44.667 9.33301 -78.667 17.333 -102 24c-82 21.333 -151 58.333 -207 111c-71.333 66.667 -118.666 155.334 -141.999 266.001l64 64l14 -14
c11.333 -52 25.166 -95.667 41.499 -131s41.166 -70 74.499 -104c30 -31.333 60.833 -55.166 92.5 -71.499s69.5 -30.5 113.5 -42.5c14.667 -4 33.334 -8.33301 56.001 -13c36 46 59.5 93.833 70.5 143.5s8.5 98.834 -7.5 147.501l85 85l14 -14
c16.667 -48 16.5 -100.5 -0.5 -157.5s-45.5 -109.833 -85.5 -158.5l-51 -51l20 -5c48.667 -10.667 85.334 -28.334 110.001 -53.001c19.333 -18.667 30.333 -40.667 33 -66s-5.66602 -48.666 -24.999 -69.999l-70 -71c-16.667 -16 -38.334 -24 -65.001 -24h-476l-14 14
l70 70h492z" />
    <glyph glyph-name="afii57687" unicode="&#x5e7;" horiz-adv-x="795" 
d="M171 -430l-14 14v600l71 71l14 -14v-600zM40 266l-14.999 13.998c0 77.333 32.333 148 97 212l71 71c53.333 52.667 127.666 79.334 222.999 80.001c98 0 176.333 -26.667 235 -80l10 -10l14 -14v0c50 -50 75 -117.333 75 -202c0 -83.333 -29.333 -154 -88 -212l-70 -71
c-27.333 -27.333 -61.5 -48.833 -102.5 -64.5s-83.5 -23.5 -127.5 -23.5l-15 14l71 71c73.333 0 138 19.333 194 58c35.333 49.333 53 106.666 53 171.999c0 80.667 -22.667 145.334 -68 194.001l-3 3c-58.667 53.333 -137 80 -235 80c-76 0 -139 -17.333 -189 -52
c-40 -53.333 -60 -109.666 -60 -168.999z" />
    <glyph glyph-name="afii57688" unicode="&#x5e8;" horiz-adv-x="758" 
d="M39 318l-14.002 14.001c12 58.667 39.333 109.334 82 152.001l71 70v1c58.667 58 129.334 87 212.001 87s153.334 -29 212.001 -87l15 -15c58 -58.667 87 -131.334 87 -218.001c0 -58.667 -7.5 -111.334 -22.5 -158.001s-36.167 -92 -63.5 -136l-71 -70l-14 14
c57.333 96 86 196 86 300c0 78.667 -27 147 -81 205c-57.333 54 -125.666 81 -204.999 81c-64 0 -121.667 -18.667 -173 -56c-24.667 -34.667 -41.334 -72.667 -50.001 -114z" />
    <glyph glyph-name="afii57689" unicode="&#x5e9;" horiz-adv-x="948" 
d="M461 648l14 -14c36.667 -66 55.167 -134.833 55.5 -206.5s-18.167 -138.167 -55.5 -199.5l-71 -70l-14 14c37.333 60.667 55.833 127 55.5 199s-18.833 141 -55.5 207zM842 648l14 -14c35.333 -60 53 -126.333 53 -199c0 -53.333 -10.167 -104.166 -30.5 -152.499
s-48.833 -90.833 -85.5 -127.5l-71 -71c-36.667 -36 -78.667 -64 -126 -84s-97.333 -30 -150 -30s-102.667 10 -150 30s-89 48 -125 84l-15 15c-36.667 36.667 -65.167 79.167 -85.5 127.5s-30.5 99.166 -30.5 152.499c0 72 17.667 138.333 53 199l70 70l14 -14
c-34.667 -60 -52 -126.333 -52 -199c0 -51.333 9.5 -100.5 28.5 -147.5s45.833 -88.833 80.5 -125.5c36 -34 77 -60.5 123 -79.5s94.667 -28.5 146 -28.5c88 0 167.333 27.333 238 82c55.333 71.333 83 152.333 83 243c0 72 -17.333 138.333 -52 199z" />
    <glyph glyph-name="afii57690" unicode="&#x5ea;" horiz-adv-x="842" 
d="M-15 14l71 71c20 -20 45.667 -30 77 -30h3c11.333 32.667 18.333 78.334 21 137.001c3.33301 74 0 163 -10 267l71 71l14 -14c10 -104.667 13.333 -193.667 10 -267c-4.66699 -96.667 -21.334 -159.334 -50.001 -188.001l-71 -71c-13.333 -13.333 -33.333 -20 -60 -20
c-16.667 0 -31.667 3.83301 -45 11.5s-23.666 18.5 -30.999 32.5zM51 459l70.001 70c82.667 75.333 192.667 113 330 113c51.333 0 98 -8.16699 140 -24.5s77 -38.5 105 -66.5l14 -14l1 -1c30 -30 53 -63.5 69 -100.5s25 -73.5 27 -109.5c2 -44.667 -3.33301 -89 -16 -133
c-16.667 -56.667 -41.334 -111.667 -74.001 -165l-71 -70l-14 14c32.667 52.667 57.334 107.667 74.001 165c12.667 44 18 88.333 16 133c-1.33301 34 -9.5 68.833 -24.5 104.5s-36.5 68.5 -64.5 98.5c-61.333 56.667 -141 85 -239 85
c-136.667 0 -246.334 -37.667 -329.001 -113z" />
    <glyph glyph-name="afii57716" unicode="&#x5f0;" horiz-adv-x="568" 
d="M454 654l14 -14v-612l-70 -70l-14 14v612zM170 654l14 -14v-612l-70 -70l-14 14v612z" />
    <glyph glyph-name="afii57717" unicode="&#x5f1;" horiz-adv-x="548" 
d="M160 654l14 -14v-310l-70 -70l-14 14v310zM434 654l14 -14v-612l-70 -70l-14 14v612z" />
    <glyph glyph-name="afii57718" unicode="&#x5f2;" horiz-adv-x="528" 
d="M424 654l14 -14v-310l-70 -70l-14 14v310zM160 654l14 -14v-310l-70 -70l-14 14v310z" />
    <glyph glyph-name="uni05F3" unicode="&#x5f3;" horiz-adv-x="214" 
d="M111 803l14 -14c26.667 -38.667 40 -82.667 40 -132c0 -50.667 -15 -96.667 -45 -138l-70 -70l-14 14c29.333 41.333 44 87.333 44 138c0 48.667 -13.333 92.667 -40 132z" />
    <glyph glyph-name="uni05F4" unicode="&#x5f4;" horiz-adv-x="423" 
d="M311 803l14 -14c26.667 -38.667 40 -82.667 40 -132c0 -50.667 -15 -96.667 -45 -138l-70 -70l-14 14c29.333 41.333 44 87.333 44 138c0 48.667 -13.333 92.667 -40 132zM111 803l14 -14c26.667 -38.667 40 -82.667 40 -132c0 -50.667 -15 -96.667 -45 -138l-70 -70
l-14 14c29.333 41.333 44 87.333 44 138c0 48.667 -13.333 92.667 -40 132z" />
    <glyph glyph-name="afii61664" unicode="&#x200c;" 
 />
    <glyph glyph-name="afii301" unicode="&#x200d;" 
 />
    <glyph glyph-name="afii299" unicode="&#x200e;" 
 />
    <glyph glyph-name="afii300" unicode="&#x200f;" 
 />
    <glyph glyph-name="endash" unicode="&#x2013;" horiz-adv-x="761" 
d="M688 337l14 -14l-61 -60h-567l-14 14l61 60h567z" />
    <glyph glyph-name="emdash" unicode="&#x2014;" horiz-adv-x="1061" 
d="M988 337l14 -14l-61 -60h-867l-14 14l61 60h867z" />
    <glyph glyph-name="afii00208" unicode="&#x2015;" horiz-adv-x="1384" 
d="M1311 337l14 -14l-61 -60h-1200l-14 14l61 60h1200z" />
    <glyph glyph-name="quoteleft" unicode="&#x2018;" horiz-adv-x="214" 
d="M90 449l-14 14c-26.667 38.667 -40 82.667 -40 132c0 50.667 15 96.667 45 138l70 70l14 -14c-29.333 -41.333 -44 -87.333 -44 -138c0 -48.667 13.333 -92.667 40 -132z" />
    <glyph glyph-name="quoteright" unicode="&#x2019;" horiz-adv-x="214" 
d="M111 803l14 -14c26.667 -38.667 40 -82.667 40 -132c0 -50.667 -15 -96.667 -45 -138l-70 -70l-14 14c29.333 41.333 44 87.333 44 138c0 48.667 -13.333 92.667 -40 132z" />
    <glyph glyph-name="quotesinglbase" unicode="&#x201a;" horiz-adv-x="214" 
d="M111 103l14 -14c26.667 -38.667 40 -82.667 40 -132c0 -50.667 -15 -96.667 -45 -138l-70 -70l-14 14c29.333 41.333 44 87.333 44 138c0 48.667 -13.333 92.667 -40 132z" />
    <glyph glyph-name="quotedblleft" unicode="&#x201c;" horiz-adv-x="423" 
d="M90 449l-14 14c-26.667 38.667 -40 82.667 -40 132c0 50.667 15 96.667 45 138l70 70l14 -14c-29.333 -41.333 -44 -87.333 -44 -138c0 -48.667 13.333 -92.667 40 -132zM290 449l-14 14c-26.667 38.667 -40 82.667 -40 132c0 50.667 15 96.667 45 138l70 70l14 -14
c-29.333 -41.333 -44 -87.333 -44 -138c0 -48.667 13.333 -92.667 40 -132z" />
    <glyph glyph-name="quotedblright" unicode="&#x201d;" horiz-adv-x="423" 
d="M311 803l14 -14c26.667 -38.667 40 -82.667 40 -132c0 -50.667 -15 -96.667 -45 -138l-70 -70l-14 14c29.333 41.333 44 87.333 44 138c0 48.667 -13.333 92.667 -40 132zM111 803l14 -14c26.667 -38.667 40 -82.667 40 -132c0 -50.667 -15 -96.667 -45 -138l-70 -70
l-14 14c29.333 41.333 44 87.333 44 138c0 48.667 -13.333 92.667 -40 132z" />
    <glyph glyph-name="quotedblbase" unicode="&#x201e;" horiz-adv-x="423" 
d="M311 103l14 -14c26.667 -38.667 40 -82.667 40 -132c0 -50.667 -15 -96.667 -45 -138l-70 -70l-14 14c29.333 41.333 44 87.333 44 138c0 48.667 -13.333 92.667 -40 132zM111 103l14 -14c26.667 -38.667 40 -82.667 40 -132c0 -50.667 -15 -96.667 -45 -138l-70 -70
l-14 14c29.333 41.333 44 87.333 44 138c0 48.667 -13.333 92.667 -40 132z" />
    <glyph glyph-name="ellipsis" unicode="&#x2026;" horiz-adv-x="1071" 
d="M866 -43l-86 85l86 86l85 -86zM521 -43l-86 85l86 86l85 -86zM176 -43l-86 85l86 86l85 -86z" />
    <glyph glyph-name="afii57636" unicode="&#x20aa;" horiz-adv-x="1104" 
d="M201 515l14 -14v-473l-71 -70l-14 14v473zM130 492l70.9971 71c36.667 26 79.334 45.833 128.001 59.5s95.667 20.167 141 19.5c82.667 0 149.334 -25.333 200.001 -76l14 -14l1 -1c22.667 -22.667 40 -48.5 52 -77.5s18 -57.5 18 -85.5
c0 -58 -9.33301 -111.333 -28 -160l-71 -70l-14 14c18.667 48 28 101.333 28 160c0 58 -21.333 110 -64 156c-50 46.667 -114 70 -192 70c-46 0.666992 -93.167 -6 -141.5 -20s-91.166 -34 -128.499 -60zM455.997 448l13.999 -14.0039v-322c60.667 -46.667 136 -70 226 -70
c67.333 0 126 17.667 176 53c38 54 57 113 57 177c0 62 -6.66699 116.333 -20 163s-32.333 92.334 -57 137.001l71 70l14 -14c24.667 -44 43.667 -89.5 57 -136.5s20 -101.5 20 -163.5c0 -37.333 -7.66699 -75.166 -23 -113.499s-37.666 -72.166 -66.999 -101.499l-70 -71
c-56.667 -56 -128.334 -84 -215.001 -84c-50 0 -94.167 6.33301 -132.5 19s-74.166 33.334 -107.499 62.001l-14 14v325z" />
    <glyph glyph-name="Euro" unicode="&#x20ac;" horiz-adv-x="899" 
d="M556 42c90.667 0 168 29 232 87l14 -14l-70 -70c-64.667 -58 -142.334 -87 -233.001 -87c-47.333 0 -92.166 8.66699 -134.499 26s-78.833 41.333 -109.5 72l-14 14c-38 38 -63.667 81.667 -77 131h-63l-11 11l57 57h8v3c0 20 2.33301 40 7 60l-11 10l19 19
c14.667 42 38.334 79.333 71.001 112l71 71c30.667 30.667 67 54.667 109 72s87 26 135 26c86 0 160.333 -26.333 223 -79l15 -14l-71 -71c-63.333 53.333 -138 80 -224 80c-76.667 0 -145.334 -22 -206.001 -66c-20.667 -28.667 -35.334 -59.667 -44.001 -93h426l11 -11
l-57 -57h-389v-3c0 -20 2 -39.667 6 -59h368l11 -11l-57 -57h-297c12.667 -24 28.667 -46.333 48 -67c30.667 -28.667 66.334 -51.167 107.001 -67.5s84 -24.5 130 -24.5z" />
    <glyph glyph-name="minus" unicode="&#x2212;" horiz-adv-x="849" 
d="M731 348l14 -14l-71 -71h-565l-14 15l71 70h565z" />
    <glyph glyph-name="SF110000" unicode="&#x2502;" horiz-adv-x="270" 
d="M170 -274c0 -9.33301 -2 -16 -6 -20s-10.667 -6 -20 -6h-18c-9.33301 0 -16 2 -20 6s-6 10.667 -6 20v1148c0 9.33301 2 16 6 20s10.667 6 20 6h18c9.33301 0 16 -2 20 -6s6 -10.667 6 -20v-1148z" />
    <glyph glyph-name="uni25CC" unicode="&#x25cc;" horiz-adv-x="615" 
d="M76.5 233c7.66699 0 14.334 -2.66699 20.001 -8s8.5 -12 8.5 -20s-2.83301 -14.667 -8.5 -20s-12.334 -8 -20.001 -8s-14.167 2.66699 -19.5 8s-8 12 -8 20s2.66699 14.667 8 20s11.833 8 19.5 8zM211.5 98c7.66699 0 14.167 -2.66699 19.5 -8s8 -11.833 8 -19.5
s-2.66699 -14.167 -8 -19.5s-11.833 -8 -19.5 -8s-14.334 2.66699 -20.001 8s-8.5 11.833 -8.5 19.5s2.83301 14.167 8.5 19.5s12.334 8 20.001 8zM401.5 98c7.66699 0 14.167 -2.66699 19.5 -8s8 -11.833 8 -19.5s-2.66699 -14.167 -8 -19.5s-11.833 -8 -19.5 -8
s-14.167 2.66699 -19.5 8s-8 11.833 -8 19.5s2.66699 14.167 8 19.5s11.833 8 19.5 8zM536 233c8 0 14.667 -2.66699 20 -8s8 -12 8 -20s-2.66699 -14.667 -8 -20s-12 -8 -20 -8s-14.667 2.66699 -20 8s-8 12 -8 20s2.66699 14.667 8 20s12 8 20 8zM536 423
c8 0 14.667 -2.66699 20 -8s8 -12 8 -20s-2.66699 -14.667 -8 -20s-12 -8 -20 -8s-14.667 2.66699 -20 8s-8 12 -8 20s2.66699 14.667 8 20s12 8 20 8zM401.5 557c7.66699 0 14.167 -2.66699 19.5 -8s8 -11.833 8 -19.5s-2.66699 -14.167 -8 -19.5s-11.833 -8 -19.5 -8
s-14.167 2.66699 -19.5 8s-8 11.833 -8 19.5s2.66699 14.167 8 19.5s11.833 8 19.5 8zM211.5 557c7.66699 0 14.167 -2.66699 19.5 -8s8 -11.833 8 -19.5s-2.66699 -14.167 -8 -19.5s-11.833 -8 -19.5 -8s-14.334 2.66699 -20.001 8s-8.5 11.833 -8.5 19.5
s2.83301 14.167 8.5 19.5s12.334 8 20.001 8zM76.5 423c7.66699 0 14.334 -2.66699 20.001 -8s8.5 -12 8.5 -20s-2.83301 -14.667 -8.5 -20s-12.334 -8 -20.001 -8s-14.167 2.66699 -19.5 8s-8 12 -8 20s2.66699 14.667 8 20s11.833 8 19.5 8zM58 328
c8 0 14.667 -2.66699 20 -8s8 -12 8 -20s-2.66699 -14.667 -8 -20s-12 -8 -20 -8s-14.667 2.66699 -20 8s-8 12 -8 20s2.66699 14.667 8 20s12 8 20 8zM130.5 504c7.66699 0 14.334 -2.83301 20.001 -8.5s8.5 -12.334 8.5 -20.001s-2.83301 -14.167 -8.5 -19.5
s-12.334 -8 -20.001 -8s-14.167 2.66699 -19.5 8s-8 11.833 -8 19.5s2.66699 14.334 8 20.001s11.833 8.5 19.5 8.5zM130.5 152c7.66699 0 14.334 -2.66699 20.001 -8s8.5 -11.833 8.5 -19.5s-2.83301 -14.334 -8.5 -20.001s-12.334 -8.5 -20.001 -8.5
s-14.167 2.83301 -19.5 8.5s-8 12.334 -8 20.001s2.66699 14.167 8 19.5s11.833 8 19.5 8zM482.5 152c7.66699 0 14.167 -2.66699 19.5 -8s8 -11.833 8 -19.5s-2.66699 -14.334 -8 -20.001s-11.833 -8.5 -19.5 -8.5s-14.334 2.83301 -20.001 8.5s-8.5 12.334 -8.5 20.001
s2.83301 14.167 8.5 19.5s12.334 8 20.001 8zM482.5 504c7.66699 0 14.167 -2.83301 19.5 -8.5s8 -12.334 8 -20.001s-2.66699 -14.167 -8 -19.5s-11.833 -8 -19.5 -8s-14.334 2.66699 -20.001 8s-8.5 11.833 -8.5 19.5s2.83301 14.334 8.5 20.001s12.334 8.5 20.001 8.5z
M306.5 576c7.66699 0 14.167 -2.66699 19.5 -8s8 -11.833 8 -19.5s-2.66699 -14.167 -8 -19.5s-11.833 -8 -19.5 -8s-14.334 2.66699 -20.001 8s-8.5 11.833 -8.5 19.5s2.83301 14.167 8.5 19.5s12.334 8 20.001 8zM306.5 79c7.66699 0 14.167 -2.66699 19.5 -8
s8 -11.833 8 -19.5s-2.66699 -14.167 -8 -19.5s-11.833 -8 -19.5 -8s-14.334 2.66699 -20.001 8s-8.5 11.833 -8.5 19.5s2.83301 14.167 8.5 19.5s12.334 8 20.001 8zM554.5 328c7.66699 0 14.334 -2.66699 20.001 -8s8.5 -12 8.5 -20s-2.83301 -14.667 -8.5 -20
s-12.334 -8 -20.001 -8s-14.167 2.66699 -19.5 8s-8 12 -8 20s2.66699 14.667 8 20s11.833 8 19.5 8z" />
    <glyph glyph-name="uniE801" unicode="&#xe801;" horiz-adv-x="284" 
d="M0 615l-71 71l71 70l71 -70zM170 654l14 -14v-612l-70 -70l-14 14v612z" />
    <glyph glyph-name="uniE802" unicode="&#xe802;" horiz-adv-x="722" 
d="M294 -171l-71 70l71 71l71 -71zM294 9l-71 70l71 71l71 -71zM31 477l70.001 70c71.333 63.333 158.666 95 261.999 95c45.333 0 88 -8 128 -24s73.667 -38 101 -66l14 -14h1c50 -50.667 75 -116.334 75 -197.001c0 -43.333 -8.66699 -84.166 -26 -122.499
s-40.333 -71.833 -69 -100.5c-32.667 -32.667 -56.334 -68.334 -71.001 -107.001c-10.667 -28.667 -16 -65.667 -16 -111v-272l-70 -70l-14 14v272c0 45.333 5 82.333 15 111c14.667 38.667 38.334 74.334 71.001 107.001c28.667 28.667 51.834 62 69.501 100
s26.5 79 26.5 123c0 76 -23.333 139.333 -70 190c-27.333 25.333 -60.333 45.5 -99 60.5s-79.334 22.5 -122.001 22.5c-104 0 -191.333 -31.667 -262 -95z" />
    <glyph glyph-name="uniE803" unicode="&#xe803;" horiz-adv-x="722" 
d="M216 -93v142l28 28h-179l-12 12l57 56h325l12 -11l-57 -57h-106v-124l-57 -57zM31 477l70.001 70c71.333 63.333 158.666 95 261.999 95c45.333 0 88 -8 128 -24s73.667 -38 101 -66l14 -14h1c50 -50.667 75 -116.334 75 -197.001
c0 -43.333 -8.66699 -84.166 -26 -122.499s-40.333 -71.833 -69 -100.5c-32.667 -32.667 -56.334 -68.334 -71.001 -107.001c-10.667 -28.667 -16 -65.667 -16 -111v-272l-70 -70l-14 14v272c0 45.333 5 82.333 15 111c14.667 38.667 38.334 74.334 71.001 107.001
c28.667 28.667 51.834 62 69.501 100s26.5 79 26.5 123c0 76 -23.333 139.333 -70 190c-27.333 25.333 -60.333 45.5 -99 60.5s-79.334 22.5 -122.001 22.5c-104 0 -191.333 -31.667 -262 -95z" />
    <glyph glyph-name="uniE804" unicode="&#xe804;" horiz-adv-x="264" 
d="M135 69l-71 70l71 71l71 -71zM160 654l14 -14v-310l-70 -70l-14 14v310z" />
    <glyph glyph-name="uniFB1D" unicode="&#xfb1d;" horiz-adv-x="264" 
d="M134 -221l-71 70l71 71l71 -71zM160 654l14 -14v-310l-70 -70l-14 14v310z" />
    <glyph glyph-name="uniFB1E" unicode="&#xfb1e;" 
d="M-182 655l55.0029 58c55.333 -16.667 110.666 -24.167 165.999 -22.5s109.666 11.167 162.999 28.5l-49 -57c-116.667 -38 -228.334 -40.333 -335.001 -7z" />
    <glyph glyph-name="uniFB1F" unicode="&#xfb1f;" horiz-adv-x="528" 
d="M358.718 85h-247.737l-9.14746 12l43.4492 56h247.737l9.14746 -11zM160 654l14 -14v-310l-70 -70l-14 14v310zM424 654l14 -14v-310l-70 -70l-14 14v310z" />
    <glyph glyph-name="uniFB20" unicode="&#xfb20;" horiz-adv-x="756" 
d="M702 654l13.9961 -14c-4.66699 -86 -16.334 -173.667 -35.001 -263s-44 -157.666 -76 -204.999c-10 -14.667 -21.333 -28.334 -34 -41.001l-70 -71h-1c-25.333 -25.333 -55.166 -45.333 -89.499 -60s-70.166 -23.5 -107.499 -26.5s-73.666 -3 -108.999 0
s-71.666 9.16699 -108.999 18.5l-14 14l71 70c160.667 -37.333 286.334 -25 377.001 37c32 47.333 57.5 115.833 76.5 205.5s30.833 178.167 35.5 265.5zM212.996 143c38 -38 76.667 -67.668 116 -89.001l66 66l-14 14c-42 22.667 -73.667 45.334 -95 68.001
c-49.333 50.667 -85 113 -107 187s-36.333 157.667 -43 251l-14 14l-66 -65c6.66699 -96 21.5 -181.5 44.5 -256.5s60.5 -138.167 112.5 -189.5z" />
    <glyph glyph-name="uniFB29" unicode="&#xfb29;" horiz-adv-x="848" 
d="M109 217l-14 14l71 71h211v220l71 70l14 -14v-276h268l14 -14l-71 -71h-564z" />
    <glyph glyph-name="uniFB2A" unicode="&#xfb2a;" horiz-adv-x="948" 
d="M737 615l-70 71l70 70l71 -70zM461 648l14 -14c36.667 -66 55.167 -134.833 55.5 -206.5s-18.167 -138.167 -55.5 -199.5l-71 -70l-14 14c37.333 60.667 55.833 127 55.5 199s-18.833 141 -55.5 207zM842 648l14 -14c35.333 -60 53 -126.333 53 -199
c0 -53.333 -10.167 -104.166 -30.5 -152.499s-48.833 -90.833 -85.5 -127.5l-71 -71c-36.667 -36 -78.667 -64 -126 -84s-97.333 -30 -150 -30s-102.667 10 -150 30s-89 48 -125 84l-15 15c-36.667 36.667 -65.167 79.167 -85.5 127.5s-30.5 99.166 -30.5 152.499
c0 72 17.667 138.333 53 199l70 70l14 -14c-34.667 -60 -52 -126.333 -52 -199c0 -51.333 9.5 -100.5 28.5 -147.5s45.833 -88.833 80.5 -125.5c36 -34 77 -60.5 123 -79.5s94.667 -28.5 146 -28.5c88 0 167.333 27.333 238 82c55.333 71.333 83 152.333 83 243
c0 72 -17.333 138.333 -52 199z" />
    <glyph glyph-name="uniFB2B" unicode="&#xfb2b;" horiz-adv-x="948" 
d="M265 615l-71 71l71 70l70 -70zM461 648l14 -14c36.667 -66 55.167 -134.833 55.5 -206.5s-18.167 -138.167 -55.5 -199.5l-71 -70l-14 14c37.333 60.667 55.833 127 55.5 199s-18.833 141 -55.5 207zM842 648l14 -14c35.333 -60 53 -126.333 53 -199
c0 -53.333 -10.167 -104.166 -30.5 -152.499s-48.833 -90.833 -85.5 -127.5l-71 -71c-36.667 -36 -78.667 -64 -126 -84s-97.333 -30 -150 -30s-102.667 10 -150 30s-89 48 -125 84l-15 15c-36.667 36.667 -65.167 79.167 -85.5 127.5s-30.5 99.166 -30.5 152.499
c0 72 17.667 138.333 53 199l70 70l14 -14c-34.667 -60 -52 -126.333 -52 -199c0 -51.333 9.5 -100.5 28.5 -147.5s45.833 -88.833 80.5 -125.5c36 -34 77 -60.5 123 -79.5s94.667 -28.5 146 -28.5c88 0 167.333 27.333 238 82c55.333 71.333 83 152.333 83 243
c0 72 -17.333 138.333 -52 199z" />
    <glyph glyph-name="uniFB2C" unicode="&#xfb2c;" horiz-adv-x="948" 
d="M737 615l-70 71l70 70l71 -70zM461 648l14 -14c36.667 -66 55.167 -134.833 55.5 -206.5s-18.167 -138.167 -55.5 -199.5l-71 -70l-14 14c37.333 60.667 55.833 127 55.5 199s-18.833 141 -55.5 207zM842 648l14 -14c35.333 -60 53 -126.333 53 -199
c0 -53.333 -10.167 -104.166 -30.5 -152.499s-48.833 -90.833 -85.5 -127.5l-71 -71c-36.667 -36 -78.667 -64 -126 -84s-97.333 -30 -150 -30s-102.667 10 -150 30s-89 48 -125 84l-15 15c-36.667 36.667 -65.167 79.167 -85.5 127.5s-30.5 99.166 -30.5 152.499
c0 72 17.667 138.333 53 199l70 70l14 -14c-34.667 -60 -52 -126.333 -52 -199c0 -51.333 9.5 -100.5 28.5 -147.5s45.833 -88.833 80.5 -125.5c36 -34 77 -60.5 123 -79.5s94.667 -28.5 146 -28.5c88 0 167.333 27.333 238 82c55.333 71.333 83 152.333 83 243
c0 72 -17.333 138.333 -52 199zM663 222l-78 78l78 78l78 -78z" />
    <glyph glyph-name="uniFB2D" unicode="&#xfb2d;" horiz-adv-x="948" 
d="M265 615l-71 71l71 70l70 -70zM461 648l14 -14c36.667 -66 55.167 -134.833 55.5 -206.5s-18.167 -138.167 -55.5 -199.5l-71 -70l-14 14c37.333 60.667 55.833 127 55.5 199s-18.833 141 -55.5 207zM842 648l14 -14c35.333 -60 53 -126.333 53 -199
c0 -53.333 -10.167 -104.166 -30.5 -152.499s-48.833 -90.833 -85.5 -127.5l-71 -71c-36.667 -36 -78.667 -64 -126 -84s-97.333 -30 -150 -30s-102.667 10 -150 30s-89 48 -125 84l-15 15c-36.667 36.667 -65.167 79.167 -85.5 127.5s-30.5 99.166 -30.5 152.499
c0 72 17.667 138.333 53 199l70 70l14 -14c-34.667 -60 -52 -126.333 -52 -199c0 -51.333 9.5 -100.5 28.5 -147.5s45.833 -88.833 80.5 -125.5c36 -34 77 -60.5 123 -79.5s94.667 -28.5 146 -28.5c88 0 167.333 27.333 238 82c55.333 71.333 83 152.333 83 243
c0 72 -17.333 138.333 -52 199zM663 222l-78 78l78 78l78 -78z" />
    <glyph glyph-name="uniFB2E" unicode="&#xfb2e;" horiz-adv-x="797" 
d="M530 -167h-325l-12 12l57 56h325l12 -11zM53 578l64 64l440 -439c54 57.333 84.667 120.666 92 189.999c5.33301 59.333 -6.66699 117.333 -36 174l75 75l14 -14c27.333 -51.333 37.666 -111 30.999 -179c-6.66699 -72 -38 -136 -94 -192l-68 -68l166 -167l-64 -64
l-439 439c-54 -57.333 -84.667 -120.666 -92 -189.999c-5.33301 -59.333 6.66699 -117.333 36 -174l-75 -75l-14 14c-27.333 51.333 -37.666 111 -30.999 179c6.66699 72 38 136 94 192l68 68z" />
    <glyph glyph-name="uniFB2F" unicode="&#xfb2f;" horiz-adv-x="797" 
d="M356 -337v142l28 28h-179l-12 12l57 56h325l12 -11l-57 -57h-106v-124l-57 -57zM53 578l64 64l440 -439c54 57.333 84.667 120.666 92 189.999c5.33301 59.333 -6.66699 117.333 -36 174l75 75l14 -14c27.333 -51.333 37.666 -111 30.999 -179
c-6.66699 -72 -38 -136 -94 -192l-68 -68l166 -167l-64 -64l-439 439c-54 -57.333 -84.667 -120.666 -92 -189.999c-5.33301 -59.333 6.66699 -117.333 36 -174l-75 -75l-14 14c-27.333 51.333 -37.666 111 -30.999 179c6.66699 72 38 136 94 192l68 68z" />
    <glyph glyph-name="uniFB30" unicode="&#xfb30;" horiz-adv-x="797" 
d="M297 70l-78 78l78 78l78 -78zM53 578l64 64l440 -439c54 57.333 84.667 120.666 92 189.999c5.33301 59.333 -6.66699 117.333 -36 174l75 75l14 -14c27.333 -51.333 37.666 -111 30.999 -179c-6.66699 -72 -38 -136 -94 -192l-68 -68l166 -167l-64 -64l-439 439
c-54 -57.333 -84.667 -120.666 -92 -189.999c-5.33301 -59.333 6.66699 -117.333 36 -174l-75 -75l-14 14c-27.333 51.333 -37.666 111 -30.999 179c6.66699 72 38 136 94 192l68 68z" />
    <glyph glyph-name="uniFB31" unicode="&#xfb31;" horiz-adv-x="774" 
d="M359 222l-78 78l78 78l78 -78zM49 264l-14 13.999c0 80 28.667 148.667 86 206l71 70c58.667 58.667 130 88 214 88c90.667 0 166.667 -30.333 228 -91c57.333 -57.333 86 -129.666 86 -216.999c0 -39.333 -8.66699 -78.166 -26 -116.499s-40 -71.5 -68 -99.5l-55 -56
h135l14 -14l-71 -70h-600l-14 14l71 70h452l-8 8c56.667 65.333 84.667 137 84 215c0 79.333 -24.667 143.666 -74 192.999c-53.333 53.333 -123.666 80 -210.999 80c-64.667 0 -123.334 -18.667 -176.001 -56c-35.333 -50.667 -53 -106.667 -53 -168z" />
    <glyph glyph-name="uniFB32" unicode="&#xfb32;" horiz-adv-x="636" 
d="M249 222l-78 78l78 78l78 -78zM69 510l71 70c42.667 41.333 95.667 62 159 62c54 0 99.667 -18.667 137 -56c12 -12 22.167 -25.5 30.5 -40.5s15 -28.5 20 -40.5s9.66699 -29.833 14 -53.5s7.16602 -41.334 8.49902 -53.001s3.66602 -33.5 6.99902 -65.5
c8.66699 -74 20 -135 34 -183s37.333 -91 70 -129l-64 -63l-14 14c-38 44 -65 101 -81 171l-35 -35c-47.333 -47.333 -91.166 -82.166 -131.499 -104.499s-84.166 -33.5 -131.499 -33.5c-48 0 -87.333 15.333 -118 46c-18 18 -29.667 38 -35 60l71 71l14 -14
c4 -18 11.667 -32.667 23 -44c22.667 -22.667 56.334 -34 101.001 -34c42.667 0 82.5 9.16699 119.5 27.5s75.833 46.5 116.5 84.5c-5.33301 29.333 -11 68.333 -17 117c-6.66699 60 -14.834 108.167 -24.501 144.5s-25.5 65.5 -47.5 87.5c-28 28 -68 42 -120 42
c-64 0 -118.333 -20.667 -163 -62z" />
    <glyph glyph-name="uniFB33" unicode="&#xfb33;" horiz-adv-x="698" 
d="M267 222l-78 78l78 78l78 -78zM6 572l70.001 70c196 -26.667 397.333 -26.667 604 0l14 -14l-70 -70c-21.333 -3.33301 -42.333 -6 -63 -8l1 -2c-34.667 -37.333 -58.334 -87.333 -71.001 -150c-8 -37.333 -12 -88.666 -12 -153.999v-216l-70 -70l-14 14v216
c0 64.667 3.66699 115.667 11 153c13.333 63.333 37.333 113.666 72 150.999l55 55c-172.667 -16.667 -343.667 -13 -513 11z" />
    <glyph glyph-name="uniFB34" unicode="&#xfb34;" horiz-adv-x="788" 
d="M392 222l-78 78l78 78l78 -78zM132 338l14 -13.999c27.333 -42.667 40.833 -90.834 40.5 -144.501s-13.833 -103.5 -40.5 -149.5l-73 -72l-14 14c26.667 45.333 40.167 94.833 40.5 148.5s-13.167 102.167 -40.5 145.5zM45 492.001l71 71.001
c38.667 27.333 79.167 47.333 121.5 60s90.5 19 144.5 19c104 0 187.333 -31 250 -93l14 -14c30.667 -30.667 53.667 -66 69 -106s23 -81 23 -123c0 -88.667 -29.667 -181.334 -89 -278.001l-71 -70l-14 14c59.333 96 89 188.667 89 278c0 40 -7.16699 79.333 -21.5 118
s-35.5 73 -63.5 103c-62 58 -142.667 87 -242 87c-54.667 0 -103.167 -6.5 -145.5 -19.5s-82.833 -33.167 -121.5 -60.5z" />
    <glyph glyph-name="uniFB35" unicode="&#xfb35;" horiz-adv-x="364" 
d="M80 222l-78 78l78 78l78 -78zM250 654l14 -14v-612l-70 -70l-14 14v612z" />
    <glyph glyph-name="uniFB36" unicode="&#xfb36;" horiz-adv-x="486" 
d="M85 222l-78 78l78 78l78 -78zM70 572l70 69.999c111.333 -35.333 215.333 -35.333 312 0l14 -14l-70 -70c-16 -6 -32 -11 -48 -15c-32.667 -37.333 -55 -85.666 -67 -144.999c-8 -37.333 -12 -88.666 -12 -153.999v-216l-70 -70l-14 14v216
c0 64.667 3.66699 115.667 11 153c13.333 63.333 37.333 113.666 72 150.999l44 44c-72 -11.333 -148 -4 -228 22z" />
    <glyph glyph-name="uniFB37" unicode="&#xfb37;" horiz-adv-x="822" 
d="M409 222l-78 78l78 78l78 -78zM80 492l69.999 71.001c38.667 27.333 79.167 47.333 121.5 60s90.833 19 145.5 19c104 0 187 -31 249 -93l14 -14c30.667 -30.667 53.834 -66 69.501 -106s23.5 -81 23.5 -123c0 -88.667 -30 -181.334 -90 -278.001l-71 -70l-14 14
c60 96 90 188.667 90 278c0 40 -7.16699 79.333 -21.5 118s-35.833 73 -64.5 103c-61.333 58 -142 87 -242 87c-79.333 0 -148.666 -15 -207.999 -45l12 -12v-473l-70 -70l-14 14v473l64 64c-16.667 -8.66699 -33.334 -19 -50.001 -31z" />
    <glyph glyph-name="uniFB38" unicode="&#xfb38;" horiz-adv-x="792" 
d="M434 196l-78 78l78 78l78 -78zM121 648l13.9971 -14c2 -282.667 55 -478.667 159 -588c0.666992 -1.33301 1.66699 -2.66602 3 -3.99902c126.667 0 226.667 26.333 300 79c16 22.667 29 47.667 39 75c20 50 26 104.333 18 163s-29.333 106.667 -64 144
c-39.333 36.667 -88.666 55 -147.999 55c-28.667 0 -54 -6 -76 -18c-12.667 -22.667 -20.667 -46 -24 -70l-71 -70l-14 14c5.33301 42.667 23.666 79.667 54.999 111l72 72c30.667 30 68.667 45 114 45c64.667 0 119.334 -22 164.001 -66c38.667 -39.333 63.5 -89 74.5 -149
s5.83301 -118.333 -15.5 -175c-16.667 -44 -40.667 -81.333 -72 -112l-71 -71c-37.333 -38 -84.666 -66 -141.999 -84s-119 -27 -185 -27c-7.33301 6 -15.666 14 -24.999 24c-111.333 111.333 -168.333 311.666 -171 600.999z" />
    <glyph glyph-name="uniFB39" unicode="&#xfb39;" horiz-adv-x="354" 
d="M77 295l-78 78l78 78l78 -78zM250 654l14 -14v-310l-70 -70l-14 14v310z" />
    <glyph glyph-name="uniFB3A" unicode="&#xfb3a;" horiz-adv-x="722" 
d="M316 222l-78 78l78 78l78 -78zM31 477l70.001 70c71.333 63.333 158.666 95 261.999 95c45.333 0 88 -8 128 -24s73.667 -38 101 -66l14 -14h1c50 -50.667 75 -116.334 75 -197.001c0 -43.333 -8.66699 -84.166 -26 -122.499s-40.333 -71.833 -69 -100.5
c-32.667 -32.667 -56.334 -68.334 -71.001 -107.001c-10.667 -28.667 -16 -65.667 -16 -111v-272l-70 -70l-14 14v272c0 45.333 5 82.333 15 111c14.667 38.667 38.334 74.334 71.001 107.001c28.667 28.667 51.834 62 69.501 100s26.5 79 26.5 123
c0 76 -23.333 139.333 -70 190c-27.333 25.333 -60.333 45.5 -99 60.5s-79.334 22.5 -122.001 22.5c-104 0 -191.333 -31.667 -262 -95z" />
    <glyph glyph-name="uniFB3B" unicode="&#xfb3b;" horiz-adv-x="686" 
d="M297 222l-78 78l78 78l78 -78zM37 501l70.001 70.999c28.667 22 63 39.167 103 51.5s80.667 18.5 122 18.5c91.333 0 166.666 -29.333 225.999 -88l14 -14v-1c55.333 -55.333 83 -123.666 83 -204.999c0 -78.667 -27.333 -145.667 -82 -201l-71 -70
c-29.333 -30 -64.333 -53 -105 -69s-84.667 -24 -132 -24c-89.333 0 -166 28 -230 84l-14 14l70 70c64 -56 141 -84 231 -84c75.333 0 141.333 20.333 198 61c34 48 51 102 51 162c0 78 -25.667 144.333 -77 199c-58 54.667 -131 82 -219 82
c-40.667 0 -81 -6.33301 -121 -19s-74.333 -30 -103 -52z" />
    <glyph glyph-name="uniFB3C" unicode="&#xfb3c;" horiz-adv-x="686" 
d="M293 222l-78 78l78 78l78 -78zM108 3l71.001 71c40.667 -13.333 86 -20 136 -20c75.333 0 141.333 20.333 198 61c34 48 51 102 51 162c0 78 -25.667 144.333 -77 199c-58.667 54.667 -131.667 82 -219 82c-75.333 0 -143 -16 -203 -48l-14 14v249l70 70l14 -14v-227
c57.333 26.667 120.666 40 189.999 40c91.333 0 166.333 -29.333 225 -88h1l14 -14c55.333 -56 83 -124.667 83 -206c0 -78.667 -27.333 -145.667 -82 -201l-71 -70c-29.333 -30 -64.333 -53 -105 -69s-84.667 -24 -132 -24c-50 0 -95.333 6.33301 -136 19z" />
    <glyph glyph-name="uniFB3D" unicode="&#xfb3d;" horiz-adv-x="763" 
d="M392 222l-78 78l78 78l78 -78zM140 -8l69.999 70.001h414l3 3v224c0 66 -7.33301 115.333 -22 148c-8 18 -19.667 35.333 -35 52c-16.667 15.333 -35.334 28.333 -56.001 39c-53.333 26.667 -113.666 40 -180.999 40c-62 0 -121.667 -10 -179 -30l12 -13v-497l-70 -70
l-14 14v497l67 68c-29.333 -11.333 -57.666 -25 -84.999 -41l-14 14l55 55c78.667 51.333 173.667 77 285 77c66.667 0 126.667 -13.333 180 -40c24 -11.333 45.333 -26.333 64 -45l14 -14c18.667 -18.667 32.667 -38.334 42 -59.001c14.667 -33.333 22 -83 22 -149v-213
l-10 -10l-26 -26l-1 -2h-1l-70 -71l-36 -35h-414z" />
    <glyph glyph-name="uniFB3E" unicode="&#xfb3e;" horiz-adv-x="802" 
d="M422 222l-78 78l78 78l78 -78zM66 -42l-13.999 14.0039c31.333 92.667 48.666 192.667 51.999 300c4 104 -6.33301 204 -31 300l71 70l14 -14c10.667 -40.667 18.667 -81.334 24 -122.001l57 58c26.667 24 59.334 43 98.001 57s77.667 21 117 21
c42 0 83 -7.66699 123 -23s74 -37.333 102 -66l14 -14c31.333 -30.667 53 -71.334 65 -122.001s12.333 -105.667 1 -165c-11.333 -62.667 -36.333 -113.334 -75 -152.001l-71 -71c-19.333 -19.333 -42.5 -34 -69.5 -44s-54.5 -15 -82.5 -15
c-71.333 0 -128.333 15.333 -171 46l-14 14l70 71c43.333 -31.333 100.333 -47 171 -47c42 0 80.333 10.333 115 31c20.667 33.333 35 70.333 43 111c10 56.667 9.66699 109.667 -1 159s-30.334 89.666 -59.001 120.999c-28 26 -61.333 46.167 -100 60.5s-78 21.5 -118 21.5
c-38.667 0 -77 -6.83301 -115 -20.5s-70.333 -32.5 -97 -56.5c4.66699 -48.667 6 -99.667 4 -153c-4 -106.667 -21.333 -206.667 -52 -300z" />
    <glyph glyph-name="uniFB3F" unicode="&#xfb3f;" horiz-adv-x="344" 
d="M80 222l-78 78l78 78l78 -78zM240 654l15 -14v-1012l-71 -70l-14 14v1012z" />
    <glyph glyph-name="uniFB40" unicode="&#xfb40;" horiz-adv-x="507" 
d="M193 222l-78 78l78 78l78 -78zM18 -8l70 70h252l-3 3l-1 277c0 60.667 -2.33301 103.667 -7 129c-4 22 -13.667 40.667 -29 56c-22.667 22.667 -57.667 34 -105 34c-46 0 -89.333 -16 -130 -48l-14 14l71 71c20 16 39.167 27.333 57.5 34s41.833 10 70.5 10
c49.333 0 89.333 -15.333 120 -46c22 -22 36 -47.5 42 -76.5s9 -73.833 9 -134.5v-263l-66 -66l7 -8l-70 -70h-260z" />
    <glyph glyph-name="uniFB41" unicode="&#xfb41;" horiz-adv-x="785" 
d="M400 222l-78 78l78 78l78 -78zM103 488l71 71.001c67.333 55.333 147 83 239 83c102.667 0 183 -28.667 241 -86l14 -14v-1c54.667 -54.667 82 -128 82 -220c0 -77.333 -25.333 -141.333 -76 -192l-71 -70c-59.333 -59.333 -141.333 -89 -246 -89
c-94 0 -168.667 27.667 -224 83l-14 14c-50 50 -75 112.333 -75 187c0 65.333 27.333 125.666 82 180.999l71 70l14 -14c-54.667 -54.667 -82 -115 -82 -181c0 -70 22.667 -129.667 68 -179c55.333 -51.333 127.333 -77 216 -77c82.667 0 152 19 208 57
c29.333 44.667 44 96 44 154c0 88 -25 159 -75 213c-57.333 53.333 -135 80 -233 80c-92 0 -171.667 -28 -239 -84z" />
    <glyph glyph-name="uniFB42" unicode="&#xfb42;" horiz-adv-x="756" 
d="M410 292l-78 78l78 78l78 -78zM702 654l13.9961 -14c-4.66699 -86 -16.334 -173.667 -35.001 -263s-44 -157.666 -76 -204.999c-10 -14.667 -21.333 -28.334 -34 -41.001l-70 -71h-1c-25.333 -25.333 -55.166 -45.333 -89.499 -60s-70.166 -23.5 -107.499 -26.5
s-73.666 -3 -108.999 0s-71.666 9.16699 -108.999 18.5l-14 14l71 70c160.667 -37.333 286.334 -25 377.001 37c32 47.333 57.5 115.833 76.5 205.5s30.833 178.167 35.5 265.5zM212.996 143c38 -38 76.667 -67.668 116 -89.001l66 66l-14 14
c-42 22.667 -73.667 45.334 -95 68.001c-49.333 50.667 -85 113 -107 187s-36.333 157.667 -43 251l-14 14l-66 -65c6.66699 -96 21.5 -181.5 44.5 -256.5s60.5 -138.167 112.5 -189.5z" />
    <glyph glyph-name="uniFB43" unicode="&#xfb43;" horiz-adv-x="735" 
d="M426 222l-78 78l78 78l78 -78zM566 -442l-14.001 14.001c-24 73.333 -30.667 166.333 -20 279c2.66699 34.667 10.167 74.667 22.5 120s23.5 91.166 33.5 137.499s15 92.833 15 139.5c0 94 -27.333 170.333 -82 229c-58 54 -126.333 81 -205 81
c-66 0 -122.667 -15 -170 -45c-20.667 -33.333 -31 -70.333 -31 -111c0 -60.667 20 -111 60 -151s90.333 -60 151 -60l14 -14l-70 -71c-63.333 0 -119 24 -167 72s-72 103.667 -72 167c0 59.333 20 109.333 60 150l71 71c51.333 50.667 121.333 76 210 76
c82.667 0 153.334 -29 212.001 -87l14 -15c58.667 -58.667 88 -129.334 88 -212.001c0 -45.333 -5.16699 -92.333 -15.5 -141s-22 -97.167 -35 -145.5s-21.167 -89.833 -24.5 -124.5c-4.66699 -52.667 -4.66699 -104.667 0 -156s13 -95.666 25 -132.999z" />
    <glyph glyph-name="uniFB44" unicode="&#xfb44;" horiz-adv-x="757" 
d="M484 222l-78 78l78 78l78 -78zM348 261l-71.002 -69.999c-74.667 0 -135.667 23.667 -183 71c-30 30 -45 66 -45 108c0 46.667 17 87 51 121l71 71l1 1c54 52.667 128 79 222 79s171.333 -30 232 -90l14 -14v0c55.333 -55.333 83 -123.333 83 -204
c0 -78 -27.333 -144.333 -82 -199l-71 -71c-30 -30 -65.833 -53.167 -107.5 -69.5s-86.5 -24.5 -134.5 -24.5c-49.333 0 -95.666 8.66699 -138.999 26s-80.666 41.333 -111.999 72l-14 14l-15 16l70 71l14 -14l8 -8c31.333 -28.667 68 -51.334 110 -68.001
s86.667 -25 134 -25c77.333 0 145.333 20.667 204 62c33.333 48 50 101.667 50 161c0 77.333 -25.333 143 -76 197c-59.333 56 -134 84 -224 84c-71.333 0 -132.333 -16 -183 -48c-14.667 -25.333 -22 -53.333 -22 -84c0 -38 11.667 -68.667 35 -92
c18 -18 42 -32.333 72 -43s61.333 -16 94 -16z" />
    <glyph glyph-name="uniFB45" unicode="&#xfb45;" horiz-adv-x="709" 
d="M378 335l-78 78l78 78l78 -78zM91 648l14.001 -14c14 -66 40.167 -132.833 78.5 -200.5s80.833 -126.834 127.5 -177.501c47.333 -51.333 86 -99.333 116 -144c59.333 75.333 97.833 152.333 115.5 231s11.167 152 -19.5 220l86 85l14 -14
c22 -45.333 30.5 -95.5 25.5 -150.5s-20.167 -110.333 -45.5 -166s-58.666 -108.834 -99.999 -159.501l-64 -64c88.667 -141.333 116.667 -296.666 84 -465.999l-63 -62l-14 14c9.33301 46.667 14.166 91.667 14.499 135s-3.83398 83.833 -12.501 121.5s-19.5 73 -32.5 106
s-29.833 65.5 -50.5 97.5s-41 60.833 -61 86.5s-43.333 52.834 -70 81.501c-46.667 50.667 -89.167 109.667 -127.5 177s-64.5 134.333 -78.5 201z" />
    <glyph glyph-name="uniFB46" unicode="&#xfb46;" horiz-adv-x="740" 
d="M271 74l-78 78l78 78l78 -78zM597 62c18 17.333 23.666 36.665 16.999 57.998c-5.33301 15.333 -17.5 27.666 -36.5 36.999s-47.5 18 -85.5 26c-44.667 9.33301 -78.667 17.333 -102 24c-82 21.333 -151 58.333 -207 111
c-71.333 66.667 -118.666 155.334 -141.999 266.001l64 64l14 -14c11.333 -52 25.166 -95.667 41.499 -131s41.166 -70 74.499 -104c30 -31.333 60.833 -55.166 92.5 -71.499s69.5 -30.5 113.5 -42.5c14.667 -4 33.334 -8.33301 56.001 -13c36 46 59.5 93.833 70.5 143.5
s8.5 98.834 -7.5 147.501l85 85l14 -14c16.667 -48 16.5 -100.5 -0.5 -157.5s-45.5 -109.833 -85.5 -158.5l-51 -51l20 -5c48.667 -10.667 85.334 -28.334 110.001 -53.001c19.333 -18.667 30.333 -40.667 33 -66s-5.66602 -48.666 -24.999 -69.999l-70 -71
c-16.667 -16 -38.334 -24 -65.001 -24h-476l-14 14l70 70h492z" />
    <glyph glyph-name="uniFB47" unicode="&#xfb47;" horiz-adv-x="795" 
d="M415 222l-78 78l78 78l78 -78zM171 -430l-14 14v600l71 71l14 -14v-600zM40 266l-14.999 13.998c0 77.333 32.333 148 97 212l71 71c53.333 52.667 127.666 79.334 222.999 80.001c98 0 176.333 -26.667 235 -80l10 -10l14 -14v0c50 -50 75 -117.333 75 -202
c0 -83.333 -29.333 -154 -88 -212l-70 -71c-27.333 -27.333 -61.5 -48.833 -102.5 -64.5s-83.5 -23.5 -127.5 -23.5l-15 14l71 71c73.333 0 138 19.333 194 58c35.333 49.333 53 106.666 53 171.999c0 80.667 -22.667 145.334 -68 194.001l-3 3
c-58.667 53.333 -137 80 -235 80c-76 0 -139 -17.333 -189 -52c-40 -53.333 -60 -109.666 -60 -168.999z" />
    <glyph glyph-name="uniFB48" unicode="&#xfb48;" horiz-adv-x="758" 
d="M356 222l-78 78l78 78l78 -78zM39 318l-14.002 14.001c12 58.667 39.333 109.334 82 152.001l71 70v1c58.667 58 129.334 87 212.001 87s153.334 -29 212.001 -87l15 -15c58 -58.667 87 -131.334 87 -218.001c0 -58.667 -7.5 -111.334 -22.5 -158.001
s-36.167 -92 -63.5 -136l-71 -70l-14 14c57.333 96 86 196 86 300c0 78.667 -27 147 -81 205c-57.333 54 -125.666 81 -204.999 81c-64 0 -121.667 -18.667 -173 -56c-24.667 -34.667 -41.334 -72.667 -50.001 -114z" />
    <glyph glyph-name="uniFB49" unicode="&#xfb49;" horiz-adv-x="948" 
d="M663 222l-78 78l78 78l78 -78zM461 648l14 -14c36.667 -66 55.167 -134.833 55.5 -206.5s-18.167 -138.167 -55.5 -199.5l-71 -70l-14 14c37.333 60.667 55.833 127 55.5 199s-18.833 141 -55.5 207zM842 648l14 -14c35.333 -60 53 -126.333 53 -199
c0 -53.333 -10.167 -104.166 -30.5 -152.499s-48.833 -90.833 -85.5 -127.5l-71 -71c-36.667 -36 -78.667 -64 -126 -84s-97.333 -30 -150 -30s-102.667 10 -150 30s-89 48 -125 84l-15 15c-36.667 36.667 -65.167 79.167 -85.5 127.5s-30.5 99.166 -30.5 152.499
c0 72 17.667 138.333 53 199l70 70l14 -14c-34.667 -60 -52 -126.333 -52 -199c0 -51.333 9.5 -100.5 28.5 -147.5s45.833 -88.833 80.5 -125.5c36 -34 77 -60.5 123 -79.5s94.667 -28.5 146 -28.5c88 0 167.333 27.333 238 82c55.333 71.333 83 152.333 83 243
c0 72 -17.333 138.333 -52 199z" />
    <glyph glyph-name="uniFB4A" unicode="&#xfb4a;" horiz-adv-x="842" 
d="M467 222l-78 78l78 78l78 -78zM-15 14l71 71c20 -20 45.667 -30 77 -30h3c11.333 32.667 18.333 78.334 21 137.001c3.33301 74 0 163 -10 267l71 71l14 -14c10 -104.667 13.333 -193.667 10 -267c-4.66699 -96.667 -21.334 -159.334 -50.001 -188.001l-71 -71
c-13.333 -13.333 -33.333 -20 -60 -20c-16.667 0 -31.667 3.83301 -45 11.5s-23.666 18.5 -30.999 32.5zM51 459l70.001 70c82.667 75.333 192.667 113 330 113c51.333 0 98 -8.16699 140 -24.5s77 -38.5 105 -66.5l14 -14l1 -1c30 -30 53 -63.5 69 -100.5
s25 -73.5 27 -109.5c2 -44.667 -3.33301 -89 -16 -133c-16.667 -56.667 -41.334 -111.667 -74.001 -165l-71 -70l-14 14c32.667 52.667 57.334 107.667 74.001 165c12.667 44 18 88.333 16 133c-1.33301 34 -9.5 68.833 -24.5 104.5s-36.5 68.5 -64.5 98.5
c-61.333 56.667 -141 85 -239 85c-136.667 0 -246.334 -37.667 -329.001 -113z" />
    <glyph glyph-name="uniFB4B" unicode="&#xfb4b;" horiz-adv-x="284" 
d="M76 615l-71 71l71 70l71 -70zM170 654l14 -14v-612l-70 -70l-14 14v612z" />
    <glyph glyph-name="uniFB4C" unicode="&#xfb4c;" horiz-adv-x="774" 
d="M199 717l57 57h325l12 -11l-57 -57h-325zM49 264l-14 13.999c0 80 28.667 148.667 86 206l71 70c58.667 58.667 130 88 214 88c90.667 0 166.667 -30.333 228 -91c57.333 -57.333 86 -129.666 86 -216.999c0 -39.333 -8.66699 -78.166 -26 -116.499s-40 -71.5 -68 -99.5
l-55 -56h135l14 -14l-71 -70h-600l-14 14l71 70h452l-8 8c56.667 65.333 84.667 137 84 215c0 79.333 -24.667 143.666 -74 192.999c-53.333 53.333 -123.666 80 -210.999 80c-64.667 0 -123.334 -18.667 -176.001 -56c-35.333 -50.667 -53 -106.667 -53 -168z" />
    <glyph glyph-name="uniFB4D" unicode="&#xfb4d;" horiz-adv-x="686" 
d="M143 717l57 57h325l12 -11l-57 -57h-325zM37 501l70.001 70.999c28.667 22 63 39.167 103 51.5s80.667 18.5 122 18.5c91.333 0 166.666 -29.333 225.999 -88l14 -14v-1c55.333 -55.333 83 -123.666 83 -204.999c0 -78.667 -27.333 -145.667 -82 -201l-71 -70
c-29.333 -30 -64.333 -53 -105 -69s-84.667 -24 -132 -24c-89.333 0 -166 28 -230 84l-14 14l70 70c64 -56 141 -84 231 -84c75.333 0 141.333 20.333 198 61c34 48 51 102 51 162c0 78 -25.667 144.333 -77 199c-58 54.667 -131 82 -219 82
c-40.667 0 -81 -6.33301 -121 -19s-74.333 -30 -103 -52z" />
    <glyph glyph-name="uniFB4E" unicode="&#xfb4e;" horiz-adv-x="757" 
d="M205 717l57 57h325l12 -11l-57 -57h-325zM348 261l-71.002 -69.999c-74.667 0 -135.667 23.667 -183 71c-30 30 -45 66 -45 108c0 46.667 17 87 51 121l71 71l1 1c54 52.667 128 79 222 79s171.333 -30 232 -90l14 -14v0c55.333 -55.333 83 -123.333 83 -204
c0 -78 -27.333 -144.333 -82 -199l-71 -71c-30 -30 -65.833 -53.167 -107.5 -69.5s-86.5 -24.5 -134.5 -24.5c-49.333 0 -95.666 8.66699 -138.999 26s-80.666 41.333 -111.999 72l-14 14l-15 16l70 71l14 -14l8 -8c31.333 -28.667 68 -51.334 110 -68.001
s86.667 -25 134 -25c77.333 0 145.333 20.667 204 62c33.333 48 50 101.667 50 161c0 77.333 -25.333 143 -76 197c-59.333 56 -134 84 -224 84c-71.333 0 -132.333 -16 -183 -48c-14.667 -25.333 -22 -53.333 -22 -84c0 -38 11.667 -68.667 35 -92
c18 -18 42 -32.333 72 -43s61.333 -16 94 -16z" />
    <glyph glyph-name="uniFB4F" unicode="&#xfb4f;" horiz-adv-x="747" 
d="M141 568l-0.000976562 260.999l-14 14l-71 -70v-249l337 -337l230 -229l64 64l-166 167l68 68c56 56 87.333 120 94 192c6.66699 68 -3.66602 127.667 -30.999 179l-14 14l-75 -75c29.333 -56.667 41.333 -114.667 36 -174c-7.33301 -69.333 -38 -132.666 -92 -189.999z
" />
    <glyph glyph-name=".null" 
 />
    <glyph glyph-name="nonmarkingreturn" horiz-adv-x="333" 
 />
  </font>
</defs>
</svg>
