<svg xmlns="http://www.w3.org/2000/svg">
<defs>
<font id="Dragon" horiz-adv-x="433" >
  <font-face 
    font-family="Dragon"
    font-weight="400"
    font-stretch="normal"
    units-per-em="1000"
    panose-1="0 0 4 0 0 0 0 0 0 0"
    ascent="800"
    descent="-200"
    bbox="1.69231 -354.333 897 816"
    underline-thickness="50"
    underline-position="-158"
    unicode-range="U+0020-20AA"
  />
<missing-glyph horiz-adv-x="922" 
d="M362 799v0q9 -6 12 -22q0 -3 -1 -10v-7q-2 -6 -1 -5q-2 0 -5 -1h-3h-1v1t-1 1l-1 -1l-2 -2q0 -1 -1 -4v-3t1 -1h2h10q-5 -25 -3 -39q4 -20 21 -24q24 -5 58 -3q-2 -8 -2 -11q0 -6 -3 -22q-4 -18 -8 -31q-6 -15 -37 -35q-4 -2 -9 -3l-1 -1h-1v-1q2 -2 1 -1v0q17 -6 38 9
q18 12 24 29q2 3 4 13q3 11 5 22q5 22 5 21q1 3 2 7v3q0 1 1 2h5l1 1v1v4q1 -3 -1 5v4q-1 2 -3 3h-4q-2 0 -12 -3q0 1 -34 -4q-11 -1 -19 2q-10 3 -12 14q-3 15 3 38v0v0q0 1 1 3q27 3 43 1q23 -2 29 -14v0q0 9 -6 20q-2 5 -5 8q-2 4 -5 3q-4 0 -16 -3q-2 -1 -14 -2
q-14 -2 -26 -3q1 8 2 18v9q-1 5 -2 6l-2 1q1 0 -3 2q-4 1 -10 3q-6 1 -14 2v0v1v-1zM641 698q-2 0 -1 -2v0q1 -5 2 -9t2 -7q2 -4 3 -5q2 -3 3 -12v-2l-7 -7v-1q-1 -3 0 -4q1 -2 3 -2q1 0 4 1q0 -11 -1 -18v-14q-1 -5 -3 -18v-1q-1 -1 -1 -2q-1 -1 0 -2q0 -2 2 -4q1 -2 3 -5
q4 -7 7 -10q1 -1 2 -1q2 -1 3 0t3 4q1 1 1 4q1 2 0 5q0 3 -1 9q0 1 -1 3v7q0 8 1 17v17v10v6h1q18 21 38 19q9 0 16 -7q8 -8 10 -23q1 -14 1 -34q-2 -9 -2 -8l-1 -2q-4 -8 -11 -10q-2 -1 -3 -1q-2 0 -3 -1h-2q-2 6 -5 14q-1 1 -2 3q-3 6 -1 3v0l-11 15q-1 1 -2 1q-1 -1 0 -2
q0 -1 1 -3q0 -3 1 -4q6 -14 8 -21q0 -1 1 -5q0 -1 1 -2q0 -1 2 -5q3 -4 6 -10q0 -1 2 -2h1h1q8 0 16 4q10 4 12 9h1q2 7 3 10q4 9 7 21q3 22 1 35q-2 18 -7 25v1q-7 9 -16 12v0v0q-9 4 -29 2q-21 -3 -29 -10q-2 -1 -6 -4v1h-1q-1 1 -1 2q-1 1 -1 5q-1 3 -1 4q-2 3 -3 4
q-7 1 -16 7h-1v0zM71 697v-2q0 -1 1 -4t2 -7q2 -4 5 -6q2 -4 5 -4q5 -15 5 -16q5 -12 4 -30q1 3 -1 -15v-16v-1q-14 -2 -31 -9v0l-1 -1v1v1q-1 2 0 7q1 1 2 4v1h-1l-4 -2l-1 -1l-1 -1q0 -1 -1 -2q-1 -2 -1 -3q-3 -7 -3 -12q1 -5 2 -8l2 -2h1v0q7 4 17 6q11 3 16 4q3 1 6 1h2

<glyph glyph-name=".notdef" horiz-adv-x="922" 
d="M362 799v0q9 -6 12 -22q0 -3 -1 -10v-7q-2 -6 -1 -5q-2 0 -5 -1h-3h-1v1t-1 1l-1 -1l-2 -2q0 -1 -1 -4v-3t1 -1h2h10q-5 -25 -3 -39q4 -20 21 -24q24 -5 58 -3q-2 -8 -2 -11q0 -6 -3 -22q-4 -18 -8 -31q-6 -15 -37 -35q-4 -2 -9 -3l-1 -1h-1v-1q2 -2 1 -1v0q17 -6 38 9
q18 12 24 29q2 3 4 13q3 11 5 22q5 22 5 21q1 3 2 7v3q0 1 1 2h5l1 1v1v4q1 -3 -1 5v4q-1 2 -3 3h-4q-2 0 -12 -3q0 1 -34 -4q-11 -1 -19 2q-10 3 -12 14q-3 15 3 38v0v0q0 1 1 3q27 3 43 1q23 -2 29 -14v0q0 9 -6 20q-2 5 -5 8q-2 4 -5 3q-4 0 -16 -3q-2 -1 -14 -2
q-14 -2 -26 -3q1 8 2 18v9q-1 5 -2 6l-2 1q1 0 -3 2q-4 1 -10 3q-6 1 -14 2v0v1v-1zM641 698q-2 0 -1 -2v0q1 -5 2 -9t2 -7q2 -4 3 -5q2 -3 3 -12v-2l-7 -7v-1q-1 -3 0 -4q1 -2 3 -2q1 0 4 1q0 -11 -1 -18v-14q-1 -5 -3 -18v-1q-1 -1 -1 -2q-1 -1 0 -2q0 -2 2 -4q1 -2 3 -5
q4 -7 7 -10q1 -1 2 -1q2 -1 3 0t3 4q1 1 1 4q1 2 0 5q0 3 -1 9q0 1 -1 3v7q0 8 1 17v17v10v6h1q18 21 38 19q9 0 16 -7q8 -8 10 -23q1 -14 1 -34q-2 -9 -2 -8l-1 -2q-4 -8 -11 -10q-2 -1 -3 -1q-2 0 -3 -1h-2q-2 6 -5 14q-1 1 -2 3q-3 6 -1 3v0l-11 15q-1 1 -2 1q-1 -1 0 -2
q0 -1 1 -3q0 -3 1 -4q6 -14 8 -21q0 -1 1 -5q0 -1 1 -2q0 -1 2 -5q3 -4 6 -10q0 -1 2 -2h1h1q8 0 16 4q10 4 12 9h1q2 7 3 10q4 9 7 21q3 22 1 35q-2 18 -7 25v1q-7 9 -16 12v0v0q-9 4 -29 2q-21 -3 -29 -10q-2 -1 -6 -4v1h-1q-1 1 -1 2q-1 1 -1 5q-1 3 -1 4q-2 3 -3 4
q-7 1 -16 7h-1v0zM71 697v-2q0 -1 1 -4t2 -7q2 -4 5 -6q2 -4 5 -4q5 -15 5 -16q5 -12 4 -30q1 3 -1 -15v-16v-1q-14 -2 -31 -9v0l-1 -1v1v1q-1 2 0 7q1 1 2 4v1h-1l-4 -2l-1 -1l-1 -1q0 -1 -1 -2q-1 -2 -1 -3q-3 -7 -3 -12q1 -5 2 -8l2 -2h1v0q7 4 17 6q11 3 16 4q3 1 6 1h2
h1q5 -1 9 1q2 2 2 5q1 6 -4 12v7q0 -1 -1 12q-2 12 -3 24q-2 22 -5 36q13 2 30 2q7 0 29 -5q-2 2 3 -3q3 -3 4 -13q1 -21 -1 -42q-1 -5 -3 -18q0 -2 -1 -2v-1q-1 -1 0 -2q0 -1 1 -4q2 -2 4 -5q3 -6 6 -9q1 -1 2 -1q1 -1 2 0l3 3q0 1 1 4q0 1 -1 4q0 5 -1 10v3v21v16v9
q0 3 1 11q1 11 1 10v3l-2 2q3 -1 4 -1q5 -2 8 -3h4l2 2v3q1 -2 -2 2q-1 2 -5 6q-4 3 -7 5t-5 3q-2 0 -5 -1q-3 -2 -6 -1q-2 1 -12 2q-8 1 -20 2q-24 2 -39 3q-2 3 -2 4h-1h-1q0 -1 -1 -1q0 -1 -2 -3q-5 0 -11 5h-1zM214 697v-1l1 -2v-3q2 -4 3 -8q2 -5 5 -7q1 -1 2 -1
q2 -1 4 0q4 2 14 3q8 1 18 1q1 -2 4 -4q2 -3 3 -13q1 -21 -1 -42l-1 -7q-1 -5 -1 -11l-2 -2v-1v-2t2 -3q1 -3 3 -6l6 -9q1 -1 2 -1h2q1 1 3 4q1 1 1 3v5q-1 4 -2 9v3v6v15v16v9q0 3 1 11q1 12 1 10v3q0 1 -2 2q-1 2 -5 4q10 -1 26 -5q8 -1 12 -2q6 -2 7 -2q5 -3 8 -3h4
q2 1 2 2q1 1 0 3q0 1 -2 2q-1 3 -5 6q-3 3 -7 5q-3 2 -5 3q-2 0 -5 -1q-3 -2 -5 -1q-3 1 -15 3q-9 1 -25 2q-15 1 -24 2h-8h-4q-7 -1 -14 5h-1zM496 697v-1v-2v-3l4 -8q2 -5 4 -7q1 -1 3 -2q1 0 2 1q6 2 20 3q10 1 20 1q5 0 18 -2q10 -2 22 -5q-3 -4 -3 -12q0 -2 2 -8
q1 -6 1 -10q-5 -36 -41 -52q-4 2 -7 7q0 16 1 20q3 16 12 22v1q-3 -1 -7 -2q-5 -1 -7 -1q-6 -2 -10 -3q-2 -1 -3 -1q-2 -1 -3 -2t-1 -6q0 -3 1 -9q1 -4 2 -10q1 -7 1 -8q1 -12 1 -34q0 3 0 -28v-27v-11q0 3 -1 -20v-21v-10q0 -4 2 -8l2 -2h1h2q1 1 3 5q2 3 4 7q0 -1 4 7
q1 1 1 2q1 1 1 2v1v0l-2 3q-3 6 -3 16q-1 27 -2 35v15v8v1v3v9q0 4 1 24q22 7 38 24q16 18 19 41q1 1 0 16q0 4 1 7q1 2 3 3t3 1q3 -1 6 -1h3q1 1 1 2q1 1 0 2q-1 2 -1 3q-2 2 -6 5q-3 4 -6 6l-6 3q-2 0 -5 -1q-2 -2 -5 -1t-15 2q-14 2 -25 3q-13 1 -24 1q-5 1 -8 1h-4
q-7 -1 -14 4v1zM777 697v-1v-2t1 -3q1 -4 3 -8q2 -5 4 -7q2 -1 3 -1q1 -1 3 0q5 2 19 3q10 1 20 1q8 0 29 -5q2 -1 4 -3q3 -3 3 -13q2 -21 -1 -42q1 6 -2 -18q0 -2 -1 -2l-1 -1v-2q1 -1 2 -4q1 -2 3 -5q4 -7 7 -9q1 -1 2 -1q1 -1 2 0l2 3q1 1 1 4v4q0 4 -1 10q0 1 -1 3v21
q1 9 1 16v9q-1 2 0 11q2 11 2 10v3l-2 2q3 -1 4 -1q5 -3 8 -3h3q2 1 3 2v3l-2 2q-2 3 -5 6t-7 5t-5 3q-3 0 -6 -1q-2 -2 -5 -1t-15 3q-8 1 -24 2t-25 2h-8h-4q-7 -1 -14 5v0zM819 638q-3 0 -6 -1q-2 -1 -3 -1l-2 -2v-3v-2v-2q-1 -7 -1 -9v0q-7 -22 -13 -30h-1q-2 -5 0 -9
q1 -3 5 -4q5 -1 9 0q4 2 5 6v1v6q1 6 1 10q2 14 4 19q3 5 5 11q0 1 1 2q0 2 1 3v2q0 2 -2 3h-2h-1zM164 495v0q9 -6 12 -22q0 -3 -1 -11v-6q-1 -1 -1 -3v-2q-2 -1 -5 -1h-2h-1q-1 0 -1 1h-1h-1q-1 -1 -1 -2q-1 -1 -2 -4v-3t1 -1q1 -1 2 -1q3 0 10 1q-5 -25 -3 -39
q4 -20 21 -24q25 -6 58 -4q-2 -7 -2 -10q0 -6 -3 -23q-4 -17 -8 -30q-6 -15 -37 -35q-4 -3 -9 -4h-1h-1v-1l1 -1v-1q17 -5 38 9q18 13 24 29q1 3 4 14q2 6 6 22q1 4 2 11q2 7 2 10q1 3 2 7v3t1 2q4 -1 5 0q1 0 1 1l1 1q0 2 -1 4v1q0 2 -1 3v4q-1 2 -2 3q-2 1 -4 1
q-3 0 -13 -3q0 1 -34 -4q-11 -1 -19 1q-10 4 -12 14q-3 16 3 39v0v0q0 1 1 2q27 3 43 2q23 -3 29 -14v0q0 9 -6 20q-2 5 -5 8q-2 3 -5 3q-3 -1 -15 -4q-2 0 -15 -2q-13 -1 -26 -3q1 9 2 19v9q-1 4 -2 5q0 1 -2 2l-3 2q-4 1 -10 2q-4 1 -14 3v0v0v0zM676 495h1q9 -6 12 -22
q0 -3 -1 -11q0 -2 -1 -6v-3t-1 -2q-2 -1 -4 -1h-3h-1v1h-1h-1l-2 -2q0 -1 -1 -4v-3t1 -1q1 -1 2 -1q3 0 10 1q-5 -25 -3 -39q3 -20 21 -24q24 -6 58 -4q-2 -7 -2 -10q0 -6 -3 -23q-4 -17 -8 -30q-6 -15 -37 -35q-4 -3 -9 -4h-1h-1v-1q2 -2 1 -1v-1q17 -5 38 9q18 13 24 29
q1 3 4 14q1 5 5 22q0 -2 5 21q1 3 2 7v3t1 2q4 -1 5 0q1 0 1 1v1v4l-1 4q-1 3 -1 4q0 2 -2 3q-1 1 -4 1t-12 -3q0 1 -34 -4q-11 -1 -19 1q-11 4 -12 14q-3 16 3 39v0v0v2q27 3 44 2q23 -3 29 -14v0q-1 9 -6 20q-2 5 -5 8t-5 3q-3 -1 -16 -4q-1 0 -15 -2q-13 -1 -25 -3
q1 9 2 19v9q-1 4 -2 5q0 1 -2 2q-1 0 -4 2q-3 1 -9 2t-14 3v0h-1v0zM382 393v-1q3 -1 8 -5q4 -4 5 -7t2 -8t1 -13q-2 -11 0 -31v-5q-4 -23 -32 -38h-16q-1 6 -3 15v11q1 13 1 18q-1 8 -3 30v8q-1 5 -1 6v5v2q0 3 -2 5q-1 1 -5 2t-16 2h-11v-1q3 0 8 -4t6 -7q1 0 1 -2
q1 -2 1 -5q1 -6 2 -13q1 -6 2 -16q2 -11 2 -12l4 -28q0 -3 -1 -9v-6q-2 0 -15 1h-5h-3q-7 -1 -14 4v1v-1v-2q0 -1 1 -3q1 -4 3 -8q2 -5 4 -7q1 -1 3 -2h3q5 3 19 4q11 1 20 1h19q5 -1 8 -1q4 -1 6 -1q4 -2 8 0q5 2 6 5v3l-2 2l-6 4q8 5 12 13q4 9 6 25v3q2 11 4 31q1 7 2 15
q1 5 1 7q0 3 -1 5q-1 1 -5 3q-3 2 -15 3q-10 2 -11 2h-1zM528 393l-1 -1h1l6 -6q4 -7 7 -9l1 -1q2 -1 6 -6t5 -6l2 -2q1 0 4 -5l11 -13q-4 0 -6 -5q-4 -6 -11 -22l-12 -20q-3 -5 -6 -11q-4 -6 -4 -5q0 -1 -1 -1h-1h-1q-1 0 -1 -1v0q0 -2 1 -5l1 -1q1 -2 2 -3q1 -2 3 -2h3
q2 1 3 1q2 1 2 2q10 6 19 32q9 28 15 33q1 -1 5 -6l2 -2l1 -1l2 -1q1 -3 2 -3q2 -2 8 -10q13 -16 18 -22q7 -7 8 -12q1 0 1 -3v-1h1h1l3 -1q6 -2 7 -2q5 -2 7 -2q3 -1 5 -1h1l1 1v4q-1 2 -4 6l-2 2l-4 4q-4 5 -11 12l-18 18q-1 2 -6 7q4 1 7 6v0v2q1 1 2 3q2 4 5 9
q5 11 11 21q7 11 13 18q1 2 0 4q-1 3 -7 5q-8 2 -14 0q-5 -1 -10 -7v0v0h5h3q2 0 3 -1t2 -1v0v0q0 -1 -1 -2q-2 -2 -5 -7q-6 -8 -9 -14q-5 -8 -8 -14q-2 -4 -3 -5q-1 -3 -1 -4q-2 -2 -4 -3l-18 18q-3 2 -9 13q-7 11 -9 14q-3 5 -6 8l-1 1v1h-1q-1 1 -3 2l-2 1q-4 2 -13 2h-3
zM754 128v0q3 -1 7 -5q5 -5 6 -8q1 -2 2 -8v-12q-1 -11 1 -31q0 -1 -1 -6q-4 -23 -32 -37q-5 -1 -16 -1q0 6 -2 15q-1 2 0 11v19q0 8 -2 30q0 2 -1 7q0 5 -1 7v5v2q0 3 -1 4q-2 1 -5 3q-5 1 -17 1h-11v0q3 -1 8 -5q5 -3 7 -6q0 -1 1 -3q0 -2 1 -5q1 -5 2 -13q1 -6 2 -15
q1 -5 2 -12l4 -29q0 -3 -1 -8t-1 -7l-14 1h-6h-3q-6 0 -13 5h-1v0v-3l1 -3q1 -4 3 -8t5 -6q1 -2 2 -2q2 -1 3 0q5 2 20 3q10 1 20 1h18q6 0 9 -1q4 0 6 -1q3 -2 8 0q4 2 5 5q1 2 0 3q0 1 -2 3t-6 3q8 6 12 14t7 24v3q0 3 2 15q1 10 1 16q2 10 2 15q1 6 1 7q1 3 0 5
q-1 1 -5 3t-16 4q-9 1 -11 1v0zM182 128v-2v-3q2 -4 3 -8q2 -4 4 -6q3 -4 5 -4q5 -15 6 -16q5 -12 4 -30v-5q-1 -6 -1 -10q-1 -11 -1 -15v-2q-14 -2 -30 -9q1 1 -1 -1v1l-1 1q0 2 1 7q1 2 1 4l1 1h-1q-3 -1 -4 -2q-1 0 -1 -1q-1 0 -1 -1q-1 -1 -3 -5q-2 -7 -2 -12t2 -8
q1 -1 1 -2h1h1q6 4 17 6q10 3 16 4q3 1 6 1h2h1q5 -1 8 1t3 5q0 6 -5 12q1 5 0 7q0 1 -1 12l-2 24q-2 22 -6 36q14 2 30 2q8 0 29 -5q1 0 4 -3t3 -13q2 -21 -1 -42q0 -5 -2 -18l-2 -2v-1v-2q1 -1 2 -4q1 -2 3 -5q4 -6 7 -9q1 -1 2 -1q1 -1 2 0l2 3q1 1 1 4v4q0 4 -2 10v3v21
v16v9q0 2 1 11q1 11 1 10q1 2 1 3q-1 1 -3 2q4 -1 5 -1q4 -2 8 -3h3q2 1 3 3v2q-1 0 -2 2q-2 3 -6 6q-3 3 -6 5q-4 2 -5 3q-3 1 -6 -1q-2 -2 -5 -1q-2 1 -12 3q-7 0 -21 1q-23 3 -39 3q-1 3 -1 4h-1h-1q0 -1 -1 -1q-1 -1 -2 -3q-5 0 -12 5v0zM382 128v0v-3q0 -1 1 -3
q1 -4 3 -8q2 -5 5 -7q1 -1 2 -1q2 -1 3 0q5 2 19 3q11 1 21 1q7 0 28 -5q2 -1 4 -3q3 -3 4 -13q1 -21 -1 -42q0 -1 -1 -7t-2 -11q0 -1 -1 -2l-1 -1q0 -1 1 -2q0 -1 1 -4q1 -2 3 -5q4 -6 7 -9q1 -1 2 -1q1 -1 2 0l3 3q1 1 1 4q0 1 -1 4q0 5 -1 10l-1 3v6q0 3 1 15v16v9
q-1 3 0 11q2 12 2 10v3l-2 2q3 -1 4 -1q5 -3 8 -3h3q2 1 3 3v2l-2 2q-2 3 -5 6t-7 5t-5 3q-3 1 -6 -1q-2 -2 -5 -1q-2 2 -14 3q-10 1 -25 2q-16 1 -24 2h-9h-4q-7 0 -14 5v0zM525 128v0q0 -1 1 -3v-3q2 -3 4 -8q2 -4 4 -6t3 -2q1 -1 2 0q7 3 21 4q15 2 21 0q26 -14 30 -36
v-5q-2 -20 0 -31q0 -11 -2 -17q-40 -2 -64 -1q-4 0 -10 1q2 0 -4 3h-1q-1 0 -1 -2q-2 -4 -1 -8q0 -2 5 -5q3 -2 10 -4h20h32v0h2h25h11q3 0 5 1q1 1 3 4q2 4 3 16q1 4 1 8l1 3h-1q0 -3 -5 -7q-4 -5 -7 -6q-2 0 -6 -1q-3 17 -6 48v3q-4 25 -13 34q-8 10 -30 14h-8q-9 1 -19 1
h-11q-7 0 -14 5h-1zM341 126q-4 -1 -5 -4q0 -2 1 -11q-1 -2 -2 -7q0 -5 1 -13q0 -11 1 -18q0 -2 1 -3h-1q-1 1 -2 0l-2 1t-3 2l-4 2l-1 1v-1q1 -5 1 -6t1 -3q2 -1 4 -3q6 -5 12 -6q5 0 8 2q2 1 2 2q-2 10 -2 23v18q0 3 1 6v2q0 1 3 3l3 3v3q0 1 -1 3q-1 1 -4 2q-2 1 -4 1
q-3 1 -5 1h-3z" />
    <glyph glyph-name=".null" horiz-adv-x="0" 
 />
    <glyph glyph-name="nonmarkingreturn" horiz-adv-x="285" 
 />
    <glyph glyph-name="space" unicode=" " horiz-adv-x="285" 
 />
    <glyph glyph-name="exclam" unicode="!" horiz-adv-x="185" 
d="M50 486v0v-2v0q33 -6 43 -23q2 -4 3 -15q2 -14 2 -13v-2v-5q0 -4 1 -13v-40q1 -29 1 -40q0 -8 1 -13v-4v-1v-1l1 -1v-2t-1 -5q0 -6 -2 -17q-2 -16 -5 -37q-2 -11 -12 -17q-1 0 -6 -3h-1l-1 -1v0v-1h1l8 -4q1 -1 6 -3q5 -3 7 -4q20 -11 28 -13t15 2q6 3 8 8q1 1 1 2v2v8
q-1 7 -2 21q-2 14 -2 22q-1 5 -1 8v4v11v18l-1 30q0 18 1 48q1 18 2 32q0 8 1 12t1 6q1 1 5 9q3 7 5 11q3 6 3 10q0 2 -1 4t-3 2q-2 1 -8 2q-5 1 -13 2q-13 1 -36 3q-27 2 -49 3v0zM85 178q-13 -1 -20 -19q-11 -26 3 -47q13 -21 38 -26q9 -1 21 4q11 6 18 15q8 10 8 20
q0 11 -12 19q-5 4 -14 11q-10 8 -14 11q-16 12 -26 12h-2z" />
    <glyph glyph-name="quotedbl" unicode="&#x22;" horiz-adv-x="212" 
d="M39 500h4l2 2l1 1l2 4q2 5 5 15q6 15 14 43q14 52 20 78q7 32 3 48q-2 10 -8 14q-7 5 -17 5q-29 -3 -51 -29q-11 -13 -12 -25q-2 -15 9 -25q20 -19 26 -64q5 -33 2 -64v-3zM158 500h4l2 2q1 0 1 1l2 4l6 15q5 15 13 43q14 52 20 78q7 32 3 48q-2 10 -8 14q-7 5 -17 5
q-29 -3 -51 -29q-11 -13 -12 -25q-2 -15 9 -25q20 -19 26 -64q5 -33 2 -64v-3z" />
    <glyph glyph-name="numbersign" unicode="#" horiz-adv-x="439" 
d="M184 421q-4 -10 -8 -26q-1 -3 -6 -44q-88 5 -119 14h-1v-1q3 -37 4 -39q3 -8 10 -11q7 -4 22 -4q16 0 70 3q-30 -56 -34 -66q-50 4 -71 10l-1 1v-1q3 -38 4 -40q3 -8 10 -11q8 -4 22 -3h14q-9 -19 -15 -31l-6 -12q-2 -5 -3 -7q-2 -8 0 -15q0 -5 2 -7q2 -3 6 -4q4 0 12 2
q6 2 16 5q3 1 14 5q3 1 5 2l3 1h1q0 1 1 1l-1 2q-1 6 -1 7q-2 13 5 31q4 9 9 22q26 1 41 2q17 1 58 0q-9 -19 -16 -33q-4 -9 -6 -14q-3 -5 -3 -7q-2 -8 -1 -15q0 -5 2 -7q3 -3 7 -4q3 0 11 2q6 2 16 5q2 1 14 5l6 2l2 1h1q1 0 1 1v2q-2 6 -2 7q-2 13 5 31q4 9 9 24
q24 0 51 -1q30 -1 27 -1q5 0 10 -3l4 -2q2 0 6 1q8 2 12 6q2 2 8 13q3 5 2 8t-5 4q-5 2 -14 2q-27 2 -90 4q5 16 7 21q2 4 3 8q1 2 2 3l1 2q0 1 1 3q2 4 4 10q2 8 9 29q44 -1 40 -1q5 0 10 -3q2 -2 4 -2t6 1q8 2 12 5q2 3 8 13q3 5 2 9q-1 2 -5 4q-5 2 -14 2q-20 1 -53 2
q3 7 4 12q2 5 3 6q1 2 7 18q6 14 10 18v1q2 9 -2 17q-4 6 -11 9t-13 2q-7 -1 -9 -6q-5 -10 -9 -26q1 5 -7 -50q-91 3 -116 4l3 9q1 4 2 4q1 2 7 18q6 14 10 18v0v1q3 13 -6 21q-7 7 -17 7t-13 -6zM233 317q28 0 71 -1h1l-1 -1q-20 -39 -22 -42q-14 -25 -16 -30l-2 -5v0v0
q-66 2 -104 5h-1v0q5 14 6 19l3 6t2 3v1q1 1 2 3q1 4 3 10q4 11 10 30v1h1h3v0q14 1 43 1h1z" />
    <glyph glyph-name="dollar" unicode="$" horiz-adv-x="303" 
d="M227 677q-33 -7 -43 -9q-19 -5 -31 -9q-7 -2 -11 -5q-6 -2 -7 -5q-4 -4 -4 -17q0 -11 3 -29q1 -13 4 -32q4 -23 4 -26q1 -6 2 -30q0 -19 1 -52q-12 -1 -20 -2q-33 -4 -51 -14q-15 -8 -19 -19v-40q2 -103 92 -134q0 -7 -1 -44v-66q-19 5 -90 38l-1 1v-1q-5 -8 -1 -21
q4 -12 15 -25q28 -30 77 -37v-14q0 -5 -1 -36q0 -8 -1 -64q-2 -44 -2 -63v-22v-11q2 -14 7 -24q3 -6 6 -8q2 -1 5 -1q2 0 4 2q4 4 11 15q5 9 13 23q1 2 12 22q3 5 4 7q1 3 2 4t1 3q0 1 -1 3l-5 8q-9 18 -11 51q-3 54 -5 103q10 1 18 2q33 5 51 14q15 8 20 19q-1 0 -1 40
q-2 101 -88 133q0 37 1 110q17 -4 86 -37h1v0q5 8 1 20q-3 13 -14 25q-27 29 -74 38v42v20q0 -2 2 39q1 32 3 43q8 52 37 70l-1 1v1v0zM148 419q1 -42 1 -96v-3l-2 2q-27 25 -34 53q-3 15 3 26q7 13 26 18q2 0 5 1h1v-1zM185 236v-1q25 -26 30 -52q3 -15 -3 -25
q-7 -12 -26 -17q-1 0 -3 -1h-2v2v22v11v5q1 8 1 13v41l-2 2h5z" />
    <glyph glyph-name="percent" unicode="%" horiz-adv-x="436" 
d="M386 469q-10 -1 -16 -7q-12 -13 -27 -34q-7 -8 -29 -45q-20 -33 -27 -40q1 1 -57 -56l-54 -54q-3 -4 -57 -58q-51 -52 -54 -57q-8 -10 -11 -19q-4 -13 5 -13q7 -1 39 9l33 9q1 0 5 12q6 18 26 40q17 19 57 68q34 42 38 44q4 3 49 59t50 60q2 2 20 23q16 18 24 23
q11 16 6 26q-4 9 -17 10h-3zM88 392q15 -40 10 -64q-6 -26 23 -30q28 -4 40 12q28 40 -19 79q-34 28 -71 38q4 0 17 -35zM315 241q-28 -40 19 -79q34 -28 71 -38q-4 0 -18 35q-15 40 -9 64q3 15 -7 24q-9 7 -25 7q-22 -1 -31 -13z" />
    <glyph glyph-name="ampersand" unicode="&#x26;" horiz-adv-x="473" 
d="M165 467v-1q-32 -21 -52 -48q-3 -4 2 -4l11 -1q-5 -8 -7 -12h-1q-2 -9 -1 -15q1 -5 6 -12v0q6 -11 16 -20v-1q7 -8 19 -19q15 -13 23 -22q2 -2 5 -7q3 -4 5 -6q-19 -12 -31 -21v0q-18 -15 -63 -60q-21 -20 -36 -48q-11 -20 -7 -42v0q7 -24 38 -38v-1q45 -15 111 -2
q29 6 68 30q22 14 38 31v0q2 3 6 8q2 -2 2 -1q39 -58 55 -78v0q8 -11 16 -13q8 -3 17 1q3 1 42 30h1l-1 1q-9 5 -27 21q-14 12 -33 31q-14 14 -29 30q-14 14 -13 13v0l-9 10q16 24 16 25l19 33q4 8 6 11q38 58 50 81v0q6 12 6 20q-1 8 -8 15q-2 2 -44 27l-1 1v-1
q-1 -10 -9 -33q-6 -18 -16 -43q-22 -58 -22 -55l-17 -37q-3 -5 -8 -13q-34 39 -58 66q16 10 23 15v0q36 26 51 54v0q15 29 11 54v0q-6 25 -25 39v0l-3 2l-4 2q-6 4 -7 4q-13 7 -34 10h-1q-7 0 -23 1h-21q-29 0 -52 -12zM254 466v0v0v0zM262 451v0q17 -12 23 -32
q3 -22 -10 -47q-15 -26 -48 -49v0q-5 6 -9 9q-3 2 -11 10q-13 12 -19 19v0q-10 9 -15 18q-5 8 -5 9q-1 4 1 9v1q3 5 22 30q3 4 -2 4l-9 1q15 14 32 24v0q8 5 16 7q18 -3 34 -13zM225 260v0q4 -5 12 -14q9 -10 12 -13v-1q18 -23 23 -32v0q7 -15 3 -25q-2 -3 -15 -20
q-16 -16 -36 -28q-37 -23 -65 -28q-6 -1 -11 -2l-10 3q-27 11 -34 31q-3 17 7 34q14 26 34 46q41 42 62 58l1 1q-1 -1 5 3q7 -8 12 -13z" />
    <glyph glyph-name="quotesingle" unicode="'" horiz-adv-x="94" 
d="M39 500h4l2 2q1 0 1 1l2 4l6 15q5 15 13 43q14 52 20 78q7 32 3 48q-2 10 -8 14q-7 5 -17 5q-29 -3 -51 -29q-11 -13 -12 -25q-2 -15 9 -25q20 -19 26 -64q5 -33 2 -64v-3z" />
    <glyph glyph-name="parenleft" unicode="(" horiz-adv-x="207" 
d="M146 519l-20 -8v0l-20 -15q-35 -34 -49 -92q-6 -29 -7 -94v0q9 -134 61 -214l18 -25q2 -9 7 -13q3 -4 9 -5q9 -2 20 6q10 6 15 15q1 2 0 3l-20 24q-54 77 -62 211v0q3 86 22 129q13 29 36 49q5 -2 12 0q8 3 12 9q2 3 1 7q0 3 -4 6q-9 5 -31 7v0z" />
    <glyph glyph-name="parenright" unicode=")" horiz-adv-x="207" 
d="M86 519q-22 -2 -31 -7q-4 -3 -4 -6q-1 -4 1 -7q4 -6 12 -9q7 -2 12 0q23 -20 36 -49q19 -43 22 -129v0q-8 -134 -62 -211l-20 -24q-1 -1 0 -3q5 -9 15 -15q11 -8 20 -6q6 1 9 5q4 4 6 13l19 25q52 80 61 214v0q-1 65 -7 94q-14 58 -49 92l-20 15v0l-20 8v0z" />
    <glyph glyph-name="asterisk" unicode="*" horiz-adv-x="343" 
d="M55 407v-1h-1l2 -4q-1 -1 0 -1v0l2 -1q3 -1 7 -4q11 -7 22 -16q33 -27 40 -50q5 -15 17 -19q10 -3 23 2q11 5 20 14q9 10 10 19q2 25 -14 42q-15 16 -45 21q-22 4 -38 4q-20 0 -45 -6zM302 411v0v1v0q-1 -1 -1 -2q-2 -4 -5 -8q-7 -11 -16 -22q-27 -33 -50 -40
q-14 -5 -18 -17q-4 -10 1 -22t14 -20q10 -10 20 -11q25 -2 41 14q16 15 22 46q8 44 -3 82v0v1zM115 297q-23 0 -38 -16q-14 -15 -19 -44q-8 -44 3 -82v0v-1l5 2v0v-1v0v0q0 1 1 2q1 3 4 7q8 12 17 23q27 33 49 40q15 5 19 16q3 11 -2 23q-4 12 -14 20q-9 9 -19 10q-3 1 -6 1
v0zM186 245q-14 -12 -15 -25q-3 -25 13 -41t46 -22q44 -7 83 3v0q0 1 1 1l-3 4h1v1v0q-1 0 -2 1q-3 1 -7 4q-11 7 -23 16q-33 27 -40 50q-6 20 -25 20q-14 0 -29 -12z" />
    <glyph glyph-name="plus" unicode="+" horiz-adv-x="410" 
d="M177 436q-3 -5 -2 -16v0q1 -26 11 -95q1 -7 2 -23q-104 7 -137 21h-1v-1q3 -49 3 -51q3 -10 10 -14q7 -5 20 -5q26 0 95 5q4 1 12 1q2 -28 3 -64v-24q1 -11 1 -12q0 -4 -4 -9q-2 -2 -2 -4t1 -6q4 -7 8 -10q4 -2 18 -7q6 -2 10 -1t5 5q3 5 2 13v1q0 5 -2 118q-1 0 116 -2
q4 0 8 -5l4 -2q2 0 6 1q7 3 11 8q2 3 8 16q2 6 1 11q-1 3 -4 5q-5 3 -14 3v0q-11 0 -136 7q1 85 21 135l1 1h-2q-15 -2 -35 1q-23 4 -27 3q-7 0 -11 -4z" />
    <glyph glyph-name="comma" unicode="," horiz-adv-x="184" 
d="M77 180q-14 -14 -21 -40q-6 -24 1 -72q8 -48 21 -68l5 2q-1 2 -1 8t1 14q2 22 7 41q6 25 17 40q12 17 27 18q16 2 21 13q4 9 0 23q-4 13 -12 23q-10 10 -19 12q-7 1 -12 1q-20 0 -35 -15z" />
    <glyph glyph-name="hyphen" unicode="-" horiz-adv-x="410" 
d="M50 322q3 -48 3 -51q3 -10 10 -14q7 -5 20 -5q26 0 95 5q4 1 13 1h38v0l117 -2q4 0 8 -5l4 -2q2 0 6 1q7 3 11 8q2 3 8 16q2 6 1 11q-1 3 -4 5q-5 3 -14 3q-41 3 -137 7l-40 2q-9 0 -59 6q-27 4 -46 7q-24 4 -33 8h-1v-1z" />
    <glyph glyph-name="hyphen" unicode="&#x2010;" horiz-adv-x="410" 
d="M50 322q3 -48 3 -51q3 -10 10 -14q7 -5 20 -5q26 0 95 5q4 1 13 1h38v0l117 -2q4 0 8 -5l4 -2q2 0 6 1q7 3 11 8q2 3 8 16q2 6 1 11q-1 3 -4 5q-5 3 -14 3q-41 3 -137 7l-40 2q-9 0 -59 6q-27 4 -46 7q-24 4 -33 8h-1v-1z" />
    <glyph glyph-name="period" unicode="." horiz-adv-x="178" 
d="M83 180q-14 -1 -22 -20q-11 -27 3 -49t40 -27q10 -1 22 4q11 6 19 16t8 21q0 12 -13 21q-5 3 -14 11q-10 8 -14 11q-17 12 -27 12h-2z" />
    <glyph glyph-name="slash" unicode="/" 
d="M382 469q-9 -1 -14 -7q-12 -13 -27 -33q-6 -8 -29 -45q-20 -33 -27 -40q4 4 -57 -56q-48 -47 -54 -54q-3 -4 -57 -59q-24 -25 -36 -36q-8 -9 -12 -13q-5 -6 -6 -8q-8 -10 -11 -19q-2 -6 -1 -9q0 -2 2 -4q2 -1 4 -1q5 0 16 3q9 2 23 6q5 1 12 3q9 3 10 3q7 2 8 3q3 0 4 1
q1 0 2 1t1 2q2 8 2 9q6 17 26 39q17 19 58 69q17 22 24 30q5 6 8 9l5 5q1 0 2 2q2 1 4 4q4 5 11 13q8 10 32 39q23 29 32 39q5 7 11 14q5 6 7 7q2 3 20 23q16 18 24 23v0v1q9 12 8 21t-9 13q-5 2 -11 3q-2 0 -5 -1z" />
    <glyph glyph-name="zero" unicode="0" horiz-adv-x="385" 
d="M128 456v0q-20 -20 -27 -31q-23 -32 -37 -63q-9 -21 -11 -37q-3 -18 4 -29q-1 -16 0 -25q3 -65 36 -118h1q29 -39 47 -51q17 -11 26 -12q47 -7 70 -1q17 4 41 22v1l20 20q53 67 62 180v0q-1 54 -8 78q-13 50 -50 78q1 0 -20 12v0l-20 6q-21 2 -36 2q-59 0 -98 -32z
M233 473v0q20 -11 19 -10q23 -17 37 -42q20 -36 22 -108v0q-8 -111 -63 -176l-21 -20q-1 -2 1 -3q3 -3 5 -4q1 -2 1 -3v0q-1 -1 -3 -2q-5 -1 -27 -2q-11 4 -14 5q-16 11 -46 47v0v0q-34 52 -39 115l-1 13q2 0 3 1q3 1 4 5q2 6 3 17q2 17 1 39v0q0 23 38 76q7 9 28 30v0
q22 17 46 24z" />
    <glyph glyph-name="one" unicode="1" horiz-adv-x="185" 
d="M50 486v-2q33 -9 42 -34q3 -6 4 -21q2 -21 2 -20v-3v-6v-20q0 -4 1 -58q0 -42 1 -57v-20q0 -3 1 -6v-1v-2v-1v-2v-8q0 -10 -2 -24q-2 -20 -6 -54q-2 -16 -12 -24q0 -1 -5 -5l-2 -1v-1q0 -1 1 -1t3 -2t5 -4q12 -10 13 -11q20 -15 27 -18q9 -3 16 3q6 5 8 12q1 1 1 2v4v11
q-1 10 -2 31q-2 28 -2 32q-1 8 -1 11v6v16v26l-1 43q0 26 1 70q1 29 2 46q0 10 1 17t1 10q1 1 5 13l5 15q3 9 3 15q0 7 -4 9q-2 1 -8 2q-4 1 -13 3q-13 1 -36 4q-37 4 -48 5h-1z" />
    <glyph glyph-name="two" unicode="2" horiz-adv-x="373" 
d="M51 489h-1v-1q0 -2 1 -6q0 -4 2 -10q3 -14 9 -27q6 -14 13 -22q4 -4 8 -5q4 -2 8 0q17 9 60 15q45 6 63 0v0q60 -37 74 -100q-9 -30 -11 -34v0q-13 -14 -21 -24q-25 -21 -74 -57q-56 -40 -55 -40q-32 -26 -38 -36q-2 1 -5 4q-2 2 -3 2q-1 1 -2 1t-2 -1q-2 -1 -2 -5
q-3 -14 -1 -25q2 -10 13 -18q8 -6 23 -12v0q9 -1 42 -1h67q46 1 63 2h22q5 0 7 -1h3q3 -1 6 0q2 0 4 2q3 4 6 15q3 13 4 51q1 19 1 36v0h-1v0v0v0q-1 -10 -10 -24q-9 -15 -15 -19q-4 -2 -20 -5q-13 -2 -35 -4q-37 -3 -87 -4q95 96 119 126q10 12 17 23q-1 -1 0 0q3 5 4 6
q41 64 2 117q-35 47 -107 61q-12 3 -22 2v0q-24 2 -55 3q-27 1 -34 1q-10 -2 -17 1q-10 3 -23 13v0z" />
    <glyph glyph-name="three" unicode="3" horiz-adv-x="376" 
d="M85 486l-1 -1q-7 0 -10 -5q-2 -4 -3 -14v0q-4 -16 -1 -26q2 -9 10 -13q14 -6 45 3q15 4 71 11q52 6 90 7v-1q-40 -81 -95 -148q-25 4 -51 4h-3l2 -2l26 -25l-6 -3q-3 -2 -5 -3q-5 -3 -7 -5v0v0q-1 -2 0 0l1 -2q10 5 31 0l2 -2v0h7q5 -1 9 0v0q32 -2 60 -11q10 -7 11 -9
q16 -20 15 -50q-8 -24 -17 -32q-29 -26 -106 -29v0q-34 5 -42 7q-6 5 -7 6v0v0l-58 16l-3 1l2 -2l10 -15q70 -50 136 -52q105 6 135 59l8 20v0v1l2 20q-2 16 -16 36q-19 26 -95 61q15 16 67 76l30 35q7 8 10 11q5 4 6 5q6 5 5 12q0 5 -7 17q-10 20 -18 28q-9 7 -17 3l-2 2
q-2 1 -3 2q-4 1 -21 1q-30 1 -106 2q-30 1 -58 2q-26 1 -30 1h-3v1z" />
    <glyph glyph-name="four" unicode="4" horiz-adv-x="393" 
d="M291 495q-3 0 -5 -2q-5 -2 -15 -11q0 1 -1 1l-56 6q-1 0 -2 -1q-22 -41 -84 -119q-63 -80 -73 -98v0q-5 -13 -4 -18q0 1 0 -1q0 -4 3 -6t8 -2q7 -1 19 3q2 -3 6 -5q5 -3 15 -4q19 -2 149 -4q0 -5 -1 -18q0 -10 -1 -16q-1 -16 -1 -20q0 3 -3 -25q-2 -21 -4 -28v0
q-11 -32 -46 -44q-2 0 -2 -3q1 -2 3 -1q26 2 52 6q24 3 39 6q8 1 14 3q6 1 8 3q5 3 5 13q1 7 -2 19q-1 8 -4 20q-4 15 -5 17q-5 21 -3 67h19q9 -1 11 -1q9 -2 15 3q5 3 10 15v0q10 15 11 25q2 10 -6 15q-6 4 -19 4q-11 0 -27 -3q-2 0 -12 -2q2 25 2 34q1 18 0 23q0 2 1 8
q0 5 1 15q1 12 3 41q3 30 3 40q1 9 1 15v8q-2 7 -7 14q-6 8 -14 8h-1zM250 404q3 -39 4 -69q1 -22 2 -31q0 -7 -1 -11v-4q0 -1 -1 -3v-3q-85 -9 -133 -11q9 15 63 85q41 52 58 75q7 -10 8 -28z" />
    <glyph glyph-name="five" unicode="5" horiz-adv-x="342" 
d="M103 492q-1 -1 -4 -2l-3 -3q-4 -3 -9 -8t-8 -9q-4 -5 -5 -8q-3 -6 -3 -7q-1 -4 1 -8v-3q1 -3 2 -8q1 -4 4 -22q6 -38 8 -47q1 -52 -5 -87q-14 -6 -26 -13q-1 -1 -1 -2q1 -2 2 -3l20 -4q-3 -10 -4 -11q-1 -6 0 -10l1 -3q1 -2 3 -3q1 -1 4 0q1 0 4 2q4 2 7 7q8 13 7 11
q-1 0 0 1l14 -3h2q34 20 69 28q12 -1 14 -2q23 -9 37 -35q5 -25 2 -35q-12 -37 -77 -77q-31 -13 -40 -16q-6 2 -7 2h-2l-58 -15q-2 0 -2 -2t1 -2q17 -8 17 -9q87 -8 145 24v0q89 58 88 120l-3 22h-1l-9 19q-9 14 -31 24q-30 13 -115 5v0q-16 -3 -32 -8q1 4 1 5v0q1 23 6 72
q2 24 0 66q3 1 4 1q27 2 89 -3q31 -2 51 -4q11 -2 17 -3q7 -2 9 -4q4 -3 9 -17q5 -15 4 -24v0q0 -2 2 -2q3 -1 3 2v0q3 17 6 36q6 38 5 51q0 12 -2 16q-2 3 -5 3q-2 1 -6 0h-2q-3 -1 -6 -1q-5 0 -19 1q-7 0 -54 1h-58q-29 0 -37 -1v0q-9 -4 -17 -9q-2 8 -4 12v0v0v0
q-1 2 -3 2v0z" />
    <glyph glyph-name="six" unicode="6" horiz-adv-x="348" 
d="M237 497q-50 -2 -101 -48q-47 -42 -63 -89v0q-3 -9 -7 -40q-3 -24 -7 -60q-6 -53 -9 -87q0 -5 3 -13t8 -17q10 -19 16 -28q4 -4 15 -12h1v0q25 -22 68 -22q13 0 34 3q22 3 28 3h1q73 33 94 100l5 21v1l-3 20q-9 29 -42 41q-19 7 -51 10h-1q-59 7 -117 -13q8 48 18 83
q14 50 111 119q12 8 29 12q2 1 3 1q3 1 4 3q0 2 -2 4l-3 3q0 1 -1 1q-13 4 -27 4h-4zM202 259q40 -7 48 -31l3 -16q-3 -16 -4 -18q-18 -60 -83 -87q-31 11 -44 37l-8 22v0q0 3 -4 35l-4 44q1 5 1 10l53 -9l1 1l20 7q8 2 21 5v0z" />
    <glyph glyph-name="seven" unicode="7" horiz-adv-x="425" 
d="M335 490q-5 0 -12 -6q-6 -5 -14 -3t-43 1q-31 -1 -71 -3q-36 -3 -68 -5q-13 -2 -24 -3q-9 -1 -12 -1q-10 -3 -16 -2q-10 2 -24 10l-1 1v-1q0 -2 1 -7q1 -4 4 -10q4 -13 11 -24q8 -14 16 -20q4 -3 8 -4t8 2q13 9 53 19q31 8 57 11q16 2 64 -1q43 -2 72 -6q-6 -8 -17 -24
q-38 -57 -44 -64q3 3 -51 -56q-32 5 -67 8q-13 2 -27 3h-8q-4 1 -5 0q-7 -1 -12 1q-6 3 -16 14l-1 2v-2q0 -5 2 -18q2 -14 6 -25q5 -15 9 -22q3 -4 6 -6q3 -1 7 1q9 7 39 11q21 3 40 2q-18 -20 -22 -24q-3 -4 -51 -60q-20 -23 -32 -38q-7 -7 -12 -13t-5 -7q-7 -10 -10 -20
q-2 -6 -1 -10q1 -2 2 -3t4 -1q4 0 14 2l21 7q-2 -1 20 6q3 1 7 3l3 1q2 0 2 1q1 1 1 2l2 9q6 18 24 41q-2 -2 71 96q23 -6 44 -14q10 -3 17 -6q8 -3 10 -5q10 -7 17 -9q5 0 8 1q3 2 4 7t-3 15q-4 8 -11 18t-14 17t-11 9q-4 1 -7 0q-1 -1 -4 -3t-4 -3q-3 0 -6 1q-4 2 -13 4
q10 12 40 49q12 14 20 23q8 10 10 12q3 3 19 23q14 19 21 24v0v0q4 6 6 12q5 1 8 3q4 2 5 7t-7 14q-6 7 -17 16q-11 8 -21 13q-11 6 -16 7h-2v0h-1z" />
    <glyph glyph-name="eight" unicode="8" horiz-adv-x="369" 
d="M221 489q-30 0 -54 -13q1 0 0 0q-33 -22 -53 -50q-3 -4 3 -4l11 -1q-6 -8 -8 -12v0q-3 -9 -2 -15q1 -5 6 -13h1q5 -11 15 -20h1q7 -9 20 -21q15 -13 22 -22q2 -2 6 -7q3 -4 5 -6q-20 -13 -31 -21v0v0q-19 -16 -65 -61q-21 -22 -37 -49q-11 -21 -7 -43v0q7 -25 39 -40v0
q46 -16 113 -2q30 6 70 31q22 13 38 31h1q13 19 15 23q1 1 0 0q6 14 -3 34v1q-7 12 -24 35v0q-20 23 -25 29v0q-12 12 -25 27v0q-3 4 -1 2q19 13 25 17h1q36 27 52 55v1q14 29 11 54v0q-6 26 -26 40q-1 0 0 0q-1 0 0 0l-3 2l-4 2q-6 4 -7 5q-13 6 -35 9v0q-8 0 -24 1
q-14 1 -21 1v0zM257 476h1v0h-1zM266 460v0q18 -12 24 -33q3 -22 -10 -48q-16 -26 -50 -50q-5 6 -20 20q-13 12 -20 19v0q-9 9 -14 18t-6 10q-1 4 1 9v0q3 6 22 31q4 5 -2 5l-8 1q15 14 32 24v0q9 5 17 7q18 -3 34 -13zM228 265v0q5 -5 13 -14q9 -10 12 -14v0q18 -24 23 -33
v0q7 -15 3 -25q-2 -4 -15 -21q-16 -16 -36 -29q-38 -23 -67 -28q-6 -1 -11 -2l-10 3q-28 11 -34 31q-4 18 6 36q15 26 35 46q42 43 64 60v0q-1 0 5 4q7 -9 12 -14z" />
    <glyph glyph-name="nine" unicode="9" horiz-adv-x="374" 
d="M215 491q-15 0 -36 -2v0q-27 -4 -47 -15v0q-34 -17 -46 -33q-19 -28 -26 -52v0q-10 -30 -5 -53v-1q7 -25 27 -47q22 -27 46 -39v0q11 -5 17 -6q8 -3 17 -3q54 0 70 1v0q7 1 16 3q-4 -14 -7 -22q-17 -49 -117 -112q-12 -7 -29 -11q-3 0 -4 -1q-3 -1 -4 -3t1 -5q1 -1 4 -3
q0 -1 1 -1q56 -20 123 28q59 41 80 94v0q3 10 12 44q7 29 17 71q9 41 15 66q2 10 5 24q2 10 2 11q2 10 0 22q-1 14 -6 21q-2 3 -8 5q-5 2 -13 4q-12 3 -32 5v0q-7 3 -14 5v0q-23 5 -52 5h-7zM222 473q23 -6 39 -17v0q9 -8 17 -26q0 -5 -1 -19q-1 -12 -1 -19v0
q1 -31 -17 -106q-3 -4 -5 -5q-3 -3 -15 -10q-17 -10 -45 -14q-4 1 -12 4v0q-23 11 -44 35v0q-19 21 -25 42q-5 20 5 48v0q6 21 25 48v0q10 12 43 29q13 7 31 10q-3 1 5 0z" />
    <glyph glyph-name="colon" unicode=":" horiz-adv-x="178" 
d="M61 373q-11 -27 3 -50q14 -21 40 -26q10 -2 22 4q11 6 19 16t8 21q0 12 -13 21q-5 3 -14 10q-10 8 -14 12q-18 13 -29 12q-14 -1 -22 -20zM83 180q-14 -1 -22 -20q-11 -27 3 -49t40 -27q10 -1 22 4q11 6 19 16t8 21q0 12 -13 21q-5 3 -14 11q-10 8 -14 11q-17 12 -27 12
h-2z" />
    <glyph glyph-name="semicolon" unicode=";" horiz-adv-x="184" 
d="M69 379q-11 -25 3 -47q13 -20 38 -25q9 -2 21 4q11 5 18 14q9 11 8 21q0 12 -12 20q-5 3 -14 10q-9 8 -13 11q-17 12 -28 12q-13 -1 -21 -20zM77 180q-14 -14 -21 -40q-6 -24 1 -72q8 -48 21 -68l5 2q-1 2 -1 8t1 14q2 22 7 41q6 25 17 40q12 17 27 18q16 2 21 13
q4 9 0 23q-4 13 -12 23q-10 10 -19 12q-7 1 -12 1q-20 0 -35 -15z" />
    <glyph glyph-name="less" unicode="&#x3c;" horiz-adv-x="369" 
d="M242 442q-16 0 -24 -8q-15 -14 -53 -57q-15 -17 -81 -77q-6 6 -9 8q-5 5 -9 6q-3 1 -6 -1t-5 -7q-4 -10 -4 -14q-1 -4 2 -10q0 -2 1 -3q-1 0 -1 -2q-3 -6 -2 -10q0 -4 4 -14q2 -5 5 -7t6 -1q4 1 9 6q4 3 9 8q65 -60 81 -78q38 -42 53 -56q8 -8 25 -8q15 0 35 5
q42 12 64 32l2 2l-3 -1q-56 -14 -126 32q-33 22 -108 92q75 71 108 93q69 45 126 31h3l-2 2q-38 35 -95 37h-5z" />
    <glyph glyph-name="equal" unicode="=" horiz-adv-x="440" 
d="M50 365q3 -37 4 -40q3 -7 10 -11q8 -3 22 -3q28 0 104 4q25 1 101 0q24 0 53 -1q31 -1 28 0q5 -1 10 -4l4 -2q2 0 6 1q8 2 11 6q3 3 9 13q3 5 2 8t-5 5q-5 2 -14 2v0q-32 1 -95 3q-70 3 -99 4q-114 5 -150 16h-1v-1zM50 257q3 -37 4 -40q3 -7 10 -11q8 -3 22 -3
q28 0 104 4q25 2 101 0q24 0 53 -1q31 0 28 0q5 0 10 -4q2 -1 4 -1q2 -1 6 0q8 3 11 6t9 13q3 5 2 8t-5 5q-5 2 -14 2v0q-32 1 -95 3q-70 3 -99 4q-114 5 -150 16h-1v-1z" />
    <glyph glyph-name="greater" unicode="&#x3e;" horiz-adv-x="369" 
d="M147 442q-57 -2 -95 -37l-2 -2h2q57 14 126 -31q33 -22 109 -93q-75 -70 -109 -92q-69 -46 -126 -32l-2 1l2 -2q21 -20 63 -32q20 -5 36 -5q17 0 25 8q15 14 52 56q16 18 81 78q5 -5 9 -8q6 -5 10 -6q3 -1 5 1q3 2 5 7q5 10 5 14q1 4 -2 10l-1 2q0 1 1 3q3 6 2 10
q0 4 -5 14q-2 5 -5 7q-2 2 -5 1q-4 -1 -10 -6q-2 -2 -9 -8q-65 60 -81 77q-37 43 -52 57q-8 8 -25 8h-4z" />
    <glyph glyph-name="question" unicode="?" horiz-adv-x="320" 
d="M51 489h-1v-1q0 -2 1 -6q0 -4 2 -10q3 -14 9 -27q6 -14 13 -22q4 -4 8 -5q4 -2 8 0q19 10 41 15q27 6 44 0v0q69 -42 78 -120v0q0 -3 -2 -8q-12 -15 -41 -30t-47 -18h-1v0q-33 -9 -44 -13q-7 -3 -11 -5q-3 -2 -4 -4q0 -3 3 -5q2 -2 7 -5q2 -1 11 -6l14 -7v0q7 -9 11 -12
q6 -2 13 2h1q44 26 72 54v0q10 8 33 35q26 30 26 60q0 28 -20 54q-38 50 -110 64q-7 2 -14 2q-16 2 -36 3q-17 1 -24 1q-10 -2 -17 1q-10 3 -23 13v0zM92 159q-11 -26 3 -47q13 -21 38 -26q9 -1 21 4q11 6 18 15q8 10 8 20q0 11 -12 19q-5 4 -14 11q-10 8 -15 11
q-17 13 -27 12q-13 -1 -20 -19z" />
    <glyph glyph-name="at" unicode="@" 
d="M51 476q-1 -5 2 -15q2 -10 7 -21q10 -26 23 -35q7 -25 7 -32v-1q1 -8 -11 -39q-12 -35 -13 -53q0 -14 11 -66q11 -49 9 -67v0q-2 -9 -3 -18q-8 -17 -1 -30q8 -14 31 -13v0h1q5 -1 31 -1l60 2q35 1 62 3q30 2 40 5q41 13 70 42q4 4 9 16q5 11 8 23q4 13 3 19q0 2 -1 4
q-2 3 -5 4q-4 1 -9 -3q-74 -63 -144 -64q-30 -1 -91 23q-1 2 -2 5q1 -3 -2 15q1 18 -10 54q-12 42 -13 53q-3 24 4 56q10 43 9 38q2 14 2 31q44 6 89 5t97 -31q41 -36 48 -88q-1 -6 -5 -9q-3 -3 -10 -4q-11 0 -34 6q-18 50 -72 50q-31 0 -53 -22t-22 -53t22 -53
q22 -23 53 -23q23 0 42 13q33 -9 66 14q37 27 52 86v2q-11 80 -45 111v0q-29 29 -70 41q-6 2 -22 4q-1 0 -2 1h-1h-8v0q-37 3 -96 4q-25 1 -42 1h-23q-20 -2 -40 13q-2 2 -4 1q-4 0 -4 -4z" />
    <glyph glyph-name="bracketleft" unicode="[" horiz-adv-x="248" 
d="M102 600h-2q-2 0 -6 -1q-7 -2 -15 -5q-9 -3 -15 -6q-7 -3 -10 -7q-4 -6 -4 -11q0 -4 3 -8q1 -2 10 -7q8 -5 9 -8q1 -1 1 -5q1 -4 2 -10q2 -11 4 -32q5 -40 7 -75q3 -31 2 -121v0v-1v-19v-2v-19v0v-1q1 -90 -2 -121q-2 -34 -7 -75q-2 -20 -4 -32q-1 -6 -2 -10q0 -4 -1 -5
q-1 -3 -9 -7q-9 -6 -10 -8q-3 -4 -3 -8t4 -11q3 -3 10 -7q6 -3 15 -6q8 -3 15 -5q4 0 6 -1h4q2 0 4 3l3 4q1 2 2 3q2 1 4 1q15 0 27 4q8 3 39 4q7 1 17 -7q6 -3 7 -4q2 -1 3 -1q2 0 3 1v0q3 3 5 4q1 0 2 1h1v0q1 1 1 2v5q1 4 -2 13q-2 6 -7 17q-9 18 -14 25q-3 5 -8 5
q-7 -1 -15 -11q-7 -8 -22 -16q-21 -13 -20 -12q-7 -6 -14 -4q-1 0 -2 1v1q-1 3 3 7q2 3 3 11q2 8 3 20q2 20 4 52q1 22 2 52l1 28q3 57 0 108v0q3 51 0 108q0 1 -1 28q-1 30 -2 52q-2 32 -4 53q-1 11 -3 19q-1 8 -3 11q-4 5 -3 7v2q1 0 2 1q7 1 14 -5q0 1 20 -11
q15 -9 22 -17q8 -10 15 -10q5 -1 8 4q5 7 14 25q5 11 7 18q3 9 2 13v5q0 1 -1 1v0q0 1 -1 1h-2q-2 1 -5 5v0v0q-1 1 -3 0q-1 0 -3 -1l-7 -4q-10 -7 -17 -7q-30 1 -39 4q-12 4 -27 4q-2 0 -4 1q-1 1 -2 4q-2 3 -3 4q-2 2 -4 2h-2z" />
    <glyph glyph-name="backslash" unicode="\" 
d="M71 470q-6 -1 -12 -3q-7 -4 -8 -13t8 -21v-1v0q8 -5 24 -23q18 -20 20 -23q2 -1 7 -7q6 -7 11 -14q9 -10 32 -39q24 -29 31 -39q8 -8 12 -13q2 -3 3 -4q2 -2 3 -2l5 -5q3 -3 8 -9q7 -8 24 -30q41 -50 58 -69q20 -22 26 -39q0 -1 2 -9q0 -1 1 -2t2 -1q1 -1 4 -1q1 -1 8 -3
q1 0 10 -3q7 -2 11 -3q15 -4 24 -6q11 -3 16 -3q2 0 4 1q2 2 2 4q1 3 -1 9q-3 9 -11 19q-1 2 -6 8l-13 13q-11 11 -35 36q-54 55 -57 59q-7 7 -55 54q-60 60 -56 56q-8 7 -27 40q-23 37 -29 45q-15 20 -27 33q-5 6 -15 7q-2 1 -4 1z" />
    <glyph glyph-name="bracketright" unicode="]" horiz-adv-x="248" 
d="M169 600q-2 0 -4 -2q-1 -1 -3 -4q-1 -3 -3 -4q-1 -1 -3 -1q-15 0 -27 -4q-9 -3 -40 -4q-6 0 -17 7l-6 4q-2 1 -3 1q-2 1 -3 0v0v0q-3 -4 -5 -5h-2t-1 -1h-1v-1v-5q-1 -4 2 -13q2 -7 7 -18q9 -18 13 -25q4 -5 9 -4q7 0 15 10q6 8 21 17q21 12 20 11q8 6 14 5l2 -1
q1 -1 1 -2q1 -2 -3 -7q-2 -3 -4 -11q-1 -8 -2 -19q-3 -21 -4 -53q-1 -22 -2 -52q-1 -27 -1 -28q-3 -57 0 -108v0q-3 -51 0 -108l1 -28q1 -30 2 -52q1 -32 4 -52q1 -12 2 -20q2 -8 4 -11q4 -4 3 -7q0 -1 -1 -1q0 -1 -2 -1q-6 -2 -14 4q1 -1 -20 12q-14 8 -21 16q-8 10 -15 11
q-5 0 -9 -5q-4 -7 -13 -25q-5 -11 -7 -17q-3 -9 -2 -13v-5v-2h1h1q1 -1 2 -1q2 -1 5 -4v0q1 -1 3 -1q1 0 2 1q2 1 7 4q11 8 17 7q32 -1 40 -4q12 -4 27 -4q2 0 3 -1q2 -1 3 -3q2 -4 3 -4q2 -3 4 -3h4q2 1 6 1q7 2 15 5q9 3 15 6q7 4 9 7q5 7 5 11t-3 8q-2 2 -10 8q-8 4 -9 7
q-1 1 -2 5q0 4 -1 10q-2 12 -4 32q-5 41 -8 75q-2 31 -1 121v1v0v19v2v19v1v0q-1 90 1 121q3 35 8 75q2 21 4 32q1 6 1 10q1 4 2 5q1 3 9 8t10 7q3 4 3 8q0 5 -5 11q-2 4 -9 7q-6 3 -15 6q-8 3 -15 5q-4 1 -6 1h-2h-2z" />
    <glyph glyph-name="asciicircum" unicode="^" horiz-adv-x="400" 
d="M50 435q2 -57 38 -95l1 -2v3q-14 56 31 126q22 33 93 108q70 -75 92 -108q46 -70 32 -126l-1 -3l2 2q20 22 32 64q5 20 5 35q0 17 -8 25q-14 15 -56 53q-18 16 -78 81q5 5 8 9q5 5 6 9q1 3 -1 6t-6 5q-11 4 -15 4q-4 1 -10 -2q-1 0 -2 -1q-1 1 -3 1q-6 3 -10 2
q-4 0 -14 -4q-5 -2 -7 -5t-1 -6q1 -4 6 -9q2 -3 8 -9q-60 -66 -77 -81q-43 -38 -57 -53q-8 -8 -8 -24v-5z" />
    <glyph glyph-name="underscore" unicode="_" horiz-adv-x="550" 
d="M50 19q3 -48 5 -51q3 -10 13 -14q10 -5 29 -5q36 0 135 5q5 1 18 1h54v0l165 -2q6 0 12 -5q2 -1 5 -2q3 0 9 1q10 3 14 8q4 3 12 16q4 6 2 11q-1 3 -6 5q-7 3 -19 3q-59 3 -194 7l-57 2q-13 0 -84 6q-39 4 -65 7q-33 4 -46 8h-2v-1z" />
    <glyph glyph-name="grave" unicode="`" horiz-adv-x="206" 
 />
    <glyph glyph-name="braceleft" unicode="{" horiz-adv-x="337" 
d="M290 597h-2q-76 -18 -129 -74q-54 -57 -65 -134q-1 -11 0 -35q1 -23 -1 -32q-2 0 -4 -2q-3 -1 -6 -4q-6 -5 -14 -12q-1 0 -6 2q-3 1 -7 0q-3 -1 -5 -3q-1 -2 -1 -5q0 -5 4 -13q-4 -8 -4 -13q0 -3 1 -5q2 -2 5 -3q4 0 7 1q5 1 6 1q8 -7 14 -12l6 -4l4 -2q2 -8 1 -31
q-1 -25 0 -35q11 -78 65 -135q53 -56 129 -74v0v0q4 0 7 2l2 2v1q6 9 9 35q6 45 -8 96l-1 -1q-6 -30 -15 -50q-12 -26 -30 -34q-50 22 -86 68q-35 45 -41 96q-2 11 2 30q5 20 5 27q0 27 -10 40q10 13 10 40q0 7 -5 28q-4 18 -2 29q6 52 41 97q36 45 86 67q18 -7 30 -34
q9 -19 15 -50h1q14 51 8 96q-4 26 -9 35q-1 4 -6 4h-1v0z" />
    <glyph glyph-name="bar" unicode="|" horiz-adv-x="136" 
d="M73 531q-8 -2 -14 -9t-6 -15h-1q0 -18 2 -43q1 -10 9 -53q6 -37 6 -47q0 3 -6 -79q-5 -68 -5 -77q0 -5 -4 -81q-2 -32 -3 -51q-1 -12 -1 -18v-10q1 -12 5 -21q2 -6 5 -8q2 -1 4 -1t4 1q4 3 11 13q5 7 13 20q-1 -1 12 19q2 4 4 7l2 3q1 1 1 3q0 1 -1 2l-4 8q-7 17 -6 47
q0 25 -2 89q-1 30 -2 38v13q1 5 1 7v3v5v18q0 13 -2 50q-1 35 -2 50v18v10v30q0 24 3 33v0v0q-2 16 -9 22q-4 4 -11 4h-3z" />
    <glyph glyph-name="braceright" unicode="}" horiz-adv-x="337" 
d="M72 597v0q-5 0 -7 -4q-5 -9 -9 -35q-6 -45 8 -96h2q5 31 14 50q12 27 30 34q51 -22 86 -67t42 -97q1 -11 -3 -29q-5 -21 -5 -28q0 -27 10 -40q-10 -13 -10 -40q0 -7 5 -27q4 -19 3 -30q-7 -51 -42 -96q-35 -46 -86 -68q-18 8 -30 34q-9 20 -14 50l-2 1q-14 -51 -8 -96
q4 -26 9 -35v-1l2 -2q3 -2 7 -2v0v0q77 18 129 74q54 57 65 135q1 10 0 35q0 23 1 31l4 2l6 4q6 5 14 12q1 0 6 -1q3 -1 7 -1q3 1 5 3q1 2 1 5q0 5 -3 13q3 8 3 13q0 3 -1 5q-2 2 -5 3q-4 1 -7 0q-5 -2 -6 -2q-8 7 -14 12q-3 3 -6 4q-2 2 -4 2q-1 9 -1 32q1 24 0 35
q-11 77 -65 134q-52 56 -129 74h-2v0z" />
    <glyph glyph-name="asciitilde" unicode="~" horiz-adv-x="400" 
d="M96 321q-20 -2 -28 -6q-16 -9 -17 -33q-1 -30 37 -53q14 -9 30 -14q15 -5 23 -4h1l-1 1q-18 16 -26 25q-7 9 -10 15q-4 8 -2 13q1 4 5 6t11 2q13 0 32 -4h1q71 -42 150 -62v0q10 -4 16 -5q6 -2 9 -1h2v0q20 2 27 6q16 10 17 33q2 30 -36 53q-15 9 -30 14t-23 4h-2l1 -1
q19 -16 27 -25q7 -8 10 -15q4 -8 2 -14q-1 -3 -5 -5t-12 -2q-12 0 -32 4v0q-72 42 -151 62v0v0q-18 7 -25 6h-1v0v0v0z" />
    <glyph glyph-name="dotlessi" unicode="&#x131;" horiz-adv-x="175" 
d="M50 7v407h100v-407h-100z" />
    <glyph glyph-name="circumflex" unicode="&#x2c6;" horiz-adv-x="400" 
d="M50 435q2 -57 38 -95l1 -2v3q-14 56 31 126q22 33 93 108q70 -75 92 -108q46 -70 32 -126l-1 -3l2 2q20 22 32 64q5 20 5 35q0 17 -8 25q-14 15 -56 53q-18 16 -78 81q5 5 8 9q5 5 6 9q1 3 -1 6t-6 5q-11 4 -15 4q-4 1 -10 -2q-1 0 -2 -1q-1 1 -3 1q-6 3 -10 2
q-4 0 -14 -4q-5 -2 -7 -5t-1 -6q1 -4 6 -9q2 -3 8 -9q-60 -66 -77 -81q-43 -38 -57 -53q-8 -8 -8 -24v-5z" />
    <glyph glyph-name="caron" unicode="&#x2c7;" horiz-adv-x="400" 
d="M50 530q0 -16 8 -24q14 -15 57 -53q17 -15 77 -81q-6 -6 -8 -9q-5 -5 -6 -9q-1 -3 1 -6t7 -5q10 -4 14 -4q4 -1 10 2q2 0 3 1q1 -1 2 -1q6 -3 10 -2q4 0 15 4q4 2 6 5t1 6q-1 4 -6 9q-3 4 -8 9q60 65 78 81q42 37 56 53q8 8 8 25q0 15 -5 35q-12 42 -32 64l-2 2l1 -3
q14 -57 -32 -126q-22 -33 -92 -108q-71 75 -93 108q-45 69 -31 126v3l-1 -2q-36 -38 -38 -95v-5z" />
    <glyph glyph-name="macron" unicode="&#xaf;" horiz-adv-x="322" 
 />
    <glyph glyph-name="macron" unicode="&#x2c9;" horiz-adv-x="322" 
 />
    <glyph glyph-name="hungarumlaut" unicode="&#x2dd;" horiz-adv-x="345" 
 />
    <glyph glyph-name="quotesinglbase" unicode="&#x201a;" horiz-adv-x="186" 
 />
    <glyph glyph-name="quotereversed" unicode="&#x201b;" horiz-adv-x="447" 
 />
    <glyph glyph-name="quotedblleft" unicode="&#x201c;" horiz-adv-x="212" 
d="M39 500h4l2 2l1 1l2 4q2 5 5 15q6 15 14 43q14 52 20 78q7 32 3 48q-2 10 -8 14q-7 5 -17 5q-29 -3 -51 -29q-11 -13 -12 -25q-2 -15 9 -25q20 -19 26 -64q5 -33 2 -64v-3zM158 500h4l2 2q1 0 1 1l2 4l6 15q5 15 13 43q14 52 20 78q7 32 3 48q-2 10 -8 14q-7 5 -17 5
q-29 -3 -51 -29q-11 -13 -12 -25q-2 -15 9 -25q20 -19 26 -64q5 -33 2 -64v-3z" />
    <glyph glyph-name="quotedblright" unicode="&#x201d;" horiz-adv-x="212" 
d="M39 500h4l2 2l1 1l2 4q2 5 5 15q6 15 14 43q14 52 20 78q7 32 3 48q-2 10 -8 14q-7 5 -17 5q-29 -3 -51 -29q-11 -13 -12 -25q-2 -15 9 -25q20 -19 26 -64q5 -33 2 -64v-3zM158 500h4l2 2q1 0 1 1l2 4l6 15q5 15 13 43q14 52 20 78q7 32 3 48q-2 10 -8 14q-7 5 -17 5
q-29 -3 -51 -29q-11 -13 -12 -25q-2 -15 9 -25q20 -19 26 -64q5 -33 2 -64v-3z" />
    <glyph glyph-name="maqaf" unicode="&#x5be;" horiz-adv-x="410" 
d="M50 322q3 -48 3 -51q3 -10 10 -14q7 -5 20 -5q26 0 95 5q4 1 13 1h38v0l117 -2q4 0 8 -5l4 -2q2 0 6 1q7 3 11 8q2 3 8 16q2 6 1 11q-1 3 -4 5q-5 3 -14 3q-41 3 -137 7l-40 2q-9 0 -59 6q-27 4 -46 7q-24 4 -33 8h-1v-1z" />
    <glyph glyph-name="sofpasuq" unicode="&#x5c3;" horiz-adv-x="178" 
d="M61 373q-11 -27 3 -50q14 -21 40 -26q10 -2 22 4q11 6 19 16t8 21q0 12 -13 21q-5 3 -14 10q-10 8 -14 12q-18 13 -29 12q-14 -1 -22 -20zM83 180q-14 -1 -22 -20q-11 -27 3 -49t40 -27q10 -1 22 4q11 6 19 16t8 21q0 12 -13 21q-5 3 -14 11q-10 8 -14 11q-17 12 -27 12
h-2z" />
    <glyph glyph-name="alef" unicode="&#x5d0;" horiz-adv-x="470" 
d="M53 485l-1 -1l1 -1q5 -3 19 -21q14 -20 24 -27l4 -3q7 -7 19 -21t15 -17q2 -1 7 -7t13 -16t34 -42q-12 -2 -19 -17q-11 -18 -35 -70q-8 -17 -37 -66q-10 -16 -21 -35q-12 -20 -11 -17q-1 -3 -3 -3h-4q-3 1 -5 0q-1 0 -1 -1q-1 -1 -1 -3q-1 -6 2 -13l10 -15q3 -5 9 -6
q5 0 12 1q6 2 10 4q5 2 6 5v0q30 19 59 104q29 88 51 105q11 -13 16 -19q3 -4 6 -6q2 -3 3 -4q1 0 5 -4q3 -4 8 -10q7 -9 25 -30q42 -52 59 -70q20 -23 26 -41q1 -1 3 -9v-2q1 -1 3 -1q1 0 4 -1l8 -2q18 -6 22 -7q15 -5 23 -6q12 -3 17 -3q2 0 4 1q1 1 2 3q1 4 -1 10
q-4 9 -11 20l-7 7q-4 4 -12 13q-15 16 -37 38q-55 56 -58 59q-3 4 -20 21q14 6 24 21v1v0q0 1 1 5q2 3 5 9q5 11 15 29q19 37 37 68q21 37 42 60v0q2 5 0 10q-3 11 -24 17q-25 7 -43 2q-18 -4 -33 -23l-1 -2h1q7 2 15 2q7 0 12 -1q6 -1 9 -3q2 -2 5 -3h2q-2 -2 -1 -1
q-2 -3 -4 -5q-4 -5 -17 -25q-14 -21 -28 -43q-17 -29 -26 -46q-5 -10 -8 -17t-3 -11q-6 -6 -15 -10q-57 56 -58 57q-8 8 -28 41q-22 38 -29 46q-14 19 -20 26q-2 3 -4 5v0q1 -1 -3 3v0q-3 3 -8 5q-3 2 -6 3q-15 6 -42 6h-12z" />
    <glyph glyph-name="bet" unicode="&#x5d1;" horiz-adv-x="463" 
d="M50 483q0 -2 1 -7q0 -4 2 -10q4 -13 10 -26q7 -14 14 -21q5 -5 9 -6q5 -1 9 1q20 9 66 14q49 6 69 0q81 -45 95 -116v0q1 -13 1 -18v0q-6 -63 -1 -99v0q-1 -36 -5 -54q-131 -8 -208 -5q-12 0 -30 5q5 -1 -13 7q-3 2 -5 1q-3 -1 -4 -6q-5 -13 -3 -25q2 -9 16 -17
q11 -7 32 -13v0v0q13 -1 66 -1q39 0 104 1v-1v0q-1 0 6 1v0q67 1 79 1h26h7h4q9 -2 14 2q5 3 10 14q6 13 12 51q2 12 3 25q2 12 2 11h-2q-2 -9 -16 -24q-14 -14 -24 -18q-5 -2 -20 -4q-8 60 -18 154q-1 8 -1 9v0q-11 81 -40 112q-28 30 -99 43q-14 2 -25 2v0q-29 2 -60 3
q-29 1 -37 0q-23 -2 -45 15h-1v-1z" />
    <glyph glyph-name="gimel" unicode="&#x5d2;" horiz-adv-x="330" 
d="M71 483h-1v0v-7q1 -4 3 -10q4 -13 10 -26q7 -15 14 -22q5 -4 9 -5q5 -2 10 0q15 8 61 11q36 3 66 3q4 0 8 1q-1 -11 -4 -31q-5 -21 -4 -25v-20q0 -11 -1 -35h-2q-7 0 -51 -2q-20 -1 -33 6h-1v0q-9 0 -17 -2v-1h-3q-8 -4 -10 -9v0v0v0q-13 -19 3 -39q-20 -51 -44 -99
q-17 -34 -34 -55v-1v0q0 -4 3 -9q6 -9 20 -14v0q13 -3 25 9q12 10 24 34q19 36 52 130v0v1v1q48 16 67 14q-1 -38 -1 -44q-7 -55 -9 -69q0 -4 -3 -8q-2 -1 -2 -3v-5q1 -3 6 -11q4 -8 10 -17q13 -22 21 -30q3 -4 7 -5q3 0 6 2q1 1 9 11q3 3 3 10q0 6 -1 16q-1 12 -5 30
q-1 3 -1 15v29q0 9 1 72q10 -1 13 1q5 2 7 7t0 12t-9 17q-3 5 -6 7q-2 3 -5 4v5q-1 5 2 20q3 10 8 30q1 6 4 15q3 11 4 14q4 14 4 17q1 9 0 10q0 2 -7 7q-16 12 -27 24v1h-1l-23 -4v0q-44 4 -85 6q-20 2 -30 2q-13 1 -15 0q-22 -2 -44 15z" />
    <glyph glyph-name="dalet" unicode="&#x5d3;" horiz-adv-x="463" 
d="M50 484v-1q0 -2 1 -7q0 -4 2 -10q4 -14 10 -26q7 -15 15 -22q4 -4 8 -5q5 -2 10 0q13 6 46 10q26 3 58 4l13 -13q8 -9 10 -42q4 -67 -3 -135q-2 -14 -8 -57q-1 -5 -4 -8q-1 -2 -2 -3q0 -2 1 -6q1 -3 5 -11q5 -8 10 -17q14 -21 21 -29q4 -4 7 -5t6 1q1 1 9 11q3 3 3 11
q1 6 0 15q-2 13 -6 30q0 3 -1 10v18q0 16 1 50v51q1 24 0 29q-1 9 3 36q4 37 4 33v9q-1 2 -7 7t-15 12q34 -5 83 -15q23 -5 39 -9q18 -4 22 -6q16 -8 27 -9q7 -1 11 1q6 2 8 7q1 3 -1 7q-1 3 -5 8q-6 8 -17 18t-22 17t-17 9q-8 2 -17 -3q-8 -5 -16 -2q-10 4 -49 8
q-29 3 -79 7q-44 4 -78 6q-13 1 -27 1q-11 1 -13 0q-22 -2 -44 15v0h-2z" />
    <glyph glyph-name="he" unicode="&#x5d4;" horiz-adv-x="463" 
d="M50 484v-1q0 -2 1 -7q0 -4 2 -10q4 -14 10 -26q7 -15 15 -22q4 -4 8 -5q5 -2 10 0q16 8 62 11q35 3 65 3q23 -1 93 -15q6 -5 12 -12q9 -9 11 -42q4 -67 -3 -135q-2 -14 -8 -57q-1 -5 -4 -8q-2 -2 -2 -3q0 -2 1 -5q1 -4 5 -12t10 -17q13 -21 21 -29q4 -4 7 -5t6 1
q1 1 9 11q3 3 3 11q0 6 -1 15q-1 13 -5 30q0 3 -1 10v19v50q1 32 1 50v29q-1 9 2 36q5 37 5 33v9q-1 2 -7 7q12 -4 13 -4q16 -8 27 -9q7 -1 11 1q6 2 8 7q1 3 -1 7q-1 3 -5 8q-6 8 -17 18t-22 17t-17 9q-8 2 -17 -3q-8 -5 -16 -2q-10 4 -49 8q-29 3 -79 7q-44 4 -78 6
q-13 1 -27 1q-11 1 -13 0q-22 -2 -44 15v0h-2zM185 296q-8 0 -19 -4q-5 -2 -9 -4q-4 -3 -5 -5q-1 -3 -1 -10q-1 -2 -1 -6v-8q-2 -21 -4 -28v-1q-20 -72 -41 -95h-1q-9 -17 -3 -29q5 -11 19 -15t26 1q14 6 17 20v1q0 -1 2 19q1 18 3 33q6 46 13 61q9 20 15 36l5 15q1 6 1 9
q-1 5 -5 8q-5 3 -12 2v0z" />
    <glyph glyph-name="vav" unicode="&#x5d5;" horiz-adv-x="155" 
d="M51 482q3 -13 7 -29q4 -13 8 -22q4 -11 8 -15q8 -9 10 -42q5 -76 -3 -150q-2 -15 -8 -58q-1 -4 -4 -7q-1 -2 -2 -3q0 -2 1 -6q1 -3 5 -11q4 -7 10 -17q14 -21 21 -29q4 -4 7 -5t6 1q1 1 9 11q3 3 3 11q1 6 0 15q-2 12 -6 30q0 3 -1 11v20q0 18 1 55v55q1 27 0 32
q-1 10 3 37q4 36 4 32v9q-1 2 -5 5v0l-2 2q-3 3 -6 10q-1 4 -3 14t-4 14q-3 7 -7 8q-23 5 -51 24l-2 1z" />
    <glyph glyph-name="zayin" unicode="&#x5d6;" horiz-adv-x="304" 
d="M54 509v-1q-2 -10 -2 -22q-2 -24 1 -37q3 -12 7 -17q5 -5 14 -5q22 0 55 -1q-3 -9 -6 -12q-7 -5 -8 -7q0 -1 1 -9q-1 5 4 -32q3 -27 2 -37v-32q0 -18 1 -55v-55v-20q0 -9 -1 -11q-4 -17 -5 -30q-1 -9 -1 -15q1 -8 3 -11q8 -10 9 -11q3 -2 6 -1q4 1 7 5q8 8 21 29
q6 9 10 17q5 8 6 11q1 4 0 6q0 1 -2 3q-3 3 -3 7q-7 44 -9 58q-8 74 -3 150q3 33 11 42q2 2 4 8q23 -2 32 -5q21 -6 38 -10q9 -2 15 -2q6 -1 9 0q5 1 7 6t1 12t-7 18q-3 5 -5 9q-3 3 -6 4q-2 1 -9 0q4 0 -15 -1q-20 -1 -28 0q-3 1 -20 3q4 13 7 24v3l-2 -1q-17 -12 -39 -20
q-38 7 -62 16q-31 12 -36 28v1h-2z" />
    <glyph glyph-name="het" unicode="&#x5d7;" horiz-adv-x="454" 
d="M52 484h-2v0q0 -4 2 -13q3 -10 7 -21q11 -28 24 -35q8 -27 8 -35v0q0 -1 -2 -95q-2 -125 -2 -136v0q-4 -17 -5 -27v-13q1 -6 3 -9q8 -10 9 -11q3 -2 6 -1q4 1 7 5q8 8 21 29q6 9 10 17q5 8 6 11q1 4 0 6q0 1 -2 3q-3 3 -3 8q-1 1 -1 6q-1 6 -2 9v0q6 80 3 110
q-2 16 -9 59q-4 29 -4 36q2 19 2 35q45 7 95 6q47 -1 101 -32q40 -35 49 -84q0 -6 1 -18v0q-6 -64 -1 -99v-1q-1 -23 -3 -40q-2 -18 -5 -25q-4 -10 -18 -23q-15 -14 -24 -17v-2q17 2 36 4q39 6 52 12q11 6 14 10q4 6 3 15q-1 3 -4 24q-3 22 -6 47q-6 54 -11 101q-1 10 -1 9
v0q-11 80 -45 111v0q-2 2 0 0q-29 28 -69 41q-5 1 -22 3q1 0 0 0l-1 1h-2v0v0h-8v0q-37 3 -98 5q-24 0 -43 1q-17 0 -22 -1q-22 -2 -44 15v-1z" />
    <glyph glyph-name="tet" unicode="&#x5d8;" horiz-adv-x="469" 
d="M99 475q-4 0 -7 -4l-4 -4q-2 -3 -3 -4q-2 -3 -3 -9q0 -5 1 -13q0 -11 4 -28v0q1 -9 3 -135l1 -95v0q0 -8 -8 -35q-12 -7 -24 -35q-4 -11 -7 -21q-2 -10 -1 -13v-2l1 1q22 16 44 14h23q18 0 42 1q62 1 98 4v0h8l1 1q-1 -1 2 0v0q16 2 22 4q40 12 69 40v0q2 2 0 1v0h1v0
q33 31 45 111v8v1q14 126 20 167q4 0 2 0q7 0 10 2t4 5q1 4 -1 9q-5 10 -7 13q-3 3 -8 6q-3 1 -6 0q-1 0 -3 -2q-3 -3 -6 -3q1 0 -2 0q-20 9 -45 11h-1v-1q1 -3 1 -10q-50 2 -65 2q-11 0 -23 -12q-11 -10 -21 -28q-20 -36 -21 -65l-1 -5l3 4q26 44 60 59q24 11 70 12
q3 -31 5 -78v0q-2 -31 2 -76q0 -13 -1 -23v0q-9 -48 -49 -83v0q-53 -31 -101 -32q-50 -1 -95 6q0 16 -2 34q0 8 4 37q7 42 9 59q3 30 -2 110v0q2 16 2 15q1 5 4 8q1 2 1 3q1 2 0 5q-1 4 -6 12q-4 8 -10 17q-13 21 -21 29q-3 4 -7 5v0h-1z" />
    <glyph glyph-name="yod" unicode="&#x5d9;" horiz-adv-x="183" 
d="M101 479q-12 -3 -14 -13q0 -2 1 -36q-3 -6 -4 -24q-1 -15 1 -39q2 -39 5 -61q0 -4 1 -7h-1q-3 1 -6 0q-3 0 -9 2q-5 2 -10 5q-7 4 -13 8l-2 2l1 -3q1 -10 2 -18q0 -3 5 -9t13 -12q19 -15 36 -17q16 -2 27 5q5 3 7 7v0v0q-6 30 -7 74q0 32 1 57q0 11 1 19q1 7 2 9q1 3 9 9
t9 8q2 5 2 9q-1 4 -5 10q-3 3 -11 7q-6 2 -16 4q-8 3 -15 4h-6h-2h-2z" />
    <glyph glyph-name="kaffinal" unicode="&#x5da;" 
d="M51 484h-1v-1q0 -2 1 -6q0 -4 2 -10q4 -14 10 -26q7 -15 14 -22q5 -4 9 -5q5 -2 10 1q15 7 61 10q36 3 66 3q47 -1 100 -32v0q43 -38 51 -93q-4 -37 -4 -67q-8 -106 -6 -263v0v-8v-17q0 -20 -2 -50q-1 -41 -5 -109q-2 -34 -11 -52q0 -2 -5 -9q-1 -2 -1 -3t1 -2q0 -1 2 -4
l4 -8q8 -15 13 -22q7 -14 13 -24q7 -11 11 -15l4 -2q3 0 5 1q3 2 6 9q5 10 7 23v12v23q0 19 -1 64q-2 38 -2 65q-1 32 -1 37q1 10 0 85q-1 91 -1 89q1 80 -1 141v0q8 40 5 112v0q-11 80 -44 111h-1v0q1 -1 0 1v0q-29 27 -69 40q-5 2 -22 3v0l-2 1v0h-8q-37 3 -98 5
q-25 1 -43 1t-22 -1q-22 -2 -44 15z" />
    <glyph glyph-name="kaf" unicode="&#x5db;" 
d="M51 484h-1v-1q0 -2 1 -6q0 -4 2 -10q4 -14 10 -26q7 -15 14 -22q5 -4 9 -5q5 -2 10 0q15 8 61 11q36 3 66 3q47 -1 101 -32v0q39 -35 49 -83q0 -40 -17 -119q-1 -2 -1 -4q-9 -33 -55 -47q-28 -8 -63 -9q-19 0 -57 11q-32 10 -54 20q-5 3 -10 0q-6 -2 -11 -7
q-10 -10 -20 -28q-9 -16 -16 -32q-2 -8 -4 -13q-1 -5 -1 -7v-2l2 1q22 16 44 14h32q30 1 61 2q38 1 63 3q30 2 40 5q41 13 69 41l2 2q2 1 3 3q4 5 8 13l2 4q0 1 2 5q1 2 3 8v0q2 5 5 15q3 14 4 25q1 10 1 14v0q3 35 1 78q-11 80 -45 110v1v0v0q-1 1 -1 0q-28 28 -68 41
q-6 1 -22 3v0v0q-1 0 -2 1h-1v0v0h-8v0q-37 3 -98 5q-25 0 -43 1q-18 0 -22 -1q-22 -2 -44 15z" />
    <glyph glyph-name="lamed" unicode="&#x5dc;" horiz-adv-x="444" 
d="M62 814h1q29 -19 38 -71q1 -10 -2 -34q0 -6 -2 -20q-2 -11 -3 -17q-7 -1 -15 -2l-8 -1q-2 0 -3 1q-1 0 -2 2t-2 2q-2 0 -4 -1q-4 -3 -5 -7q-2 -3 -4 -14q-1 -5 0 -8q0 -3 2 -5q3 -1 8 -1v0q9 0 30 3q-16 -82 -8 -126q11 -65 66 -77q80 -19 187 -12q-6 -25 -6 -34
q0 -20 -10 -72q-11 -57 -25 -98q-18 -50 -119 -114q-12 -8 -29 -11q-3 -1 -4 -1q-2 0 -2 -1q-1 -2 0 -3l3 -3l1 -1q54 -19 120 28q59 41 79 94q4 10 13 43q6 26 17 71q9 40 15 67q2 11 5 23q2 9 2 11t1 6q13 -2 18 0q2 1 3 2q0 2 1 5q0 4 -1 11l-3 15t-2 13q-1 7 -7 10
q-5 2 -13 1q-9 0 -40 -8q1 1 -109 -13q-36 -5 -62 4q-33 12 -39 45q-9 50 10 123l1 1h-1v0q1 5 2 8q87 10 139 4q75 -7 94 -45l1 1v0q-2 29 -19 64q-8 17 -16 26q-9 11 -16 10q-14 -2 -51 -11q-7 -2 -48 -7q-38 -5 -82 -10q4 28 5 59q1 18 0 30q-1 14 -5 18q-1 2 -6 5
q-5 2 -12 5q-12 4 -32 9q-10 2 -43 9h-1l-1 1v-2z" />
    <glyph glyph-name="memfinal" unicode="&#x5dd;" horiz-adv-x="434" 
d="M51 484q-1 -4 1 -13q3 -11 7 -21q12 -28 25 -35q7 -27 7 -35v0q0 -1 -1 -95q-2 -125 -3 -136v0q-3 -14 -4 -23q-8 -15 -14 -30q-2 -7 -4 -11q-1 -5 -1 -7l1 -2l1 1q22 16 44 14h33q29 1 60 2q38 1 63 3q31 2 40 5q22 7 33 13q14 -18 34 -17t21 2q5 2 7 8q1 6 0 18v10
q0 11 1 20q0 7 1 27q1 19 1 31q5 38 3 96q-12 80 -46 111q-28 28 -69 41q-5 1 -22 3v0l-1 1h-1h-1v0h-7h-1q-36 3 -98 5q-24 0 -42 1q-18 0 -23 -1q-22 -2 -44 15l-1 1v-2zM223 428q48 -1 102 -32v0q38 -35 48 -83v0q0 -48 -21 -139q-61 -39 -115 -40q-31 0 -94 25
q-3 3 -4 7q0 1 -1 7t-1 9q5 79 2 110q-2 17 -9 59q-4 29 -3 36q1 18 1 35q37 5 83 6h12z" />
    <glyph glyph-name="mem" unicode="&#x5de;" horiz-adv-x="444" 
d="M56 488q-6 -1 -5 -7h1q3 -16 7 -29t8 -22q4 -12 8 -17q8 -8 10 -39v-4q-13 -14 -22 -25q-1 -1 -1 -2q-2 -8 0 -12q2 -6 9 -7q5 0 13 3q0 -32 -1 -59q-1 -37 -1 -44q-2 -15 -9 -57q0 -3 -2 -5q-2 -3 -3 -5q-1 -3 1 -8q1 -4 5 -12q5 -8 10 -17q14 -22 22 -30q4 -5 9 -6t9 2
q2 1 10 11q4 5 4 13q1 7 0 16q-2 13 -6 31q0 2 -1 10v20q0 21 1 55v56q1 27 0 32q0 3 1 18q1 0 2 1q58 67 123 63q31 -2 53 -24q24 -25 32 -73q4 -45 2 -111q-3 -12 -6 -25v0q0 -1 -2 -6q-13 -26 -37 -33q-4 -2 -10 -3t-8 -2l-6 -2q-6 16 -18 45v0q-2 3 -4 10l-5 10v1
l-34 48q-3 4 -7 2q-4 -3 -2 -7q1 -4 4 -10q2 -7 4 -10v0q20 -46 25 -68v0q1 -3 3 -16q1 -5 3 -9l7 -14q9 -15 19 -33q1 -4 6 -6l6 -2h2q24 3 51 15q32 14 40 29q0 1 1 1q7 18 12 32v0q12 28 20 65v0q10 73 6 115v0q-8 56 -25 81v1q-21 29 -50 38v1h-1v0q-28 13 -92 6
q-68 -8 -95 -31q-9 -6 -19 -12l-1 1l-2 2v0v0q-2 1 -4 7q-1 3 -3 14q-2 10 -4 15q-4 9 -10 10q-22 5 -49 23v0q-2 1 -3 1h-1z" />
    <glyph glyph-name="nunfinal" unicode="&#x5df;" horiz-adv-x="173" 
d="M50 484q29 -19 38 -72q2 -10 3 -44q2 -42 1 -40q1 -2 1 -19v-41v-56v-63q1 -85 1 -118q0 -26 1 -41v-12v-5q1 -2 1 -8q0 -7 -1 -17q0 -19 -1 -50q-2 -47 -6 -110q-1 -33 -10 -51q-1 -2 -5 -9q-1 -2 -2 -3q0 -1 1 -3q1 0 3 -4q2 -5 4 -7q14 -26 12 -23q7 -13 13 -23
q7 -11 11 -15q2 -2 4 -2q3 0 5 1q3 2 6 8q5 10 7 24v12v22q0 22 -1 65q-2 45 -2 65q-1 31 -1 37q1 11 0 85q-1 93 -1 89q0 57 1 144q1 57 2 95q1 46 2 55q1 3 4 27q3 20 5 32q2 18 2 30q0 14 -3 18q-2 2 -7 5q-4 2 -12 5q-12 4 -32 9q-22 5 -43 9z" />
    <glyph glyph-name="nun" unicode="&#x5e0;" horiz-adv-x="332" 
d="M219 487q19 -14 21 -44q1 -10 0 -26q-1 -21 -1 -25q1 -21 -9 -73q-12 -57 -26 -98q-17 -49 -118 -113q-12 -8 -30 -11q-2 -1 -3 -1q-2 -1 -3 -2q0 -1 1 -2t3 -4v0v0q55 -19 121 28q58 41 79 93q3 10 12 44q7 29 17 70q8 34 15 67q4 19 5 23q2 9 3 11q1 10 0 21
q-2 14 -6 21q-2 1 -6 4q-4 1 -10 3q-11 4 -27 8q1 -1 -37 7v0z" />
    <glyph glyph-name="samekh" unicode="&#x5e1;" horiz-adv-x="462" 
d="M50 482q0 -2 1 -8t4 -14q6 -18 14 -31q-2 -15 -2 -59l4 -46q12 -112 49 -184q-1 1 17 -30v0q15 -17 18 -18q24 -8 36 -1q-2 -1 1 0q75 21 126 77q53 57 63 134v51q0 14 2 21q2 9 9 12q5 2 9 3q13 -5 21 -5q5 0 9 2q3 2 5 6q1 3 -1 7q-1 3 -5 8q-6 8 -17 18t-21 17
q-12 7 -17 9q-8 1 -17 -4q-8 -4 -17 -1t-48 8q-33 3 -80 7q-43 3 -77 5q-14 1 -27 2h-13q-22 -2 -44 15h-1zM210 426h13q15 0 56 -7q35 -6 71 -15q-8 -14 -8 -37q0 -7 5 -28q4 -19 3 -30q-7 -53 -43 -99t-87 -69q-39 9 -53 9q-2 3 -4 4q-36 68 -48 177l-3 45v0v42q36 8 98 8
v0z" />
    <glyph glyph-name="ayin" unicode="&#x5e2;" horiz-adv-x="454" 
d="M323 485v-2v0q9 -3 24 -16q14 -14 18 -24q3 -7 6 -25q1 -16 2 -41v0q-5 -36 1 -99v0q0 -4 -1 -18v0q-14 -75 -104 -121q-16 -2 -51 -1q-2 19 -8 47q-2 7 -1 37q2 42 2 59q-1 26 -7 96q-1 10 -3 25q-1 16 -2 21q-1 11 -1 15v5v2q0 9 -4 14q-5 4 -16 8q-14 4 -53 5h-36v-2
q10 -1 26 -13t21 -22q2 -2 3 -8q2 -6 3 -15q3 -17 7 -43q3 -18 7 -49t5 -39l13 -93v0q1 -8 -2 -26l-3 -22q-2 0 -47 3q-14 1 -17 1h-9q-22 -2 -44 15l-1 1l-1 -2q0 -2 1 -7q0 -4 2 -10q4 -14 10 -26q7 -15 15 -22q4 -4 8 -6q5 -1 10 1q16 7 62 11q35 3 65 2q60 0 59 0
q18 -1 28 -2q13 -2 19 -4q12 -6 26 0t18 17q2 4 -1 9q-2 4 -6 8q-7 7 -19 12q25 17 38 43q14 28 21 79v0q0 1 1 9q5 46 11 101q3 26 6 47q3 20 3 24q2 9 -2 15q-3 4 -15 10t-51 12q-28 4 -35 4h-1z" />
    <glyph glyph-name="pefinal" unicode="&#x5e3;" horiz-adv-x="435" 
d="M120 488q-4 -5 -8 -18h-16q-22 -2 -44 15l-1 1l-1 -2q0 -2 1 -7q0 -4 2 -10q4 -14 10 -26q7 -15 15 -22q4 -4 9 -6q4 -1 9 1v0q-8 -32 -16 -65q-4 -17 -6 -26q-2 -11 -3 -13q-1 -14 2 -27v0q1 -11 4 -21q4 -12 7 -15q7 -5 11 -6t8 2q3 1 9 9q6 7 9 8q7 3 23 4q22 3 50 1
q44 -2 73 -10h1v0q4 2 7 7q7 11 6 27q-1 17 -15 37q-6 7 -12 13q-6 5 -9 6q-8 1 -18 3h-3l2 -2q4 -6 8 -13q3 -5 5 -10q2 -6 1 -9q-1 -4 0 -7v0q-4 1 -7 1q-17 3 -55 5q-21 1 -35 1q-16 -1 -22 -4v0q-1 0 -3 -1q-2 7 -1 29q-1 23 15 84q45 6 91 6q47 -1 102 -32
q43 -39 50 -94q-4 -37 -4 -67q-8 -106 -6 -263v-1v-8v-16q0 -20 -2 -50q-1 -42 -5 -111q-2 -33 -11 -51q0 -1 -5 -9q-1 -2 -1 -3t1 -3l2 -4q1 -1 4 -8q10 -18 13 -22q7 -14 13 -23q7 -12 11 -15q2 -2 4 -2q3 -1 5 1q3 2 6 8q5 10 7 24q1 2 1 12q0 7 -1 22q0 21 -1 65
q-2 44 -2 65q-1 32 -1 37q1 11 0 86q-1 96 -1 89q1 80 -1 141q9 40 6 112v1q-12 80 -46 111q-29 28 -69 41q-5 1 -22 3v0q-6 2 -3 1v0h-8q-39 3 -106 5l6 3q11 7 26 10h3q2 1 2 2q1 1 0 3l-3 3v0h-1q-24 9 -40 9q-18 -1 -26 -12z" />
    <glyph glyph-name="pe" unicode="&#x5e4;" 
d="M146 500q-18 0 -27 -11q-3 -5 -7 -18q-13 0 -16 -1q-22 -2 -44 15l-1 1l-1 -2q0 -2 1 -7q0 -4 2 -10q4 -14 10 -26q7 -15 15 -22q4 -4 8 -5q5 -2 10 0v0q-8 -32 -16 -65q-4 -17 -6 -26q-2 -11 -3 -13q-2 -13 1 -26v0q2 -12 5 -22q3 -12 7 -15q7 -5 11 -6q4 0 8 2q3 1 9 9
q6 7 9 8q7 3 23 5q22 2 50 1q44 -3 73 -10l1 -1v1q4 2 7 7q7 10 6 26q-1 17 -15 37q-6 8 -12 13t-9 6q-8 1 -18 3l-3 1l2 -3q4 -5 8 -12q3 -6 4 -11q2 -6 2 -9q-1 -3 -1 -6l1 -1q-4 1 -7 1q-17 4 -55 6q-21 1 -35 0q-16 0 -22 -4v0q-1 0 -3 -1q-2 7 -1 30v0q-1 22 15 84
q45 5 91 5q47 -1 101 -32v0q39 -35 49 -83q0 -40 -17 -119q-1 -2 -1 -4q-9 -33 -55 -47q-28 -8 -63 -9q-19 0 -57 11q-32 10 -54 20q-5 3 -10 0q-5 -2 -11 -7q-10 -10 -20 -28q-9 -16 -15 -32q-3 -7 -5 -13q-1 -5 -1 -7l1 -2l1 1q22 16 44 14h33q29 1 60 2q38 1 63 3
q31 2 40 5q41 13 69 41q2 1 3 2l3 3q3 5 7 13l2 4q1 1 2 5q1 2 3 8v0q3 5 5 15q4 14 5 25q0 10 1 14v0q2 35 0 78q-11 80 -44 110v0l-1 1v0v0q-1 1 0 0q-29 28 -69 41q-6 1 -22 3v0v0q-1 0 -1 1h-2v0v0h-8v0q-39 4 -106 5l6 3q10 7 26 10q2 0 3 1q2 0 2 1q1 1 0 3l-3 3v0h-1
q-23 9 -39 9v0h-1z" />
    <glyph glyph-name="tsadifinal" unicode="&#x5e5;" horiz-adv-x="414" 
d="M381 490v-1q0 -9 -11 -26q-10 -17 -19 -24q-3 -1 -4 -2q-10 -8 -23 -24q-17 -22 -84 -82q-2 3 -67 106q-2 4 -5 6q1 -1 -1 1q-1 4 -6 7q-4 3 -13 6v0q-21 9 -52 11v0q-22 -2 -44 15l-1 1l-1 -2q0 -2 1 -7q0 -4 2 -10q4 -14 10 -26q7 -15 15 -22q4 -4 8 -5q5 -2 10 0h19
q8 -13 14 -18v-1h1q1 -1 4 -3q3 -3 6 -8q7 -8 17 -23q7 -10 20 -30q17 -25 22 -33q-4 -3 -7 -5v-1q-6 -5 -24 -14q-14 -7 -13 -7l-8 -4v-1l1 -1q11 4 33 -1q19 -5 35 7q1 0 1 1q18 -25 27 -34l67 -67q4 -4 10 -14q1 -4 2 -9q2 -12 3 -44q2 -44 1 -41q1 -4 1 -46q1 -17 1 -27
q1 -13 1 -16q1 -2 1 -9q0 -6 -1 -16q0 -20 -1 -50q-2 -45 -6 -110q-1 -34 -10 -52q-1 -1 -5 -9q-1 -2 -2 -3q0 -1 1 -3q1 0 3 -3q-1 0 4 -8q10 -19 12 -23q8 -14 13 -23q8 -12 11 -15q2 -2 5 -2q2 0 4 1q3 2 7 8q5 10 7 24v12v23q-1 21 -2 64q-1 44 -2 65q-1 32 0 37v86
q-1 88 -1 89v9q0 1 1 2q0 1 1 4q1 4 3 13q0 5 3 21q2 15 3 24q9 6 7 15q-1 2 -4 6q2 16 1 25q0 13 -3 17q-2 2 -8 5q-5 2 -13 5q-14 5 -36 10q-33 46 -39 54q-8 11 -24 35q45 33 70 50q36 26 43 30q5 2 8 7t5 14q3 14 1 53q-1 7 -3 36h-3z" />
    <glyph glyph-name="tsadi" unicode="&#x5e6;" horiz-adv-x="416" 
d="M383 490h-2v0q0 -10 -11 -27q-10 -17 -19 -23l-2 -2q-4 -1 -8 -6t-11 -15q-7 -11 -34 -39q-25 -27 -52 -53l-6 9q-19 29 -43 68q-7 12 -15 25l-7 10q0 1 -1 2q0 1 -1 2q-2 1 -3 3h-1v0v0q-1 4 -6 7q-4 3 -13 6v0v0v0q-21 9 -52 11v0q-22 -1 -44 15l-1 1l-1 -2q0 -2 1 -6
q0 -5 2 -11q4 -13 10 -26q7 -15 15 -22q4 -4 8 -5q5 -2 10 0h19q8 -13 14 -18v-1h1l4 -4l7 -7q7 -9 18 -26q7 -10 22 -33q16 -23 23 -34q-4 -3 -3 -3v0q-6 -6 -25 -15q-17 -8 -13 -6q-6 -3 -8 -5q-2 -1 -3 -6v-10q0 -12 3 -20q2 -6 7 -9q4 -3 9 -2q3 0 8 4t12 10
q12 11 28 27q2 2 5 6q13 -17 20 -24l9 -9q51 -50 58 -58v0q5 -5 14 -21q-17 0 -30 -6q-9 -4 -37 -5q-22 0 -59 2q-19 1 -56 4q-15 1 -20 1h-11q-22 -2 -43 15l-2 1v-2q-1 -2 0 -7q1 -4 3 -10q3 -14 9 -26q7 -15 15 -22q4 -4 9 -6q5 -1 9 1q16 7 62 11q35 3 65 2q61 0 59 0
q18 -1 29 -2q13 -2 18 -4q12 -6 26 0t18 17q2 4 -1 10q-2 4 -7 8q6 6 4 13q0 3 -5 8q-3 4 -10 11q-12 12 -28 26q-6 5 -23 29q-24 34 -35 48q-7 10 -20 29q31 25 64 51q14 12 25 20t13 10q7 3 10 7v0q6 4 10 19q3 14 1 53q-1 7 -4 36v0z" />
    <glyph glyph-name="qof" unicode="&#x5e7;" horiz-adv-x="462" 
d="M50 483q0 -3 1 -7q0 -4 2 -11q4 -13 10 -25q7 -15 15 -22q4 -4 8 -6q5 -1 9 1q16 7 62 11q36 3 66 3q15 -1 56 -8q37 -7 71 -15q-8 -14 -8 -37q0 -7 5 -28q5 -19 3 -30q-15 -118 -130 -168q-14 5 -24 21q1 52 4 65q9 53 38 72l-1 1v0q-24 -5 -43 -9q-20 -5 -32 -10
q-7 -2 -12 -4q-5 -3 -7 -5q-3 -5 -3 -18q0 -11 2 -30q2 -12 5 -32q4 -24 4 -27q5 -36 5 -110q0 1 -1 -89q-1 -75 0 -86q0 -6 -1 -37q0 1 -1 -65q-2 -43 -2 -65v-23v-11q2 -14 7 -24q3 -6 6 -8q2 -1 4 -1q3 0 5 2q3 3 10 15q6 9 14 23q-2 -3 12 23q3 5 4 7q2 3 3 4t0 3
q0 1 -1 3q-4 7 -5 8q-9 19 -11 52q-3 66 -5 111q-1 30 -2 50v16v9q1 1 1 5v9q1 13 1 30q0 21 1 76q74 21 124 77q52 57 62 133q1 3 0 51q0 14 2 21q3 9 9 12q6 2 10 3q12 -5 21 -4q5 0 8 1q4 2 5 6q1 3 0 7q-2 3 -5 8q-6 8 -18 18q-10 10 -21 17t-17 9q-8 1 -17 -3
q-8 -5 -17 -2q-9 4 -48 8q-33 3 -80 7q-45 4 -77 6q-15 1 -27 1q-11 1 -13 0q-22 -2 -45 15v1z" />
    <glyph glyph-name="resh" unicode="&#x5e8;" horiz-adv-x="463" 
d="M50 484v-1q0 -2 1 -7q0 -4 2 -10q4 -14 10 -26q7 -15 15 -22q4 -4 9 -5q4 -2 9 0q16 8 62 11q35 3 65 3q23 -1 93 -15q6 -5 12 -12q9 -9 11 -42q4 -67 -3 -135q-2 -14 -8 -57q-1 -5 -4 -8q-2 -2 -2 -3q0 -2 1 -5q1 -4 5 -12t10 -17q13 -21 21 -29q4 -4 7 -5t6 1q1 1 9 11
q3 3 3 11q0 6 -1 15q-1 13 -5 30q0 3 -1 10v19q0 15 1 50v50q1 24 0 29q-1 10 2 36q5 38 5 33v9q-1 2 -6 6q11 -3 12 -3q16 -8 27 -9q7 -1 11 1q6 2 8 7q1 3 -1 7q-1 3 -5 8q-6 8 -17 18t-22 17t-17 9q-8 2 -17 -3q-8 -5 -16 -2q-10 4 -48 8q-30 3 -80 7q-44 4 -78 6
q-13 1 -27 1q-11 1 -13 0q-22 -2 -44 15v0h-2z" />
    <glyph glyph-name="shin" unicode="&#x5e9;" horiz-adv-x="463" 
d="M50 485v-2v0v0q9 -3 24 -17q14 -13 19 -23q1 -3 1 -9q1 -6 2 -16q1 -16 1 -43q1 -19 1 -49v-39l2 -95v0q0 -8 -5 -26q-6 -19 -6 -22q-12 3 -28 15l-2 1v-2q0 -2 1 -7q0 -4 2 -10q4 -14 10 -26q7 -15 14 -22q5 -4 9 -6q5 -1 10 1q16 7 61 11q36 3 66 2q60 0 59 0
q17 -1 28 -2q13 -2 18 -4q12 -6 27 0q14 6 18 17q1 4 -1 9q-2 4 -6 8q-8 7 -20 12q26 17 39 43q14 28 21 79v0q0 -3 0 9q4 36 12 93q3 22 6 42q2 18 3 21q2 9 -2 15q-4 4 -15 10q-13 6 -51 11q-15 3 -36 5v0v-2v0q9 -3 24 -17q14 -13 18 -24q4 -8 5 -17l1 -2q1 -10 2 -30v0
q-5 -36 1 -99v0q-1 -4 -1 -18v0q-15 -75 -104 -121q-19 -3 -66 -1q-24 1 -75 4q0 20 -2 43q-1 7 4 36q7 43 8 59q3 26 5 97q1 18 2 46v15v4l1 2q2 9 -3 15q-3 4 -14 10q-13 6 -52 12q-28 4 -35 4h-1zM198 472q11 -6 19 -29q7 -19 12 -49q7 -45 6 -88v0q1 -9 -4 -29
q-2 -14 -3 -14q-1 -7 -1 -9q0 -3 4 -6q3 -4 7 -7q10 -7 17 -9t12 -1q5 2 8 6q1 3 1 9t-1 15q-1 17 -4 39q-1 9 0 32q2 19 5 45q4 28 9 65q2 9 -3 14q-4 5 -15 10q-13 5 -42 7q-15 1 -27 1v-2z" />
    <glyph glyph-name="tav" unicode="&#x5ea;" horiz-adv-x="530" 
d="M118 484v-1v-6q1 -4 2 -10q4 -12 9 -23q6 -14 13 -22q8 -10 16 -10q16 -48 18 -53q16 -40 14 -96q-1 -12 -4 -49q-2 -31 -2 -50v0v-4q-44 -6 -98 -30l-4 -2v1q0 2 -1 6q-2 6 2 21q3 7 5 14l1 2l-3 -1q-7 -3 -13 -5l-3 -3t-4 -5l-7 -14q-9 -22 -8 -40q1 -16 7 -26
q2 -3 4 -5q2 -1 3 -1v0h1q22 12 55 20q32 8 52 12q11 3 20 4q4 1 6 1h3v0q17 -4 27 2q8 5 9 15q1 20 -15 40q2 15 0 23v0q-2 19 -12 116q-7 71 -17 116q45 6 97 6q22 -1 93 -15l12 -12q8 -9 10 -42q5 -67 -3 -135q-1 -15 -8 -57q-1 -5 -4 -8q-1 -2 -1 -3q-1 -2 0 -5
q1 -4 6 -12q4 -8 10 -17q13 -21 21 -29q3 -4 7 -5q3 -1 6 1q1 1 9 11q2 3 3 11q0 6 -1 15q-1 12 -5 30q-1 3 -1 10v19v50q1 43 1 50v29q-1 9 2 36q4 37 4 33q1 8 1 9q-1 2 -7 7q11 -4 13 -4q15 -7 26 -9q7 -1 12 1t7 7q1 3 0 7q-2 3 -5 8q-7 8 -18 18t-21 17q-11 7 -17 9
q-8 2 -17 -3q-8 -5 -17 -2q-8 3 -39 7q-27 3 -67 6q-77 7 -125 9q-4 9 -6 13h-1h-1q-1 0 -3 -1q-1 -2 -3 -4q-3 -3 -7 -8q-17 0 -37 15h-1h-1z" />
    <glyph glyph-name="geresh" unicode="&#x5f3;" horiz-adv-x="94" 
d="M39 500h4l2 2q1 0 1 1l2 4l6 15q5 15 13 43q14 52 20 78q7 32 3 48q-2 10 -8 14q-7 5 -17 5q-29 -3 -51 -29q-11 -13 -12 -25q-2 -15 9 -25q20 -19 26 -64q5 -33 2 -64v-3z" />
    <glyph glyph-name="gershayim" unicode="&#x5f4;" horiz-adv-x="212" 
d="M39 500h4l2 2l1 1l2 4q2 5 5 15q6 15 14 43q14 52 20 78q7 32 3 48q-2 10 -8 14q-7 5 -17 5q-29 -3 -51 -29q-11 -13 -12 -25q-2 -15 9 -25q20 -19 26 -64q5 -33 2 -64v-3zM158 500h4l2 2q1 0 1 1l2 4l6 15q5 15 13 43q14 52 20 78q7 32 3 48q-2 10 -8 14q-7 5 -17 5
q-29 -3 -51 -29q-11 -13 -12 -25q-2 -15 9 -25q20 -19 26 -64q5 -33 2 -64v-3z" />
    <glyph glyph-name="newsheqel" unicode="&#x20aa;" horiz-adv-x="592" 
d="M52 475h-2v-1q0 -4 2 -13q3 -9 7 -20q11 -27 24 -34q7 -26 7 -35v0q0 -1 -1 -92q-2 -124 -3 -134v0q-3 -16 -4 -27q-1 -7 0 -12q0 -6 2 -9q8 -10 9 -11q3 -2 6 -1q4 1 7 5q7 8 21 29q5 8 9 16q5 8 6 11q1 4 0 6q0 1 -1 3q-3 3 -4 7q0 2 -1 7q-1 6 -1 8v1q5 78 2 107
q-2 16 -8 58q-5 29 -4 36q1 18 2 34q44 6 93 5q46 0 99 -31q39 -34 48 -82q0 1 0 -9q-1 -3 -1 -12q-1 -3 -1 -7t-1 -6l-3 -14q-1 -7 -1 -9t3 -6q3 -3 8 -7q9 -6 17 -9q6 -2 11 -1q5 2 7 7q2 2 2 9q0 5 -1 14q-1 17 -4 38q0 3 -4 8v1q-11 78 -44 108v1q-2 2 -1 0
q-27 27 -67 40q-5 1 -21 3v0q-1 0 -2 1h-1v0v0h-8v0q-36 3 -96 5h-42h-22q-21 -2 -43 14v0zM463 460l-1 -2v-1q10 -2 24 -15q14 -14 18 -24q4 -8 5 -17v-2q2 -11 3 -29v0q-6 -36 0 -98v0q0 -4 -1 -17v0q-14 -73 -101 -118q-19 -3 -65 -2q-24 1 -74 5q2 24 8 34q6 11 8 35
q-1 -4 1 45v15q0 3 1 4v2q2 9 -2 14t-15 10q-12 6 -50 12q-9 1 -35 4v0l-1 -2v0q9 -2 24 -16q14 -14 18 -24q1 -2 2 -8q0 -6 1 -15q1 -17 2 -43q1 -20 -9 -65q-11 2 -27 14l-2 1v-2q0 -2 1 -7q0 -4 2 -10q4 -13 9 -25q7 -15 15 -22q4 -4 9 -5q4 -2 9 0q15 8 60 11q35 3 65 2
q59 0 57 0q17 -1 28 -2q13 -2 18 -4q12 -5 26 0q14 6 17 16q2 5 0 9t-6 9q-8 6 -19 11q24 17 37 42q14 28 21 78v0v8q4 36 12 92q2 19 6 41q2 17 3 21q2 8 -2 14q-4 4 -15 10q-12 6 -50 11q-10 2 -35 5v0z" />
    </font>
</defs>
</svg>
