<?xml version="1.0" standalone="no"?>
<!DOCTYPE svg PUBLIC "-//W3C//DTD SVG 1.1//EN" "http://www.w3.org/Graphics/SVG/1.1/DTD/svg11.dtd" >
<svg xmlns="http://www.w3.org/2000/svg" xmlns:xlink="http://www.w3.org/1999/xlink" version="1.1">
<metadata>
Created by FontForge 20170910 at Wed May  2 13:13:42 2012
 By Jimmy Wärting
Copyright 2002, 2003, 2005, 2008, 2009, 2010, 2012 GNU Freefont contributors.
</metadata>
<defs>
<font id="FreeSerif" horiz-adv-x="0" >
  <font-face 
    font-family="FreeSerif"
    font-weight="400"
    font-stretch="normal"
    units-per-em="1000"
    panose-1="2 2 6 3 5 4 5 2 3 4"
    ascent="800"
    descent="-200"
    x-height="450"
    cap-height="662"
    bbox="-879 -551 1767 936"
    underline-thickness="50"
    underline-position="-100"
    stemh="44"
    stemv="102"
    unicode-range="U+000D-1F093"
  />
<missing-glyph horiz-adv-x="600" 
d="M289 676c97 0 184 -58 184 -155c0 -76 -49 -135 -105 -203c-37 -47 -54 -87 -65 -154h-17c2 89 25 131 58 206c24 55 37 110 37 156c0 67 -48 120 -108 120c-49 0 -95 -30 -95 -62c0 -21 38 -43 38 -74c0 -24 -17 -41 -41 -41c-31 0 -48 22 -48 62c0 83 70 145 162 145z
M296 99c29 0 54 -25 54 -55s-23 -52 -55 -52c-30 0 -52 22 -52 51c0 32 23 56 53 56zM566 750v-821h-532v821h532zM517 708h-434v-747h434v747z" />
    <glyph glyph-name="IJ" unicode="IJ" horiz-adv-x="699" 
d="M373 108c61 0 43 -84 79 -84c26 0 38 21 38 66v463c0 73 -11 84 -93 90v19h287v-19c-81 -6 -92 -17 -92 -90v-370c0 -125 -61 -197 -169 -197c-58 0 -99 30 -99 72c0 27 22 50 49 50zM112 109v444c0 74 -12 85 -97 90v19h297v-19c-84 -4 -98 -17 -98 -90v-444
c0 -73 16 -87 98 -90v-19h-297v19c84 3 97 15 97 90z" />
    <glyph glyph-name="ij" unicode="ij" horiz-adv-x="529" 
d="M328 391c-24 0 -45 -3 -45 -3v16c59 18 97 31 156 54l5 -3v-457c0 -142 -59 -218 -169 -218c-54 0 -94 23 -94 55c0 22 18 39 41 39c41 0 52 -60 90 -60c42 0 48 45 48 139v379c0 43 -9 59 -32 59zM393 681c29 0 52 -23 52 -51c0 -29 -23 -51 -52 -51
c-28 0 -50 23 -50 51s23 51 50 51zM62 393c-9 0 -27 -1 -42 -3v15c52 15 103 34 155 55l4 -3v-355c0 -72 8 -82 74 -87v-15h-237v15c69 4 79 15 79 87v232c0 44 -9 59 -33 59zM128 683c29 0 52 -23 52 -51c0 -29 -23 -51 -52 -51c-28 0 -50 23 -50 51s23 51 50 51z" />
    <glyph glyph-name="Ldot" unicode="L&#xb7;" horiz-adv-x="611" 
d="M518 353c28 0 51 -23 51 -50s-23 -49 -51 -49c-27 0 -48 22 -48 50c0 26 23 49 48 49zM357 39c175 0 199 89 219 135h25l-48 -174h-538v19c73 5 87 20 87 90v444c0 70 -13 84 -87 90v19h282v-19c-79 -5 -93 -19 -93 -90v-473c0 -35 13 -41 86 -41h67z" />
    <glyph glyph-name="ldot" unicode="l&#xb7;" horiz-adv-x="382" 
d="M306 353c28 0 51 -23 51 -50s-23 -49 -51 -49c-27 0 -48 22 -48 50c0 26 23 49 48 49zM10 623v16c69 17 107 27 159 44l4 -2v-597c0 -55 12 -65 75 -69v-15h-236v15c63 5 77 18 77 72v477c0 47 -10 61 -42 61c-13 0 -24 -1 -37 -2z" />
    <glyph glyph-name="ff" unicode="ff" horiz-adv-x="639" 
d="M638 622c0 -25 -19 -42 -43 -42c-43 0 -47 75 -94 75c-52 0 -60 -47 -60 -89v-116h123v-32h-122v-330c0 -53 13 -71 69 -73v-15h-220v15c60 1 67 22 67 79v324h-187v-330c0 -53 13 -71 69 -73v-15h-220v15c60 1 67 22 67 79v324h-67v32h67c6 139 72 233 219 233
c37 0 91 -6 115 -39c32 29 75 39 117 39c35 0 100 -16 100 -61zM274 658c-40 0 -104 -21 -104 -143v-65h188c0 44 3 88 19 129c-36 19 -39 79 -103 79z" />
    <glyph glyph-name="fi" unicode="fi" horiz-adv-x="524" 
d="M386 574c-48 0 -52 84 -120 84c-45 0 -84 -30 -98 -73c-5 -17 -8 -48 -8 -92v-43h157c40 0 69 3 113 10l4 -3c-2 -53 -2 -76 -2 -98v-262c0 -64 11 -77 67 -82v-15h-220v15c62 5 69 14 69 82v264c0 53 -5 56 -101 56h-86v-329c0 -55 13 -69 69 -73v-15h-220v15
c56 2 67 15 67 79v323h-67v33h68c7 93 31 233 217 233c77 0 127 -28 127 -70c0 -22 -15 -39 -36 -39z" />
    <glyph glyph-name="fl" unicode="fl" horiz-adv-x="509" 
d="M10 15c58 4 69 16 69 90v313h-69v32h71c4 88 14 127 44 170c28 39 74 63 121 63c56 0 89 -25 111 -25c17 0 57 23 73 25l5 -2v-600c0 -52 10 -62 64 -66v-15h-215v15c52 4 67 20 67 69v334h-188v-339c0 -46 14 -58 71 -64v-15h-224v15zM335 584c-61 0 -47 72 -107 72
c-44 0 -65 -50 -65 -154v-52h188v141c-5 -5 -9 -7 -16 -7z" />
    <glyph glyph-name="ffi" unicode="ffi" horiz-adv-x="795" 
d="M535 658c-40 0 -104 -21 -104 -143v-65h157c38 0 76 3 113 10l4 -3c-1 -33 -2 -65 -2 -98v-262c0 -58 7 -78 67 -82v-15h-220v15c66 4 69 22 69 82v264c0 49 -6 58 -110 58c-27 0 -55 -1 -77 -1v-330c0 -53 13 -71 69 -73v-15h-218v15c59 1 65 23 65 79v324h-187v-330
c0 -53 13 -71 69 -73v-15h-220v15c60 1 67 22 67 79v324h-67v32h68c5 139 71 233 218 233c39 0 105 -8 122 -51c40 38 95 51 149 51c46 0 126 -11 126 -72c0 -19 -15 -37 -35 -37c-52 0 -50 84 -123 84zM264 658c-40 0 -104 -21 -104 -143v-65h189c2 43 9 87 27 126
c-43 10 -43 82 -112 82z" />
    <glyph glyph-name="ffl" unicode="ffl" horiz-adv-x="778" 
d="M768 0h-215v15c47 4 67 18 67 69v334h-188v-333c0 -52 21 -63 71 -70v-15h-224v15c53 6 69 20 69 73v330h-187v-330c0 -53 13 -71 69 -73v-15h-220v15c60 1 67 22 67 79v324h-67v32h68c5 139 71 233 218 233c38 0 95 -7 117 -42c28 28 66 42 105 42c49 0 83 -25 109 -25
c17 0 52 22 72 25l5 -2v-600c0 -51 11 -64 64 -66v-15zM620 450v141c-4 -5 -9 -7 -15 -7c-61 0 -50 72 -107 72c-66 0 -66 -108 -66 -155v-51h188zM264 658c-40 0 -104 -21 -104 -143v-65h190c0 43 5 87 21 127c-38 16 -40 81 -107 81z" />
    <glyph glyph-name="lamalefmaddaabovefinalarabic" unicode="&#xfedf;&#xfe82;" horiz-adv-x="594" arabic-form="final" 
d="M70 754c42 0 96 -40 122 -40c46 0 48 2 86 9c-21 -12 -62 -41 -87 -41c-54 0 -88 32 -120 32c-18 0 -37 -3 -68 -35c11 68 47 75 67 75zM594 0h-33c-70 0 -95 52 -95 161l-11 98c-30 -117 -76 -196 -137 -237c-46 -17 -123 -26 -231 -26c-26 0 -54 3 -84 4
c110 35 195 53 276 92c147 84 159 298 159 370c0 66 -5 130 -14 232c34 -60 58 -98 110 -139c-28 -20 -51 -36 -51 -129c0 -75 9 -172 27 -293c14 -35 38 -58 55 -58h39c0 -62 -1 -75 -10 -75zM318 245c-71 149 -142 275 -231 275l-3 85c67 -4 117 -39 152 -107
c34 -66 62 -152 82 -253z" />
    <glyph glyph-name="lamalefhamzaaboveisolatedarabic" unicode="&#xfedf;&#xfe84;" horiz-adv-x="446" arabic-form="isolated" 
d="M136 824c-10 0 -12 36 -30 36s-38 -42 -38 -61c0 -10 8 -45 21 -45c14 0 13 11 80 38l-8 -37c-32 -10 -82 -37 -150 -88c15 29 39 48 63 70c-35 9 -46 23 -46 53c0 50 39 90 75 110c23 0 41 -8 41 -39c0 -11 -2 -37 -8 -37zM330 252c48 104 52 224 52 297
c0 10 -1 20 -2 28c-13 26 -19 46 -19 83c0 20 5 37 14 53c5 -33 18 -43 68 -54l-4 -53l-17 -35c0 -73 -8 -229 -66 -357c35 -62 59 -122 59 -158c0 -59 -55 -52 -281 -56l6 73c82 33 136 82 167 135l-139 211c-34 52 -54 78 -57 79c-9 0 -19 -11 -29 -11
c-14 0 -70 27 -70 107c0 16 3 46 18 46c69 0 237 -291 300 -388zM226 75c93 2 128 5 128 35c0 13 -12 39 -24 64c-31 -43 -66 -74 -104 -99z" />
    <glyph glyph-name="lamalefhamzaabovefinalarabic" unicode="&#xfee0;&#xfe84;" horiz-adv-x="614" arabic-form="final" 
d="M243 804c-10 0 -12 36 -30 36s-38 -42 -38 -61c0 -10 8 -45 21 -45c14 0 13 11 80 38l-8 -37c-32 -10 -82 -37 -150 -88c16 29 39 48 63 70c-35 9 -46 23 -46 53c0 50 39 90 75 110c23 0 41 -8 41 -39c0 -11 -2 -37 -8 -37zM614 0h-33c-70 0 -95 52 -95 161l-11 98
c-30 -117 -76 -196 -137 -237c-46 -17 -123 -26 -231 -26c-26 0 -54 3 -84 4c110 35 195 53 276 92c147 84 159 298 159 370c0 66 -5 130 -14 232c34 -60 58 -98 110 -139c-28 -20 -51 -36 -51 -129c0 -75 9 -172 27 -293c14 -35 38 -58 55 -58h39c0 -62 -1 -75 -10 -75z
M338 245c-71 149 -142 275 -231 275l-3 85c67 -4 117 -39 152 -107c34 -66 62 -152 82 -253z" />
    <glyph glyph-name="lamalefhamzabelowisolatedarabic" unicode="&#xfedf;&#xfe88;" horiz-adv-x="446" arabic-form="isolated" 
d="M246 -143c-10 0 -12 36 -30 36s-38 -42 -38 -61c0 -10 8 -45 21 -45c14 0 13 11 80 38l-8 -37c-32 -10 -82 -37 -150 -88c15 29 39 48 63 70c-35 9 -46 23 -46 53c0 50 39 90 75 110c23 0 41 -8 41 -39c0 -11 -2 -37 -8 -37zM330 252c48 104 52 224 52 297
c0 10 -1 20 -2 28c-13 26 -19 46 -19 83c0 20 5 37 14 53c5 -33 18 -43 68 -54l-4 -53l-17 -35c0 -73 -8 -229 -66 -357c35 -62 59 -122 59 -158c0 -59 -55 -52 -281 -56l6 73c82 33 136 82 167 135l-139 211c-34 52 -54 78 -57 79c-9 0 -19 -11 -29 -11
c-14 0 -70 27 -70 107c0 16 3 46 18 46c69 0 237 -291 300 -388zM226 75c93 2 128 5 128 35c0 13 -12 39 -24 64c-31 -43 -66 -74 -104 -99z" />
    <glyph glyph-name="lamalefhamzabelowfinalarabic" unicode="&#xfee0;&#xfe88;" horiz-adv-x="614" arabic-form="final" 
d="M246 -143c-10 0 -12 36 -30 36s-38 -42 -38 -61c0 -10 8 -45 21 -45c14 0 13 11 80 38l-8 -37c-32 -10 -82 -37 -150 -88c15 29 39 48 63 70c-35 9 -46 23 -46 53c0 50 39 90 75 110c23 0 41 -8 41 -39c0 -11 -2 -37 -8 -37zM614 0h-33c-70 0 -95 52 -95 161l-11 98
c-30 -117 -76 -196 -137 -237c-46 -17 -123 -26 -231 -26c-26 0 -54 3 -84 4c110 35 195 53 276 92c147 84 159 298 159 370c0 66 -5 130 -14 232c34 -60 58 -98 110 -139c-28 -20 -51 -36 -51 -129c0 -75 9 -172 27 -293c14 -35 38 -58 55 -58h39c0 -62 -1 -75 -10 -75z
M338 245c-71 149 -142 275 -231 275l-3 85c67 -4 117 -39 152 -107c34 -66 62 -152 82 -253z" />
    <glyph glyph-name="lamalefisolatedarabic" unicode="&#xfedf;&#xfe8e;" horiz-adv-x="446" arabic-form="isolated" 
d="M330 252c48 104 52 224 52 297c0 10 -1 20 -2 28c-13 26 -19 46 -19 83c0 20 5 37 14 53c5 -33 18 -43 68 -54l-4 -53l-17 -35c0 -73 -8 -229 -66 -357c35 -62 59 -122 59 -158c0 -59 -55 -52 -281 -56l6 73c82 33 136 82 167 135l-139 211c-34 52 -54 78 -57 79
c-9 0 -19 -11 -29 -11c-14 0 -70 27 -70 107c0 16 3 46 18 46c69 0 237 -291 300 -388zM226 75c93 2 128 5 128 35c0 13 -12 39 -24 64c-31 -43 -66 -74 -104 -99z" />
    <glyph glyph-name="lamaleffinalarabic" unicode="&#xfee0;&#xfe8e;" horiz-adv-x="614" arabic-form="final" 
d="M614 0h-33c-70 0 -95 52 -95 161l-11 98c-30 -117 -76 -196 -137 -237c-46 -17 -123 -26 -231 -26c-26 0 -54 3 -84 4c110 35 195 53 276 92c147 84 159 298 159 370c0 66 -5 130 -14 232c34 -60 58 -98 110 -139c-28 -20 -51 -36 -51 -129c0 -75 9 -172 27 -293
c14 -35 38 -58 55 -58h39c0 -62 -1 -75 -10 -75zM338 245c-71 149 -142 275 -231 275l-3 85c67 -4 117 -39 152 -107c34 -66 62 -152 82 -253z" />
    <glyph glyph-name="thai_yo_u" unicode="&#xe0d;&#xe38;" horiz-adv-x="717" 
d="M496 -130c0 34 15 78 75 78c52 0 81 -35 81 -95v-153h-59v110c-11 -10 -24 -17 -37 -17c-33 0 -60 35 -60 77zM593 -130c0 20 -13 55 -37 55c-25 0 -38 -35 -38 -55c0 -19 13 -54 38 -54c24 0 37 35 37 54zM247 527c117 0 209 -67 209 -175v-330h76c25 0 38 36 38 54v451
h83v-451c0 -42 -27 -76 -59 -76h-221v339c0 115 -75 144 -135 144c-48 0 -108 -14 -154 -62c50 -1 102 -21 121 -56c-27 -10 -50 -13 -50 -52v-185c10 11 23 17 37 17c33 0 60 -34 60 -76c0 -34 -15 -78 -78 -78c-57 0 -98 34 -98 95v191c0 52 24 80 88 96
c-33 23 -55 27 -118 30c32 71 116 124 201 124zM229 69c0 18 -13 54 -37 54s-37 -36 -37 -54c0 -21 13 -56 37 -56s37 35 37 56z" />
    <glyph glyph-name="thai_yo_uu" unicode="&#xe0d;&#xe39;" horiz-adv-x="717" 
d="M377 -124c0 34 15 78 75 78c52 0 81 -35 81 -95v-106c0 -17 13 -30 30 -30s30 13 30 30v194h59v-171c0 -39 -22 -76 -53 -76h-72c-31 0 -53 37 -53 76v40c-11 -10 -24 -17 -38 -17c-32 0 -59 35 -59 77zM474 -124c0 20 -13 55 -38 55c-24 0 -37 -35 -37 -55
c0 -19 13 -54 37 -54c25 0 38 35 38 54zM247 527c117 0 209 -67 209 -175v-330h76c25 0 38 36 38 54v451h83v-451c0 -42 -27 -76 -59 -76h-221v339c0 115 -75 144 -135 144c-48 0 -108 -14 -154 -62c50 -1 102 -21 121 -56c-27 -10 -50 -13 -50 -52v-185c10 11 23 17 37 17
c33 0 60 -34 60 -76c0 -34 -15 -78 -78 -78c-57 0 -98 34 -98 95v191c0 52 24 80 88 96c-33 23 -55 27 -118 30c32 71 116 124 201 124zM229 69c0 18 -13 54 -37 54s-37 -36 -37 -54c0 -21 13 -56 37 -56s37 35 37 56z" />
    <glyph glyph-name="thai_yo_phinthu" unicode="&#xe0d;&#xe3a;" horiz-adv-x="717" 
d="M655 -117c0 -35 -32 -50 -52 -50c-19 0 -51 14 -51 50c0 30 23 53 51 53s52 -24 52 -53zM247 527c117 0 209 -67 209 -175v-330h76c25 0 38 36 38 54v451h83v-451c0 -42 -27 -76 -59 -76h-221v339c0 115 -75 144 -135 144c-48 0 -108 -14 -154 -62c50 -1 102 -21 121 -56
c-27 -10 -50 -13 -50 -52v-185c10 11 23 17 37 17c33 0 60 -34 60 -76c0 -34 -15 -78 -78 -78c-57 0 -98 34 -98 95v191c0 52 24 80 88 96c-33 23 -55 27 -118 30c32 71 116 124 201 124zM229 69c0 18 -13 54 -37 54s-37 -36 -37 -54c0 -21 13 -56 37 -56s37 35 37 56z" />
    <glyph glyph-name="thai_tho_ori_u" unicode="&#xe10;&#xe38;" horiz-adv-x="457" 
d="M193 -130c0 34 15 78 75 78c52 0 81 -35 81 -95v-153h-59v110c-11 -10 -24 -17 -37 -17c-33 0 -60 35 -60 77zM290 -130c0 20 -13 55 -37 55c-25 0 -38 -35 -38 -55c0 -19 13 -54 38 -54c24 0 37 35 37 54zM192 519c54 0 109 -45 143 -47c28 0 42 11 60 52h30
c-10 -35 -28 -108 -108 -108c-48 0 -91 30 -140 30c-31 0 -74 -10 -93 -61c38 9 75 14 107 14c126 0 157 -59 157 -145v-254h-83c0 170 -32 243 -66 268c7 -13 12 -29 12 -46c0 -42 -27 -76 -60 -76c-32 0 -59 34 -59 76c0 49 30 80 75 80c31 0 66 -16 98 -44
c0 62 -30 103 -130 103c-41 0 -79 -8 -96 -13c2 96 71 171 153 171zM188 222c0 19 -13 54 -37 54s-37 -35 -37 -54c0 -20 13 -56 37 -56s37 36 37 56z" />
    <glyph glyph-name="thai_tho_ori_uu" unicode="&#xe10;&#xe39;" horiz-adv-x="457" 
d="M73 -124c0 34 15 78 75 78c52 0 81 -35 81 -95v-106c0 -17 13 -30 30 -30s30 13 30 30v194h59v-171c0 -39 -22 -76 -53 -76h-72c-31 0 -53 37 -53 76v40c-11 -10 -24 -17 -38 -17c-32 0 -59 35 -59 77zM170 -124c0 20 -13 55 -38 55c-24 0 -37 -35 -37 -55
c0 -19 13 -54 37 -54c25 0 38 35 38 54zM192 519c54 0 109 -45 143 -47c28 0 42 11 60 52h30c-10 -35 -28 -108 -108 -108c-48 0 -91 30 -140 30c-31 0 -74 -10 -93 -61c38 9 75 14 107 14c126 0 157 -59 157 -145v-254h-83c0 170 -32 243 -66 268c7 -13 12 -29 12 -46
c0 -42 -27 -76 -60 -76c-32 0 -59 34 -59 76c0 49 30 80 75 80c31 0 66 -16 98 -44c0 62 -30 103 -130 103c-41 0 -79 -8 -96 -13c2 96 71 171 153 171zM188 222c0 19 -13 54 -37 54s-37 -35 -37 -54c0 -20 13 -56 37 -56s37 36 37 56z" />
    <glyph glyph-name="thai_tho_ori_phinthu" unicode="&#xe10;&#xe3a;" horiz-adv-x="457" 
d="M359 -117c0 -35 -32 -50 -52 -50c-19 0 -51 14 -51 50c0 30 23 53 51 53s52 -24 52 -53zM192 519c54 0 109 -45 143 -47c28 0 42 11 60 52h30c-10 -35 -28 -108 -108 -108c-48 0 -91 30 -140 30c-31 0 -74 -10 -93 -61c38 9 75 14 107 14c126 0 157 -59 157 -145v-254
h-83c0 170 -32 243 -66 268c7 -13 12 -29 12 -46c0 -42 -27 -76 -60 -76c-32 0 -59 34 -59 76c0 49 30 80 75 80c31 0 66 -16 98 -44c0 62 -30 103 -130 103c-41 0 -79 -8 -96 -13c2 96 71 171 153 171zM188 222c0 19 -13 54 -37 54s-37 -35 -37 -54c0 -20 13 -56 37 -56
s37 36 37 56z" />
    <glyph glyph-name="thai_dev_ra_umatra.reph_saraaa" unicode="&#xe24;&#xe32;" horiz-adv-x="819" 
d="M755 -224h-83v603c0 60 -18 95 -75 95c-46 0 -86 -43 -112 -82l-19 11c33 51 95 124 175 124c44 0 114 -26 114 -146v-605zM257 527c117 0 209 -67 209 -175v-577h-83v564c0 115 -75 144 -135 144c-48 0 -108 -14 -154 -62c50 -1 102 -21 121 -56
c-30 -11 -50 -20 -50 -52v-185c10 11 23 17 37 17c33 0 60 -34 60 -76c0 -34 -15 -78 -78 -78c-57 0 -98 34 -98 95v191c0 52 24 80 88 96c-33 23 -55 27 -118 30c32 71 116 124 201 124zM239 69c0 18 -13 54 -37 54s-37 -36 -37 -54c0 -21 13 -56 37 -56s37 35 37 56z" />
    <glyph glyph-name="thai_lu_saraaa" unicode="&#xe26;&#xe32;" horiz-adv-x="857" 
d="M793 -224h-83v603c0 60 -18 95 -75 95c-46 0 -86 -43 -112 -82l-19 11c33 51 95 124 175 124c44 0 114 -26 114 -146v-605zM294 527c118 0 210 -67 210 -175v-578h-84v565c0 115 -74 144 -135 144c-47 0 -108 -14 -153 -62c55 -1 100 -21 125 -61
c-31 -13 -35 -24 -35 -50v-225c0 -61 -41 -95 -98 -95c-63 0 -78 45 -78 78c0 42 27 76 60 76c14 0 27 -6 37 -17v150c0 33 8 72 74 92c-39 30 -56 29 -123 34c31 71 116 124 200 124zM143 68c0 18 -13 54 -37 54c-25 0 -38 -36 -38 -54c0 -21 13 -56 38 -56
c24 0 37 35 37 56z" />
    <glyph glyph-name="ukrain.yi_yi_lig" unicode="&#x457;&#x457;" horiz-adv-x="533" 
d="M332 682c28 0 51 -23 51 -50s-23 -49 -51 -49c-27 0 -48 22 -48 50c0 26 23 49 48 49zM176 682c28 0 51 -23 51 -50s-23 -49 -51 -49c-27 0 -48 22 -48 50c0 26 23 49 48 49zM487 682c28 0 51 -23 51 -50s-23 -49 -51 -49c-27 0 -48 22 -48 50c0 26 23 49 48 49zM24 682
c28 0 51 -23 51 -50s-23 -49 -51 -49c-27 0 -48 22 -48 50c0 26 23 49 48 49zM317 394c-9 0 -27 -2 -42 -4v15l155 55l4 -3v-355c0 -72 8 -82 74 -87v-15h-237v15c69 4 79 15 79 87v232c0 44 -9 60 -33 60zM62 394c-9 0 -27 -2 -42 -4v15l155 55l4 -3v-355
c0 -72 8 -82 74 -87v-15h-237v15c69 4 79 15 79 87v232c0 44 -9 60 -33 60z" />
    <glyph glyph-name="arab_shadda_dammata_lig" unicode="&#x64c;&#x651;" 
d="M225 855c-6 0 -19 -5 -19 -13c0 -16 4 -18 42 -23c-2 14 -10 36 -23 36zM272 817c18 0 33 -1 38 -9c3 -6 5 -12 6 -20l-43 -4c-3 -43 -11 -73 -35 -118h-41c-30 40 -58 94 -74 169c-16 -22 -19 -35 -41 -60l-10 44c33 24 51 56 61 56c4 0 15 -9 15 -19
c0 -51 42 -123 66 -149c14 24 28 42 31 76c-44 6 -61 14 -61 57c0 26 16 60 41 60c30 0 41 -62 47 -83zM329 605c-1 -11 -19 -49 -51 -49c-6 0 -16 1 -22 3c-9 -22 -27 -48 -54 -48c-26 0 -57 23 -57 55c0 11 2 23 5 37h20c-3 -11 -5 -20 -5 -28c0 -20 13 -24 29 -24
c23 0 42 16 50 53c7 -10 20 -16 27 -16c14 0 33 12 33 29c0 13 -10 27 -23 35l12 18c24 -28 36 -55 36 -65z" />
    <glyph glyph-name="arab_shadda_fatha_lig" unicode="&#x64e;&#x651;" 
d="M210 871l59 29c-4 -30 -13 -44 -44 -57l-151 -74c7 46 37 54 136 102zM299 715c-1 -11 -19 -49 -51 -49c-6 0 -16 1 -22 3c-9 -22 -27 -48 -54 -48c-26 0 -57 23 -57 55c0 11 2 23 5 37h20c-3 -11 -5 -20 -5 -28c0 -20 13 -24 29 -24c23 0 42 16 50 53
c7 -10 20 -16 27 -16c14 0 33 12 33 29c0 13 -10 27 -23 35l12 18c24 -28 36 -55 36 -65z" />
    <glyph glyph-name="arab_shadda_damma_lig" unicode="&#x64f;&#x651;" 
d="M189 773c31 -21 36 -26 36 -37c0 -8 -3 -13 -6 -18l-50 23c-31 -49 -61 -68 -117 -90h-21c49 27 80 55 114 102c-33 26 -48 35 -48 63c0 48 46 84 77 84c24 0 34 -18 34 -41c0 -28 -10 -66 -19 -86zM179 823c0 22 -6 35 -29 35c-14 0 -19 -14 -19 -25c0 -7 3 -18 37 -43
c6 10 11 26 11 33zM289 625c-1 -11 -19 -49 -51 -49c-6 0 -16 1 -22 3c-9 -22 -27 -48 -54 -48c-26 0 -57 23 -57 55c0 11 2 23 5 37h20c-3 -11 -5 -20 -5 -28c0 -20 13 -24 29 -24c23 0 42 16 50 53c7 -10 20 -16 27 -16c14 0 33 12 33 29c0 13 -10 27 -23 35l12 18
c24 -28 36 -55 36 -65z" />
    <glyph glyph-name="arab_shadda_alef_lig" unicode="&#x670;&#x651;" 
d="M160 658c-5 41 -21 82 -28 112c-3 17 -13 28 -21 50l25 51c22 -84 33 -63 33 -147c0 -16 -2 -36 -9 -66zM269 625c-1 -11 -19 -49 -51 -49c-6 0 -16 1 -22 3c-9 -22 -27 -48 -54 -48c-26 0 -57 23 -57 55c0 11 2 23 5 37h20c-3 -11 -5 -20 -5 -28c0 -20 13 -24 29 -24
c23 0 42 16 50 53c7 -10 20 -16 27 -16c14 0 33 12 33 29c0 13 -10 27 -23 35l12 18c24 -28 36 -55 36 -65z" />
    <glyph glyph-name="dapostrophe" unicode="d&#x313;" horiz-adv-x="628" 
d="M565 570c-4 0 -10 -4 -27 -4c-36 0 -59 20 -59 51c0 34 24 57 59 57c45 0 80 -38 80 -89c0 -60 -45 -121 -112 -154l-9 19c54 37 82 73 82 106c0 8 -6 14 -14 14zM342 -10l-4 3v64c-34 -47 -72 -67 -128 -67c-110 0 -185 87 -185 215c0 142 93 255 208 255
c40 0 67 -11 105 -43v156c0 41 -9 51 -46 51c-8 0 -14 0 -22 -1v16c64 17 99 27 147 44l5 -2v-567c0 -46 8 -57 44 -57c3 0 5 0 23 1v-16zM249 42c57 0 89 43 89 60v230c0 53 -49 100 -102 100c-76 0 -125 -74 -125 -187c0 -123 55 -203 138 -203z" />
    <glyph glyph-name="lapostrophe" unicode="l&#x313;" horiz-adv-x="387" 
d="M324 570c-4 0 -10 -4 -27 -4c-36 0 -59 20 -59 51c0 34 24 57 59 57c45 0 80 -38 80 -89c0 -60 -45 -121 -112 -154l-9 19c54 37 82 73 82 106c0 8 -6 14 -14 14zM10 623v16c69 17 107 27 159 44l4 -2v-597c0 -55 12 -65 75 -69v-15h-236v15c63 5 77 18 77 72v477
c0 47 -10 61 -42 61c-13 0 -24 -1 -37 -2z" />
    <glyph glyph-name="tapostrophe" unicode="t&#x313;" horiz-adv-x="416" 
d="M353 570c-4 0 -10 -4 -27 -4c-36 0 -59 20 -59 51c0 34 24 57 59 57c45 0 80 -38 80 -89c0 -60 -45 -121 -112 -154l-9 19c54 37 82 73 82 106c0 8 -6 14 -14 14zM259 450v-32h-101v-286c0 -63 15 -90 52 -90c22 0 39 10 60 35l13 -11c-33 -52 -71 -76 -120 -76
c-59 0 -89 43 -89 127v301h-53c-3 2 -4 4 -4 7c0 20 25 -2 114 126c7 10 13 19 20 28c6 0 7 -3 7 -13v-116h101z" />
    <glyph glyph-name="hanunoo_hi" unicode="&#x1731;&#x1732;" horiz-adv-x="502" 
d="M162 657l-76 -575l380 617l36 -18l-411 -681h-68l94 657h45zM411 772l-143 -294l-36 18l143 294z" />
    <glyph glyph-name="hanunoo_ngi" unicode="&#x1725;&#x1732;" horiz-adv-x="502" 
d="M70 603h42v-521l141 247l-75 100l35 32l65 -88l188 326l36 -18l-192 -349l126 -163l-34 -34l-117 154l-168 -289h-45z" />
    <glyph glyph-name="hanunoo_pi" unicode="&#x1729;&#x1732;" horiz-adv-x="503" 
d="M175 581l-63 -499l139 242l-55 114l42 18l40 -84l188 327l36 -18l-198 -355l84 -179l-42 -19l-70 145l-159 -273h-45l59 566h-127v39h141z" />
    <glyph glyph-name="hanunoo_du" unicode="&#x1727;&#x1733;" horiz-adv-x="502" 
d="M122 551v132h40v-132h-40zM6 508h157v-426l303 617l36 -18l-175 -356l149 -273l-38 -28l-135 251l-135 -275h-45v460h-117v48z" />
    <glyph glyph-name="hanunoo_hu" unicode="&#x1731;&#x1733;" horiz-adv-x="502" 
d="M162 657l-76 -575l380 617l36 -18l-411 -681h-68l94 657h45zM444 340l-136 -207l-32 23l136 207z" />
    <glyph glyph-name="hanunoo_lu" unicode="&#x172e;&#x1733;" horiz-adv-x="500" 
d="M7 4l180 687h47l-164 -580l364 581l46 -2l-171 -628l134 59l32 -25l-49 -198h-49l46 172l-129 -66h-47l173 594l-362 -594h-51zM424 246l175 -100l-23 -32l-174 97z" />
    <glyph glyph-name="hanunoo_mu" unicode="&#x172b;&#x1733;" horiz-adv-x="502" 
d="M112 82l131 228l-85 152zM175 581l-9 -63l97 -172l203 353l36 -18l-208 -372l123 -186l-3 -3l-82 -123l-32 23l70 106l-96 145l-157 -271h-45l59 566h-127v39h141z" />
    <glyph glyph-name="hanunoo_ngu" unicode="&#x1725;&#x1733;" horiz-adv-x="502" 
d="M70 603h42v-521l354 617l36 -18l-198 -355l176 -98l-16 -36l-179 97l-36 -63l186 -94l-21 -36l-187 92l-110 -188h-45z" />
    <glyph glyph-name="hanunoo_pu" unicode="&#x1729;&#x1733;" horiz-adv-x="503" 
d="M175 581l-63 -499l354 617l36 -18l-198 -355l176 -98l-16 -36l-179 97l-36 -63l186 -94l-21 -36l-187 92l-110 -188h-45l59 566h-127v39h141z" />
    <glyph glyph-name="hanunoo_tu" unicode="&#x1726;&#x1733;" horiz-adv-x="502" 
d="M10 22l87 672h39l-66 -522l198 525l41 -1l-2 -590l195 594h41l-228 -698l-48 -1v576l-210 -555h-47zM408 130l174 -100l-23 -32l-174 97z" />
    <glyph glyph-name="hanunoo_gu" unicode="&#x1724;&#x1733;" horiz-adv-x="500" 
d="M7 4l180 687h47l-164 -580l364 581l46 -2l-186 -686h-47l173 594l-362 -594h-51zM483 376l-54 -217l-38 11l54 217z" />
    <glyph glyph-name="buginese_lig_iya" unicode="&#x1a15;&#x1a17;&#x200d;&#x1a10;" horiz-adv-x="1177" 
d="M1000 10c-92 157 -139 253 -182 253c-68 0 -215 -230 -253 -230c-46 0 -149 195 -250 228c-54 -6 -169 -152 -236 -228c-33 8 -49 47 -62 71c89 98 196 244 297 263c88 -52 187 -216 218 -216c50 0 191 216 270 216c55 0 105 -86 240 -334c-10 -15 -20 -22 -42 -23z
M258 68c18 32 39 50 74 71c34 -23 46 -37 63 -71c-19 -28 -38 -43 -71 -66c-32 24 -45 35 -66 66zM723 68c18 32 39 50 74 71c34 -23 46 -37 63 -71c-19 -28 -38 -43 -71 -66c-32 24 -45 35 -66 66zM48 586c18 32 39 50 74 71c34 -23 46 -37 63 -71c-19 -28 -38 -43 -71 -66
c-32 24 -45 35 -66 66z" />
    <glyph glyph-name="ccaronapostrophe" unicode="c&#x30c;&#x315;" horiz-adv-x="546" 
d="M483 570c-4 0 -10 -4 -27 -4c-36 0 -59 20 -59 51c0 34 24 57 59 57c45 0 80 -38 80 -89c0 -60 -45 -121 -112 -154l-9 19c54 37 82 73 82 106c0 8 -6 14 -14 14zM398 674l-125 -167h-62l-124 167h34l121 -103l122 103h34zM25 213c0 154 108 247 219 247
c84 0 154 -47 154 -103c0 -23 -22 -42 -48 -42c-21 0 -39 18 -47 46l-6 22c-10 37 -23 48 -59 48c-81 0 -136 -71 -136 -174c0 -115 64 -195 155 -195c57 0 93 24 141 94l14 -9c-21 -41 -79 -157 -197 -157c-111 0 -190 93 -190 223z" />
    <glyph glyph-name="unifb50" unicode="&#x671;" horiz-adv-x="229" arabic-form="isolated" 
d="M240 781c0 7 -18 11 -29 11c-19 0 -45 -6 -65 -21c25 -10 27 -10 46 -10c18 0 48 9 48 20zM57 801c21 0 55 -14 65 -19c28 25 64 47 106 47c25 0 52 -11 52 -34c0 -25 -75 -66 -105 -66c-54 0 -81 32 -120 32c-15 0 -37 -6 -65 -34c8 47 29 74 67 74zM123 -48v339
c0 57 -10 198 -23 318l38 92c22 -185 41 -319 41 -464c0 -98 -19 -193 -56 -285z" />
    <glyph glyph-name="alefwaslafinalarabic" unicode="&#x671;" horiz-adv-x="237" arabic-form="final" 
d="M168 367c0 -58 -1 -73 -3 -120c-1 -20 -2 -43 -2 -65c0 -62 19 -107 74 -107h10c0 -61 -3 -75 -10 -75c-110 0 -125 58 -125 177c0 54 6 100 6 158c0 49 -18 227 -22 276l40 89c4 -68 32 -212 32 -333zM250 781c0 7 -18 11 -29 11c-19 0 -45 -6 -65 -21
c25 -10 27 -10 46 -10c18 0 48 9 48 20zM67 801c21 0 55 -14 65 -19c28 25 64 47 106 47c25 0 52 -11 52 -34c0 -25 -75 -66 -105 -66c-54 0 -81 32 -120 32c-15 0 -37 -6 -65 -34c8 47 29 74 67 74z" />
    <glyph glyph-name="unifb52" unicode="&#x67b;" horiz-adv-x="877" arabic-form="isolated" 
d="M552 -226l-49 -51l-59 56l52 48zM522 -119l-49 -51l-59 56l52 48zM877 98c0 -69 -18 -98 -51 -98h-608c-34 0 -143 30 -143 134c0 58 11 102 20 131l22 -5c-5 -32 -7 -60 -7 -84c0 -56 29 -101 163 -101h563c0 67 -6 119 -43 157l41 77c25 -37 43 -84 43 -141v-70z" />
    <glyph glyph-name="unifb53" unicode="&#x67b;" horiz-adv-x="877" arabic-form="final" 
d="M552 -226l-49 -51l-59 56l52 48zM522 -119l-49 -51l-59 56l52 48zM877 98c0 -69 -18 -98 -51 -98h-608c-34 0 -143 30 -143 134c0 58 11 102 20 131l22 -5c-5 -32 -7 -60 -7 -84c0 -56 29 -101 163 -101h563c0 67 -6 119 -43 157l41 77c25 -37 43 -84 43 -141v-70z" />
    <glyph glyph-name="unifb54" unicode="&#x67b;" horiz-adv-x="268" arabic-form="initial" 
d="M232 -226l-49 -51l-59 56l52 48zM202 -119l-49 -51l-59 56l52 48zM182 309c25 -37 43 -84 43 -141v-70c0 -69 -17 -98 -50 -98h-175c-13 0 -22 22 -22 75h206c0 67 -6 119 -43 157z" />
    <glyph glyph-name="unifb55" unicode="&#x67b;" horiz-adv-x="300" arabic-form="medial" 
d="M242 -226l-49 -51l-59 56l52 48zM212 -119l-49 -51l-59 56l52 48zM225 168l1 -57c0 -13 -1 -25 -2 -36h98c0 -49 -7 -75 -22 -75h-68c-15 0 -23 13 -30 22c-8 -10 -19 -22 -32 -22h-170c-12 0 -22 22 -22 75h206c0 67 -6 119 -43 157l41 77c25 -37 42 -84 43 -141z" />
    <glyph glyph-name="uniFB56" unicode="&#x67e;" horiz-adv-x="926" arabic-form="isolated" 
d="M498 -119l49 51l59 -56l-52 -48zM378 -119l49 51l59 -56l-52 -48zM443 -212l49 51l59 -56l-52 -48zM877 98c0 -69 -18 -98 -51 -98h-608c-34 0 -143 30 -143 134c0 58 11 102 20 131l22 -5c-5 -32 -7 -60 -7 -84c0 -56 29 -101 163 -101h563c0 67 -6 119 -43 157l41 77
c25 -37 43 -84 43 -141v-70z" />
    <glyph glyph-name="pehfinaarabic" unicode="&#x67e;" horiz-adv-x="877" arabic-form="final" 
d="M498 -119l49 51l59 -56l-52 -48zM378 -119l49 51l59 -56l-52 -48zM443 -212l49 51l59 -56l-52 -48zM877 98c0 -69 -18 -98 -51 -98h-608c-34 0 -143 30 -143 134c0 58 11 102 20 131l22 -5c-5 -32 -7 -60 -7 -84c0 -56 29 -101 163 -101h563c0 67 -6 119 -43 157l41 77
c25 -37 43 -84 43 -141v-70z" />
    <glyph glyph-name="pehinitarabic" unicode="&#x67e;" horiz-adv-x="296" arabic-form="initial" 
d="M158 -119l49 51l59 -56l-52 -48zM38 -119l49 51l59 -56l-52 -48zM103 -212l49 51l59 -56l-52 -48zM182 309c25 -37 43 -84 43 -141v-70c0 -69 -17 -98 -50 -98h-175c-13 0 -22 22 -22 75h206c0 67 -6 119 -43 157z" />
    <glyph glyph-name="pehmediarabic" unicode="&#x67e;" horiz-adv-x="300" arabic-form="medial" 
d="M168 -119l49 51l59 -56l-52 -48zM48 -119l49 51l59 -56l-52 -48zM113 -212l49 51l59 -56l-52 -48zM225 168l1 -57c0 -13 -1 -25 -2 -36h98c0 -49 -7 -75 -22 -75h-68c-15 0 -23 13 -30 22c-8 -10 -19 -22 -32 -22h-170c-12 0 -22 22 -22 75h206c0 67 -6 119 -43 157
l41 77c25 -37 42 -84 43 -141z" />
    <glyph glyph-name="unifb5a" unicode="&#x680;" horiz-adv-x="877" arabic-form="isolated" 
d="M546 -249l-49 -51l-59 56l52 48zM475 -162l-49 -51l-59 56l52 48zM615 -172l-49 -51l-59 56l52 48zM546 -79l-49 -51l-59 56l52 48zM877 98c0 -69 -18 -98 -51 -98h-608c-34 0 -143 30 -143 134c0 58 11 102 20 131l22 -5c-5 -32 -7 -60 -7 -84c0 -56 29 -101 163 -101
h563c0 67 -6 119 -43 157l41 77c25 -37 43 -84 43 -141v-70z" />
    <glyph glyph-name="unifb5b" unicode="&#x680;" horiz-adv-x="877" arabic-form="final" 
d="M546 -249l-49 -51l-59 56l52 48zM475 -162l-49 -51l-59 56l52 48zM615 -172l-49 -51l-59 56l52 48zM546 -79l-49 -51l-59 56l52 48zM877 98c0 -69 -18 -98 -51 -98h-608c-34 0 -143 30 -143 134c0 58 11 102 20 131l22 -5c-5 -32 -7 -60 -7 -84c0 -56 29 -101 163 -101
h563c0 67 -6 119 -43 157l41 77c25 -37 43 -84 43 -141v-70z" />
    <glyph glyph-name="unifb5c" unicode="&#x680;" horiz-adv-x="298" arabic-form="initial" 
d="M182 309c25 -37 43 -84 43 -141v-70c0 -69 -17 -98 -50 -98h-175c-13 0 -22 22 -22 75h206c0 67 -6 119 -43 157zM199 -249l-49 -51l-59 56l52 48zM128 -162l-49 -51l-59 56l52 48zM268 -172l-49 -51l-59 56l52 48zM199 -79l-49 -51l-59 56l52 48z" />
    <glyph glyph-name="unifb5d" unicode="&#x680;" horiz-adv-x="300" arabic-form="medial" 
d="M212 -249l-49 -51l-59 56l52 48zM141 -162l-49 -51l-59 56l52 48zM281 -172l-49 -51l-59 56l52 48zM212 -79l-49 -51l-59 56l52 48zM225 168l1 -57c0 -13 -1 -25 -2 -36h98c0 -49 -7 -75 -22 -75h-68c-15 0 -23 13 -30 22c-8 -10 -19 -22 -32 -22h-170
c-12 0 -22 22 -22 75h206c0 67 -6 119 -43 157l41 77c25 -37 42 -84 43 -141z" />
    <glyph glyph-name="unifb5e" unicode="&#x67a;" horiz-adv-x="877" arabic-form="isolated" 
d="M552 361l-49 -51l-59 56l52 48zM522 468l-49 -51l-59 56l52 48zM877 98c0 -69 -18 -98 -51 -98h-608c-34 0 -143 30 -143 134c0 58 11 102 20 131l22 -5c-5 -32 -7 -60 -7 -84c0 -56 29 -101 163 -101h563c0 67 -6 119 -43 157l41 77c25 -37 43 -84 43 -141v-70z" />
    <glyph glyph-name="ttehehfinaarabic" unicode="&#x67a;" horiz-adv-x="877" arabic-form="final" 
d="M552 361l-49 -51l-59 56l52 48zM522 468l-49 -51l-59 56l52 48zM877 98c0 -69 -18 -98 -51 -98h-608c-34 0 -143 30 -143 134c0 58 11 102 20 131l22 -5c-5 -32 -7 -60 -7 -84c0 -56 29 -101 163 -101h563c0 67 -6 119 -43 157l41 77c25 -37 43 -84 43 -141v-70z" />
    <glyph glyph-name="ttehehinitarabic" unicode="&#x67a;" horiz-adv-x="270" arabic-form="initial" 
d="M182 441l-49 -51l-59 56l52 48zM152 548l-49 -51l-59 56l52 48zM182 309c25 -37 43 -84 43 -141v-70c0 -69 -17 -98 -50 -98h-175c-13 0 -22 22 -22 75h206c0 67 -6 119 -43 157z" />
    <glyph glyph-name="ttehehmediarabic" unicode="&#x67a;" horiz-adv-x="300" arabic-form="medial" 
d="M182 441l-49 -51l-59 56l52 48zM152 548l-49 -51l-59 56l52 48zM225 168l1 -57c0 -13 -1 -25 -2 -36h98c0 -49 -7 -75 -22 -75h-68c-15 0 -23 13 -30 22c-8 -10 -19 -22 -32 -22h-170c-12 0 -22 22 -22 75h206c0 67 -6 119 -43 157l41 77c25 -37 42 -84 43 -141z" />
    <glyph glyph-name="unifb62" unicode="&#x67f;" horiz-adv-x="877" arabic-form="isolated" 
d="M546 311l-49 -51l-59 56l52 48zM475 398l-49 -51l-59 56l52 48zM615 388l-49 -51l-59 56l52 48zM546 481l-49 -51l-59 56l52 48zM877 98c0 -69 -18 -98 -51 -98h-608c-34 0 -143 30 -143 134c0 58 11 102 20 131l22 -5c-5 -32 -7 -60 -7 -84c0 -56 29 -101 163 -101h563
c0 67 -6 119 -43 157l41 77c25 -37 43 -84 43 -141v-70z" />
    <glyph glyph-name="unifb63" unicode="&#x67f;" horiz-adv-x="877" arabic-form="final" 
d="M546 311l-49 -51l-59 56l52 48zM475 398l-49 -51l-59 56l52 48zM615 388l-49 -51l-59 56l52 48zM546 481l-49 -51l-59 56l52 48zM877 98c0 -69 -18 -98 -51 -98h-608c-34 0 -143 30 -143 134c0 58 11 102 20 131l22 -5c-5 -32 -7 -60 -7 -84c0 -56 29 -101 163 -101h563
c0 67 -6 119 -43 157l41 77c25 -37 43 -84 43 -141v-70z" />
    <glyph glyph-name="unifb64" unicode="&#x67f;" horiz-adv-x="288" arabic-form="initial" 
d="M189 433l-49 -51l-59 56l52 48zM118 520l-49 -51l-59 56l52 48zM258 510l-49 -51l-59 56l52 48zM189 603l-49 -51l-59 56l52 48zM182 309c25 -37 43 -84 43 -141v-70c0 -69 -17 -98 -50 -98h-175c-13 0 -22 22 -22 75h206c0 67 -6 119 -43 157z" />
    <glyph glyph-name="unifb65" unicode="&#x67f;" horiz-adv-x="300" arabic-form="medial" 
d="M189 432l-49 -51l-59 56l52 48zM118 519l-49 -51l-59 56l52 48zM258 509l-49 -51l-59 56l52 48zM189 602l-49 -51l-59 56l52 48zM225 168l1 -57c0 -13 -1 -25 -2 -36h98c0 -49 -7 -75 -22 -75h-68c-15 0 -23 13 -30 22c-8 -10 -19 -22 -32 -22h-170c-12 0 -22 22 -22 75
h206c0 67 -6 119 -43 157l41 77c25 -37 42 -84 43 -141z" />
    <glyph glyph-name="unifb66" unicode="&#x679;" horiz-adv-x="877" arabic-form="isolated" 
d="M427 389c3 2 9 8 9 18c0 38 -12 96 -38 173l28 37c27 -151 29 -164 29 -214c35 40 67 59 98 59c23 0 55 -12 55 -68c0 -22 -5 -38 -27 -38h-168v33h14zM594 402c0 30 -24 38 -42 38c-17 0 -50 -17 -84 -51h125c0 3 1 10 1 13zM877 98c0 -69 -18 -98 -51 -98h-608
c-34 0 -143 30 -143 134c0 58 11 102 20 131l22 -5c-5 -32 -7 -60 -7 -84c0 -56 29 -101 163 -101h563c0 67 -6 119 -43 157l41 77c25 -37 43 -84 43 -141v-70z" />
    <glyph glyph-name="ttehfinaarabic" unicode="&#x679;" horiz-adv-x="877" arabic-form="final" 
d="M427 389c3 2 9 8 9 18c0 38 -12 96 -38 173l28 37c27 -151 29 -164 29 -214c35 40 67 59 98 59c23 0 55 -12 55 -68c0 -22 -5 -38 -27 -38h-168v33h14zM594 402c0 30 -24 38 -42 38c-17 0 -50 -17 -84 -51h125c0 3 1 10 1 13zM877 98c0 -69 -18 -98 -51 -98h-608
c-34 0 -143 30 -143 134c0 58 11 102 20 131l22 -5c-5 -32 -7 -60 -7 -84c0 -56 29 -101 163 -101h563c0 67 -6 119 -43 157l41 77c25 -37 43 -84 43 -141v-70z" />
    <glyph glyph-name="ttehinitarabic" unicode="&#x679;" horiz-adv-x="288" arabic-form="initial" 
d="M77 439c3 2 9 8 9 18c0 38 -12 96 -38 173l28 37c27 -151 29 -164 29 -214c35 40 67 59 98 59c23 0 55 -12 55 -68c0 -22 -5 -38 -27 -38h-168v33h14zM244 452c0 30 -24 38 -42 38c-17 0 -50 -17 -84 -51h125c0 3 1 10 1 13zM182 309c25 -37 43 -84 43 -141v-70
c0 -69 -17 -98 -50 -98h-175c-13 0 -22 22 -22 75h206c0 67 -6 119 -43 157z" />
    <glyph glyph-name="ttehmediarabic" unicode="&#x679;" horiz-adv-x="300" arabic-form="medial" 
d="M77 439c3 2 9 8 9 18c0 38 -12 96 -38 173l28 37c27 -151 29 -164 29 -214c35 40 67 59 98 59c23 0 55 -12 55 -68c0 -22 -5 -38 -27 -38h-168v33h14zM244 452c0 30 -24 38 -42 38c-17 0 -50 -17 -84 -51h125c0 3 1 10 1 13zM225 168l1 -57c0 -13 -1 -25 -2 -36h98
c0 -49 -7 -75 -22 -75h-68c-15 0 -23 13 -30 22c-8 -10 -19 -22 -32 -22h-170c-12 0 -22 22 -22 75h206c0 67 -6 119 -43 157l41 77c25 -37 42 -84 43 -141z" />
    <glyph glyph-name="unifb6a" unicode="&#x6a4;" horiz-adv-x="858" arabic-form="isolated" 
d="M720 498l-49 -51l-59 56l52 48zM840 498l-49 -51l-59 56l52 48zM775 591l-49 -51l-59 56l52 48zM649 236c0 63 26 174 95 174c46 0 124 -51 124 -243v-66c0 -61 -19 -101 -76 -101h-636c-56 0 -80 26 -81 127c1 34 13 83 36 130l26 -11c-21 -56 -22 -106 -22 -130
c0 -21 22 -41 44 -41h585c75 0 83 72 83 128c-12 -25 -36 -51 -80 -51c-46 0 -98 19 -98 84zM740 333c-21 -23 -36 -60 -36 -71c11 -30 26 -39 55 -39c35 0 46 6 57 17c0 9 -31 83 -76 93z" />
    <glyph glyph-name="vehfinaarabic" unicode="&#x6a4;" horiz-adv-x="858" arabic-form="final" 
d="M720 448l-49 -51l-59 56l52 48zM840 448l-49 -51l-59 56l52 48zM775 541l-49 -51l-59 56l52 48zM614 183c0 83 65 132 100 132c46 0 113 -59 113 -135c0 -39 -21 -68 -52 -93c22 -10 55 -12 82 -12h24c0 -49 -8 -75 -23 -75h-28c-37 0 -68 10 -108 38
c-35 -26 -72 -38 -106 -38h-398c-34 0 -143 30 -143 134c0 58 11 102 20 131l22 -5c-5 -32 -7 -60 -7 -84c0 -56 29 -101 163 -101h311c30 0 64 3 85 12c-30 26 -55 54 -55 96zM718 240c-17 0 -47 -23 -47 -56c0 -20 22 -43 51 -62c27 25 45 38 45 60c0 34 -32 58 -49 58z
" />
    <glyph glyph-name="vehinitarabic" unicode="&#x6a4;" horiz-adv-x="338" arabic-form="initial" 
d="M170 528l-49 -51l-59 56l52 48zM290 528l-49 -51l-59 56l52 48zM225 621l-49 -51l-59 56l52 48zM168 335c-21 -23 -36 -62 -36 -73c11 -30 38 -39 67 -39c35 0 46 6 57 17c0 9 -43 85 -88 95zM89 236c0 63 36 174 105 174c46 0 114 -51 114 -243
c0 -86 -53 -167 -136 -167h-172c-12 0 -15 19 -15 75h159c93 0 123 71 123 128c-12 -25 -36 -51 -80 -51c-46 0 -98 19 -98 84z" />
    <glyph glyph-name="vehmediarabic" unicode="&#x6a4;" horiz-adv-x="328" arabic-form="medial" 
d="M160 448l-49 -51l-59 56l52 48zM280 448l-49 -51l-59 56l52 48zM215 541l-49 -51l-59 56l52 48zM64 183c0 83 66 132 100 132c32 0 112 -43 112 -135c0 -39 -18 -68 -50 -93c17 -9 54 -12 81 -12h44c0 -49 -8 -75 -23 -75h-38c-27 0 -86 12 -118 38
c-32 -24 -84 -38 -116 -38h-56c-15 0 -23 26 -23 75h57c30 0 70 3 84 12c-30 26 -54 54 -54 96zM168 240c-20 0 -48 -30 -48 -56c0 -20 24 -42 52 -62c27 22 46 38 46 60c0 27 -32 58 -50 58z" />
    <glyph glyph-name="unifb6e" unicode="&#x6a6;" horiz-adv-x="858" arabic-form="isolated" 
d="M784 510l-49 -51l-59 56l52 48zM713 597l-49 -51l-59 56l52 48zM853 587l-49 -51l-59 56l52 48zM784 680l-49 -51l-59 56l52 48zM649 236c0 63 26 174 95 174c46 0 124 -51 124 -243v-66c0 -61 -19 -101 -76 -101h-636c-56 0 -80 26 -81 127c1 34 13 83 36 130l26 -11
c-21 -56 -22 -106 -22 -130c0 -21 22 -41 44 -41h585c75 0 83 72 83 128c-12 -25 -36 -51 -80 -51c-46 0 -98 19 -98 84zM740 333c-21 -23 -36 -60 -36 -71c11 -30 26 -39 55 -39c35 0 46 6 57 17c0 9 -31 83 -76 93z" />
    <glyph glyph-name="unifb6f" unicode="&#x6a6;" horiz-adv-x="858" arabic-form="final" 
d="M614 183c0 83 65 132 100 132c46 0 113 -59 113 -135c0 -39 -21 -68 -52 -93c22 -10 55 -12 82 -12h24c0 -49 -8 -75 -23 -75h-28c-37 0 -68 10 -108 38c-35 -26 -72 -38 -106 -38h-398c-34 0 -143 30 -143 134c0 58 11 102 20 131l22 -5c-5 -32 -7 -60 -7 -84
c0 -56 29 -101 163 -101h311c30 0 64 3 85 12c-30 26 -55 54 -55 96zM718 240c-17 0 -47 -23 -47 -56c0 -20 22 -43 51 -62c27 25 45 38 45 60c0 34 -32 58 -49 58zM774 452l-49 -51l-59 56l52 48zM703 539l-49 -51l-59 56l52 48zM843 529l-49 -51l-59 56l52 48zM774 622
l-49 -51l-59 56l52 48z" />
    <glyph glyph-name="unifb70" unicode="&#x6a6;" horiz-adv-x="338" arabic-form="initial" 
d="M239 502l-49 -51l-59 56l52 48zM168 589l-49 -51l-59 56l52 48zM308 579l-49 -51l-59 56l52 48zM239 672l-49 -51l-59 56l52 48zM168 335c-21 -23 -36 -62 -36 -73c11 -30 38 -39 67 -39c35 0 46 6 57 17c0 9 -43 85 -88 95zM89 236c0 63 36 174 105 174
c46 0 114 -51 114 -243c0 -86 -53 -167 -136 -167h-172c-12 0 -15 19 -15 75h159c93 0 123 71 123 128c-12 -25 -36 -51 -80 -51c-46 0 -98 19 -98 84z" />
    <glyph glyph-name="unifb71" unicode="&#x6a6;" horiz-adv-x="328" arabic-form="medial" 
d="M219 452l-49 -51l-59 56l52 48zM148 539l-49 -51l-59 56l52 48zM288 529l-49 -51l-59 56l52 48zM219 622l-49 -51l-59 56l52 48zM64 183c0 83 66 132 100 132c32 0 112 -43 112 -135c0 -39 -18 -68 -50 -93c17 -9 54 -12 81 -12h44c0 -49 -8 -75 -23 -75h-38
c-27 0 -86 12 -118 38c-32 -24 -84 -38 -116 -38h-56c-15 0 -23 26 -23 75h57c30 0 70 3 84 12c-30 26 -54 54 -54 96zM168 240c-20 0 -48 -30 -48 -56c0 -20 24 -42 52 -62c27 22 46 38 46 60c0 27 -32 58 -50 58z" />
    <glyph glyph-name="unifb72" unicode="&#x684;" horiz-adv-x="598" arabic-form="isolated" 
d="M492 -46l-49 -51l-59 56l52 48zM462 61l-49 -51l-59 56l52 48zM249 332c58 0 138 -32 289 -32h27l-20 -62c-254 -36 -422 -224 -422 -331c0 -80 120 -103 357 -122h111l-104 -65c-353 17 -412 55 -412 152c0 57 24 163 116 252c78 75 142 99 186 116
c-81 18 -107 32 -189 32c-33 0 -54 -15 -62 -26h-27c53 53 87 86 150 86z" />
    <glyph glyph-name="unifb73" unicode="&#x684;" horiz-adv-x="595" arabic-form="final" 
d="M482 -86l-49 -51l-59 56l52 48zM452 21l-49 -51l-59 56l52 48zM377 240c-81 18 -107 32 -189 32c-33 0 -54 -15 -62 -26h-27c53 53 87 86 150 86c58 0 138 -32 289 -32h27l-20 -62c-254 -36 -422 -224 -422 -331c0 -72 113 -104 357 -122h111l-104 -65
c-353 17 -412 55 -412 152c0 57 24 163 116 252c78 75 142 99 186 116zM461 218c17 -121 90 -143 134 -143h10c0 -67 -1 -75 -10 -75c-99 0 -151 34 -151 175z" />
    <glyph glyph-name="unifb74" unicode="&#x684;" horiz-adv-x="600" arabic-form="initial" 
d="M362 -176l-49 -51l-59 56l52 48zM332 -69l-49 -51l-59 56l52 48zM61 243c46 49 91 87 146 87c42 0 117 -35 173 -56c45 -17 132 -37 210 -37c-10 -31 -14 -46 -20 -62c-263 0 -317 -175 -532 -175h-38c-11 0 -15 26 -15 75h81c129 0 213 105 322 123
c-76 20 -144 71 -247 71c-20 0 -43 -13 -54 -26h-26z" />
    <glyph glyph-name="unifb75" unicode="&#x684;" horiz-adv-x="630" arabic-form="medial" 
d="M352 -176l-49 -51l-59 56l52 48zM322 -69l-49 -51l-59 56l52 48zM61 243c46 49 91 87 146 87c42 0 117 -35 173 -56c45 -17 132 -37 210 -37c-10 -31 -14 -46 -20 -62c-263 0 -317 -175 -532 -175h-38c-11 0 -15 26 -15 75h81c129 0 213 105 322 123
c-76 20 -144 71 -247 71c-20 0 -43 -13 -54 -26h-26zM490 164c10 -63 63 -89 118 -89h37c0 -61 -6 -75 -15 -75c-124 0 -157 29 -157 120z" />
    <glyph glyph-name="unifb76" unicode="&#x683;" horiz-adv-x="598" arabic-form="isolated" 
d="M534 -19l-49 -51l-59 56l52 48zM421 -19l-49 -51l-59 56l52 48zM249 332c58 0 138 -32 289 -32h27l-20 -62c-254 -36 -422 -224 -422 -331c0 -80 120 -103 357 -122h111l-104 -65c-353 17 -412 55 -412 152c0 57 24 163 116 252c78 75 142 99 186 116
c-81 18 -107 32 -189 32c-33 0 -54 -15 -62 -26h-27c53 53 87 86 150 86z" />
    <glyph glyph-name="unifb77" unicode="&#x683;" horiz-adv-x="595" arabic-form="final" 
d="M377 240c-81 18 -107 32 -189 32c-33 0 -54 -15 -62 -26h-27c53 53 87 86 150 86c58 0 138 -32 289 -32h27l-20 -62c-254 -36 -422 -224 -422 -331c0 -72 113 -104 357 -122h111l-104 -65c-353 17 -412 55 -412 152c0 57 24 163 116 252c78 75 142 99 186 116zM461 218
c17 -121 90 -143 134 -143h10c0 -67 -1 -75 -10 -75c-99 0 -151 34 -151 175zM514 -29l-49 -51l-59 56l52 48zM401 -29l-49 -51l-59 56l52 48z" />
    <glyph glyph-name="unifb78" unicode="&#x683;" horiz-adv-x="600" arabic-form="initial" 
d="M61 243c46 49 91 87 146 87c42 0 117 -35 173 -56c45 -17 132 -37 210 -37c-10 -31 -14 -46 -20 -62c-263 0 -317 -175 -532 -175h-38c-11 0 -15 26 -15 75h81c129 0 213 105 322 123c-76 20 -144 71 -247 71c-20 0 -43 -13 -54 -26h-26zM404 -89l-49 -51l-59 56l52 48z
M291 -89l-49 -51l-59 56l52 48z" />
    <glyph glyph-name="unifb79" unicode="&#x683;" horiz-adv-x="630" arabic-form="medial" 
d="M61 243c46 49 91 87 146 87c42 0 117 -35 173 -56c45 -17 132 -37 210 -37c-10 -31 -14 -46 -20 -62c-263 0 -317 -175 -532 -175h-38c-11 0 -15 26 -15 75h81c129 0 213 105 322 123c-76 20 -144 71 -247 71c-20 0 -43 -13 -54 -26h-26zM490 164c10 -63 63 -89 118 -89
h37c0 -61 -6 -75 -15 -75c-124 0 -157 29 -157 120zM404 -89l-49 -51l-59 56l52 48zM291 -89l-49 -51l-59 56l52 48z" />
    <glyph glyph-name="uniFB7A" unicode="&#x686;" horiz-adv-x="598" arabic-form="isolated" 
d="M438 31l49 51l59 -56l-52 -48zM318 31l49 51l59 -56l-52 -48zM383 -62l49 51l59 -56l-52 -48zM249 332c58 0 138 -32 289 -32h27l-20 -62c-254 -36 -422 -224 -422 -331c0 -80 120 -103 357 -122h111l-104 -65c-353 17 -412 55 -412 152c0 57 24 163 116 252
c78 75 142 99 186 116c-81 18 -107 32 -189 32c-33 0 -54 -15 -62 -26h-27c53 53 87 86 150 86z" />
    <glyph glyph-name="tchehfinaarabic" unicode="&#x686;" horiz-adv-x="595" arabic-form="final" 
d="M358 -9l49 51l59 -56l-52 -48zM238 -9l49 51l59 -56l-52 -48zM303 -102l49 51l59 -56l-52 -48zM377 240c-81 18 -107 32 -189 32c-33 0 -54 -15 -62 -26h-27c53 53 87 86 150 86c58 0 138 -32 289 -32h27l-20 -62c-254 -36 -422 -224 -422 -331c0 -72 113 -104 357 -122
h111l-104 -65c-353 17 -412 55 -412 152c0 57 24 163 116 252c78 75 142 99 186 116zM461 218c17 -121 90 -143 134 -143h10c0 -67 -1 -75 -10 -75c-99 0 -151 34 -151 175z" />
    <glyph glyph-name="tchehinitarabic" unicode="&#x686;" horiz-adv-x="600" arabic-form="initial" 
d="M308 -69l49 51l59 -56l-52 -48zM188 -69l49 51l59 -56l-52 -48zM253 -162l49 51l59 -56l-52 -48zM61 243c46 49 91 87 146 87c42 0 117 -35 173 -56c45 -17 132 -37 210 -37c-10 -31 -14 -46 -20 -62c-263 0 -317 -175 -532 -175h-38c-11 0 -15 26 -15 75h81
c129 0 213 105 322 123c-76 20 -144 71 -247 71c-20 0 -43 -13 -54 -26h-26z" />
    <glyph glyph-name="tchehmediarabic" unicode="&#x686;" horiz-adv-x="630" arabic-form="medial" 
d="M308 -69l49 51l59 -56l-52 -48zM188 -69l49 51l59 -56l-52 -48zM253 -162l49 51l59 -56l-52 -48zM61 243c46 49 91 87 146 87c42 0 117 -35 173 -56c45 -17 132 -37 210 -37c-10 -31 -14 -46 -20 -62c-263 0 -317 -175 -532 -175h-38c-11 0 -15 26 -15 75h81
c129 0 213 105 322 123c-76 20 -144 71 -247 71c-20 0 -43 -13 -54 -26h-26zM490 164c10 -63 63 -89 118 -89h37c0 -61 -6 -75 -15 -75c-124 0 -157 29 -157 120z" />
    <glyph glyph-name="unifb7e" unicode="&#x687;" horiz-adv-x="598" arabic-form="isolated" 
d="M489 -104l-49 -51l-59 56l52 48zM418 -17l-49 -51l-59 56l52 48zM558 -27l-49 -51l-59 56l52 48zM489 66l-49 -51l-59 56l52 48zM249 332c58 0 138 -32 289 -32h27l-20 -62c-254 -36 -422 -224 -422 -331c0 -80 120 -103 357 -122h111l-104 -65c-353 17 -412 55 -412 152
c0 57 24 163 116 252c78 75 142 99 186 116c-81 18 -107 32 -189 32c-33 0 -54 -15 -62 -26h-27c53 53 87 86 150 86z" />
    <glyph glyph-name="unifb7f" unicode="&#x687;" horiz-adv-x="595" arabic-form="final" 
d="M377 240c-81 18 -107 32 -189 32c-33 0 -54 -15 -62 -26h-27c53 53 87 86 150 86c58 0 138 -32 289 -32h27l-20 -62c-254 -36 -422 -224 -422 -331c0 -72 113 -104 357 -122h111l-104 -65c-353 17 -412 55 -412 152c0 57 24 163 116 252c78 75 142 99 186 116zM461 218
c17 -121 90 -143 134 -143h10c0 -67 -1 -75 -10 -75c-99 0 -151 34 -151 175zM429 -114l-49 -51l-59 56l52 48zM358 -27l-49 -51l-59 56l52 48zM498 -37l-49 -51l-59 56l52 48zM429 56l-49 -51l-59 56l52 48z" />
    <glyph glyph-name="unifb80" unicode="&#x687;" horiz-adv-x="600" arabic-form="initial" 
d="M61 243c46 49 91 87 146 87c42 0 117 -35 173 -56c45 -17 132 -37 210 -37c-10 -31 -14 -46 -20 -62c-263 0 -317 -175 -532 -175h-38c-11 0 -15 26 -15 75h81c129 0 213 105 322 123c-76 20 -144 71 -247 71c-20 0 -43 -13 -54 -26h-26zM339 -219l-49 -51l-59 56l52 48z
M268 -132l-49 -51l-59 56l52 48zM408 -142l-49 -51l-59 56l52 48zM339 -49l-49 -51l-59 56l52 48z" />
    <glyph glyph-name="unifb81" unicode="&#x687;" horiz-adv-x="630" arabic-form="medial" 
d="M61 243c46 49 91 87 146 87c42 0 117 -35 173 -56c45 -17 132 -37 210 -37c-10 -31 -14 -46 -20 -62c-263 0 -317 -175 -532 -175h-38c-11 0 -15 26 -15 75h81c129 0 213 105 322 123c-76 20 -144 71 -247 71c-20 0 -43 -13 -54 -26h-26zM490 164c10 -63 63 -89 118 -89
h37c0 -61 -6 -75 -15 -75c-124 0 -157 29 -157 120zM339 -219l-49 -51l-59 56l52 48zM268 -132l-49 -51l-59 56l52 48zM408 -142l-49 -51l-59 56l52 48zM339 -49l-49 -51l-59 56l52 48z" />
    <glyph glyph-name="unifb82" unicode="&#x68d;" horiz-adv-x="400" arabic-form="isolated" 
d="M303 -139l-49 -51l-59 56l52 48zM190 -139l-49 -51l-59 56l52 48zM197 350c48 0 156 -35 171 -272c0 -52 -19 -78 -56 -78h-202c-37 0 -55 32 -55 96v21l22 1c3 -26 13 -43 28 -43h227c-24 136 -65 200 -135 200c-17 0 -36 -2 -49 -10l-15 5c12 34 46 80 64 80z" />
    <glyph glyph-name="unifb83" unicode="&#x68d;" horiz-adv-x="348" arabic-form="final" 
d="M303 -139l-49 -51l-59 56l52 48zM190 -139l-49 -51l-59 56l52 48zM197 350c48 0 156 -35 171 -272c0 -52 -19 -78 -56 -78h-202c-37 0 -55 32 -55 96v21l22 1c3 -26 13 -43 28 -43h227c-24 136 -65 200 -135 200c-17 0 -36 -2 -49 -10l-15 5c12 34 46 80 64 80z" />
    <glyph glyph-name="unifb84" unicode="&#x68c;" horiz-adv-x="400" arabic-form="isolated" 
d="M314 498l-49 -51l-59 56l52 48zM201 498l-49 -51l-59 56l52 48zM197 350c48 0 156 -35 171 -272c0 -52 -19 -78 -56 -78h-202c-37 0 -55 32 -55 96v21l22 1c3 -26 13 -43 28 -43h227c-24 136 -65 200 -135 200c-17 0 -36 -2 -49 -10l-15 5c12 34 46 80 64 80z" />
    <glyph glyph-name="unifb85" unicode="&#x68c;" horiz-adv-x="348" arabic-form="final" 
d="M314 498l-49 -51l-59 56l52 48zM201 498l-49 -51l-59 56l52 48zM197 350c48 0 156 -35 171 -272c0 -52 -19 -78 -56 -78h-202c-37 0 -55 32 -55 96v21l22 1c3 -26 13 -43 28 -43h227c-24 136 -65 200 -135 200c-17 0 -36 -2 -49 -10l-15 5c12 34 46 80 64 80z" />
    <glyph glyph-name="unifb86" unicode="&#x68e;" horiz-adv-x="348" arabic-form="isolated" 
d="M190 488l-49 -51l-59 56l52 48zM310 488l-49 -51l-59 56l52 48zM245 581l-49 -51l-59 56l52 48zM197 350c48 0 156 -35 171 -272c0 -52 -19 -78 -56 -78h-202c-37 0 -55 32 -55 96v21l22 1c3 -26 13 -43 28 -43h227c-24 136 -65 200 -135 200c-17 0 -36 -2 -49 -10l-15 5
c12 34 46 80 64 80z" />
    <glyph glyph-name="unifb87" unicode="&#x68e;" horiz-adv-x="348" arabic-form="final" 
d="M190 488l-49 -51l-59 56l52 48zM310 488l-49 -51l-59 56l52 48zM245 581l-49 -51l-59 56l52 48zM197 350c48 0 156 -35 171 -272c0 -52 -19 -78 -56 -78h-202c-37 0 -55 32 -55 96v21l22 1c3 -26 13 -43 28 -43h227c-24 136 -65 200 -135 200c-17 0 -36 -2 -49 -10l-15 5
c12 34 46 80 64 80z" />
    <glyph glyph-name="unifb88" unicode="&#x688;" horiz-adv-x="348" arabic-form="isolated" 
d="M127 499c3 2 9 8 9 18c0 38 -12 96 -38 173l28 37c27 -151 29 -164 29 -214c35 40 67 59 98 59c23 0 55 -12 55 -68c0 -22 -5 -38 -27 -38h-168v33h14zM294 512c0 30 -24 38 -42 38c-17 0 -50 -17 -84 -51h125c0 3 1 10 1 13zM197 350c48 0 156 -35 171 -272
c0 -52 -19 -78 -56 -78h-202c-37 0 -55 32 -55 96v21l22 1c3 -26 13 -43 28 -43h227c-24 136 -65 200 -135 200c-17 0 -36 -2 -49 -10l-15 5c12 34 46 80 64 80z" />
    <glyph glyph-name="ddalfinaarabic" unicode="&#x688;" horiz-adv-x="348" arabic-form="final" 
d="M127 499c3 2 9 8 9 18c0 38 -12 96 -38 173l28 37c27 -151 29 -164 29 -214c35 40 67 59 98 59c23 0 55 -12 55 -68c0 -22 -5 -38 -27 -38h-168v33h14zM294 512c0 30 -24 38 -42 38c-17 0 -50 -17 -84 -51h125c0 3 1 10 1 13zM197 350c48 0 156 -35 171 -272
c0 -52 -19 -78 -56 -78h-202c-37 0 -55 32 -55 96v21l22 1c3 -26 13 -43 28 -43h227c-24 136 -65 200 -135 200c-17 0 -36 -2 -49 -10l-15 5c12 34 46 80 64 80z" />
    <glyph glyph-name="uniFB8A" unicode="&#x698;" horiz-adv-x="345" arabic-form="isolated" 
d="M224 358l-49 -51l-59 56l52 48zM344 358l-49 -51l-59 56l52 48zM279 451l-49 -51l-59 56l52 48zM325 247c13 -45 20 -104 20 -158c0 -175 -61 -301 -232 -336l-113 17l4 21c78 15 147 35 211 105c55 60 72 82 90 142c-7 41 -19 95 -38 142z" />
    <glyph glyph-name="jehfinaarabic" unicode="&#x698;" horiz-adv-x="345" arabic-form="final" 
d="M224 358l-49 -51l-59 56l52 48zM344 358l-49 -51l-59 56l52 48zM279 451l-49 -51l-59 56l52 48zM325 247c13 -45 20 -104 20 -158c0 -175 -61 -301 -232 -336l-113 17l4 21c78 15 147 35 211 105c55 60 72 82 90 142c-7 41 -19 95 -38 142z" />
    <glyph glyph-name="unifb8c" unicode="&#x691;" horiz-adv-x="345" arabic-form="isolated" 
d="M163 379c3 2 9 8 9 18c0 38 -12 96 -38 173l28 37c27 -151 29 -164 29 -214c35 40 67 59 98 59c23 0 55 -12 55 -68c0 -22 -5 -38 -27 -38h-168v33h14zM330 392c0 30 -24 38 -42 38c-17 0 -50 -17 -84 -51h125c0 3 1 10 1 13zM325 247c13 -45 20 -104 20 -158
c0 -175 -61 -301 -232 -336l-113 17l4 21c78 15 147 35 211 105c55 60 72 82 90 142c-7 41 -19 95 -38 142z" />
    <glyph glyph-name="rrehfinaarabic" unicode="&#x691;" horiz-adv-x="345" arabic-form="final" 
d="M163 379c3 2 9 8 9 18c0 38 -12 96 -38 173l28 37c27 -151 29 -164 29 -214c35 40 67 59 98 59c23 0 55 -12 55 -68c0 -22 -5 -38 -27 -38h-168v33h14zM330 392c0 30 -24 38 -42 38c-17 0 -50 -17 -84 -51h125c0 3 1 10 1 13zM325 247c13 -45 20 -104 20 -158
c0 -175 -61 -301 -232 -336l-113 17l4 21c78 15 147 35 211 105c55 60 72 82 90 142c-7 41 -19 95 -38 142z" />
    <glyph glyph-name="unifb8e" unicode="&#x6a9;" horiz-adv-x="902" arabic-form="isolated" 
d="M902 634l-199 -80c-31 -13 -128 -69 -128 -80c0 -20 273 -214 273 -373c0 -62 -8 -101 -41 -101h-589c-34 0 -143 30 -143 178c0 58 11 102 20 131l22 -5c-5 -32 -7 -60 -7 -84c0 -100 29 -145 163 -145h535c1 12 2 23 2 35c0 22 -42 122 -135 201l-61 54l-9 -16
c-31 21 -43 27 -70 54c-2 13 -7 29 -7 41c0 59 35 119 207 189l167 68v-67z" />
    <glyph glyph-name="kehehfinaarabic" unicode="&#x6a9;" horiz-adv-x="966" arabic-form="final" 
d="M875 634l-199 -80c-26 -10 -128 -69 -128 -80c0 -8 85 -71 160 -147c0 0 94 -117 196 -229c20 -22 47 -24 62 -24h12c0 -64 -2 -74 -12 -74c-18 0 -50 7 -68 24c-41 38 -132 169 -132 169c13 -24 13 -37 13 -63c0 -63 -113 -130 -210 -130h-351c-34 0 -143 30 -143 178
c0 58 11 102 20 131l22 -5c-5 -32 -7 -60 -7 -84c0 -100 29 -145 163 -145h318c79 0 139 50 139 84c0 32 -16 94 -73 144l-70 62l-9 -16c-31 19 -43 29 -70 54c-3 17 -7 30 -7 36c0 86 58 137 217 200l157 62v-67z" />
    <glyph glyph-name="kehehinitarabic" unicode="&#x6a9;" horiz-adv-x="373" arabic-form="initial" 
d="M373 701v-67l-199 -80c-26 -12 -130 -68 -130 -80c0 -16 274 -206 274 -381c0 -63 -12 -93 -40 -93h-278c-7 0 -10 12 -10 75h288c1 10 2 23 2 33c0 49 -86 157 -109 180l-87 77l-10 -16c-31 19 -39 25 -66 49c-2 13 -8 34 -8 46c0 52 41 122 174 176z" />
    <glyph glyph-name="uniFB91" unicode="&#x6a9;" horiz-adv-x="469" arabic-form="medial" 
d="M206 327c0 0 95 -118 196 -229c20 -22 49 -24 67 -24h10c0 -69 -2 -74 -10 -74c-16 0 -53 5 -73 24c-41 38 -132 169 -132 169c13 -24 13 -37 13 -63c0 -63 -113 -130 -210 -130h-67c-6 0 -10 11 -10 15v60h99c79 0 139 50 139 84c0 32 -16 94 -73 144l-70 62l-9 -16
c-31 19 -43 29 -70 54c-3 17 -7 30 -7 36c0 86 58 137 217 200l157 62v-67l-199 -80c-26 -10 -128 -69 -128 -80c0 -8 85 -71 160 -147zM-10 15z" />
    <glyph glyph-name="uniFB92" unicode="&#x6af;" horiz-adv-x="902" arabic-form="isolated" 
d="M902 634l-199 -80c-31 -13 -128 -69 -128 -80c0 -20 273 -214 273 -373c0 -62 -8 -101 -41 -101h-589c-34 0 -143 30 -143 178c0 58 11 102 20 131l22 -5c-5 -32 -7 -60 -7 -84c0 -100 29 -145 163 -145h535c1 12 2 23 2 35c0 22 -42 122 -135 201l-61 54l-9 -16
c-31 21 -43 27 -70 54c-2 13 -7 29 -7 41c0 59 35 119 207 189l167 68v-67zM834 800v-52l-304 -135c14 30 115 92 304 187z" />
    <glyph glyph-name="gaffinaarabic" unicode="&#x6af;" horiz-adv-x="966" arabic-form="final" 
d="M821 801v-52l-304 -135c14 30 115 92 304 187zM875 634l-199 -80c-26 -10 -128 -69 -128 -80c0 -8 85 -71 160 -147c0 0 94 -117 196 -229c20 -22 47 -24 62 -24h12c0 -64 -2 -74 -12 -74c-18 0 -50 7 -68 24c-41 38 -132 169 -132 169c13 -24 13 -37 13 -63
c0 -63 -113 -130 -210 -130h-351c-34 0 -143 30 -143 178c0 58 11 102 20 131l22 -5c-5 -32 -7 -60 -7 -84c0 -100 29 -145 163 -145h318c79 0 139 50 139 84c0 32 -16 94 -73 144l-70 62l-9 -16c-31 19 -43 29 -70 54c-3 17 -7 30 -7 36c0 86 58 137 217 200l157 62v-67z
" />
    <glyph glyph-name="gafinitarabic" unicode="&#x6af;" horiz-adv-x="373" arabic-form="initial" 
d="M373 701v-67l-199 -80c-26 -12 -130 -68 -130 -80c0 -16 274 -206 274 -381c0 -63 -12 -93 -40 -93h-278c-7 0 -10 12 -10 75h288c1 10 2 23 2 33c0 49 -86 157 -109 180l-87 77l-10 -16c-31 19 -39 25 -66 49c-2 13 -8 34 -8 46c0 52 41 122 174 176zM321 799v-52
l-304 -135c14 30 115 92 304 187z" />
    <glyph glyph-name="gafmediarabic" unicode="&#x6af;" horiz-adv-x="469" arabic-form="medial" 
d="M321 801v-52l-304 -135c14 30 115 92 304 187zM206 327c0 0 95 -118 196 -229c20 -22 49 -24 67 -24h10c0 -69 -2 -74 -10 -74c-16 0 -53 5 -73 24c-41 38 -132 169 -132 169c13 -24 13 -37 13 -63c0 -63 -113 -130 -210 -130h-67c-6 0 -10 11 -10 15v60h99
c79 0 139 50 139 84c0 32 -16 94 -73 144l-70 62l-9 -16c-31 19 -43 29 -70 54c-3 17 -7 30 -7 36c0 86 58 137 217 200l157 62v-67l-199 -80c-26 -10 -128 -69 -128 -80c0 -8 85 -71 160 -147zM-10 15z" />
    <glyph glyph-name="unifb96" unicode="&#x6b3;" horiz-adv-x="902" arabic-form="isolated" 
d="M552 -226l-49 -51l-59 56l52 48zM522 -119l-49 -51l-59 56l52 48zM902 634l-199 -80c-31 -13 -128 -69 -128 -80c0 -20 273 -214 273 -373c0 -62 -8 -101 -41 -101h-589c-34 0 -143 30 -143 178c0 58 11 102 20 131l22 -5c-5 -32 -7 -60 -7 -84c0 -100 29 -145 163 -145
h535c1 12 2 23 2 35c0 22 -42 122 -135 201l-61 54l-9 -16c-31 21 -43 27 -70 54c-2 13 -7 29 -7 41c0 59 35 119 207 189l167 68v-67zM834 800v-52l-304 -135c14 30 115 92 304 187z" />
    <glyph glyph-name="unifb97" unicode="&#x6b3;" horiz-adv-x="966" arabic-form="final" 
d="M562 -226l-49 -51l-59 56l52 48zM532 -119l-49 -51l-59 56l52 48zM821 801v-52l-304 -135c14 30 115 92 304 187zM875 634l-199 -80c-26 -10 -128 -69 -128 -80c0 -8 85 -71 160 -147c0 0 94 -117 196 -229c20 -22 47 -24 62 -24h12c0 -64 -2 -74 -12 -74
c-18 0 -50 7 -68 24c-41 38 -132 169 -132 169c13 -24 13 -37 13 -63c0 -63 -113 -130 -210 -130h-351c-34 0 -143 30 -143 178c0 58 11 102 20 131l22 -5c-5 -32 -7 -60 -7 -84c0 -100 29 -145 163 -145h318c79 0 139 50 139 84c0 32 -16 94 -73 144l-70 62l-9 -16
c-31 19 -43 29 -70 54c-3 17 -7 30 -7 36c0 86 58 137 217 200l157 62v-67z" />
    <glyph glyph-name="unifb98" unicode="&#x6b3;" horiz-adv-x="373" arabic-form="initial" 
d="M232 -206l-49 -51l-59 56l52 48zM202 -99l-49 -51l-59 56l52 48zM373 701v-67l-199 -80c-26 -12 -130 -68 -130 -80c0 -16 274 -206 274 -381c0 -63 -12 -93 -40 -93h-278c-7 0 -10 12 -10 75h288c1 10 2 23 2 33c0 49 -86 157 -109 180l-87 77l-10 -16
c-31 19 -39 25 -66 49c-2 13 -8 34 -8 46c0 52 41 122 174 176zM321 799v-52l-304 -135c14 30 115 92 304 187z" />
    <glyph glyph-name="unifb99" unicode="&#x6b3;" horiz-adv-x="469" arabic-form="medial" 
d="M232 -206l-49 -51l-59 56l52 48zM202 -99l-49 -51l-59 56l52 48zM321 801v-52l-304 -135c14 30 115 92 304 187zM206 327c0 0 95 -118 196 -229c20 -22 49 -24 67 -24h10c0 -69 -2 -74 -10 -74c-16 0 -53 5 -73 24c-41 38 -132 169 -132 169c13 -24 13 -37 13 -63
c0 -63 -113 -130 -210 -130h-67c-6 0 -10 11 -10 15v60h99c79 0 139 50 139 84c0 32 -16 94 -73 144l-70 62l-9 -16c-31 19 -43 29 -70 54c-3 17 -7 30 -7 36c0 86 58 137 217 200l157 62v-67l-199 -80c-26 -10 -128 -69 -128 -80c0 -8 85 -71 160 -147zM-10 15z" />
    <glyph glyph-name="unifb9a" unicode="&#x6b1;" horiz-adv-x="902" arabic-form="isolated" 
d="M554 712l-49 -51l-59 56l52 48zM441 712l-49 -51l-59 56l52 48zM902 634l-199 -80c-31 -13 -128 -69 -128 -80c0 -20 273 -214 273 -373c0 -62 -8 -101 -41 -101h-589c-34 0 -143 30 -143 178c0 58 11 102 20 131l22 -5c-5 -32 -7 -60 -7 -84c0 -100 29 -145 163 -145
h535c1 12 2 23 2 35c0 22 -42 122 -135 201l-61 54l-9 -16c-31 21 -43 27 -70 54c-2 13 -7 29 -7 41c0 59 35 119 207 189l167 68v-67zM834 800v-52l-304 -135c14 30 115 92 304 187z" />
    <glyph glyph-name="unifb9b" unicode="&#x6b1;" horiz-adv-x="966" arabic-form="final" 
d="M554 712l-49 -51l-59 56l52 48zM441 712l-49 -51l-59 56l52 48zM821 801v-52l-304 -135c14 30 115 92 304 187zM875 634l-199 -80c-26 -10 -128 -69 -128 -80c0 -8 85 -71 160 -147c0 0 94 -117 196 -229c20 -22 47 -24 62 -24h12c0 -64 -2 -74 -12 -74
c-18 0 -50 7 -68 24c-41 38 -132 169 -132 169c13 -24 13 -37 13 -63c0 -63 -113 -130 -210 -130h-351c-34 0 -143 30 -143 178c0 58 11 102 20 131l22 -5c-5 -32 -7 -60 -7 -84c0 -100 29 -145 163 -145h318c79 0 139 50 139 84c0 32 -16 94 -73 144l-70 62l-9 -16
c-31 19 -43 29 -70 54c-3 17 -7 30 -7 36c0 86 58 137 217 200l157 62v-67z" />
    <glyph glyph-name="unifb9c" unicode="&#x6b1;" horiz-adv-x="373" arabic-form="initial" 
d="M91 702l-49 -51l-59 56l52 48zM152 778l-49 -51l-59 56l52 48zM373 701v-67l-199 -80c-26 -12 -130 -68 -130 -80c0 -16 274 -206 274 -381c0 -63 -12 -93 -40 -93h-278c-7 0 -10 12 -10 75h288c1 10 2 23 2 33c0 49 -86 157 -109 180l-87 77l-10 -16
c-31 19 -39 25 -66 49c-2 13 -8 34 -8 46c0 52 41 122 174 176zM321 799v-52l-304 -135c14 30 115 92 304 187z" />
    <glyph glyph-name="unifb9d" unicode="&#x6b1;" horiz-adv-x="469" arabic-form="medial" 
d="M91 702l-49 -51l-59 56l52 48zM152 778l-49 -51l-59 56l52 48zM321 801v-52l-304 -135c14 30 115 92 304 187zM206 327c0 0 95 -118 196 -229c20 -22 49 -24 67 -24h10c0 -69 -2 -74 -10 -74c-16 0 -53 5 -73 24c-41 38 -132 169 -132 169c13 -24 13 -37 13 -63
c0 -63 -113 -130 -210 -130h-67c-6 0 -10 11 -10 15v60h99c79 0 139 50 139 84c0 32 -16 94 -73 144l-70 62l-9 -16c-31 19 -43 29 -70 54c-3 17 -7 30 -7 36c0 86 58 137 217 200l157 62v-67l-199 -80c-26 -10 -128 -69 -128 -80c0 -8 85 -71 160 -147zM-10 15z" />
    <glyph glyph-name="unifb9e" unicode="&#x6ba;" horiz-adv-x="585" arabic-form="isolated" 
d="M316 -118c98 0 182 30 244 159c-1 105 -45 207 -71 228l58 86c16 -34 48 -127 50 -243c-15 -162 -57 -306 -281 -306c-193 0 -241 84 -241 209c0 60 15 123 34 189l26 -4c-11 -48 -23 -91 -23 -132c0 -100 34 -186 204 -186z" />
    <glyph glyph-name="noonghunnafinaarabic" unicode="&#x6ba;" horiz-adv-x="585" arabic-form="final" 
d="M316 -118c98 0 182 30 244 159c-1 105 -45 207 -71 228l58 86c16 -34 48 -127 50 -243c-15 -162 -57 -306 -281 -306c-193 0 -241 84 -241 209c0 60 15 123 34 189l26 -4c-11 -48 -23 -91 -23 -132c0 -100 34 -186 204 -186z" />
    <glyph glyph-name="unifba0" unicode="&#x6bb;" horiz-adv-x="585" arabic-form="isolated" 
d="M281 432c3 2 9 8 9 18c0 38 -12 96 -38 173l28 37c27 -151 29 -164 29 -214c35 40 67 59 98 59c23 0 55 -12 55 -68c0 -22 -5 -38 -27 -38h-168v33h14zM448 445c0 30 -24 38 -42 38c-17 0 -50 -17 -84 -51h125c0 3 1 10 1 13zM316 -118c98 0 182 30 244 159
c-1 105 -45 207 -71 228l58 86c16 -34 48 -127 50 -243c-15 -162 -57 -306 -281 -306c-193 0 -241 84 -241 209c0 60 15 123 34 189l26 -4c-11 -48 -23 -91 -23 -132c0 -100 34 -186 204 -186z" />
    <glyph glyph-name="rnoonfinalarabic" unicode="&#x6bb;" horiz-adv-x="585" arabic-form="final" 
d="M281 432c3 2 9 8 9 18c0 38 -12 96 -38 173l28 37c27 -151 29 -164 29 -214c35 40 67 59 98 59c23 0 55 -12 55 -68c0 -22 -5 -38 -27 -38h-168v33h14zM448 445c0 30 -24 38 -42 38c-17 0 -50 -17 -84 -51h125c0 3 1 10 1 13zM316 -118c98 0 182 30 244 159
c-1 105 -45 207 -71 228l58 86c16 -34 48 -127 50 -243c-15 -162 -57 -306 -281 -306c-193 0 -241 84 -241 209c0 60 15 123 34 189l26 -4c-11 -48 -23 -91 -23 -132c0 -100 34 -186 204 -186z" />
    <glyph glyph-name="rnooninitialarabic" unicode="&#x6bb;" horiz-adv-x="293" arabic-form="initial" 
d="M67 436c3 2 9 8 9 18c0 38 -12 96 -38 173l28 37c27 -151 29 -164 29 -214c35 40 67 59 98 59c23 0 55 -12 55 -68c0 -22 -5 -38 -27 -38h-168v33h14zM234 449c0 30 -24 38 -42 38c-17 0 -50 -17 -84 -51h125c0 3 1 10 1 13zM182 309c25 -37 43 -84 43 -141v-70
c0 -69 -17 -98 -50 -98h-175c-13 0 -22 22 -22 75h206c0 67 -6 119 -43 157z" />
    <glyph glyph-name="rnoonmedialarabic" unicode="&#x6bb;" horiz-adv-x="300" arabic-form="medial" 
d="M67 436c3 2 9 8 9 18c0 38 -12 96 -38 173l28 37c27 -151 29 -164 29 -214c35 40 67 59 98 59c23 0 55 -12 55 -68c0 -22 -5 -38 -27 -38h-168v33h14zM234 449c0 30 -24 38 -42 38c-17 0 -50 -17 -84 -51h125c0 3 1 10 1 13zM225 168l1 -57c0 -13 -1 -25 -2 -36h98
c0 -49 -7 -75 -22 -75h-68c-15 0 -23 13 -30 22c-8 -10 -19 -22 -32 -22h-170c-12 0 -22 22 -22 75h206c0 67 -6 119 -43 157l41 77c25 -37 42 -84 43 -141z" />
    <glyph glyph-name="unifba4" unicode="&#x6c0;" horiz-adv-x="372" arabic-form="isolated" 
d="M242 502c-10 0 -12 36 -30 36s-38 -42 -38 -61c0 -10 8 -45 21 -45c14 0 13 11 80 38l-8 -37c-32 -10 -82 -37 -150 -88c15 29 39 48 63 70c-35 9 -46 23 -46 53c0 50 39 90 75 110c23 0 41 -8 41 -39c0 -11 -2 -37 -8 -37zM199 299c78 -47 143 -103 143 -189
c0 -29 -14 -68 -27 -79c-17 -14 -59 -36 -90 -36c-49 0 -150 2 -150 97c0 53 77 149 124 207zM173 199c-18 -21 -36 -46 -49 -86c0 -33 54 -48 97 -48c22 0 55 10 77 25c0 21 -42 69 -125 109z" />
    <glyph glyph-name="hehhamzafinalarabic" unicode="&#x6c0;" horiz-adv-x="420" arabic-form="final" 
d="M282 596c-10 0 -12 36 -30 36s-38 -42 -38 -61c0 -10 8 -45 21 -45c14 0 13 11 80 38l-8 -37c-32 -10 -82 -37 -150 -88c15 29 39 48 63 70c-35 9 -46 23 -46 53c0 50 39 90 75 110c23 0 41 -8 41 -39c0 -11 -2 -37 -8 -37zM74 113c0 57 26 89 175 152c-3 10 -4 20 -4 30
c0 26 8 44 24 69l63 -250c9 -35 45 -39 88 -39h10c0 -57 -2 -75 -10 -75c-68 0 -110 4 -126 86c-10 -38 -60 -61 -97 -61c-83 0 -123 21 -123 88zM148 137c0 -27 22 -32 56 -32c49 0 63 3 72 44c-9 35 -9 43 -19 73c-67 -28 -109 -47 -109 -85z" />
    <glyph glyph-name="hehgoalisoarabic" unicode="&#x6c1;" horiz-adv-x="372" arabic-form="isolated" 
d="M199 359c102 -113 143 -202 143 -249c0 -29 -14 -68 -27 -79c-17 -14 -59 -36 -90 -36c-49 0 -150 2 -150 97c0 63 53 135 80 185l-8 10zM183 249c-18 -21 -69 -96 -69 -146c24 -30 64 -38 107 -38c49 0 75 14 87 35c0 21 -42 109 -125 149z" />
    <glyph glyph-name="hehgoalfinalarabic" unicode="&#x6c1;" horiz-adv-x="393" arabic-form="final" 
d="M393 75v-75c-94 0 -135 23 -196 58c-35 -31 -75 -105 -82 -114c-3 0 -40 8 -40 11c5 17 95 158 130 158c7 0 26 -15 54 -25c34 -13 80 -13 134 -13z" />
    <glyph glyph-name="hehgoalinitialarabic" unicode="&#x6c1;" horiz-adv-x="313" arabic-form="initial" 
d="M-5 75c54 0 103 5 135 13c29 7 67 29 79 29c5 0 12 -16 12 -35c0 -37 -7 -103 -7 -163c0 -24 1 -43 5 -64l25 47l39 -16c-2 -3 -30 -93 -68 -93c-35 0 -47 64 -47 129c0 56 6 113 6 126c-61 -35 -85 -48 -179 -48v75z" />
    <glyph glyph-name="hehgoalmedialarabic" unicode="&#x6c1;" horiz-adv-x="340" arabic-form="medial" 
d="M-4 75c54 0 100 0 134 13c28 10 77 24 84 24c5 0 7 -11 7 -30c0 -37 -7 -83 -7 -143c0 -41 2 -55 6 -55c7 0 17 51 32 92c15 42 68 99 88 99v-75c-11 0 -45 -44 -54 -77c-15 -53 -42 -130 -71 -130c-30 0 -47 64 -47 129c0 56 6 113 6 126c-61 -35 -84 -48 -178 -48v75z
" />
    <glyph glyph-name="hehdoachaschmeearabic" unicode="&#x6be;" horiz-adv-x="456" arabic-form="isolated" 
d="M281 216c5 -12 6 -12 6 -27c0 -25 -23 -67 -54 -84c30 -18 88 -49 97 -49c11 0 26 14 26 33c0 15 -23 70 -75 127zM243 364c102 -113 170 -231 170 -291c0 -21 -68 -73 -87 -73c-42 0 -115 37 -147 59c-32 -21 -101 -59 -150 -59h-29c-15 0 -23 26 -23 75h25
c43 0 76 8 114 24c-30 30 -37 48 -37 92c0 58 70 84 132 84c-7 7 -15 14 -20 17zM218 243c-31 0 -90 -17 -90 -55c0 -30 36 -48 60 -61c36 22 65 44 65 78c0 16 -20 38 -35 38z" />
    <glyph glyph-name="hehdoachaschmeeinitarabic" unicode="&#x6be;" horiz-adv-x="456" arabic-form="final" 
d="M281 216c5 -12 6 -12 6 -27c0 -25 -23 -67 -54 -84c30 -18 88 -49 97 -49c11 0 26 14 26 33c0 15 -23 70 -75 127zM243 364c102 -113 170 -231 170 -291c0 -21 -68 -73 -87 -73c-42 0 -115 37 -147 59c-32 -21 -101 -59 -150 -59h-29c-15 0 -23 26 -23 75h25
c43 0 76 8 114 24c-30 30 -37 48 -37 92c0 58 70 84 132 84c-7 7 -15 14 -20 17zM218 243c-31 0 -90 -17 -90 -55c0 -30 36 -48 60 -61c36 22 65 44 65 78c0 16 -20 38 -35 38z" />
    <glyph glyph-name="hehdoachaschmeemediarabic" unicode="&#x6be;" horiz-adv-x="456" arabic-form="initial" 
d="M218 243c-31 0 -90 -17 -90 -55c0 -30 36 -48 60 -61c36 22 65 44 65 78c0 16 -20 38 -35 38zM243 364c102 -113 153 -187 153 -247c0 -3 -1 -6 -3 -10c13 -18 31 -32 63 -32h20c0 -61 -6 -75 -15 -75h-5c-86 0 -104 31 -108 64c-16 -11 -31 -20 -39 -20
c-60 0 -93 3 -130 15c-32 -21 -101 -59 -150 -59h-29c-15 0 -23 26 -23 75h25c43 0 76 8 114 24c-30 30 -37 48 -37 92c0 58 70 84 132 84c-7 7 -15 14 -20 17zM281 216c5 -12 6 -12 6 -27c0 -25 -23 -67 -54 -84c30 -13 77 -21 86 -21c11 0 26 14 26 33c0 15 -12 42 -64 99
z" />
    <glyph glyph-name="hehdoachaschmeefinaarabic" unicode="&#x6be;" horiz-adv-x="496" arabic-form="medial" 
d="M330 -173c30 0 44 30 44 59c0 28 -51 114 -125 114c0 -106 53 -173 81 -173zM378 197c0 15 -2 64 -54 64c-62 0 -64 -90 -78 -185h32c63 26 100 94 100 121zM50 0c45 30 85 61 160 76c8 109 12 249 107 249c64 0 101 -55 101 -123c0 -64 -19 -103 -97 -126l199 -1
c0 -49 -8 -75 -23 -75h-176c77 -20 94 -64 94 -119c0 -77 -49 -117 -113 -117c-77 0 -85 146 -89 236h-163z" />
    <glyph glyph-name="yehbarreeisoarabic" unicode="&#x6d2;" horiz-adv-x="710" arabic-form="isolated" 
d="M362 265c39 0 54 -127 54 -158c0 -10 -1 -18 -2 -27c-23 18 -55 126 -76 126c-16 0 -24 -11 -55 -47c-10 -12 -27 -101 -39 -113c-63 -64 -103 -103 -103 -116c0 -19 6 -25 60 -25h509c-24 -25 -130 -75 -150 -75h-384c-46 0 -101 8 -101 59c0 48 57 107 136 191
c14 15 26 92 39 106c43 46 84 79 112 79z" />
    <glyph glyph-name="yehbarreefinaarabic" unicode="&#x6d2;" horiz-adv-x="680" arabic-form="final" 
d="M368 0c-160 0 -234 -26 -234 -70c0 -19 20 -25 74 -25h472c-21 -47 -155 -75 -190 -75h-314c-46 0 -101 8 -101 59c0 126 139 186 293 186h322c0 -43 -3 -75 -10 -75h-312z" />
    <glyph glyph-name="yehbarreehamzaarabic" unicode="&#x6d3;" horiz-adv-x="710" arabic-form="isolated" 
d="M253 434c-10 0 -12 36 -30 36s-38 -42 -38 -61c0 -10 8 -45 21 -45c14 0 13 11 80 38l-8 -37c-32 -10 -82 -37 -150 -88c16 29 39 48 63 70c-35 9 -46 23 -46 53c0 50 39 90 75 110c23 0 41 -8 41 -39c0 -11 -2 -37 -8 -37zM362 265c39 0 54 -127 54 -158
c0 -10 -1 -18 -2 -27c-23 18 -55 126 -76 126c-16 0 -24 -11 -55 -47c-10 -12 -27 -101 -39 -113c-63 -64 -103 -103 -103 -116c0 -19 6 -25 60 -25h509c-24 -25 -130 -75 -150 -75h-384c-46 0 -101 8 -101 59c0 48 57 107 136 191c14 15 26 92 39 106c43 46 84 79 112 79z
" />
    <glyph glyph-name="yehbarreehamzafinaarabic" unicode="&#x6d3;" horiz-adv-x="680" arabic-form="final" 
d="M233 424c-10 0 -12 36 -30 36s-38 -42 -38 -61c0 -10 8 -45 21 -45c14 0 13 11 80 38l-8 -37c-32 -10 -82 -37 -150 -88c16 29 39 48 63 70c-35 9 -46 23 -46 53c0 50 39 90 75 110c23 0 41 -8 41 -39c0 -11 -2 -37 -8 -37zM368 0c-160 0 -234 -26 -234 -70
c0 -19 20 -25 74 -25h472c-21 -47 -155 -75 -190 -75h-314c-46 0 -101 8 -101 59c0 126 139 186 293 186h322c0 -43 -3 -75 -10 -75h-312z" />
    <glyph glyph-name="ngisoarabic" unicode="&#x6ad;" horiz-adv-x="719" arabic-form="isolated" 
d="M409 384c-10 0 -12 36 -30 36s-38 -42 -38 -61c0 -10 8 -45 21 -45c14 0 13 10 80 37l-8 -33c-32 -10 -82 -40 -150 -91c18 25 39 48 63 70c-35 9 -46 23 -46 53c0 50 39 90 75 110c23 0 41 -8 41 -39c0 -11 -2 -37 -8 -37zM711 75c0 -49 -8 -75 -23 -75h-21
c-15 0 -26 12 -30 22c-8 -10 -19 -22 -32 -22l-387 1c-29 0 -143 18 -143 176c0 58 11 102 20 131l18 -4c-5 -32 -7 -60 -7 -85c0 -100 33 -144 167 -144h345c0 64 -15 196 -30 253l-49 182c-13 48 -40 70 -87 91c12 35 24 74 43 74c35 0 163 -299 163 -600h53zM310 708
l-49 -51l-59 56l52 48zM430 708l-49 -51l-59 56l52 48zM365 801l-49 -51l-59 56l52 48z" />
    <glyph glyph-name="ngfinalarabic" unicode="&#x6ad;" horiz-adv-x="688" arabic-form="final" 
d="M409 384c-10 0 -12 36 -30 36s-38 -42 -38 -61c0 -10 8 -45 21 -45c14 0 13 10 80 37l-8 -33c-32 -10 -82 -40 -150 -91c18 25 39 48 63 70c-35 9 -46 23 -46 53c0 50 39 90 75 110c23 0 41 -8 41 -39c0 -11 -2 -37 -8 -37zM711 75c0 -49 -8 -75 -23 -75h-21
c-15 0 -26 12 -30 22c-8 -10 -19 -22 -32 -22l-387 1c-29 0 -143 18 -143 176c0 58 11 102 20 131l18 -4c-5 -32 -7 -60 -7 -85c0 -100 33 -144 167 -144h345c0 64 -15 196 -30 253l-49 182c-13 48 -40 70 -87 91c12 35 24 74 43 74c35 0 163 -299 163 -600h53zM330 708
l-49 -51l-59 56l52 48zM450 708l-49 -51l-59 56l52 48zM385 801l-49 -51l-59 56l52 48z" />
    <glyph glyph-name="nginitialarabic" unicode="&#x6ad;" horiz-adv-x="373" arabic-form="initial" 
d="M108 686l-49 -51l-59 56l52 48zM228 686l-49 -51l-59 56l52 48zM163 779l-49 -51l-59 56l52 48zM373 701v-67l-199 -80c-26 -12 -130 -68 -130 -80c0 -16 274 -206 274 -381c0 -63 -12 -93 -40 -93h-278c-7 0 -10 12 -10 75h288c1 10 2 23 2 33c0 49 -86 157 -109 180
l-87 77l-10 -16c-31 19 -39 25 -66 49c-2 13 -8 34 -8 46c0 52 41 122 174 176z" />
    <glyph glyph-name="ngmedialarabic" unicode="&#x6ad;" horiz-adv-x="469" arabic-form="medial" 
d="M110 688l-49 -51l-59 56l52 48zM230 688l-49 -51l-59 56l52 48zM165 781l-49 -51l-59 56l52 48zM206 327c0 0 95 -118 196 -229c20 -22 49 -24 67 -24h10c0 -69 -2 -74 -10 -74c-16 0 -53 5 -73 24c-41 38 -132 169 -132 169c13 -24 13 -37 13 -63
c0 -63 -113 -130 -210 -130h-67c-6 0 -10 11 -10 15v60h99c79 0 139 50 139 84c0 32 -16 94 -73 144l-70 62l-9 -16c-31 19 -43 29 -70 54c-3 17 -7 30 -7 36c0 86 58 137 217 200l157 62v-67l-199 -80c-26 -10 -128 -69 -128 -80c0 -8 85 -71 160 -147zM-10 15z" />
    <glyph glyph-name="unifbd7" unicode="&#x6c7;" horiz-adv-x="359" arabic-form="isolated" 
d="M259 433c31 -21 36 -26 36 -37c0 -8 -3 -13 -6 -18l-50 23c-31 -49 -61 -68 -117 -90h-21c49 27 80 55 114 102c-33 26 -48 35 -48 63c0 48 46 84 77 84c24 0 34 -18 34 -41c0 -28 -10 -66 -19 -86zM249 483c0 22 -6 35 -29 35c-14 0 -19 -14 -19 -25c0 -7 3 -18 37 -43
c6 10 11 26 11 33zM294 50c-17 -33 -32 -57 -94 -57c-48 0 -81 27 -81 90c0 87 45 171 117 171c56 0 93 -69 93 -172v-23c0 -175 -57 -271 -228 -306l-101 17l4 21c78 15 139 37 203 107c55 60 69 92 87 152zM291 85c-2 61 -57 110 -72 110c-38 0 -59 -58 -59 -110
c13 -8 47 -15 67 -15c16 0 52 4 64 15z" />
    <glyph glyph-name="unifbd8" unicode="&#x6c7;" horiz-adv-x="329" arabic-form="final" 
d="M259 433c31 -21 36 -26 36 -37c0 -8 -3 -13 -6 -18l-50 23c-31 -49 -61 -68 -117 -90h-21c49 27 80 55 114 102c-33 26 -48 35 -48 63c0 48 46 84 77 84c24 0 34 -18 34 -41c0 -28 -10 -66 -19 -86zM249 483c0 22 -6 35 -29 35c-14 0 -19 -14 -19 -25c0 -7 3 -18 37 -43
c6 10 11 26 11 33zM294 50c-17 -33 -32 -57 -94 -57c-48 0 -81 27 -81 90c0 87 45 171 117 171c56 0 93 -69 93 -172v-23c0 -175 -57 -271 -228 -306l-101 17l4 21c78 15 139 37 203 107c55 60 69 92 87 152zM291 85c-2 61 -57 110 -72 110c-38 0 -59 -58 -59 -110
c13 -8 47 -15 67 -15c16 0 52 4 64 15z" />
    <glyph glyph-name="unifbd9" unicode="&#x6c6;" horiz-adv-x="399" arabic-form="isolated" 
d="M354 472l-75 -128h-33l-51 97l30 40l43 -100l62 103zM334 50c-17 -33 -32 -57 -94 -57c-48 0 -81 27 -81 90c0 87 45 171 117 171c56 0 93 -69 93 -172v-23c0 -175 -57 -271 -228 -306l-101 17l4 21c78 15 139 37 203 107c55 60 69 92 87 152zM331 85
c-2 61 -57 110 -72 110c-38 0 -59 -58 -59 -110c13 -8 47 -15 67 -15c16 0 52 4 64 15z" />
    <glyph glyph-name="unifbda" unicode="&#x6c6;" horiz-adv-x="369" arabic-form="final" 
d="M354 472l-75 -128h-33l-51 97l30 40l43 -100l62 103zM334 50c-17 -33 -32 -57 -94 -57c-48 0 -81 27 -81 90c0 87 45 171 117 171c56 0 93 -69 93 -172v-23c0 -175 -57 -271 -228 -306l-101 17l4 21c78 15 139 37 203 107c55 60 69 92 87 152zM331 85
c-2 61 -57 110 -72 110c-38 0 -59 -58 -59 -110c13 -8 47 -15 67 -15c16 0 52 4 64 15z" />
    <glyph glyph-name="unifbdb" unicode="&#x6c8;" horiz-adv-x="399" arabic-form="isolated" 
d="M250 546c21 -36 36 -74 43 -112c6 -36 8 -80 8 -128c0 -4 -3 -7 -6 -7c-4 0 -6 5 -8 14c-3 26 -9 62 -15 90c-7 37 -23 82 -42 107zM334 50c-17 -33 -32 -57 -94 -57c-48 0 -81 27 -81 90c0 87 45 171 117 171c56 0 93 -69 93 -172v-23c0 -175 -57 -271 -228 -306
l-101 17l4 21c78 15 139 37 203 107c55 60 69 92 87 152zM331 85c-2 61 -57 110 -72 110c-38 0 -59 -58 -59 -110c13 -8 47 -15 67 -15c16 0 52 4 64 15z" />
    <glyph glyph-name="unifbdc" unicode="&#x6c8;" horiz-adv-x="369" arabic-form="final" 
d="M250 546c21 -36 36 -74 43 -112c6 -36 8 -80 8 -128c0 -4 -3 -7 -6 -7c-4 0 -6 5 -8 14c-3 26 -9 62 -15 90c-7 37 -23 82 -42 107zM334 50c-17 -33 -32 -57 -94 -57c-48 0 -81 27 -81 90c0 87 45 171 117 171c56 0 93 -69 93 -172v-23c0 -175 -57 -271 -228 -306
l-101 17l4 21c78 15 139 37 203 107c55 60 69 92 87 152zM331 85c-2 61 -57 110 -72 110c-38 0 -59 -58 -59 -110c13 -8 47 -15 67 -15c16 0 52 4 64 15z" />
    <glyph glyph-name="unifbdd" unicode="&#x677;" horiz-adv-x="522" arabic-form="isolated" 
d="M489 430c-10 0 -12 36 -30 36s-38 -42 -38 -61c0 -10 8 -45 21 -45c14 0 13 11 80 38l-8 -37c-32 -10 -82 -37 -150 -88c16 29 39 48 63 70c-35 9 -46 23 -46 53c0 50 39 90 75 110c23 0 41 -8 41 -39c0 -11 -2 -37 -8 -37zM299 433c31 -21 36 -26 36 -37
c0 -8 -3 -13 -6 -18l-50 23c-31 -49 -61 -68 -117 -90h-21c49 27 80 55 114 102c-33 26 -48 35 -48 63c0 48 46 84 77 84c24 0 34 -18 34 -41c0 -28 -10 -66 -19 -86zM289 483c0 22 -6 35 -29 35c-14 0 -19 -14 -19 -25c0 -7 3 -18 37 -43c6 10 11 26 11 33zM334 50
c-17 -33 -32 -57 -94 -57c-48 0 -81 27 -81 90c0 87 45 171 117 171c56 0 93 -69 93 -172v-23c0 -175 -57 -271 -228 -306l-101 17l4 21c78 15 139 37 203 107c55 60 69 92 87 152zM331 85c-2 61 -57 110 -72 110c-38 0 -59 -58 -59 -110c13 -8 47 -15 67 -15
c16 0 52 4 64 15z" />
    <glyph glyph-name="unifbde" unicode="&#x6cb;" horiz-adv-x="399" arabic-form="isolated" 
d="M248 378l-49 -51l-59 56l52 48zM368 378l-49 -51l-59 56l52 48zM303 471l-49 -51l-59 56l52 48zM334 50c-17 -33 -32 -57 -94 -57c-48 0 -81 27 -81 90c0 87 45 171 117 171c56 0 93 -69 93 -172v-23c0 -175 -57 -271 -228 -306l-101 17l4 21c78 15 139 37 203 107
c55 60 69 92 87 152zM331 85c-2 61 -57 110 -72 110c-38 0 -59 -58 -59 -110c13 -8 47 -15 67 -15c16 0 52 4 64 15z" />
    <glyph glyph-name="unifbdf" unicode="&#x6cb;" horiz-adv-x="369" arabic-form="final" 
d="M248 378l-49 -51l-59 56l52 48zM368 378l-49 -51l-59 56l52 48zM303 471l-49 -51l-59 56l52 48zM334 50c-17 -33 -32 -57 -94 -57c-48 0 -81 27 -81 90c0 87 45 171 117 171c56 0 93 -69 93 -172v-23c0 -175 -57 -271 -228 -306l-101 17l4 21c78 15 139 37 203 107
c55 60 69 92 87 152zM331 85c-2 61 -57 110 -72 110c-38 0 -59 -58 -59 -110c13 -8 47 -15 67 -15c16 0 52 4 64 15z" />
    <glyph glyph-name="unifbe0" unicode="&#x6c5;" horiz-adv-x="399" arabic-form="isolated" 
d="M331 85c-2 61 -57 110 -72 110c-38 0 -59 -58 -59 -110c13 -8 47 -15 67 -15c16 0 52 4 64 15zM334 50c-17 -33 -32 -57 -94 -57c-48 0 -81 27 -81 90c0 87 45 171 117 171c56 0 93 -69 93 -172v-23c0 -175 -57 -271 -228 -306l-101 17l4 21c63 12 114 29 165 71h-137
l20 52h169c44 50 57 82 73 136z" />
    <glyph glyph-name="unifbe1" unicode="&#x6c5;" horiz-adv-x="369" arabic-form="final" 
d="M331 85c-2 61 -57 110 -72 110c-38 0 -59 -58 -59 -110c13 -8 47 -15 67 -15c16 0 52 4 64 15zM334 50c-17 -33 -32 -57 -94 -57c-48 0 -81 27 -81 90c0 87 45 171 117 171c56 0 93 -69 93 -172v-23c0 -175 -57 -271 -228 -306l-101 17l4 21c63 12 114 29 165 71h-137
l20 52h169c44 50 57 82 73 136z" />
    <glyph glyph-name="unifbe2" unicode="&#x6c9;" horiz-adv-x="399" arabic-form="isolated" 
d="M368 335h-25l-92 77l-91 -77h-25l93 125h46zM334 50c-17 -33 -32 -57 -94 -57c-48 0 -81 27 -81 90c0 87 45 171 117 171c56 0 93 -69 93 -172v-23c0 -175 -57 -271 -228 -306l-101 17l4 21c78 15 139 37 203 107c55 60 69 92 87 152zM331 85c-2 61 -57 110 -72 110
c-38 0 -59 -58 -59 -110c13 -8 47 -15 67 -15c16 0 52 4 64 15z" />
    <glyph glyph-name="unifbe3" unicode="&#x6c9;" horiz-adv-x="369" arabic-form="final" 
d="M368 335h-25l-92 77l-91 -77h-25l93 125h46zM334 50c-17 -33 -32 -57 -94 -57c-48 0 -81 27 -81 90c0 87 45 171 117 171c56 0 93 -69 93 -172v-23c0 -175 -57 -271 -228 -306l-101 17l4 21c78 15 139 37 203 107c55 60 69 92 87 152zM331 85c-2 61 -57 110 -72 110
c-38 0 -59 -58 -59 -110c13 -8 47 -15 67 -15c16 0 52 4 64 15z" />
    <glyph glyph-name="unifbe4" unicode="&#x6d0;" horiz-adv-x="672" arabic-form="isolated" 
d="M608 315c39 0 44 -27 44 -58c0 -10 -1 -18 -2 -27c-23 18 -45 26 -66 26c-50 0 -127 -83 -127 -106c0 -19 26 -29 80 -29c9 0 25 4 49 4c53 0 63 -19 63 -41c0 -103 -152 -194 -338 -194c-229 0 -236 77 -236 134c0 94 57 186 83 222l11 -4c-35 -66 -52 -120 -52 -163
c0 -66 22 -105 148 -105c205 0 325 26 348 59c-1 13 -35 20 -101 20c-46 0 -101 5 -101 56c0 86 113 206 197 206zM652 -249l-49 -51l-59 56l52 48zM622 -142l-49 -51l-59 56l52 48z" />
    <glyph glyph-name="efinalarabic" unicode="&#x6d0;" horiz-adv-x="670" arabic-form="final" 
d="M532 -409l-49 -51l-59 56l52 48zM502 -302l-49 -51l-59 56l52 48zM685 75c0 -22 -9 -75 -15 -75c-53 0 -106 -2 -153 -14c61 -18 124 -50 124 -86c0 -56 -161 -141 -310 -141c-180 0 -256 77 -256 185c0 94 47 176 73 212l11 -4c-35 -66 -42 -110 -42 -153
c0 -86 46 -155 198 -155c119 0 215 24 276 51c-24 16 -97 45 -180 59c4 16 12 54 17 68c67 28 149 53 210 53h47z" />
    <glyph glyph-name="einitialarabic" unicode="&#x6d0;" horiz-adv-x="270" arabic-form="initial" 
d="M202 -226l-49 -51l-59 56l52 48zM172 -119l-49 -51l-59 56l52 48zM182 309c25 -37 43 -84 43 -141v-70c0 -69 -17 -98 -50 -98h-175c-13 0 -22 22 -22 75h206c0 67 -6 119 -43 157z" />
    <glyph glyph-name="emedialarabic" unicode="&#x6d0;" horiz-adv-x="300" arabic-form="medial" 
d="M232 -226l-49 -51l-59 56l52 48zM202 -119l-49 -51l-59 56l52 48zM225 168l1 -57c0 -13 -1 -25 -2 -36h98c0 -49 -7 -75 -22 -75h-68c-15 0 -23 13 -30 22c-8 -10 -19 -22 -32 -22h-170c-12 0 -22 22 -22 75h206c0 67 -6 119 -43 157l41 77c25 -37 42 -84 43 -141z" />
    <glyph glyph-name="alefmaksurainitial_arabic" unicode="&#x649;" horiz-adv-x="270" arabic-form="initial" 
d="M182 309c25 -37 43 -84 43 -141v-70c0 -69 -17 -98 -50 -98h-175c-13 0 -22 22 -22 75h206c0 67 -6 119 -43 157z" />
    <glyph glyph-name="alefmaksuramedial_arabic" unicode="&#x649;" horiz-adv-x="300" arabic-form="medial" 
d="M225 168l1 -57c0 -13 -1 -25 -2 -36h98c0 -49 -7 -75 -22 -75h-68c-15 0 -23 13 -30 22c-8 -10 -19 -22 -32 -22h-170c-12 0 -22 22 -22 75h206c0 67 -6 119 -43 157l41 77c25 -37 42 -84 43 -141z" />
    <glyph glyph-name="uniFBFC" unicode="&#x6cc;" horiz-adv-x="672" arabic-form="isolated" 
d="M608 315c39 0 44 -27 44 -58c0 -10 -1 -18 -2 -27c-23 18 -45 26 -66 26c-50 0 -127 -83 -127 -106c0 -19 26 -29 80 -29c9 0 25 4 49 4c53 0 63 -19 63 -41c0 -137 -152 -244 -338 -244c-229 0 -236 101 -236 184c0 94 57 186 83 222l11 -4c-35 -66 -52 -120 -52 -163
c0 -86 22 -155 148 -155c205 0 318 48 348 109c-1 13 -35 20 -101 20c-46 0 -101 5 -101 56c0 86 113 206 197 206z" />
    <glyph glyph-name="yehfarsifinalarabic" unicode="&#x6cc;" horiz-adv-x="670" arabic-form="final" 
d="M685 75c0 -22 -9 -75 -15 -75c-53 0 -106 -2 -153 -14c61 -18 124 -50 124 -86c0 -56 -161 -141 -310 -141c-180 0 -256 77 -256 185c0 94 47 176 73 212l11 -4c-35 -66 -42 -110 -42 -153c0 -86 46 -155 198 -155c119 0 215 24 276 51c-24 16 -97 45 -180 59
c4 16 12 54 17 68c67 28 149 53 210 53h47z" />
    <glyph glyph-name="yehfarsiinitarabic" unicode="&#x6cc;" horiz-adv-x="270" arabic-form="initial" 
d="M243 -138l-49 -51l-59 56l52 48zM130 -138l-49 -51l-59 56l52 48zM182 309c25 -37 43 -84 43 -141v-70c0 -69 -17 -98 -50 -98h-175c-13 0 -22 22 -22 75h206c0 67 -6 119 -43 157z" />
    <glyph glyph-name="yehfarsimediarabic" unicode="&#x6cc;" horiz-adv-x="300" arabic-form="medial" 
d="M274 -139l-49 -51l-59 56l52 48zM161 -139l-49 -51l-59 56l52 48zM225 168l1 -57c0 -13 -1 -25 -2 -36h98c0 -49 -7 -75 -22 -75h-68c-15 0 -23 13 -30 22c-8 -10 -19 -22 -32 -22h-170c-12 0 -22 22 -22 75h206c0 67 -6 119 -43 157l41 77c25 -37 42 -84 43 -141z" />
    <glyph glyph-name="unifc5e" unicode="&#xfc5e;" horiz-adv-x="375" arabic-form="isolated" 
d="M225 855c-6 0 -19 -5 -19 -13c0 -16 4 -18 42 -23c-2 14 -10 36 -23 36zM272 817c18 0 33 -1 38 -9c3 -6 5 -12 6 -20l-43 -4c-3 -43 -11 -73 -35 -118h-41c-30 40 -58 94 -74 169c-16 -22 -19 -35 -41 -60l-10 44c33 24 51 56 61 56c4 0 15 -9 15 -19
c0 -51 42 -123 66 -149c14 24 28 42 31 76c-44 6 -61 14 -61 57c0 26 16 60 41 60c30 0 41 -62 47 -83zM329 605c-1 -11 -19 -49 -51 -49c-6 0 -16 1 -22 3c-9 -22 -27 -48 -54 -48c-26 0 -57 23 -57 55c0 11 2 23 5 37h20c-3 -11 -5 -20 -5 -28c0 -20 13 -24 29 -24
c23 0 42 16 50 53c7 -10 20 -16 27 -16c14 0 33 12 33 29c0 13 -10 27 -23 35l12 18c24 -28 36 -55 36 -65z" />
    <glyph glyph-name="unifc5f" unicode="&#xfc5f;" horiz-adv-x="375" arabic-form="isolated" 
d="M250 636l59 29c-4 -30 -13 -44 -44 -57l-151 -74c7 46 37 54 136 102zM250 726l59 29c-4 -30 -13 -44 -44 -57l-151 -74c7 46 37 54 136 102zM289 835c-1 -11 -19 -49 -51 -49c-6 0 -16 1 -22 3c-9 -22 -27 -48 -54 -48c-26 0 -57 23 -57 55c0 11 2 23 5 37h20
c-3 -11 -5 -20 -5 -28c0 -20 13 -24 29 -24c23 0 42 16 50 53c7 -10 20 -16 27 -16c14 0 33 12 33 29c0 13 -10 27 -23 35l12 18c24 -28 36 -55 36 -65z" />
    <glyph glyph-name="unifc60" unicode="&#xfc60;" horiz-adv-x="375" arabic-form="isolated" 
d="M210 871l59 29c-4 -30 -13 -44 -44 -57l-151 -74c7 46 37 54 136 102zM299 715c-1 -11 -19 -49 -51 -49c-6 0 -16 1 -22 3c-9 -22 -27 -48 -54 -48c-26 0 -57 23 -57 55c0 11 2 23 5 37h20c-3 -11 -5 -20 -5 -28c0 -20 13 -24 29 -24c23 0 42 16 50 53
c7 -10 20 -16 27 -16c14 0 33 12 33 29c0 13 -10 27 -23 35l12 18c24 -28 36 -55 36 -65z" />
    <glyph glyph-name="unifc61" unicode="&#xfc61;" horiz-adv-x="375" arabic-form="isolated" 
d="M189 773c31 -21 36 -26 36 -37c0 -8 -3 -13 -6 -18l-50 23c-31 -49 -61 -68 -117 -90h-21c49 27 80 55 114 102c-33 26 -48 35 -48 63c0 48 46 84 77 84c24 0 34 -18 34 -41c0 -28 -10 -66 -19 -86zM179 823c0 22 -6 35 -29 35c-14 0 -19 -14 -19 -25c0 -7 3 -18 37 -43
c6 10 11 26 11 33zM289 625c-1 -11 -19 -49 -51 -49c-6 0 -16 1 -22 3c-9 -22 -27 -48 -54 -48c-26 0 -57 23 -57 55c0 11 2 23 5 37h20c-3 -11 -5 -20 -5 -28c0 -20 13 -24 29 -24c23 0 42 16 50 53c7 -10 20 -16 27 -16c14 0 33 12 33 29c0 13 -10 27 -23 35l12 18
c24 -28 36 -55 36 -65z" />
    <glyph glyph-name="unifc62" unicode="&#xfc62;" horiz-adv-x="375" arabic-form="isolated" 
d="M260 731l59 29c-4 -30 -13 -44 -44 -57l-151 -74c7 46 37 54 136 102zM289 835c-1 -11 -19 -49 -51 -49c-6 0 -16 1 -22 3c-9 -22 -27 -48 -54 -48c-26 0 -57 23 -57 55c0 11 2 23 5 37h20c-3 -11 -5 -20 -5 -28c0 -20 13 -24 29 -24c23 0 42 16 50 53
c7 -10 20 -16 27 -16c14 0 33 12 33 29c0 13 -10 27 -23 35l12 18c24 -28 36 -55 36 -65z" />
    <glyph glyph-name="unifc63" unicode="&#xfc63;" horiz-adv-x="375" arabic-form="isolated" 
d="M160 658c-5 41 -21 82 -28 112c-3 17 -13 28 -21 50l25 51c22 -84 33 -63 33 -147c0 -16 -2 -36 -9 -66zM269 625c-1 -11 -19 -49 -51 -49c-6 0 -16 1 -22 3c-9 -22 -27 -48 -54 -48c-26 0 -57 23 -57 55c0 11 2 23 5 37h20c-3 -11 -5 -20 -5 -28c0 -20 13 -24 29 -24
c23 0 42 16 50 53c7 -10 20 -16 27 -16c14 0 33 12 33 29c0 13 -10 27 -23 35l12 18c24 -28 36 -55 36 -65z" />
    <glyph glyph-name="unifc64" unicode="&#xfc64;" horiz-adv-x="698" arabic-form="final" 
d="M553 536c-10 0 -12 36 -30 36s-38 -42 -38 -61c0 -10 8 -45 21 -45c14 0 13 11 80 38l-8 -37c-32 -10 -82 -37 -150 -88c16 29 39 48 63 70c-35 9 -46 23 -46 53c0 50 39 90 75 110c23 0 41 -8 41 -39c0 -11 -2 -37 -8 -37zM556 334c27 -39 49 -89 49 -149v-74
c0 -13 -1 -28 -2 -36h118c0 -49 -8 -75 -23 -75h-87c-30 0 -48 47 -48 75c0 61 -7 115 -32 154c-28 -47 -65 -96 -128 -96c-17 0 -36 5 -56 14c2 -19 3 -39 3 -58c0 -175 -61 -301 -232 -336l-113 17l4 21c78 15 147 35 211 105c55 60 72 82 90 142c-7 41 -20 95 -38 142
c19 22 39 45 58 67c7 -23 52 -39 73 -39c67 0 103 54 153 126z" />
    <glyph glyph-name="unifc65" unicode="&#xfc65;" horiz-adv-x="698" arabic-form="final" 
d="M553 536c-10 0 -12 36 -30 36s-38 -42 -38 -61c0 -10 8 -45 21 -45c14 0 13 11 80 38l-8 -37c-32 -10 -82 -37 -150 -88c16 29 39 48 63 70c-35 9 -46 23 -46 53c0 50 39 90 75 110c23 0 41 -8 41 -39c0 -11 -2 -37 -8 -37zM262 348l-49 -51l-59 56l52 48zM556 334
c27 -39 49 -89 49 -149v-74c0 -13 -1 -28 -2 -36h118c0 -49 -8 -75 -23 -75h-87c-30 0 -48 47 -48 75c0 61 -7 115 -32 154c-28 -47 -65 -96 -128 -96c-17 0 -36 5 -56 14c2 -19 3 -39 3 -58c0 -175 -61 -301 -232 -336l-113 17l4 21c78 15 147 35 211 105
c55 60 72 82 90 142c-7 41 -20 95 -38 142c19 22 39 45 58 67c7 -23 52 -39 73 -39c67 0 103 54 153 126z" />
    <glyph glyph-name="unifc67" unicode="&#xfc67;" horiz-adv-x="988" arabic-form="final" 
d="M853 536c-10 0 -12 36 -30 36s-38 -42 -38 -61c0 -10 8 -45 21 -45c14 0 13 11 80 38l-8 -37c-32 -10 -82 -37 -150 -88c16 29 39 48 63 70c-35 9 -46 23 -46 53c0 50 39 90 75 110c23 0 41 -8 41 -39c0 -11 -2 -37 -8 -37zM362 -118c98 0 182 30 244 159
c-1 105 -45 207 -71 228l58 86c6 -12 14 -32 22 -59c7 -23 67 -44 88 -44c67 0 93 10 143 82c27 -39 49 -89 49 -149v-74c0 -13 -1 -25 -2 -36h118c0 -49 -8 -75 -23 -75h-87c-28 0 -48 37 -48 75c0 61 -7 114 -32 154c-30 -31 -55 -52 -118 -52c-24 0 -45 5 -66 14
c3 -25 5 -51 6 -79c-15 -162 -57 -306 -281 -306c-193 0 -241 84 -241 209c0 60 15 123 34 189l26 -4c-11 -48 -23 -91 -23 -132c0 -100 34 -186 204 -186zM469 433l-49 -51l-59 56l52 48z" />
    <glyph glyph-name="unifc6a" unicode="&#xfc6a;" horiz-adv-x="698" arabic-form="final" 
d="M596 -149l-49 -51l-59 56l52 48zM556 334c27 -39 49 -89 49 -149v-74c0 -13 -1 -28 -2 -36h118c0 -49 -8 -75 -23 -75h-87c-30 0 -48 47 -48 75c0 61 -7 115 -32 154c-28 -47 -65 -96 -128 -96c-17 0 -36 5 -56 14c2 -19 3 -39 3 -58c0 -175 -61 -301 -232 -336l-113 17
l4 21c78 15 147 35 211 105c55 60 72 82 90 142c-7 41 -20 95 -38 142c19 22 39 45 58 67c7 -23 52 -39 73 -39c67 0 103 54 153 126z" />
    <glyph glyph-name="unifc6b" unicode="&#xfc6b;" horiz-adv-x="698" arabic-form="final" 
d="M262 348l-49 -51l-59 56l52 48zM596 -149l-49 -51l-59 56l52 48zM556 334c27 -39 49 -89 49 -149v-74c0 -13 -1 -28 -2 -36h118c0 -49 -8 -75 -23 -75h-87c-30 0 -48 47 -48 75c0 61 -7 115 -32 154c-28 -47 -65 -96 -128 -96c-17 0 -36 5 -56 14c2 -19 3 -39 3 -58
c0 -175 -61 -301 -232 -336l-113 17l4 21c78 15 147 35 211 105c55 60 72 82 90 142c-7 41 -20 95 -38 142c19 22 39 45 58 67c7 -23 52 -39 73 -39c67 0 103 54 153 126z" />
    <glyph glyph-name="unifc6d" unicode="&#xfc6d;" horiz-adv-x="988" arabic-form="final" 
d="M896 -149l-49 -51l-59 56l52 48zM362 -118c98 0 182 30 244 159c-1 105 -45 207 -71 228l58 86c6 -12 14 -32 22 -59c7 -23 67 -44 88 -44c67 0 93 10 143 82c27 -39 49 -89 49 -149v-74c0 -13 -1 -25 -2 -36h118c0 -49 -8 -75 -23 -75h-87c-28 0 -48 37 -48 75
c0 61 -7 114 -32 154c-30 -31 -55 -52 -118 -52c-24 0 -45 5 -66 14c3 -25 5 -51 6 -79c-15 -162 -57 -306 -281 -306c-193 0 -241 84 -241 209c0 60 15 123 34 189l26 -4c-11 -48 -23 -91 -23 -132c0 -100 34 -186 204 -186zM469 433l-49 -51l-59 56l52 48z" />
    <glyph glyph-name="unifc70" unicode="&#xfc70;" horiz-adv-x="698" arabic-form="final" 
d="M624 463l-49 -51l-59 56l52 48zM511 463l-49 -51l-59 56l52 48zM556 334c27 -39 49 -89 49 -149v-74c0 -13 -1 -28 -2 -36h118c0 -49 -8 -75 -23 -75h-87c-30 0 -48 47 -48 75c0 61 -7 115 -32 154c-28 -47 -65 -96 -128 -96c-17 0 -36 5 -56 14c2 -19 3 -39 3 -58
c0 -175 -61 -301 -232 -336l-113 17l4 21c78 15 147 35 211 105c55 60 72 82 90 142c-7 41 -20 95 -38 142c19 22 39 45 58 67c7 -23 52 -39 73 -39c67 0 103 54 153 126z" />
    <glyph glyph-name="unifc71" unicode="&#xfc71;" horiz-adv-x="698" arabic-form="final" 
d="M624 463l-49 -51l-59 56l52 48zM511 463l-49 -51l-59 56l52 48zM262 348l-49 -51l-59 56l52 48zM556 334c27 -39 49 -89 49 -149v-74c0 -13 -1 -28 -2 -36h118c0 -49 -8 -75 -23 -75h-87c-30 0 -48 47 -48 75c0 61 -7 115 -32 154c-28 -47 -65 -96 -128 -96
c-17 0 -36 5 -56 14c2 -19 3 -39 3 -58c0 -175 -61 -301 -232 -336l-113 17l4 21c78 15 147 35 211 105c55 60 72 82 90 142c-7 41 -20 95 -38 142c19 22 39 45 58 67c7 -23 52 -39 73 -39c67 0 103 54 153 126z" />
    <glyph glyph-name="unifc73" unicode="&#xfc73;" horiz-adv-x="988" arabic-form="final" 
d="M924 463l-49 -51l-59 56l52 48zM811 463l-49 -51l-59 56l52 48zM362 -118c98 0 182 30 244 159c-1 105 -45 207 -71 228l58 86c6 -12 14 -32 22 -59c7 -23 67 -44 88 -44c67 0 93 10 143 82c27 -39 49 -89 49 -149v-74c0 -13 -1 -25 -2 -36h118c0 -49 -8 -75 -23 -75h-87
c-28 0 -48 37 -48 75c0 61 -7 114 -32 154c-30 -31 -55 -52 -118 -52c-24 0 -45 5 -66 14c3 -25 5 -51 6 -79c-15 -162 -57 -306 -281 -306c-193 0 -241 84 -241 209c0 60 15 123 34 189l26 -4c-11 -48 -23 -91 -23 -132c0 -100 34 -186 204 -186zM469 433l-49 -51l-59 56
l52 48z" />
    <glyph glyph-name="unifc76" unicode="&#xfc76;" horiz-adv-x="698" arabic-form="final" 
d="M530 430l-49 -51l-59 56l52 48zM650 430l-49 -51l-59 56l52 48zM585 523l-49 -51l-59 56l52 48zM556 334c27 -39 49 -89 49 -149v-74c0 -13 -1 -28 -2 -36h118c0 -49 -8 -75 -23 -75h-87c-30 0 -48 47 -48 75c0 61 -7 115 -32 154c-28 -47 -65 -96 -128 -96
c-17 0 -36 5 -56 14c2 -19 3 -39 3 -58c0 -175 -61 -301 -232 -336l-113 17l4 21c78 15 147 35 211 105c55 60 72 82 90 142c-7 41 -20 95 -38 142c19 22 39 45 58 67c7 -23 52 -39 73 -39c67 0 103 54 153 126z" />
    <glyph glyph-name="unifc77" unicode="&#xfc77;" horiz-adv-x="698" arabic-form="final" 
d="M530 430l-49 -51l-59 56l52 48zM650 430l-49 -51l-59 56l52 48zM585 523l-49 -51l-59 56l52 48zM262 348l-49 -51l-59 56l52 48zM556 334c27 -39 49 -89 49 -149v-74c0 -13 -1 -28 -2 -36h118c0 -49 -8 -75 -23 -75h-87c-30 0 -48 47 -48 75c0 61 -7 115 -32 154
c-28 -47 -65 -96 -128 -96c-17 0 -36 5 -56 14c2 -19 3 -39 3 -58c0 -175 -61 -301 -232 -336l-113 17l4 21c78 15 147 35 211 105c55 60 72 82 90 142c-7 41 -20 95 -38 142c19 22 39 45 58 67c7 -23 52 -39 73 -39c67 0 103 54 153 126z" />
    <glyph glyph-name="unifc79" unicode="&#xfc79;" horiz-adv-x="988" arabic-form="final" 
d="M780 430l-49 -51l-59 56l52 48zM900 430l-49 -51l-59 56l52 48zM835 523l-49 -51l-59 56l52 48zM362 -118c98 0 182 30 244 159c-1 105 -45 207 -71 228l58 86c6 -12 14 -32 22 -59c7 -23 67 -44 88 -44c67 0 93 10 143 82c27 -39 49 -89 49 -149v-74
c0 -13 -1 -25 -2 -36h118c0 -49 -8 -75 -23 -75h-87c-28 0 -48 37 -48 75c0 61 -7 114 -32 154c-30 -31 -55 -52 -118 -52c-24 0 -45 5 -66 14c3 -25 5 -51 6 -79c-15 -162 -57 -306 -281 -306c-193 0 -241 84 -241 209c0 60 15 123 34 189l26 -4c-11 -48 -23 -91 -23 -132
c0 -100 34 -186 204 -186zM469 433l-49 -51l-59 56l52 48z" />
    <glyph glyph-name="unifc8a" unicode="&#xfc8a;" horiz-adv-x="698" arabic-form="final" 
d="M532 430l-49 -51l-59 56l52 48zM556 334c27 -39 49 -89 49 -149v-74c0 -13 -1 -28 -2 -36h118c0 -49 -8 -75 -23 -75h-87c-30 0 -48 47 -48 75c0 61 -7 115 -32 154c-28 -47 -65 -96 -128 -96c-17 0 -36 5 -56 14c2 -19 3 -39 3 -58c0 -175 -61 -301 -232 -336l-113 17
l4 21c78 15 147 35 211 105c55 60 72 82 90 142c-7 41 -20 95 -38 142c19 22 39 45 58 67c7 -23 52 -39 73 -39c67 0 103 54 153 126z" />
    <glyph glyph-name="unifc8b" unicode="&#xfc8b;" horiz-adv-x="698" arabic-form="final" 
d="M262 348l-49 -51l-59 56l52 48zM532 430l-49 -51l-59 56l52 48zM556 334c27 -39 49 -89 49 -149v-74c0 -13 -1 -28 -2 -36h118c0 -49 -8 -75 -23 -75h-87c-30 0 -48 47 -48 75c0 61 -7 115 -32 154c-28 -47 -65 -96 -128 -96c-17 0 -36 5 -56 14c2 -19 3 -39 3 -58
c0 -175 -61 -301 -232 -336l-113 17l4 21c78 15 147 35 211 105c55 60 72 82 90 142c-7 41 -20 95 -38 142c19 22 39 45 58 67c7 -23 52 -39 73 -39c67 0 103 54 153 126z" />
    <glyph glyph-name="unifc8d" unicode="&#xfc8d;" horiz-adv-x="988" arabic-form="final" 
d="M842 430l-49 -51l-59 56l52 48zM362 -118c98 0 182 30 244 159c-1 105 -45 207 -71 228l58 86c6 -12 14 -32 22 -59c7 -23 67 -44 88 -44c67 0 93 10 143 82c27 -39 49 -89 49 -149v-74c0 -13 -1 -25 -2 -36h118c0 -49 -8 -75 -23 -75h-87c-28 0 -48 37 -48 75
c0 61 -7 114 -32 154c-30 -31 -55 -52 -118 -52c-24 0 -45 5 -66 14c3 -25 5 -51 6 -79c-15 -162 -57 -306 -281 -306c-193 0 -241 84 -241 209c0 60 15 123 34 189l26 -4c-11 -48 -23 -91 -23 -132c0 -100 34 -186 204 -186zM469 433l-49 -51l-59 56l52 48z" />
    <glyph glyph-name="unifc91" unicode="&#xfc91;" horiz-adv-x="698" arabic-form="final" 
d="M654 -139l-49 -51l-59 56l52 48zM541 -139l-49 -51l-59 56l52 48zM556 334c27 -39 49 -89 49 -149v-74c0 -13 -1 -28 -2 -36h118c0 -49 -8 -75 -23 -75h-87c-30 0 -48 47 -48 75c0 61 -7 115 -32 154c-28 -47 -65 -96 -128 -96c-17 0 -36 5 -56 14c2 -19 3 -39 3 -58
c0 -175 -61 -301 -232 -336l-113 17l4 21c78 15 147 35 211 105c55 60 72 82 90 142c-7 41 -20 95 -38 142c19 22 39 45 58 67c7 -23 52 -39 73 -39c67 0 103 54 153 126z" />
    <glyph glyph-name="unifc92" unicode="&#xfc92;" horiz-adv-x="698" arabic-form="final" 
d="M654 -139l-49 -51l-59 56l52 48zM541 -139l-49 -51l-59 56l52 48zM262 348l-49 -51l-59 56l52 48zM556 334c27 -39 49 -89 49 -149v-74c0 -13 -1 -28 -2 -36h118c0 -49 -8 -75 -23 -75h-87c-30 0 -48 47 -48 75c0 61 -7 115 -32 154c-28 -47 -65 -96 -128 -96
c-17 0 -36 5 -56 14c2 -19 3 -39 3 -58c0 -175 -61 -301 -232 -336l-113 17l4 21c78 15 147 35 211 105c55 60 72 82 90 142c-7 41 -20 95 -38 142c19 22 39 45 58 67c7 -23 52 -39 73 -39c67 0 103 54 153 126z" />
    <glyph glyph-name="unifc94" unicode="&#xfc94;" horiz-adv-x="988" arabic-form="final" 
d="M944 -139l-49 -51l-59 56l52 48zM831 -139l-49 -51l-59 56l52 48zM362 -118c98 0 182 30 244 159c-1 105 -45 207 -71 228l58 86c6 -12 14 -32 22 -59c7 -23 67 -44 88 -44c67 0 93 10 143 82c27 -39 49 -89 49 -149v-74c0 -13 -1 -25 -2 -36h118c0 -49 -8 -75 -23 -75
h-87c-28 0 -48 37 -48 75c0 61 -7 114 -32 154c-30 -31 -55 -52 -118 -52c-24 0 -45 5 -66 14c3 -25 5 -51 6 -79c-15 -162 -57 -306 -281 -306c-193 0 -241 84 -241 209c0 60 15 123 34 189l26 -4c-11 -48 -23 -91 -23 -132c0 -100 34 -186 204 -186zM469 433l-49 -51
l-59 56l52 48z" />
    <glyph glyph-name="uniFDF2" unicode="&#xfdf2;" horiz-adv-x="1025" arabic-form="isolated" 
d="M125 240c0 -35 70 -40 92 -40c49 0 83 11 92 52c-9 35 -13 76 -27 107c-67 -28 -157 -71 -157 -119zM629 725c-1 -11 -19 -49 -51 -49c-6 0 -16 1 -22 3c-9 -22 -27 -48 -54 -48c-26 0 -57 23 -57 55c0 11 2 23 5 37h20c-3 -11 -5 -20 -5 -28c0 -20 13 -24 29 -24
c23 0 42 16 50 53c7 -10 20 -16 27 -16c14 0 33 12 33 29c0 13 -10 27 -23 35l12 18c24 -28 36 -55 36 -65zM510 728c-6 41 -16 62 -22 91c-4 18 -12 26 -20 49l24 32c24 -47 33 -65 33 -106c0 -16 -8 -36 -15 -66zM944 189c0 -155 52 -69 81 -189h-15c-40 0 -69 9 -88 38
c-18 -28 -44 -38 -87 -38h-105c-40 0 -69 9 -88 38c-18 -28 -44 -38 -87 -38h-100c-50 0 -103 34 -135 213c-21 -51 -78 -84 -115 -84c-83 0 -153 17 -153 84c0 57 74 116 223 179c-3 10 -4 20 -4 30c0 26 8 51 24 76l76 -337c13 -43 51 -86 85 -86h69c63 0 89 45 89 113
c0 141 -14 276 -43 418l41 18l27 51c12 -182 25 -251 25 -486c0 -95 43 -114 75 -114h66c63 0 89 45 89 113c0 141 -14 276 -43 418l41 18l27 51c12 -182 25 -251 25 -486z" />
    <glyph glyph-name="uniFDFC" unicode="&#xfdfc;" horiz-adv-x="1107" arabic-form="isolated" 
d="M1035 247c13 -45 20 -104 20 -158c0 -175 -61 -301 -232 -336l-113 17l4 21c78 15 160 23 220 95c52 62 61 84 81 152c-7 41 -19 95 -38 142zM267 -240c-104 0 -225 19 -225 183c0 98 43 164 61 211l16 -6c-31 -95 -46 -117 -46 -166c0 -116 83 -135 216 -135
c91 0 155 3 186 115c0 219 -34 399 -82 634l18 38l47 41c14 -63 36 -92 67 -136l-42 -64v-42c0 -29 42 -314 42 -422c0 -177 -51 -251 -258 -251zM637 449v-222c0 -40 0 -73 6 -100c7 -30 36 -52 82 -52h117c0 67 -15 119 -52 157l41 77c25 -37 43 -84 43 -141v-70
c0 -69 -17 -98 -50 -98h-98c-110 0 -142 58 -142 177c0 54 9 100 9 158c0 49 -5 227 -9 276l42 89c4 -68 11 -182 11 -251zM874 -87l-56 -56l-59 56l59 53zM746 -127l-56 -56l-59 56l59 53z" />
    <glyph glyph-name="uniFE70" unicode="&#xfe70;" horiz-adv-x="200" arabic-form="isolated" 
d="M139 776l59 29c-4 -30 -13 -44 -44 -57l-151 -74c7 46 37 54 136 102zM139 866l59 29c-4 -30 -13 -44 -44 -57l-151 -74c7 46 37 54 136 102z" />
    <glyph glyph-name="unife71" unicode="&#xfe71;" horiz-adv-x="200" arabic-form="medial" 
d="M138 776l59 29c-4 -30 -13 -44 -44 -57l-151 -74c7 46 37 54 136 102zM138 866l59 29c-4 -30 -13 -44 -44 -57l-151 -74c7 46 37 54 136 102zM-5 80h210v-80h-210v80z" />
    <glyph glyph-name="unife72" unicode="&#xfe72;" horiz-adv-x="250" arabic-form="isolated" 
d="M155 855c-6 0 -19 -5 -19 -13c0 -16 4 -18 42 -23c-2 14 -10 36 -23 36zM202 817c18 0 33 -1 38 -9c3 -6 5 -12 6 -20l-43 -4c-3 -43 -11 -73 -35 -118h-41c-30 40 -58 94 -74 169c-16 -22 -19 -35 -41 -60l-10 44c33 24 51 56 61 56c4 0 15 -9 15 -19
c0 -51 42 -123 66 -149c14 24 28 42 31 76c-44 6 -61 14 -61 57c0 26 16 60 41 60c30 0 41 -62 47 -83z" />
    <glyph glyph-name="uniFE74" unicode="&#xfe74;" horiz-adv-x="200" arabic-form="isolated" 
d="M139 -197l59 28c-4 -30 -13 -44 -44 -57l-151 -74c7 46 44 57 136 103zM139 -107l59 28c-4 -30 -13 -44 -44 -57l-151 -74c7 46 44 57 136 103z" />
    <glyph glyph-name="uniFE76" unicode="&#xfe76;" horiz-adv-x="200" arabic-form="isolated" 
d="M139 806l59 29c-4 -30 -13 -44 -44 -57l-151 -74c7 46 37 54 136 102z" />
    <glyph glyph-name="unife77" unicode="&#xfe77;" horiz-adv-x="200" arabic-form="medial" 
d="M138 806l59 29c-4 -30 -13 -44 -44 -57l-151 -74c7 46 37 54 136 102zM-5 80h210v-80h-210v80z" />
    <glyph glyph-name="uniFE78" unicode="&#xfe78;" horiz-adv-x="200" arabic-form="isolated" 
d="M161 773c31 -21 36 -26 36 -37c0 -8 -3 -13 -6 -18l-50 23c-31 -49 -61 -68 -117 -90h-21c49 27 80 55 114 102c-33 26 -48 35 -48 63c0 48 46 84 77 84c24 0 34 -18 34 -41c0 -28 -10 -66 -19 -86zM151 823c0 22 -6 35 -29 35c-14 0 -19 -14 -19 -25c0 -7 3 -18 37 -43
c6 10 11 26 11 33z" />
    <glyph glyph-name="unife79" unicode="&#xfe79;" horiz-adv-x="200" arabic-form="medial" 
d="M161 773c31 -21 36 -26 36 -37c0 -8 -3 -13 -6 -18l-50 23c-31 -49 -61 -68 -117 -90h-21c49 27 80 55 114 102c-33 26 -48 35 -48 63c0 48 46 84 77 84c24 0 34 -18 34 -41c0 -28 -10 -66 -19 -86zM151 823c0 22 -6 35 -29 35c-14 0 -19 -14 -19 -25c0 -7 3 -18 37 -43
c6 10 11 26 11 33zM-5 80h210v-80h-210v80z" />
    <glyph glyph-name="uniFE7A" unicode="&#xfe7a;" horiz-adv-x="200" arabic-form="isolated" 
d="M139 -197l59 28c-4 -30 -13 -44 -44 -57l-151 -74c7 46 44 57 136 103z" />
    <glyph glyph-name="unife7b" unicode="&#xfe7b;" horiz-adv-x="200" arabic-form="medial" 
d="M138 -197l59 28c-4 -30 -13 -44 -44 -57l-151 -74c7 46 44 57 136 103zM-5 80h210v-80h-210v80z" />
    <glyph glyph-name="uniFE7C" unicode="&#xfe7c;" horiz-adv-x="200" arabic-form="isolated" 
d="M193 815c-1 -11 -19 -49 -51 -49c-6 0 -16 1 -22 3c-9 -22 -27 -48 -54 -48c-26 0 -57 23 -57 55c0 11 2 23 5 37h20c-3 -11 -5 -20 -5 -28c0 -20 13 -24 29 -24c23 0 42 16 50 53c7 -10 20 -16 27 -16c14 0 33 12 33 29c0 13 -10 27 -23 35l12 18c24 -28 36 -55 36 -65z
" />
    <glyph glyph-name="unife7d" unicode="&#xfe7d;" horiz-adv-x="200" arabic-form="medial" 
d="M193 815c-1 -11 -19 -49 -51 -49c-6 0 -16 1 -22 3c-9 -22 -27 -48 -54 -48c-26 0 -57 23 -57 55c0 11 2 23 5 37h20c-3 -11 -5 -20 -5 -28c0 -20 13 -24 29 -24c23 0 42 16 50 53c7 -10 20 -16 27 -16c14 0 33 12 33 29c0 13 -10 27 -23 35l12 18c24 -28 36 -55 36 -65z
M-5 80h210v-80h-210v80z" />
    <glyph glyph-name="unife7e" unicode="&#xfe7e;" horiz-adv-x="200" arabic-form="isolated" 
d="M100 850c44 -7 63 -61 63 -88c0 -48 -32 -69 -72 -69c-43 0 -53 36 -53 73c0 27 19 53 56 59l-9 -20c-19 -7 -19 -24 -19 -42c0 -11 4 -28 41 -28c21 0 33 15 33 33c0 6 0 21 -31 34z" />
    <glyph glyph-name="unife7f" unicode="&#xfe7f;" horiz-adv-x="200" arabic-form="medial" 
d="M97 850c44 -7 63 -61 63 -88c0 -48 -32 -69 -72 -69c-43 0 -53 36 -53 73c0 27 19 53 56 59l-9 -20c-19 -7 -19 -24 -19 -42c0 -11 5 -28 41 -28c21 0 33 15 33 33c0 6 0 21 -31 34zM-5 80h210v-80h-210v80z" />
    <glyph glyph-name="uniFE80" unicode="&#x621;" horiz-adv-x="350" arabic-form="isolated" 
d="M277 163c-9 9 -19 56 -45 56c-28 0 -66 -67 -71 -94c5 -16 24 -70 45 -70s19 16 123 58l-13 -52c-49 -15 -126 -61 -231 -140c28 39 60 75 97 108c-52 13 -71 33 -71 82c0 76 62 169 116 169c35 0 64 -12 64 -60c0 -17 -7 -50 -14 -57z" />
    <glyph glyph-name="uniFE81" unicode="&#x622;" horiz-adv-x="245" arabic-form="isolated" 
d="M123 -48v339c0 57 -10 198 -23 318l38 92c22 -185 41 -319 41 -464c0 -98 -19 -193 -56 -285zM67 800c42 0 97 -40 122 -40c46 0 49 2 86 9c-21 -12 -62 -41 -87 -41c-54 0 -88 32 -120 32c-18 0 -37 -3 -68 -35c12 68 48 75 67 75z" />
    <glyph glyph-name="alefmaddaabovefinalarabic" unicode="&#x622;" horiz-adv-x="237" arabic-form="final" 
d="M47 806c42 0 97 -40 122 -40c46 0 49 2 86 9c-21 -12 -62 -41 -87 -41c-54 0 -88 32 -120 32c-18 0 -37 -3 -68 -35c12 68 48 75 67 75zM168 367c0 -58 -1 -73 -3 -120c-1 -20 -2 -43 -2 -65c0 -62 19 -107 74 -107h10c0 -61 -3 -75 -10 -75c-110 0 -125 58 -125 177
c0 54 6 100 6 158c0 49 -18 227 -22 276l40 89c4 -68 32 -212 32 -333z" />
    <glyph glyph-name="uniFE83" unicode="&#x623;" horiz-adv-x="229" arabic-form="isolated" 
d="M149 814c-10 0 -12 36 -30 36s-38 -42 -38 -61c0 -10 8 -45 21 -45c14 0 13 11 80 38l-8 -37c-32 -10 -82 -37 -150 -88c16 29 39 48 63 70c-35 9 -46 23 -46 53c0 50 39 90 75 110c23 0 41 -8 41 -39c0 -11 -2 -37 -8 -37zM123 -48v339c0 57 -10 198 -23 318l38 92
c22 -185 41 -319 41 -464c0 -98 -19 -193 -56 -285z" />
    <glyph glyph-name="alefhamzaabovefinalarabic" unicode="&#x623;" horiz-adv-x="237" arabic-form="final" 
d="M153 824c-10 0 -12 36 -30 36s-38 -42 -38 -61c0 -10 8 -45 21 -45c14 0 13 11 80 38l-8 -37c-32 -10 -82 -37 -150 -88c16 29 39 48 63 70c-35 9 -46 23 -46 53c0 50 39 90 75 110c23 0 41 -8 41 -39c0 -11 -2 -37 -8 -37zM168 367c0 -58 -1 -73 -3 -120
c-1 -20 -2 -43 -2 -65c0 -62 19 -107 74 -107h10c0 -61 -3 -75 -10 -75c-110 0 -125 58 -125 177c0 54 6 100 6 158c0 49 -18 227 -22 276l40 89c4 -68 32 -212 32 -333z" />
    <glyph glyph-name="uniFE85" unicode="&#x624;" horiz-adv-x="399" arabic-form="isolated" 
d="M302 472c-10 0 -12 36 -30 36s-38 -42 -38 -61c0 -10 8 -45 21 -45c14 0 13 11 80 38l-8 -37c-32 -10 -82 -37 -150 -88c15 29 39 48 63 70c-35 9 -46 23 -46 53c0 50 39 90 75 110c23 0 41 -8 41 -39c0 -11 -2 -37 -8 -37zM334 50c-17 -33 -32 -57 -94 -57
c-48 0 -81 27 -81 90c0 87 45 171 117 171c56 0 93 -69 93 -172v-23c0 -175 -57 -271 -228 -306l-101 17l4 21c78 15 139 37 203 107c55 60 69 92 87 152zM331 85c-2 61 -57 110 -72 110c-38 0 -59 -58 -59 -110c13 -8 47 -15 67 -15c16 0 52 4 64 15z" />
    <glyph glyph-name="wawhamzaabovefinalarabic" unicode="&#x624;" horiz-adv-x="359" arabic-form="final" 
d="M282 472c-10 0 -12 36 -30 36s-38 -42 -38 -61c0 -10 8 -45 21 -45c14 0 13 11 80 38l-8 -37c-32 -10 -82 -37 -150 -88c15 29 39 48 63 70c-35 9 -46 23 -46 53c0 50 39 90 75 110c23 0 41 -8 41 -39c0 -11 -2 -37 -8 -37zM324 50c-17 -33 -32 -57 -94 -57
c-48 0 -81 27 -81 90c0 87 45 171 117 171c56 0 93 -69 93 -172v-23c0 -175 -57 -271 -228 -306l-101 17l4 21c78 15 139 37 203 107c55 60 69 92 87 152zM321 85c-2 61 -57 110 -72 110c-38 0 -59 -58 -59 -110c13 -8 47 -15 67 -15c16 0 52 4 64 15z" />
    <glyph glyph-name="uniFE87" unicode="&#x625;" horiz-adv-x="229" arabic-form="isolated" 
d="M172 -143c-10 0 -12 36 -30 36s-38 -42 -38 -61c0 -10 8 -45 21 -45c14 0 13 11 80 38l-8 -37c-32 -10 -82 -37 -150 -88c15 29 39 48 63 70c-35 9 -46 23 -46 53c0 50 39 90 75 110c23 0 41 -8 41 -39c0 -11 -2 -37 -8 -37zM123 -48v339c0 57 -10 198 -23 318l38 92
c22 -185 41 -319 41 -464c0 -98 -19 -193 -56 -285z" />
    <glyph glyph-name="alefhamzabelowfinalarabic" unicode="&#x625;" horiz-adv-x="237" arabic-form="final" 
d="M184 -133c-10 0 -12 36 -30 36s-38 -42 -38 -61c0 -10 8 -45 21 -45c14 0 13 11 80 38l-8 -37c-32 -10 -82 -37 -150 -88c15 29 39 48 63 70c-35 9 -46 23 -46 53c0 50 39 90 75 110c23 0 41 -8 41 -39c0 -11 -2 -37 -8 -37zM168 367c0 -58 -1 -73 -3 -120
c-1 -20 -2 -43 -2 -65c0 -62 19 -107 74 -107h10c0 -61 -3 -75 -10 -75c-110 0 -125 58 -125 177c0 54 6 100 6 158c0 49 -18 227 -22 276l40 89c4 -68 32 -212 32 -333z" />
    <glyph glyph-name="uniFE89" unicode="&#x626;" horiz-adv-x="672" arabic-form="isolated" 
d="M407 436c-10 0 -12 36 -30 36s-38 -42 -38 -61c0 -10 8 -45 21 -45c14 0 13 11 80 38l-8 -37c-32 -10 -82 -37 -150 -88c16 29 39 48 63 70c-35 9 -46 23 -46 53c0 50 39 90 75 110c23 0 41 -8 41 -39c0 -11 -2 -37 -8 -37zM608 315c39 0 44 -27 44 -58
c0 -10 -1 -18 -2 -27c-23 18 -45 26 -66 26c-50 0 -127 -83 -127 -106c0 -19 26 -29 80 -29c9 0 25 4 49 4c53 0 63 -19 63 -41c0 -137 -152 -244 -338 -244c-229 0 -236 101 -236 184c0 94 57 186 83 222l11 -4c-35 -66 -52 -120 -52 -163c0 -86 22 -155 148 -155
c205 0 318 48 348 109c-1 13 -35 20 -101 20c-46 0 -101 5 -101 56c0 86 113 206 197 206z" />
    <glyph glyph-name="uniFE8A" unicode="&#x626;" horiz-adv-x="680" arabic-form="final" 
d="M427 416c-10 0 -12 36 -30 36s-38 -42 -38 -61c0 -10 8 -45 21 -45c14 0 13 11 80 38l-8 -37c-32 -10 -82 -37 -150 -88c16 29 39 48 63 70c-35 9 -46 23 -46 53c0 50 39 90 75 110c23 0 41 -8 41 -39c0 -11 -2 -37 -8 -37zM662 307c0 -10 -1 -48 -2 -57
c-26 -44 -64 -110 -133 -152c35 -8 95 -24 134 -24h29c0 -63 -2 -74 -10 -74h-39c-45 -99 -161 -161 -310 -161c-229 0 -256 77 -256 185c0 94 57 186 83 222l11 -4c-35 -66 -52 -120 -52 -163c0 -86 13 -155 198 -155c178 0 257 36 286 81c-61 6 -119 23 -180 44
c3 17 13 54 17 68c90 38 156 115 224 190z" />
    <glyph glyph-name="yehhamzaaboveinitialarabic" unicode="&#x626;" horiz-adv-x="270" arabic-form="initial" 
d="M183 513c-10 0 -12 36 -30 36s-38 -42 -38 -61c0 -10 8 -45 21 -45c14 0 13 11 80 38l-8 -37c-32 -10 -82 -37 -150 -88c16 29 39 48 63 70c-35 9 -46 23 -46 53c0 50 39 90 75 110c23 0 41 -8 41 -39c0 -11 -2 -37 -8 -37zM182 309c25 -37 43 -84 43 -141v-70
c0 -69 -17 -98 -50 -98h-175c-13 0 -22 22 -22 75h206c0 67 -6 119 -43 157z" />
    <glyph glyph-name="yehhamzaabovemedialarabic" unicode="&#x626;" horiz-adv-x="300" arabic-form="medial" 
d="M193 514c-10 0 -12 36 -30 36s-38 -42 -38 -61c0 -10 8 -45 21 -45c14 0 13 11 80 38l-8 -37c-32 -10 -82 -37 -150 -88c16 29 39 48 63 70c-35 9 -46 23 -46 53c0 50 39 90 75 110c23 0 41 -8 41 -39c0 -11 -2 -37 -8 -37zM225 168l1 -57c0 -13 -1 -25 -2 -36h98
c0 -49 -7 -75 -22 -75h-68c-15 0 -23 13 -30 22c-8 -10 -19 -22 -32 -22h-170c-12 0 -22 22 -22 75h206c0 67 -6 119 -43 157l41 77c25 -37 42 -84 43 -141z" />
    <glyph glyph-name="uniFE8D" unicode="&#x627;" horiz-adv-x="229" arabic-form="isolated" 
d="M123 -48v339c0 57 -10 198 -23 318l38 92c22 -185 41 -319 41 -464c0 -98 -19 -193 -56 -285z" />
    <glyph glyph-name="aleffinalarabic" unicode="&#x627;" horiz-adv-x="237" arabic-form="final" 
d="M168 367c0 -58 -1 -73 -3 -120c-1 -20 -2 -43 -2 -65c0 -62 19 -107 74 -107h10c0 -61 -3 -75 -10 -75c-110 0 -125 58 -125 177c0 54 6 100 6 158c0 49 -18 227 -22 276l40 89c4 -68 32 -212 32 -333z" />
    <glyph glyph-name="uniFE8F" unicode="&#x628;" horiz-adv-x="907" arabic-form="isolated" 
d="M556 -149l-49 -51l-59 56l52 48zM877 98c0 -69 -18 -98 -51 -98h-608c-34 0 -143 30 -143 134c0 58 11 102 20 131l22 -5c-5 -32 -7 -60 -7 -84c0 -56 29 -101 163 -101h563c0 67 -6 119 -43 157l41 77c25 -37 43 -84 43 -141v-70z" />
    <glyph glyph-name="behfinalarabic" unicode="&#x628;" horiz-adv-x="917" arabic-form="final" 
d="M606 -149l-49 -51l-59 56l52 48zM888 168v-93h51c0 -49 -7 -75 -22 -75h-40c-15 0 -23 13 -30 22c-8 -10 -19 -22 -32 -22h-597c-34 0 -143 30 -143 134c0 58 11 102 20 131l22 -5c-5 -32 -7 -60 -7 -84c0 -56 29 -101 163 -101h574c0 67 -6 119 -43 157l41 77
c25 -37 43 -84 43 -141z" />
    <glyph glyph-name="behinitialarabic" unicode="&#x628;" horiz-adv-x="270" arabic-form="initial" 
d="M196 -149l-49 -51l-59 56l52 48zM182 309c25 -37 43 -84 43 -141v-70c0 -69 -17 -98 -50 -98h-175c-13 0 -22 22 -22 75h206c0 67 -6 119 -43 157z" />
    <glyph glyph-name="behmedialarabic" unicode="&#x628;" horiz-adv-x="300" arabic-form="medial" 
d="M226 -149l-49 -51l-59 56l52 48zM225 168l1 -57c0 -13 -1 -25 -2 -36h98c0 -49 -7 -75 -22 -75h-68c-15 0 -23 13 -30 22c-8 -10 -19 -22 -32 -22h-170c-12 0 -22 22 -22 75h206c0 67 -6 119 -43 157l41 77c25 -37 42 -84 43 -141z" />
    <glyph glyph-name="uniFE93" unicode="&#x629;" horiz-adv-x="416" arabic-form="isolated" 
d="M199 359c102 -113 143 -202 143 -249c0 -29 -14 -68 -27 -79c-17 -14 -59 -36 -90 -36c-49 0 -150 2 -150 97c0 63 53 135 80 185l-8 10zM183 249c-18 -21 -69 -96 -69 -146c24 -30 64 -38 107 -38c49 0 75 14 87 35c0 21 -42 109 -125 149zM304 478l-49 -51l-59 56
l52 48zM191 478l-49 -51l-59 56l52 48z" />
    <glyph glyph-name="tehmarbutafinalarabic" unicode="&#x629;" horiz-adv-x="420" arabic-form="final" 
d="M336 488l-49 -51l-59 56l52 48zM223 488l-49 -51l-59 56l52 48zM74 113c0 57 26 89 175 152c-3 10 -4 20 -4 30c0 26 8 44 24 69l63 -250c9 -35 45 -39 88 -39h10c0 -57 -2 -75 -10 -75c-68 0 -110 4 -126 86c-10 -38 -60 -61 -97 -61c-83 0 -123 21 -123 88zM148 137
c0 -27 22 -32 56 -32c49 0 63 3 72 44c-9 35 -9 43 -19 73c-67 -28 -109 -47 -109 -85z" />
    <glyph glyph-name="uniFE95" unicode="&#x62a;" horiz-adv-x="907" arabic-form="isolated" 
d="M604 368l-49 -51l-59 56l52 48zM491 368l-49 -51l-59 56l52 48zM877 98c0 -69 -18 -98 -51 -98h-608c-34 0 -143 30 -143 134c0 58 11 102 20 131l22 -5c-5 -32 -7 -60 -7 -84c0 -56 29 -101 163 -101h563c0 67 -6 119 -43 157l41 77c25 -37 43 -84 43 -141v-70z" />
    <glyph glyph-name="tehfinalarabic" unicode="&#x62a;" horiz-adv-x="917" arabic-form="final" 
d="M604 358l-49 -51l-59 56l52 48zM491 358l-49 -51l-59 56l52 48zM888 168v-93h51c0 -49 -7 -75 -22 -75h-40c-15 0 -23 13 -30 22c-8 -10 -19 -22 -32 -22h-597c-34 0 -143 30 -143 134c0 58 11 102 20 131l22 -5c-5 -32 -7 -60 -7 -84c0 -56 29 -101 163 -101h574
c0 67 -6 119 -43 157l41 77c25 -37 43 -84 43 -141z" />
    <glyph glyph-name="tehinitialarabic" unicode="&#x62a;" horiz-adv-x="288" arabic-form="initial" 
d="M262 447l-49 -51l-59 56l52 48zM149 447l-49 -51l-59 56l52 48zM182 309c25 -37 43 -84 43 -141v-70c0 -69 -17 -98 -50 -98h-175c-13 0 -22 22 -22 75h206c0 67 -6 119 -43 157z" />
    <glyph glyph-name="tehmedialarabic" unicode="&#x62a;" horiz-adv-x="300" arabic-form="medial" 
d="M262 447l-49 -51l-59 56l52 48zM149 447l-49 -51l-59 56l52 48zM225 168l1 -57c0 -13 -1 -25 -2 -36h98c0 -49 -7 -75 -22 -75h-68c-15 0 -23 13 -30 22c-8 -10 -19 -22 -32 -22h-170c-12 0 -22 22 -22 75h206c0 67 -6 119 -43 157l41 77c25 -37 42 -84 43 -141z" />
    <glyph glyph-name="uniFE99" unicode="&#x62b;" horiz-adv-x="907" arabic-form="isolated" 
d="M510 348l-49 -51l-59 56l52 48zM630 348l-49 -51l-59 56l52 48zM565 441l-49 -51l-59 56l52 48zM877 98c0 -69 -18 -98 -51 -98h-608c-34 0 -143 30 -143 134c0 58 11 102 20 131l22 -5c-5 -32 -7 -60 -7 -84c0 -56 29 -101 163 -101h563c0 67 -6 119 -43 157l41 77
c25 -37 43 -84 43 -141v-70z" />
    <glyph glyph-name="thehfinalarabic" unicode="&#x62b;" horiz-adv-x="917" arabic-form="final" 
d="M510 348l-49 -51l-59 56l52 48zM630 348l-49 -51l-59 56l52 48zM565 441l-49 -51l-59 56l52 48zM888 168v-93h51c0 -49 -7 -75 -22 -75h-40c-15 0 -23 13 -30 22c-8 -10 -19 -22 -32 -22h-597c-34 0 -143 30 -143 134c0 58 11 102 20 131l22 -5c-5 -32 -7 -60 -7 -84
c0 -56 29 -101 163 -101h574c0 67 -6 119 -43 157l41 77c25 -37 43 -84 43 -141z" />
    <glyph glyph-name="thehinitialarabic" unicode="&#x62b;" horiz-adv-x="288" arabic-form="initial" 
d="M138 448l-49 -51l-59 56l52 48zM258 448l-49 -51l-59 56l52 48zM193 541l-49 -51l-59 56l52 48zM182 309c25 -37 43 -84 43 -141v-70c0 -69 -17 -98 -50 -98h-175c-13 0 -22 22 -22 75h206c0 67 -6 119 -43 157z" />
    <glyph glyph-name="thehmedialarabic" unicode="&#x62b;" horiz-adv-x="300" arabic-form="medial" 
d="M150 448l-49 -51l-59 56l52 48zM270 448l-49 -51l-59 56l52 48zM205 541l-49 -51l-59 56l52 48zM225 168l1 -57c0 -13 -1 -25 -2 -36h98c0 -49 -7 -75 -22 -75h-68c-15 0 -23 13 -30 22c-8 -10 -19 -22 -32 -22h-170c-12 0 -22 22 -22 75h206c0 67 -6 119 -43 157l41 77
c25 -37 42 -84 43 -141z" />
    <glyph glyph-name="uniFE9D" unicode="&#x62c;" horiz-adv-x="598" arabic-form="isolated" 
d="M443 1l-49 -51l-59 56l52 48zM249 332c58 0 138 -32 289 -32h27l-20 -62c-254 -36 -422 -224 -422 -331c0 -80 120 -103 357 -122h111l-104 -65c-353 17 -412 55 -412 152c0 57 24 163 116 252c78 75 142 99 186 116c-81 18 -107 32 -189 32c-33 0 -54 -15 -62 -26h-27
c53 53 87 86 150 86z" />
    <glyph glyph-name="jeemfinalarabic" unicode="&#x62c;" horiz-adv-x="595" arabic-form="final" 
d="M443 -29l-49 -51l-59 56l52 48zM377 240c-81 18 -107 32 -189 32c-33 0 -54 -15 -62 -26h-27c53 53 87 86 150 86c58 0 138 -32 289 -32h27l-20 -62c-254 -36 -422 -224 -422 -331c0 -72 113 -104 357 -122h111l-104 -65c-353 17 -412 55 -412 152c0 57 24 163 116 252
c78 75 142 99 186 116zM461 218c17 -121 90 -143 134 -143h10c0 -67 -1 -75 -10 -75c-99 0 -151 34 -151 175z" />
    <glyph glyph-name="jeeminitialarabic" unicode="&#x62c;" horiz-adv-x="600" arabic-form="initial" 
d="M346 -89l-49 -51l-59 56l52 48zM61 243c46 49 91 87 146 87c42 0 117 -35 173 -56c45 -17 132 -37 210 -37c-10 -31 -14 -46 -20 -62c-263 0 -317 -175 -532 -175h-38c-11 0 -15 26 -15 75h81c129 0 213 105 322 123c-76 20 -144 71 -247 71c-20 0 -43 -13 -54 -26h-26z
" />
    <glyph glyph-name="jeemmedialarabic" unicode="&#x62c;" horiz-adv-x="630" arabic-form="medial" 
d="M346 -79l-49 -51l-59 56l52 48zM61 243c46 49 91 87 146 87c42 0 117 -35 173 -56c45 -17 132 -37 210 -37c-10 -31 -14 -46 -20 -62c-263 0 -317 -175 -532 -175h-38c-11 0 -15 26 -15 75h81c129 0 213 105 322 123c-76 20 -144 71 -247 71c-20 0 -43 -13 -54 -26h-26z
M490 164c10 -63 63 -89 118 -89h37c0 -61 -6 -75 -15 -75c-124 0 -157 29 -157 120z" />
    <glyph glyph-name="uniFEA1" unicode="&#x62d;" horiz-adv-x="598" arabic-form="isolated" 
d="M249 332c58 0 138 -32 289 -32h27l-20 -62c-254 -36 -422 -224 -422 -331c0 -80 120 -103 357 -122h111l-104 -65c-353 17 -412 55 -412 152c0 57 24 163 116 252c78 75 142 99 186 116c-81 18 -107 32 -189 32c-33 0 -54 -15 -62 -26h-27c53 53 87 86 150 86z" />
    <glyph glyph-name="hahfinalarabic" unicode="&#x62d;" horiz-adv-x="595" arabic-form="final" 
d="M377 240c-81 18 -107 32 -189 32c-33 0 -54 -15 -62 -26h-27c53 53 87 86 150 86c58 0 138 -32 289 -32h27l-20 -62c-254 -36 -422 -224 -422 -331c0 -72 113 -104 357 -122h111l-104 -65c-353 17 -412 55 -412 152c0 57 24 163 116 252c78 75 142 99 186 116zM461 218
c17 -121 90 -143 134 -143h10c0 -67 -1 -75 -10 -75c-99 0 -151 34 -151 175z" />
    <glyph glyph-name="hahinitialarabic" unicode="&#x62d;" horiz-adv-x="600" arabic-form="initial" 
d="M61 243c46 49 91 87 146 87c42 0 117 -35 173 -56c45 -17 132 -37 210 -37c-10 -31 -14 -46 -20 -62c-263 0 -317 -175 -532 -175h-38c-11 0 -15 26 -15 75h81c129 0 213 105 322 123c-76 20 -144 71 -247 71c-20 0 -43 -13 -54 -26h-26z" />
    <glyph glyph-name="hahmedialarabic" unicode="&#x62d;" horiz-adv-x="630" arabic-form="medial" 
d="M61 243c46 49 91 87 146 87c42 0 117 -35 173 -56c45 -17 132 -37 210 -37c-10 -31 -14 -46 -20 -62c-263 0 -317 -175 -532 -175h-38c-11 0 -15 26 -15 75h81c129 0 213 105 322 123c-76 20 -144 71 -247 71c-20 0 -43 -13 -54 -26h-26zM490 164c10 -63 63 -89 118 -89
h37c0 -61 -6 -75 -15 -75c-124 0 -157 29 -157 120z" />
    <glyph glyph-name="uniFEA5" unicode="&#x62e;" horiz-adv-x="598" arabic-form="isolated" 
d="M422 458l-49 -51l-59 56l52 48zM249 332c58 0 138 -32 289 -32h27l-20 -62c-254 -36 -422 -224 -422 -331c0 -80 120 -103 357 -122h111l-104 -65c-353 17 -412 55 -412 152c0 57 24 163 116 252c78 75 142 99 186 116c-81 18 -107 32 -189 32c-33 0 -54 -15 -62 -26h-27
c53 53 87 86 150 86z" />
    <glyph glyph-name="khahfinalarabic" unicode="&#x62e;" horiz-adv-x="595" arabic-form="final" 
d="M417 458l-49 -51l-59 56l52 48zM377 240c-81 18 -107 32 -189 32c-33 0 -54 -15 -62 -26h-27c53 53 87 86 150 86c58 0 138 -32 289 -32h27l-20 -62c-254 -36 -422 -224 -422 -331c0 -72 113 -104 357 -122h111l-104 -65c-353 17 -412 55 -412 152c0 57 24 163 116 252
c78 75 142 99 186 116zM461 218c17 -121 90 -143 134 -143h10c0 -67 -1 -75 -10 -75c-99 0 -151 34 -151 175z" />
    <glyph glyph-name="khahinitialarabic" unicode="&#x62e;" horiz-adv-x="600" arabic-form="initial" 
d="M319 458l-49 -51l-59 56l52 48zM61 243c46 49 91 87 146 87c42 0 117 -35 173 -56c45 -17 132 -37 210 -37c-10 -31 -14 -46 -20 -62c-263 0 -317 -175 -532 -175h-38c-11 0 -15 26 -15 75h81c129 0 213 105 322 123c-76 20 -144 71 -247 71c-20 0 -43 -13 -54 -26h-26z
" />
    <glyph glyph-name="khahmedialarabic" unicode="&#x62e;" horiz-adv-x="630" arabic-form="medial" 
d="M319 458l-49 -51l-59 56l52 48zM61 243c46 49 91 87 146 87c42 0 117 -35 173 -56c45 -17 132 -37 210 -37c-10 -31 -14 -46 -20 -62c-263 0 -317 -175 -532 -175h-38c-11 0 -15 26 -15 75h81c129 0 213 105 322 123c-76 20 -144 71 -247 71c-20 0 -43 -13 -54 -26h-26z
M490 164c10 -63 63 -89 118 -89h37c0 -61 -6 -75 -15 -75c-124 0 -157 29 -157 120z" />
    <glyph glyph-name="uniFEA9" unicode="&#x62f;" horiz-adv-x="348" arabic-form="isolated" 
d="M197 350c48 0 156 -35 171 -272c0 -52 -19 -78 -56 -78h-202c-37 0 -55 32 -55 96v21l22 1c3 -26 13 -43 28 -43h227c-24 136 -65 200 -135 200c-17 0 -36 -2 -49 -10l-15 5c12 34 46 80 64 80z" />
    <glyph glyph-name="dalfinalarabic" unicode="&#x62f;" horiz-adv-x="398" arabic-form="final" 
d="M413 75c0 -60 -3 -75 -15 -75h-30c-15 0 -26 12 -30 22c-8 -10 -19 -22 -32 -22h-196c-37 0 -55 32 -55 96v21l22 1c3 -26 13 -43 28 -43h227c-24 136 -65 200 -135 200c-17 0 -36 -2 -49 -10l-15 5c11 33 45 80 64 80c38 0 171 -37 171 -275h45z" />
    <glyph glyph-name="uniFEAB" unicode="&#x630;" horiz-adv-x="403" arabic-form="isolated" 
d="M258 508l-49 -51l-59 56l52 48zM197 350c48 0 156 -35 171 -272c0 -52 -19 -78 -56 -78h-202c-37 0 -55 32 -55 96v21l22 1c3 -26 13 -43 28 -43h227c-24 136 -65 200 -135 200c-17 0 -36 -2 -49 -10l-15 5c12 34 46 80 64 80z" />
    <glyph glyph-name="thalfinalarabic" unicode="&#x630;" horiz-adv-x="398" arabic-form="final" 
d="M262 508l-49 -51l-59 56l52 48zM413 75c0 -60 -3 -75 -15 -75h-30c-15 0 -26 12 -30 22c-8 -10 -19 -22 -32 -22h-196c-37 0 -55 32 -55 96v21l22 1c3 -26 13 -43 28 -43h227c-24 136 -65 200 -135 200c-17 0 -36 -2 -49 -10l-15 5c11 33 45 80 64 80
c38 0 171 -37 171 -275h45z" />
    <glyph glyph-name="uniFEAD" unicode="&#x631;" horiz-adv-x="345" arabic-form="isolated" 
d="M325 247c13 -45 20 -104 20 -158c0 -175 -61 -301 -232 -336l-113 17l4 21c78 15 147 35 211 105c55 60 72 82 90 142c-7 41 -19 95 -38 142z" />
    <glyph glyph-name="rehfinalarabic" unicode="&#x631;" horiz-adv-x="385" arabic-form="final" 
d="M408 75c0 -49 -8 -75 -23 -75h-17c-14 0 -20 1 -28 10c-17 -134 -83 -228 -227 -257l-113 17l4 21c78 15 147 35 211 105c55 60 72 82 90 142c-7 41 -19 95 -38 142l58 67c12 -43 19 -98 20 -149c2 -9 11 -23 25 -23h38z" />
    <glyph glyph-name="uniFEAF" unicode="&#x632;" horiz-adv-x="345" arabic-form="isolated" 
d="M292 378l-49 -51l-59 56l52 48zM325 247c13 -45 20 -104 20 -158c0 -175 -61 -301 -232 -336l-113 17l4 21c78 15 147 35 211 105c55 60 72 82 90 142c-7 41 -19 95 -38 142z" />
    <glyph glyph-name="zainfinalarabic" unicode="&#x632;" horiz-adv-x="385" arabic-form="final" 
d="M294 376l-49 -51l-59 56l52 48zM408 75c0 -49 -8 -75 -23 -75h-17c-14 0 -20 1 -28 10c-17 -134 -83 -228 -227 -257l-113 17l4 21c78 15 147 35 211 105c55 60 72 82 90 142c-7 41 -19 95 -38 142l58 67c12 -43 19 -98 20 -149c2 -9 11 -23 25 -23h38z" />
    <glyph glyph-name="uniFEB1" unicode="&#x633;" horiz-adv-x="901" arabic-form="isolated" 
d="M804 75c22 0 57 6 57 15c0 8 -8 28 -40 49l58 66c28 -35 35 -78 35 -113c0 -75 -32 -92 -75 -92c-60 0 -66 6 -101 36c-17 -23 -35 -36 -61 -36h-68c-16 0 -28 6 -39 20c0 -176 -45 -198 -85 -214c-43 -17 -132 -47 -194 -47c-94 0 -216 18 -216 164c0 43 7 77 62 184
l20 -11c-32 -78 -34 -113 -34 -150c0 -66 30 -107 171 -107c87 0 201 50 228 72c0 94 -16 170 -66 228l58 66c21 -37 43 -87 48 -130h102c33 0 44 39 45 89l33 2c0 -83 17 -91 62 -91z" />
    <glyph glyph-name="seenfinalarabic" unicode="&#x633;" horiz-adv-x="901" arabic-form="final" 
d="M804 75c22 0 57 6 57 15c0 8 -8 28 -40 49l58 66c28 -35 35 -78 35 -113c0 -75 -32 -92 -75 -92c-60 0 -66 6 -101 36c-17 -23 -35 -36 -61 -36h-68c-16 0 -28 6 -39 20c0 -176 -45 -198 -85 -214c-43 -17 -132 -47 -194 -47c-94 0 -216 18 -216 164c0 43 7 77 62 184
l20 -11c-32 -78 -34 -113 -34 -150c0 -66 30 -107 171 -107c87 0 201 50 228 72c0 94 -16 170 -66 228l58 66c21 -37 43 -87 48 -130h102c33 0 44 39 45 89l33 2c0 -83 17 -91 62 -91z" />
    <glyph glyph-name="seeninitialarabic" unicode="&#x633;" horiz-adv-x="648" arabic-form="initial" 
d="M493 75c22 0 57 6 57 15c0 8 -8 28 -40 49l58 66c28 -35 35 -78 35 -113c0 -75 -32 -92 -75 -92c-57 0 -66 6 -101 36c-17 -23 -37 -36 -61 -36h-69c-28 0 -52 17 -73 35c-18 -19 -32 -35 -58 -35h-166c-19 0 -20 26 -20 75h169c30 0 46 30 46 89l33 2
c0 -64 8 -91 53 -91h71c33 0 45 39 46 89l33 2c0 -71 10 -91 62 -91z" />
    <glyph glyph-name="seenmedialarabic" unicode="&#x633;" horiz-adv-x="603" arabic-form="medial" 
d="M618 75c0 -49 -9 -75 -24 -75h-70c-37 0 -63 7 -97 36c-17 -23 -37 -36 -61 -36h-96c-22 0 -44 20 -57 38c-13 -17 -35 -38 -63 -38h-145c-19 0 -21 25 -25 75h166c36 0 49 29 49 89l33 2c0 -51 2 -91 53 -91h71c33 0 45 39 46 89l33 2c0 -58 3 -91 62 -91
c22 0 57 6 57 15c0 8 -8 28 -40 49l58 66c28 -35 35 -78 35 -113c0 -6 0 -12 -1 -17h16z" />
    <glyph glyph-name="uniFEB5" unicode="&#x634;" horiz-adv-x="901" arabic-form="isolated" 
d="M720 308l-49 -51l-59 56l52 48zM840 308l-49 -51l-59 56l52 48zM775 401l-49 -51l-59 56l52 48zM804 75c22 0 57 6 57 15c0 8 -8 28 -40 49l58 66c28 -35 35 -78 35 -113c0 -75 -32 -92 -75 -92c-60 0 -66 6 -101 36c-17 -23 -35 -36 -61 -36h-68c-16 0 -28 6 -39 20
c0 -176 -45 -198 -85 -214c-43 -17 -132 -47 -194 -47c-94 0 -216 18 -216 164c0 43 7 77 62 184l20 -11c-32 -78 -34 -113 -34 -150c0 -66 30 -107 171 -107c87 0 201 50 228 72c0 94 -16 170 -66 228l58 66c21 -37 43 -87 48 -130h102c33 0 44 39 45 89l33 2
c0 -83 17 -91 62 -91z" />
    <glyph glyph-name="sheenfinalarabic" unicode="&#x634;" horiz-adv-x="901" arabic-form="final" 
d="M720 308l-49 -51l-59 56l52 48zM840 308l-49 -51l-59 56l52 48zM775 401l-49 -51l-59 56l52 48zM804 75c22 0 57 6 57 15c0 8 -8 28 -40 49l58 66c28 -35 35 -78 35 -113c0 -75 -32 -92 -75 -92c-60 0 -66 6 -101 36c-17 -23 -35 -36 -61 -36h-68c-16 0 -28 6 -39 20
c0 -176 -45 -198 -85 -214c-43 -17 -132 -47 -194 -47c-94 0 -216 18 -216 164c0 43 7 77 62 184l20 -11c-32 -78 -34 -113 -34 -150c0 -66 30 -107 171 -107c87 0 201 50 228 72c0 94 -16 170 -66 228l58 66c21 -37 43 -87 48 -130h102c33 0 44 39 45 89l33 2
c0 -83 17 -91 62 -91z" />
    <glyph glyph-name="sheeninitialarabic" unicode="&#x634;" horiz-adv-x="649" arabic-form="initial" 
d="M410 309l-49 -51l-59 56l52 48zM530 309l-49 -51l-59 56l52 48zM465 402l-49 -51l-59 56l52 48zM493 75c22 0 57 6 57 15c0 8 -8 28 -40 49l58 66c28 -35 35 -78 35 -113c0 -75 -32 -92 -75 -92c-57 0 -66 6 -101 36c-17 -23 -37 -36 -61 -36h-69c-28 0 -52 17 -73 35
c-18 -19 -32 -35 -58 -35h-166c-19 0 -20 26 -20 75h169c30 0 46 30 46 89l33 2c0 -64 8 -91 53 -91h71c33 0 45 39 46 89l33 2c0 -71 10 -91 62 -91z" />
    <glyph glyph-name="sheenmedialarabic" unicode="&#x634;" horiz-adv-x="598" arabic-form="medial" 
d="M410 309l-49 -51l-59 56l52 48zM530 309l-49 -51l-59 56l52 48zM465 402l-49 -51l-59 56l52 48zM493 75c22 0 57 6 57 15c0 8 -8 28 -40 49l58 66c28 -35 35 -78 35 -113c0 -75 -32 -92 -75 -92c-57 0 -66 6 -101 36c-17 -23 -37 -36 -61 -36h-69c-28 0 -52 17 -73 35
c-18 -19 -32 -35 -58 -35h-166c-19 0 -20 26 -20 75h169c30 0 46 30 46 89l33 2c0 -64 8 -91 53 -91h71c33 0 45 39 46 89l33 2c0 -71 10 -91 62 -91z" />
    <glyph glyph-name="uniFEB9" unicode="&#x635;" horiz-adv-x="909" arabic-form="isolated" 
d="M813 260c46 0 96 -45 96 -125c0 -105 -8 -135 -189 -135c-81 0 -125 19 -155 35c1 -2 4 -21 4 -46c0 -40 -6 -103 -31 -146c-22 -39 -172 -84 -243 -84c-115 0 -220 27 -220 165c0 76 38 126 61 183l19 -8c-18 -50 -31 -99 -31 -149c0 -62 22 -111 150 -111
c100 0 192 32 247 72c-2 82 -7 160 -65 228l58 66c22 -38 35 -63 44 -89l120 84c63 44 121 60 135 60zM856 123c0 47 -39 76 -64 76c-53 0 -133 -58 -185 -104c24 -7 76 -23 125 -23c118 0 124 28 124 51z" />
    <glyph glyph-name="sadfinalarabic" unicode="&#x635;" horiz-adv-x="893" arabic-form="final" 
d="M813 260c46 0 96 -45 96 -125c0 -105 -8 -135 -189 -135c-81 0 -125 19 -155 35c1 -2 4 -21 4 -46c0 -40 -6 -103 -31 -146c-22 -39 -172 -84 -243 -84c-115 0 -220 27 -220 165c0 76 38 126 61 183l19 -8c-18 -50 -31 -99 -31 -149c0 -62 22 -111 150 -111
c100 0 192 32 247 72c-2 82 -7 160 -65 228l58 66c22 -38 35 -63 44 -89l120 84c63 44 121 60 135 60zM856 123c0 47 -39 76 -64 76c-53 0 -133 -58 -185 -104c24 -7 76 -23 125 -23c118 0 124 28 124 51z" />
    <glyph glyph-name="sadinitialarabic" unicode="&#x635;" horiz-adv-x="633" arabic-form="initial" 
d="M545 123c0 47 -39 76 -64 76c-53 0 -133 -58 -185 -104c24 -7 76 -23 125 -23c118 0 124 28 124 51zM502 260c46 0 96 -48 96 -125c0 -105 -8 -135 -189 -135c-81 0 -125 19 -155 35c-14 -10 -44 -35 -85 -35h-165c-16 1 -24 28 -24 75h217c-9 14 -25 33 -52 64l58 66
c22 -38 35 -63 44 -89l120 84c63 44 121 60 135 60z" />
    <glyph glyph-name="sadmedialarabic" unicode="&#x635;" horiz-adv-x="583" arabic-form="medial" 
d="M545 123c0 47 -39 76 -64 76c-53 0 -133 -58 -185 -104c24 -7 76 -23 125 -23c118 0 124 28 124 51zM502 260c46 0 96 -48 96 -125c0 -105 -8 -135 -189 -135c-81 0 -125 19 -155 35c-14 -10 -44 -35 -85 -35h-165c-16 1 -24 28 -24 75h217c-9 14 -25 33 -52 64l58 66
c22 -38 35 -63 44 -89l120 84c63 44 121 60 135 60z" />
    <glyph glyph-name="uniFEBD" unicode="&#x636;" horiz-adv-x="909" arabic-form="isolated" 
d="M712 368l-49 -51l-59 56l52 48zM813 260c46 0 96 -45 96 -125c0 -105 -8 -135 -189 -135c-81 0 -125 19 -155 35c1 -2 4 -21 4 -46c0 -40 -6 -103 -31 -146c-22 -39 -172 -84 -243 -84c-115 0 -220 27 -220 165c0 76 38 126 61 183l19 -8c-18 -50 -31 -99 -31 -149
c0 -62 22 -111 150 -111c100 0 192 32 247 72c-2 82 -7 160 -65 228l58 66c22 -38 35 -63 44 -89l120 84c63 44 121 60 135 60zM856 123c0 47 -39 76 -64 76c-53 0 -133 -58 -185 -104c24 -7 76 -23 125 -23c118 0 124 28 124 51z" />
    <glyph glyph-name="dadfinalarabic" unicode="&#x636;" horiz-adv-x="893" arabic-form="final" 
d="M712 368l-49 -51l-59 56l52 48zM813 260c46 0 96 -45 96 -125c0 -105 -8 -135 -189 -135c-81 0 -125 19 -155 35c1 -2 4 -21 4 -46c0 -40 -6 -103 -31 -146c-22 -39 -172 -84 -243 -84c-115 0 -220 27 -220 165c0 76 38 126 61 183l19 -8c-18 -50 -31 -99 -31 -149
c0 -62 22 -111 150 -111c100 0 192 32 247 72c-2 82 -7 160 -65 228l58 66c22 -38 35 -63 44 -89l120 84c63 44 121 60 135 60zM856 123c0 47 -39 76 -64 76c-53 0 -133 -58 -185 -104c24 -7 76 -23 125 -23c118 0 124 28 124 51z" />
    <glyph glyph-name="dadinitialarabic" unicode="&#x636;" horiz-adv-x="630" arabic-form="initial" 
d="M392 362l-49 -51l-59 56l52 48zM545 123c0 47 -39 76 -64 76c-53 0 -133 -58 -185 -104c24 -7 76 -23 125 -23c118 0 124 28 124 51zM502 260c46 0 96 -48 96 -125c0 -105 -8 -135 -189 -135c-81 0 -125 19 -155 35c-14 -10 -44 -35 -85 -35h-165c-16 1 -24 28 -24 75
h217c-9 14 -25 33 -52 64l58 66c22 -38 35 -63 44 -89l120 84c63 44 121 60 135 60z" />
    <glyph glyph-name="dadmedialarabic" unicode="&#x636;" horiz-adv-x="580" arabic-form="medial" 
d="M392 362l-49 -51l-59 56l52 48zM545 123c0 47 -39 76 -64 76c-53 0 -133 -58 -185 -104c24 -7 76 -23 125 -23c118 0 124 28 124 51zM502 260c46 0 96 -48 96 -125c0 -105 -8 -135 -189 -135c-81 0 -125 19 -155 35c-14 -10 -44 -35 -85 -35h-165c-16 1 -24 28 -24 75
h217c-9 14 -25 33 -52 64l58 66c22 -38 35 -63 44 -89l120 84c63 44 121 60 135 60z" />
    <glyph glyph-name="uniFEC1" unicode="&#x637;" horiz-adv-x="568" arabic-form="isolated" 
d="M516 123c-6 25 -35 64 -74 64c-37 0 -111 -37 -186 -112c234 0 236 8 260 48zM183 105c-1 143 -46 355 -78 511l21 39l44 40c7 -73 32 -104 67 -146l-42 -64v-52c6 -36 31 -234 32 -327c77 88 150 131 218 131c51 0 123 -28 123 -152c0 -49 -12 -85 -61 -85h-362
c-26 0 -108 42 -145 75h144c22 0 39 7 39 30z" />
    <glyph glyph-name="tahfinalarabic" unicode="&#x637;" horiz-adv-x="568" arabic-form="final" 
d="M516 123c-6 25 -35 64 -74 64c-37 0 -111 -37 -186 -112c234 0 236 8 260 48zM183 105c-1 143 -46 355 -78 511l21 39l44 40c7 -73 32 -104 67 -146l-42 -64v-52c6 -36 31 -234 32 -327c77 88 150 131 218 131c51 0 123 -28 123 -152c0 -49 -12 -85 -61 -85h-362
c-26 0 -108 42 -145 75h144c22 0 39 7 39 30z" />
    <glyph glyph-name="tahinitialarabic" unicode="&#x637;" horiz-adv-x="521" arabic-form="initial" 
d="M108 105c-1 143 -48 355 -80 511l38 38l32 41c6 -62 37 -105 62 -146l-42 -64v-52c6 -36 31 -234 32 -327c77 88 150 131 218 131c51 0 123 -28 123 -152c0 -49 -12 -85 -61 -85h-430c-13 0 -15 25 -15 75h84c22 0 39 7 39 30zM439 123c-6 25 -35 64 -74 64
c-37 0 -111 -37 -186 -112c234 0 236 8 260 48z" />
    <glyph glyph-name="tahmedialarabic" unicode="&#x637;" horiz-adv-x="521" arabic-form="medial" 
d="M544 75c0 -49 -8 -75 -23 -75h-521c-9 0 -10 26 -10 75h79c22 0 39 7 39 30c-1 143 -48 355 -80 511l38 38l32 41c6 -62 37 -105 62 -146l-42 -64v-52c6 -36 31 -234 32 -327c77 88 150 131 218 131c51 0 123 -28 123 -152v-10h53zM439 123c-6 25 -35 64 -74 64
c-37 0 -111 -37 -186 -112c234 0 236 8 260 48z" />
    <glyph glyph-name="uniFEC5" unicode="&#x638;" horiz-adv-x="568" arabic-form="isolated" 
d="M452 378l-49 -51l-59 56l52 48zM516 123c-6 25 -35 64 -74 64c-37 0 -111 -37 -186 -112c234 0 236 8 260 48zM183 105c-1 143 -46 355 -78 511l21 39l44 40c7 -73 32 -104 67 -146l-42 -64v-52c6 -36 31 -234 32 -327c77 88 150 131 218 131c51 0 123 -28 123 -152
c0 -49 -12 -85 -61 -85h-362c-26 0 -108 42 -145 75h144c22 0 39 7 39 30z" />
    <glyph glyph-name="zahfinalarabic" unicode="&#x638;" horiz-adv-x="568" arabic-form="final" 
d="M457 378l-49 -51l-59 56l52 48zM516 123c-6 25 -35 64 -74 64c-37 0 -111 -37 -186 -112c234 0 236 8 260 48zM183 105c-1 143 -46 355 -78 511l21 39l44 40c7 -73 32 -104 67 -146l-42 -64v-52c6 -36 31 -234 32 -327c77 88 150 131 218 131c51 0 123 -28 123 -152
c0 -49 -12 -85 -61 -85h-362c-26 0 -108 42 -145 75h144c22 0 39 7 39 30z" />
    <glyph glyph-name="zahinitialarabic" unicode="&#x638;" horiz-adv-x="521" arabic-form="initial" 
d="M350 381l-49 -51l-59 56l52 48zM108 105c-1 143 -48 355 -80 511l38 38l32 41c6 -62 37 -105 62 -146l-42 -64v-52c6 -36 31 -234 32 -327c77 88 150 131 218 131c51 0 123 -28 123 -152c0 -49 -12 -85 -61 -85h-430c-13 0 -15 25 -15 75h84c22 0 39 7 39 30zM439 123
c-6 25 -35 64 -74 64c-37 0 -111 -37 -186 -112c234 0 236 8 260 48z" />
    <glyph glyph-name="zahmedialarabic" unicode="&#x638;" horiz-adv-x="521" arabic-form="medial" 
d="M350 381l-49 -51l-59 56l52 48zM544 75c0 -49 -8 -75 -23 -75h-521c-9 0 -10 26 -10 75h79c22 0 39 7 39 30c-1 143 -48 355 -80 511l38 38l32 41c6 -62 37 -105 62 -146l-42 -64v-52c6 -36 31 -234 32 -327c77 88 150 131 218 131c51 0 123 -28 123 -152v-10h53z
M439 123c-6 25 -35 64 -74 64c-37 0 -111 -37 -186 -112c234 0 236 8 260 48z" />
    <glyph glyph-name="uniFEC9" unicode="&#x639;" horiz-adv-x="591" arabic-form="isolated" 
d="M75 -128c0 57 32 176 124 253c-57 49 -98 68 -122 97v29c0 81 80 170 196 170c34 -5 76 -22 121 -50c-13 1 -25 1 -36 1c-105 0 -229 -49 -240 -82c3 -48 83 -98 146 -98c30 0 74 55 230 67l-25 -67c-194 -20 -346 -178 -346 -285c0 -65 131 -105 357 -122h111l-104 -65
c-353 17 -412 55 -412 152z" />
    <glyph glyph-name="ainfinalarabic" unicode="&#x639;" horiz-adv-x="530" arabic-form="final" 
d="M326 336c23 -2 94 -14 94 -68c0 -46 -58 -95 -94 -127c13 -33 43 -66 109 -66h117c0 -49 -8 -75 -23 -75h-92c-67 11 -120 49 -155 109c-89 -75 -163 -141 -163 -204c0 -77 181 -109 362 -120h110l-103 -65c-368 17 -413 61 -413 151c0 121 56 181 201 306
c-6 20 -8 52 -27 52c-2 0 -6 -1 -8 -1l-59 -11c2 79 50 119 144 119z" />
    <glyph glyph-name="aininitialarabic" unicode="&#x639;" horiz-adv-x="584" arabic-form="initial" 
d="M147 229c0 -40 58 -128 144 -128c70 0 160 9 272 26l-50 -77c-117 -33 -235 -50 -354 -50h-159c-13 0 -15 24 -15 75h174c-43 64 -64 116 -64 154c16 71 88 126 165 126c80 0 149 -50 177 -78c-60 10 -110 16 -150 16c-63 0 -140 -26 -140 -64z" />
    <glyph glyph-name="ainmedialarabic" unicode="&#x639;" horiz-adv-x="447" arabic-form="medial" 
d="M245 322c79 0 135 -29 135 -71c0 -36 -40 -80 -74 -115c25 -40 55 -61 88 -61h68c0 -49 -1 -75 -15 -75h-52c-49 0 -95 30 -137 90c-55 -60 -115 -90 -180 -90h-78c-15 0 -15 26 -15 75h76c101 0 152 31 152 88c0 10 -10 46 -54 46c-13 0 -31 -11 -35 -36h-14v23
c4 80 49 126 135 126z" />
    <glyph glyph-name="uniFECD" unicode="&#x63a;" horiz-adv-x="591" arabic-form="isolated" 
d="M272 558l-49 -51l-59 56l52 48zM75 -128c0 57 32 176 124 253c-57 49 -98 68 -122 97v29c0 81 80 170 196 170c34 -5 76 -22 121 -50c-13 1 -25 1 -36 1c-105 0 -229 -49 -240 -82c3 -48 83 -98 146 -98c30 0 74 55 230 67l-25 -67c-194 -20 -346 -178 -346 -285
c0 -65 131 -105 357 -122h111l-104 -65c-353 17 -412 55 -412 152z" />
    <glyph glyph-name="ghainfinalarabic" unicode="&#x63a;" horiz-adv-x="537" arabic-form="final" 
d="M352 488l-49 -51l-59 56l52 48zM326 336c23 -2 94 -14 94 -68c0 -46 -58 -95 -94 -127c13 -33 43 -66 109 -66h117c0 -49 -8 -75 -23 -75h-92c-67 11 -120 49 -155 109c-89 -75 -163 -141 -163 -204c0 -77 181 -109 362 -120h110l-103 -65c-368 17 -413 61 -413 151
c0 121 56 181 201 306c-6 20 -8 52 -27 52c-2 0 -6 -1 -8 -1l-59 -11c2 79 50 119 144 119z" />
    <glyph glyph-name="ghaininitialarabic" unicode="&#x63a;" horiz-adv-x="584" arabic-form="initial" 
d="M302 496l-49 -51l-59 56l52 48zM147 229c0 -40 58 -128 144 -128c70 0 160 9 272 26l-50 -77c-117 -33 -235 -50 -354 -50h-159c-13 0 -15 24 -15 75h174c-43 64 -64 116 -64 154c16 71 88 126 165 126c80 0 149 -50 177 -78c-60 10 -110 16 -150 16
c-63 0 -140 -26 -140 -64z" />
    <glyph glyph-name="ghainmedialarabic" unicode="&#x63a;" horiz-adv-x="447" arabic-form="medial" 
d="M302 488l-49 -51l-59 56l52 48zM245 322c79 0 135 -29 135 -71c0 -36 -40 -80 -74 -115c25 -40 55 -61 88 -61h68c0 -49 -1 -75 -15 -75h-52c-49 0 -95 30 -137 90c-55 -60 -115 -90 -180 -90h-78c-15 0 -15 26 -15 75h76c101 0 152 31 152 88c0 10 -10 46 -54 46
c-13 0 -31 -11 -35 -36h-14v23c4 80 49 126 135 126z" />
    <glyph glyph-name="uniFED1" unicode="&#x641;" horiz-adv-x="858" arabic-form="isolated" 
d="M792 548l-49 -51l-59 56l52 48zM649 236c0 63 26 174 95 174c46 0 124 -51 124 -243v-66c0 -61 -19 -101 -76 -101h-636c-56 0 -80 26 -81 127c1 34 13 83 36 130l26 -11c-21 -56 -22 -106 -22 -130c0 -21 22 -41 44 -41h585c75 0 83 72 83 128c-12 -25 -36 -51 -80 -51
c-46 0 -98 19 -98 84zM740 333c-21 -23 -36 -60 -36 -71c11 -30 26 -39 55 -39c35 0 46 6 57 17c0 9 -31 83 -76 93z" />
    <glyph glyph-name="fehfinalarabic" unicode="&#x641;" horiz-adv-x="858" arabic-form="final" 
d="M772 458l-49 -51l-59 56l52 48zM614 183c0 83 65 132 100 132c46 0 113 -59 113 -135c0 -39 -21 -68 -52 -93c22 -10 55 -12 82 -12h24c0 -49 -8 -75 -23 -75h-28c-37 0 -68 10 -108 38c-35 -26 -72 -38 -106 -38h-398c-34 0 -143 30 -143 134c0 58 11 102 20 131l22 -5
c-5 -32 -7 -60 -7 -84c0 -56 29 -101 163 -101h311c30 0 64 3 85 12c-30 26 -55 54 -55 96zM718 240c-17 0 -47 -23 -47 -56c0 -20 22 -43 51 -62c27 25 45 38 45 60c0 34 -32 58 -49 58z" />
    <glyph glyph-name="fehinitialarabic" unicode="&#x641;" horiz-adv-x="338" arabic-form="initial" 
d="M242 548l-49 -51l-59 56l52 48zM168 335c-21 -23 -36 -62 -36 -73c11 -30 38 -39 67 -39c35 0 46 6 57 17c0 9 -43 85 -88 95zM89 236c0 63 36 174 105 174c46 0 114 -51 114 -243c0 -86 -53 -167 -136 -167h-172c-12 0 -15 19 -15 75h159c93 0 123 71 123 128
c-12 -25 -36 -51 -80 -51c-46 0 -98 19 -98 84z" />
    <glyph glyph-name="fehmedialarabic" unicode="&#x641;" horiz-adv-x="328" arabic-form="medial" 
d="M222 448l-49 -51l-59 56l52 48zM64 183c0 83 66 132 100 132c32 0 112 -43 112 -135c0 -39 -18 -68 -50 -93c17 -9 54 -12 81 -12h44c0 -49 -8 -75 -23 -75h-38c-27 0 -86 12 -118 38c-32 -24 -84 -38 -116 -38h-56c-15 0 -23 26 -23 75h57c30 0 70 3 84 12
c-30 26 -54 54 -54 96zM168 240c-20 0 -48 -30 -48 -56c0 -20 24 -42 52 -62c27 22 46 38 46 60c0 27 -32 58 -50 58z" />
    <glyph glyph-name="uniFED5" unicode="&#x642;" horiz-adv-x="626" arabic-form="isolated" 
d="M614 448l-49 -51l-59 56l52 48zM501 448l-49 -51l-59 56l52 48zM634 73c-11 -93 -40 -157 -88 -187c-81 -50 -175 -56 -260 -56c-204 44 -211 123 -211 198c0 53 11 109 44 168l18 -6c-18 -55 -28 -86 -28 -131c0 -80 16 -143 260 -143c108 16 184 22 231 147
c0 22 -5 53 -11 65c-11 -17 -26 -48 -84 -48c-44 0 -85 27 -85 61c0 45 39 154 101 166c72 -15 109 -119 113 -171v-63zM512 229c-33 -14 -47 -42 -47 -47c0 -13 14 -20 41 -20c39 0 43 2 59 12c-16 42 -49 55 -53 55z" />
    <glyph glyph-name="qaffinalarabic" unicode="&#x642;" horiz-adv-x="626" arabic-form="final" 
d="M614 448l-49 -51l-59 56l52 48zM501 448l-49 -51l-59 56l52 48zM634 73c-11 -93 -40 -157 -88 -187c-81 -50 -175 -56 -260 -56c-204 44 -211 123 -211 198c0 53 11 109 44 168l18 -6c-18 -55 -28 -86 -28 -131c0 -80 16 -143 260 -143c108 16 184 22 231 147
c0 22 -5 53 -11 65c-11 -17 -26 -48 -84 -48c-44 0 -85 27 -85 61c0 45 39 154 101 166c72 -15 109 -119 113 -171v-63zM512 229c-33 -14 -47 -42 -47 -47c0 -13 14 -20 41 -20c39 0 43 2 59 12c-16 42 -49 55 -53 55z" />
    <glyph glyph-name="qafinitialarabic" unicode="&#x642;" horiz-adv-x="338" arabic-form="initial" 
d="M289 537l-49 -51l-59 56l52 48zM176 537l-49 -51l-59 56l52 48zM168 335c-21 -23 -36 -62 -36 -73c11 -30 38 -39 67 -39c35 0 46 6 57 17c0 9 -43 85 -88 95zM89 236c0 63 36 174 105 174c46 0 114 -51 114 -243c0 -86 -53 -167 -136 -167h-172c-12 0 -15 19 -15 75h159
c93 0 123 71 123 128c-12 -25 -36 -51 -80 -51c-46 0 -98 19 -98 84z" />
    <glyph glyph-name="qafmedialarabic" unicode="&#x642;" horiz-adv-x="328" arabic-form="medial" 
d="M279 447l-49 -51l-59 56l52 48zM166 447l-49 -51l-59 56l52 48zM64 183c0 83 66 132 100 132c32 0 112 -43 112 -135c0 -39 -18 -68 -50 -93c17 -9 54 -12 81 -12h44c0 -49 -8 -75 -23 -75h-38c-27 0 -86 12 -118 38c-32 -24 -84 -38 -116 -38h-56c-15 0 -23 26 -23 75
h57c30 0 70 3 84 12c-30 26 -54 54 -54 96zM168 240c-20 0 -48 -30 -48 -56c0 -20 24 -42 52 -62c27 22 46 38 46 60c0 27 -32 58 -50 58z" />
    <glyph glyph-name="uniFED9" unicode="&#x643;" horiz-adv-x="486" arabic-form="isolated" 
d="M293 675c35 0 163 -298 163 -575c0 -67 -14 -100 -42 -100h-414c-9 0 -10 11 -10 75h421c0 64 -20 196 -35 253l-49 182c-13 48 -50 70 -97 91c12 35 44 74 63 74zM205 384c-10 0 -12 36 -30 36s-38 -42 -38 -61c0 -10 8 -45 21 -45c14 0 13 10 80 37l-8 -33
c-32 -10 -82 -40 -150 -91c18 25 39 48 63 70c-35 9 -46 23 -46 53c0 50 39 90 75 110c23 0 41 -8 41 -39c0 -11 -2 -37 -8 -37z" />
    <glyph glyph-name="kaffinalarabic" unicode="&#x643;" horiz-adv-x="688" arabic-form="final" 
d="M409 384c-10 0 -12 36 -30 36s-38 -42 -38 -61c0 -10 8 -45 21 -45c14 0 13 10 80 37l-8 -33c-32 -10 -82 -40 -150 -91c18 25 39 48 63 70c-35 9 -46 23 -46 53c0 50 39 90 75 110c23 0 41 -8 41 -39c0 -11 -2 -37 -8 -37zM711 75c0 -49 -8 -75 -23 -75h-21
c-15 0 -26 12 -30 22c-8 -10 -19 -22 -32 -22l-387 1c-29 0 -143 18 -143 176c0 58 11 102 20 131l18 -4c-5 -32 -7 -60 -7 -85c0 -100 33 -144 167 -144h345c0 64 -15 196 -30 253l-49 182c-13 48 -40 70 -87 91c12 35 24 74 43 74c35 0 163 -299 163 -600h53z" />
    <glyph glyph-name="kafinitialarabic" unicode="&#x643;" horiz-adv-x="373" arabic-form="initial" 
d="M373 701v-67l-199 -80c-26 -12 -130 -68 -130 -80c0 -16 274 -206 274 -381c0 -63 -12 -93 -40 -93h-278c-7 0 -10 12 -10 75h288c1 10 2 23 2 33c0 49 -86 157 -109 180l-87 77l-10 -16c-31 19 -39 25 -66 49c-2 13 -8 34 -8 46c0 52 41 122 174 176z" />
    <glyph glyph-name="kafmedialarabic" unicode="&#x643;" horiz-adv-x="469" arabic-form="medial" 
d="M206 327c0 0 95 -118 196 -229c20 -22 49 -24 67 -24h10c0 -69 -2 -74 -10 -74c-16 0 -53 5 -73 24c-41 38 -132 169 -132 169c13 -24 13 -37 13 -63c0 -63 -113 -130 -210 -130h-67c-6 0 -10 11 -10 15v60h99c79 0 139 50 139 84c0 32 -16 94 -73 144l-70 62l-9 -16
c-31 19 -43 29 -70 54c-3 17 -7 30 -7 36c0 86 58 137 217 200l157 62v-67l-199 -80c-26 -10 -128 -69 -128 -80c0 -8 85 -71 160 -147zM-10 15z" />
    <glyph glyph-name="uniFEDD" unicode="&#x644;" horiz-adv-x="628" arabic-form="isolated" 
d="M320 -239c-104 0 -245 18 -245 182c0 98 43 164 61 211l26 -10c-29 -80 -44 -113 -44 -162c0 -116 91 -135 224 -135c91 0 175 3 206 115c0 219 -34 399 -82 634l18 38l47 41c14 -63 36 -92 67 -136l-42 -64v-42c0 -29 42 -314 42 -422c0 -177 -37 -250 -278 -250z" />
    <glyph glyph-name="lamfinalarabic" unicode="&#x644;" horiz-adv-x="667" arabic-form="final" 
d="M320 -240c-104 0 -245 19 -245 183c0 98 40 167 61 211l16 -6c-32 -87 -46 -117 -46 -166c0 -116 103 -135 236 -135c91 0 175 3 206 115c0 219 -34 389 -82 624l38 38l37 51c13 -203 17 -246 44 -498c11 -66 52 -102 82 -102h10c0 -61 -1 -75 -10 -75
c-23 0 -53 3 -69 11c0 -177 -37 -251 -278 -251z" />
    <glyph glyph-name="laminitialarabic" unicode="&#x644;" horiz-adv-x="247" arabic-form="initial" 
d="M155 182c0 143 -38 247 -70 404l38 38l32 50c3 -67 34 -96 62 -135l-42 -64v-42c3 -18 30 -168 30 -252c0 -152 -31 -181 -110 -181h-95c-10 0 -10 12 -10 75h76c57 0 89 38 89 107z" />
    <glyph glyph-name="lammedialarabic" unicode="&#x644;" horiz-adv-x="280" arabic-form="medial" 
d="M204 189c0 -95 44 -114 76 -114h10c0 -66 -1 -75 -10 -75c-40 0 -79 9 -98 38c-18 -28 -44 -38 -87 -38h-95c-9 0 -10 8 -10 75h75c63 0 89 45 89 113c0 141 -14 276 -43 418l41 18l27 51c12 -182 25 -251 25 -486z" />
    <glyph glyph-name="uniFEE1" unicode="&#x645;" horiz-adv-x="475" arabic-form="isolated" 
d="M246 361c-22 0 -53 -28 -71 -58c-3 12 -4 23 -4 33c0 64 68 93 107 93c46 0 154 -81 189 -174c-11 -22 -10 -27 -25 -53c-60 8 -129 14 -212 14c-39 0 -86 -3 -103 -27c19 -148 48 -313 48 -378c0 -41 -7 -78 -22 -111c-43 210 -67 336 -78 461c13 36 24 62 42 100
c25 22 67 32 107 32c72 0 118 -3 160 -14c-30 49 -88 82 -138 82z" />
    <glyph glyph-name="meemfinalarabic" unicode="&#x645;" horiz-adv-x="415" arabic-form="final" 
d="M307 260c34 -108 65 -185 108 -185h20c0 -58 -3 -75 -20 -75c-24 0 -41 6 -50 10c-14 -7 -33 -11 -54 -20c-12 35 -29 88 -40 122c-28 38 -58 56 -91 56c-20 0 -55 -7 -55 -179c11 -70 31 -113 31 -178c0 -41 -2 -76 -13 -111c-48 150 -50 156 -68 261c0 45 -1 81 -1 121
c18 91 80 156 102 156c18 0 54 -8 73 -24c-3 14 -8 25 -10 31c27 6 40 9 68 15z" />
    <glyph glyph-name="meeminitialarabic" unicode="&#x645;" horiz-adv-x="419" arabic-form="initial" 
d="M277 237c49 0 112 -103 112 -178c-17 -37 -45 -59 -77 -73c-80 0 -132 14 -179 56c-33 -32 -52 -42 -92 -42h-41c-11 0 -15 18 -15 75h56c87 0 165 123 236 162zM310 44c16 0 22 2 22 28c0 11 -33 54 -68 80c-30 -19 -37 -28 -62 -51c21 -33 79 -57 108 -57z" />
    <glyph glyph-name="meemmedialarabic" unicode="&#x645;" horiz-adv-x="476" arabic-form="medial" 
d="M70 103c35 72 167 146 207 146c15 0 81 -99 116 -138c22 -24 64 -36 81 -36h15c0 -49 -3 -75 -13 -75h-2c-34 0 -90 10 -109 24c-13 -20 -37 -34 -61 -34c-144 0 -178 22 -215 56c-40 -45 -57 -46 -89 -46c-13 0 -15 26 -15 75h15c18 0 30 3 70 28zM131 103
c20 -31 51 -33 104 -33c28 0 53 10 68 19c-30 39 -57 81 -77 89c-17 0 -76 -41 -95 -75z" />
    <glyph glyph-name="uniFEE5" unicode="&#x646;" horiz-adv-x="637" arabic-form="isolated" 
d="M424 443l-49 -51l-59 56l52 48zM316 -118c98 0 182 30 244 159c-1 105 -45 207 -71 228l58 86c16 -34 48 -127 50 -243c-15 -162 -57 -306 -281 -306c-193 0 -241 84 -241 209c0 60 15 123 34 189l26 -4c-11 -48 -23 -91 -23 -132c0 -100 34 -186 204 -186z" />
    <glyph glyph-name="noonfinalarabic" unicode="&#x646;" horiz-adv-x="637" arabic-form="final" 
d="M423 443l-49 -51l-59 56l52 48zM316 -118c98 0 182 30 244 159c-1 105 -45 207 -71 228l58 86c16 -34 48 -127 50 -243v-37h63c0 -49 -8 -75 -23 -75h-57c-28 -111 -94 -194 -264 -194c-193 0 -241 84 -241 209c0 60 15 123 34 189l21 -4c-11 -48 -23 -91 -23 -132
c0 -100 39 -186 209 -186z" />
    <glyph glyph-name="nooninitialarabic" unicode="&#x646;" horiz-adv-x="270" arabic-form="initial" 
d="M184 445l-49 -51l-59 56l52 48zM182 309c25 -37 43 -84 43 -141v-70c0 -69 -17 -98 -50 -98h-175c-13 0 -22 22 -22 75h206c0 67 -6 119 -43 157z" />
    <glyph glyph-name="noonmedialarabic" unicode="&#x646;" horiz-adv-x="300" arabic-form="medial" 
d="M183 445l-49 -51l-59 56l52 48zM225 168l1 -57c0 -13 -1 -25 -2 -36h98c0 -49 -7 -75 -22 -75h-68c-15 0 -23 13 -30 22c-8 -10 -19 -22 -32 -22h-170c-12 0 -22 22 -22 75h206c0 67 -6 119 -43 157l41 77c25 -37 42 -84 43 -141z" />
    <glyph glyph-name="hehisolatedarabic" unicode="&#x647;" horiz-adv-x="372" arabic-form="isolated" 
d="M199 359c102 -113 143 -202 143 -249c0 -29 -14 -68 -27 -79c-17 -14 -59 -36 -90 -36c-49 0 -150 2 -150 97c0 63 53 135 80 185l-8 10zM183 249c-18 -21 -69 -96 -69 -146c24 -30 64 -38 107 -38c49 0 75 14 87 35c0 21 -42 109 -125 149z" />
    <glyph glyph-name="hehfinalarabic" unicode="&#x647;" horiz-adv-x="420" arabic-form="final" 
d="M74 113c0 57 26 89 175 152c-3 10 -4 20 -4 30c0 26 8 44 24 69l63 -250c9 -35 45 -39 88 -39h10c0 -57 -2 -75 -10 -75c-68 0 -110 4 -126 86c-10 -38 -60 -61 -97 -61c-83 0 -123 21 -123 88zM148 137c0 -27 22 -32 56 -32c49 0 63 3 72 44c-9 35 -9 43 -19 73
c-67 -28 -109 -47 -109 -85z" />
    <glyph glyph-name="hehinitialarabic" unicode="&#x647;" horiz-adv-x="463" arabic-form="initial" 
d="M281 216c5 -12 6 -12 6 -27c0 -25 -23 -67 -54 -84c30 -18 88 -49 97 -49c11 0 26 14 26 33c0 15 -23 70 -75 127zM243 364c102 -113 170 -231 170 -291c0 -21 -68 -73 -87 -73c-42 0 -115 37 -147 59c-32 -21 -101 -59 -150 -59h-29c-15 0 -23 26 -23 75h25
c43 0 76 8 114 24c-30 30 -37 48 -37 92c0 58 70 84 132 84c-7 7 -15 14 -20 17zM218 243c-31 0 -90 -17 -90 -55c0 -30 36 -48 60 -61c36 22 65 44 65 78c0 16 -20 38 -35 38z" />
    <glyph glyph-name="hehmedialarabic" unicode="&#x647;" horiz-adv-x="396" arabic-form="medial" 
d="M260 -173c30 0 44 30 44 59c0 28 -51 114 -125 114c0 -106 53 -173 81 -173zM308 197c0 15 -2 64 -54 64c-62 0 -64 -90 -78 -185h32c63 26 100 94 100 121zM348 202c0 -64 -19 -103 -97 -126l169 -1c0 -49 -8 -75 -23 -75h-146c77 -20 94 -64 94 -119
c0 -77 -49 -117 -113 -117c-77 0 -85 146 -89 236h-143c-15 0 -23 26 -23 75l163 1c8 109 12 249 107 249c64 0 101 -55 101 -123z" />
    <glyph glyph-name="uniFEED" unicode="&#x648;" horiz-adv-x="374" arabic-form="isolated" 
d="M294 50c-17 -33 -32 -57 -94 -57c-48 0 -81 27 -81 90c0 87 45 171 117 171c56 0 93 -69 93 -172v-23c0 -175 -57 -271 -228 -306l-101 17l4 21c78 15 139 37 203 107c55 60 69 92 87 152zM291 85c-2 61 -57 110 -72 110c-38 0 -59 -58 -59 -110c13 -8 47 -15 67 -15
c16 0 52 4 64 15z" />
    <glyph glyph-name="wawfinalarabic" unicode="&#x648;" horiz-adv-x="359" arabic-form="final" 
d="M291 85c-2 61 -57 110 -72 110c-38 0 -59 -58 -59 -110c13 -8 47 -15 67 -15c16 0 52 4 64 15zM329 76h53c0 -49 -8 -75 -23 -75h-33c-13 -138 -73 -217 -224 -248l-102 17l4 21c78 15 136 35 200 105c55 60 59 88 63 104c-24 -5 -20 -7 -67 -7c-64 0 -81 27 -81 90
c0 87 45 171 117 171c56 0 93 -69 93 -172v-6z" />
    <glyph glyph-name="uniFEEF" unicode="&#x649;" horiz-adv-x="672" arabic-form="isolated" 
d="M608 315c39 0 44 -27 44 -58c0 -10 -1 -18 -2 -27c-23 18 -45 26 -66 26c-50 0 -127 -83 -127 -106c0 -19 26 -29 80 -29c9 0 25 4 49 4c53 0 63 -19 63 -41c0 -137 -152 -244 -338 -244c-229 0 -236 101 -236 184c0 94 57 186 83 222l11 -4c-35 -66 -52 -120 -52 -163
c0 -86 22 -155 148 -155c205 0 318 48 348 109c-1 13 -35 20 -101 20c-46 0 -101 5 -101 56c0 86 113 206 197 206z" />
    <glyph glyph-name="alefmaksurafinalarabic" unicode="&#x649;" horiz-adv-x="680" arabic-form="final" 
d="M662 307c0 -10 -1 -48 -2 -57c-26 -44 -64 -110 -133 -152c35 -8 95 -24 134 -24h29c0 -63 -2 -74 -10 -74h-39c-45 -99 -161 -161 -310 -161c-229 0 -256 77 -256 185c0 94 57 186 83 222l11 -4c-35 -66 -52 -120 -52 -163c0 -86 13 -155 198 -155c178 0 257 36 286 81
c-61 6 -119 23 -180 44c3 17 13 54 17 68c90 38 156 115 224 190z" />
    <glyph glyph-name="uniFEF1" unicode="&#x64a;" horiz-adv-x="672" arabic-form="isolated" 
d="M564 -249l-49 -51l-59 56l52 48zM451 -249l-49 -51l-59 56l52 48zM608 315c39 0 44 -27 44 -58c0 -10 -1 -18 -2 -27c-23 18 -45 26 -66 26c-50 0 -127 -83 -127 -106c0 -19 26 -29 80 -29c9 0 25 4 49 4c53 0 63 -19 63 -41c0 -137 -152 -244 -338 -244
c-229 0 -236 101 -236 184c0 94 57 186 83 222l11 -4c-35 -66 -52 -120 -52 -163c0 -86 22 -155 148 -155c205 0 318 48 348 109c-1 13 -35 20 -101 20c-46 0 -101 5 -101 56c0 86 113 206 197 206z" />
    <glyph glyph-name="yehfinalarabic" unicode="&#x64a;" horiz-adv-x="680" arabic-form="final" 
d="M534 -249l-49 -51l-59 56l52 48zM421 -249l-49 -51l-59 56l52 48zM662 307c0 -10 -1 -48 -2 -57c-26 -44 -64 -110 -133 -152c35 -8 95 -24 134 -24h29c0 -63 -2 -74 -10 -74h-39c-45 -99 -161 -161 -310 -161c-229 0 -256 77 -256 185c0 94 57 186 83 222l11 -4
c-35 -66 -52 -120 -52 -163c0 -86 13 -155 198 -155c178 0 257 36 286 81c-61 6 -119 23 -180 44c3 17 13 54 17 68c90 38 156 115 224 190z" />
    <glyph glyph-name="yehinitialarabic" unicode="&#x64a;" horiz-adv-x="270" arabic-form="initial" 
d="M244 -139l-49 -51l-59 56l52 48zM131 -139l-49 -51l-59 56l52 48zM182 309c25 -37 43 -84 43 -141v-70c0 -69 -17 -98 -50 -98h-175c-13 0 -22 22 -22 75h206c0 67 -6 119 -43 157z" />
    <glyph glyph-name="yehmedialarabic" unicode="&#x64a;" horiz-adv-x="300" arabic-form="medial" 
d="M274 -139l-49 -51l-59 56l52 48zM161 -139l-49 -51l-59 56l52 48zM225 168l1 -57c0 -13 -1 -25 -2 -36h98c0 -49 -7 -75 -22 -75h-68c-15 0 -23 13 -30 22c-8 -10 -19 -22 -32 -22h-170c-12 0 -22 22 -22 75h206c0 67 -6 119 -43 157l41 77c25 -37 42 -84 43 -141z" />
    <glyph glyph-name="lamalefmaddaaboveisolatedarabic" unicode="&#xfef5;" horiz-adv-x="456" arabic-form="isolated" 
d="M79 754c42 0 97 -40 122 -40c46 0 49 2 86 9c-21 -12 -62 -41 -87 -41c-54 0 -88 32 -120 32c-18 0 -37 -3 -68 -35c12 68 48 75 67 75zM340 252c48 104 52 224 52 297c0 10 -1 20 -2 28c-13 26 -19 46 -19 83c0 20 5 37 14 53c5 -33 18 -43 68 -54l-4 -53l-17 -35
c0 -73 -8 -229 -66 -357c35 -62 59 -122 59 -158c0 -59 -55 -52 -281 -56l6 73c82 33 136 82 167 135l-139 211c-34 52 -54 78 -57 79c-9 0 -19 -11 -29 -11c-14 0 -70 27 -70 107c0 16 3 46 18 46c69 0 237 -291 300 -388zM236 75c93 2 128 5 128 35c0 13 -12 39 -24 64
c-31 -43 -66 -74 -104 -99z" />
    <glyph glyph-name=".notdef" horiz-adv-x="600" 
d="M289 676c97 0 184 -58 184 -155c0 -76 -49 -135 -105 -203c-37 -47 -54 -87 -65 -154h-17c2 89 25 131 58 206c24 55 37 110 37 156c0 67 -48 120 -108 120c-49 0 -95 -30 -95 -62c0 -21 38 -43 38 -74c0 -24 -17 -41 -41 -41c-31 0 -48 22 -48 62c0 83 70 145 162 145z
M296 99c29 0 54 -25 54 -55s-23 -52 -55 -52c-30 0 -52 22 -52 51c0 32 23 56 53 56zM566 750v-821h-532v821h532zM517 708h-434v-747h434v747z" />
    <glyph glyph-name="CR" unicode="&#xd;" horiz-adv-x="600" 
 />
    <glyph glyph-name="space" unicode=" " horiz-adv-x="250" 
 />
    <glyph glyph-name="exclam" unicode="!" horiz-adv-x="333" 
d="M189 176h-13c-24 287 -46 350 -46 423c0 47 20 77 53 77c34 0 53 -28 53 -80c0 -70 -22 -134 -47 -420zM183 98c30 0 54 -25 54 -55s-23 -52 -55 -52c-30 0 -52 22 -52 52c0 31 23 55 53 55z" />
    <glyph glyph-name="quotedbl" unicode="&#x22;" horiz-adv-x="400" 
d="M295 431h-21c-17 90 -32 188 -32 204c0 23 19 41 43 41c23 0 42 -18 42 -40c0 -18 -15 -116 -32 -205zM126 431h-21c-17 90 -32 188 -32 204c0 23 19 41 43 41c23 0 42 -18 42 -40c0 -18 -15 -116 -32 -205z" />
    <glyph glyph-name="numbersign" unicode="#" horiz-adv-x="500" 
d="M471 271v-55h-109l-31 -216h-58l31 216h-134l-33 -216h-58l33 216h-107v55h116l21 134h-110v55h118l31 202h58l-31 -202h133l30 202h58l-30 -202h97v-55h-105l-20 -134h100zM333 405h-133l-21 -134h134z" />
    <glyph glyph-name="dollar" unicode="$" horiz-adv-x="500" 
d="M52 512c0 84 59 139 178 152v63h34v-63c84 -10 127 -25 161 -53v-111h-15c-17 85 -62 127 -146 137v-246c108 -63 193 -97 193 -221c0 -104 -72 -150 -193 -170v-87h-34v87c-84 3 -126 14 -186 51v130h15c24 -105 77 -152 171 -153v282c-127 71 -178 119 -178 202z
M229 407v230c-69 -14 -103 -48 -103 -103c0 -46 20 -71 103 -127zM264 293v-265c78 15 114 52 114 118c0 62 -21 89 -114 147z" />
    <glyph glyph-name="percent" unicode="%" horiz-adv-x="833" 
d="M669 371c65 0 103 -39 103 -107c0 -78 -33 -159 -86 -213c-35 -35 -72 -51 -117 -51c-72 0 -120 51 -120 129c0 125 107 242 220 242zM586 30c90 0 160 136 160 229c0 44 -32 80 -70 80c-101 0 -151 -194 -151 -245c0 -38 25 -64 61 -64zM282 662c76 0 59 -54 157 -54
c62 0 102 17 156 68h39l-385 -689h-48l351 626c-40 -23 -66 -30 -110 -30c-29 0 -47 3 -65 10c5 -18 7 -30 7 -44c0 -114 -83 -260 -205 -260c-65 0 -118 57 -118 127c0 127 107 246 221 246zM282 632c-67 0 -145 -155 -145 -248c0 -36 24 -61 59 -61c81 0 163 115 163 228
c0 14 -3 29 -9 49c-59 16 -54 32 -68 32z" />
    <glyph glyph-name="ampersand" unicode="&#x26;" horiz-adv-x="778" 
d="M491 555c0 -69 -40 -117 -155 -171c44 -86 76 -137 132 -206c64 85 91 139 91 182c0 30 -14 40 -64 45v21h216v-21c-50 -6 -70 -18 -94 -59c-42 -73 -57 -104 -126 -196c46 -61 98 -92 154 -92c36 0 58 13 90 53l15 -11c-30 -71 -87 -113 -151 -113
c-58 0 -107 26 -170 91c-75 -66 -135 -91 -216 -91c-106 0 -171 57 -171 152c0 127 106 189 195 238c-27 75 -35 107 -35 145c0 86 68 154 154 154c79 0 135 -50 135 -121zM321 416c82 44 117 87 117 143c0 49 -34 85 -80 85s-77 -34 -77 -82c0 -45 10 -83 40 -146zM252 343
c-87 -56 -118 -99 -118 -163c0 -77 59 -141 129 -141c42 0 82 18 141 65c-57 70 -92 125 -152 239z" />
    <glyph glyph-name="quotesingle" unicode="'" horiz-adv-x="200" 
d="M111 431h-21c-17 90 -32 188 -32 204c0 23 19 41 43 41c23 0 42 -18 42 -40c0 -18 -15 -116 -32 -205z" />
    <glyph glyph-name="parenleft" unicode="(" horiz-adv-x="333" 
d="M292 -177c-74 45 -244 188 -244 429c0 254 165 371 247 424l9 -16c-103 -83 -170 -160 -170 -405c0 -255 67 -335 170 -416z" />
    <glyph glyph-name="parenright" unicode=")" horiz-adv-x="333" 
d="M41 676c74 -45 244 -188 244 -429c0 -254 -165 -371 -247 -424l-9 16c103 83 170 160 170 405c0 255 -67 335 -170 416z" />
    <glyph glyph-name="asterisk" unicode="*" horiz-adv-x="500" 
d="M214 302c0 35 27 56 27 154c-96 -59 -85 -105 -136 -105c-22 0 -36 13 -36 35c0 48 67 25 165 85c-100 52 -165 29 -165 84c0 20 15 36 34 36c48 0 40 -48 138 -105c0 99 -25 119 -25 155c0 20 15 35 35 35s36 -16 36 -37c0 -41 -27 -53 -27 -155c86 53 92 109 135 109
c21 0 36 -16 36 -39c0 -47 -74 -32 -163 -84c93 -58 164 -34 164 -83c0 -22 -14 -37 -35 -37c-48 0 -49 46 -137 106c0 -97 28 -124 28 -151c0 -21 -18 -40 -39 -40c-19 0 -35 17 -35 37z" />
    <glyph glyph-name="plus" unicode="+" horiz-adv-x="564" 
d="M249 286v220h66v-220h219v-66h-219v-220h-66v220h-219v66h219z" />
    <glyph glyph-name="comma" unicode="," horiz-adv-x="250" 
d="M142 -2c-4 0 -10 -4 -27 -4c-36 0 -59 19 -59 51c0 34 24 57 59 57c45 0 80 -39 80 -89c0 -60 -45 -121 -112 -154l-9 19c54 37 82 74 82 106c0 8 -6 14 -14 14z" />
    <glyph glyph-name="hyphen" unicode="-" horiz-adv-x="333" 
d="M39 257h246v-63h-246v63z" />
    <glyph glyph-name="period" unicode="." horiz-adv-x="250" 
d="M125 100c30 0 56 -26 56 -57c0 -29 -26 -54 -57 -54c-29 0 -54 25 -54 54c0 31 25 57 55 57z" />
    <glyph glyph-name="slash" unicode="/" horiz-adv-x="296" 
d="M296 676l-228 -690h-68l229 690h67z" />
    <glyph glyph-name="zero" unicode="0" horiz-adv-x="500" 
d="M250 -14c-138 0 -226 148 -226 350c0 186 84 340 230 340c131 0 222 -141 222 -346c0 -200 -88 -344 -226 -344zM251 650c-86 0 -131 -111 -131 -323c0 -208 44 -315 130 -315s130 107 130 316s-45 322 -129 322z" />
    <glyph glyph-name="one" unicode="1" horiz-adv-x="500" 
d="M183 593c-15 0 -33 -6 -72 -22v14l180 91l8 -2v-600c0 -48 16 -58 95 -59v-15h-276v15c71 2 95 13 95 78v453c0 32 -9 47 -30 47z" />
    <glyph glyph-name="two" unicode="2" horiz-adv-x="500" 
d="M31 477c11 47 47 199 208 199c104 0 185 -77 185 -177c0 -78 -39 -154 -128 -247l-168 -176h239c45 0 58 9 95 66l13 -5l-55 -137h-390v12l178 189c84 89 130 182 130 260c0 84 -57 141 -141 141c-69 0 -105 -32 -145 -130z" />
    <glyph glyph-name="three" unicode="3" horiz-adv-x="500" 
d="M81 78c49 0 84 -56 148 -56c74 0 131 65 131 149c0 137 -122 159 -207 159v13c75 26 166 66 166 166c0 63 -45 107 -110 107c-63 0 -108 -33 -149 -106l-15 4c27 75 75 162 197 162c92 0 156 -56 156 -137c0 -54 -25 -91 -94 -138c67 -29 128 -73 128 -182
c0 -144 -121 -233 -276 -233c-70 0 -113 22 -113 57c0 21 15 35 38 35z" />
    <glyph glyph-name="four" unicode="4" horiz-adv-x="500" 
d="M472 231v-64h-102v-167h-77v167h-281v64l314 445h44v-445h102zM292 231v343l-240 -343h240z" />
    <glyph glyph-name="five" unicode="5" horiz-adv-x="500" 
d="M357 194c0 186 -219 218 -281 218c-8 0 -12 3 -12 8c0 2 0 3 1 5l109 237h209c21 0 31 5 46 26l9 -7l-38 -89c-3 -7 -7 -9 -23 -9h-196l-42 -85c186 -33 288 -100 288 -256c0 -205 -167 -256 -273 -256c-75 0 -122 24 -122 62c0 25 14 37 43 37c56 0 90 -62 143 -62
c78 0 139 75 139 171z" />
    <glyph glyph-name="six" unicode="6" horiz-adv-x="500" 
d="M258 -14c-134 0 -224 117 -224 293c0 117 57 374 412 405l2 -16c-157 -26 -269 -134 -296 -285c63 38 84 45 128 45c115 0 188 -81 188 -209c0 -138 -86 -233 -210 -233zM242 382c-98 0 -115 -49 -115 -119c0 -155 54 -249 142 -249c70 0 109 61 109 171
c0 125 -50 197 -136 197z" />
    <glyph glyph-name="seven" unicode="7" horiz-adv-x="500" 
d="M449 662v-16l-212 -654h-65l198 596h-217c-55 0 -73 -13 -116 -81l-17 8l59 147h370z" />
    <glyph glyph-name="eight" unicode="8" horiz-adv-x="500" 
d="M290 371c121 -90 155 -139 155 -216c0 -103 -77 -169 -197 -169c-113 0 -192 68 -192 165c0 68 22 99 130 181c-105 92 -124 121 -124 186c0 91 81 158 190 158c100 0 172 -60 172 -142c0 -68 -35 -110 -134 -163zM212 312c-58 -47 -80 -89 -80 -153
c0 -87 51 -145 127 -145c65 0 110 45 110 110c0 84 -60 117 -157 188zM261 389c28 21 94 58 94 146c0 69 -43 113 -111 113c-63 0 -108 -41 -108 -99c0 -56 36 -102 125 -160z" />
    <glyph glyph-name="nine" unicode="9" horiz-adv-x="500" 
d="M59 -22l-3 20c152 26 263 133 304 296c-53 -41 -95 -57 -150 -57c-108 0 -180 81 -180 203c0 135 89 236 208 236c129 0 221 -117 221 -282c0 -111 -46 -375 -400 -416zM246 280c28 0 116 15 116 75v39c0 168 -45 254 -132 254c-86 0 -108 -100 -108 -174
c0 -119 48 -194 124 -194z" />
    <glyph glyph-name="colon" unicode=":" horiz-adv-x="250" 
d="M136 459c30 0 56 -26 56 -57c0 -29 -26 -54 -57 -54c-29 0 -54 25 -54 54c0 31 25 57 55 57zM136 100c30 0 56 -26 56 -57c0 -29 -26 -54 -57 -54c-29 0 -54 25 -54 54c0 31 25 57 55 57z" />
    <glyph glyph-name="semicolon" unicode=";" horiz-adv-x="250" 
d="M166 -2c-4 0 -10 -4 -27 -4c-36 0 -59 19 -59 51c0 34 24 57 59 57c45 0 80 -39 80 -89c0 -60 -45 -121 -112 -154l-9 19c54 37 82 74 82 106c0 8 -6 14 -14 14zM136 459c30 0 56 -26 56 -57c0 -29 -26 -54 -57 -54c-29 0 -54 25 -54 54c0 31 25 57 55 57z" />
    <glyph glyph-name="less" unicode="&#x3c;" horiz-adv-x="564" 
d="M536 -10l-508 230v66l508 230v-72l-420 -191l420 -191v-72z" />
    <glyph glyph-name="equal" unicode="=" horiz-adv-x="564" 
d="M534 386v-66h-504v66h504zM534 186v-66h-504v66h504z" />
    <glyph glyph-name="greater" unicode="&#x3e;" horiz-adv-x="564" 
d="M28 516l508 -230v-66l-508 -230v72l420 191l-420 191v72z" />
    <glyph glyph-name="question" unicode="?" horiz-adv-x="444" 
d="M230 676c97 0 184 -58 184 -155c0 -76 -49 -135 -105 -203c-37 -47 -54 -87 -65 -154h-17c2 89 25 131 58 206c24 55 37 110 37 156c0 67 -48 120 -108 120c-49 0 -95 -30 -95 -62c0 -21 38 -43 38 -74c0 -24 -17 -41 -41 -41c-31 0 -48 22 -48 62c0 83 70 145 162 145z
M237 99c29 0 54 -25 54 -55s-23 -52 -55 -52c-30 0 -52 22 -52 51c0 32 23 56 53 56z" />
    <glyph glyph-name="at" unicode="@" horiz-adv-x="865" 
d="M452 645c-172 0 -282 -148 -282 -322s122 -298 292 -298c67 0 118 13 196 48l12 -30c-97 -44 -147 -57 -217 -57c-207 0 -367 148 -367 340c0 195 162 350 365 350c185 0 328 -128 328 -293c0 -129 -85 -240 -184 -240c-48 0 -85 29 -91 73c-34 -45 -81 -72 -125 -72
c-49 0 -88 49 -88 112c0 110 78 252 196 252c35 0 50 -11 72 -52l10 38h69l-65 -254c-1 -6 -2 -11 -2 -18c0 -31 13 -46 39 -46c66 0 129 97 129 197c0 149 -130 272 -287 272zM542 406c0 46 -25 58 -44 58c-46 0 -136 -73 -136 -192c0 -52 23 -85 60 -85
c69 0 120 138 120 219z" />
    <glyph glyph-name="A" unicode="A" horiz-adv-x="721" 
d="M706 19v-19h-255v19c53 1 70 9 70 34c0 14 -7 40 -19 67l-41 96h-262l-46 -117c-5 -13 -8 -27 -8 -39c0 -28 20 -41 68 -41v-19h-198v19c48 2 62 17 124 164l208 491h20l249 -568c33 -75 45 -84 90 -87zM216 257h231l-116 275z" />
    <glyph glyph-name="B" unicode="B" horiz-adv-x="631" 
d="M591 180c0 -72 -48 -180 -242 -180h-334v19c83 3 96 16 96 90v444c0 74 -12 85 -96 90v19h280c173 0 262 -58 262 -170c0 -115 -102 -135 -137 -144c40 -10 171 -38 171 -168zM276 37c109 0 200 24 200 142c0 142 -129 147 -263 147v-248c0 -32 14 -41 63 -41zM213 366
h95c94 0 147 44 147 122c0 89 -61 137 -176 137h-44c-15 0 -22 -9 -22 -30v-229z" />
    <glyph glyph-name="C" unicode="C" horiz-adv-x="670" 
d="M35 325c0 211 148 351 335 351c109 0 149 -33 185 -33c20 0 36 12 42 33h21l9 -226h-23c-28 95 -86 186 -215 186c-145 0 -238 -117 -238 -298c0 -244 136 -308 248 -308c83 0 149 30 223 101l18 -18c-61 -81 -160 -127 -273 -127c-196 0 -332 134 -332 339z" />
    <glyph glyph-name="D" unicode="D" horiz-adv-x="719" 
d="M684 334c0 -138 -77 -334 -385 -334h-284v19c76 5 88 18 88 90v444c0 74 -9 83 -88 90v19h270c317 0 399 -183 399 -328zM575 327c0 134 -64 298 -318 298c-41 0 -52 -8 -52 -39v-508c0 -32 12 -41 52 -41c188 0 318 73 318 290z" />
    <glyph glyph-name="E" unicode="E" horiz-adv-x="610" 
d="M204 80c0 -38 7 -43 105 -43h27c143 0 186 24 236 132h28l-45 -169h-540v19c73 5 87 20 87 90v444c0 70 -13 84 -87 90v19h531l3 -143h-25c-17 90 -39 105 -152 105h-135c-27 0 -33 -6 -33 -34v-222h154c93 0 99 29 110 95h23v-232h-23c-13 83 -28 96 -110 96h-154v-247z
" />
    <glyph glyph-name="F" unicode="F" horiz-adv-x="564" 
d="M482 231h-23c-12 81 -29 96 -110 96h-145v-208c0 -81 14 -96 91 -100v-19h-280v19c76 5 87 18 87 101v433c0 70 -13 84 -87 90v19h531l3 -143h-25c-17 90 -39 105 -152 105h-136c-27 0 -32 -6 -32 -34v-222h145c80 0 98 15 110 95h23v-232z" />
    <glyph glyph-name="G" unicode="G" horiz-adv-x="722" 
d="M395 636c-197 0 -246 -187 -246 -310c0 -186 100 -300 263 -300c72 0 133 27 133 59v162c0 77 -15 84 -88 89v18h255v-18c-58 -5 -70 -18 -70 -77v-203c-40 -35 -165 -70 -251 -70c-136 0 -356 68 -356 339c0 204 143 351 343 351c100 0 145 -33 180 -33
c21 0 39 14 45 33h22l8 -211h-23c-34 82 -85 171 -215 171z" />
    <glyph glyph-name="H" unicode="H" horiz-adv-x="714" 
d="M205 359h303v194c0 72 -11 83 -88 90v19h278v-19c-77 -7 -88 -18 -88 -90v-444c0 -71 13 -84 88 -90v-19h-278v19c78 5 88 17 88 101v195h-303v-206c0 -71 13 -84 88 -90v-19h-278v19c78 5 88 17 88 101v433c0 72 -11 83 -88 90v19h278v-19c-77 -7 -88 -18 -88 -90v-194z
" />
    <glyph glyph-name="I" unicode="I" horiz-adv-x="327" 
d="M112 109v444c0 74 -12 85 -97 90v19h297v-19c-84 -4 -98 -17 -98 -90v-444c0 -73 16 -87 98 -90v-19h-297v19c84 3 97 15 97 90z" />
    <glyph glyph-name="J" unicode="J" horiz-adv-x="385" 
d="M59 108c61 0 43 -84 79 -84c26 0 38 21 38 66v463c0 73 -11 84 -93 90v19h287v-19c-81 -6 -92 -17 -92 -90v-370c0 -125 -61 -197 -169 -197c-58 0 -99 30 -99 72c0 27 22 50 49 50z" />
    <glyph glyph-name="K" unicode="K" horiz-adv-x="709" 
d="M394 643v19h262v-19c-68 -5 -85 -12 -152 -78l-190 -188l233 -250c91 -97 105 -107 157 -108v-19h-305v19c27 2 70 2 70 23c0 24 -54 95 -130 170l-106 105l-26 -21v-187c0 -73 12 -85 90 -90v-19h-282v19c79 5 90 18 90 101v433c0 71 -12 84 -90 90v19h284v-19
c-81 -6 -92 -17 -92 -90v-205l177 161c55 51 78 81 78 103c0 20 -12 28 -42 30c-4 0 -14 0 -26 1z" />
    <glyph glyph-name="L" unicode="L" horiz-adv-x="611" 
d="M357 39c175 0 199 89 219 135h25l-48 -174h-538v19c73 5 87 20 87 90v444c0 70 -13 84 -87 90v19h282v-19c-79 -5 -93 -19 -93 -90v-473c0 -35 13 -41 86 -41h67z" />
    <glyph glyph-name="M" unicode="M" horiz-adv-x="881" 
d="M677 573l-256 -573h-14l-251 550v-403c0 -101 17 -124 94 -128v-19h-235v19c83 6 97 25 97 128v406c0 73 -13 85 -95 90v19h198l231 -505l221 505h199v-19c-74 -6 -87 -19 -87 -90v-444c0 -71 14 -85 87 -90v-19h-280v19c79 5 91 18 91 101v453z" />
    <glyph glyph-name="N" unicode="N" horiz-adv-x="725" 
d="M710 643c-61 -6 -95 -11 -95 -128v-526h-17l-442 550v-392c0 -101 17 -124 94 -128v-19h-235v19c83 6 97 25 97 128v441c-40 47 -54 55 -97 55v19h171l385 -484v337c0 104 -19 122 -96 128v19h235v-19z" />
    <glyph glyph-name="O" unicode="O" horiz-adv-x="724" 
d="M356 -14c-175 0 -321 135 -321 345c0 201 136 345 327 345c190 0 327 -140 327 -349c0 -201 -136 -341 -333 -341zM575 328c0 249 -125 312 -213 312c-172 0 -213 -187 -213 -311c0 -121 42 -307 211 -307c172 0 215 186 215 306z" />
    <glyph glyph-name="P" unicode="P" horiz-adv-x="576" 
d="M541 481c0 -77 -41 -193 -271 -193c-26 0 -43 1 -69 3v-182c0 -73 15 -87 94 -90v-19h-280v19c76 7 84 17 84 101v433c0 72 -10 82 -84 90v19h264c108 0 262 -36 262 -181zM201 591v-260c23 -2 37 -3 57 -3c115 0 174 50 174 147c0 103 -62 150 -197 150
c-27 0 -34 -7 -34 -34z" />
    <glyph glyph-name="Q" unicode="Q" horiz-adv-x="723" 
d="M689 331c0 -270 -208 -328 -262 -338c81 -105 161 -149 275 -152v-18c-16 -1 -24 -1 -41 -1c-263 0 -339 113 -395 177c-115 39 -231 132 -231 330c0 203 136 347 327 347s327 -144 327 -345zM575 333c0 187 -84 307 -210 307c-173 0 -216 -184 -216 -305
c0 -248 122 -313 213 -313c170 0 213 185 213 311z" />
    <glyph glyph-name="R" unicode="R" horiz-adv-x="667" 
d="M291 662c98 0 254 -26 254 -176c0 -138 -140 -159 -181 -167l206 -253c29 -34 49 -44 87 -47v-19h-161l-238 308l-56 -2v-197c0 -72 13 -85 90 -90v-19h-277v19c75 6 85 18 85 101v433c0 71 -10 82 -85 90v19h276zM202 343c148 3 234 28 234 145c0 94 -58 137 -183 137
c-40 0 -51 -8 -51 -36v-246z" />
    <glyph glyph-name="S" unicode="S" horiz-adv-x="529" 
d="M378 135c0 171 -319 165 -319 370c0 106 84 171 173 171c74 0 119 -34 150 -34c17 0 28 11 32 34h21l22 -213h-25c-34 124 -110 172 -183 172c-62 0 -104 -38 -104 -93c0 -54 42 -98 147 -156c132 -71 187 -136 187 -218c0 -103 -89 -182 -204 -182
c-87 0 -128 34 -165 34c-15 0 -27 -14 -28 -33h-22l-30 212h23c50 -122 113 -177 202 -177c73 0 123 46 123 113z" />
    <glyph glyph-name="T" unicode="T" horiz-adv-x="606" 
d="M252 620h-54c-112 0 -135 -19 -159 -128h-24l6 170h564l6 -170h-24c-23 110 -45 128 -159 128h-54v-511c0 -73 14 -86 96 -90v-19h-292v19c83 5 94 16 94 101v500z" />
    <glyph glyph-name="U" unicode="U" horiz-adv-x="721" 
d="M207 233c0 -122 34 -203 172 -203c75 0 139 31 166 79c16 30 23 68 23 136v270c0 100 -16 122 -94 128v19h232v-19c-82 -10 -94 -26 -94 -128v-261c0 -143 -42 -268 -256 -268c-170 0 -251 82 -251 255v312c0 73 -11 84 -90 90v19h283v-19c-80 -7 -91 -18 -91 -90v-320z
" />
    <glyph glyph-name="V" unicode="V" horiz-adv-x="701" 
d="M691 662v-19c-48 -3 -60 -13 -92 -93l-222 -561h-15l-246 549c-40 90 -57 103 -106 105v19h266v-19c-14 -1 -25 -2 -29 -2c-32 -2 -46 -12 -46 -31c0 -15 8 -38 41 -111l151 -338l147 367c12 30 19 57 19 73c0 28 -18 39 -73 42v19h205z" />
    <glyph glyph-name="W" unicode="W" horiz-adv-x="947" 
d="M937 662v-19c-53 -10 -64 -19 -83 -71c-109 -294 -119 -322 -204 -583h-15l-160 423l-154 -423h-15l-193 537c-34 95 -52 112 -103 117v19h245v-19c-51 -3 -65 -10 -65 -32c0 -11 4 -28 11 -46l144 -376l107 282l-33 82c-32 81 -44 89 -101 90v19h267v-19
c-54 -1 -77 -11 -77 -35c0 -17 12 -42 27 -81l132 -341l125 339c10 28 16 54 16 75c0 27 -18 38 -69 43v19h198z" />
    <glyph glyph-name="X" unicode="X" horiz-adv-x="714" 
d="M696 662v-19c-64 -4 -85 -15 -149 -94l-146 -182l192 -274c41 -59 58 -68 111 -74v-19h-297v19c50 5 77 11 77 31c0 15 -18 49 -51 98l-95 140l-119 -148c-37 -46 -52 -71 -52 -86c0 -23 18 -31 76 -35v-19h-233v19c51 4 58 7 145 114l157 193l-109 160
c-96 141 -116 154 -181 157v19h302v-19l-28 -1c-33 -1 -48 -9 -48 -29c0 -22 24 -65 85 -150l42 -59l113 138c29 36 40 54 40 69c0 23 -16 30 -70 32v19h238z" />
    <glyph glyph-name="Y" unicode="Y" horiz-adv-x="701" 
d="M691 662v-19c-51 -4 -79 -24 -138 -114l-148 -226v-194c0 -76 14 -88 103 -90v-19h-306v19c91 4 101 14 101 101v174l-131 192c-97 143 -114 155 -162 157v19h280v-19c-41 -3 -71 -8 -71 -30c0 -11 6 -28 17 -44l148 -222l143 226c9 15 14 27 14 37c0 24 -17 32 -69 33
v19h219z" />
    <glyph glyph-name="Z" unicode="Z" horiz-adv-x="613" 
d="M403 38c135 0 152 72 172 138h23l-24 -176h-564v15l437 609h-221c-142 0 -156 -65 -168 -133h-26l20 171h526v-15l-432 -609h257z" />
    <glyph glyph-name="bracketleft" unicode="[" horiz-adv-x="333" 
d="M299 -131v-25h-211v818h211v-25h-90c-32 0 -45 -13 -45 -44v-672c0 -35 16 -52 49 -52h86z" />
    <glyph glyph-name="backslash" unicode="\" horiz-adv-x="296" 
d="M0 676h67l229 -690h-68z" />
    <glyph glyph-name="bracketright" unicode="]" horiz-adv-x="333" 
d="M34 637v25h211v-818h-211v25h90c32 0 45 13 45 44v672c0 35 -16 52 -49 52h-86z" />
    <glyph glyph-name="asciicircum" unicode="^" horiz-adv-x="469" 
d="M92 297h-68l181 365h60l181 -365h-68l-143 289z" />
    <glyph glyph-name="underscore" unicode="_" horiz-adv-x="500" 
d="M500 -125h-500v50h500v-50z" />
    <glyph glyph-name="grave" unicode="`" horiz-adv-x="250" 
d="M242 507h-40l-154 97c-18 12 -29 27 -29 43c0 19 13 31 34 31c15 0 24 -5 42 -23z" />
    <glyph glyph-name="a" unicode="a" horiz-adv-x="435" 
d="M25 97c0 108 126 145 250 195v61c0 54 -27 83 -76 83c-40 0 -72 -22 -72 -49c0 -14 5 -31 5 -40c0 -22 -21 -42 -45 -42c-23 0 -43 20 -43 43c0 63 74 112 168 112c116 0 144 -60 144 -160v-195c0 -44 7 -58 30 -58c15 0 27 5 44 19v-26c-35 -38 -56 -50 -90 -50
c-41 0 -59 21 -64 73c-61 -52 -102 -73 -146 -73c-61 0 -105 44 -105 107zM275 123v145c-121 -44 -162 -80 -162 -139c0 -60 38 -81 63 -81c21 0 49 9 73 23c21 12 26 21 26 52z" />
    <glyph glyph-name="b" unicode="b" horiz-adv-x="500" 
d="M160 681v-306c20 49 78 85 139 85c100 0 176 -94 176 -217c0 -143 -102 -253 -234 -253c-80 0 -165 33 -165 64v519c0 42 -9 51 -49 51c-7 0 -11 0 -17 -1v16c49 12 97 26 145 44zM160 322v-252c0 -25 45 -48 97 -48c82 0 130 64 130 175c0 122 -50 200 -128 200
c-52 0 -99 -36 -99 -75z" />
    <glyph glyph-name="c" unicode="c" horiz-adv-x="444" 
d="M25 213c0 154 108 247 219 247c84 0 154 -47 154 -103c0 -23 -22 -42 -48 -42c-21 0 -39 18 -47 46l-6 22c-10 37 -23 48 -59 48c-81 0 -136 -71 -136 -174c0 -115 64 -195 155 -195c57 0 93 24 141 94l14 -9c-21 -41 -79 -157 -197 -157c-111 0 -190 93 -190 223z" />
    <glyph glyph-name="d" unicode="d" horiz-adv-x="499" 
d="M342 -10l-4 3v64c-34 -47 -72 -67 -128 -67c-110 0 -185 87 -185 215c0 142 93 255 208 255c40 0 67 -11 105 -43v156c0 41 -9 51 -46 51c-8 0 -14 0 -22 -1v16c64 17 99 27 147 44l5 -2v-567c0 -46 8 -57 44 -57c3 0 5 0 23 1v-16zM249 42c57 0 89 43 89 60v230
c0 53 -49 100 -102 100c-76 0 -125 -74 -125 -187c0 -123 55 -203 138 -203z" />
    <glyph glyph-name="e" unicode="e" horiz-adv-x="444" 
d="M97 277c6 -178 91 -218 156 -218c64 0 107 29 155 105l16 -7c-42 -108 -117 -167 -212 -167c-115 0 -187 86 -187 224c0 149 88 246 209 246c103 0 156 -62 171 -183h-308zM99 309h204c-13 87 -37 115 -98 115s-95 -37 -106 -115z" />
    <glyph glyph-name="f" unicode="f" horiz-adv-x="373" 
d="M331 580c-48 0 -41 75 -98 75c-38 0 -57 -31 -57 -89v-116h123v-32h-122v-314c0 -75 11 -86 93 -89v-15h-260v15c72 4 83 16 83 89v314h-82v32h82c2 139 44 233 176 233c60 0 104 -26 104 -62c0 -23 -19 -41 -42 -41z" />
    <glyph glyph-name="g" unicode="g" horiz-adv-x="467" 
d="M60 54c0 26 10 35 89 109c-66 33 -93 71 -93 134c0 91 74 163 167 163c75 0 96 -33 157 -33h77v-39h-83c14 -32 19 -55 19 -84c0 -96 -76 -155 -156 -155c-11 0 -46 4 -57 5c-27 -8 -60 -43 -60 -63c0 -16 25 -25 78 -27l129 -6c74 -3 121 -45 121 -107
c0 -101 -142 -169 -260 -169c-95 0 -173 44 -173 97c0 37 27 70 98 122c-41 20 -53 32 -53 53zM134 -2c-42 -50 -49 -63 -49 -86c0 -44 58 -73 146 -73c113 0 189 39 189 97c0 36 -33 49 -124 49c-49 0 -129 6 -162 13zM316 265c0 33 -15 167 -103 167
c-46 0 -74 -35 -74 -94c0 -127 61 -164 102 -164c46 0 75 35 75 91z" />
    <glyph glyph-name="h" unicode="h" horiz-adv-x="498" 
d="M158 343v-241c0 -69 10 -81 68 -87v-15h-216v15c58 8 64 17 64 87v471c0 43 -7 52 -46 52c-4 0 -13 -1 -17 -2v16c57 15 86 24 142 44l5 -3v-304c46 60 88 84 147 84c81 0 123 -54 123 -159v-199c0 -69 6 -77 60 -87v-15h-212v15c58 6 68 19 68 87v198
c0 70 -25 106 -75 106c-39 0 -69 -17 -111 -63z" />
    <glyph glyph-name="i" unicode="i" horiz-adv-x="278" 
d="M62 393c-9 0 -27 -1 -42 -3v15c52 15 103 34 155 55l4 -3v-355c0 -72 8 -82 74 -87v-15h-237v15c69 4 79 15 79 87v232c0 44 -9 59 -33 59zM128 683c29 0 52 -23 52 -51c0 -29 -23 -51 -52 -51c-28 0 -50 23 -50 51s23 51 50 51z" />
    <glyph glyph-name="j" unicode="j" horiz-adv-x="348" 
d="M147 393c-24 0 -45 -3 -45 -3v16c59 18 97 31 156 54l5 -3v-457c0 -142 -59 -218 -169 -218c-54 0 -94 23 -94 55c0 22 18 39 41 39c41 0 52 -60 90 -60c42 0 48 45 48 139v379c0 43 -9 59 -32 59zM212 683c29 0 52 -23 52 -51c0 -29 -23 -51 -52 -51
c-28 0 -50 23 -50 51s23 51 50 51z" />
    <glyph glyph-name="k" unicode="k" horiz-adv-x="513" 
d="M10 623v16c62 15 100 26 155 44l4 -2v-420l137 122c14 12 23 26 23 34c0 14 -11 18 -50 19v14h204v-15c-49 0 -82 -1 -216 -126l-29 -27l153 -194c42 -51 73 -70 117 -73v-15h-218v15c27 0 40 2 40 15c0 10 -13 22 -21 34l-140 187v-171c0 -48 6 -54 75 -65v-15h-234v15
c72 12 75 15 75 67v482c0 48 -10 61 -43 61c-10 0 -20 -1 -32 -2z" />
    <glyph glyph-name="l" unicode="l" horiz-adv-x="258" 
d="M10 623v16c69 17 107 27 159 44l4 -2v-597c0 -55 12 -65 75 -69v-15h-236v15c63 5 77 18 77 72v477c0 47 -10 61 -42 61c-13 0 -24 -1 -37 -2z" />
    <glyph glyph-name="m" unicode="m" horiz-adv-x="779" 
d="M13 398v17c55 15 89 26 140 45l7 -2v-75c83 63 111 77 155 77c54 0 88 -27 106 -84c54 58 105 84 163 84c77 0 116 -60 116 -178v-206c0 -39 13 -57 43 -59l26 -2v-15h-219v15c58 7 66 15 66 72v211c0 83 -18 110 -75 110c-46 0 -79 -18 -109 -61v-252
c0 -62 15 -79 72 -80v-15h-224v15c57 4 68 15 68 71v217c0 70 -22 105 -66 105c-29 0 -87 -13 -118 -59v-282c0 -39 15 -50 68 -52v-15h-222v15c56 1 70 16 70 70v253c0 48 -9 64 -35 64c-11 0 -19 -1 -32 -4z" />
    <glyph glyph-name="n" unicode="n" horiz-adv-x="489" 
d="M10 398v17c55 16 89 27 138 45l7 -2v-79c68 64 99 81 145 81c74 0 118 -56 118 -150v-229c0 -49 12 -61 61 -66v-15h-208v15c50 4 63 21 63 84v209c0 66 -24 97 -73 97c-33 0 -55 -12 -103 -57v-281c0 -36 15 -48 66 -52v-15h-212v15c51 4 62 18 62 75v248
c0 49 -9 64 -37 64c-11 0 -21 -1 -27 -4z" />
    <glyph glyph-name="o" unicode="o" horiz-adv-x="491" 
d="M246 460c128 0 220 -95 220 -226c0 -138 -96 -244 -222 -244s-219 101 -219 236c0 138 91 234 221 234zM115 275c0 -139 55 -257 141 -257c75 0 120 68 120 181c0 137 -59 233 -143 233c-71 0 -118 -62 -118 -157z" />
    <glyph glyph-name="p" unicode="p" horiz-adv-x="500" 
d="M14 393v16c55 17 90 30 144 51l6 -2v-77c44 54 88 79 144 79c97 0 167 -89 167 -213c0 -145 -92 -257 -210 -257c-42 0 -66 10 -101 43v-157c0 -63 13 -74 88 -75v-18h-242v17c59 6 70 17 70 69v468c0 47 -7 57 -41 57c-9 0 -16 0 -25 -1zM164 334v-246
c0 -30 57 -66 104 -66c72 0 121 75 121 186c0 116 -49 192 -123 192c-46 0 -102 -36 -102 -66z" />
    <glyph glyph-name="q" unicode="q" horiz-adv-x="499" 
d="M361 425l54 32h11v-598c0 -42 8 -50 63 -62v-14h-236v17c71 5 89 20 89 76v188c-44 -48 -99 -74 -157 -74c-94 0 -160 89 -160 215c0 144 96 256 221 256c39 0 69 -9 115 -36zM111 241c0 -74 26 -190 131 -190c31 0 64 12 86 31c10 8 14 21 14 45v206
c0 67 -31 100 -93 100c-85 0 -138 -74 -138 -192z" />
    <glyph glyph-name="r" unicode="r" horiz-adv-x="345" 
d="M301 362c-27 0 -50 35 -66 35c-27 0 -70 -50 -70 -82v-225c0 -57 17 -72 85 -75v-15h-240v15c64 12 71 19 71 69v250c0 44 -9 60 -34 60c-12 0 -21 -1 -35 -4v16c59 19 95 32 148 54l5 -2v-92c49 71 78 94 120 94c34 0 55 -20 55 -53c0 -28 -15 -45 -39 -45z" />
    <glyph glyph-name="s" unicode="s" horiz-adv-x="367" 
d="M268 440c6 0 10 6 16 10h11l4 -136h-15c-23 89 -53 123 -110 123c-46 0 -77 -28 -77 -68c0 -27 15 -52 43 -68l108 -64c60 -36 84 -69 84 -119c0 -70 -64 -128 -141 -128c-45 0 -94 18 -119 18c-12 0 -16 -2 -23 -12h-13v156h16c9 -40 25 -140 127 -140c51 0 83 28 83 72
c0 31 -17 55 -52 75l-58 33c-85 48 -117 88 -117 144c0 72 57 123 136 123c58 0 75 -19 97 -19z" />
    <glyph glyph-name="t" unicode="t" horiz-adv-x="283" 
d="M259 450v-32h-101v-286c0 -63 15 -90 52 -90c22 0 39 10 60 35l13 -11c-33 -52 -71 -76 -120 -76c-59 0 -89 43 -89 127v301h-53c-3 2 -4 4 -4 7c0 20 25 -2 114 126c7 10 13 19 20 28c6 0 7 -3 7 -13v-116h101z" />
    <glyph glyph-name="u" unicode="u" horiz-adv-x="490" 
d="M480 50v-14c-51 -14 -87 -25 -137 -45l-4 2v83c-35 -35 -74 -86 -146 -86c-73 0 -121 51 -121 130v252c0 46 -14 61 -62 64v14h146v-326c0 -42 32 -76 71 -76c20 0 107 11 107 87v235c0 50 -12 60 -74 63v17h158v-343c0 -46 11 -57 57 -57h5z" />
    <glyph glyph-name="v" unicode="v" horiz-adv-x="468" 
d="M463 450v-15c-30 -3 -38 -9 -65 -78l-128 -321c-15 -37 -22 -50 -28 -50c-5 0 -12 4 -26 47l-120 287c-44 104 -53 113 -91 115v15h196v-15c-35 -3 -46 -10 -46 -28c0 -9 3 -23 9 -37l102 -256l99 259c4 10 6 20 6 30c0 19 -15 29 -47 32v15h139z" />
    <glyph glyph-name="w" unicode="w" horiz-adv-x="683" 
d="M335 310c-36 109 -46 120 -89 125v15h203v-15c-47 -7 -58 -14 -58 -36c0 -13 0 -13 17 -59l84 -224l90 222c11 27 17 51 17 66c0 17 -10 24 -44 31v15h123v-15c-20 -7 -24 -12 -41 -54l-138 -346c-16 -40 -21 -49 -28 -49c-6 0 -10 6 -24 43l-91 236l-112 -240
c-12 -26 -20 -39 -25 -39c-6 0 -14 14 -26 44l-135 342c-20 52 -30 61 -53 63v15h180v-15c-34 -4 -46 -12 -46 -33c0 -10 2 -20 6 -30l99 -261z" />
    <glyph glyph-name="x" unicode="x" horiz-adv-x="482" 
d="M241 304c38 58 67 87 67 109c0 14 -10 20 -40 22v15h158v-15c-32 -1 -62 -17 -81 -44l-83 -120l128 -196c29 -45 51 -60 82 -60v-15h-201v15c33 2 40 6 40 24c0 6 -2 12 -6 18l-91 140l-79 -123c-13 -20 -20 -35 -20 -41c0 -13 12 -18 40 -18v-15h-145v15
c33 3 44 9 73 51l114 165l-94 144c-38 58 -53 59 -86 60v15h207v-15c-30 -1 -43 -8 -43 -22c0 -13 18 -47 46 -89z" />
    <glyph glyph-name="y" unicode="y" horiz-adv-x="471" 
d="M142 -134c41 0 90 123 90 153c0 15 -18 50 -44 101l-132 284c-8 17 -25 28 -51 32v14h206v-15c-43 -2 -58 -9 -58 -27c0 -11 4 -24 10 -38l115 -253l97 276c3 7 4 13 4 17c0 16 -16 25 -48 25v15h135v-15c-24 -3 -36 -13 -48 -45l-154 -408c-54 -144 -102 -200 -169 -200
c-42 0 -74 25 -74 58c0 24 20 44 43 44c38 0 61 -18 78 -18z" />
    <glyph glyph-name="z" unicode="z" horiz-adv-x="417" 
d="M255 30c106 0 113 33 128 109l18 -4l-14 -135h-377v15l266 405h-138c-60 0 -75 -15 -84 -88h-18l3 118h347v-15l-269 -405h138z" />
    <glyph glyph-name="braceleft" unicode="{" horiz-adv-x="480" 
d="M350 -181c-107 2 -165 21 -165 140v177c0 69 -18 93 -85 114c67 20 85 43 85 113v178c0 119 59 137 165 139v-11c-69 -18 -91 -48 -91 -123v-168c0 -83 -19 -109 -94 -129c75 -19 94 -45 94 -128v-168c0 -75 22 -105 91 -123v-11z" />
    <glyph glyph-name="bar" unicode="|" horiz-adv-x="200" 
d="M67 -14v690h66v-690h-66z" />
    <glyph glyph-name="braceright" unicode="}" horiz-adv-x="480" 
d="M130 680c107 -2 165 -21 165 -140v-177c0 -69 18 -93 85 -114c-67 -20 -85 -43 -85 -113v-178c0 -119 -59 -137 -165 -139v11c69 18 91 48 91 123v168c0 83 19 109 94 129c-75 19 -94 45 -94 128v168c0 75 -22 105 -91 123v11z" />
    <glyph glyph-name="asciitilde" unicode="~" horiz-adv-x="500" 
d="M142 320c95 0 136 -68 211 -68c31 0 48 12 74 51l54 -32c-46 -64 -77 -85 -123 -85c-95 0 -136 68 -211 68c-31 0 -48 -12 -74 -51l-54 32c46 64 77 85 123 85z" />
    <glyph glyph-name="nonbreakingspace" unicode="&#xa0;" horiz-adv-x="250" 
 />
    <glyph glyph-name="exclamdown" unicode="&#xa1;" horiz-adv-x="333" 
d="M144 282h13c24 -287 46 -350 46 -423c0 -47 -20 -77 -53 -77c-34 0 -53 28 -53 80c0 70 22 134 47 420zM150 360c-30 0 -54 25 -54 55s23 52 55 52c30 0 52 -22 52 -52c0 -31 -23 -55 -53 -55z" />
    <glyph glyph-name="cent" unicode="&#xa2;" horiz-adv-x="500" 
d="M169 12c-106 60 -116 163 -116 207c0 135 96 241 220 241c14 0 27 -1 51 -5l44 124h35l-47 -135c48 -19 75 -49 75 -84c0 -26 -18 -45 -43 -45s-40 13 -58 52l-101 -291c24 -9 39 -12 59 -12c59 0 95 25 147 100l13 -8c-24 -50 -76 -165 -191 -165c-17 0 -32 2 -56 9
l-49 -138h-34zM198 98l115 323c-18 7 -30 9 -47 9c-82 0 -136 -68 -136 -170c0 -72 19 -117 68 -162z" />
    <glyph glyph-name="sterling" unicode="&#xa3;" horiz-adv-x="500" 
d="M490 136c0 -28 -53 -143 -168 -143c-43 0 -76 14 -144 61c-40 -47 -63 -62 -98 -62c-41 0 -68 24 -68 62c0 46 37 76 91 76c15 0 27 -1 46 -5c3 8 4 14 4 21c0 18 -2 35 -22 182h-108v45h107c-5 26 -7 45 -7 69c0 143 76 234 195 234c74 0 130 -40 130 -93
c0 -31 -21 -53 -50 -53c-30 0 -38 14 -39 67c-1 35 -19 52 -56 52c-60 0 -95 -51 -95 -139c0 -36 3 -69 11 -137h125v-45h-121c1 -22 1 -36 1 -55c0 -35 -1 -40 -25 -162c65 -27 100 -35 149 -35c99 0 110 65 136 65c4 0 6 -2 6 -5zM79 20c43 0 63 45 63 56
c0 8 -29 18 -53 18c-33 0 -51 -13 -51 -37c0 -22 17 -37 41 -37z" />
    <glyph glyph-name="currency" unicode="&#xa4;" horiz-adv-x="500" 
d="M-22 108l98 96c-29 42 -41 79 -41 126c0 48 12 86 41 126l-98 98l50 48l96 -96c45 29 78 39 127 39c48 0 86 -12 125 -39l98 96l48 -48l-96 -98c29 -43 39 -76 39 -125c0 -48 -10 -82 -39 -127l96 -96l-48 -50l-98 98c-39 -28 -78 -41 -125 -41c-46 0 -85 13 -127 41
l-96 -98zM253 481c-84 0 -150 -67 -150 -151c0 -83 66 -151 148 -151c81 0 146 67 146 152c0 82 -65 150 -144 150z" />
    <glyph glyph-name="yen" unicode="&#xa5;" horiz-adv-x="500" 
d="M190 182h-174v40h174v76l-7 14h-167v40h144l-95 173c-55 99 -72 115 -118 118v19h243v-19c-47 -1 -65 -9 -65 -29c0 -13 5 -29 13 -45l118 -221l112 220c9 17 14 34 14 44c0 25 -29 31 -65 31v19h195v-19c-51 -11 -83 -37 -118 -107l-92 -184h146v-40h-166l-7 -14v-76
h173v-40h-173v-73c0 -70 16 -88 80 -90v-19h-244v19c67 3 79 18 79 101v62z" />
    <glyph glyph-name="brokenbar" unicode="&#xa6;" horiz-adv-x="200" 
d="M67 -14v276h66v-276h-66zM67 400v276h66v-276h-66z" />
    <glyph glyph-name="section" unicode="&#xa7;" horiz-adv-x="500" 
d="M279 568c0 32 34 45 34 55c0 18 -28 32 -62 32c-51 0 -85 -29 -85 -71c0 -25 14 -54 34 -71l137 -113c58 -48 89 -102 89 -155c0 -70 -48 -121 -116 -121c-6 0 -11 0 -18 1c75 -65 94 -95 94 -146c0 -76 -57 -127 -144 -127c-78 0 -138 44 -138 100c0 31 23 54 54 54
c27 0 48 -18 48 -42c0 -31 -34 -44 -34 -56c0 -18 34 -35 71 -35c53 0 87 30 87 77c0 118 -260 161 -260 336c0 68 49 119 115 119c6 0 15 0 25 -1c-80 66 -100 96 -100 150c0 72 56 122 139 122c73 0 128 -42 128 -98c0 -33 -19 -53 -51 -53c-27 0 -47 18 -47 43zM374 212
c0 76 -140 171 -183 171c-39 0 -68 -28 -68 -67c0 -68 119 -170 182 -170c37 0 69 31 69 66z" />
    <glyph glyph-name="dieresis" unicode="&#xa8;" horiz-adv-x="333" 
d="M265 622c28 0 51 -23 51 -50s-23 -49 -51 -49c-27 0 -48 22 -48 50c0 26 23 49 48 49zM66 622c28 0 51 -23 51 -50s-23 -49 -51 -49c-27 0 -48 22 -48 50c0 26 23 49 48 49z" />
    <glyph glyph-name="copyright" unicode="&#xa9;" horiz-adv-x="793" 
d="M401 676c-185 0 -334 -145 -334 -326c0 -184 147 -332 329 -332c181 0 329 148 329 329c0 180 -148 329 -324 329zM402 717c198 0 364 -165 364 -370c0 -201 -166 -370 -370 -370c-208 0 -370 161 -370 373c0 206 168 367 376 367zM203 337c0 127 89 211 201 211
c65 0 89 -20 111 -20c12 0 22 7 25 20h13l5 -136h-14c-16 57 -51 112 -129 112c-87 0 -142 -71 -142 -179c0 -147 81 -185 148 -185c50 0 90 18 134 61l11 -11c-37 -49 -96 -76 -164 -76c-117 0 -199 80 -199 203z" />
    <glyph glyph-name="ordfeminine" unicode="&#xaa;" horiz-adv-x="276" 
d="M10 333h246v-63h-246v63zM76 625c0 -9 3 -14 3 -22c0 -13 -15 -25 -31 -25c-18 0 -32 14 -32 31c0 39 46 67 108 67c70 0 105 -32 105 -96v-115c0 -29 2 -35 13 -35c10 0 18 4 28 12v-18c-23 -23 -37 -30 -59 -30c-27 0 -39 12 -45 44c-33 -30 -61 -44 -91 -44
c-41 0 -71 28 -71 68c0 64 82 88 153 114v30c0 27 -13 42 -36 42c-22 0 -45 -12 -45 -23zM105 441c27 0 53 12 53 33v77c-70 -25 -91 -40 -91 -66c0 -24 17 -44 38 -44z" />
    <glyph glyph-name="guillemotleft" unicode="&#xab;" horiz-adv-x="500" 
d="M329 224c49 -74 128 -150 128 -182c0 -5 -4 -9 -9 -9c-10 0 -5 8 -212 189c213 193 209 194 212 194c5 0 10 -5 10 -10c0 -31 -82 -119 -129 -182zM135 224c49 -74 128 -150 128 -182c0 -5 -4 -9 -9 -9c-10 0 -5 8 -212 189c213 193 209 194 212 194c5 0 10 -5 10 -10
c0 -31 -82 -119 -129 -182z" />
    <glyph glyph-name="logicalnot" unicode="&#xac;" horiz-adv-x="564" 
d="M468 108v212h-438v66h504v-278h-66z" />
    <glyph glyph-name="softhyphen" unicode="&#xad;" horiz-adv-x="333" 
d="M39 257h246v-63h-246v63z" />
    <glyph glyph-name="registered" unicode="&#xae;" horiz-adv-x="792" 
d="M391 539c58 0 152 -15 152 -105c0 -83 -84 -96 -109 -101l124 -151c17 -21 29 -27 52 -29v-11h-96l-143 185l-34 -1v-119c0 -43 8 -51 54 -54v-11h-166v11c45 4 51 11 51 61v260c0 42 -6 49 -51 54v11h166zM337 348c89 2 141 17 141 87c0 56 -35 82 -110 82
c-24 0 -31 -5 -31 -22v-147zM401 676c-185 0 -334 -145 -334 -326c0 -184 147 -332 329 -332c181 0 329 148 329 329c0 180 -148 329 -324 329zM402 717c198 0 364 -165 364 -370c0 -201 -166 -370 -370 -370c-208 0 -370 161 -370 373c0 206 168 367 376 367z" />
    <glyph glyph-name="macron" unicode="&#xaf;" horiz-adv-x="333" 
d="M11 601h311v-54h-311v54z" />
    <glyph glyph-name="degree" unicode="&#xb0;" horiz-adv-x="400" 
d="M200 676c80 0 143 -63 143 -144c0 -80 -64 -142 -145 -142c-78 0 -141 64 -141 143c0 80 63 143 143 143zM200 642c-57 0 -104 -50 -104 -109s47 -109 103 -109c58 0 105 49 105 109c0 59 -48 109 -104 109z" />
    <glyph glyph-name="plusminus" unicode="&#xb1;" horiz-adv-x="564" 
d="M30 0v66h504v-66h-504zM249 413v220h66v-220h219v-66h-219v-220h-66v220h-219v66h219z" />
    <glyph glyph-name="twosuperior" unicode="&#xb2;" horiz-adv-x="320" 
d="M13 714c7 32 33 136 142 136c71 0 129 -53 129 -121c0 -53 -20 -106 -81 -168l-110 -111h143c31 0 39 2 64 37l15 -4l-37 -93h-266v10l121 129c57 61 85 121 85 174c0 57 -35 92 -92 92c-43 0 -65 -21 -95 -85z" />
    <glyph glyph-name="threesuperior" unicode="&#xb3;" horiz-adv-x="320" 
d="M55 451c33 0 57 -38 101 -38c46 0 81 36 81 93c0 93 -75 106 -133 106v13c51 18 105 43 105 111c0 43 -29 65 -67 65c-43 0 -69 -15 -97 -65l-14 4c18 51 51 110 134 110c63 0 106 -38 106 -93c0 -37 -17 -62 -64 -94c46 -20 87 -50 87 -124c0 -98 -74 -159 -188 -159
c-48 0 -77 16 -77 42c0 17 10 29 26 29z" />
    <glyph glyph-name="acute" unicode="&#xb4;" horiz-adv-x="250" 
d="M50 507h-40l147 148c18 18 27 23 42 23c22 0 35 -12 35 -32c0 -16 -9 -29 -30 -42z" />
    <glyph glyph-name="micro" unicode="&#xb5;" horiz-adv-x="500" 
d="M36 -148c0 52 24 158 24 202v396h88v-306c0 -57 32 -92 84 -92c46 0 86 23 110 63v335h88v-358c0 -46 10 -65 32 -65c15 0 27 7 50 28v-8c-33 -43 -56 -57 -94 -57c-48 0 -71 28 -73 90c-40 -62 -82 -90 -137 -90c-51 0 -87 23 -117 74c12 -108 37 -126 37 -205
c0 -51 -15 -77 -46 -77c-29 0 -46 26 -46 70z" />
    <glyph glyph-name="paragraph" unicode="&#xb6;" horiz-adv-x="483" 
d="M202 273c-116 4 -194 51 -194 204c0 130 62 185 209 185h263v-19c-77 -7 -88 -18 -88 -90v-595c0 -71 12 -84 88 -90v-22h-154v794h-58v-794h-154v22c78 5 88 17 88 101v304zM202 640c-74 -6 -118 -29 -118 -159c0 -126 32 -177 118 -186v345z" />
    <glyph glyph-name="middot" unicode="&#xb7;" horiz-adv-x="250" 
d="M123 282c28 0 51 -23 51 -50s-23 -49 -51 -49c-27 0 -48 22 -48 50c0 26 23 49 48 49z" />
    <glyph glyph-name="cedilla" unicode="&#xb8;" horiz-adv-x="333" 
d="M98 -99l41 99h35l-25 -65c10 2 16 3 26 3c54 0 86 -26 86 -69c0 -52 -48 -84 -125 -84c-32 0 -55 4 -84 16l14 31c28 -9 44 -12 65 -12c34 0 55 17 55 44c0 26 -15 36 -53 36c-11 0 -20 -1 -28 -4z" />
    <glyph glyph-name="onesuperior" unicode="&#xb9;" horiz-adv-x="320" 
d="M116 789c-10 0 -22 -4 -49 -15v14l123 62l9 -2v-404c0 -33 7 -39 61 -40v-14h-188v14c48 1 61 9 61 53v300c0 22 -3 32 -17 32z" />
    <glyph glyph-name="ordmasculine" unicode="&#xba;" horiz-adv-x="310" 
d="M30 333h246v-63h-246v63zM159 676c85 0 145 -55 145 -134c0 -84 -66 -148 -153 -148c-84 0 -145 59 -145 139c0 85 62 143 153 143zM79 569c0 -79 31 -142 81 -142c46 0 71 31 71 87c0 75 -33 129 -81 129c-43 0 -71 -29 -71 -74z" />
    <glyph glyph-name="guillemotright" unicode="&#xbb;" horiz-adv-x="500" 
d="M365 225c-49 74 -128 150 -128 182c0 5 4 9 9 9c10 0 5 -8 212 -189c-213 -193 -209 -194 -212 -194c-5 0 -10 5 -10 10c0 31 82 119 129 182zM171 225c-49 74 -128 150 -128 182c0 5 4 9 9 9c10 0 5 -8 212 -189c-213 -193 -209 -194 -212 -194c-5 0 -10 5 -10 10
c0 31 82 119 129 182z" />
    <glyph glyph-name="onequarter" unicode="&#xbc;" horiz-adv-x="730" 
d="M704 159v-47h-61v-112h-61v112h-187v47l210 301h38v-301h61zM582 159v221l-158 -221h158zM79 669c-10 0 -22 -4 -49 -15v14l123 62l9 -2v-404c0 -33 7 -39 61 -40v-14h-188v14c48 1 61 9 61 53v300c0 22 -3 32 -17 32zM581 676l-450 -690h-49l453 690h46z" />
    <glyph glyph-name="onehalf" unicode="&#xbd;" horiz-adv-x="750" 
d="M443 324c7 32 33 136 142 136c71 0 129 -53 129 -121c0 -53 -20 -106 -81 -168l-110 -111h143c31 0 39 2 64 37l15 -4l-37 -93h-266v10l121 129c57 61 85 121 85 174c0 57 -35 92 -92 92c-43 0 -65 -21 -95 -85zM79 669c-10 0 -22 -4 -49 -15v14l123 62l9 -2v-404
c0 -33 7 -39 61 -40v-14h-188v14c48 1 61 9 61 53v300c0 22 -3 32 -17 32zM581 676l-450 -690h-49l453 690h46z" />
    <glyph glyph-name="threequarters" unicode="&#xbe;" horiz-adv-x="750" 
d="M621 676l-450 -690h-49l453 690h46zM55 330c33 0 57 -38 101 -38c46 0 81 36 81 93c0 93 -75 106 -133 106v13c51 18 105 43 105 111c0 43 -29 65 -67 65c-43 0 -69 -15 -97 -65l-14 4c18 51 51 110 134 110c63 0 106 -38 106 -93c0 -37 -17 -62 -64 -94
c46 -20 87 -50 87 -124c0 -98 -74 -159 -188 -159c-48 0 -77 16 -77 42c0 17 10 29 26 29zM704 159v-47h-61v-112h-61v112h-187v47l210 301h38v-301h61zM582 159v221l-158 -221h158z" />
    <glyph glyph-name="questiondown" unicode="&#xbf;" horiz-adv-x="444" 
d="M213 -218c-97 0 -184 58 -184 155c0 76 49 135 105 203c37 47 54 87 65 154h17c-2 -89 -25 -131 -58 -206c-24 -55 -37 -110 -37 -156c0 -67 48 -120 108 -120c49 0 95 30 95 62c0 21 -38 43 -38 74c0 24 17 41 41 41c31 0 48 -22 48 -62c0 -83 -70 -145 -162 -145z
M206 359c-29 0 -54 25 -54 55s23 52 55 52c30 0 52 -22 52 -51c0 -32 -23 -56 -53 -56z" />
    <glyph glyph-name="Agrave" unicode="&#xc0;" horiz-adv-x="721" 
d="M437 719h-40l-154 97c-18 12 -29 27 -29 43c0 19 13 31 34 31c15 0 24 -5 42 -23zM706 19v-19h-255v19c53 1 70 9 70 34c0 14 -7 40 -19 67l-41 96h-262l-46 -117c-5 -13 -8 -27 -8 -39c0 -28 20 -41 68 -41v-19h-198v19c48 2 62 17 124 164l208 491h20l249 -568
c33 -75 45 -84 90 -87zM216 257h231l-116 275z" />
    <glyph glyph-name="Aacute" unicode="&#xc1;" horiz-adv-x="721" 
d="M320 719h-40l147 148c18 18 27 23 42 23c22 0 35 -12 35 -32c0 -16 -9 -29 -30 -42zM706 19v-19h-255v19c53 1 70 9 70 34c0 14 -7 40 -19 67l-41 96h-262l-46 -117c-5 -13 -8 -27 -8 -39c0 -28 20 -41 68 -41v-19h-198v19c48 2 62 17 124 164l208 491h20l249 -568
c33 -75 45 -84 90 -87zM216 257h231l-116 275z" />
    <glyph glyph-name="Acircumflex" unicode="&#xc2;" horiz-adv-x="721" 
d="M512 719h-34l-122 103l-121 -103h-34l124 167h62zM706 19v-19h-255v19c53 1 70 9 70 34c0 14 -7 40 -19 67l-41 96h-262l-46 -117c-5 -13 -8 -27 -8 -39c0 -28 20 -41 68 -41v-19h-198v19c48 2 62 17 124 164l208 491h20l249 -568c33 -75 45 -84 90 -87zM216 257h231
l-116 275z" />
    <glyph glyph-name="Atilde" unicode="&#xc3;" horiz-adv-x="721" 
d="M497 838h29c-21 -76 -50 -106 -105 -106c-25 0 -40 4 -81 24l-23 11c-15 7 -29 11 -41 11c-23 0 -40 -15 -51 -46h-29c15 65 51 101 101 101c22 0 47 -6 70 -18l24 -12c19 -9 38 -15 53 -15c23 0 36 12 53 50zM706 19v-19h-255v19c53 1 70 9 70 34c0 14 -7 40 -19 67
l-41 96h-262l-46 -117c-5 -13 -8 -27 -8 -39c0 -28 20 -41 68 -41v-19h-198v19c48 2 62 17 124 164l208 491h20l249 -568c33 -75 45 -84 90 -87zM216 257h231l-116 275z" />
    <glyph glyph-name="Adieresis" unicode="&#xc4;" horiz-adv-x="721" 
d="M455 835c28 0 51 -23 51 -50s-23 -49 -51 -49c-27 0 -48 22 -48 50c0 26 23 49 48 49zM256 835c28 0 51 -23 51 -50s-23 -49 -51 -49c-27 0 -48 22 -48 50c0 26 23 49 48 49zM706 19v-19h-255v19c53 1 70 9 70 34c0 14 -7 40 -19 67l-41 96h-262l-46 -117
c-5 -13 -8 -27 -8 -39c0 -28 20 -41 68 -41v-19h-198v19c48 2 62 17 124 164l208 491h20l249 -568c33 -75 45 -84 90 -87zM216 257h231l-116 275z" />
    <glyph glyph-name="Aring" unicode="&#xc5;" horiz-adv-x="721" 
d="M356 895c55 0 100 -45 100 -100s-45 -99 -100 -99c-56 0 -99 44 -99 100c0 54 45 99 99 99zM357 861c-36 0 -66 -29 -66 -65s29 -66 64 -66c37 0 67 29 67 65s-30 66 -65 66zM706 19v-19h-255v19c53 1 70 9 70 34c0 14 -7 40 -19 67l-41 96h-262l-46 -117
c-5 -13 -8 -27 -8 -39c0 -28 20 -41 68 -41v-19h-198v19c48 2 62 17 124 164l208 491h20l249 -568c33 -75 45 -84 90 -87zM216 257h231l-116 275z" />
    <glyph glyph-name="AE" unicode="&#xc6;" horiz-adv-x="888" 
d="M750 229c-8 66 -20 100 -98 100h-145v-238c0 -50 4 -53 69 -53h76c108 0 139 20 197 130h24l-44 -168h-510v19c70 8 89 12 89 89v152h-176l-28 -53c-40 -78 -64 -136 -64 -158c0 -24 61 -30 69 -30v-19h-199v19c43 6 57 16 88 78l245 484c6 11 9 22 9 28
c0 22 -25 31 -90 33v20h564v-141h-23c-13 91 -36 105 -182 105h-87c-19 0 -27 -8 -27 -30v-230h111c89 0 123 10 132 97h21v-234h-21zM249 299h159v319z" />
    <glyph glyph-name="Ccedilla" unicode="&#xc7;" horiz-adv-x="674" 
d="M151 338c0 -244 136 -308 248 -308c83 0 149 30 223 101l18 -18c-60 -81 -160 -127 -273 -127c-8 0 -15 0 -24 1l-20 -52c10 2 16 3 26 3c54 0 86 -26 86 -69c0 -52 -48 -84 -125 -84c-32 0 -55 4 -84 16l14 31c28 -9 44 -12 65 -12c34 0 55 17 55 44c0 26 -15 36 -53 36
c-11 0 -20 -1 -28 -4l-7 5l37 89c-167 24 -274 154 -274 335c0 211 148 351 335 351c109 0 149 -33 185 -33c20 0 36 12 42 33h21l9 -226h-23c-28 95 -86 186 -215 186c-145 0 -238 -117 -238 -298z" />
    <glyph glyph-name="Egrave" unicode="&#xc8;" horiz-adv-x="610" 
d="M382 719h-40l-154 97c-18 12 -29 27 -29 43c0 19 13 31 34 31c15 0 24 -5 42 -23zM204 80c0 -38 7 -43 105 -43h27c143 0 186 24 236 132h28l-45 -169h-540v19c73 5 87 20 87 90v444c0 70 -13 84 -87 90v19h531l3 -143h-25c-17 90 -39 105 -152 105h-135
c-27 0 -33 -6 -33 -34v-222h154c93 0 99 29 110 95h23v-232h-23c-13 83 -28 96 -110 96h-154v-247z" />
    <glyph glyph-name="Eacute" unicode="&#xc9;" horiz-adv-x="610" 
d="M230 719h-40l147 148c18 18 27 23 42 23c22 0 35 -12 35 -32c0 -16 -9 -29 -30 -42zM204 80c0 -38 7 -43 105 -43h27c143 0 186 24 236 132h28l-45 -169h-540v19c73 5 87 20 87 90v444c0 70 -13 84 -87 90v19h531l3 -143h-25c-17 90 -39 105 -152 105h-135
c-27 0 -33 -6 -33 -34v-222h154c93 0 99 29 110 95h23v-232h-23c-13 83 -28 96 -110 96h-154v-247z" />
    <glyph glyph-name="Ecircumflex" unicode="&#xca;" horiz-adv-x="610" 
d="M462 719h-34l-122 103l-121 -103h-34l124 167h62zM204 80c0 -38 7 -43 105 -43h27c143 0 186 24 236 132h28l-45 -169h-540v19c73 5 87 20 87 90v444c0 70 -13 84 -87 90v19h531l3 -143h-25c-17 90 -39 105 -152 105h-135c-27 0 -33 -6 -33 -34v-222h154
c93 0 99 29 110 95h23v-232h-23c-13 83 -28 96 -110 96h-154v-247z" />
    <glyph glyph-name="Edieresis" unicode="&#xcb;" horiz-adv-x="610" 
d="M404 834c28 0 51 -23 51 -50s-23 -49 -51 -49c-27 0 -48 22 -48 50c0 26 23 49 48 49zM205 834c28 0 51 -23 51 -50s-23 -49 -51 -49c-27 0 -48 22 -48 50c0 26 23 49 48 49zM204 80c0 -38 7 -43 105 -43h27c143 0 186 24 236 132h28l-45 -169h-540v19c73 5 87 20 87 90
v444c0 70 -13 84 -87 90v19h531l3 -143h-25c-17 90 -39 105 -152 105h-135c-27 0 -33 -6 -33 -34v-222h154c93 0 99 29 110 95h23v-232h-23c-13 83 -28 96 -110 96h-154v-247z" />
    <glyph glyph-name="Igrave" unicode="&#xcc;" horiz-adv-x="327" 
d="M252 719h-40l-154 97c-18 12 -29 27 -29 43c0 19 13 31 34 31c15 0 24 -5 42 -23zM112 109v444c0 74 -12 85 -97 90v19h297v-19c-84 -4 -98 -17 -98 -90v-444c0 -73 16 -87 98 -90v-19h-297v19c84 3 97 15 97 90z" />
    <glyph glyph-name="Iacute" unicode="&#xcd;" horiz-adv-x="327" 
d="M110 719h-40l147 148c18 18 27 23 42 23c22 0 35 -12 35 -32c0 -16 -9 -29 -30 -42zM112 109v444c0 74 -12 85 -97 90v19h297v-19c-84 -4 -98 -17 -98 -90v-444c0 -73 16 -87 98 -90v-19h-297v19c84 3 97 15 97 90z" />
    <glyph glyph-name="Icircumflex" unicode="&#xce;" horiz-adv-x="327" 
d="M322 719h-34l-122 103l-121 -103h-34l124 167h62zM112 109v444c0 74 -12 85 -97 90v19h297v-19c-84 -4 -98 -17 -98 -90v-444c0 -73 16 -87 98 -90v-19h-297v19c84 3 97 15 97 90z" />
    <glyph glyph-name="Idieresis" unicode="&#xcf;" horiz-adv-x="327" 
d="M265 835c28 0 51 -23 51 -50s-23 -49 -51 -49c-27 0 -48 22 -48 50c0 26 23 49 48 49zM66 835c28 0 51 -23 51 -50s-23 -49 -51 -49c-27 0 -48 22 -48 50c0 26 23 49 48 49zM112 109v444c0 74 -12 85 -97 90v19h297v-19c-84 -4 -98 -17 -98 -90v-444c0 -73 16 -87 98 -90
v-19h-297v19c84 3 97 15 97 90z" />
    <glyph glyph-name="Eth" unicode="&#xd0;" horiz-adv-x="719" 
d="M684 334c0 -138 -77 -334 -385 -334h-284v19c76 5 88 18 88 90v206h-83v44h83v194c0 74 -9 83 -88 90v19h270c317 0 399 -183 399 -328zM575 327c0 115 -48 298 -320 298c-40 0 -50 -8 -50 -39v-227h146v-44h-146v-237c0 -32 12 -41 52 -41c188 0 318 73 318 290z" />
    <glyph glyph-name="Ntilde" unicode="&#xd1;" horiz-adv-x="725" 
d="M497 838h29c-21 -76 -50 -106 -105 -106c-25 0 -40 4 -81 24l-23 11c-15 7 -29 11 -41 11c-23 0 -40 -15 -51 -46h-29c15 65 51 101 101 101c22 0 47 -6 70 -18l24 -12c19 -9 38 -15 53 -15c23 0 36 12 53 50zM710 643c-61 -6 -95 -11 -95 -128v-526h-17l-442 550v-392
c0 -101 17 -124 94 -128v-19h-235v19c83 6 97 25 97 128v441c-40 47 -54 55 -97 55v19h171l385 -484v337c0 104 -19 122 -96 128v19h235v-19z" />
    <glyph glyph-name="Ograve" unicode="&#xd2;" horiz-adv-x="724" 
d="M437 719h-40l-154 97c-18 12 -29 27 -29 43c0 19 13 31 34 31c15 0 24 -5 42 -23zM356 -14c-175 0 -321 135 -321 345c0 201 136 345 327 345c190 0 327 -140 327 -349c0 -201 -136 -341 -333 -341zM575 328c0 249 -125 312 -213 312c-172 0 -213 -187 -213 -311
c0 -121 42 -307 211 -307c172 0 215 186 215 306z" />
    <glyph glyph-name="Oacute" unicode="&#xd3;" horiz-adv-x="724" 
d="M315 719h-40l147 148c18 18 27 23 42 23c22 0 35 -12 35 -32c0 -16 -9 -29 -30 -42zM356 -14c-175 0 -321 135 -321 345c0 201 136 345 327 345c190 0 327 -140 327 -349c0 -201 -136 -341 -333 -341zM575 328c0 249 -125 312 -213 312c-172 0 -213 -187 -213 -311
c0 -121 42 -307 211 -307c172 0 215 186 215 306z" />
    <glyph glyph-name="Ocircumflex" unicode="&#xd4;" horiz-adv-x="724" 
d="M517 719h-34l-122 103l-121 -103h-34l124 167h62zM356 -14c-175 0 -321 135 -321 345c0 201 136 345 327 345c190 0 327 -140 327 -349c0 -201 -136 -341 -333 -341zM575 328c0 249 -125 312 -213 312c-172 0 -213 -187 -213 -311c0 -121 42 -307 211 -307
c172 0 215 186 215 306z" />
    <glyph glyph-name="Otilde" unicode="&#xd5;" horiz-adv-x="724" 
d="M497 838h29c-21 -76 -50 -106 -105 -106c-25 0 -40 4 -81 24l-23 11c-15 7 -29 11 -41 11c-23 0 -40 -15 -51 -46h-29c15 65 51 101 101 101c22 0 47 -6 70 -18l24 -12c19 -9 38 -15 53 -15c23 0 36 12 53 50zM356 -14c-175 0 -321 135 -321 345c0 201 136 345 327 345
c190 0 327 -140 327 -349c0 -201 -136 -341 -333 -341zM575 328c0 249 -125 312 -213 312c-172 0 -213 -187 -213 -311c0 -121 42 -307 211 -307c172 0 215 186 215 306z" />
    <glyph glyph-name="Odieresis" unicode="&#xd6;" horiz-adv-x="724" 
d="M459 835c28 0 51 -23 51 -50s-23 -49 -51 -49c-27 0 -48 22 -48 50c0 26 23 49 48 49zM260 835c28 0 51 -23 51 -50s-23 -49 -51 -49c-27 0 -48 22 -48 50c0 26 23 49 48 49zM356 -14c-175 0 -321 135 -321 345c0 201 136 345 327 345c190 0 327 -140 327 -349
c0 -201 -136 -341 -333 -341zM575 328c0 249 -125 312 -213 312c-172 0 -213 -187 -213 -311c0 -121 42 -307 211 -307c172 0 215 186 215 306z" />
    <glyph glyph-name="multiply" unicode="&#xd7;" horiz-adv-x="564" 
d="M234 253l-196 196l48 48l196 -197l196 197l48 -48l-196 -196l196 -197l-48 -48l-196 197l-196 -197l-48 48z" />
    <glyph glyph-name="Oslash" unicode="&#xd8;" horiz-adv-x="724" 
d="M152 59c-39 35 -117 108 -117 271c0 203 136 346 328 346c66 0 111 -13 175 -49l72 107h49l-88 -130c40 -37 118 -109 118 -273c0 -203 -135 -345 -329 -345c-67 0 -113 13 -175 50l-79 -116h-49zM528 540l-308 -452c43 -47 84 -66 142 -66c132 0 213 117 213 308
c0 89 -13 145 -47 210zM195 123l308 452c-44 46 -86 65 -141 65c-131 0 -213 -119 -213 -310c0 -88 12 -143 46 -207z" />
    <glyph glyph-name="Ugrave" unicode="&#xd9;" horiz-adv-x="721" 
d="M454 719h-40l-154 97c-18 12 -29 27 -29 43c0 19 13 31 34 31c15 0 24 -5 42 -23zM207 233c0 -122 34 -203 172 -203c75 0 139 31 166 79c16 30 23 68 23 136v270c0 100 -16 122 -94 128v19h232v-19c-82 -10 -94 -26 -94 -128v-261c0 -143 -42 -268 -256 -268
c-170 0 -251 82 -251 255v312c0 73 -11 84 -90 90v19h283v-19c-80 -7 -91 -18 -91 -90v-320z" />
    <glyph glyph-name="Uacute" unicode="&#xda;" horiz-adv-x="721" 
d="M330 719h-40l147 148c18 18 27 23 42 23c22 0 35 -12 35 -32c0 -16 -9 -29 -30 -42zM207 233c0 -122 34 -203 172 -203c75 0 139 31 166 79c16 30 23 68 23 136v270c0 100 -16 122 -94 128v19h232v-19c-82 -10 -94 -26 -94 -128v-261c0 -143 -42 -268 -256 -268
c-170 0 -251 82 -251 255v312c0 73 -11 84 -90 90v19h283v-19c-80 -7 -91 -18 -91 -90v-320z" />
    <glyph glyph-name="Ucircumflex" unicode="&#xdb;" horiz-adv-x="721" 
d="M536 719h-34l-122 103l-121 -103h-34l124 167h62zM207 233c0 -122 34 -203 172 -203c75 0 139 31 166 79c16 30 23 68 23 136v270c0 100 -16 122 -94 128v19h232v-19c-82 -10 -94 -26 -94 -128v-261c0 -143 -42 -268 -256 -268c-170 0 -251 82 -251 255v312
c0 73 -11 84 -90 90v19h283v-19c-80 -7 -91 -18 -91 -90v-320z" />
    <glyph glyph-name="Udieresis" unicode="&#xdc;" horiz-adv-x="721" 
d="M477 834c28 0 51 -23 51 -50s-23 -49 -51 -49c-27 0 -48 22 -48 50c0 26 23 49 48 49zM278 834c28 0 51 -23 51 -50s-23 -49 -51 -49c-27 0 -48 22 -48 50c0 26 23 49 48 49zM207 233c0 -122 34 -203 172 -203c75 0 139 31 166 79c16 30 23 68 23 136v270
c0 100 -16 122 -94 128v19h232v-19c-82 -10 -94 -26 -94 -128v-261c0 -143 -42 -268 -256 -268c-170 0 -251 82 -251 255v312c0 73 -11 84 -90 90v19h283v-19c-80 -7 -91 -18 -91 -90v-320z" />
    <glyph glyph-name="Yacute" unicode="&#xdd;" horiz-adv-x="701" 
d="M277 719h-40l147 148c18 18 27 23 42 23c22 0 35 -12 35 -32c0 -16 -9 -29 -30 -42zM691 662v-19c-51 -4 -79 -24 -138 -114l-148 -226v-194c0 -76 14 -88 103 -90v-19h-306v19c91 4 101 14 101 101v174l-131 192c-97 143 -114 155 -162 157v19h280v-19
c-41 -3 -71 -8 -71 -30c0 -11 6 -28 17 -44l148 -222l143 226c9 15 14 27 14 37c0 24 -17 32 -69 33v19h219z" />
    <glyph glyph-name="Thorn" unicode="&#xde;" horiz-adv-x="577" 
d="M542 351c0 -75 -41 -193 -271 -193c-24 0 -42 1 -69 3v-52c0 -73 15 -87 94 -90v-19h-280v19c76 7 84 17 84 101v433c0 72 -10 82 -84 90v19h277v-19c-79 -7 -91 -19 -91 -100v-11h80c160 0 260 -70 260 -181zM202 461v-260c23 -2 37 -3 57 -3c115 0 174 50 174 147
c0 103 -61 149 -199 149c-25 0 -32 -7 -32 -33z" />
    <glyph glyph-name="ssharp" unicode="&#xdf;" horiz-adv-x="491" 
d="M282 377c48 -9 184 -38 184 -191c0 -109 -79 -195 -179 -195c-57 0 -97 30 -97 73c0 27 19 48 45 48c22 0 40 -17 42 -40l2 -22c2 -22 10 -30 29 -30c42 0 64 45 64 130c0 135 -44 204 -132 207c-23 1 -32 6 -32 17c0 9 8 13 29 15c65 7 95 48 95 128
c0 87 -34 139 -91 139c-52 0 -86 -42 -86 -107v-549h-145v15c50 4 61 16 61 69v370c0 122 33 229 178 229c104 0 170 -60 170 -152c0 -72 -30 -105 -137 -154z" />
    <glyph glyph-name="agrave" unicode="&#xe0;" horiz-adv-x="435" 
d="M288 505h-40l-154 97c-18 12 -29 27 -29 43c0 19 13 31 34 31c15 0 24 -5 42 -23zM25 97c0 108 126 145 250 195v61c0 54 -27 83 -76 83c-40 0 -72 -22 -72 -49c0 -14 5 -31 5 -40c0 -22 -21 -42 -45 -42c-23 0 -43 20 -43 43c0 63 74 112 168 112
c116 0 144 -60 144 -160v-195c0 -44 7 -58 30 -58c15 0 27 5 44 19v-26c-35 -38 -56 -50 -90 -50c-41 0 -59 21 -64 73c-61 -52 -102 -73 -146 -73c-61 0 -105 44 -105 107zM275 123v145c-121 -44 -162 -80 -162 -139c0 -60 38 -81 63 -81c21 0 49 9 73 23
c21 12 26 21 26 52z" />
    <glyph glyph-name="aacute" unicode="&#xe1;" horiz-adv-x="435" 
d="M174 505h-40l147 148c18 18 27 23 42 23c22 0 35 -12 35 -32c0 -16 -9 -29 -30 -42zM25 97c0 108 126 145 250 195v61c0 54 -27 83 -76 83c-40 0 -72 -22 -72 -49c0 -14 5 -31 5 -40c0 -22 -21 -42 -45 -42c-23 0 -43 20 -43 43c0 63 74 112 168 112
c116 0 144 -60 144 -160v-195c0 -44 7 -58 30 -58c15 0 27 5 44 19v-26c-35 -38 -56 -50 -90 -50c-41 0 -59 21 -64 73c-61 -52 -102 -73 -146 -73c-61 0 -105 44 -105 107zM275 123v145c-121 -44 -162 -80 -162 -139c0 -60 38 -81 63 -81c21 0 49 9 73 23
c21 12 26 21 26 52z" />
    <glyph glyph-name="acircumflex" unicode="&#xe2;" horiz-adv-x="435" 
d="M358 507h-34l-122 103l-121 -103h-34l124 167h62zM25 97c0 108 126 145 250 195v61c0 54 -27 83 -76 83c-40 0 -72 -22 -72 -49c0 -14 5 -31 5 -40c0 -22 -21 -42 -45 -42c-23 0 -43 20 -43 43c0 63 74 112 168 112c116 0 144 -60 144 -160v-195c0 -44 7 -58 30 -58
c15 0 27 5 44 19v-26c-35 -38 -56 -50 -90 -50c-41 0 -59 21 -64 73c-61 -52 -102 -73 -146 -73c-61 0 -105 44 -105 107zM275 123v145c-121 -44 -162 -80 -162 -139c0 -60 38 -81 63 -81c21 0 49 9 73 23c21 12 26 21 26 52z" />
    <glyph glyph-name="atilde" unicode="&#xe3;" horiz-adv-x="435" 
d="M336 626h29c-21 -76 -50 -106 -105 -106c-25 0 -40 4 -81 24l-23 11c-15 7 -29 11 -41 11c-23 0 -40 -15 -51 -46h-29c15 65 51 101 101 101c22 0 47 -6 70 -18l24 -12c19 -9 38 -15 53 -15c23 0 36 12 53 50zM25 97c0 108 126 145 250 195v61c0 54 -27 83 -76 83
c-40 0 -72 -22 -72 -49c0 -14 5 -31 5 -40c0 -22 -21 -42 -45 -42c-23 0 -43 20 -43 43c0 63 74 112 168 112c116 0 144 -60 144 -160v-195c0 -44 7 -58 30 -58c15 0 27 5 44 19v-26c-35 -38 -56 -50 -90 -50c-41 0 -59 21 -64 73c-61 -52 -102 -73 -146 -73
c-61 0 -105 44 -105 107zM275 123v145c-121 -44 -162 -80 -162 -139c0 -60 38 -81 63 -81c21 0 49 9 73 23c21 12 26 21 26 52z" />
    <glyph glyph-name="adieresis" unicode="&#xe4;" horiz-adv-x="435" 
d="M302 619c28 0 51 -23 51 -50s-23 -49 -51 -49c-27 0 -48 22 -48 50c0 26 23 49 48 49zM103 619c28 0 51 -23 51 -50s-23 -49 -51 -49c-27 0 -48 22 -48 50c0 26 23 49 48 49zM25 97c0 108 126 145 250 195v61c0 54 -27 83 -76 83c-40 0 -72 -22 -72 -49
c0 -14 5 -31 5 -40c0 -22 -21 -42 -45 -42c-23 0 -43 20 -43 43c0 63 74 112 168 112c116 0 144 -60 144 -160v-195c0 -44 7 -58 30 -58c15 0 27 5 44 19v-26c-35 -38 -56 -50 -90 -50c-41 0 -59 21 -64 73c-61 -52 -102 -73 -146 -73c-61 0 -105 44 -105 107zM275 123v145
c-121 -44 -162 -80 -162 -139c0 -60 38 -81 63 -81c21 0 49 9 73 23c21 12 26 21 26 52z" />
    </font>
</defs>
</svg>
