<?xml version="1.0" standalone="no"?>
<!DOCTYPE svg PUBLIC "-//W3C//DTD SVG 1.1//EN" "http://www.w3.org/Graphics/SVG/1.1/DTD/svg11.dtd" >
<svg xmlns="http://www.w3.org/2000/svg" xmlns:xlink="http://www.w3.org/1999/xlink" version="1.1">
<metadata>
Created by FontForge 20170910 at Sat Sep 17 22:01:52 2011
 By Jimmy Wärting
Copyright (c) 2003 by Maxim Iorsh (iorsh@math.technion.ac.il). Distributed under the terms of GNU General Public License version 2(http://www.gnu.org/licenses/gpl.html). 
All rights reserved.
</metadata>
<defs>
<font id="GladiaCLM-Bold" horiz-adv-x="630" >
  <font-face 
    font-family="Gladia CLM"
    font-weight="700"
    font-stretch="normal"
    units-per-em="1000"
    panose-1="2 0 8 3 0 0 0 0 0 0"
    ascent="800"
    descent="-200"
    bbox="50 -200 710 900"
    underline-thickness="50"
    underline-position="-150"
    unicode-range="U+0020-2017"
  />
<missing-glyph horiz-adv-x="800" 
d="M150 600v-600h500v600h-500zM100 700h600v-800h-600v800z" />
    <glyph glyph-name=".notdef" horiz-adv-x="800" 
d="M150 600v-600h500v600h-500zM100 700h600v-800h-600v800z" />
    <glyph glyph-name=".null" horiz-adv-x="0" 
 />
    <glyph glyph-name="nonmarkingreturn" horiz-adv-x="333" 
 />
    <glyph glyph-name="space" unicode=" " horiz-adv-x="400" 
 />
    <glyph glyph-name="exclam" unicode="!" horiz-adv-x="290" 
d="M170 250h-70q-16 0 -28 12t-12 28v320q0 16 12 28t28 12h70q16 0 28 -12t12 -28v-320q0 -16 -12 -28t-28 -12zM170 0h-70q-16 0 -28 12t-12 28v70q0 16 12 28t28 12h70q16 0 28 -12t12 -28v-70q0 -16 -12 -28t-28 -12z" />
    <glyph glyph-name="quotedbl" unicode="&#x22;" horiz-adv-x="540" 
d="M400 540v40q0 8 -6 14t-14 6h-30q-16 0 -28 12t-12 28v70q0 16 12 28t28 12h90q16 0 28 -12t12 -28v-170q0 -16 -12 -28t-28 -12t-28 12t-12 28zM150 540v40q0 8 -6 14t-14 6h-30q-16 0 -28 12t-12 28v70q0 16 12 28t28 12h90q16 0 28 -12t12 -28v-170q0 -16 -12 -28
t-28 -12t-28 12t-12 28z" />
    <glyph glyph-name="percent" unicode="%" horiz-adv-x="760" 
d="M520 0q-16 0 -28 12t-12 28v220q0 16 12 28t28 12h150q16 0 28 -12t12 -28v-220q0 -16 -12 -28t-28 -12h-150zM560 100h70q8 0 14 6t6 14v60q0 8 -6 14t-14 6h-70q-8 0 -14 -6t-6 -14v-60q0 -8 6 -14t14 -6zM90 300q-16 0 -28 12t-12 28v220q0 16 12 28t28 12h150
q16 0 28 -12t12 -28v-220q0 -16 -12 -28t-28 -12h-150zM130 400h70q8 0 14 6t6 14v60q0 8 -6 14t-14 6h-70q-8 0 -14 -6t-6 -14v-60q0 -8 6 -14t14 -6zM335 20q-5 -16 -22.5 -22.5t-36.5 0.5q-18 8 -27 23.5t-4 31.5l188 527q5 16 22.5 22.5t36.5 -0.5q18 -8 27 -23.5
t4 -31.5z" />
    <glyph glyph-name="quotesingle" unicode="'" horiz-adv-x="290" 
d="M150 540v40q0 8 -6 14t-14 6h-30q-16 0 -28 12t-12 28v70q0 16 12 28t28 12h90q16 0 28 -12t12 -28v-170q0 -16 -12 -28t-28 -12t-28 12t-12 28z" />
    <glyph glyph-name="parenleft" unicode="(" horiz-adv-x="330" 
d="M50 6v588q0 52 40 74l121 70q22 12 29 12q16 0 28 -12t12 -28v-64q0 -22 -19 -34l-121 -71q-10 -5 -10 -17v-448q0 -12 10 -17l121 -71q19 -12 19 -34v-64q0 -16 -12 -28t-28 -12q-7 0 -29 12l-121 70q-40 22 -40 74z" />
    <glyph glyph-name="parenright" unicode=")" horiz-adv-x="330" 
d="M280 6q0 -52 -40 -74l-121 -70q-22 -12 -29 -12q-16 0 -28 12t-12 28v64q0 22 19 34l121 71q10 5 10 17v448q0 12 -10 17l-121 71q-19 12 -19 34v64q0 16 12 28t28 12q7 0 29 -12l121 -70q40 -22 40 -74v-588z" />
    <glyph glyph-name="asterisk" unicode="*" horiz-adv-x="648" 
d="M420 224l60 -104q8 -14 3.5 -30.5t-18.5 -24.5l-8 -5q-14 -8 -30.5 -3.5t-24.5 18.5l-67 115q-3 6 -11 6t-11 -6l-67 -115q-8 -14 -24.5 -18.5t-30.5 3.5l-8 5q-14 8 -18.5 24.5t3.5 30.5l60 104q4 7 -0.5 14t-12.5 7h-125q-16 0 -28 11.5t-12 28.5v30q0 17 12 28.5
t28 11.5h127q7 0 11 7.5t0 13.5l-60 104q-8 14 -3.5 30.5t18.5 24.5l8 5q14 8 30.5 3.5t24.5 -18.5l66 -115q4 -6 12.5 -5.5t11.5 6.5l66 114q8 14 24.5 18.5t30.5 -3.5l8 -5q14 -8 18.5 -24.5t-3.5 -30.5l-62 -107q-3 -5 0.5 -11.5t9.5 -6.5h130q16 0 28 -11.5t12 -28.5
v-30q0 -17 -12 -28.5t-28 -11.5h-126q-7 0 -11.5 -7.5t-0.5 -13.5z" />
    <glyph glyph-name="plus" unicode="+" horiz-adv-x="640" 
d="M330 45h-20q-16 0 -28 11.5t-12 28.5v130q0 8 -6 14t-14 6h-160q-16 0 -28 11.5t-12 28.5v50q0 17 12 28.5t28 11.5h160q8 0 14 6t6 14v130q0 17 12 28.5t28 11.5h20q16 0 28 -11.5t12 -28.5v-130q0 -8 6 -14t14 -6h160q16 0 28 -11.5t12 -28.5v-50q0 -17 -12 -28.5
t-28 -11.5h-160q-8 0 -14 -6t-6 -14v-130q0 -17 -12 -28.5t-28 -11.5z" />
    <glyph glyph-name="comma" unicode="," horiz-adv-x="290" 
d="M150 -60v40q0 8 -6 14t-14 6h-30q-16 0 -28 12t-12 28v70q0 16 12 28t28 12h90q16 0 28 -12t12 -28v-170q0 -16 -12 -28t-28 -12t-28 12t-12 28z" />
    <glyph glyph-name="hyphen" unicode="-" horiz-adv-x="640" 
d="M90 365h460q16 0 28 -11.5t12 -28.5v-50q0 -17 -12 -28.5t-28 -11.5h-460q-16 0 -28 11.5t-12 28.5v50q0 17 12 28.5t28 11.5z" />
    <glyph glyph-name="period" unicode="." horiz-adv-x="290" 
d="M190 0h-90q-16 0 -28 12t-12 28v70q0 16 12 28t28 12h90q16 0 28 -12t12 -28v-70q0 -16 -12 -28t-28 -12z" />
    <glyph glyph-name="slash" unicode="/" 
d="M393 -34q-6 -16 -23 -22t-36 1t-28 22.5t-3 31.5l228 630q5 16 22.5 22t35.5 -1q19 -7 28 -22.5t4 -31.5z" />
    <glyph glyph-name="zero" unicode="0" 
d="M90 0q-16 0 -28 12t-12 28v520q0 16 12 28t28 12h450q16 0 28 -12t12 -28v-520q0 -16 -12 -28t-28 -12h-450zM150 150h330q8 0 14 6t6 14v260q0 8 -6 14t-14 6h-330q-8 0 -14 -6t-6 -14v-260q0 -8 6 -14t14 -6z" />
    <glyph glyph-name="one" unicode="1" horiz-adv-x="560" 
d="M250 430q0 8 -6 14t-14 6h-110q-16 0 -28 12t-12 28v70q0 16 12 28t28 12h170q16 0 28 -12t12 -28v-390q0 -8 6 -14t14 -6h120q16 0 28 -12t12 -28v-70q0 -16 -12 -28t-28 -12h-380q-16 0 -28 12t-12 28v70q0 16 12 28t28 12h140q8 0 14 6t6 14v260z" />
    <glyph glyph-name="two" unicode="2" 
d="M334 182q-14 -8 -8.5 -20t24.5 -12h190q16 0 28 -12t12 -28v-70q0 -16 -12 -28t-28 -12h-450q-16 0 -28 12t-12 28v47q0 24 20 35l417 240q13 9 13 24v44q0 8 -6 14t-14 6h-390q-16 0 -28 12t-12 28v70q0 16 12 28t28 12h450q16 0 28 -12t12 -28v-211q0 -25 -20 -36z" />
    <glyph glyph-name="three" unicode="3" horiz-adv-x="660" 
d="M436 272q-12 12 -12 28.5t12 27.5l88 88q6 6 6 14t-6 14t-14 6h-390q-16 0 -28 12t-12 28v70q0 16 12 28t28 12h450q16 0 28 -12t12 -28v-134q0 -39 -20 -59l-53 -53q-14 -14 0 -28l53 -53q20 -20 20 -59v-134q0 -16 -12 -28t-28 -12h-450q-16 0 -28 12t-12 28v70
q0 16 12 28t28 12h390q8 0 14 6t6 14t-6 14z" />
    <glyph glyph-name="four" unicode="4" 
d="M500 565q0 17 12 28.5t28 11.5t28 -11.5t12 -28.5v-530q0 -17 -12 -28.5t-28 -11.5t-28 11.5t-12 28.5v95q0 8 -6 14t-14 6h-390q-16 0 -28 12t-12 28v375q0 17 12 28.5t28 11.5t28 -11.5t12 -28.5v-245q0 -8 6 -14t14 -6h330q8 0 14 6t6 14v245z" />
    <glyph glyph-name="five" unicode="5" 
d="M411 117q12 11 7.5 22t-23.5 11h-305q-16 0 -28 12t-12 28v370q0 16 12 28t28 12h450q16 0 28 -12t12 -28v-70q0 -16 -12 -28t-28 -12h-390q-8 0 -14 -6t-6 -14v-110q0 -8 6 -14t14 -6h390q16 0 28 -12t12 -28v-70q0 -17 -11 -28l-290 -290q-12 -12 -28.5 -12t-28.5 12
t-12 28.5t12 28.5z" />
    <glyph glyph-name="six" unicode="6" 
d="M150 450h390q16 0 28 -12t12 -28v-370q0 -16 -12 -28t-28 -12h-450q-16 0 -28 12t-12 28v525q0 17 12 28.5t28 11.5t28 -11.5t12 -28.5v-95q0 -8 6 -14t14 -6zM150 150h330q8 0 14 6t6 14v110q0 8 -6 14t-14 6h-330q-8 0 -14 -6t-6 -14v-110q0 -8 6 -14t14 -6z" />
    <glyph glyph-name="seven" unicode="7" 
d="M310 46l137 378q7 19 -12 26h-345q-16 0 -28 12t-12 28v70q0 16 12 28t28 12h464q16 -5 23 -20t1 -31l-193 -530q-5 -16 -20 -23t-31 -1t-22.5 21t-1.5 30z" />
    <glyph glyph-name="eight" unicode="8" horiz-adv-x="660" 
d="M120 0q-16 0 -28 12t-12 28v134q0 39 20 59l53 53q14 14 0 28l-53 53q-20 20 -20 59v134q0 16 12 28t28 12h450q16 0 28 -12t12 -28v-134q0 -39 -20 -59l-53 -53q-14 -14 0 -28l53 -53q20 -20 20 -59v-134q0 -16 -12 -28t-28 -12h-450zM180 150h330q8 0 14 6t6 14t-6 14
l-88 88q-12 12 -12 28.5t12 27.5l88 88q6 6 6 14t-6 14t-14 6h-330q-8 0 -14 -6t-6 -14t6 -14l88 -88q12 -11 12 -27.5t-12 -28.5l-88 -88q-6 -6 -6 -14t6 -14t14 -6z" />
    <glyph glyph-name="nine" unicode="9" 
d="M480 150h-390q-16 0 -28 12t-12 28v370q0 16 12 28t28 12h450q16 0 28 -12t12 -28v-525q0 -17 -12 -28.5t-28 -11.5t-28 11.5t-12 28.5v95q0 8 -6 14t-14 6zM480 450h-330q-8 0 -14 -6t-6 -14v-110q0 -8 6 -14t14 -6h330q8 0 14 6t6 14v110q0 8 -6 14t-14 6z" />
    <glyph glyph-name="colon" unicode=":" horiz-adv-x="290" 
d="M190 0h-90q-16 0 -28 12t-12 28v70q0 16 12 28t28 12h90q16 0 28 -12t12 -28v-70q0 -16 -12 -28t-28 -12zM190 350h-90q-16 0 -28 12t-12 28v70q0 16 12 28t28 12h90q16 0 28 -12t12 -28v-70q0 -16 -12 -28t-28 -12z" />
    <glyph glyph-name="semicolon" unicode=";" horiz-adv-x="290" 
d="M190 350h-90q-16 0 -28 12t-12 28v70q0 16 12 28t28 12h90q16 0 28 -12t12 -28v-70q0 -16 -12 -28t-28 -12zM150 -60v40q0 8 -6 14t-14 6h-30q-16 0 -28 12t-12 28v70q0 16 12 28t28 12h90q16 0 28 -12t12 -28v-170q0 -16 -12 -28t-28 -12t-28 12t-12 28z" />
    <glyph glyph-name="less" unicode="&#x3c;" horiz-adv-x="470" 
d="M367 515l-157 -157q-6 -5 -6 -13.5t6 -14.5l198 -198q12 -11 12 -28t-12 -28l-49 -50q-12 -12 -28.5 -12t-28.5 12l-240 241q-12 11 -12 27.5t12 28.5l249 249q11 12 28 12t28 -12q12 -12 12 -28.5t-12 -28.5z" />
    <glyph glyph-name="equal" unicode="=" horiz-adv-x="640" 
d="M90 236h460q16 0 28 -12t12 -28v-50q0 -16 -12 -28t-28 -12h-460q-16 0 -28 12t-12 28v50q0 16 12 28t28 12zM90 494h460q16 0 28 -12t12 -28v-50q0 -16 -12 -28t-28 -12h-460q-16 0 -28 12t-12 28v50q0 16 12 28t28 12z" />
    <glyph glyph-name="greater" unicode="&#x3e;" horiz-adv-x="469" 
d="M103 83l157 157q6 5 6 13.5t-6 14.5l-198 198q-12 12 -12 28.5t12 28.5l49 49q12 12 28.5 12t28.5 -12l240 -240q12 -12 12 -28.5t-12 -28.5l-249 -249q-11 -12 -28 -12t-28 12q-12 12 -12 28.5t12 28.5z" />
    <glyph glyph-name="question" unicode="?" horiz-adv-x="600" 
d="M510 250h-160q-16 0 -30 -12.5t-30 -12.5h-90q-16 0 -28 11.5t-12 28.5v25q0 16 12 28t28 12h250q8 0 14 6t6 14v130q0 8 -6 14t-14 6h-360q-16 0 -28 12t-12 28v70q0 16 12 28t28 12h420q16 0 28 -12t12 -28v-320q0 -16 -12 -28t-28 -12zM290 0h-90q-16 0 -28 12t-12 28
v70q0 16 12 28t28 12h90q16 0 28 -12t12 -28v-70q0 -16 -12 -28t-28 -12z" />
    <glyph glyph-name="bracketleft" unicode="[" horiz-adv-x="330" 
d="M50 660q0 16 12 28t28 12h150q16 0 28 -12t12 -28v-70q0 -16 -12 -28t-28 -12h-90q-8 0 -14 -6t-6 -14v-460q0 -8 6 -14t14 -6h90q16 0 28 -12t12 -28v-70q0 -16 -12 -28t-28 -12h-150q-16 0 -28 12t-12 28v720z" />
    <glyph glyph-name="backslash" unicode="\" 
d="M531 -34l-228 630q-6 16 3 31.5t28 22.5t36 1t23 -22l228 -630q5 -16 -4 -31.5t-28 -22.5q-18 -7 -35.5 -1t-22.5 22z" />
    <glyph glyph-name="bracketright" unicode="]" horiz-adv-x="330" 
d="M280 -60q0 -16 -12 -28t-28 -12h-150q-16 0 -28 12t-12 28v70q0 16 12 28t28 12h90q8 0 14 6t6 14v460q0 8 -6 14t-14 6h-90q-16 0 -28 12t-12 28v70q0 16 12 28t28 12h150q16 0 28 -12t12 -28v-720z" />
    <glyph glyph-name="grave" unicode="`" horiz-adv-x="290" 
d="M140 710v-40q0 -8 6 -14t14 -6h30q16 0 28 -12t12 -28v-70q0 -16 -12 -28t-28 -12h-90q-16 0 -28 12t-12 28v170q0 16 12 28t28 12t28 -12t12 -28z" />
    <glyph glyph-name="afii57685" unicode="&#x5e5;" horiz-adv-x="670" 
d="M250 33v-193q0 -16 -12 -28t-28 -12t-28 12t-12 28v590q0 8 -6 14t-14 6h-60q-16 0 -28 12t-12 28v70q0 16 12 28t28 12h120q16 0 28 -12t12 -28v-367l280 122q10 5 10 17v98q0 8 -6 14t-14 6h-60q-16 0 -28 12t-12 28v70q0 16 12 28t28 12h120q16 0 28 -12t12 -28v-302
q0 -51 -40 -74z" />
    <glyph glyph-name="afii57686" unicode="&#x5e6;" horiz-adv-x="640" 
d="M464 260l106 -59q20 -12 20 -35v-126q0 -16 -12 -28t-28 -12h-440q-16 0 -28 12t-12 28v70q0 16 12 28t28 12h302q14 0 16.5 10t-10.5 17l-208 109q-40 23 -40 74v70q0 8 -6 14t-14 6h-60q-16 0 -28 12t-12 28v70q0 16 12 28t28 12h120q16 0 28 -12t12 -28v-172
q0 -12 10 -17l120 -66l120 69q10 7 10 18v38q0 8 -6 14t-14 6h-60q-16 0 -28 12t-12 28v70q0 16 12 28t28 12h120q16 0 28 -12t12 -28v-176q0 -51 -40 -74z" />
    <glyph glyph-name="afii57687" unicode="&#x5e7;" horiz-adv-x="640" 
d="M90 -200q-16 0 -28 12t-12 28v468q0 16 12 28t28 12h10q16 0 28 -12t12 -28v-468q0 -16 -12 -28t-28 -12h-10zM590 40q0 -16 -12 -28t-28 -12h-260q-16 0 -28 12t-12 28v70q0 16 12 28t28 12h200q8 0 14 6t6 14v260q0 8 -6 14t-14 6h-400q-16 0 -28 12t-12 28v70
q0 16 12 28t28 12h460q16 0 28 -12t12 -28v-520z" />
    <glyph glyph-name="afii57688" unicode="&#x5e8;" horiz-adv-x="620" 
d="M490 35v395q0 8 -6 14t-14 6h-380q-16 0 -28 12t-12 28v70q0 16 12 28t28 12h440q16 0 28 -12t12 -28v-525q0 -17 -12 -28.5t-28 -11.5t-28 11.5t-12 28.5z" />
    <glyph glyph-name="afii57689" unicode="&#x5e9;" horiz-adv-x="740" 
d="M370 290v140q0 8 -6 14t-14 6h-20q-16 0 -28 12t-12 28v70q0 16 12 28t28 12h80q16 0 28 -12t12 -28v-270q0 -16 -12 -28t-28 -12t-28 12t-12 28zM650 0h-560q-16 0 -28 12t-12 28v520q0 16 12 28t28 12h80q16 0 28 -12t12 -28v-70q0 -16 -12 -28t-28 -12h-20
q-8 0 -14 -6t-6 -14v-260q0 -8 6 -14t14 -6h440q8 0 14 6t6 14v260q0 8 -6 14t-14 6h-20q-16 0 -28 12t-12 28v70q0 16 12 28t28 12h80q16 0 28 -12t12 -28v-520q0 -16 -12 -28t-28 -12z" />
    <glyph glyph-name="afii57690" unicode="&#x5ea;" horiz-adv-x="690" 
d="M540 450h-300q-8 0 -14 -6t-6 -14v-390q0 -16 -12 -28t-28 -12h-90q-16 0 -28 12t-12 28v70q0 16 12 28t28 12h30q8 0 14 6t6 14v260q0 8 -6 14t-14 6h-10q-16 0 -28 12t-12 28v70q0 16 12 28t28 12h490q16 0 28 -12t12 -28v-525q0 -17 -12 -28.5t-28 -11.5t-28 11.5
t-12 28.5v395q0 8 -6 14t-14 6z" />
    <glyph glyph-name="underscoredbl" unicode="&#x2017;" horiz-adv-x="1000" 
d="M538 408q41 0 70.5 -29.5t29.5 -70.5t-29.5 -70.5t-70.5 -29.5t-70.5 29.5t-29.5 70.5t29.5 70.5t70.5 29.5zM312 332q8 0 14 -6t6 -14t-6 -14t-14 -6t-14 6t-6 14t6 14t14 6zM538 348q-16 0 -28 -12t-12 -28t12 -28t28 -12t28 12t12 28t-12 28t-28 12z" />
    <glyph glyph-name="afii57664" unicode="&#x5d0;" horiz-adv-x="662" 
d="M489 241l105 -98q18 -17 18 -46v-74q0 -28 -27 -28q-16 0 -30 14l-391 360q-6 6 -14 6t-14 -6t-6 -14v-185q0 -8 6 -14t14 -6h30q16 0 28 -12t12 -28v-70q0 -16 -12 -28t-28 -12h-90q-16 0 -28 12t-12 28v520q0 16 12 28t28 12q14 0 28 -12l313 -293l95 94q6 6 6 14v27
q0 8 -6 14t-14 6h-72q-16 0 -28 12t-12 28v70q0 16 12 28t28 12h132q16 0 28 -12t12 -28v-161q0 -39 -20 -59z" />
    <glyph glyph-name="afii57665" unicode="&#x5d1;" horiz-adv-x="700" 
d="M560 560v-390q0 -8 6 -14t14 -6h30q16 0 28 -12t12 -28v-70q0 -16 -12 -28t-28 -12h-520q-16 0 -28 12t-12 28v70q0 16 12 28t28 12h370q8 0 14 6t6 14v260q0 8 -6 14t-14 6h-370q-16 0 -28 12t-12 28v70q0 16 12 28t28 12h430q16 0 28 -12t12 -28z" />
    <glyph glyph-name="afii57666" unicode="&#x5d2;" horiz-adv-x="440" 
d="M69 132l222 129q19 12 19 34v135q0 8 -6 14t-14 6h-110q-16 0 -28 12t-12 28v70q0 16 12 28t28 12h170q16 0 28 -12t12 -28v-525q0 -17 -12 -28.5t-28 -11.5t-28 11.5t-12 28.5v40q0 24 -23 24q-6 0 -26 -10l-142 -81q-19 -13 -29 -13q-16 0 -28 11.5t-12 28.5v63
q0 24 19 34z" />
    <glyph glyph-name="afii57667" unicode="&#x5d3;" horiz-adv-x="670" 
d="M440 35v395q0 8 -6 14t-14 6h-330q-16 0 -28 12t-12 28v70q0 16 12 28t28 12h490q16 0 28 -12t12 -28v-70q0 -16 -12 -28t-28 -12h-40q-8 0 -14 -6t-6 -14v-395q0 -17 -12 -28.5t-28 -11.5t-28 11.5t-12 28.5z" />
    <glyph glyph-name="afii57668" unicode="&#x5d4;" horiz-adv-x="650" 
d="M130 260v-90q0 -8 6 -14t14 -6h30q16 0 28 -12t12 -28v-70q0 -16 -12 -28t-28 -12h-90q-16 0 -28 12t-12 28v220q0 16 12 28t28 12t28 -12t12 -28zM520 35v395q0 8 -6 14t-14 6h-410q-16 0 -28 12t-12 28v70q0 16 12 28t28 12h470q16 0 28 -12t12 -28v-525
q0 -17 -12 -28.5t-28 -11.5t-28 11.5t-12 28.5z" />
    <glyph glyph-name="afii57669" unicode="&#x5d5;" horiz-adv-x="350" 
d="M220 35v395q0 8 -6 14t-14 6h-110q-16 0 -28 12t-12 28v70q0 16 12 28t28 12h170q16 0 28 -12t12 -28v-525q0 -17 -12 -28.5t-28 -11.5t-28 11.5t-12 28.5z" />
    <glyph glyph-name="afii57670" unicode="&#x5d6;" horiz-adv-x="400" 
d="M170 35v395q0 8 -6 14t-14 6h-60q-16 0 -28 12t-12 28v70q0 16 12 28t28 12h220q16 0 28 -12t12 -28v-70q0 -16 -12 -28t-28 -12h-40q-8 0 -14 -6t-6 -14v-395q0 -17 -12 -28.5t-28 -11.5t-28 11.5t-12 28.5z" />
    <glyph glyph-name="afii57671" unicode="&#x5d7;" horiz-adv-x="650" 
d="M90 600h470q16 0 28 -12t12 -28v-525q0 -17 -12 -28.5t-28 -11.5t-28 11.5t-12 28.5v395q0 8 -6 14t-14 6h-350q-8 0 -14 -6t-6 -14v-395q0 -17 -12 -28.5t-28 -11.5t-28 11.5t-12 28.5v525q0 16 12 28t28 12z" />
    <glyph glyph-name="afii57672" unicode="&#x5d8;" horiz-adv-x="680" 
d="M305 413v77q0 41 29 58l56 31q39 21 69 21h131q16 0 28 -12t12 -28v-520q0 -16 -12 -28t-28 -12h-500q-16 0 -28 12t-12 28v520q0 16 12 28t28 12h80q16 0 28 -12t12 -28v-70q0 -16 -12 -28t-28 -12h-20q-8 0 -14 -6t-6 -14v-260q0 -8 6 -14t14 -6h380q8 0 14 6t6 14v260
q0 8 -6 14t-14 6h-38q-38 0 -69 -21l-79 -41q-16 -11 -27.5 -2.5t-11.5 27.5z" />
    <glyph glyph-name="afii57673" unicode="&#x5d9;" horiz-adv-x="350" 
d="M220 290v140q0 8 -6 14t-14 6h-110q-16 0 -28 12t-12 28v70q0 16 12 28t28 12h170q16 0 28 -12t12 -28v-270q0 -16 -12 -28t-28 -12t-28 12t-12 28z" />
    <glyph glyph-name="afii57674" unicode="&#x5da;" horiz-adv-x="600" 
d="M470 -160v590q0 8 -6 14t-14 6h-360q-16 0 -28 12t-12 28v70q0 16 12 28t28 12h420q16 0 28 -12t12 -28v-720q0 -16 -12 -28t-28 -12t-28 12t-12 28z" />
    <glyph glyph-name="afii57675" unicode="&#x5db;" 
d="M580 40q0 -16 -12 -28t-28 -12h-450q-16 0 -28 12t-12 28v70q0 16 12 28t28 12h390q8 0 14 6t6 14v260q0 8 -6 14t-14 6h-390q-16 0 -28 12t-12 28v70q0 16 12 28t28 12h450q16 0 28 -12t12 -28v-520z" />
    <glyph glyph-name="afii57676" unicode="&#x5dc;" horiz-adv-x="650" 
d="M150 600h410q16 0 28 -12t12 -28v-520q0 -16 -12 -28t-28 -12h-220q-16 0 -28 12t-12 28v70q0 16 12 28t28 12h160q8 0 14 6t6 14v260q0 8 -6 14t-14 6h-410q-16 0 -28 12t-12 28v370q0 16 12 28t28 12h80q16 0 28 -12t12 -28v-70q0 -16 -12 -28t-28 -12h-20q-8 0 -14 -6
t-6 -14v-110q0 -8 6 -14t14 -6z" />
    <glyph glyph-name="afii57677" unicode="&#x5dd;" horiz-adv-x="650" 
d="M520 321q0 42 -29 71l-30 30q-26 28 -69 28h-242q-8 0 -14 -6t-6 -14v-260q0 -8 6 -14t14 -6h350q8 0 14 6t6 14v151zM600 425v-385q0 -16 -12 -28t-28 -12h-470q-16 0 -28 12t-12 28v520q0 16 12 28t28 12h335q43 0 69 -28l77 -76q29 -29 29 -71z" />
    <glyph glyph-name="afii57678" unicode="&#x5de;" horiz-adv-x="720" 
d="M210 500q0 -32 22 -12l85 84q26 28 69 28h244q16 0 28 -12t12 -28v-520q0 -16 -12 -28t-28 -12h-230q-16 0 -28 12t-12 28v70q0 16 12 28t28 12h170q8 0 14 6t6 14v260q0 8 -6 14t-14 6h-165q-43 0 -69 -28l-87 -87q-29 -29 -29 -71v-229q0 -17 -12 -28.5t-28 -11.5
t-28 11.5t-12 28.5v395q0 8 -6 14t-14 6h-30q-16 0 -28 12t-12 28v70q0 16 12 28t28 12h80q16 0 28 -12t12 -28v-60z" />
    <glyph glyph-name="afii57679" unicode="&#x5df;" horiz-adv-x="350" 
d="M220 -160v590q0 8 -6 14t-14 6h-110q-16 0 -28 12t-12 28v70q0 16 12 28t28 12h170q16 0 28 -12t12 -28v-720q0 -16 -12 -28t-28 -12t-28 12t-12 28z" />
    <glyph glyph-name="afii57680" unicode="&#x5e0;" horiz-adv-x="420" 
d="M370 40q0 -16 -12 -28t-28 -12h-240q-16 0 -28 12t-12 28v70q0 16 12 28t28 12h180q8 0 14 6t6 14v260q0 8 -6 14t-14 6h-120q-16 0 -28 12t-12 28v70q0 16 12 28t28 12h180q16 0 28 -12t12 -28v-520z" />
    <glyph glyph-name="afii57681" unicode="&#x5e1;" horiz-adv-x="650" 
d="M345 150q42 0 71 29l76 77q28 26 28 69v105q0 8 -6 14t-14 6h-350q-8 0 -14 -6t-6 -14v-260q0 -8 6 -14t14 -6h195zM382 0h-292q-16 0 -28 12t-12 28v520q0 16 12 28t28 12h470q16 0 28 -12t12 -28v-343q0 -43 -28 -69l-119 -119q-29 -29 -71 -29z" />
    <glyph glyph-name="afii57682" unicode="&#x5e2;" horiz-adv-x="660" 
d="M610 40q0 -16 -12 -28t-28 -12h-480q-16 0 -28 12t-12 28v70q0 16 12 28t28 12h70q8 0 14 6t6 14v260q0 8 -6 14t-14 6h-70q-16 0 -28 12t-12 28v70q0 16 12 28t28 12h130q16 0 28 -12t12 -28v-390q0 -8 6 -14t14 -6h230q8 0 14 6t6 14v260q0 8 -6 14t-14 6h-70
q-16 0 -28 12t-12 28v70q0 16 12 28t28 12h130q16 0 28 -12t12 -28v-520z" />
    <glyph glyph-name="afii57683" unicode="&#x5e3;" horiz-adv-x="610" 
d="M480 -160v590q0 8 -6 14t-14 6h-310q-8 0 -14 -6t-6 -14v-36q0 -8 6 -14t14 -6h30q16 0 28 -12t12 -28v-70q0 -16 -12 -28t-28 -12h-90q-16 0 -28 12t-12 28v296q0 16 12 28t28 12h430q16 0 28 -12t12 -28v-720q0 -16 -12 -28t-28 -12t-28 12t-12 28z" />
    <glyph glyph-name="afii57684" unicode="&#x5e4;" 
d="M150 450q-8 0 -14 -6t-6 -14v-36q0 -8 6 -14t14 -6h30q16 0 28 -12t12 -28v-70q0 -16 -12 -28t-28 -12h-90q-16 0 -28 12t-12 28v296q0 16 12 28t28 12h450q16 0 28 -12t12 -28v-520q0 -16 -12 -28t-28 -12h-450q-16 0 -28 12t-12 28v70q0 16 12 28t28 12h390q8 0 14 6
t6 14v260q0 8 -6 14t-14 6h-330z" />
  </font>
</defs>
</svg>
