<?xml version="1.0" standalone="no"?>
<!DOCTYPE svg PUBLIC "-//W3C//DTD SVG 1.1//EN" "http://www.w3.org/Graphics/SVG/1.1/DTD/svg11.dtd" >
<svg xmlns="http://www.w3.org/2000/svg" xmlns:xlink="http://www.w3.org/1999/xlink" version="1.1">
<metadata>
Created by FontForge 20170910 at Sat Mar 13 16:56:22 2010
 By Jimmy Wärting
Created by Yoram Gnat with FontForge 1.0 (http://fontforge.sf.net)

Copyright .2007-2010 by Yoram Gnat
(yoram.gnat@gmail.com).

Distributed under the terms of GNU General Public License version 2(http://www.gnu.org/licenses/gpl.html).

As a special exception, if you create a document which uses this font, and embed this font or unaltered portions of this font into the document, this font does not by itself cause the resulting document to be covered by the GNU General Public License. This exception does not however invalidate any other reasons why the document might be covered by the GNU General Public License. If you modify this font, you may extend this exception to your version of the font, but you are not obligated to do so. If you do not wish to do so, delete this exception statement from your version. 

</metadata>
<defs>
<font id="Hebrew-Paleo-Mesha" horiz-adv-x="476" >
  <font-face 
    font-family="Hebrew Paleo Mesha"
    font-weight="500"
    font-stretch="normal"
    units-per-em="1000"
    panose-1="2 0 6 3 0 0 0 0 0 0"
    ascent="800"
    descent="-200"
    bbox="-35 -275 741 834"
    underline-thickness="50"
    underline-position="-150"
    unicode-range="U+0020-1091F"
  />
<missing-glyph horiz-adv-x="364" 
d="M33 0v666h265v-666h-265zM66 33h199v600h-199v-600z" />
    <glyph glyph-name=".notdef" horiz-adv-x="364" 
d="M33 0v666h265v-666h-265zM66 33h199v600h-199v-600z" />
    <glyph glyph-name=".null" horiz-adv-x="0" 
 />
    <glyph glyph-name="nonmarkingreturn" horiz-adv-x="333" 
 />
    <glyph glyph-name="space" unicode=" " horiz-adv-x="392" 
 />
    <glyph glyph-name="exclam" unicode="!" horiz-adv-x="180" 
d="M38 22q0 21 15.5 35.5t36.5 14.5t36.5 -14.5t15.5 -35.5t-15.5 -35.5t-36.5 -14.5t-36.5 14.5t-15.5 35.5zM84 131q-14 0 -25.5 10.5t-11.5 26.5q0 14 7 22v254q-12 10 -12 29q0 37 36 37h13q18 0 27.5 -10.5t9.5 -26.5v-283q7 -8 7 -22q0 -16 -11.5 -26.5t-25.5 -10.5
h-14z" />
    <glyph glyph-name="quotedbl" unicode="&#x22;" horiz-adv-x="336" 
d="M258 563q39 0 39 -59q0 -70 -31 -138q-10 -23 -32 -23q-15 0 -27 11t-12 26q0 8 3 15q23 54 23 96q-22 10 -22 35q0 16 11 26.5t26 10.5h22zM41 526q0 15 11.5 26t27.5 11h22q38 0 38 -52v-7q0 -70 -30 -138q-9 -23 -34 -23q-26 0 -35 24v12q0 7 12 41t12 71
q-24 11 -24 35z" />
    <glyph glyph-name="numbersign" unicode="#" horiz-adv-x="517" 
d="M40 300q0 32 38 32h84l17 80q-3 7 -3 16q0 15 10.5 25.5t25.5 10.5q7 0 10 -1h13q13 -2 21 -13t8 -25q0 -17 -12 -29l-13 -60h95l16 76q-3 8 -3 15q0 15 10.5 26t25.5 11q6 0 9 -1h14q13 -2 21 -13t8 -25q0 -17 -12 -29l-12 -54q11 7 26 7q17 0 28.5 -10t11.5 -27v-14
q0 -16 -11 -26.5t-26 -10.5q-11 0 -20 6h-25l-17 -77h39q11 9 22 9q15 0 26.5 -10.5t11.5 -26.5v-14q0 -31 -37 -31h-78l-19 -88q4 -10 4 -14q0 -16 -11.5 -27.5t-26.5 -11.5l-9 3h-14q-28 7 -28 38q0 17 12 29l14 67h-96l-17 -83q5 -12 5 -16q0 -15 -11.5 -26.5
t-26.5 -11.5q-1 0 -10 3h-13q-13 2 -21 13t-8 25q0 17 12 29l13 61h-11q-10 -7 -22 -7q-15 0 -26.5 10t-11.5 24v3v13q0 17 11.5 27.5t26.5 10.5q11 0 20 -6h30l17 76h-45q-8 -8 -22 -8q-15 0 -26.5 11t-11.5 26v13zM222 264l-16 -79h95l17 79h-96z" />
    <glyph glyph-name="dollar" unicode="$" horiz-adv-x="423" 
d="M288 355q0 59 -51 67v-136q78 -23 112 -55q34 -34 34 -89q0 -68 -39.5 -106.5t-106.5 -38.5v-71q-11 -6 -22 -6q-12 0 -24 6v71q-68 0 -109.5 38.5t-41.5 103.5q0 20 13.5 32.5t32.5 12.5t30.5 -12.5t11.5 -32.5q0 -33 15.5 -48.5t47.5 -21.5v144q-138 30 -138 144
q0 60 38.5 96t99.5 36v37q10 6 22 6t24 -6v-37q63 0 101 -35.5t38 -98.5q0 -19 -13.5 -32t-32.5 -13t-30.5 12.5t-11.5 32.5zM135 352q0 -42 56 -60v122q-56 -11 -56 -62zM293 127q0 49 -57 67v-133q57 15 57 66z" />
    <glyph glyph-name="percent" unicode="%" horiz-adv-x="500" 
d="M106 27l213 412v8q0 16 13 25.5t29 9.5q4 0 14 -4l12 -6q19 -11 19 -37q0 -21 -19 -30l-217 -414v-10q0 -14 -11.5 -22.5t-27.5 -8.5q-4 0 -14 4l-12 6q-20 11 -20 37q0 19 21 30zM150 400q-33 0 -41.5 -12t-8.5 -51q0 -40 19 -40q33 0 42 14t9 54q0 35 -20 35zM40 337
q0 63 26 93t84 30q37 0 58.5 -28t21.5 -67q0 -128 -111 -128q-37 0 -58 29.5t-21 70.5zM380 143q-34 0 -42 -12t-8 -51t19 -39q34 0 42.5 14t8.5 54q0 34 -20 34zM270 80q0 62 25.5 92.5t84.5 30.5q36 0 58 -27.5t22 -66.5q0 -64 -26 -96t-85 -32q-36 0 -57.5 29.5
t-21.5 69.5z" />
    <glyph glyph-name="ampersand" unicode="&#x26;" horiz-adv-x="491" 
d="M322 377q0 -35 -18 -59.5t-59 -52.5l76 -92q19 35 19 73v6q0 12 11 20.5t26 8.5t25 -9.5t10 -19.5v-10q0 -79 -43 -129l78 -98q4 -4 4 -11q0 -10 -11.5 -19t-27.5 -9q-22 0 -35 8.5t-33 30.5l-29 36q-40 -30 -67 -40.5t-57 -10.5q-69 0 -110 38t-41 100q0 43 21 72.5
t79 59.5q-2 2 -4 5q-3 4 -4 5l-18 22q-27 33 -27 67q0 46 35 76.5t86 30.5q52 0 83 -27t31 -72zM125 149q0 -30 20.5 -52.5t46.5 -22.5q30 0 76 35l-86 109l-30 -18q-27 -18 -27 -51zM209 406q-16 0 -27 -8.5t-11 -21.5t6 -22.5t29 -39.5q39 21 39 55q0 37 -36 37z" />
    <glyph glyph-name="quotesingle" unicode="'" horiz-adv-x="182" 
d="M45 526q0 16 11 26.5t26 10.5h22q38 0 38 -52v-6q0 -69 -30 -140q-10 -23 -32 -23q-16 0 -28 11t-12 27q0 8 3 15q24 57 24 96q-22 10 -22 35z" />
    <glyph glyph-name="parenleft" unicode="(" horiz-adv-x="269" 
d="M192 490q16 0 26.5 -11t10.5 -26t-10 -26.5t-25 -11.5q-79 -80 -79 -204q0 -114 78 -201q14 0 24.5 -11t10.5 -27t-11.5 -26.5t-26.5 -10.5h-14q-16 0 -26 12q-110 114 -110 264q0 162 112 269q10 10 26 10h14z" />
    <glyph glyph-name="parenright" unicode=")" horiz-adv-x="269" 
d="M78 -65q-17 0 -27.5 11t-10.5 26q0 16 10 27t25 11q79 80 79 204q0 114 -78 201q-14 0 -24 11t-10 27t11 26.5t26 10.5h13q16 0 28 -12q109 -117 109 -264q0 -163 -113 -269q-9 -10 -25 -10h-13z" />
    <glyph glyph-name="asterisk" unicode="*" horiz-adv-x="451" 
d="M232 443q14 0 24 -9.5t10 -25.5q0 -11 -5 -19v-91l83 27q10 16 29 16q25 0 33 -25l3 -11q2 -8 2 -11q0 -14 -10.5 -24.5t-25.5 -10.5h-5l-88 -27l52 -72q25 -9 25 -34q0 -17 -14 -28l-10 -7q-10 -7 -21 -7q-13 0 -23.5 9t-10.5 23l-54 75l-54 -73q0 -13 -10.5 -23
t-23.5 -10q-12 0 -20 7l-10 7q-15 11 -15 28q0 26 25 33l51 72l-86 27q0 -1 -4 -1l-4 1q-14 0 -24.5 10t-10.5 24q0 3 2 11l4 12q8 24 33 24q19 0 28 -15l84 -27v90q-6 10 -6 20q0 15 10 25t25 10h12z" />
    <glyph glyph-name="plus" unicode="+" horiz-adv-x="414" 
d="M40 195q0 16 11 27t27 11q15 0 20 -3h73v74q-7 11 -7 22q0 16 11.5 26.5t26.5 10.5h14q16 0 26.5 -11t10.5 -26q0 -14 -7 -22v-67h68q11 8 23 8q16 0 26.5 -11t10.5 -27v-13q0 -17 -11 -27.5t-26 -10.5q-11 0 -20 6h-71v-75q7 -8 7 -22q0 -16 -11 -26.5t-26 -10.5h-14
q-16 0 -27 11t-11 26q0 11 7 22v69h-71q-14 -12 -22 -12q-17 0 -27.5 11t-10.5 27v13z" />
    <glyph glyph-name="comma" unicode="," horiz-adv-x="183" 
d="M93 -44q21 0 35.5 -14.5t14.5 -34.5q0 -91 -31 -160q-10 -22 -35 -22q-23 0 -32 23q-5 12 -5 13q0 6 13.5 39.5t13.5 71.5q-22 10 -22 35q0 21 14.5 35t33.5 14z" />
    <glyph glyph-name="hyphen" unicode="-" horiz-adv-x="400" 
d="M40 194q0 16 11 26.5t27 10.5q2 0 9 2.5t11 0.5h202q11 8 23 8q15 0 26 -11t11 -27v-14q0 -16 -11 -26.5t-26 -10.5q-11 0 -21 6h-202q-2 -1 -6.5 -6t-8 -8t-7.5 -3q-17 0 -27.5 11t-10.5 27v14z" />
    <glyph glyph-name="period" unicode="." horiz-adv-x="178" 
d="M90 -100q-21 0 -35.5 15t-14.5 35q0 21 14.5 35.5t35.5 14.5q20 0 34 -14.5t14 -35.5t-14 -35.5t-34 -14.5z" />
    <glyph glyph-name="slash" unicode="/" horiz-adv-x="361" 
d="M58 25l176 429v8q0 16 11.5 27t26.5 11q8 0 15 -3l12 -5q22 -9 22 -35q0 -21 -16 -31l-179 -432q1 -3 1 -8q0 -15 -11 -25.5t-26 -10.5q-8 0 -15 3l-12 5q-23 10 -23 35q0 20 18 32z" />
    <glyph glyph-name="zero" unicode="0" horiz-adv-x="498" 
d="M374 259q0 56 -21.5 91.5t-65.5 35.5q-45 0 -76.5 -12.5t-48 -29t-25 -46.5t-10 -51.5t-1.5 -57.5q0 -57 20.5 -97.5t62.5 -40.5q46 0 78 12.5t48.5 30.5t25.5 48.5t11 54.5t2 62zM287 461q73 0 117.5 -55t44.5 -147q0 -71 -10.5 -121t-31.5 -78t-40.5 -42t-48.5 -25
q-48 -17 -109 -17q-44 0 -77 22t-49.5 56.5t-24 68.5t-7.5 66v23q0 164 94 218q53 31 142 31z" />
    <glyph glyph-name="one" unicode="1" horiz-adv-x="400" 
d="M40 16q0 17 11 27.5t27 10.5t20 -2h82v314l-62 -25q-13 -16 -31 -16q-16 0 -26.5 11t-10.5 27v13q0 17 11 27.5t26 10.5q7 0 9 -1l108 44q8 3 14 3q15 0 26 -11t11 -28v-363h60q11 8 23 8q16 0 26.5 -11t10.5 -27v-13q0 -16 -11 -27.5t-26 -11.5q-10 0 -20 7h-218
q-2 -2 -6.5 -7t-8 -8t-7.5 -3q-17 0 -27.5 11t-10.5 27v13z" />
    <glyph glyph-name="two" unicode="2" horiz-adv-x="492" 
d="M360 322q0 36 -15 50t-54 14q-99 0 -163 -39q-6 -30 -37 -30q-16 0 -26.5 11t-10.5 26v14q0 20 16 30q89 63 221 63q144 0 144 -139q0 -43 -18 -77t-51 -58t-63.5 -40t-71 -34t-57.5 -28q-6 -3 -14.5 -6.5t-15 -7t-11.5 -9.5h251q10 8 22 8q16 0 27 -11t11 -27v-13
q0 -16 -11 -27t-27 -11q-11 0 -20 6h-308h-3q-35 0 -35 29q0 20 17 53q20 38 51.5 62.5t103.5 54.5q79 33 113.5 64.5t34.5 71.5z" />
    <glyph glyph-name="three" unicode="3" horiz-adv-x="478" 
d="M339 355q0 31 -55 31q-96 0 -152 -32q-7 -30 -37 -30q-16 0 -26.5 11t-10.5 26v14q0 21 16 31q79 55 210 55q56 0 93 -28.5t37 -77.5q0 -48 -38 -78q53 -36 53 -99q0 -66 -38 -113.5t-92 -68t-115 -20.5q-106 0 -133 61q-4 7 -4 30q0 16 11 26.5t26 10.5q17 0 27.5 -10.5
t10.5 -28.5q22 -14 62 -14q76 0 123 35t47 92q0 50 -89 50q-3 0 -14 -1t-18 -1q-36 0 -41 31q-1 3 -1 9q0 22 24.5 30.5t61 16t53.5 24.5q9 9 9 18z" />
    <glyph glyph-name="four" unicode="4" horiz-adv-x="478" 
d="M383 430q17 0 27.5 -11t10.5 -26q0 -14 -7 -22v-167q15 -10 15 -30q0 -21 -19 -34v-101q4 -7 4 -21q0 -17 -11 -27.5t-26 -10.5h-14q-15 0 -26 11t-11 27q0 9 9 22v92h-262h-3q-37 0 -37 24q0 6 3 13l94 247v8q0 16 11 27t26 11h14q16 0 26.5 -11t10.5 -27q0 -18 -15 -30
l-76 -187h212v165q-7 10 -7 21q0 16 11.5 26.5t26.5 10.5h13z" />
    <glyph glyph-name="five" unicode="5" horiz-adv-x="462" 
d="M400 418q0 -16 -11 -27t-27 -11q-12 0 -21 6h-201v-68q58 23 124 23q60 0 105.5 -41t45.5 -103q0 -90 -68.5 -153t-153.5 -63q-110 0 -143 54q-5 8 -5 32q0 16 11 26.5t27 10.5t26.5 -10.5t10.5 -27.5q14 -14 55 -14q69 0 117.5 42t48.5 103q0 28 -23 48.5t-54 20.5
q-54 0 -88.5 -14t-51 -27.5t-27.5 -13.5q-9 0 -17 4q-13 6 -13 24v11v167q0 16 11 30.5t25 14.5h238q11 7 21 7q17 0 27.5 -11t10.5 -26v-14z" />
    <glyph glyph-name="six" unicode="6" horiz-adv-x="491" 
d="M396 386q0 -16 -11 -28t-26 -12t-25 10t-12 22q-27 8 -53 8q-52 0 -87.5 -36.5t-49.5 -90.5q68 58 167 58q67 0 107.5 -38t40.5 -100q0 -77 -62 -141q-64 -62 -144 -62q-55 0 -94.5 20t-59.5 53t-29 68t-9 73q0 112 61.5 191.5t158.5 79.5q57 0 92 -18t35 -46v-11z
M241 51q51 0 90.5 40.5t39.5 87.5q0 63 -72 63q-60 0 -98 -25.5t-53 -58.5q-5 -13 -19 -19q19 -88 112 -88z" />
    <glyph glyph-name="seven" unicode="7" horiz-adv-x="427" 
d="M360 462q16 0 27.5 -11.5t11.5 -26.5q0 -9 -4 -17q-125 -240 -148 -373q4 -12 4 -16q0 -17 -11 -27.5t-27 -10.5h-13q-17 0 -27.5 11t-10.5 27q0 14 11 25q21 131 126 342h-196v-24q0 -17 -11 -26.5t-26 -9.5t-26 10t-11 27v2v53q0 16 11 30.5t25 14.5h295z" />
    <glyph glyph-name="eight" unicode="8" horiz-adv-x="508" 
d="M387 178q0 21 -18.5 39t-55.5 18q-108 0 -148 -27.5t-40 -80.5q0 -30 22.5 -53t72.5 -23t85.5 12t52 32.5t23 40.5t6.5 42zM339 361q0 11 -12.5 18t-28.5 7q-75 0 -102 -13t-27 -39q0 -12 16 -19.5t34 -7.5q72 0 96 14.5t24 39.5zM298 461q49 0 83 -28.5t34 -71.5
q0 -39 -23 -70q31 -16 51 -45.5t20 -67.5q0 -96 -66.5 -149t-176.5 -53q-74 0 -122 41.5t-48 109.5q0 100 71 143q-27 27 -27 64q0 71 54.5 99t149.5 28z" />
    <glyph glyph-name="nine" unicode="9" horiz-adv-x="466" 
d="M181 218q41 0 69 7.5t38.5 16.5t21 16.5t19.5 7.5q5 0 14 -3q0 61 -26.5 92t-74.5 31q-37 0 -63 -10t-37.5 -27t-15.5 -32t-4 -31q0 -68 59 -68zM87 41q0 16 11.5 27t26.5 11q26 0 35 -24q13 -4 31 -4q56 0 93.5 37.5t51.5 95.5q-58 -41 -155 -41q-61 0 -97.5 39
t-36.5 104q0 81 53 128t142 47q85 0 130.5 -58t45.5 -154q0 -117 -63 -195t-164 -78q-46 0 -82 18q-22 11 -22 34v13z" />
    <glyph glyph-name="colon" unicode=":" horiz-adv-x="178" 
d="M90 200q-21 0 -35.5 14.5t-14.5 34.5q0 21 14.5 35.5t35.5 14.5q20 0 34 -14.5t14 -35.5t-14 -35t-34 -14zM90 -57q-21 0 -35.5 15t-14.5 35q0 21 14.5 35t35.5 14q20 0 34 -14t14 -35t-14 -35.5t-34 -14.5z" />
    <glyph glyph-name="semicolon" unicode=";" horiz-adv-x="183" 
d="M93 0q21 0 35.5 -14t14.5 -34q0 -89 -31 -160q-9 -22 -34 -22q-22 0 -33 24q-5 12 -5 13q0 5 13.5 38.5t13.5 72.5q-22 9 -22 34q0 21 14.5 34.5t33.5 13.5zM94 176q-21 0 -35 14t-14 34q0 21 14.5 35.5t34.5 14.5t34.5 -14.5t14.5 -35.5t-14.5 -34.5t-34.5 -13.5z" />
    <glyph glyph-name="less" unicode="&#x3c;" horiz-adv-x="427" 
d="M308 44l-252 170q-16 13 -16 32q0 22 19 31l243 144q9 22 33 22q22 0 34 -18l7 -12q5 -10 5 -19q0 -15 -11 -26t-25 -11h-4l-193 -114l200 -135q17 0 28 -11t11 -26q0 -11 -5 -19l-7 -12q-10 -18 -32 -18q-25 0 -35 22z" />
    <glyph glyph-name="equal" unicode="=" horiz-adv-x="415" 
d="M40 269q0 16 11 26.5t27 10.5q2 0 9 3t11 1h216q11 7 24 7q15 0 26 -10.5t11 -26.5v-14q0 -16 -11 -26.5t-26 -10.5q-11 0 -20 6h-218q-2 -1 -6.5 -6t-8 -8t-7.5 -3q-17 0 -27.5 11t-10.5 26v14zM40 119q0 16 11 26.5t27 10.5q2 0 9 3t11 1h216q11 7 24 7q15 0 26 -10.5
t11 -26.5v-14q0 -16 -11 -26.5t-26 -10.5q-11 0 -20 6h-218q-2 -1 -6.5 -6t-8 -8t-7.5 -3q-17 0 -27.5 11t-10.5 26v14z" />
    <glyph glyph-name="greater" unicode="&#x3e;" horiz-adv-x="427" 
d="M119 420l252 -169q16 -10 16 -32q0 -21 -18 -31l-244 -145q-10 -21 -35 -21q-22 0 -32 18l-7 12q-5 10 -5 18q0 15 11 26.5t26 11.5h4l192 114l-199 135q-18 0 -29 11t-11 26q0 12 5 19l7 12q10 18 31 18q27 0 36 -23z" />
    <glyph glyph-name="question" unicode="?" horiz-adv-x="450" 
d="M180 33q0 21 15.5 35.5t36.5 14.5t36.5 -14.5t15.5 -35.5t-15.5 -35.5t-36.5 -14.5t-36.5 14.5t-15.5 35.5zM335 379q0 57 -66 57q-98 0 -159 -16q-13 -19 -32 -19q-17 0 -27.5 10t-10.5 25v14q0 27 26 36q72 24 203 24q66 0 103.5 -34t37.5 -97q0 -50 -36 -92t-108 -93
q0 -18 -10.5 -29t-27.5 -11q-15 0 -26 10.5t-11 26.5v23q0 19 16 31q128 86 128 134z" />
    <glyph glyph-name="at" unicode="@" horiz-adv-x="770" 
d="M213 146q0 84 56.5 151t135.5 67q59 0 86 -53l12 46q6 24 33 24q13 0 23.5 -6t10.5 -15v-3l-58 -210q-6 -22 -6 -32q0 -17 10 -26.5t26 -9.5q43 0 82 51.5t39 122.5q0 90 -75 157t-185 67q-132 0 -213 -95q-77 -87 -77 -207q0 -60 25 -108.5t65 -77t86.5 -43.5t94.5 -15
q88 0 156 31q8 3 13 3q11 0 17 -8.5t6 -19.5q0 -21 -16 -30q-76 -35 -177 -35q-81 0 -147.5 25.5t-108.5 68t-64.5 96.5t-22.5 112q0 44 13.5 92t43.5 96t72 86.5t104 62.5t134 24q141 0 240 -94q83 -81 83 -199q0 -90 -57.5 -157t-130.5 -67q-27 0 -55 12.5t-38 43.5
q-47 -56 -113 -56q-51 0 -87 37t-36 91zM466 235q0 33 -16.5 54.5t-46.5 21.5q-44 0 -80.5 -47t-36.5 -105q0 -34 19 -57t48 -23q46 0 79.5 53t33.5 103z" />
    <glyph glyph-name="bracketleft" unicode="[" horiz-adv-x="243" 
d="M193 520q10 -14 10 -30q0 -18 -10 -33h-71v-457h71q6 -14 6 -29q0 -16 -6 -34h-132q-21 0 -21 23v537q-1 3 0 8t4.5 10t9.5 5h139z" />
    <glyph glyph-name="backslash" unicode="\" horiz-adv-x="361" 
d="M303 25q18 -12 18 -32q0 -25 -23 -35l-12 -5q-8 -3 -15 -3q-15 0 -26 10.5t-11 25.5v8l-178 432q-16 10 -16 31q0 26 22 35l12 5q8 3 15 3q15 0 26.5 -11t11.5 -27q0 -5 -1 -8z" />
    <glyph glyph-name="bracketright" unicode="]" horiz-adv-x="243" 
d="M50 520h139q9 0 12 -8.5t2 -14.5v-537q0 -23 -21 -23h-132q-6 18 -6 34q0 15 6 29h71v457h-71q-10 15 -10 33q0 16 10 30z" />
    <glyph glyph-name="asciicircum" unicode="^" horiz-adv-x="407" 
d="M40 231l119 307q23 15 43 15q21 0 44 -15l120 -298q1 -2 1 -4q0 -18 -36 -18q-34 0 -44 22l-85 210l-80 -210q-4 -8 -23 -15t-37 -7q-10 0 -17 3.5t-5 9.5z" />
    <glyph glyph-name="underscore" unicode="_" horiz-adv-x="680" 
d="M640 -120v-69h-600v69h600z" />
    <glyph glyph-name="grave" unicode="`" horiz-adv-x="182" 
d="M137 379q0 -16 -11 -26.5t-26 -10.5h-22q-38 0 -38 52v6q0 69 30 140q10 23 32 23q16 0 28 -11t12 -27q0 -7 -3 -15q-24 -57 -24 -96q22 -10 22 -35z" />
    <glyph glyph-name="braceleft" unicode="{" horiz-adv-x="284" 
d="M234 34v-58h-38q-52 0 -75 30q-16 20 -16 64v151q0 40 -55 47v58q55 7 55 47v151q0 44 16 64q24 32 77 32q17 0 36 -2v-58q-56 -7 -56 -45v-134q0 -35 -12 -53.5t-42 -30.5q30 -12 42 -30.5t12 -53.5v-134q0 -38 56 -45z" />
    <glyph glyph-name="bar" unicode="|" horiz-adv-x="175" 
d="M50 20v574q22 12 39 12q19 0 36 -12v-574q-24 -10 -38 -10q-16 0 -37 10z" />
    <glyph glyph-name="braceright" unicode="}" horiz-adv-x="284" 
d="M50 34q30 4 43 14.5t13 30.5v134q0 35 12 53.5t42 30.5q-30 12 -42 30.5t-12 53.5v134q0 20 -13 30.5t-43 14.5v58q12 0 23 1t13 1q53 0 77 -32q17 -22 17 -64v-151q0 -40 54 -47v-58q-54 -7 -54 -47v-151q0 -42 -17 -64q-21 -30 -74 -30h-39v58z" />
    <glyph glyph-name="asciitilde" unicode="~" horiz-adv-x="479" 
d="M97 416q-35 6 -43 20q-4 8 -4 20q0 10 1 15q27 49 51.5 68.5t58.5 19.5q21 0 55 -14l49 -21q31 -13 54 -13q29 0 62 49q30 0 39 -13.5t9 -39.5q-19 -39 -48 -61.5t-58 -22.5q-21 0 -69 19l-41 17q-29 12 -49 12q-19 0 -32.5 -11.5t-34.5 -43.5z" />
    <glyph glyph-name="afii57842" unicode="&#x5c0;" horiz-adv-x="257" 
d="M50 146q0 32 23.5 55.5t55.5 23.5t55 -23.5t23 -55.5t-23 -55.5t-55 -23.5t-55.5 23.5t-23.5 55.5z" />
    <glyph glyph-name="afii57658" unicode="&#x5c3;" horiz-adv-x="176" 
d="M51 575q19 10 36 10t39 -10v-540q-22 -10 -40 -10l-35 10v540z" />
    <glyph glyph-name="afii57664" unicode="&#x5d0;" horiz-adv-x="584" 
d="M283 344v46l-53 -40zM486 518l-126 -86v-99l176 -15q8 -19 8 -36q0 -23 -15 -39l-171 17v-236q-15 -24 -39 -24q-16 0 -36 10v260l-211 16q-11 15 -11 32q0 22 19 46q7 -1 19 -1q26 0 41 13l143 98v120q18 13 36 13q20 0 37 -17v-68l89 60q18 -2 31 -15t13 -32
q0 -8 -3 -17z" />
    <glyph glyph-name="afii57665" unicode="&#x5d1;" 
d="M333 504q-105 -42 -136 -84l136 -14v98zM409 602v-294q-4 -26 -7.5 -41.5t-14 -33.5t-26.5 -27l-300 -194q-32 10 -32 40q0 16 6 32l276 184q17 12 22 56l-242 32q-1 4 -2.5 11.5t-2.5 13.5t-1 11q0 27 26 48q60 63 112.5 98t109.5 46v16q19 14 35 14q20 0 41 -12z" />
    <glyph glyph-name="afii57666" unicode="&#x5d2;" horiz-adv-x="477" 
d="M62 476l238 114q39 0 42 -28l88 -534q-17 -28 -39 -28q-17 0 -37 16l-84 476l-180 -84q-36 20 -36 42q0 13 8 26z" />
    <glyph glyph-name="afii57667" unicode="&#x5d3;" horiz-adv-x="548" 
d="M354 458l-174 -196l239 24zM387 599l114 -306q7 -15 7 -29q0 -29 -35 -49l-411 -38l-2 -1h-2q-24 0 -24 15q0 14 23 43l269 314l-13 29q24 26 50 26q12 0 24 -4z" />
    <glyph glyph-name="afii57668" unicode="&#x5d4;" horiz-adv-x="527" 
d="M73 460l272 128h5q21 0 41 -22l88 -532q-15 -34 -38 -34q-18 0 -40 18l-46 244l-188 -84q-36 6 -36 43q0 7 2 25l212 92l-4 36l-198 -82q-40 8 -40 48q0 6 2 20l222 92l-10 40l-208 -92q-38 12 -38 45q0 5 2 15z" />
    <glyph glyph-name="afii57669" unicode="&#x5d5;" horiz-adv-x="478" 
d="M279 316l2 -316q-18 -20 -37 -20q-18 0 -38 20v316q-38 11 -65 31.5t-41 42.5t-21 56t-8.5 57.5t-1.5 62.5q22 28 40 28q14 0 40 -28v-29q0 -49 11 -81t46 -50q15 -7 33 -7q20 0 40 7q34 16 44.5 45.5t10.5 72.5v37q21 25 39 25q19 0 46 -15q0 -57 -4 -92t-18 -69.5
t-42.5 -56.5t-75.5 -37z" />
    <glyph glyph-name="afii57670" unicode="&#x5d6;" horiz-adv-x="613" 
d="M92 602h450q8 -18 8 -34q0 -15 -8 -42h-204l51 -176h153q9 -16 9 -35q0 -18 -9 -39h-446q-10 16 -10 35q0 14 10 40h214l-52 175h-168q-10 17 -10 35q0 20 12 41z" />
    <glyph glyph-name="afii57671" unicode="&#x5d7;" horiz-adv-x="586" 
d="M186 310l8 -75l222 70l-4 85zM156 592l20 -200l228 80l-10 83q20 25 40 25q19 0 40 -20l48 -560q-20 -18 -39 -18t-37 18l-24 222l-220 -80l4 -102q-18 -26 -35 -26q-7 0 -35 14l-54 554q18 23 40 23q17 0 34 -13z" />
    <glyph glyph-name="afii57672" unicode="&#x5d8;" horiz-adv-x="634" 
d="M497 318h-328q44 -126 162 -126q131 0 166 126zM508 377l-15 65l-124 -65h139zM250 379l202 119q-68 39 -121 39q-46 0 -93 -25q-36 -25 -58 -56.5t-22 -55.5v-21h92zM333 618q102 0 172.5 -77t70.5 -182q0 -102 -77.5 -170.5t-183.5 -68.5q-101 0 -168.5 77t-67.5 182
q0 101 75.5 170t178.5 69z" />
    <glyph glyph-name="afii57673" unicode="&#x5d9;" horiz-adv-x="659" 
d="M96 555l307 45q30 -10 30 -30v-445l195 27q23 -18 23 -39q0 -14 -11 -31l-264 -44q-14 0 -20 22v265l-256 -40q-20 31 -20 47q0 13 8 28l268 48v112l-250 -40q-21 23 -21 41q0 15 11 34z" />
    <glyph glyph-name="afii57674" unicode="&#x5da;" horiz-adv-x="618" 
d="M323 618l68 -198q27 28 48.5 57t50 72.5t37.5 56.5q10 0 18.5 -1.5t14 -2.5t10 -5t6.5 -5.5t4.5 -8t3 -8t2 -9t1.5 -8.5q-77 -116 -140 -199t-162 -182t-212 -177q-17 0 -27.5 2.5t-15.5 8.5t-6.5 10t-2 14t-0.5 13q132 95 282 260l-210 156q-2 14 -2 19q0 36 44 41
l184 -130l-68 200q1 2 7 10t9 10.5t10.5 6t15.5 3.5q12 0 30 -6z" />
    <glyph glyph-name="afii57675" unicode="&#x5db;" horiz-adv-x="618" 
d="M323 618l68 -198q27 28 48.5 57t50 72.5t37.5 56.5q10 0 18.5 -1.5t14 -2.5t10 -5t6.5 -5.5t4.5 -8t3 -8t2 -9t1.5 -8.5q-77 -116 -140 -199t-162 -182t-212 -177q-17 0 -27.5 2.5t-15.5 8.5t-6.5 10t-2 14t-0.5 13q132 95 282 260l-210 156q-2 14 -2 19q0 36 44 41
l184 -130l-68 200q1 2 7 10t9 10.5t10.5 6t15.5 3.5q12 0 30 -6z" />
    <glyph glyph-name="afii57676" unicode="&#x5dc;" horiz-adv-x="493" 
d="M430 831q6 0 20 1.5t21 1.5q35 0 35 -45q0 -13 -1 -21q-122 -24 -224.5 -145t-102.5 -272q0 -48 22 -76t60 -28q6 0 20 2q36 7 50 23.5t21.5 42t21.5 39.5q28 29 46 29q25 0 25 -54q0 -21 -5 -56q-9 -55 -67.5 -91t-122.5 -36q-40 0 -68 16q-1 0 -11.5 5.5t-17.5 10
t-19 14t-20 21.5t-16.5 28.5t-13 39t-4.5 48.5q0 47 18 115q24 86 62.5 154t81 107t79.5 63.5t70.5 41t39.5 21.5z" />
    <glyph glyph-name="afii57677" unicode="&#x5dd;" horiz-adv-x="582" 
d="M129 592l52 -154l58 136q21 15 32 15q19 0 42 -31l30 -102l114 156q20 8 28 8q21 0 34 -32q3 -24 3 -52q0 -154 -100.5 -359t-256.5 -371q-19 -4 -33 -4q-31 0 -31 24q0 4 2 16q68 90 111.5 152t95 147.5t85 170.5t52.5 174l-78 -112q-19 -16 -33 -16q-6 0 -11.5 2
t-11.5 5.5t-10 4.5l-34 76l-42 -96q-21 -18 -42 -18q-22 0 -44 22l-84 220q23 29 45 29q13 0 27 -11z" />
    <glyph glyph-name="afii57678" unicode="&#x5de;" horiz-adv-x="582" 
d="M129 592l52 -154l58 136q21 15 32 15q19 0 42 -31l30 -102l114 156q20 8 28 8q21 0 34 -32q3 -24 3 -52q0 -154 -100.5 -359t-256.5 -371q-19 -4 -33 -4q-31 0 -31 24q0 4 2 16q68 90 111.5 152t95 147.5t85 170.5t52.5 174l-78 -112q-19 -16 -33 -16q-6 0 -11.5 2
t-11.5 5.5t-10 4.5l-34 76l-42 -96q-21 -18 -42 -18q-22 0 -44 22l-84 220q23 29 45 29q13 0 27 -11z" />
    <glyph glyph-name="afii57679" unicode="&#x5df;" horiz-adv-x="578" 
d="M321 590l-20 -154l142 96l18 54q12 5 21 5q25 0 49 -29q-16 -88 -54.5 -174t-81 -150.5t-113.5 -142.5t-122 -126.5t-137 -126.5q-5 -1 -15 -1q-43 0 -43 41q0 4 2 18q9 8 57 52t60.5 56t54.5 53t59.5 61t51.5 59.5t55 70t46.5 71.5t47.5 83l-100 -64q-29 -12 -47 -12
q-36 0 -45 42l38 230q20 12 32 12q20 0 44 -24z" />
    <glyph glyph-name="afii57680" unicode="&#x5e0;" horiz-adv-x="579" 
d="M322 590l-20 -154l142 96l18 54q12 5 21 5q25 0 49 -29q-16 -88 -54.5 -174t-81 -150.5t-113.5 -142.5t-122 -126.5t-137 -126.5q-5 -1 -15 -1q-43 0 -43 41q0 4 2 18q9 8 57 52t60.5 56t54.5 53t59.5 61t51.5 59.5t55 70t46.5 71.5t47.5 83l-100 -64q-29 -12 -47 -12
q-36 0 -45 42l38 230q20 12 32 12q20 0 44 -24z" />
    <glyph glyph-name="afii57681" unicode="&#x5e1;" horiz-adv-x="643" 
d="M94 590h468q14 -16 14 -34q0 -17 -14 -38h-196v-59h198q14 -21 14 -40q0 -15 -14 -36h-198v-59h198q14 -16 14 -38q0 -15 -6 -36h-206v-230q-20 -20 -40 -20l-38 20v234h-186q-12 19 -12 36q0 9 12 38h186v55h-198q-10 20 -10 38q0 19 10 40h198v57h-196q-10 17 -10 30
q0 7 2 14t5.5 15t4.5 13z" />
    <glyph glyph-name="afii57682" unicode="&#x5e2;" horiz-adv-x="483" 
d="M152 416q0 -40 28.5 -69t68.5 -29t68.5 29t28.5 69t-28.5 69t-68.5 29t-68.5 -29t-28.5 -69zM73 416q0 74 51.5 126t124.5 52t124.5 -52t51.5 -126t-51.5 -126t-124.5 -52t-124.5 52t-51.5 126z" />
    <glyph glyph-name="afii57683" unicode="&#x5e3;" 
d="M70 452l298 130q44 0 44 -50q0 -69 -6 -124.5t-27.5 -127.5t-59 -139.5t-103.5 -150t-158 -168.5q-31 -11 -46 -11q-20 0 -20 18q0 19 8 36q49 55 70.5 80t65 77.5t64.5 85t51 84t44.5 93t25.5 93.5t11 104l-234 -100q-40 8 -40 34q0 15 12 36z" />
    <glyph glyph-name="afii57684" unicode="&#x5e4;" 
d="M70 452l298 130q44 0 44 -50q0 -69 -6 -124.5t-27.5 -127.5t-59 -139.5t-103.5 -150t-158 -168.5q-31 -11 -46 -11q-20 0 -20 18q0 19 8 36q49 55 70.5 80t65 77.5t64.5 85t51 84t44.5 93t25.5 93.5t11 104l-234 -100q-40 8 -40 34q0 15 12 36z" />
    <glyph glyph-name="afii57685" unicode="&#x5e5;" horiz-adv-x="615" 
d="M171 608v-204h186q1 0 12.5 -1t14 -2t11.5 -3.5t12.5 -6t8 -10t7.5 -15.5l-22 -104l180 28q27 -19 27 -37q0 -4 -1.5 -9t-5 -11t-4.5 -9l-212 -42q-18 -2 -25 -2q-45 0 -45 44l22 100h-170v-252q-18 -18 -34 -18t-38 16v534q21 16 39 16q8 0 37 -12z" />
    <glyph glyph-name="afii57686" unicode="&#x5e6;" horiz-adv-x="615" 
d="M171 608v-204h186q1 0 12.5 -1t14 -2t11.5 -3.5t12.5 -6t8 -10t7.5 -15.5l-22 -104l180 28q27 -19 27 -37q0 -4 -1.5 -9t-5 -11t-4.5 -9l-212 -42q-18 -2 -25 -2q-45 0 -45 44l22 100h-170v-252q-18 -18 -34 -18t-38 16v534q21 16 39 16q8 0 37 -12z" />
    <glyph glyph-name="afii57687" unicode="&#x5e7;" horiz-adv-x="592" 
d="M341 368h120q-32 110 -120 140v-140zM265 508q-94 -34 -118 -142h118v142zM299 600q60 0 107.5 -25t75 -65.5t41.5 -86t14 -91.5q0 -35 -34 -40h-164v-292q-21 -18 -39 -18t-35 18v292h-154h-9q-31 0 -31 40q0 97 62.5 175.5t165.5 92.5z" />
    <glyph glyph-name="afii57688" unicode="&#x5e8;" horiz-adv-x="472" 
d="M308 488l-144 -146h144v146zM312 602q21 8 36 8q30 0 38 -34v-556q-22 -20 -39 -20q-19 0 -39 20v250h-198q-50 0 -50 34q0 20 16 52z" />
    <glyph glyph-name="afii57689" unicode="&#x5e9;" horiz-adv-x="776" 
d="M119 590l116 -200l154 184q8 8 14 8t14 -8l104 -178l164 188q5 1 14 1q14 0 23 -7t12.5 -15.5t6.5 -22.5l-200 -248q-13 -20 -26 -20t-24 20l-96 168l-142 -172q-16 -16 -28 -16q-11 0 -18 16l-152 268q15 38 42 38q10 0 22 -4z" />
    <glyph glyph-name="afii57690" unicode="&#x5ea;" horiz-adv-x="511" 
d="M136 614l134 -126l130 128q1 0 7 -1.5t8 -1.5t7 -1.5t7.5 -3t6.5 -4t6 -5t5 -6t4 -8t2 -10.5t1 -13l-126 -126l128 -124q-1 -2 -5 -11t-7 -13t-13.5 -12.5t-26.5 -17.5l-132 124l-132 -128q-43 9 -54 54l130 124l-136 130q3 11 7 19.5t7.5 13t10.5 8.5t9.5 5t11.5 3.5
t10 2.5z" />
    <glyph glyph-name="uni2009" unicode="&#x2009;" horiz-adv-x="58" 
 />
    <glyph glyph-name="u10900" unicode="&#x10900;" horiz-adv-x="584" 
d="M283 344v46l-53 -40zM486 518l-126 -86v-99l176 -15q8 -19 8 -36q0 -23 -15 -39l-171 17v-236q-15 -24 -39 -24q-16 0 -36 10v260l-211 16q-11 15 -11 32q0 22 19 46q7 -1 19 -1q26 0 41 13l143 98v120q18 13 36 13q20 0 37 -17v-68l89 60q18 -2 31 -15t13 -32
q0 -8 -3 -17z" />
    <glyph glyph-name="u10901" unicode="&#x10901;" 
d="M333 504q-105 -42 -136 -84l136 -14v98zM409 602v-294q-4 -26 -7.5 -41.5t-14 -33.5t-26.5 -27l-300 -194q-32 10 -32 40q0 16 6 32l276 184q17 12 22 56l-242 32q-1 4 -2.5 11.5t-2.5 13.5t-1 11q0 27 26 48q60 63 112.5 98t109.5 46v16q19 14 35 14q20 0 41 -12z" />
    <glyph glyph-name="u10902" unicode="&#x10902;" horiz-adv-x="477" 
d="M62 476l238 114q39 0 42 -28l88 -534q-17 -28 -39 -28q-17 0 -37 16l-84 476l-180 -84q-36 20 -36 42q0 13 8 26z" />
    <glyph glyph-name="u10903" unicode="&#x10903;" horiz-adv-x="548" 
d="M354 458l-174 -196l239 24zM387 599l114 -306q7 -15 7 -29q0 -29 -35 -49l-411 -38l-2 -1h-2q-24 0 -24 15q0 14 23 43l269 314l-13 29q24 26 50 26q12 0 24 -4z" />
    <glyph glyph-name="u10904" unicode="&#x10904;" horiz-adv-x="527" 
d="M73 460l272 128h5q21 0 41 -22l88 -532q-15 -34 -38 -34q-18 0 -40 18l-46 244l-188 -84q-36 6 -36 43q0 7 2 25l212 92l-4 36l-198 -82q-40 8 -40 48q0 6 2 20l222 92l-10 40l-208 -92q-38 12 -38 45q0 5 2 15z" />
    <glyph glyph-name="u10905" unicode="&#x10905;" horiz-adv-x="478" 
d="M279 316l2 -316q-18 -20 -37 -20q-18 0 -38 20v316q-38 11 -65 31.5t-41 42.5t-21 56t-8.5 57.5t-1.5 62.5q22 28 40 28q14 0 40 -28v-29q0 -49 11 -81t46 -50q15 -7 33 -7q20 0 40 7q34 16 44.5 45.5t10.5 72.5v37q21 25 39 25q19 0 46 -15q0 -57 -4 -92t-18 -69.5
t-42.5 -56.5t-75.5 -37z" />
    <glyph glyph-name="u10906" unicode="&#x10906;" horiz-adv-x="613" 
d="M92 602h450q8 -18 8 -34q0 -15 -8 -42h-204l51 -176h153q9 -16 9 -35q0 -18 -9 -39h-446q-10 16 -10 35q0 14 10 40h214l-52 175h-168q-10 17 -10 35q0 20 12 41z" />
    <glyph glyph-name="u10907" unicode="&#x10907;" horiz-adv-x="586" 
d="M186 310l8 -75l222 70l-4 85zM156 592l20 -200l228 80l-10 83q20 25 40 25q19 0 40 -20l48 -560q-20 -18 -39 -18t-37 18l-24 222l-220 -80l4 -102q-18 -26 -35 -26q-7 0 -35 14l-54 554q18 23 40 23q17 0 34 -13z" />
    <glyph glyph-name="u10908" unicode="&#x10908;" horiz-adv-x="634" 
d="M497 318h-328q44 -126 162 -126q131 0 166 126zM508 377l-15 65l-124 -65h139zM250 379l202 119q-68 39 -121 39q-46 0 -93 -25q-36 -25 -58 -56.5t-22 -55.5v-21h92zM333 618q102 0 172.5 -77t70.5 -182q0 -102 -77.5 -170.5t-183.5 -68.5q-101 0 -168.5 77t-67.5 182
q0 101 75.5 170t178.5 69z" />
    <glyph glyph-name="u10909" unicode="&#x10909;" horiz-adv-x="659" 
d="M96 555l307 45q30 -10 30 -30v-445l195 27q23 -18 23 -39q0 -14 -11 -31l-264 -44q-14 0 -20 22v265l-256 -40q-20 31 -20 47q0 13 8 28l268 48v112l-250 -40q-21 23 -21 41q0 15 11 34z" />
    <glyph glyph-name="u1090A" unicode="&#x1090a;" horiz-adv-x="618" 
d="M323 618l68 -198q27 28 48.5 57t50 72.5t37.5 56.5q10 0 18.5 -1.5t14 -2.5t10 -5t6.5 -5.5t4.5 -8t3 -8t2 -9t1.5 -8.5q-77 -116 -140 -199t-162 -182t-212 -177q-17 0 -27.5 2.5t-15.5 8.5t-6.5 10t-2 14t-0.5 13q132 95 282 260l-210 156q-2 14 -2 19q0 36 44 41
l184 -130l-68 200q1 2 7 10t9 10.5t10.5 6t15.5 3.5q12 0 30 -6z" />
    <glyph glyph-name="u1090B" unicode="&#x1090b;" horiz-adv-x="493" 
d="M430 831q6 0 20 1.5t21 1.5q35 0 35 -45q0 -13 -1 -21q-122 -24 -224.5 -145t-102.5 -272q0 -48 22 -76t60 -28q6 0 20 2q36 7 50 23.5t21.5 42t21.5 39.5q28 29 46 29q25 0 25 -54q0 -21 -5 -56q-9 -55 -67.5 -91t-122.5 -36q-40 0 -68 16q-1 0 -11.5 5.5t-17.5 10
t-19 14t-20 21.5t-16.5 28.5t-13 39t-4.5 48.5q0 47 18 115q24 86 62.5 154t81 107t79.5 63.5t70.5 41t39.5 21.5z" />
    <glyph glyph-name="u1090C" unicode="&#x1090c;" horiz-adv-x="582" 
d="M129 592l52 -154l58 136q21 15 32 15q19 0 42 -31l30 -102l114 156q20 8 28 8q21 0 34 -32q3 -24 3 -52q0 -154 -100.5 -359t-256.5 -371q-19 -4 -33 -4q-31 0 -31 24q0 4 2 16q68 90 111.5 152t95 147.5t85 170.5t52.5 174l-78 -112q-19 -16 -33 -16q-6 0 -11.5 2
t-11.5 5.5t-10 4.5l-34 76l-42 -96q-21 -18 -42 -18q-22 0 -44 22l-84 220q23 29 45 29q13 0 27 -11z" />
    <glyph glyph-name="u1090D" unicode="&#x1090d;" horiz-adv-x="579" 
d="M322 590l-20 -154l142 96l18 54q12 5 21 5q25 0 49 -29q-16 -88 -54.5 -174t-81 -150.5t-113.5 -142.5t-122 -126.5t-137 -126.5q-5 -1 -15 -1q-43 0 -43 41q0 4 2 18q9 8 57 52t60.5 56t54.5 53t59.5 61t51.5 59.5t55 70t46.5 71.5t47.5 83l-100 -64q-29 -12 -47 -12
q-36 0 -45 42l38 230q20 12 32 12q20 0 44 -24z" />
    <glyph glyph-name="u1090E" unicode="&#x1090e;" horiz-adv-x="643" 
d="M94 590h468q14 -16 14 -34q0 -17 -14 -38h-196v-59h198q14 -21 14 -40q0 -15 -14 -36h-198v-59h198q14 -16 14 -38q0 -15 -6 -36h-206v-230q-20 -20 -40 -20l-38 20v234h-186q-12 19 -12 36q0 9 12 38h186v55h-198q-10 20 -10 38q0 19 10 40h198v57h-196q-10 17 -10 30
q0 7 2 14t5.5 15t4.5 13z" />
    <glyph glyph-name="u1090F" unicode="&#x1090f;" horiz-adv-x="483" 
d="M152 416q0 -40 28.5 -69t68.5 -29t68.5 29t28.5 69t-28.5 69t-68.5 29t-68.5 -29t-28.5 -69zM73 416q0 74 51.5 126t124.5 52t124.5 -52t51.5 -126t-51.5 -126t-124.5 -52t-124.5 52t-51.5 126z" />
    <glyph glyph-name="u10910" unicode="&#x10910;" 
d="M70 452l298 130q44 0 44 -50q0 -69 -6 -124.5t-27.5 -127.5t-59 -139.5t-103.5 -150t-158 -168.5q-31 -11 -46 -11q-20 0 -20 18q0 19 8 36q49 55 70.5 80t65 77.5t64.5 85t51 84t44.5 93t25.5 93.5t11 104l-234 -100q-40 8 -40 34q0 15 12 36z" />
    <glyph glyph-name="u10911" unicode="&#x10911;" horiz-adv-x="615" 
d="M171 608v-204h186q1 0 12.5 -1t14 -2t11.5 -3.5t12.5 -6t8 -10t7.5 -15.5l-22 -104l180 28q27 -19 27 -37q0 -4 -1.5 -9t-5 -11t-4.5 -9l-212 -42q-18 -2 -25 -2q-45 0 -45 44l22 100h-170v-252q-18 -18 -34 -18t-38 16v534q21 16 39 16q8 0 37 -12z" />
    <glyph glyph-name="u10912" unicode="&#x10912;" horiz-adv-x="592" 
d="M341 368h120q-32 110 -120 140v-140zM265 508q-94 -34 -118 -142h118v142zM299 600q60 0 107.5 -25t75 -65.5t41.5 -86t14 -91.5q0 -35 -34 -40h-164v-292q-21 -18 -39 -18t-35 18v292h-154h-9q-31 0 -31 40q0 97 62.5 175.5t165.5 92.5z" />
    <glyph glyph-name="u10913" unicode="&#x10913;" horiz-adv-x="472" 
d="M308 488l-144 -146h144v146zM312 602q21 8 36 8q30 0 38 -34v-556q-22 -20 -39 -20q-19 0 -39 20v250h-198q-50 0 -50 34q0 20 16 52z" />
    <glyph glyph-name="u10914" unicode="&#x10914;" horiz-adv-x="776" 
d="M119 590l116 -200l154 184q8 8 14 8t14 -8l104 -178l164 188q5 1 14 1q14 0 23 -7t12.5 -15.5t6.5 -22.5l-200 -248q-13 -20 -26 -20t-24 20l-96 168l-142 -172q-16 -16 -28 -16q-11 0 -18 16l-152 268q15 38 42 38q10 0 22 -4z" />
    <glyph glyph-name="u10915" unicode="&#x10915;" horiz-adv-x="511" 
d="M136 614l134 -126l130 128q1 0 7 -1.5t8 -1.5t7 -1.5t7.5 -3t6.5 -4t6 -5t5 -6t4 -8t2 -10.5t1 -13l-126 -126l128 -124q-1 -2 -5 -11t-7 -13t-13.5 -12.5t-26.5 -17.5l-132 124l-132 -128q-43 9 -54 54l130 124l-136 130q3 11 7 19.5t7.5 13t10.5 8.5t9.5 5t11.5 3.5
t10 2.5z" />
    <glyph glyph-name="u1091F" unicode="&#x1091f;" horiz-adv-x="257" 
d="M50 146q0 32 23.5 55.5t55.5 23.5t55 -23.5t23 -55.5t-23 -55.5t-55 -23.5t-55.5 23.5t-23.5 55.5z" />
  </font>
</defs>
</svg>
