<?xml version="1.0" standalone="no"?>
<!DOCTYPE svg PUBLIC "-//W3C//DTD SVG 1.1//EN" "http://www.w3.org/Graphics/SVG/1.1/DTD/svg11.dtd" >
<svg>
<metadata>
Hebrew glyphs from the Times New Roman font originally designed by Victor Lardent, under direction by Stanley Morison at The Times of London newspaper, 1932.
</metadata>
<defs>
<font id="HebrewTimes" horiz-adv-x="682" >
  <font-face 
    font-family="Hebrew-Times"
    font-weight="400"
    font-stretch="normal"
    units-per-em="2048"
    panose-1="2 2 6 3 5 4 5 2 3 4"
    ascent="1638"
    descent="-410"
    bbox="-281 -442 1818 1546"
    underline-thickness="100"
    underline-position="-173"
    unicode-range="U+0021-U+FB4F"
  />
<missing-glyph horiz-adv-x="1024" 
 />
    <glyph glyph-name=".notdef" horiz-adv-x="1024" 
 />
    <glyph glyph-name="quotedbl" unicode="&#x22;" horiz-adv-x="836" 
d="M576 803l-54 292l-22 121q-2 25 -2 50q0 63 28 92t74 29q43 0 71.5 -29t28.5 -78q0 -85 -19 -184l-57 -293h-48zM210 803l-55 296q-22 122 -22 166q0 64 26.5 93t71.5 29q44 0 73 -29.5t29 -78.5q0 -39 -26 -181l-54 -295h-43z" />
    <glyph glyph-name="quotesingle" unicode="'" horiz-adv-x="369" 
d="M158 803l-54 296q-23 123 -23 166q0 64 26 93t71 29t74.5 -29.5t29.5 -77.5q0 -37 -26 -182l-54 -295h-44z" />
    <glyph glyph-name="parenleft" unicode="(" 
d="M636 -401v-37q-151 76 -252 178q-144 145 -222 342t-78 409q0 310 153 565.5t399 365.5v-42q-123 -68 -202 -186t-118 -299t-39 -378q0 -214 33 -389q26 -138 63 -221.5t99.5 -160.5t163.5 -147z" />
    <glyph glyph-name="parenright" unicode=")" 
d="M46 1380v42q152 -75 253 -177q143 -146 221 -342.5t78 -409.5q0 -310 -152.5 -565.5t-399.5 -365.5v37q123 69 202.5 186.5t118 299t38.5 378.5q0 213 -33 389q-25 138 -62.5 221t-99.5 160t-164 147z" />
    <glyph glyph-name="asterisk" unicode="*" horiz-adv-x="1024" 
d="M494 1044q-4 69 -28 137q-34 98 -34 135q0 52 24.5 79t60.5 27q31 0 54 -27t23 -77q0 -45 -26.5 -125.5t-32.5 -148.5q55 35 99 85q68 79 101 98t67 19q33 0 55.5 -22.5t22.5 -53.5q0 -37 -33 -66t-165 -58q-77 -17 -128 -39q52 -27 127 -41q121 -22 158.5 -55t37.5 -72
q0 -30 -22.5 -52t-52.5 -22t-66.5 21t-98.5 94q-41 49 -102 92q2 -57 23 -124q36 -118 36 -161q0 -40 -24 -67.5t-51 -27.5q-37 0 -67 29q-21 21 -21 67q0 48 23 115.5t29 93t11 75.5q-59 -39 -103 -87q-73 -82 -110 -104q-26 -16 -54 -16q-34 0 -58 23t-24 51
q0 25 20.5 52.5t61.5 45.5q27 12 123 32q62 13 121 38q-54 27 -129 42q-123 26 -152 47q-45 33 -45 80q0 27 22.5 49.5t52.5 22.5q33 0 70 -21t92 -84.5t112 -98.5z" />
    <glyph glyph-name="comma" unicode="," horiz-adv-x="512" 
d="M110 -341v44q103 34 159.5 105.5t56.5 151.5q0 19 -9 32q-7 9 -14 9q-11 0 -48 -20q-18 -9 -38 -9q-49 0 -78 29t-29 80q0 49 37.5 84t91.5 35q66 0 117.5 -57.5t51.5 -152.5q0 -103 -71.5 -191.5t-226.5 -139.5z" />
    <glyph glyph-name="hyphen" unicode="-" 
d="M83 535h517v-151h-517v151z" />
    <glyph glyph-name="hyphen" unicode="&#xad;" 
d="M83 535h517v-151h-517v151z" />
    <glyph glyph-name="period" unicode="." horiz-adv-x="512" 
d="M256 194q47 0 79 -32.5t32 -78.5t-32.5 -78.5t-78.5 -32.5t-78.5 32.5t-32.5 78.5q0 47 32.5 79t78.5 32z" />
    <glyph glyph-name="slash" unicode="/" horiz-adv-x="569" 
d="M574 1422l-491 -1450h-80l491 1450h80z" />
    <glyph glyph-name="zero" unicode="0" horiz-adv-x="1024" 
d="M74 670q0 232 70 399.5t186 249.5q90 65 186 65q156 0 280 -159q155 -197 155 -534q0 -236 -68 -401t-173.5 -239.5t-203.5 -74.5q-194 0 -323 229q-109 193 -109 465zM270 645q0 -280 69 -457q57 -149 170 -149q54 0 112 48.5t88 162.5q46 172 46 485q0 232 -48 387
q-36 115 -93 163q-41 33 -99 33q-68 0 -121 -61q-72 -83 -98 -261t-26 -351z" />
    <glyph glyph-name="one" unicode="1" horiz-adv-x="1024" 
d="M240 1223l330 161h33v-1145q0 -114 9.5 -142t39.5 -43t122 -17v-37h-510v37q96 2 124 16.5t39 39t11 146.5v732q0 148 -10 190q-7 32 -25.5 47t-44.5 15q-37 0 -103 -31z" />
    <glyph glyph-name="two" unicode="2" horiz-adv-x="1024" 
d="M939 261l-95 -261h-800v37q353 322 497 526t144 373q0 129 -79 212t-189 83q-100 0 -179.5 -58.5t-117.5 -171.5h-37q25 185 128.5 284t258.5 99q165 0 275.5 -106t110.5 -250q0 -103 -48 -206q-74 -162 -240 -343q-249 -272 -311 -328h354q108 0 151.5 8t78.5 32.5
t61 69.5h37z" />
    <glyph glyph-name="three" unicode="3" horiz-adv-x="1024" 
d="M104 1098q58 137 146.5 211.5t220.5 74.5q163 0 250 -106q66 -79 66 -169q0 -148 -186 -306q125 -49 189 -140t64 -214q0 -176 -112 -305q-146 -168 -423 -168q-137 0 -186.5 34t-49.5 73q0 29 23.5 51t56.5 22q25 0 51 -8q17 -5 77 -36.5t83 -37.5q37 -11 79 -11
q102 0 177.5 79t75.5 187q0 79 -35 154q-26 56 -57 85q-43 40 -118 72.5t-153 32.5h-32v30q79 10 158.5 57t115.5 113t36 145q0 103 -64.5 166.5t-160.5 63.5q-155 0 -259 -166z" />
    <glyph glyph-name="four" unicode="4" horiz-adv-x="1024" 
d="M953 500v-142h-182v-358h-165v358h-574v128l629 898h110v-884h182zM606 500v673l-476 -673h476z" />
    <glyph glyph-name="five" unicode="5" horiz-adv-x="1024" 
d="M889 1356l-78 -170h-408l-89 -182q265 -39 420 -197q133 -136 133 -320q0 -107 -43.5 -198t-109.5 -155t-147 -103q-115 -55 -236 -55q-122 0 -177.5 41.5t-55.5 91.5q0 28 23 49.5t58 21.5q26 0 45.5 -8t66.5 -41q75 -52 152 -52q117 0 205.5 88.5t88.5 215.5
q0 123 -79 229.5t-218 164.5q-109 45 -297 52l260 527h486z" />
    <glyph glyph-name="six" unicode="6" horiz-adv-x="1024" 
d="M918 1384v-37q-132 -13 -215.5 -52.5t-165 -120.5t-135 -180.5t-89.5 -236.5q144 99 289 99q139 0 241 -112t102 -288q0 -170 -103 -310q-124 -170 -328 -170q-139 0 -236 92q-190 179 -190 464q0 182 73 346t208.5 291t259.5 171t231 44h58zM296 684q-18 -135 -18 -218
q0 -96 35.5 -208.5t105.5 -178.5q51 -47 124 -47q87 0 155.5 82t68.5 234q0 171 -68 296t-193 125q-38 0 -81.5 -16t-128.5 -69z" />
    <glyph glyph-name="seven" unicode="7" horiz-adv-x="1024" 
d="M206 1356h727v-38l-452 -1346h-112l405 1221h-373q-113 0 -161 -27q-84 -46 -135 -142l-29 11z" />
    <glyph glyph-name="eight" unicode="8" horiz-adv-x="1024" 
d="M393 683q-161 132 -207.5 212t-46.5 166q0 132 102 227.5t271 95.5q164 0 264 -89t100 -203q0 -76 -54 -155t-225 -186q176 -136 233 -214q76 -102 76 -215q0 -143 -109 -244.5t-286 -101.5q-193 0 -301 121q-86 97 -86 212q0 90 60.5 178.5t208.5 195.5zM550 790
q120 108 152 170.5t32 141.5q0 105 -59 164.5t-161 59.5t-166 -59t-64 -138q0 -52 26.5 -104t75.5 -99zM440 645q-83 -70 -123 -152.5t-40 -178.5q0 -129 70.5 -206.5t179.5 -77.5q108 0 173 61t65 148q0 72 -38 129q-71 106 -287 277z" />
    <glyph glyph-name="nine" unicode="9" horiz-adv-x="1024" 
d="M108 -28v37q130 2 242 60.5t216.5 204.5t145.5 321q-157 -101 -284 -101q-143 0 -245 110.5t-102 293.5q0 178 102 317q123 169 321 169q167 0 286 -138q146 -171 146 -422q0 -226 -111 -421.5t-309 -324.5q-161 -106 -351 -106h-57zM728 669q18 130 18 208
q0 97 -33 209.5t-93.5 172.5t-137.5 60q-89 0 -156 -80t-67 -238q0 -211 89 -330q65 -86 160 -86q46 0 109 22t111 62z" />
    <glyph glyph-name="colon" unicode=":" horiz-adv-x="569" 
d="M289 944q46 0 78.5 -32.5t32.5 -78.5t-32.5 -78.5t-78.5 -32.5t-78.5 32.5t-32.5 78.5t32.5 78.5t78.5 32.5zM287 195q47 0 79.5 -33t32.5 -79t-33 -78.5t-79 -32.5t-78.5 32.5t-32.5 78.5t32.5 79t78.5 33z" />
    <glyph glyph-name="semicolon" unicode=";" horiz-adv-x="569" 
d="M282 945q46 0 78.5 -32t32.5 -78t-32.5 -78.5t-78.5 -32.5t-78.5 32.5t-32.5 78.5t32.5 78t78.5 32zM142 -341v44q103 34 159.5 105.5t56.5 151.5q0 19 -9 32q-7 9 -14 9q-11 0 -48 -20q-18 -9 -38 -9q-49 0 -78 29t-29 80q0 49 37.5 84t91.5 35q66 0 117.5 -57.5
t51.5 -152.5q0 -103 -71.5 -191.5t-226.5 -139.5z" />
    <glyph glyph-name="less" unicode="&#x3c;" horiz-adv-x="1155" 
d="M39 706l1076 466v-87l-926 -402l926 -406v-90l-1076 470v49z" />
    <glyph glyph-name="equal" unicode="=" horiz-adv-x="1155" 
d="M37 883h1079v-82h-1079v82zM37 557h1079v-82h-1079v82z" />
    <glyph glyph-name="greater" unicode="&#x3e;" horiz-adv-x="1155" 
d="M1113 653l-1076 -466v86l927 402l-927 406v91l1076 -470v-49z" />
    <glyph glyph-name="question" unicode="?" horiz-adv-x="909" 
d="M454 320h-41q7 126 31.5 208.5t101.5 229.5q60 113 78 173.5t18 122.5q0 127 -67.5 202t-165.5 75q-87 0 -137 -41t-50 -89q0 -37 30 -91t30 -82q0 -36 -23 -60.5t-56 -24.5q-42 0 -76.5 41.5t-34.5 115.5q0 113 97 200t263 87q206 0 303 -120q72 -88 72 -195
q0 -73 -32.5 -150t-123.5 -181q-145 -164 -177.5 -232.5t-39.5 -188.5zM440 196q47 0 79.5 -32.5t32.5 -79.5q0 -46 -33 -78.5t-79 -32.5t-78.5 32.5t-32.5 78.5q0 47 32.5 79.5t78.5 32.5z" />
    <glyph glyph-name="bracketleft" unicode="[" 
d="M608 -406h-440v1793h440v-79h-290v-1636h290v-78z" />
    <glyph glyph-name="backslash" unicode="\" horiz-adv-x="569" 
d="M83 1422l490 -1450h-80l-490 1450h80z" />
    <glyph glyph-name="bracketright" unicode="]" 
d="M75 1387h440v-1794h-440v79h290v1636h-290v79z" />
    <glyph glyph-name="asciicircum" unicode="^" horiz-adv-x="961" 
d="M498 1384l425 -717h-92l-350 586l-350 -586h-94l431 717h30z" />
    <glyph glyph-name="underscore" unicode="_" horiz-adv-x="1024" 
d="M1042 -442h-1059v84h1059v-84z" />
    <glyph glyph-name="grave" unicode="`" 
d="M118 1390h223l106 -345h-35z" />
    <glyph glyph-name="braceleft" unicode="{" horiz-adv-x="983" 
d="M841 -407v-35q-167 23 -271.5 135.5t-104.5 249.5q0 72 23 167.5t23 148.5q0 72 -60.5 134.5t-167.5 76.5v41q107 14 167.5 76t60.5 135q0 53 -23 148t-23 168q0 136 104.5 249t271.5 135v-35q-117 -28 -171.5 -91.5t-54.5 -139.5q0 -59 22.5 -155.5t22.5 -164.5
q0 -101 -74 -196t-221 -147q144 -53 219.5 -150t75.5 -198q0 -68 -22.5 -164.5t-22.5 -155.5q0 -76 54.5 -139.5t171.5 -92.5z" />
    <glyph glyph-name="bar" unicode="|" horiz-adv-x="410" 
d="M244 1422v-1864h-83v1864h83z" />
    <glyph glyph-name="braceright" unicode="}" horiz-adv-x="983" 
d="M177 1387v35q167 -22 271.5 -134.5t104.5 -250.5q0 -72 -23 -167t-23 -148q0 -72 60.5 -134.5t167.5 -76.5v-41q-107 -14 -167.5 -76.5t-60.5 -134.5q0 -53 23 -148.5t23 -167.5q0 -136 -104.5 -249t-271.5 -136v35q117 29 171.5 92t54.5 140q0 59 -23 155.5t-23 163.5
q0 102 74.5 197t221.5 147q-144 53 -220 150t-76 198q0 68 23 164.5t23 155.5q0 76 -54.5 139.5t-171.5 91.5z" />
    <glyph glyph-name="asciitilde" unicode="~" horiz-adv-x="1108" 
d="M1066 675h45q-4 -130 -74 -203.5t-171 -73.5q-46 0 -99 15.5t-274 105.5q-154 64 -219 64q-70 0 -118 -43t-68 -140h-44q6 135 74 206.5t160 71.5q44 0 90 -14q104 -30 273.5 -102.5t238.5 -72.5q75 0 126 48t60 138z" />
    <glyph glyph-name="degree" unicode="&#xb0;" horiz-adv-x="819" 
d="M405 1386q129 0 218.5 -90t89.5 -218q0 -127 -90 -217t-218 -90q-127 0 -217 90t-90 217q0 128 89.5 218t217.5 90zM405 1302q-93 0 -158 -65t-65 -158q0 -92 65 -157.5t158 -65.5q92 0 157.5 65.5t65.5 157.5q0 93 -65 158t-158 65z" />
    <glyph glyph-name="ellipsis" unicode="&#x2026;" horiz-adv-x="2048" 
d="M341 194q47 0 79 -32.5t32 -78.5t-32.5 -78.5t-78.5 -32.5t-78.5 32.5t-32.5 78.5q0 47 32.5 79t78.5 32zM1024 194q46 0 78.5 -32.5t32.5 -78.5t-32.5 -78.5t-78.5 -32.5t-78.5 32.5t-32.5 78.5q0 47 32.5 79t78.5 32zM1707 194q46 0 78.5 -32.5t32.5 -78.5t-32.5 -78.5
t-78.5 -32.5t-78.5 32.5t-32.5 78.5q0 47 32 79t79 32z" />
    <glyph glyph-name="periodcentered" unicode="&#xb7;" horiz-adv-x="512" 
d="M256 789q47 0 79 -32.5t32 -78.5t-32.5 -78.5t-78.5 -32.5t-78.5 32.5t-32.5 78.5t32.5 78.5t78.5 32.5z" />
    <glyph glyph-name="quotesinglbase" unicode="&#x201a;" 
d="M203 -341v44q103 34 159.5 105.5t56.5 151.5q0 19 -9 32q-7 9 -14 9q-11 0 -48 -20q-18 -9 -38 -9q-49 0 -78 29t-29 80q0 49 37.5 84t91.5 35q66 0 117.5 -57.5t51.5 -152.5q0 -103 -71.5 -191.5t-226.5 -139.5z" />
    <glyph glyph-name="cedilla" unicode="&#xb8;" 
d="M361 16h60l-50 -79q63 -16 94 -54t31 -92q0 -72 -60 -126.5t-155 -54.5q-37 0 -94 7v43q28 -4 48 -4q51 0 86 33.5t35 76.5q0 30 -23 52t-57 22q-10 0 -26 -2z" />
    <glyph glyph-name="macron" unicode="&#xaf;" horiz-adv-x="1024" 
d="M1042 1462h-1059v84h1059v-84z" />
    <glyph glyph-name="sheva" unicode="&#x5b0;" 
d="M257 -135q0 21 9.5 39t29 31t44.5 13q24 -1 42.5 -12t29.5 -29.5t11 -41.5q0 -24 -11 -42.5t-29.5 -29.5t-42.5 -11q-21 0 -39.5 9.5t-31 28.5t-12.5 45zM259 -358q0 21 9.5 39t29 31t44.5 13q24 0 42.5 -11.5t29.5 -30t11 -41.5q0 -24 -11 -42.5t-29.5 -29.5t-42.5 -11
t-42.5 11t-29.5 29.5t-11 42.5z" />
    <glyph glyph-name="hatafsegol" unicode="&#x5b1;" 
d="M341 -50q24 -1 42.5 -12t29.5 -29.5t11 -41.5q0 -24 -11 -42.5t-29.5 -29.5t-42.5 -11q-21 0 -39.5 9.5t-31 28.5t-12.5 45q0 21 9.5 39t29 31t44.5 13zM111 -50q21 0 39.5 -10t31 -29t12.5 -44q0 -24 -11 -42.5t-29.5 -29.5t-42.5 -11t-42.5 11t-29.5 29.5t-11 42.5
q0 23 11.5 41.5t30 30t41.5 11.5zM488 -133q0 23 11.5 41.5t30 30t41.5 11.5q24 -1 42.5 -12t29.5 -29.5t11 -41.5q0 -22 -9.5 -40t-29 -30.5t-44.5 -12.5q-24 0 -42.5 11t-29.5 29.5t-11 42.5zM143 -357q0 23 11.5 41.5t30 30t41.5 11.5q24 0 42.5 -11.5t29.5 -30t11 -41.5
q0 -24 -11 -42.5t-29.5 -29.5t-42.5 -11t-42.5 11t-29.5 29.5t-11 42.5zM488 -357q0 23 11 41.5t29.5 30t42.5 11.5t42.5 -11.5t29.5 -30t11 -41.5q0 -24 -11 -42.5t-29.5 -29.5t-42.5 -11t-42.5 11t-29.5 29.5t-11 42.5z" />
    <glyph glyph-name="hatafpatah" unicode="&#x5b2;" 
d="M466 -133q0 21 9.5 39t29 31t44.5 13q24 0 42.5 -11.5t29.5 -30t11 -41.5q0 -24 -11.5 -42.5t-30 -29.5t-41.5 -11q-24 0 -42.5 11t-29.5 29.5t-11 42.5zM50 -170v103h332v-103h-332zM466 -357q0 21 9.5 39t29 31t44.5 13q24 -1 42.5 -12t29.5 -29.5t11 -41.5
q0 -22 -9.5 -40t-29 -30.5t-44.5 -12.5q-24 0 -42.5 11t-29.5 29.5t-11 42.5z" />
    <glyph glyph-name="hatafqamats" unicode="&#x5b3;" 
d="M498 -133q0 23 11.5 41.5t30 30t41.5 11.5q30 0 56.5 -22t26.5 -61q1 -35 -23.5 -59t-59.5 -24q-23 0 -41.5 11t-29.5 29.5t-12 42.5zM257 -245q42 -24 42 -73q1 -35 -23.5 -59t-58.5 -24q-21 0 -39.5 9.5t-31 29t-12.5 44.5q0 49 43 73v75h-159v103h395v-103h-156v-75z
M498 -359q0 21 10 39t29 31t44 13q30 0 56.5 -22t26.5 -61q0 -35 -24 -59t-59 -24q-23 0 -41.5 11t-29.5 29.5t-12 42.5z" />
    <glyph glyph-name="hiriq" unicode="&#x5b4;" 
d="M258 -230q0 21 9.5 39t29 31t44.5 13q24 -1 42.5 -12t29.5 -29.5t11 -41.5q0 -24 -11 -42.5t-29.5 -29.5t-42.5 -11q-21 0 -39.5 9.5t-31 28.5t-12.5 45z" />
    <glyph glyph-name="tsere" unicode="&#x5b5;" 
d="M456 -147q21 0 39.5 -10t31 -29t12.5 -44q0 -24 -11.5 -42.5t-30 -29.5t-41.5 -11q-24 0 -42.5 11t-29.5 29.5t-11 42.5q0 23 11 41.5t29.5 30t42.5 11.5zM226 -147q21 0 39.5 -10t31 -29t12.5 -44q0 -24 -11 -42.5t-29.5 -29.5t-42.5 -11t-42.5 11t-29.5 29.5t-11 42.5
q0 21 9.5 39t29 31t44.5 13z" />
    <glyph glyph-name="segol" unicode="&#x5b6;" 
d="M456 -50q21 0 39.5 -10t31 -29t12.5 -44q0 -24 -11.5 -42.5t-30 -29.5t-41.5 -11q-24 0 -42.5 11t-29.5 29.5t-11 42.5q0 23 11 41.5t29.5 30t42.5 11.5zM226 -50q21 0 39.5 -10t31 -29t12.5 -44q0 -24 -11 -42.5t-29.5 -29.5t-42.5 -11t-42.5 11t-29.5 29.5t-11 42.5
q0 21 9.5 39t29 31t44.5 13zM258 -357q0 21 9.5 39t29 31t44.5 13q24 0 42.5 -11.5t29.5 -30t11 -41.5q0 -24 -11 -42.5t-29.5 -29.5t-42.5 -11t-42.5 11t-29.5 29.5t-11 42.5z" />
    <glyph glyph-name="patah" unicode="&#x5b7;" 
d="M143 -267v103h395v-103h-395z" />
    <glyph glyph-name="qamats" unicode="&#x5b8;" 
d="M383 -284q43 -24 43 -73q0 -24 -11 -42.5t-29.5 -29.5t-42.5 -11q-21 0 -39 9.5t-31 29t-13 44.5q0 49 43 73v75h-159v103h395v-103h-156v-75z" />
    <glyph glyph-name="holam" unicode="&#x5b9;" 
d="M258 1286q0 22 9.5 40t29 30.5t44.5 12.5q24 0 42.5 -11t29.5 -29.5t11 -42.5q0 -21 -9.5 -39t-29 -31t-44.5 -13q-24 0 -42.5 11.5t-29.5 30t-11 41.5z" />
    <glyph glyph-name="qubuts" unicode="&#x5bb;" 
d="M111 -50q21 0 39.5 -10t31 -29t12.5 -44q0 -24 -11 -42.5t-29.5 -29.5t-42.5 -11t-42.5 11t-29.5 29.5t-11 42.5q0 23 11.5 41.5t30 30t41.5 11.5zM341 -162q24 0 42.5 -11.5t29.5 -30t11 -41.5q0 -24 -11.5 -42.5t-30 -29.5t-41.5 -11q-24 0 -42.5 11t-29.5 29.5
t-11 42.5q0 21 9.5 39t29 31t44.5 13zM488 -357q0 23 11 41.5t29.5 30t42.5 11.5t42.5 -11.5t29.5 -30t11 -41.5q0 -24 -11 -42.5t-29.5 -29.5t-42.5 -11t-42.5 11t-29.5 29.5t-11 42.5z" />
    <glyph glyph-name="dagesh" unicode="&#x5bc;" 
d="M258 515q0 24 11.5 42.5t30 29.5t41.5 11q24 0 42.5 -11t29.5 -29.5t11 -42.5q0 -23 -11.5 -41.5t-30 -30t-41.5 -11.5q-21 0 -39.5 10t-31 29t-12.5 44z" />
    <glyph glyph-name="meteg" unicode="&#x5bd;" 
d="M289 -108h103v-332h-103v332z" />
    <glyph glyph-name="maqaf" unicode="&#x5be;" horiz-adv-x="729" 
d="M86 836v220h557v-220h-557z" />
    <glyph glyph-name="rafe" unicode="&#x5bf;" 
d="M143 1220v103h395v-103h-395z" />
    <glyph glyph-name="paseq" unicode="&#x5c0;" horiz-adv-x="596" 
d="M224 -100v1255h147v-1255h-147z" />
    <glyph glyph-name="shindot" unicode="&#x5c1;" horiz-adv-x="702" 
d="M687 1286q1 24 12 42.5t29.5 29.5t41.5 11q30 0 56.5 -21.5t26.5 -61.5q0 -34 -24 -58.5t-59 -24.5q-23 1 -41.5 12t-29.5 29.5t-12 41.5z" />
    <glyph glyph-name="sindot" unicode="&#x5c2;" horiz-adv-x="702" 
d="M-149 1286q0 22 9.5 40t28.5 30.5t45 12.5q29 0 55.5 -21.5t26.5 -61.5q0 -39 -26.5 -61t-55.5 -22q-24 0 -42.5 11.5t-29.5 30t-11 41.5z" />
    <glyph glyph-name="sofpasuq" unicode="&#x5c3;" horiz-adv-x="569" 
d="M289 1076q28 0 52.5 -12.5t41.5 -38.5t17 -60q0 -28 -12.5 -52.5t-38.5 -41.5t-60 -17q-32 0 -56.5 15t-39.5 39.5t-15 56.5t15 57t39.5 39.5t56.5 14.5zM287 195q32 0 57 -15t40 -40t15 -57q0 -47 -32.5 -79t-79.5 -32q-32 0 -57 15t-39.5 39.5t-14.5 56.5q0 47 32 79.5
t79 32.5z" />
    <glyph glyph-name="alef" unicode="&#x5d0;" horiz-adv-x="986" 
d="M846 -18h-27q-6 77 -52 129l-434 498q-111 -56 -111 -144q0 -68 71 -175q82 -122 82 -194q0 -96 -73 -96h-189v27q60 16 60 69q0 33 -38 131q-38 97 -38 150q0 161 198 274l-123 139q-77 88 -77 183q0 86 70 162h26q5 -87 52 -140l376 -427q29 144 111 269
q-159 26 -159 160q0 79 41 138h26q16 -62 77 -77l86 -20q113 -27 113 -127q0 -44 -9 -71q-33 -10 -109 -10q-104 -164 -104 -268q0 -77 53 -138l93 -107q78 -89 78 -184q0 -86 -70 -151z" />
    <glyph glyph-name="bet" unicode="&#x5d1;" horiz-adv-x="932" 
d="M850 0h-799l39 204h598q25 130 25 321q0 184 -31.5 247.5t-178.5 63.5h-272q-149 0 -149 126q0 93 61 164h26q16 -70 100 -70h191q173 0 239.5 -38t87 -102t20.5 -223v-141q0 -232 -87 -348h168z" />
    <glyph glyph-name="gimel" unicode="&#x5d2;" horiz-adv-x="687" 
d="M610 -12h-24l-144 346h-14l-134 -326l-261 -14l44 206q197 14 272 100t75 307q0 110 -23.5 159.5t-105.5 62.5l-81 12q-47 8 -79.5 45.5t-33.5 88.5q0 86 63 160h27q12 -65 91 -72l73 -7q135 -13 135 -143q0 -51 -8 -153t-8 -153q0 -91 85 -237q88 -153 88 -252
q0 -74 -37 -130z" />
    <glyph glyph-name="dalet" unicode="&#x5d3;" horiz-adv-x="858" 
d="M514 -25l-16 23q26 38 26 103q0 53 -4 161q-5 108 -5 161q0 277 174 413h-467q-155 0 -155 126q0 98 61 164h26q16 -70 100 -70h414q70 0 96.5 -25.5t26.5 -93.5q0 -88 -42 -115.5t-76.5 -85.5t-34.5 -140q0 -70 11 -210q11 -141 11 -211q0 -176 -146 -200z" />
    <glyph glyph-name="he" unicode="&#x5d4;" horiz-adv-x="965" 
d="M707 -25l-16 21q26 44 26 105q0 59 -8 177q-8 119 -8 178q0 241 117 380h-589q-151 0 -151 126q0 98 61 164h27q16 -70 94 -70h488q63 0 96 -21t33 -98v-49q0 -37 -36.5 -96.5t-36.5 -184.5q0 -72 23 -216t23 -216q0 -178 -143 -200zM102 -26l-14 22q26 27 26 73
q0 31 -3 94t-3 94q0 209 150 209q20 0 34 -8v-27q-48 -31 -48 -131q0 -33 4 -98t4 -97q0 -122 -150 -131z" />
    <glyph glyph-name="vav" unicode="&#x5d5;" horiz-adv-x="571" 
d="M386 -19l-22 7v691q0 72 -22.5 106.5t-122.5 50.5q-152 25 -152 152q0 92 58 147h27q8 -62 83 -75l84 -13q70 -11 102.5 -54t32.5 -171v-717q0 -89 -68 -124z" />
    <glyph glyph-name="zayin" unicode="&#x5d6;" horiz-adv-x="586" 
d="M510 844q-81 -18 -181 -18q-23 -108 -23 -172q0 -91 23 -194q39 -184 39 -267q0 -195 -142 -218l-17 20q30 43 30 110q0 62 -16 184t-16 183q0 187 79 356q-208 0 -208 143q0 94 55 164h27q12 -57 66 -69q207 -8 250 -43t43 -120q0 -27 -9 -59z" />
    <glyph glyph-name="het" unicode="&#x5d7;" horiz-adv-x="976" 
d="M717 -25l-16 21q26 39 26 105q0 59 -8 177q-8 119 -8 178q0 243 116 381h-506q-98 -73 -98 -240q0 -67 20 -203q20 -135 20 -203q0 -195 -149 -216l-13 21q36 56 30 177l-13 253q-12 262 145 411q-100 1 -137.5 28.5t-37.5 96.5q0 98 61 164h27q16 -70 99 -70h483
q77 0 103.5 -27.5t25.5 -91.5q0 -83 -38.5 -149t-38.5 -181q0 -72 24 -216q23 -144 23 -216q0 -179 -140 -200z" />
    <glyph glyph-name="tet" unicode="&#x5d8;" horiz-adv-x="974" 
d="M747 0h-530q-1 79 -30 233q-42 222 -42 332q0 129 52 264q-77 14 -103.5 44.5t-26.5 95.5q0 80 42 166h27q7 -73 108 -78q119 -3 119 -128q0 -44 -13 -88q-44 -14 -105 -14q-35 -112 -35 -195q0 -193 102 -428h414q85 180 85 425q0 220 -165 220q-138 0 -198 -194l-32 8
q84 405 272 405q187 0 187 -438q0 -272 -128 -630z" />
    <glyph glyph-name="yod" unicode="&#x5d9;" horiz-adv-x="546" 
d="M304 478l-28 32q106 79 106 220q0 101 -149 107q-166 6 -166 141q0 70 47 157h27q10 -68 91 -75l91 -6q134 -10 134 -185v-75q0 -237 -153 -316z" />
    <glyph glyph-name="finalkaf" unicode="&#x5da;" horiz-adv-x="926" 
d="M772 819q-19 -22 -17 -80l33 -916q4 -83 -18.5 -120t-76.5 -57l-18 8v1182h-464q-144 0 -144 126q0 93 61 164h26q16 -70 107 -70h438q127 0 127 -110v-31q0 -43 -21 -67z" />
    <glyph glyph-name="kaf" unicode="&#x5db;" horiz-adv-x="886" 
d="M380 0h-329l47 204h379q238 0 238 299q1 199 -55 266t-161 67h-275q-142 0 -142 126q0 93 61 164h26q16 -70 100 -70h206q317 0 317 -519q0 -197 -33 -313t-128 -170t-251 -54z" />
    <glyph glyph-name="lamed" unicode="&#x5dc;" horiz-adv-x="884" 
d="M738 488l-190 -213q-69 -77 -69 -151q0 -12 3 -36q4 -24 4 -36q0 -74 -67 -74t-67 83q0 117 148 269l146 151q62 64 62 166v60q0 78 -37.5 103.5t-147.5 25.5h-290q-156 0 -156 139q0 89 37 202l29 85q7 23 7 34q0 29 -36 47l-56 27q-43 21 -43 59q0 47 35 98h25
q5 -31 42 -46l38 -15q63 -25 63 -77q0 -10 -30 -123l-14 -51q-14 -53 -14 -78q0 -39 21 -60t97 -21h326q93 0 142.5 -45t49.5 -220v-108q0 -130 -58 -195z" />
    <glyph glyph-name="finalmem" unicode="&#x5dd;" horiz-adv-x="1039" 
d="M120 0v539q0 80 61 149l128 148h-64q-145 0 -145 128q0 94 61 162h26q17 -70 95 -70h279q230 0 298.5 -67t68.5 -291v-698h-808zM377 836l-123 -178q-44 -64 -44 -155v-299h631v270q0 208 -37.5 285t-169.5 77h-257z" />
    <glyph glyph-name="mem" unicode="&#x5de;" horiz-adv-x="994" 
d="M862 171l-34 -171h-499l48 204h423q29 109 29 264q1 154 -62.5 249t-181.5 94q-158 0 -292.5 -200.5t-136.5 -610.5h-67q-4 51 -4 87q0 416 232 671q0 38 -20 54.5t-93 32.5q-126 27 -126 134q0 82 42 156h27q18 -61 77 -70l62 -9q84 -12 84 -85q0 -14 -4 -42
q-5 -29 -5 -43q0 -41 31 -61q166 93 181 244q161 -27 243.5 -181t82.5 -398q0 -136 -37 -319z" />
    <glyph glyph-name="finalnun" unicode="&#x5df;" horiz-adv-x="562" 
d="M326 -354l-19 8v886q2 71 55 167q21 38 21 68q0 51 -118 57q-198 9 -198 143q0 93 54 160h27q12 -72 91 -77l81 -4q153 -9 153 -164q0 -33 -40 -150.5t-33 -256.5l32 -573q12 -219 -106 -264z" />
    <glyph glyph-name="nun" unicode="&#x5e0;" horiz-adv-x="624" 
d="M526 0h-493l42 204h335l-8 167q-4 70 7 216q9 113 9 169q0 76 -83 81q-221 13 -221 138q0 98 61 160h27q12 -66 91 -72l81 -7q136 -12 136 -138q0 -60 -18 -180q-18 -119 -18 -180q0 -96 13 -155q49 -219 49 -274q0 -87 -10 -129z" />
    <glyph glyph-name="samekh" unicode="&#x5e1;" horiz-adv-x="973" 
d="M518 -22h-37q-178 0 -277.5 124t-99.5 331q0 241 110 404q-61 0 -90 38.5t-29 86.5q0 95 61 164h26q16 -70 99 -70h244q192 0 273 -128.5t81 -390.5q0 -306 -89.5 -432.5t-271.5 -126.5zM560 836h-287q-86 -144 -86 -317q0 -335 268 -335h88q134 0 197.5 73t63.5 246
q0 202 -61 267.5t-183 65.5z" />
    <glyph glyph-name="ayin" unicode="&#x5e2;" horiz-adv-x="930" 
d="M67 -29l42 203l265 33q0 203 -55 248q-75 62 -91.5 101.5t-16.5 92.5q0 61 21 182q-157 29 -157 140q0 85 40 164h27q16 -67 86 -75l47 -4q119 -12 119 -147q0 -31 -10 -59q-64 -19 -111 -19q0 -114 8 -149t50 -63q62 -40 76 -70.5t14 -106.5v-230l60 8q59 9 78.5 32
t43.5 131q23 100 87 237q55 117 55 149q0 57 -51 68q-147 34 -147 142q0 74 49 156h27q9 -41 34.5 -58t97.5 -28q108 -16 108 -108q0 -66 -86.5 -249t-86.5 -406q0 -242 -278 -275z" />
    <glyph glyph-name="finalpe" unicode="&#x5e3;" horiz-adv-x="930" 
d="M741 -354l-23 8v837q0 198 -37.5 271.5t-180.5 73.5h-267q-60 -96 -60 -165q0 -44 20.5 -61.5t87.5 -30.5q87 -16 87 -83v-50q0 -38 -34 -38q-15 0 -44 5q-30 4 -44 4q-72 0 -114 -53h-33q-32 64 -32 129q0 180 119 343q-90 18 -90 126q0 94 63 164h26q17 -70 98 -70h151
q156 0 229 -24t101 -83t36 -228l20 -450q12 -281 12 -476q0 -51 -10.5 -87t-80.5 -62z" />
    <glyph glyph-name="pe" unicode="&#x5e4;" horiz-adv-x="902" 
d="M400 0h-312l47 204h362q134 0 186 74.5t52 224.5q0 165 -43 249t-173 84h-262q-65 -41 -65 -106q0 -60 98 -79q97 -19 97 -85v-55q0 -32 -34 -32q-14 0 -44 4q-29 4 -44 4q-73 0 -114 -53h-32q-29 64 -29 143q0 155 112 259l-62 45q-22 24 -22 81q0 95 61 164h26
q17 -70 100 -70h190q313 0 313 -519q0 -337 -100 -437t-308 -100z" />
    <glyph glyph-name="finaltsadi" unicode="&#x5e5;" horiz-adv-x="988" 
d="M906 836q-57 -19 -113 -19q-72 -55 -152 -137l-89 -91q-87 -89 -139 -178t-52 -198q0 -63 15 -186q14 -124 14 -187q0 -155 -101 -194l-23 8l-21 823q-1 49 31 148t32 142t-42 59q-141 26 -170 63t-29 86q0 85 46 160h27q16 -63 80 -70l64 -7q141 -14 141 -140
q0 -44 -55 -179q-49 -124 -46 -192l4 -83h16q203 235 385 365q-157 26 -157 146q0 83 46 160h26q8 -62 84 -70l63 -7q130 -13 130 -136q0 -30 -15 -86z" />
    <glyph glyph-name="tsadi" unicode="&#x5e6;" horiz-adv-x="942" 
d="M849 849q-33 -12 -114 -21q-50 -48 -91 -138t-42 -155q0 -93 87 -164l160 -131l-53 -240h-701l43 204h545l-330 264q-64 51 -62 115l5 144q2 58 -18.5 86t-62.5 28q-154 0 -154 130q0 94 44 164h27q17 -73 82 -77l35 -2q69 -5 95 -31t26 -105q0 -32 -8 -95q-8 -64 -8 -97
q0 -80 56 -127l95 -79q71 191 163 314q-127 28 -127 135q0 83 42 164h28q9 -70 88 -77l55 -4q110 -9 110 -117q0 -36 -15 -88z" />
    <glyph glyph-name="qof" unicode="&#x5e7;" horiz-adv-x="970" 
d="M769 416l-220 -146q-78 -52 -78 -152q0 -12 2 -35q1 -24 1 -36q0 -69 -69 -69q-61 0 -61 78q0 166 173 282l191 128q78 52 78 157v72q0 86 -39.5 113.5t-124.5 27.5h-372q-145 0 -145 126q0 93 61 164h26q16 -70 100 -70h339q129 0 186.5 -61.5t57.5 -214.5v-97
q0 -104 -21 -164t-85 -103zM142 -354l-21 8v860q0 87 72 150h17v-944q0 -34 -68 -74z" />
    <glyph glyph-name="resh" unicode="&#x5e8;" horiz-adv-x="960" 
d="M778 -19l-21 7v486q0 198 -21.5 253t-71 82t-126.5 27h-327q-144 0 -144 126q0 93 61 164h26q16 -70 100 -70h227q230 0 298.5 -67t68.5 -291v-618q0 -62 -70 -99z" />
    <glyph glyph-name="shin" unicode="&#x5e9;" horiz-adv-x="1250" 
d="M821 0h-559q-29 154 -63 276q-48 175 -48 285q0 149 41 269q-125 37 -125 136q0 94 50 169h27q10 -37 31 -52t88 -29q100 -21 100 -155q0 -34 -6 -54q-64 -21 -118 -21q-23 -103 -23 -230q0 -163 116 -390l31 1q136 250 240 629q-124 46 -124 146q0 86 51 155h27
q12 -56 56 -67l63 -14q101 -23 101 -138q0 -41 -9 -71q-45 -14 -112 -14q-75 -343 -217 -627h318q46 152 254 444q53 73 53 124q0 52 -54 70l-13 4q-100 34 -100 118q0 95 58 171h26q7 -48 51 -64l56 -19q95 -33 95 -137q0 -90 -93 -234.5t-164 -317t-105 -363.5z" />
    <glyph glyph-name="tav" unicode="&#x5ea;" horiz-adv-x="1024" 
d="M839 -17l-21 7v484q0 169 -10 227t-56.5 96.5t-141.5 38.5h-224l-42 -90q-62 -135 -62 -227q0 -44 13 -169q38 -190 35 -232l-6 -118h-291l42 204h126l-6 196q-7 202 74 338l58 98h-39q-153 0 -153 126q0 94 62 164h27q17 -70 100 -70h223q231 0 298.5 -66.5t67.5 -291.5
v-591q0 -87 -74 -124z" />
    <glyph glyph-name="doublevav" unicode="&#x5f0;" horiz-adv-x="1141" 
d="M957 -19l-22 7v691q0 72 -23 106.5t-123 50.5q-152 25 -152 152q0 92 58 147h27q9 -62 83 -75l84 -13q69 -11 102 -54t33 -171v-717q0 -89 -67 -124zM386 -19l-22 7v691q0 72 -22.5 106.5t-122.5 50.5q-152 25 -152 152q0 92 58 147h27q8 -62 83 -75l84 -13
q70 -11 102.5 -54t32.5 -171v-717q0 -89 -68 -124z" />
    <glyph glyph-name="vavyod" unicode="&#x5f1;" horiz-adv-x="1117" 
d="M932 -19l-22 7v691q0 72 -23 106.5t-123 50.5q-152 25 -152 152q0 92 59 147h27q8 -62 82 -75l84 -13q70 -11 103 -54.5t33 -170.5v-717q0 -89 -68 -124zM304 478l-28 32q106 79 106 220q0 101 -149 107q-166 6 -166 141q0 70 47 157h27q10 -68 91 -75l91 -6
q134 -10 134 -185v-75q0 -237 -153 -316z" />
    <glyph glyph-name="doubleyod" unicode="&#x5f2;" horiz-adv-x="1092" 
d="M850 478l-28 32q106 79 106 220q0 101 -149 107q-166 6 -166 141q0 70 47 157h27q10 -68 91 -75l91 -6q134 -10 134 -185v-75q0 -237 -153 -316zM304 478l-28 32q106 79 106 220q0 101 -149 107q-166 6 -166 141q0 70 47 157h27q10 -68 91 -75l91 -6q134 -10 134 -185
v-75q0 -237 -153 -316z" />
    <glyph glyph-name="geresh" unicode="&#x5f3;" horiz-adv-x="428" 
d="M241 802l-93 -179h-41l8 284q5 189 138 189q78 0 78 -82q0 -40 -90 -212z" />
    <glyph glyph-name="gershayim" unicode="&#x5f4;" horiz-adv-x="761" 
d="M241 802l-93 -179h-41l8 284q5 189 138 189q78 0 78 -82q0 -40 -90 -212zM574 802l-94 -179h-41l8 284q6 189 138 189q79 0 79 -82q0 -42 -90 -212z" />
    <glyph glyph-name="vavshindot" unicode="&#xe801;" horiz-adv-x="571" 
d="M386 -19l-22 7v691q0 72 -22.5 106.5t-122.5 50.5q-152 25 -152 152q0 92 58 147h27q8 -62 83 -75l84 -13q70 -11 102.5 -54t32.5 -171v-717q0 -89 -68 -124zM-99 1286q0 22 9.5 40t28.5 30.5t45 12.5q29 0 55.5 -21.5t26.5 -61.5q0 -39 -26.5 -61t-55.5 -22
q-24 0 -42.5 11.5t-29.5 30t-11 41.5z" />
    <glyph glyph-name="finalkafsheva" unicode="&#xe802;" horiz-adv-x="926" 
d="M772 819q-19 -22 -17 -80l33 -916q4 -83 -18.5 -120t-76.5 -57l-18 8v1182h-464q-144 0 -144 126q0 93 61 164h26q16 -70 107 -70h438q127 0 127 -110v-31q0 -43 -21 -67zM287 464q0 21 9.5 39t29 31t44.5 13q24 -1 42.5 -12t29.5 -29.5t11 -41.5q0 -24 -11 -42.5
t-29.5 -29.5t-42.5 -11q-21 0 -39.5 9.5t-31 28.5t-12.5 45zM289 241q0 21 9.5 39t29 31t44.5 13q24 0 42.5 -11.5t29.5 -30t11 -41.5q0 -24 -11 -42.5t-29.5 -29.5t-42.5 -11t-42.5 11t-29.5 29.5t-11 42.5z" />
    <glyph glyph-name="finalkafqamats" unicode="&#xe803;" horiz-adv-x="926" 
d="M772 819q-19 -22 -17 -80l33 -916q4 -83 -18.5 -120t-76.5 -57l-18 8v1182h-464q-144 0 -144 126q0 93 61 164h26q16 -70 107 -70h438q127 0 127 -110v-31q0 -43 -21 -67zM413 295q43 -24 43 -73q0 -24 -11 -42.5t-29.5 -29.5t-42.5 -11q-21 0 -39 9.5t-31 29t-13 44.5
q0 49 43 73v75h-159v103h395v-103h-156v-75z" />
    <glyph glyph-name="lamedholam" unicode="&#xe804;" horiz-adv-x="884" 
d="M738 488l-190 -213q-69 -77 -69 -151q0 -12 3 -36q4 -24 4 -36q0 -74 -67 -74t-67 83q0 117 148 269l146 151q62 64 62 166v60q0 78 -37.5 103.5t-147.5 25.5h-290q-156 0 -156 139q0 89 37 202l29 85q7 23 7 34q0 29 -36 47l-56 27q-43 21 -43 59q0 47 35 98h25
q5 -31 42 -46l38 -15q63 -25 63 -77q0 -10 -30 -123l-14 -51q-14 -53 -14 -78q0 -39 21 -60t97 -21h326q93 0 142.5 -45t49.5 -220v-108q0 -130 -58 -195zM-164 1286q0 22 9.5 40t28.5 30.5t45 12.5q29 0 55.5 -21.5t26.5 -61.5q0 -39 -26.5 -61t-55.5 -22q-24 0 -42.5 11.5
t-29.5 30t-11 41.5z" />
    <glyph glyph-name="lamedholamdagesh" unicode="&#xe805;" horiz-adv-x="884" 
d="M738 488l-190 -213q-69 -77 -69 -151q0 -12 3 -36q4 -24 4 -36q0 -74 -67 -74t-67 83q0 117 148 269l146 151q62 64 62 166v60q0 78 -37.5 103.5t-147.5 25.5h-290q-156 0 -156 139q0 89 37 202l29 85q7 23 7 34q0 29 -36 47l-56 27q-43 21 -43 59q0 47 35 98h25
q5 -31 42 -46l38 -15q63 -25 63 -77q0 -10 -30 -123l-14 -51q-14 -53 -14 -78q0 -39 21 -60t97 -21h326q93 0 142.5 -45t49.5 -220v-108q0 -130 -58 -195zM-164 1286q0 22 9.5 40t28.5 30.5t45 12.5q29 0 55.5 -21.5t26.5 -61.5q0 -39 -26.5 -61t-55.5 -22q-24 0 -42.5 11.5
t-29.5 30t-11 41.5zM298 515q0 24 11.5 42.5t30 29.5t41.5 11q24 0 42.5 -11t29.5 -29.5t11 -42.5q0 -23 -11.5 -41.5t-30 -30t-41.5 -11.5q-21 0 -39.5 10t-31 29t-12.5 44z" />
    <glyph glyph-name="altayin" unicode="&#xfb20;" horiz-adv-x="930" 
d="M51 0l39 204h284q0 206 -55 251q-75 62 -91.5 101.5t-16.5 92.5q0 61 21 182q-157 29 -157 140q0 85 40 164h27q16 -67 86 -75l47 -4q119 -12 119 -147q0 -31 -10 -59q-64 -19 -111 -19q0 -114 8 -149t50 -63q57 -36 74 -66t16 -111l-1 -238h23q82 0 107.5 28.5
t52.5 150.5q23 100 87 237q55 117 55 149q0 57 -51 68q-147 34 -147 142q0 74 49 156h27q9 -41 34.5 -58t97.5 -28q108 -16 108 -108q0 -62 -47 -158q-124 -258 -126 -497q0 -133 -72 -209.5t-208 -76.5h-359z" />
    <glyph glyph-name="shinshindot" unicode="&#xfb2a;" horiz-adv-x="1250" 
d="M821 0h-559q-29 154 -63 276q-48 175 -48 285q0 149 41 269q-125 37 -125 136q0 94 50 169h27q10 -37 31 -52t88 -29q100 -21 100 -155q0 -34 -6 -54q-64 -21 -118 -21q-23 -103 -23 -230q0 -163 116 -390l31 1q136 250 240 629q-124 46 -124 146q0 86 51 155h27
q12 -56 56 -67l63 -14q101 -23 101 -138q0 -41 -9 -71q-45 -14 -112 -14q-75 -343 -217 -627h318q46 152 254 444q53 73 53 124q0 52 -54 70l-13 4q-100 34 -100 118q0 95 58 171h26q7 -48 51 -64l56 -19q95 -33 95 -137q0 -90 -93 -234.5t-164 -317t-105 -363.5zM971 1286
q1 24 12 42.5t29.5 29.5t41.5 11q30 0 56.5 -21.5t26.5 -61.5q0 -34 -24 -58.5t-59 -24.5q-23 1 -41.5 12t-29.5 29.5t-12 41.5z" />
    <glyph glyph-name="shinsindot" unicode="&#xfb2b;" horiz-adv-x="1250" 
d="M821 0h-559q-29 154 -63 276q-48 175 -48 285q0 149 41 269q-125 37 -125 136q0 94 50 169h27q10 -37 31 -52t88 -29q100 -21 100 -155q0 -34 -6 -54q-64 -21 -118 -21q-23 -103 -23 -230q0 -163 116 -390l31 1q136 250 240 629q-124 46 -124 146q0 86 51 155h27
q12 -56 56 -67l63 -14q101 -23 101 -138q0 -41 -9 -71q-45 -14 -112 -14q-75 -343 -217 -627h318q46 152 254 444q53 73 53 124q0 52 -54 70l-13 4q-100 34 -100 118q0 95 58 171h26q7 -48 51 -64l56 -19q95 -33 95 -137q0 -90 -93 -234.5t-164 -317t-105 -363.5zM124 1286
q0 22 9.5 40t28.5 30.5t45 12.5q29 0 55.5 -21.5t26.5 -61.5q0 -39 -26.5 -61t-55.5 -22q-24 0 -42.5 11.5t-29.5 30t-11 41.5z" />
    <glyph glyph-name="shindageshshindot" unicode="&#xfb2c;" horiz-adv-x="1250" 
d="M821 0h-559q-29 154 -63 276q-48 175 -48 285q0 149 41 269q-125 37 -125 136q0 94 50 169h27q10 -37 31 -52t88 -29q100 -21 100 -155q0 -34 -6 -54q-64 -21 -118 -21q-23 -103 -23 -230q0 -163 116 -390l31 1q136 250 240 629q-124 46 -124 146q0 86 51 155h27
q12 -56 56 -67l63 -14q101 -23 101 -138q0 -41 -9 -71q-45 -14 -112 -14q-75 -343 -217 -627h318q46 152 254 444q53 73 53 124q0 52 -54 70l-13 4q-100 34 -100 118q0 95 58 171h26q7 -48 51 -64l56 -19q95 -33 95 -137q0 -90 -93 -234.5t-164 -317t-105 -363.5zM653 515
q0 24 11 42.5t29.5 29.5t42.5 11t42.5 -11t29.5 -29.5t11 -42.5q0 -23 -11.5 -41.5t-30 -29.5t-41.5 -12q-24 1 -42.5 12t-29.5 29.5t-11 41.5zM971 1286q1 24 12 42.5t29.5 29.5t41.5 11q30 0 56.5 -21.5t26.5 -61.5q0 -34 -24 -58.5t-59 -24.5q-23 1 -41.5 12t-29.5 29.5
t-12 41.5z" />
    <glyph glyph-name="shindageshsindot" unicode="&#xfb2d;" horiz-adv-x="1250" 
d="M821 0h-559q-29 154 -63 276q-48 175 -48 285q0 149 41 269q-125 37 -125 136q0 94 50 169h27q10 -37 31 -52t88 -29q100 -21 100 -155q0 -34 -6 -54q-64 -21 -118 -21q-23 -103 -23 -230q0 -163 116 -390l31 1q136 250 240 629q-124 46 -124 146q0 86 51 155h27
q12 -56 56 -67l63 -14q101 -23 101 -138q0 -41 -9 -71q-45 -14 -112 -14q-75 -343 -217 -627h318q46 152 254 444q53 73 53 124q0 52 -54 70l-13 4q-100 34 -100 118q0 95 58 171h26q7 -48 51 -64l56 -19q95 -33 95 -137q0 -90 -93 -234.5t-164 -317t-105 -363.5zM653 515
q0 24 11 42.5t29.5 29.5t42.5 11t42.5 -11t29.5 -29.5t11 -42.5q0 -23 -11.5 -41.5t-30 -29.5t-41.5 -12q-24 1 -42.5 12t-29.5 29.5t-11 41.5zM124 1286q0 22 9.5 40t28.5 30.5t45 12.5q29 0 55.5 -21.5t26.5 -61.5q0 -39 -26.5 -61t-55.5 -22q-24 0 -42.5 11.5t-29.5 30
t-11 41.5z" />
    <glyph glyph-name="alefpatah" unicode="&#xfb2e;" horiz-adv-x="986" 
d="M846 -18h-27q-6 77 -52 129l-434 498q-111 -56 -111 -144q0 -68 71 -175q82 -122 82 -194q0 -96 -73 -96h-189v27q60 16 60 69q0 33 -38 131q-38 97 -38 150q0 161 198 274l-123 139q-77 88 -77 183q0 86 70 162h26q5 -87 52 -140l376 -427q29 144 111 269
q-159 26 -159 160q0 79 41 138h26q16 -62 77 -77l86 -20q113 -27 113 -127q0 -44 -9 -71q-33 -10 -109 -10q-104 -164 -104 -268q0 -77 53 -138l93 -107q78 -89 78 -184q0 -86 -70 -151zM295 -267v103h395v-103h-395z" />
    <glyph glyph-name="alefqamats" unicode="&#xfb2f;" horiz-adv-x="986" 
d="M846 -18h-27q-6 77 -52 129l-434 498q-111 -56 -111 -144q0 -68 71 -175q82 -122 82 -194q0 -96 -73 -96h-189v27q60 16 60 69q0 33 -38 131q-38 97 -38 150q0 161 198 274l-123 139q-77 88 -77 183q0 86 70 162h26q5 -87 52 -140l376 -427q29 144 111 269
q-159 26 -159 160q0 79 41 138h26q16 -62 77 -77l86 -20q113 -27 113 -127q0 -44 -9 -71q-33 -10 -109 -10q-104 -164 -104 -268q0 -77 53 -138l93 -107q78 -89 78 -184q0 -86 -70 -151zM535 -284q43 -24 43 -73q0 -24 -11 -42.5t-29.5 -29.5t-42.5 -11q-21 0 -39 9.5
t-31 29t-13 44.5q0 49 43 73v75h-159v103h395v-103h-156v-75z" />
    <glyph glyph-name="alefmapiq" unicode="&#xfb30;" horiz-adv-x="986" 
d="M846 -18h-27q-6 77 -52 129l-434 498q-111 -56 -111 -144q0 -68 71 -175q82 -122 82 -194q0 -96 -73 -96h-189v27q60 16 60 69q0 33 -38 131q-38 97 -38 150q0 161 198 274l-123 139q-77 88 -77 183q0 86 70 162h26q5 -87 52 -140l376 -427q29 144 111 269
q-159 26 -159 160q0 79 41 138h26q16 -62 77 -77l86 -20q113 -27 113 -127q0 -44 -9 -71q-33 -10 -109 -10q-104 -164 -104 -268q0 -77 53 -138l93 -107q78 -89 78 -184q0 -86 -70 -151zM430 176q0 24 11 42.5t29.5 29.5t42.5 11t42.5 -11t29.5 -29.5t11 -42.5t-11 -42.5
t-29.5 -29.5t-42.5 -11t-42.5 11t-29.5 29.5t-11 42.5z" />
    <glyph glyph-name="betdagesh" unicode="&#xfb31;" horiz-adv-x="932" 
d="M850 0h-799l39 204h598q25 130 25 321q0 184 -31.5 247.5t-178.5 63.5h-272q-149 0 -149 126q0 93 61 164h26q16 -70 100 -70h191q173 0 239.5 -38t87 -102t20.5 -223v-141q0 -232 -87 -348h168zM338 515q0 24 11.5 42.5t30 29.5t41.5 11q24 0 42.5 -11t29.5 -29.5
t11 -42.5q0 -23 -11.5 -41.5t-30 -30t-41.5 -11.5q-21 0 -39.5 10t-31 29t-12.5 44z" />
    <glyph glyph-name="gimeldagesh" unicode="&#xfb32;" horiz-adv-x="687" 
d="M610 -12h-24l-144 346h-14l-134 -326l-261 -14l44 206q197 14 272 100t75 307q0 110 -23.5 159.5t-105.5 62.5l-81 12q-47 8 -79.5 45.5t-33.5 88.5q0 86 63 160h27q12 -65 91 -72l73 -7q135 -13 135 -143q0 -51 -8 -153t-8 -153q0 -91 85 -237q88 -153 88 -252
q0 -74 -37 -130zM140 491q0 24 11.5 42.5t30 29.5t41.5 11q24 0 42.5 -11t29.5 -29.5t11 -42.5q0 -23 -11.5 -41.5t-30 -30t-41.5 -11.5q-21 0 -39.5 10t-31 29t-12.5 44z" />
    <glyph glyph-name="daletdagesh" unicode="&#xfb33;" horiz-adv-x="858" 
d="M514 -25l-16 23q26 38 26 103q0 53 -4 161q-5 108 -5 161q0 277 174 413h-467q-155 0 -155 126q0 98 61 164h26q16 -70 100 -70h414q70 0 96.5 -25.5t26.5 -93.5q0 -88 -42 -115.5t-76.5 -85.5t-34.5 -140q0 -70 11 -210q11 -141 11 -211q0 -176 -146 -200zM258 515
q0 24 11.5 42.5t30 29.5t41.5 11q24 0 42.5 -11t29.5 -29.5t11 -42.5q0 -23 -11.5 -41.5t-30 -30t-41.5 -11.5q-21 0 -39.5 10t-31 29t-12.5 44z" />
    <glyph glyph-name="hedagesh" unicode="&#xfb34;" horiz-adv-x="965" 
d="M707 -25l-16 21q26 44 26 105q0 59 -8 177q-8 119 -8 178q0 241 117 380h-589q-151 0 -151 126q0 98 61 164h27q16 -70 94 -70h488q63 0 96 -21t33 -98v-49q0 -37 -36.5 -96.5t-36.5 -184.5q0 -72 23 -216t23 -216q0 -178 -143 -200zM102 -26l-14 22q26 27 26 73
q0 31 -3 94t-3 94q0 209 150 209q20 0 34 -8v-27q-48 -31 -48 -131q0 -33 4 -98t4 -97q0 -122 -150 -131zM407 515q0 24 11.5 42.5t30 29.5t41.5 11q24 0 42.5 -11t29.5 -29.5t11 -42.5q0 -23 -11.5 -41.5t-30 -30t-41.5 -11.5q-21 0 -39.5 10t-31 29t-12.5 44z" />
    <glyph glyph-name="vavdagesh" unicode="&#xfb35;" horiz-adv-x="571" 
d="M386 -19l-22 7v691q0 72 -22.5 106.5t-122.5 50.5q-152 25 -152 152q0 92 58 147h27q8 -62 83 -75l84 -13q70 -11 102.5 -54t32.5 -171v-717q0 -89 -68 -124zM109 515q0 24 11.5 42.5t30 29.5t41.5 11q24 0 42.5 -11t29.5 -29.5t11 -42.5q0 -23 -11.5 -41.5t-30 -30
t-41.5 -11.5q-21 0 -39.5 10t-31 29t-12.5 44z" />
    <glyph glyph-name="zayindagesh" unicode="&#xfb36;" horiz-adv-x="633" 
d="M557 844q-81 -18 -180 -18q-23 -108 -23 -172q0 -91 22 -194q39 -184 39 -267q0 -195 -141 -218l-18 20q30 43 30 110q0 62 -16 184t-16 183q0 187 80 356q-208 0 -208 143q0 94 54 164h27q12 -57 67 -69q207 -8 249.5 -43t42.5 -120q0 -27 -9 -59zM12 515q0 24 11 42.5
t29.5 29.5t42.5 11q21 0 39.5 -9.5t31 -28.5t12.5 -45q0 -23 -11 -41.5t-29.5 -29.5t-42.5 -12q-21 0 -39.5 10t-31 29t-12.5 44z" />
    <glyph glyph-name="tetdagesh" unicode="&#xfb38;" horiz-adv-x="974" 
d="M747 0h-530q-1 79 -30 233q-42 222 -42 332q0 129 52 264q-77 14 -103.5 44.5t-26.5 95.5q0 80 42 166h27q7 -73 108 -78q119 -3 119 -128q0 -44 -13 -88q-44 -14 -105 -14q-35 -112 -35 -195q0 -193 102 -428h414q85 180 85 425q0 220 -165 220q-138 0 -198 -194l-32 8
q84 405 272 405q187 0 187 -438q0 -272 -128 -630zM448 515q0 24 11.5 42.5t30 29.5t41.5 11q24 0 42.5 -11t29.5 -29.5t11 -42.5q0 -23 -11.5 -41.5t-30 -30t-41.5 -11.5q-21 0 -39.5 10t-31 29t-12.5 44z" />
    <glyph glyph-name="yoddagesh" unicode="&#xfb39;" horiz-adv-x="546" 
d="M304 478l-28 32q106 79 106 220q0 101 -149 107q-166 6 -166 141q0 70 47 157h27q10 -68 91 -75l91 -6q134 -10 134 -185v-75q0 -237 -153 -316zM90 660q0 24 11 42.5t29.5 29.5t42.5 11t42.5 -11t29.5 -29.5t11 -42.5q0 -23 -11 -41.5t-29.5 -29.5t-42.5 -12
q-24 0 -42.5 11.5t-29.5 30t-11 41.5z" />
    <glyph glyph-name="finalkafdagesh" unicode="&#xfb3a;" horiz-adv-x="926" 
d="M772 819q-19 -22 -17 -80l33 -916q4 -83 -18.5 -120t-76.5 -57l-18 8v1182h-464q-144 0 -144 126q0 93 61 164h26q16 -70 107 -70h438q127 0 127 -110v-31q0 -43 -21 -67zM320 515q0 24 11.5 42.5t30 29.5t41.5 11q24 0 42.5 -11t29.5 -29.5t11 -42.5q0 -23 -11.5 -41.5
t-30 -30t-41.5 -11.5q-21 0 -39.5 10t-31 29t-12.5 44z" />
    <glyph glyph-name="kafdagesh" unicode="&#xfb3b;" horiz-adv-x="886" 
d="M380 0h-329l47 204h379q238 0 238 299q1 199 -55 266t-161 67h-275q-142 0 -142 126q0 93 61 164h26q16 -70 100 -70h206q317 0 317 -519q0 -197 -33 -313t-128 -170t-251 -54zM338 515q0 24 11.5 42.5t30 29.5t41.5 11q24 0 42.5 -11t29.5 -29.5t11 -42.5
q0 -23 -11.5 -41.5t-30 -30t-41.5 -11.5q-21 0 -39.5 10t-31 29t-12.5 44z" />
    <glyph glyph-name="lameddagesh" unicode="&#xfb3c;" horiz-adv-x="884" 
d="M738 488l-190 -213q-69 -77 -69 -151q0 -12 3 -36q4 -24 4 -36q0 -74 -67 -74t-67 83q0 117 148 269l146 151q62 64 62 166v60q0 78 -37.5 103.5t-147.5 25.5h-290q-156 0 -156 139q0 89 37 202l29 85q7 23 7 34q0 29 -36 47l-56 27q-43 21 -43 59q0 47 35 98h25
q5 -31 42 -46l38 -15q63 -25 63 -77q0 -10 -30 -123l-14 -51q-14 -53 -14 -78q0 -39 21 -60t97 -21h326q93 0 142.5 -45t49.5 -220v-108q0 -130 -58 -195zM298 565q0 24 11.5 42.5t30 29.5t41.5 11q24 0 42.5 -11t29.5 -29.5t11 -42.5q0 -23 -11.5 -41.5t-30 -30
t-41.5 -11.5q-21 0 -39.5 10t-31 29t-12.5 44z" />
    <glyph glyph-name="memdagesh" unicode="&#xfb3e;" horiz-adv-x="994" 
d="M862 171l-34 -171h-499l48 204h423q29 109 29 264q1 154 -62.5 249t-181.5 94q-158 0 -292.5 -200.5t-136.5 -610.5h-67q-4 51 -4 87q0 416 232 671q0 38 -20 54.5t-93 32.5q-126 27 -126 134q0 82 42 156h27q18 -61 77 -70l62 -9q84 -12 84 -85q0 -14 -4 -42
q-5 -29 -5 -43q0 -41 31 -61q166 93 181 244q161 -27 243.5 -181t82.5 -398q0 -136 -37 -319zM472 487q0 24 11.5 42.5t30 29.5t41.5 11q24 0 42.5 -11t29.5 -29.5t11 -42.5q0 -23 -11.5 -41.5t-30 -30t-41.5 -11.5q-21 0 -39.5 10t-31 29t-12.5 44z" />
    <glyph glyph-name="nundagesh" unicode="&#xfb40;" horiz-adv-x="624" 
d="M526 0h-493l42 204h335l-8 167q-4 70 7 216q9 113 9 169q0 76 -83 81q-221 13 -221 138q0 98 61 160h27q12 -66 91 -72l81 -7q136 -12 136 -138q0 -60 -18 -180q-18 -119 -18 -180q0 -96 13 -155q49 -219 49 -274q0 -87 -10 -129zM151 515q0 24 11.5 42.5t30 29.5
t41.5 11q24 0 42.5 -11t29.5 -29.5t11 -42.5q0 -23 -11.5 -41.5t-30 -30t-41.5 -11.5q-21 0 -39.5 10t-31 29t-12.5 44z" />
    <glyph glyph-name="samekhdagesh" unicode="&#xfb41;" horiz-adv-x="973" 
d="M518 -22h-37q-178 0 -277.5 124t-99.5 331q0 241 110 404q-61 0 -90 38.5t-29 86.5q0 95 61 164h26q16 -70 99 -70h244q192 0 273 -128.5t81 -390.5q0 -306 -89.5 -432.5t-271.5 -126.5zM560 836h-287q-86 -144 -86 -317q0 -335 268 -335h88q134 0 197.5 73t63.5 246
q0 202 -61 267.5t-183 65.5zM404 515q0 24 11.5 42.5t30 29.5t41.5 11q24 0 42.5 -11t29.5 -29.5t11 -42.5q0 -23 -11.5 -41.5t-30 -30t-41.5 -11.5q-21 0 -39.5 10t-31 29t-12.5 44z" />
    <glyph glyph-name="finalpedagesh" unicode="&#xfb43;" horiz-adv-x="930" 
d="M741 -354l-23 8v837q0 198 -37.5 271.5t-180.5 73.5h-267q-60 -96 -60 -165q0 -44 21.5 -61.5t86.5 -30.5q87 -16 87 -83v-50q0 -38 -34 -38q-15 0 -44 5q-30 4 -44 4q-72 0 -114 -53h-33q-32 64 -32 129q0 180 119 343q-90 18 -90 126q0 94 63 164h26q17 -70 98 -70h151
q156 0 229 -24t101 -83t36 -228l20 -450q12 -281 12 -476q0 -51 -10.5 -87t-80.5 -62zM448 515q0 24 11 42.5t29.5 29.5t42.5 11t42.5 -11t29.5 -29.5t11 -42.5q0 -23 -11 -41.5t-29.5 -29.5t-42.5 -12q-21 0 -39.5 10t-31 29t-12.5 44z" />
    <glyph glyph-name="pedagesh" unicode="&#xfb44;" horiz-adv-x="902" 
d="M400 0h-312l47 204h362q134 0 186 74.5t52 224.5q0 165 -43 249t-173 84h-262q-65 -41 -65 -106q0 -60 98 -79q97 -19 97 -85v-55q0 -32 -34 -32q-14 0 -44 4q-29 4 -44 4q-73 0 -114 -53h-32q-29 64 -29 143q0 155 112 259l-62 45q-22 24 -22 81q0 95 61 164h26
q17 -70 100 -70h190q313 0 313 -519q0 -337 -100 -437t-308 -100zM458 515q0 24 11.5 42.5t30 29.5t41.5 11q24 0 42.5 -11t29.5 -29.5t11 -42.5q0 -23 -11.5 -41.5t-30 -30t-41.5 -11.5q-24 0 -42.5 11.5t-29.5 30t-11 41.5z" />
    <glyph glyph-name="tsadidagesh" unicode="&#xfb46;" horiz-adv-x="942" 
d="M849 849q-33 -12 -114 -21q-50 -48 -91 -138t-42 -155q0 -93 87 -164l160 -131l-53 -240h-701l43 204h545l-330 264q-64 51 -62 115l5 144q2 58 -18.5 86t-62.5 28q-154 0 -154 130q0 94 44 164h27q17 -73 82 -77l35 -2q69 -5 95 -31t26 -105q0 -32 -8 -95q-8 -64 -8 -97
q0 -80 56 -127l95 -79q71 191 163 314q-127 28 -127 135q0 83 42 164h28q9 -70 88 -77l55 -4q110 -9 110 -117q0 -36 -15 -88zM69 515q0 24 11.5 42.5t30 29.5t41.5 11q24 0 42.5 -11t29.5 -29.5t11 -42.5q0 -23 -11.5 -41.5t-30 -30t-41.5 -11.5q-21 0 -39.5 10t-31 29
t-12.5 44z" />
    <glyph glyph-name="qofdagesh" unicode="&#xfb47;" horiz-adv-x="970" 
d="M769 416l-220 -146q-78 -52 -78 -152q0 -12 2 -35q1 -24 1 -36q0 -69 -69 -69q-61 0 -61 78q0 166 173 282l191 128q78 52 78 157v72q0 86 -39.5 113.5t-124.5 27.5h-372q-145 0 -145 126q0 93 61 164h26q16 -70 100 -70h339q129 0 186.5 -61.5t57.5 -214.5v-97
q0 -104 -21 -164t-85 -103zM142 -354l-21 8v860q0 87 72 150h17v-944q0 -34 -68 -74zM338 515q0 24 11.5 42.5t30 29.5t41.5 11q24 0 42.5 -11t29.5 -29.5t11 -42.5q0 -23 -11.5 -41.5t-30 -30t-41.5 -11.5q-21 0 -39.5 10t-31 29t-12.5 44z" />
    <glyph glyph-name="reshdagesh" unicode="&#xfb48;" horiz-adv-x="960" 
d="M778 -19l-21 7v486q0 198 -21.5 253t-71 82t-126.5 27h-327q-144 0 -144 126q0 93 61 164h26q16 -70 100 -70h227q230 0 298.5 -67t68.5 -291v-618q0 -62 -70 -99zM338 515q0 24 11.5 42.5t30 29.5t41.5 11q24 0 42.5 -11t29.5 -29.5t11 -42.5q0 -23 -11.5 -41.5t-30 -30
t-41.5 -11.5q-21 0 -39.5 10t-31 29t-12.5 44z" />
    <glyph glyph-name="shindagesh" unicode="&#xfb49;" horiz-adv-x="1250" 
d="M821 0h-559q-29 154 -63 276q-48 175 -48 285q0 149 41 269q-125 37 -125 136q0 94 50 169h27q10 -37 31 -52t88 -29q100 -21 100 -155q0 -34 -6 -54q-64 -21 -118 -21q-23 -103 -23 -230q0 -163 116 -390l31 1q136 250 240 629q-124 46 -124 146q0 86 51 155h27
q12 -56 56 -67l63 -14q101 -23 101 -138q0 -41 -9 -71q-45 -14 -112 -14q-75 -343 -217 -627h318q46 152 254 444q53 73 53 124q0 52 -54 70l-13 4q-100 34 -100 118q0 95 58 171h26q7 -48 51 -64l56 -19q95 -33 95 -137q0 -90 -93 -234.5t-164 -317t-105 -363.5zM653 515
q0 24 11 42.5t29.5 29.5t42.5 11t42.5 -11t29.5 -29.5t11 -42.5q0 -23 -11.5 -41.5t-30 -29.5t-41.5 -12q-24 1 -42.5 12t-29.5 29.5t-11 41.5z" />
    <glyph glyph-name="tavdages" unicode="&#xfb4a;" horiz-adv-x="1024" 
d="M839 -17l-21 7v484q0 169 -10 227t-56.5 96.5t-141.5 38.5h-224l-42 -90q-62 -135 -62 -227q0 -44 13 -169q38 -190 35 -232l-6 -118h-291l42 204h126l-6 196q-7 202 74 338l58 98h-39q-153 0 -153 126q0 94 62 164h27q17 -70 100 -70h223q231 0 298.5 -66.5t67.5 -291.5
v-591q0 -87 -74 -124zM458 515q0 24 11.5 42.5t30 29.5t41.5 11q24 0 42.5 -11t29.5 -29.5t11 -42.5q0 -23 -11.5 -41.5t-30 -30t-41.5 -11.5q-21 0 -39.5 10t-31 29t-12.5 44z" />
    <glyph glyph-name="vavholam" unicode="&#xfb4b;" horiz-adv-x="571" 
d="M386 -19l-22 7v691q0 72 -22.5 106.5t-122.5 50.5q-152 25 -152 152q0 92 58 147h27q8 -62 83 -75l84 -13q70 -11 102.5 -54t32.5 -171v-717q0 -89 -68 -124zM203 1286q1 24 12 42.5t29.5 29.5t41.5 11q30 0 56.5 -21.5t26.5 -61.5q0 -34 -24 -58.5t-59 -24.5
q-23 1 -41.5 12t-29.5 29.5t-12 41.5z" />
    <glyph glyph-name="betrafe" unicode="&#xfb4c;" horiz-adv-x="932" 
d="M850 0h-799l39 204h598q25 130 25 321q0 184 -31.5 247.5t-178.5 63.5h-272q-149 0 -149 126q0 93 61 164h26q16 -70 100 -70h191q173 0 239.5 -38t87 -102t20.5 -223v-141q0 -232 -87 -348h168zM273 1220v103h395v-103h-395z" />
    <glyph glyph-name="kafrafe" unicode="&#xfb4d;" horiz-adv-x="886" 
d="M380 0h-329l47 204h379q238 0 238 299q1 199 -55 266t-161 67h-275q-142 0 -142 126q0 93 61 164h26q16 -70 100 -70h206q317 0 317 -519q0 -197 -33 -313t-128 -170t-251 -54zM223 1220v103h395v-103h-395z" />
    <glyph glyph-name="perafe" unicode="&#xfb4e;" horiz-adv-x="902" 
d="M400 0h-312l47 204h362q134 0 186 74.5t52 224.5q0 165 -43 249t-173 84h-262q-65 -41 -65 -106q0 -60 98 -79q97 -19 97 -85v-55q0 -32 -34 -32q-14 0 -44 4q-29 4 -44 4q-73 0 -114 -53h-32q-29 64 -29 143q0 155 112 259l-62 45q-22 24 -22 81q0 95 61 164h26
q17 -70 100 -70h190q313 0 313 -519q0 -337 -100 -437t-308 -100zM263 1220v103h395v-103h-395z" />
    <glyph glyph-name="aleflamed" unicode="&#xfb4f;" horiz-adv-x="1028" 
d="M369 987l302 -409q9 86 108 255q-166 33 -166 164q0 79 41 138h27q15 -62 77 -77l86 -20q112 -27 112 -127q0 -44 -9 -71q-47 -14 -116 -14l-46 -94l-16 -34q-29 -61 -29 -139q0 -74 47 -135l86 -110q85 -109 85 -181q0 -86 -69 -151h-27q-5 60 -52 125l-369 514
q-164 -87 -165 -173q0 -68 60 -158q82 -122 82 -194q0 -96 -74 -96h-189v27q60 13 60 69q0 22 -57 181q-19 52 -19 100q0 146 267 291l-89 119q-37 50 -100 50h-30q-106 0 -106 138q0 102 33 202l29 85q7 23 7 34q0 29 -36 47l-56 27q-43 21 -43 59q0 47 35 98h25
q9 -33 39 -45l41 -16q63 -25 63 -77q0 -9 -30 -123l-14 -51q-10 -38 -10 -78q0 -82 60 -82h48q46 0 97 -68z" />
    <glyph glyph-name="uniFB1D" unicode="&#xfb1d;" horiz-adv-x="546" 
d="M304 478l-28 32q106 79 106 220q0 101 -149 107q-166 6 -166 141q0 70 47 157h27q10 -68 91 -75l91 -6q134 -10 134 -185v-75q0 -237 -153 -316zM171 245q0 24 11.5 42.5t30 29.5t41.5 11q24 0 42.5 -11t29.5 -29.5t11 -42.5q0 -23 -11.5 -41.5t-30 -30t-41.5 -11.5
q-21 0 -39.5 10t-31 29t-12.5 44z" />
    <glyph glyph-name="uniFB1E" unicode="&#xfb1e;" horiz-adv-x="0" 
d="M-281 1500h31q33 -61 76 -86q72 -43 181 -43t180 42q51 29 71 87h33q-9 -124 -91.5 -202t-194.5 -78q-111 0 -193 77.5t-93 202.5z" />
    <glyph glyph-name="uniFB1F" unicode="&#xfb1f;" horiz-adv-x="1092" 
d="M275 287v104h700v-104h-700zM850 478l-28 32q106 79 106 220q0 101 -149 107q-166 6 -166 141q0 70 47 157h27q10 -68 91 -75l91 -6q134 -10 134 -185v-75q0 -237 -153 -316zM304 478l-28 32q106 79 106 220q0 101 -149 107q-166 6 -166 141q0 70 47 157h27
q10 -68 91 -75l91 -6q134 -10 134 -185v-75q0 -237 -153 -316z" />
    <glyph glyph-name="exclam" unicode="!" 
d="M360 359h-38l-88 810q-6 53 -6 79q0 63 33.5 101t80.5 38t79.5 -38t32.5 -113q0 -24 -4 -67zM340 193q46 0 78.5 -32.5t32.5 -77.5q0 -46 -32.5 -78.5t-78.5 -32.5t-78.5 32.5t-32.5 78.5q0 45 32.5 77.5t78.5 32.5z" />
    </font>
</defs>
</svg>
