<?xml version="1.0" standalone="no"?>
<!DOCTYPE svg PUBLIC "-//W3C//DTD SVG 1.1//EN" "http://www.w3.org/Graphics/SVG/1.1/DTD/svg11.dtd" >
<svg>
<metadata>
Created by FontForge 20090914 at Fri Oct 13 00:40:40 2017
 By www-data
Copyright 2014 The Heebo Project Authors.
</metadata>
<defs>
<font id="Heebo-Regular" horiz-adv-x="752" >
  <font-face 
    font-family="Heebo"
    font-weight="400"
    font-stretch="normal"
    units-per-em="2048"
    panose-1="0 0 5 0 0 0 0 0 0 0"
    ascent="1638"
    descent="-410"
    x-height="1082"
    cap-height="1456"
    bbox="-887.001 -686.998 1881 2146"
    underline-thickness="100"
    underline-position="-50"
    unicode-range="U+0020-U+FB4F"
  />
<missing-glyph horiz-adv-x="1351" 
d="M1107 -555h-856v2701h856v-2701zM454 1965v-89h175v-100h-178v-89h448v89h-178v100h178v89h-445zM451 1617v-281h448v92h-178v189h-270zM629 1428h-89v97h89v-97zM451 1263v-89h178v-100h-178v-89h270v189h178v89h-448zM810 1101v-179h-359v-91h448v270h-89zM629 771
v-151h92v62h89v-127h-270v216h-89v-305h448v305h-270zM451 304v-305h448v305h-448zM810 88h-270v127h270v-127zM451 -63v-90h189l-189 -126v-90h448v90h-275l189 126h86v90h-448z" />
    <glyph glyph-name=".notdef" horiz-adv-x="1351" 
d="M1107 -555h-856v2701h856v-2701zM454 1965v-89h175v-100h-178v-89h448v89h-178v100h178v89h-445zM451 1617v-281h448v92h-178v189h-270zM629 1428h-89v97h89v-97zM451 1263v-89h178v-100h-178v-89h270v189h178v89h-448zM810 1101v-179h-359v-91h448v270h-89zM629 771
v-151h92v62h89v-127h-270v216h-89v-305h448v305h-270zM451 304v-305h448v305h-448zM810 88h-270v127h270v-127zM451 -63v-90h189l-189 -126v-90h448v90h-275l189 126h86v90h-448z" />
    <glyph glyph-name="space" unicode=" " horiz-adv-x="508" 
 />
    <glyph glyph-name="exclam" unicode="!" horiz-adv-x="529" 
d="M181 411l-14 1045h196l-14 -1045h-168zM351.5 169c19.667 -20 29.5 -45.333 29.5 -76s-9.83301 -55.667 -29.5 -75s-46.834 -29 -81.501 -29s-61.5 9.66699 -80.5 29s-28.5 44.333 -28.5 75s9.5 56 28.5 76s45.833 30 80.5 30s61.834 -10 81.501 -30z" />
    <glyph glyph-name="quotedbl" unicode="&#x22;" horiz-adv-x="658" 
d="M248 1044h-112l1 347v145h141v-136zM519 1044h-112l1 354v138h141v-136z" />
    <glyph glyph-name="numbersign" unicode="#" horiz-adv-x="1263" 
d="M1006 902l-69 -355h224v-137h-251l-80 -410h-144l80 410h-263l-80 -410h-144l80 410h-239v137h266l69 355h-259v138h286l81 416h144l-81 -416h263l81 416h145l-82 -416h203v-138h-230zM862 902h-263l-69 -355h263z" />
    <glyph glyph-name="dollar" unicode="$" horiz-adv-x="1151" 
d="M939 104c-68.667 -68 -163.002 -108.33 -283.002 -120.997v-191h-149v190c-73.333 8 -139.666 28.333 -198.999 61s-107.166 81 -143.499 145s-54.5 144.333 -54.5 241h187c0 -103.333 27 -177.5 81 -222.5s119.667 -67.5 197 -67.5c88 0 156.667 21.167 206 63.5
s74 99.833 74 172.5c0 61.333 -21.5 113.333 -64.5 156s-115.167 81 -216.5 115c-134 40.667 -235.5 95 -304.5 163s-103.5 158.333 -103.5 271c0 73.333 14.5 138 43.5 194s70.333 101 124 135s117.167 55.333 190.5 64v219h151v-220
c112.667 -14.667 199.834 -61.834 261.501 -141.501s92.5 -186.834 92.5 -321.501h-186c0 60 -9.5 113.167 -28.5 159.5s-47 82.666 -84 108.999s-81.5 39.5 -133.5 39.5c-80.667 0 -141.5 -21 -182.5 -63s-61.5 -99 -61.5 -171c0 -44 8.66699 -81.833 26 -113.5
s46.666 -60.167 87.999 -85.5s98.666 -50.333 171.999 -75c90 -29.333 164.333 -62.5 223 -99.5s103.334 -82.5 134.001 -136.5s46 -119.333 46 -196c0 -114 -34.333 -205 -103 -273z" />
    <glyph glyph-name="percent" unicode="%" horiz-adv-x="1500" 
d="M141.5 1327.5c24.333 45.667 59 82 104 109s97.5 40.5 157.5 40.5c60.667 0 113.667 -13.333 159 -40s80.166 -63 104.499 -109s36.5 -96.667 36.5 -152v-77c0 -54.667 -12 -104.834 -36 -150.501s-58.667 -81.834 -104 -108.501s-98 -40 -158 -40
c-60.667 0 -113.667 13.333 -159 40s-80.166 62.834 -104.499 108.501s-36.5 95.834 -36.5 150.501v77c0 55.333 12.167 105.833 36.5 151.5zM286.5 972c27.667 -34.667 67.167 -52 118.5 -52c50.667 0 89.667 17.333 117 52s41 77 41 127v77
c0 50.667 -13.833 93.5 -41.5 128.5s-67.167 52.5 -118.5 52.5c-34 0 -62.833 -8.33301 -86.5 -25s-41.5 -38.667 -53.5 -66s-18 -57.333 -18 -90v-77c0 -50 13.833 -92.333 41.5 -127zM342 177l711 1138l105 -66l-711 -1138zM850.5 508.5
c24.333 45.667 58.999 81.834 103.999 108.501s97.5 40 157.5 40c60.667 0 113.667 -13.333 159 -40s80 -62.834 104 -108.501s36 -96.167 36 -151.5v-78c0 -55.333 -12 -105.833 -36 -151.5s-58.5 -81.834 -103.5 -108.501s-97.5 -40 -157.5 -40
c-60.667 0 -113.667 13.333 -159 40s-80.166 62.834 -104.499 108.501s-36.5 96.167 -36.5 151.5v78c0 55.333 12.167 105.833 36.5 151.5zM970.999 190c12 -27.333 30.168 -49.334 54.501 -66.001s53.833 -25 88.5 -25c50.667 0 89.667 17.333 117 52s41 77.334 41 128.001
v78c0 50.667 -13.833 93.334 -41.5 128.001s-67.167 52 -118.5 52c-50.667 0 -89.834 -17.333 -117.501 -52s-41.5 -77.334 -41.5 -128.001v-78c0 -32 6 -61.667 18 -89z" />
    <glyph glyph-name="ampersand" unicode="&#x26;" horiz-adv-x="1274" 
d="M1044 0l-96.002 115.001c-48.667 -44 -106.334 -77.5 -173.001 -100.5s-134 -34.5 -202 -34.5c-95.333 0 -178.666 17.5 -249.999 52.5s-126.166 83.5 -164.499 145.5s-57.5 133 -57.5 213c0 55.333 11.5 105.5 34.5 150.5s54.5 86.5 94.5 124.5s91.333 79 154 123
c-55.333 67.333 -96.5 126.5 -123.5 177.5s-40.5 103.167 -40.5 156.5c0 74.667 15 138.5 45 191.5s72.5 93.167 127.5 120.5s119.167 41 192.5 41c69.333 0 130.333 -13.833 183 -41.5s93.167 -65 121.5 -112s42.5 -98.167 42.5 -153.5
c0 -65.333 -16.667 -122.333 -50 -171s-82.666 -97.334 -147.999 -146.001l-109 -81l323 -387c44.667 86 67 182 67 288h168c0 -170 -41 -310.667 -123 -422l208 -250h-224zM487.998 1299.5c-26.667 -17.667 -46.833 -41.501 -60.5 -71.501s-20.5 -63 -20.5 -99
c0 -34.667 10 -71.167 30 -109.5s49.333 -81.833 88 -130.5l103 74c46 31.333 79.333 61.833 100 91.5s31 67.834 31 114.501c0 26.667 -7 52.167 -21 76.5s-34.167 43.833 -60.5 58.5s-57.5 22 -93.5 22c-37.333 0 -69.333 -8.83301 -96 -26.5zM713.999 159.5
c46 19.667 88.667 47.498 128 83.498l-356 426l-41 -31c-62.667 -46.667 -104.5 -91.167 -125.5 -133.5s-31.5 -80.166 -31.5 -113.499c0 -48.667 10.667 -92.667 32 -132s53.333 -70.666 96 -93.999s95 -35 157 -35c48 0 95 9.83301 141 29.5z" />
    <glyph glyph-name="quotesingle" unicode="'" horiz-adv-x="358" 
d="M233 1058h-130l1 351v127h151v-111z" />
    <glyph glyph-name="parenleft" unicode="(" horiz-adv-x="702" 
d="M211.5 1080c52.333 146 116.332 266.498 191.999 361.498s149.167 162.167 220.5 201.5l39 -121c-57.333 -44 -112 -107.5 -164 -190.5s-94.833 -187.167 -128.5 -312.5s-50.5 -267 -50.5 -425v-15c0 -158 16.833 -299.667 50.5 -425s76.334 -230.166 128.001 -314.499
s106.5 -150.5 164.5 -198.5l-39 -111c-71.333 40 -144.833 107.333 -220.5 202s-139.667 214.834 -192 360.501s-78.5 308.5 -78.5 488.5v10c0 180 26.167 343 78.5 489z" />
    <glyph glyph-name="parenright" unicode=")" horiz-adv-x="714" 
d="M489.5 92.5c-52.333 -145.667 -116.166 -265.833 -191.499 -360.5s-148.666 -162 -219.999 -202l-39 111c57.333 43.333 112 107.5 164 192.5s94.833 191 128.5 318s50.5 269.5 50.5 427.5v15c0 156.667 -17.667 298.5 -53 425.5s-79 233 -131 318s-105 149.5 -159 193.5
l39 112c71.333 -39.333 144.666 -106.5 219.999 -201.5s139.166 -215.5 191.499 -361.5s78.5 -309 78.5 -489v-10c0 -180 -26.167 -342.833 -78.5 -488.5z" />
    <glyph glyph-name="asterisk" unicode="*" horiz-adv-x="882" 
d="M28 1075l47 149l301 -112l-9 345h154l-10 -350l296 111l47 -152l-306 -91l197 -272l-126 -93l-184 289l-180 -282l-126 91l200 276z" />
    <glyph glyph-name="plus" unicode="+" horiz-adv-x="1162" 
d="M1076 607h-405v-461h-187v461h-406v173h406v426h187v-426h405v-173z" />
    <glyph glyph-name="comma" unicode="," horiz-adv-x="403" 
d="M263 -124c-31.333 -66.667 -74.334 -122 -129.001 -166l-106 72c32.667 46 57.334 92 74.001 138s25 95.333 25 148v151h183v-148c0 -63.333 -15.667 -128.333 -47 -195z" />
    <glyph glyph-name="hyphen" unicode="-" horiz-adv-x="565" 
d="M37 544v151h489v-151h-489z" />
    <glyph glyph-name="period" unicode="." horiz-adv-x="541" 
d="M344.5 177.5c20.333 -21 30.5 -47.832 30.5 -80.499c0 -32 -10.167 -58 -30.5 -78s-48.833 -30 -85.5 -30c-36 0 -64.167 10.167 -84.5 30.5s-30.5 46.166 -30.5 77.499c0 32.667 10.167 59.5 30.5 80.5s48.5 31.5 84.5 31.5c36.667 0 65.167 -10.5 85.5 -31.5z" />
    <glyph glyph-name="slash" unicode="/" horiz-adv-x="846" 
d="M18 -125l608 1581h159l-607 -1581h-160z" />
    <glyph glyph-name="zero" unicode="0" horiz-adv-x="1151" 
d="M917.5 129.5c-78.333 -99.667 -191.833 -149.5 -340.5 -149.5c-148 0 -262 50 -342 150s-120 263.667 -120 491v223c0 226.667 39.5 388.667 118.5 486s192.833 146 341.5 146c149.333 0 263.333 -48.667 342 -146s118 -259.333 118 -486v-223
c0 -228 -39.167 -391.833 -117.5 -491.5zM780.5 1220.5c-45 70.333 -113.499 105.498 -205.499 105.498c-90.667 0 -158.834 -35.333 -204.501 -106s-68.5 -185.667 -68.5 -345v-283c0 -159.333 23.333 -276.166 70 -350.499s115 -111.5 205 -111.5
c91.333 0 159.333 36.833 204 110.5s67 190.834 67 351.501v283c0 160 -22.5 275.167 -67.5 345.5z" />
    <glyph glyph-name="one" unicode="1" horiz-adv-x="1151" 
d="M543 0v1235l-372 -137v167l530 199h29v-1464h-187z" />
    <glyph glyph-name="two" unicode="2" horiz-adv-x="1151" 
d="M121 0v132l477 531c59.333 66 105 121.5 137 166.5s54.5 85.667 67.5 122s19.5 74.166 19.5 113.499c0 48.667 -10 92.834 -30 132.501s-49 71 -87 94s-83 34.5 -135 34.5c-94.667 0 -166.667 -27 -216 -81s-74 -126.333 -74 -217h-187c0 83.333 18.333 159 55 227
s91 121.833 163 161.5s158.333 59.5 259 59.5c90 0 168 -16.167 234 -48.5s116.667 -77.833 152 -136.5s53 -126.667 53 -204c0 -80 -24.5 -162.5 -73.5 -247.5s-115.5 -173.167 -199.5 -264.5l-390 -425h730v-150h-955z" />
    <glyph glyph-name="three" unicode="3" horiz-adv-x="1151" 
d="M959.5 612.5c39 -61.667 58.501 -130.496 58.501 -206.496c0 -88.667 -20 -165 -60 -229s-94.833 -112.833 -164.5 -146.5s-148.5 -50.5 -236.5 -50.5c-86 0 -164 16 -234 48s-125.5 78.5 -166.5 139.5s-61.5 133.5 -61.5 217.5h187
c0 -50.667 11.167 -95.334 33.5 -134.001s54.166 -68.5 95.499 -89.5s90 -31.5 146 -31.5c86 0 153.167 23 201.5 69s72.5 113.667 72.5 203c0 88.667 -27.167 155.167 -81.5 199.5s-129.833 66.5 -226.5 66.5h-132v110v40h132c62 0 114.5 10.667 157.5 32
s75.167 51 96.5 89s32 81.333 32 130c0 84 -21.167 147.833 -63.5 191.5s-105.5 65.5 -189.5 65.5c-52 0 -97.667 -10.333 -137 -31s-70 -49.834 -92 -87.501s-33 -81.834 -33 -132.501h-187c0 74 18.833 141.667 56.5 203s90.5 109.666 158.5 144.999s146 53 234 53
c88.667 0 166 -15.667 232 -47s117.167 -77.833 153.5 -139.5s54.5 -136.5 54.5 -224.5c0 -38 -8.33301 -77.333 -25 -118s-42.167 -78.667 -76.5 -114s-76.833 -63.666 -127.5 -84.999c89.333 -28.667 153.5 -73.834 192.5 -135.501z" />
    <glyph glyph-name="four" unicode="4" horiz-adv-x="1151" 
d="M1105 339h-202v-339h-187v339h-663v108l651 1009h152h47v-967h202v-150zM716 489v715l-22 -39l-430 -676h452z" />
    <glyph glyph-name="five" unicode="5" horiz-adv-x="1151" 
d="M280 1456l747.003 0.000976562v-169h-589l-43 -399c30 18 65.5 33 106.5 45s86.167 18 135.5 18c88.667 0 165.5 -19.833 230.5 -59.5s115 -96.167 150 -169.5s52.5 -159.333 52.5 -258c0 -94.667 -17.167 -178.5 -51.5 -251.5s-86 -130 -155 -171
s-153.833 -61.5 -254.5 -61.5c-80.667 0 -153.834 15 -219.501 45s-119.334 75.167 -161.001 135.5s-66.5 134.5 -74.5 222.5h177c11.333 -82.667 40.833 -145.5 88.5 -188.5s110.834 -64.5 189.501 -64.5c57.333 0 106.5 13.5 147.5 40.5s72.333 65.333 94 115
s32.5 108.5 32.5 176.5c0 62 -11.333 117.5 -34 166.5s-55.834 87.5 -99.501 115.5s-95.834 42 -156.501 42c-39.333 0 -72.5 -3.5 -99.5 -10.5s-50.167 -16.833 -69.5 -29.5s-42 -30.334 -68 -53.001l-150 38z" />
    <glyph glyph-name="six" unicode="6" horiz-adv-x="1151" 
d="M868 887.5c62.667 -45 109.168 -104 139.501 -177s45.5 -151.5 45.5 -235.5c0 -93.333 -17.333 -177.5 -52 -252.5s-86 -134.167 -154 -177.5s-150 -65 -246 -65c-100 0 -185.333 26.833 -256 80.5s-123.667 123 -159 208s-53 174.833 -53 269.5v88
c0 242.667 51.833 442 155.5 598s284.5 234 542.5 234h16v-156h-16c-164.667 0 -287.334 -44.833 -368.001 -134.5s-127 -204.167 -139 -343.5c38.667 44 84.5 76.833 137.5 98.5s111.167 32.5 174.5 32.5c92 0 169.333 -22.5 232 -67.5zM745.501 174.5
c40.333 28.333 71.001 67.667 92.001 118s31.5 108.166 31.5 173.499c0 60 -9.83301 115.667 -29.5 167s-49.334 92.5 -89.001 123.5s-88.167 46.5 -145.5 46.5c-42 0 -82.333 -8.83301 -121 -26.5s-72.167 -41.667 -100.5 -72s-49.5 -64.166 -63.5 -101.499v-70
c0 -83.333 13 -155.333 39 -216s60.5 -106.667 103.5 -138s89.167 -47 138.5 -47c56 0 104.167 14.167 144.5 42.5z" />
    <glyph glyph-name="seven" unicode="7" horiz-adv-x="1151" 
d="M460 0h-196l601 1306h-787v150h985v-103z" />
    <glyph glyph-name="eight" unicode="8" horiz-adv-x="1151" 
d="M972.5 607c44.333 -62.667 66.499 -133.665 66.499 -212.998c0 -86 -20.167 -160.333 -60.5 -223s-95.5 -110.167 -165.5 -142.5s-149 -48.5 -237 -48.5s-167.167 16.167 -237.5 48.5s-125.5 79.666 -165.5 141.999s-60 136.833 -60 223.5c0 80 21.667 151.5 65 214.5
s103 110.5 179 142.5c-66 32 -117.667 76.5 -155 133.5s-56 121.167 -56 192.5c0 82.667 18.333 154.167 55 214.5s87.5 106.166 152.5 137.499s139.167 47 222.5 47s157.333 -15.833 222 -47.5s115.334 -77.5 152.001 -137.5s55 -131.333 55 -214
c0 -71.333 -19 -135.666 -57 -192.999s-90 -102 -156 -134c76 -32.667 136.167 -80.334 180.5 -143.001zM448.999 1295c-36.667 -20.667 -65.167 -50 -85.5 -88s-30.5 -82.333 -30.5 -133c0 -50 10 -93.667 30 -131s48.5 -66.333 85.5 -87s79.5 -31 127.5 -31
s90.333 10.333 127 31s65 49.667 85 87s30 81 30 131c0 48 -10.167 91.167 -30.5 129.5s-48.833 68.333 -85.5 90s-78.667 32.5 -126 32.5c-48 0 -90.333 -10.333 -127 -31zM778.499 201.002c49 47.333 73.4971 113 73.4971 197c0 53.333 -11.667 101 -35 143
s-56.166 74.667 -98.499 98s-90.5 35 -144.5 35c-55.333 0 -103.666 -11.667 -144.999 -35s-73.166 -55.833 -95.499 -97.5s-33.5 -89.5 -33.5 -143.5c0 -84 24.5 -149.667 73.5 -197s116.5 -71 202.5 -71s153.5 23.667 202.5 71z" />
    <glyph glyph-name="nine" unicode="9" horiz-adv-x="1151" 
d="M815.5 1393.5c69.667 -55 120.667 -126.831 153 -215.498s48.5 -185.334 48.5 -290.001v-69c0 -150.667 -17.333 -285.667 -52 -405s-103 -218.5 -205 -297.5s-247.333 -118.5 -436 -118.5h-19v156h19c184 0 312.833 44.167 386.5 132.5s113.5 206.166 119.5 353.499
c-40 -47.333 -87 -84.666 -141 -111.999s-111.667 -41 -173 -41c-91.333 0 -168.333 23.167 -231 69.5s-109.167 106.5 -139.5 180.5s-45.5 152.667 -45.5 236c0 94 17.333 179.167 52 255.5s86 136.666 154 180.999s150 66.5 246 66.5c106 0 193.833 -27.5 263.5 -82.5z
M715.5 695.502c51.667 37.667 90.165 85.501 115.498 143.501v73c0 85.333 -12.667 159.166 -38 221.499s-59.333 109.666 -102 141.999s-89 48.5 -139 48.5c-55.333 0 -103.333 -14.667 -144 -44s-71.667 -69.833 -93 -121.5s-32 -110.167 -32 -175.5
c0 -60 9.83301 -116.167 29.5 -168.5s49.334 -94.666 89.001 -126.999s87.834 -48.5 144.501 -48.5c61.333 0 117.833 18.833 169.5 56.5z" />
    <glyph glyph-name="colon" unicode=":" horiz-adv-x="498" 
d="M333.5 177.5c20.333 -21 30.5 -47.832 30.5 -80.499c0 -32 -10.167 -58 -30.5 -78s-48.833 -30 -85.5 -30c-36 0 -64.167 10.167 -84.5 30.5s-30.5 46.166 -30.5 77.499c0 32.667 10.167 59.5 30.5 80.5s48.5 31.5 84.5 31.5c36.667 0 65.167 -10.5 85.5 -31.5z
M334.5 1061.5c20.333 -21 30.5 -47.832 30.5 -80.499c0 -32 -10.167 -58 -30.5 -78s-48.833 -30 -85.5 -30c-36 0 -64.167 10.167 -84.5 30.5s-30.5 46.166 -30.5 77.499c0 32.667 10.167 59.5 30.5 80.5s48.5 31.5 84.5 31.5c36.667 0 65.167 -10.5 85.5 -31.5z" />
    <glyph glyph-name="semicolon" unicode=";" horiz-adv-x="434" 
d="M310.5 1061.5c20.333 -21 30.5 -47.832 30.5 -80.499c0 -32 -10.167 -58 -30.5 -78s-48.833 -30 -85.5 -30c-36 0 -64.167 10.167 -84.5 30.5s-30.5 46.166 -30.5 77.499c0 32.667 10.167 59.5 30.5 80.5s48.5 31.5 84.5 31.5c36.667 0 65.167 -10.5 85.5 -31.5z
M276 -123.999c-31.333 -66.667 -74.334 -122 -129.001 -166l-106 72c32.667 46 57.334 92 74.001 138s25 95.333 25 148v151h183v-148c0 -63.333 -15.667 -128.333 -47 -195z" />
    <glyph glyph-name="less" unicode="&#x3c;" horiz-adv-x="1041" 
d="M890 904l-624 -259l624 -254v-195l-818 379v115v30l818 378v-194z" />
    <glyph glyph-name="equal" unicode="=" horiz-adv-x="1124" 
d="M152 815v159h834v-159h-834zM152 400v159h834v-159h-834z" />
    <glyph glyph-name="greater" unicode="&#x3e;" horiz-adv-x="1071" 
d="M989 721v-115v-29l-854 -379v190l661 263l-661 259v189z" />
    <glyph glyph-name="question" unicode="?" horiz-adv-x="969" 
d="M374 566c10.667 40.667 27.5 77.333 50.5 110s57.833 72.667 104.5 120l31 31c34 34.667 60 63.167 78 85.5s33 48.166 45 77.499s18 63 18 101c0 70.667 -18.5 125.834 -55.5 165.501s-89.833 59.5 -158.5 59.5c-40.667 0 -78 -7.33301 -112 -22
s-61.333 -37.167 -82 -67.5s-31 -67.5 -31 -111.5h-187c0.666992 73.333 19.167 137.333 55.5 192s85.5 96.5 147.5 125.5s131.667 43.5 209 43.5c84 0 156 -15.333 216 -46s105.667 -74.5 137 -131.5s47 -124.5 47 -202.5c0 -56 -11.333 -109 -34 -159
s-51.667 -96.167 -87 -138.5s-78.333 -87.5 -129 -135.5c-34.667 -31.333 -58.834 -67.833 -72.501 -109.5s-20.5 -89.5 -20.5 -143.5h-187c0.666992 63.333 6.33398 115.333 17.001 156zM540 168.999c19.333 -20 29 -45.333 29 -76s-9.66699 -55.667 -29 -75
s-46.333 -29 -81 -29s-61.667 9.66699 -81 29s-29 44.333 -29 75s9.66699 56 29 76s46.333 30 81 30s61.667 -10 81 -30z" />
    <glyph glyph-name="at" unicode="@" horiz-adv-x="1838" 
d="M1384 1326.5c115.333 -69.667 202.835 -169.332 262.502 -298.999s89.5 -282.834 89.5 -459.501c0 -28.667 -0.333008 -50.334 -1 -65.001c-3.33301 -89.333 -19.5 -173.666 -48.5 -252.999s-73.5 -144.333 -133.5 -195s-135.667 -76 -227 -76
c-61.333 0 -112.5 14.667 -153.5 44s-69.833 71 -86.5 125c-34.667 -54.667 -75.334 -96.5 -122.001 -125.5s-95 -43.5 -145 -43.5c-87.333 0 -154.666 32.333 -201.999 97s-71 153 -71 265c0 15.333 1.33301 41 4 77c10 113.333 36.167 213.5 78.5 300.5
s94.666 154 156.999 201s127.833 70.5 196.5 70.5c45.333 0 84.833 -4.66699 118.5 -14s62.667 -21.166 87 -35.499s52.166 -33.5 83.499 -57.5l-51 -554c-1.33301 -12 -2 -29 -2 -51c0 -68 12.333 -115 37 -141s55.334 -39 92.001 -39c52 0 96.833 17.667 134.5 53
s66.834 83.666 87.501 144.999s32.667 130.333 36 207c1.33301 34.667 2 59.667 2 75c0 232 -53.333 410.333 -160 535s-267.667 187 -483 187c-137.333 0 -257.833 -34.333 -361.5 -103s-184.834 -165 -243.501 -289s-91.334 -267.333 -98.001 -430
c-1.33301 -30.667 -2 -52.667 -2 -66c0 -153.333 25 -285.5 75 -396.5s122.667 -196.167 218 -255.5s210 -89 344 -89c59.333 0 119 7 179 21s110.667 33 152 57l38 -113c-44 -28.667 -100.5 -50.667 -169.5 -66s-136.833 -23 -203.5 -23c-161.333 0 -300.333 35 -417 105
s-206 170.167 -268 300.5s-93 284.833 -93 463.5c0 27.333 0.333008 48 1 62c8 182.667 48.167 346.167 120.5 490.5s171.5 257.5 297.5 339.5s271 123 435 123c162 0 300.667 -34.833 416 -104.5zM978.002 171.502c37.333 33 68.3359 82.834 93.0029 149.501l1 8l46 504
c-37.333 19.333 -77.333 29 -120 29c-48.667 0 -93.334 -16.833 -134.001 -50.5s-74.334 -83.834 -101.001 -150.501s-44.334 -147.667 -53.001 -243c-2 -22.667 -3 -44.667 -3 -66c0 -74 13.5 -130.833 40.5 -170.5s66.167 -59.5 117.5 -59.5c38 0 75.667 16.5 113 49.5z
" />
    <glyph glyph-name="A" unicode="A" horiz-adv-x="1338" 
d="M973 381h-607l-138 -381h-200l556 1456h128h42l557 -1456h-199zM916 538l-247 680l-246 -680h493z" />
    <glyph glyph-name="B" unicode="B" horiz-adv-x="1276" 
d="M1093 640.5c44.667 -63 66.9971 -136.498 66.9971 -220.498c0 -89.333 -19.667 -165.5 -59 -228.5s-95.166 -110.667 -167.499 -143s-157.166 -48.5 -254.499 -48.5h-436h-74v1456h478c152.667 0 270 -31.667 352 -95s123 -161 123 -293
c0 -66.667 -19.167 -126.334 -57.5 -179.001s-91.5 -93.334 -159.5 -122.001c80.667 -21.333 143.334 -63.5 188.001 -126.5zM362.997 1299l-0.000976562 -464h289c54.667 0 102.834 9.33301 144.501 28s74 45.667 97 81s34.5 77.333 34.5 126c0 79.333 -23 137.333 -69 174
s-116.667 55 -212 55h-284zM889.996 226.502c50.667 47 76 110.833 76 191.5c0 84 -22.667 149 -68 195s-115.333 69 -210 69h-325v-526h316c90 0 160.333 23.5 211 70.5z" />
    <glyph glyph-name="C" unicode="C" horiz-adv-x="1333" 
d="M1160 211.5c-43.333 -72.333 -104.499 -129.001 -183.499 -170.001s-175.167 -61.5 -288.5 -61.5c-112.667 0 -212 27.833 -298 83.5s-152.667 134.5 -200 236.5s-71 220 -71 354v147c0 134.667 23.833 253 71.5 355s115.834 180.833 204.501 236.5
s192.334 83.5 311.001 83.5c107.333 0 199.333 -20.167 276 -60.5s136.5 -97 179.5 -170s69.5 -158.5 79.5 -256.5h-194c-15.333 108.667 -49.333 190.834 -102 246.501s-132.334 83.5 -239.001 83.5c-84.667 0 -156.334 -21.333 -215.001 -64
s-102.834 -102.667 -132.501 -180s-44.5 -168 -44.5 -272v-149c0 -98.667 13.667 -187 41 -265s69 -139.667 125 -185s125.333 -68 208 -68c79.333 0 143.5 12.5 192.5 37.5s86 61.167 111 108.5s43.5 107.333 55.5 180h194c-10.667 -94.667 -37.667 -178.167 -81 -250.5z
" />
    <glyph glyph-name="D" unicode="D" horiz-adv-x="1344" 
d="M916.5 1372.5c97 -55.667 172.333 -135.167 226 -238.5s80.5 -224 80.5 -362v-88c0 -139.333 -26.833 -260.5 -80.5 -363.5s-130.167 -182.167 -229.5 -237.5s-216 -83 -350 -83h-304h-90v1456h194h217c127.333 0 239.5 -27.833 336.5 -83.5zM1031 774
c0 110.667 -17.5 205.168 -52.5 283.501s-86.333 138.166 -154 179.499s-149.167 62 -244.5 62h-217v-1143h200c101.333 0 187 21.5 257 64.5s122.667 104 158 183s53 172.5 53 280.5v90z" />
    <glyph glyph-name="E" unicode="E" horiz-adv-x="1164" 
d="M1094 156v-156h-769h-156v1456h194h721v-157h-721v-469h629v-156h-629v-518h731z" />
    <glyph glyph-name="F" unicode="F" horiz-adv-x="1132" 
d="M363 1299v-499h609v-156h-609v-644h-194v1456h194h708v-157h-708z" />
    <glyph glyph-name="G" unicode="G" horiz-adv-x="1395" 
d="M1066.5 43.5c-80.333 -42.333 -192.497 -63.498 -336.497 -63.498c-118.667 0 -223.834 27.5 -315.501 82.5s-163.334 134.667 -215.001 239s-77.5 227.5 -77.5 369.5v115c0 144.667 22.667 268.5 68 371.5s111.833 181.833 199.5 236.5s193.5 82 317.5 82
c160 0 284.833 -40.333 374.5 -121s144.167 -189 163.5 -325h-194c-14.667 86.667 -49.5 156.5 -104.5 209.5s-134.5 79.5 -238.5 79.5c-131.333 0 -229.333 -46.333 -294 -139s-97 -223.334 -97 -392.001v-117c0 -110 17.167 -205.333 51.5 -286
s82.666 -142.334 144.999 -185.001s134.833 -64 217.5 -64c91.333 0 161 10.167 209 30.5s85.333 45.5 112 75.5v328h-336v155h529v-534c-38.667 -56 -98.167 -105.167 -178.5 -147.5z" />
    <glyph glyph-name="H" unicode="H" horiz-adv-x="1461" 
d="M1289 1456v-1456h-194v674h-732v-674h-194v1456h194v-626h732v626h194z" />
    <glyph glyph-name="I" unicode="I" horiz-adv-x="558" 
d="M183 0v1456h194v-1456h-194z" />
    <glyph glyph-name="J" unicode="J" horiz-adv-x="1130" 
d="M973 1456v-1030c0 -94 -19.5 -174.5 -58.5 -241.5s-93.167 -117.833 -162.5 -152.5s-149 -52 -239 -52c-91.333 0 -171.5 15.667 -240.5 47s-122.833 78.5 -161.5 141.5s-58 141.167 -58 234.5h194c0 -88.667 24 -155.334 72 -200.001s112.667 -67 194 -67
c51.333 0 97 11.167 137 33.5s71.5 55.333 94.5 99s34.5 96.167 34.5 157.5v1030h194z" />
    <glyph glyph-name="K" unicode="K" horiz-adv-x="1285" 
d="M541 678l-178 -184v-494h-194v1456h194v-718l645 718h234l-573 -642l617 -814h-232z" />
    <glyph glyph-name="L" unicode="L" horiz-adv-x="1103" 
d="M1053 156v-156h-728h-156v1456h194v-1300h690z" />
    <glyph glyph-name="M" unicode="M" horiz-adv-x="1789" 
d="M1619 0h-193v569l18 607l-477 -1176h-147l-476 1175l18 -606v-569h-193v1456h166h84l475 -1190l475 1190h250v-1456z" />
    <glyph glyph-name="N" unicode="N" horiz-adv-x="1461" 
d="M1094 0l-731 1126v-1126h-194v1456h194l734 -1129v1129h192v-1456h-195z" />
    <glyph glyph-name="O" unicode="O" horiz-adv-x="1410" 
d="M1218.5 307c-47.667 -105.333 -115.501 -186.168 -203.501 -242.501s-191 -84.5 -309 -84.5c-114.667 0 -216.5 28.333 -305.5 85s-158.333 137.834 -208 243.501s-74.5 229.834 -74.5 372.501v93c0 142.667 24.667 267 74 373s118.333 187.333 207 244
s190.334 85 305.001 85c118 0 221.167 -28.333 309.5 -85s156.5 -137.834 204.5 -243.501s72 -230.167 72 -373.5v-93c0 -144 -23.833 -268.667 -71.5 -374zM1051.5 1068.5c-31 80.333 -76 141.169 -135 182.502s-129.833 62 -212.5 62
c-79.333 0 -148.666 -20.833 -207.999 -62.5s-105 -102.667 -137 -183s-48 -177.5 -48 -291.5v-95c0 -114.667 16.167 -212.334 48.5 -293.001s78.166 -141.834 137.499 -183.501s129 -62.5 209 -62.5c125.333 0 222 46.333 290 139s102 226 102 400v95
c0 114.667 -15.5 212.167 -46.5 292.5z" />
    <glyph glyph-name="P" unicode="P" horiz-adv-x="1293" 
d="M983.5 1399.5c77 -37.667 135.331 -89.833 174.998 -156.5s59.5 -143.667 59.5 -231c0 -93.333 -19.667 -173 -59 -239s-97.166 -116.167 -173.499 -150.5s-169.166 -51.5 -278.499 -51.5h-344v-571h-194v1456h538c107.333 0 199.5 -18.833 276.5 -56.5zM946.498 803.001
c51.667 50.667 77.5 119.666 77.5 206.999c0 52.667 -11.167 100.834 -33.5 144.501s-57.333 78.667 -105 105s-107.167 39.5 -178.5 39.5h-344v-572h344c108 0 187.833 25.333 239.5 76z" />
    <glyph glyph-name="Q" unicode="Q" horiz-adv-x="1410" 
d="M1156 -247l-308.001 244.998c-46.667 -12 -97 -18 -151 -18c-114.667 0 -216.5 28.333 -305.5 85s-158.333 137.834 -208 243.501s-74.5 229.834 -74.5 372.501v93c0 142.667 24.667 267 74 373s118.333 187.333 207 244s190.334 85 305.001 85
c118 0 221.167 -28.167 309.5 -84.5s156.666 -137.5 204.999 -243.5s72.5 -230.667 72.5 -374v-93c0 -138 -22.167 -258.5 -66.5 -361.5s-107.166 -183.5 -188.499 -241.5l260 -205zM351.499 387.998c32.333 -80.667 78.168 -141.831 137.501 -183.498
s128.666 -62.5 207.999 -62.5c125.333 0 222 46.333 290 139s102 226 102 400v95c0 114.667 -15.5 212.167 -46.5 292.5s-76 141.166 -135 182.499s-129.833 62 -212.5 62c-79.333 0 -148.5 -20.833 -207.5 -62.5s-104.5 -102.667 -136.5 -183s-48 -177.5 -48 -291.5v-95
c0 -114.667 16.167 -212.334 48.5 -293.001z" />
    <glyph glyph-name="R" unicode="R" horiz-adv-x="1261" 
d="M1226 12v-12h-208l-316 590h-339v-590h-194v1456h482c164.667 0 291 -37.5 379 -112.5s132 -183.167 132 -324.5c0 -90 -24.5 -168.833 -73.5 -236.5s-117.167 -118.5 -204.5 -152.5zM656 746c66.667 0 123.332 12.001 169.999 36.001s81.834 56.667 105.501 98
s35.5 87.666 35.5 138.999c0 88 -26 156.667 -78 206s-131.333 74 -238 74h-288v-553h293z" />
    <glyph glyph-name="S" unicode="S" horiz-adv-x="1216" 
d="M247 818.5c-80 67 -119.999 154.162 -119.999 261.495c0 75.333 20.5 143 61.5 203s99 107.167 174 141.5s161.167 51.5 258.5 51.5c106 0 197.833 -20.333 275.5 -61s137 -94.667 178 -162s61.5 -139.666 61.5 -216.999h-195c0 85.333 -27 153.833 -81 205.5
s-133.667 77.5 -239 77.5c-98 0 -172.333 -21.667 -223 -65s-76 -100.333 -76 -171c0 -41.333 11.667 -77.666 35 -108.999s59.666 -59.666 108.999 -84.999s114.333 -49.333 195 -72c112 -31.333 202.833 -67.333 272.5 -108s121.334 -88.5 155.001 -143.5
s50.5 -120.167 50.5 -195.5c0 -78 -20.833 -146.5 -62.5 -205.5s-100.834 -104.5 -177.501 -136.5s-166 -48 -268 -48c-92.667 0 -181.167 17.167 -265.5 51.5s-152.833 84.833 -205.5 151.5s-79 146.334 -79 239.001h194c0 -64 16.167 -117.333 48.5 -160
s75.333 -74.334 129 -95.001s113.167 -31 178.5 -31c99.333 0 176.333 20.667 231 62s82 98 82 170c0 47.333 -9.83301 86.833 -29.5 118.5s-54.167 60.334 -103.5 86.001s-120.333 51.834 -213 78.501c-154 44.667 -271 100.5 -351 167.5z" />
    <glyph glyph-name="T" unicode="T" horiz-adv-x="1222" 
d="M1175 1299h-467v-1299h-192v1299h-466v157h658h467v-157z" />
    <glyph glyph-name="U" unicode="U" horiz-adv-x="1328" 
d="M1195 471c0 -105.333 -23.833 -195 -71.5 -269s-111.667 -129.5 -192 -166.5s-168.833 -55.5 -265.5 -55.5c-101.333 0 -191.5 18.5 -270.5 55.5s-141.333 92.333 -187 166s-68.5 163.5 -68.5 269.5v985h192v-985c0 -110.667 29.833 -194.167 89.5 -250.5
s141.167 -84.5 244.5 -84.5c104 0 185.667 28.167 245 84.5s89 139.833 89 250.5v985h195v-985z" />
    <glyph glyph-name="V" unicode="V" horiz-adv-x="1305" 
d="M1278 1456l-539 -1456h-150h-22l-538 1456h211l412 -1200l415 1200h211z" />
    <glyph glyph-name="W" unicode="W" horiz-adv-x="1817" 
d="M1773 1456l-352 -1456h-139h-38l-299 1063l-22 109l-23 -109l-310 -1063h-141h-36l-352 1456h194l229 -998l28 -190l40 171l288 1017h142h21l280 -1017l40 -175l31 195l224 997h195z" />
    <glyph glyph-name="X" unicode="X" horiz-adv-x="1285" 
d="M993 1456h227l-459 -721l470 -735h-229l-357 570l-359 -570h-228l471 735l-461 721h228l349 -559z" />
    <glyph glyph-name="Y" unicode="Y" horiz-adv-x="1230" 
d="M992 1456h220l-501 -912v-544h-195v544l-501 912h222l377 -732z" />
    <glyph glyph-name="Z" unicode="Z" horiz-adv-x="1227" 
d="M1146 156v-156h-986h-73v143l798 1156h-786v157h933h82v-139l-800 -1161h832z" />
    <glyph glyph-name="bracketleft" unicode="[" horiz-adv-x="545" 
d="M333 1514v-1676h191v-150h-378v1976h378v-150h-191z" />
    <glyph glyph-name="backslash" unicode="\" horiz-adv-x="841" 
d="M218 1456l608 -1581h-177l-608 1581h177z" />
    <glyph glyph-name="bracketright" unicode="]" horiz-adv-x="545" 
d="M389 1664v-1976h-379v150h192v1676h-192v150h379z" />
    <glyph glyph-name="asciicircum" unicode="^" horiz-adv-x="856" 
d="M616 729l-189 484l-190 -484h-173l299 727h112h16l298 -727h-173z" />
    <glyph glyph-name="underscore" unicode="_" horiz-adv-x="925" 
d="M4 -150v150h917v-150h-917z" />
    <glyph glyph-name="grave" unicode="`" horiz-adv-x="634" 
d="M315 1243l-259 293h225l194 -293h-160z" />
    <glyph glyph-name="a" unicode="a" horiz-adv-x="1115" 
d="M975 118.5c6.66699 -40.333 15.999 -74.5 27.999 -102.5v-16h-195c-11.333 26 -20 63.667 -26 113c-37.333 -40 -82.166 -72.167 -134.499 -96.5s-109.833 -36.5 -172.5 -36.5c-72 0 -135.833 14.167 -191.5 42.5s-98.667 66.833 -129 115.5s-45.5 102.667 -45.5 162
c0 76.667 19.833 141.667 59.5 195s96 93.5 169 120.5s159.167 40.5 258.5 40.5h182v86c0 66 -19.5 117.833 -58.5 155.5s-95.167 56.5 -168.5 56.5c-44.667 0 -84.667 -7.83301 -120 -23.5s-62.833 -36.667 -82.5 -63s-29.5 -54.833 -29.5 -85.5h-187
c0 52.667 18 103.667 54 153s86.667 89.5 152 120.5s140 46.5 224 46.5c80 0 150.167 -13.5 210.5 -40.5s107.5 -67.667 141.5 -122s51 -120.833 51 -199.5v-504c0 -38 3.33301 -77.167 10 -117.5zM621.499 162.5c37 15 68.834 34.832 95.501 59.499s47 51.334 61 80.001
v224h-152c-106.667 0 -188.334 -16.833 -245.001 -50.5s-85 -83.5 -85 -149.5c0 -35.333 8 -67 24 -95s39.333 -50.167 70 -66.5s68 -24.5 112 -24.5c42.667 0 82.5 7.5 119.5 22.5z" />
    <glyph glyph-name="b" unicode="b" horiz-adv-x="1150" 
d="M863 1033.5c63.333 -45.667 111.5 -110 144.5 -193s49.5 -179.833 49.5 -290.5v-21c0 -106 -16.5 -200.5 -49.5 -283.5s-81.167 -148 -144.5 -195s-138.666 -70.5 -225.999 -70.5c-136.667 0 -242.334 47.667 -317.001 143l-9 -123h-171v1536h187v-570
c74 90.667 176.667 136 308 136c88.667 0 164.667 -22.833 228 -68.5zM870 550c0 118.667 -22.501 214.5 -67.501 287.5s-116.5 109.5 -214.5 109.5c-63.333 0 -116.5 -15.167 -159.5 -45.5s-76.833 -71.5 -101.5 -123.5v-473c25.333 -51.333 59.833 -92.333 103.5 -123
s96.834 -46 159.501 -46c94 0 164.167 36.5 210.5 109.5s69.5 167.5 69.5 283.5v21z" />
    <glyph glyph-name="c" unicode="c" horiz-adv-x="1073" 
d="M1006 342c-3.33301 -63.333 -25 -122.832 -65 -178.499s-92.5 -100.167 -157.5 -133.5s-134.833 -50 -209.5 -50c-104.667 0 -193.167 24.167 -265.5 72.5s-126.5 113.333 -162.5 195s-54 172.5 -54 272.5v42c0 100 18 190.833 54 272.5s90.167 146.667 162.5 195
s160.833 72.5 265.5 72.5c82.667 0 156.167 -17 220.5 -51s114.833 -80.833 151.5 -140.5s56.667 -126.5 60 -200.5h-177c-3.33301 44.667 -16 85.5 -38 122.5s-51.667 66.167 -89 87.5s-80 32 -128 32c-71.333 0 -129 -18.5 -173 -55.5s-75.333 -84.667 -94 -143
s-28 -122.166 -28 -191.499v-42c0 -110.667 22.833 -203.334 68.5 -278.001s121.167 -112 226.5 -112c43.333 0 83.833 9.16699 121.5 27.5s68.5 43.666 92.5 75.999s37.667 68.5 41 108.5h177z" />
    <glyph glyph-name="d" unicode="d" horiz-adv-x="1156" 
d="M1009 1536l0.000976562 -1536h-171l-9 115c-73.333 -90 -176 -135 -308 -135c-83.333 0 -157.333 23.667 -222 71s-114.834 112.666 -150.501 195.999s-53.5 177.333 -53.5 282v21c0 109.333 17.667 205.666 53 288.999s85.333 148 150 194s139.667 69 225 69
c127.333 0 227 -42.333 299 -127v561h187zM822.001 293.002v501.001c-25.333 47.333 -58.833 84.666 -100.5 111.999s-92.5 41 -152.5 41c-64.667 0 -118.5 -17.5 -161.5 -52.5s-74.667 -82.5 -95 -142.5s-30.5 -127.333 -30.5 -202v-21
c0 -74.667 10.167 -141.5 30.5 -200.5s51.833 -105.833 94.5 -140.5s96 -52 160 -52c115.333 0 200.333 52.333 255 157z" />
    <glyph glyph-name="e" unicode="e" horiz-adv-x="1087" 
d="M1012 490l-732 0.00195312c2 -67.333 16 -128.333 42 -183s62.833 -97.834 110.5 -129.501s103.5 -47.5 167.5 -47.5c62.667 0 116.834 12.667 162.501 38s86.5 61.666 122.5 108.999l113 -88c-40 -61.333 -93.333 -111.5 -160 -150.5s-149.334 -58.5 -248.001 -58.5
s-185.667 22.333 -261 67s-133.5 106.667 -174.5 186s-61.5 169.333 -61.5 270v43c0 112.667 22 211.167 66 295.5s102.167 148.833 174.5 193.5s149.833 67 232.5 67c100.667 0 184.167 -22.5 250.5 -67.5s115.5 -107.167 147.5 -186.5s48 -171 48 -275v-83zM825 654.002
c-5.33301 84.667 -28.165 155.499 -68.498 212.499s-103.833 85.5 -190.5 85.5c-74.667 0 -136.834 -27.167 -186.501 -81.5s-80.834 -131.166 -93.501 -230.499h539v14z" />
    <glyph glyph-name="f" unicode="f" horiz-adv-x="712" 
d="M467 1347.5c-32.667 -35 -49 -85.166 -49 -150.499v-115h230v-141h-230v-941h-187v941h-170v141h170v115c0 115.333 31.5 204.166 94.5 266.499s150.5 93.5 262.5 93.5c40.667 0 83 -5.33301 127 -16l-10 -149c-30 5.33301 -63.333 8 -100 8
c-59.333 0 -105.333 -17.5 -138 -52.5z" />
    <glyph glyph-name="g" unicode="g" horiz-adv-x="1150" 
d="M1011 1082l-0.00292969 -1059c0 -94 -19.333 -174.833 -58 -242.5s-92.5 -119.167 -161.5 -154.5s-148.833 -53 -239.5 -53c-42 0 -88 6.33301 -138 19s-98.833 33 -146.5 61s-86.5 64 -116.5 108l97 109c80 -98 176.667 -147 290 -147c88.667 0 158.5 25.167 209.5 75.5
s76.5 122.166 76.5 215.499v93c-73.333 -84.667 -174 -127 -302 -127c-85.333 0 -160.166 23.667 -224.499 71s-114 112.5 -149 195.5s-52.5 177.167 -52.5 282.5v21c0 109.333 17.333 205.666 52 288.999s84.334 148 149.001 194s140.334 69 227.001 69
c132 0 235 -46.333 309 -139l8 119h170zM823.997 295.002v497c-25.333 48 -59 85.833 -101 113.5s-93 41.5 -153 41.5c-64.667 0 -118.5 -17.5 -161.5 -52.5s-74.667 -82.5 -95 -142.5s-30.5 -127.333 -30.5 -202v-21c0 -74.667 10.167 -141.5 30.5 -200.5
s51.833 -105.833 94.5 -140.5s96 -52 160 -52c116 0 201.333 53 256 159z" />
    <glyph glyph-name="h" unicode="h" horiz-adv-x="1128" 
d="M992 709l0.000976562 -709h-187v711c0 82.667 -17.833 142.667 -53.5 180s-89.5 56 -161.5 56c-57.333 0 -108.833 -15.667 -154.5 -47s-81.834 -73.333 -108.501 -126v-774h-187v1536h187v-582c39.333 47.333 86 83.833 140 109.5s113.333 38.5 178 38.5
c231.333 0 347 -131 347 -393z" />
    <glyph glyph-name="i" unicode="i" horiz-adv-x="498" 
d="M332.5 1446c19.667 -20 29.5 -45.333 29.5 -76c0 -30 -9.83301 -54.833 -29.5 -74.5s-46.834 -29.5 -81.501 -29.5s-61.5 9.83301 -80.5 29.5s-28.5 44.5 -28.5 74.5c0 30.667 9.5 56 28.5 76s45.833 30 80.5 30s61.834 -10 81.501 -30zM156 0v1082h187v-1082h-187z" />
    <glyph glyph-name="j" unicode="j" horiz-adv-x="491" 
d="M317.5 1446c19.667 -20 29.5 -45.333 29.5 -76c0 -30 -9.83301 -54.833 -29.5 -74.5s-46.834 -29.5 -81.501 -29.5s-61.5 9.83301 -80.5 29.5s-28.5 44.5 -28.5 74.5c0 30.667 9.5 56 28.5 76s45.833 30 80.5 30s61.834 -10 81.501 -30zM333 -129
c0 -100.667 -23.667 -177.167 -71 -229.5s-118 -78.5 -212 -78.5c-17.333 0 -37 1.66699 -59 5s-40.667 7.33301 -56 12l1 148c24.667 -6 53 -9 85 -9c41.333 0 72.5 11.833 93.5 35.5s31.5 62.5 31.5 116.5v1211h187v-1211z" />
    <glyph glyph-name="k" unicode="k" horiz-adv-x="1039" 
d="M444 502l-116 -120v-382h-187v1536h187v-928l99 117l334 357h227l-421 -451l471 -631h-220z" />
    <glyph glyph-name="l" unicode="l" horiz-adv-x="498" 
d="M156 0v1536h187v-1536h-187z" />
    <glyph glyph-name="m" unicode="m" horiz-adv-x="1795" 
d="M1564 1007c61.333 -63.333 92.0029 -162 92.0029 -296v-711h-187v713c0 86 -19.5 146.5 -58.5 181.5s-96.167 52.5 -171.5 52.5c-48 0 -90 -10.167 -126 -30.5s-64.167 -47.833 -84.5 -82.5s-32.833 -73.667 -37.5 -117v-717h-187v712c0 156.667 -77 235 -231 235
c-62 0 -113.333 -13.5 -154 -40.5s-71.667 -64.5 -93 -112.5v-794h-187v1082h177l6 -117c37.333 44 82.666 77.833 135.999 101.5s114.333 35.5 183 35.5c71.333 0 133.833 -14.167 187.5 -42.5s94.167 -71.5 121.5 -129.5c37.333 53.333 85.166 95.333 143.499 126
s125.166 46 200.499 46c118.667 0 208.667 -31.667 270 -95z" />
    <glyph glyph-name="n" unicode="n" horiz-adv-x="1131" 
d="M992 709l0.000976562 -709.001h-187v711c0 82.667 -17.833 142.667 -53.5 180s-89.5 56 -161.5 56c-57.333 0 -108.833 -15.667 -154.5 -47s-81.834 -73.333 -108.501 -126v-774h-187v1082h177l6 -133c39.333 48.667 86.333 86.334 141 113.001s115 40 181 40
c231.333 0 347 -131 347 -393z" />
    <glyph glyph-name="o" unicode="o" horiz-adv-x="1169" 
d="M152 834c40 83.333 97.1641 148.833 171.497 196.5s160.833 71.5 259.5 71.5c100 0 187.333 -23.833 262 -71.5s132 -113.167 172 -196.5s60 -177.333 60 -282v-23c0 -104.667 -20 -198.5 -60 -281.5s-97.167 -148.333 -171.5 -196s-161.166 -71.5 -260.499 -71.5
s-186.166 23.833 -260.499 71.5s-131.666 113 -171.999 196s-60.5 176.833 -60.5 281.5v23c0 104.667 20 198.667 60 282zM313.497 328c23 -60.667 57.5 -108.834 103.5 -144.501s102 -53.5 168 -53.5c65.333 0 121 17.833 167 53.5s80.5 83.834 103.5 144.501
s34.5 127.667 34.5 201v23c0 73.333 -11.667 140.333 -35 201s-58 109 -104 145s-102 54 -168 54c-65.333 0 -120.833 -18 -166.5 -54s-80 -84.333 -103 -145s-34.5 -127.667 -34.5 -201v-23c0 -73.333 11.5 -140.333 34.5 -201z" />
    <glyph glyph-name="p" unicode="p" horiz-adv-x="1150" 
d="M862 1033.5c63.333 -45.667 111.335 -110 144.002 -193s49 -179.833 49 -290.5v-21c0 -106 -16.5 -200.5 -49.5 -283.5s-81 -148 -144 -195s-138.167 -70.5 -225.5 -70.5c-130.667 0 -233.667 41.333 -309 124v-520h-187v1498h170l10 -118
c75.333 92 179.666 138 312.999 138c89.333 0 165.666 -22.833 228.999 -68.5zM868.002 550c0 74.667 -10.5 141.833 -31.5 201.5s-53.333 107.167 -97 142.5s-97.834 53 -162.501 53c-58.667 0 -108.667 -13.333 -150 -40s-74.666 -63 -99.999 -109v-521
c55.333 -98 139.333 -147 252 -147c64 0 117.667 17.833 161 53.5s75.5 83.5 96.5 143.5s31.5 127.333 31.5 202v21z" />
    <glyph glyph-name="q" unicode="q" horiz-adv-x="1165" 
d="M1008 1082l0.000976562 -1498h-187v514c-73.333 -78.667 -172.333 -118 -297 -118c-87.333 0 -163.333 23.5 -228 70.5s-114.334 112.167 -149.001 195.5s-52 177.666 -52 282.999v21c0 110 17.167 206.667 51.5 290s84 147.833 149 193.5s141.833 68.5 230.5 68.5
c127.333 0 228.333 -42.333 303 -127l8 107h171zM821.001 276.001l0.00195312 533.001c-26 44 -59.667 78.833 -101 104.5s-90.333 38.5 -147 38.5c-64.667 0 -118.834 -18 -162.501 -54s-76 -84.333 -97 -145s-31.5 -128.334 -31.5 -203.001v-21
c0 -74.667 10.5 -142 31.5 -202s53.167 -107.833 96.5 -143.5s97 -53.5 161 -53.5c109.333 0 192.666 48.667 249.999 146z" />
    <glyph glyph-name="r" unicode="r" horiz-adv-x="694" 
d="M627 1097.5c18 -3 30.333 -6.16797 37 -9.50098v-171c-28.667 5.33301 -59 8 -91 8c-61.333 0 -112.5 -13.667 -153.5 -41s-71.833 -65.666 -92.5 -114.999v-769h-187v1082h182l4 -123c28 45.333 63.333 80.5 106 105.5s92.667 37.5 150 37.5c12 0 27 -1.5 45 -4.5z" />
    <glyph glyph-name="s" unicode="s" horiz-adv-x="1057" 
d="M230.5 587c-65.667 48 -98.5029 114.33 -98.5029 198.997c0 57.333 16.667 110 50 158s80.5 86.333 141.5 115s130.833 43 209.5 43c84 0 157.333 -15 220 -45s110.5 -70.5 143.5 -121.5s49.5 -107.833 49.5 -170.5h-187c0 30.667 -9 60.334 -27 89.001
s-44.167 52.167 -78.5 70.5s-74.5 27.5 -120.5 27.5c-48.667 0 -89 -7.5 -121 -22.5s-55.5 -34.667 -70.5 -59s-22.5 -50.5 -22.5 -78.5c0 -28.667 6.83301 -52.5 20.5 -71.5s38.334 -36.167 74.001 -51.5s87.167 -30.333 154.5 -45c90.667 -20.667 164.334 -45 221.001 -73
s98.834 -62.333 126.501 -103s41.5 -90 41.5 -148c0 -62.667 -17.333 -118.167 -52 -166.5s-83.667 -86 -147 -113s-136.666 -40.5 -219.999 -40.5c-92 0 -171.5 16.5 -238.5 49.5s-117.833 76.5 -152.5 130.5s-52 111.667 -52 173h187
c2.66699 -48 16.667 -87.167 42 -117.5s56.833 -52.166 94.5 -65.499s77.5 -20 119.5 -20c48.667 0 90.5 6.83301 125.5 20.5s61.5 32.334 79.5 56.001s27 50.5 27 80.5s-6.33301 56 -19 78s-37 42.333 -73 61s-88 35 -156 49c-128.667 26.667 -225.834 64 -291.501 112z
" />
    <glyph glyph-name="t" unicode="t" horiz-adv-x="670" 
d="M599 0c-42.667 -13.333 -90.333 -20 -143 -20c-75.333 0 -135.833 22.667 -181.5 68s-68.5 119 -68.5 221v672h-197v141h197v263h187v-263h202v-141h-202v-673c0 -51.333 10.667 -85.833 32 -103.5s50.333 -26.5 87 -26.5c14 0 29.333 1.16699 46 3.5s30 4.83301 40 7.5z
" />
    <glyph glyph-name="u" unicode="u" horiz-adv-x="1129" 
d="M989 1082v-1082h-178l-3 107c-72 -84.667 -177.667 -127 -317 -127c-111.333 0 -198.333 32.667 -261 98s-94 167.333 -94 306v698h187v-700c0 -90 18.5 -153.5 55.5 -190.5s84.5 -55.5 142.5 -55.5c140 0 233.667 52.333 281 157v789h187z" />
    <glyph glyph-name="v" unicode="v" horiz-adv-x="993" 
d="M955 1082l-388 -1082h-126h-16l-392 1082h191l274 -829l266 829h191z" />
    <glyph glyph-name="w" unicode="w" horiz-adv-x="1539" 
d="M1491 1082l-314 -1082h-124h-27l-262 817l-256 -817h-119h-32l-314 1082h186l212 -803l251 803h123h28l255 -821l208 821h185z" />
    <glyph glyph-name="x" unicode="x" horiz-adv-x="1016" 
d="M742 1082h218l-353 -534l364 -548h-215l-249 407l-248 -407h-218l365 548l-354 534h216l236 -395z" />
    <glyph glyph-name="y" unicode="y" horiz-adv-x="969" 
d="M944 1082l-433.999 -1249c-26.667 -72.667 -65.167 -135.834 -115.5 -189.501s-118.833 -80.5 -205.5 -80.5c-14 0 -32.167 1.83301 -54.5 5.5s-39.166 7.16699 -50.499 10.5v149c7.33301 -1.33301 15.666 -2.5 24.999 -3.5s17.666 -1.5 24.999 -1.5
c63.333 0 112.5 13.167 147.5 39.5s63.5 72.5 85.5 138.5l41 111l-386 1070h204l268 -810l251 810h199z" />
    <glyph glyph-name="z" unicode="z" horiz-adv-x="1016" 
d="M947 150v-150h-787h-71v135l597 796h-589v151h739h82v-130l-602 -802h631z" />
    <glyph glyph-name="braceleft" unicode="{" horiz-adv-x="694" 
d="M511 -127c32 -60.667 85.333 -102.667 160 -126l-39 -114c-128 36 -219.333 94 -274 174s-82 177 -82 291v207c0 75.333 -17.167 133.833 -51.5 175.5s-87.833 62.5 -160.5 62.5v121v23c72.667 0 126.167 20.833 160.5 62.5s51.5 100.167 51.5 175.5v207
c0 114 27.333 211 82 291s146 138 274 174l39 -113c-74.667 -24 -128 -66.333 -160 -127s-48 -135.667 -48 -225v-207c0 -69.333 -13.833 -130.833 -41.5 -184.5s-69.834 -95.5 -126.501 -125.5c56.667 -30 98.834 -71.833 126.501 -125.5s41.5 -115.167 41.5 -184.5v-207
c0 -89.333 16 -164.333 48 -225z" />
    <glyph glyph-name="bar" unicode="|" horiz-adv-x="501" 
d="M176 -270v1726h150v-1726h-150z" />
    <glyph glyph-name="braceright" unicode="}" horiz-adv-x="694" 
d="M467 749.5c34.667 -41.667 88 -62.498 160 -62.498v-112v-32c-72 0 -125.333 -21 -160 -63s-52 -100.333 -52 -175v-207c0 -114.667 -27.167 -211.834 -81.5 -291.501s-145.833 -137.5 -274.5 -173.5l-39 114c74.667 23.333 128 65.333 160 126s48 135.667 48 225v207
c0 72 15.167 134.833 45.5 188.5s76.5 94.167 138.5 121.5c-62 27.333 -108.167 67.833 -138.5 121.5s-45.5 116.5 -45.5 188.5v207c0 89.333 -16 164.333 -48 225s-85.333 103 -160 127l39 113c128.667 -36 220.167 -93.833 274.5 -173.5s81.5 -176.834 81.5 -291.501v-207
c0 -75.333 17.333 -133.833 52 -175.5z" />
    <glyph glyph-name="asciitilde" unicode="~" horiz-adv-x="1393" 
d="M1221.5 589.5c-27.667 -57 -66.166 -102.335 -115.499 -136.002s-105 -50.5 -167 -50.5c-55.333 0 -105 10.833 -149 32.5s-93.667 57.167 -149 106.5c-36.667 34 -69.167 59 -97.5 75s-58.166 24 -89.499 24c-50.667 0 -90.167 -18 -118.5 -54s-42.5 -85.667 -42.5 -149
l-162 -1c0 68.667 13.667 130.834 41 186.501s65.666 99.334 114.999 131.001s105 47.5 167 47.5c55.333 0 105.666 -11.167 150.999 -33.5s94.666 -57.5 147.999 -105.5c38 -35.333 70.833 -60.666 98.5 -75.999s56.834 -23 87.501 -23c33.333 0 63 9 89 27
s46.167 43.167 60.5 75.5s21.5 69.166 21.5 110.499h153c0 -68 -13.833 -130.5 -41.5 -187.5z" />
    <glyph glyph-name="exclamdown" unicode="&#xa1;" horiz-adv-x="501" 
d="M168.5 921c-19.667 20 -29.5 45.333 -29.5 76c0 30 9.83301 54.833 29.5 74.5s46.834 29.5 81.501 29.5s61.5 -9.83301 80.5 -29.5s28.5 -44.5 28.5 -74.5c0 -30.667 -9.5 -56 -28.5 -76s-45.833 -30 -80.5 -30s-61.834 10 -81.501 30zM339 684l14 -1045h-196l14 1045
h168z" />
    <glyph glyph-name="cent" unicode="&#xa2;" horiz-adv-x="1121" 
d="M708.5 157.5c37.667 18.333 68.333 43.666 92 75.999s37.167 68.5 40.5 108.5h177c-2.66699 -55.333 -19.667 -108 -51 -158s-73 -92.333 -125 -127s-109.333 -57.667 -172 -69v-233h-187v234c-82.667 15.333 -152.334 48.333 -209.001 99s-99 113.334 -127 188.001
s-42 156 -42 244v42c0 88 14 169.333 42 244s70.333 137.334 127 188.001s126.334 83.667 209.001 99v225h187v-222c67.333 -10.667 126.833 -34 178.5 -70s92.167 -81.333 121.5 -136s45.333 -114.667 48 -180h-177c-3.33301 45.333 -15.833 86.333 -37.5 123
s-51.167 65.667 -88.5 87s-80 32 -128 32c-104.667 0 -180 -37.5 -226 -112.5s-69 -167.5 -69 -277.5v-42c0 -110.667 22.833 -203.334 68.5 -278.001s121.167 -112 226.5 -112c43.333 0 83.833 9.16699 121.5 27.5z" />
    <glyph glyph-name="sterling" unicode="&#xa3;" horiz-adv-x="1191" 
d="M1129 156l-0.995117 -155.999h-1033v156h77c31.333 8 54.5 37.167 69.5 87.5s22.5 102.833 22.5 157.5l-8 222h-165v156h160l-9 260c0 90 19.167 168 57.5 234s91.166 116.333 158.499 151s143.666 52 228.999 52s159.166 -16.167 221.499 -48.5s110 -77.833 143 -136.5
s49.5 -126.667 49.5 -204h-194c0 78.667 -22.5 137.167 -67.5 175.5s-101.167 57.5 -168.5 57.5c-44 0 -83.833 -11 -119.5 -33s-63.834 -54.167 -84.501 -96.5s-31 -92.833 -31 -151.5l9 -260h318v-156h-312l7 -221c0.666992 -48 -4.33301 -93.333 -15 -136
s-26.334 -79.334 -47.001 -110.001h733z" />
    <glyph glyph-name="currency" unicode="&#xa4;" horiz-adv-x="1460" 
d="M1304 420c-17.333 -60 -42.6689 -115.667 -76.002 -167l143 -144l-133 -136l-136 138c-51.333 -42 -108.333 -74.333 -171 -97s-128 -34 -196 -34c-67.333 0 -132.166 11.333 -194.499 34s-119.166 54.667 -170.499 96l-133 -136l-132 135l139 141
c-33.333 51.333 -59 107.333 -77 168s-27 124 -27 190c0 69.333 9.83301 135.333 29.5 198s47.5 120.334 83.5 173.001l-148 150l132 135l146 -149c50 38 104.833 67.333 164.5 88s122.167 31 187.5 31s128.333 -10.333 189 -31s116 -50.334 166 -89.001l148 151l133 -136
l-151 -154c35.333 -52 62.5 -109.167 81.5 -171.5s28.5 -127.5 28.5 -195.5c0 -65.333 -8.66699 -128 -26 -188zM946.497 212c64.333 41.333 115.333 97 153 167s56.5 146.333 56.5 229s-18.833 158.834 -56.5 228.501s-88.667 125 -153 166s-134.833 61.5 -211.5 61.5
s-147.167 -20.5 -211.5 -61.5s-115.5 -96.333 -153.5 -166s-57 -145.834 -57 -228.501s19 -159 57 -229s89.167 -125.667 153.5 -167s134.833 -62 211.5 -62s147.167 20.667 211.5 62z" />
    <glyph glyph-name="yen" unicode="&#xa5;" horiz-adv-x="1076" 
d="M695 736h260v-124h-324v-166h324v-124h-324v-322h-194v322h-317v124h317v166h-317v124h262l-367 720h218l306 -660l307 660h215z" />
    <glyph glyph-name="brokenbar" unicode="&#xa6;" horiz-adv-x="493" 
d="M147 698v758h187v-758h-187zM147 521h187v-791h-187v791z" />
    <glyph glyph-name="section" unicode="&#xa7;" horiz-adv-x="1257" 
d="M1066 39c23.333 -46 35 -102.001 35 -168.001c0 -76 -20 -141.5 -60 -196.5s-96.833 -97 -170.5 -126s-159.5 -43.5 -257.5 -43.5c-92.667 0 -178.334 14.167 -257.001 42.5s-142.667 74.666 -192 138.999s-74 147.5 -74 249.5l187 2
c0 -66.667 16.333 -121.167 49 -163.5s74.334 -72.833 125.001 -91.5s104.667 -28 162 -28c62.667 0 116.667 9.33301 162 28s79.833 44.167 103.5 76.5s35.5 68.833 35.5 109.5c0 42 -10.5 76.833 -31.5 104.5s-56.167 53.167 -105.5 76.5s-120.666 49 -213.999 77
c-105.333 28 -191.5 59 -258.5 93s-118.5 77.667 -154.5 131s-54 120 -54 200c0 61.333 16 115.5 48 162.5s77 84.167 135 111.5c-46 34 -80.5 74 -103.5 120s-34.5 101.333 -34.5 166c0 73.333 20.167 137.5 60.5 192.5s97.5 97.667 171.5 128s160 45.5 258 45.5
c102 0 189.833 -16.667 263.5 -50s130.167 -82.333 169.5 -147s59 -142.667 59 -234h-187c0 52 -11.833 99.333 -35.5 142s-58.5 76.334 -104.5 101.001s-101 37 -165 37c-67.333 0 -123.666 -9.5 -168.999 -28.5s-79 -44.5 -101 -76.5s-33 -68 -33 -108
c0 -46 9.66699 -83 29 -111s53.166 -52.833 101.499 -74.5s121.166 -46.167 218.499 -73.5c108.667 -30 196.167 -61.667 262.5 -95s117.333 -76.166 153 -128.499s53.5 -118.833 53.5 -199.5c0 -62 -16.167 -116.5 -48.5 -163.5s-78.5 -83.5 -138.5 -109.5
c48 -33.333 83.667 -73 107 -119zM312.5 440.999c19.667 -28.667 54.166 -54.332 103.499 -76.999s123 -47.667 221 -75c68.667 -20 122.334 -37 161.001 -51c51.333 13.333 91 36.833 119 70.5s42 73.5 42 119.5c0 42 -10.833 77.5 -32.5 106.5s-57.5 55.5 -107.5 79.5
s-122 50 -216 78c-66 17.333 -121 34.666 -165 51.999c-51.333 -12 -90 -34.833 -116 -68.5s-39 -74.5 -39 -122.5c0 -46 9.83301 -83.333 29.5 -112z" />
    <glyph glyph-name="dieresis" unicode="&#xa8;" horiz-adv-x="856" 
d="M291 1448c19.333 -20 29 -45.333 29 -76c0 -30 -9.66699 -54.833 -29 -74.5s-46.333 -29.5 -81 -29.5s-61.667 9.83301 -81 29.5s-29 44.5 -29 74.5c0 30.667 9.66699 56 29 76s46.333 30 81 30s61.667 -10 81 -30zM721.5 1446c19.667 -20 29.5 -45.333 29.5 -76
c0 -30 -9.83301 -54.833 -29.5 -74.5s-46.834 -29.5 -81.501 -29.5s-61.5 9.83301 -80.5 29.5s-28.5 44.5 -28.5 74.5c0 30.667 9.5 56 28.5 76s45.833 30 80.5 30s61.834 -10 81.501 -30z" />
    <glyph glyph-name="copyright" unicode="&#xa9;" horiz-adv-x="1609" 
d="M1156.5 1377.5c108.333 -65.667 194.333 -155.5 258 -269.5s95.5 -240.333 95.5 -379s-31.833 -265.167 -95.5 -379.5s-149.667 -204.666 -258 -270.999s-226.833 -99.5 -355.5 -99.5c-129.333 0 -248.166 33.167 -356.499 99.5s-194.333 156.666 -258 270.999
s-95.5 240.833 -95.5 379.5s31.833 265 95.5 379s149.667 203.833 258 269.5s227.166 98.5 356.499 98.5c128.667 0 247.167 -32.833 355.5 -98.5zM1098.5 181.5c91 55.667 163 131.667 216 228s79.5 202.833 79.5 319.5s-26.5 222.834 -79.5 318.501
s-124.833 171.167 -215.5 226.5s-190 83 -298 83s-207.5 -27.667 -298.5 -83s-163 -130.833 -216 -226.5s-79.5 -201.834 -79.5 -318.501s26.667 -223.167 80 -319.5s125.333 -172.333 216 -228s190 -83.5 298 -83.5c107.333 0 206.5 27.833 297.5 83.5zM1031.5 363.5
c-58.333 -53 -139.5 -79.501 -243.5 -79.501c-70 0 -131.167 16.167 -183.5 48.5s-92.666 77.833 -120.999 136.5s-42.5 126 -42.5 202v115c0 76 14.167 143.333 42.5 202s68.666 104.167 120.999 136.5s113.5 48.5 183.5 48.5c104 0 185.333 -26.5 244 -79.5
s88 -130.833 88 -233.5h-146c0 64.667 -15.5 111.834 -46.5 141.501s-77.5 44.5 -139.5 44.5c-64 0 -113.667 -23.667 -149 -71s-53 -110 -53 -188v-116c0 -78.667 17.5 -141.5 52.5 -188.5s84.833 -70.5 149.5 -70.5c62 0 108.333 14.5 139 43.5s46 76.5 46 142.5h146
c0 -103.333 -29.167 -181.5 -87.5 -234.5z" />
    <glyph glyph-name="ordfeminine" unicode="&#xaa;" horiz-adv-x="916" 
d="M618 706c-8 25.333 -13.668 49.3311 -17.001 71.998c-23.333 -25.333 -52.166 -46 -86.499 -62s-73.833 -24 -118.5 -24c-78.667 0 -139.834 20.333 -183.501 61s-65.5 95.667 -65.5 165c0 74.667 28.5 131.834 85.5 171.501s141.5 59.5 253.5 59.5h108v53
c0 44 -10.167 77.5 -30.5 100.5s-51.166 34.5 -92.499 34.5c-46.667 0 -82.834 -9.16699 -108.501 -27.5s-38.5 -44.5 -38.5 -78.5l-162 13c0 44.667 12.833 84.667 38.5 120s61.834 63 108.501 83s100.667 30 162 30c88 0 157.833 -23.667 209.5 -71
s77.5 -115.666 77.5 -204.999v-314c0 -64.667 8.66699 -125 26 -181h-166zM521.499 847.498c29.667 13 53.833 29.167 72.5 48.5v142h-107c-58 0 -101.833 -10.833 -131.5 -32.5s-44.5 -49.5 -44.5 -83.5c0 -30 10.333 -53.167 31 -69.5s51.667 -24.5 93 -24.5
c28 0 56.833 6.5 86.5 19.5z" />
    <glyph glyph-name="guillemotleft" unicode="&#xab;" horiz-adv-x="961" 
d="M280 548l258 -397h-143l-295 388v13v6l295 388h143zM612 548l258 -397h-143l-295 388v13v6l295 388h143z" />
    <glyph glyph-name="logicalnot" unicode="&#xac;" horiz-adv-x="1135" 
d="M959 800v-160v-264h-187v264h-645v160h832z" />
    <glyph glyph-name="uni00AD" unicode="&#xad;" horiz-adv-x="600" 
d="M37 544v151h489v-151h-489z" />
    <glyph glyph-name="registered" unicode="&#xae;" horiz-adv-x="1609" 
d="M1156.5 1377.5c108.333 -65.667 194.336 -155.5 258.003 -269.5s95.5 -240.333 95.5 -379s-31.833 -265.167 -95.5 -379.5s-149.834 -204.666 -258.501 -270.999s-227.334 -99.5 -356.001 -99.5c-129.333 0 -248.166 33.167 -356.499 99.5s-194.333 156.666 -258 270.999
s-95.5 240.833 -95.5 379.5s31.833 265 95.5 379s149.667 203.833 258 269.5s227.166 98.5 356.499 98.5s248.166 -32.833 356.499 -98.5zM1097.5 181.5c91 55.667 163 131.667 216 228s79.5 202.833 79.5 319.5s-26.5 222.834 -79.5 318.501s-124.833 171.167 -215.5 226.5
s-190 83 -298 83s-207.5 -27.667 -298.5 -83s-163 -130.833 -216 -226.5s-79.5 -201.834 -79.5 -318.501s26.667 -223.167 80 -319.5s125.333 -172.333 216 -228s190 -83.5 298 -83.5c107.333 0 206.5 27.833 297.5 83.5zM1105 460c0 -56 5.66797 -98.334 17.001 -127.001
v-16h-146c-8.66699 22.667 -13 70.667 -13 144v52c0 49.333 -11.333 85.333 -34 108s-60.334 34 -113.001 34h-163v-338h-142v848h277c101.333 0 180.333 -21.5 237 -64.5s85 -106.5 85 -190.5c0 -82 -43 -144.667 -129 -188c44 -17.333 75.667 -43.666 95 -78.999
s29 -78.333 29 -129v-54zM922.504 815.999c31 21.333 46.498 50.668 46.498 88.001c0 34 -5.66699 60.667 -17 80s-30.166 33.333 -56.499 42s-62.166 13 -107.499 13h-135v-257h156c44.667 1.33301 82.5 12.666 113.5 33.999z" />
    <glyph glyph-name="macron" unicode="&#xaf;" horiz-adv-x="940" 
d="M143 1304v141h672v-141h-672z" />
    <glyph glyph-name="degree" unicode="&#xb0;" horiz-adv-x="765" 
d="M511.5 1441.5c38.333 -23.667 68.834 -55.334 91.501 -95.001s34 -82.834 34 -129.501s-11.333 -89.667 -34 -129s-53.167 -70.333 -91.5 -93s-80.166 -34 -125.499 -34c-46 0 -88.5 11.333 -127.5 34s-70 53.667 -93 93s-34.5 82.333 -34.5 129
s11.5 89.834 34.5 129.501s54.167 71.334 93.5 95.001s81.666 35.5 126.999 35.5s87.166 -11.833 125.499 -35.5zM476.001 1125c24 24.667 36 55.334 36 92.001c0 38 -12 69.667 -36 95s-54 38 -90 38s-66.667 -12.667 -92 -38s-38 -57 -38 -95
c0 -36.667 12.667 -67.334 38 -92.001s56 -37 92 -37s66 12.333 90 37z" />
    <glyph glyph-name="plusminus" unicode="&#xb1;" horiz-adv-x="1095" 
d="M1013 854v-150h-362v-415h-169v415h-385v150h385v413h169v-413h362zM136 151h835v-150h-835v150z" />
    <glyph glyph-name="uni00B2" unicode="&#xb2;" 
d="M84 667l0.000976562 108.002l289 271c42.667 40 73.334 74.667 92.001 104s28 55.666 28 78.999c0 33.333 -10.833 60.166 -32.5 80.499s-51.834 30.5 -90.501 30.5c-48 0 -84.167 -12.333 -108.5 -37s-36.5 -57 -36.5 -97h-159c0 48 12.167 91.833 36.5 131.5
s59.166 71.167 104.499 94.5s98.333 35 159 35c59.333 0 110.5 -9.5 153.5 -28.5s75.833 -46.333 98.5 -82s34 -77.5 34 -125.5c0 -34 -7.5 -66.167 -22.5 -96.5s-35.667 -60 -62 -89s-61.833 -63.833 -106.5 -104.5l-175 -147h398v-127h-600z" />
    <glyph glyph-name="uni00B3" unicode="&#xb3;" 
d="M667 887c0 -48 -13.1689 -89.334 -39.502 -124.001s-62.666 -61.167 -108.999 -79.5s-98.833 -27.5 -157.5 -27.5c-52.667 0 -101.667 8.5 -147 25.5s-81.833 43 -109.5 78s-41.5 78.167 -41.5 129.5h158c0 -30.667 13.5 -56 40.5 -76s61.833 -30 104.5 -30
c45.333 0 80.333 10.167 105 30.5s37 47.5 37 81.5c0 40.667 -13.5 70.167 -40.5 88.5s-66.167 27.5 -117.5 27.5h-85v77v38h85c47.333 0 83.333 10 108 30s37 46.667 37 80c0 31.333 -11 56.5 -33 75.5s-55 28.5 -99 28.5c-38 0 -69.333 -8.5 -94 -25.5
s-37 -39.833 -37 -68.5h-159c0 44 12.667 82.833 38 116.5s59.833 59.5 103.5 77.5s92.167 27 145.5 27c89.333 0 160.5 -19.5 213.5 -58.5s79.5 -94.167 79.5 -165.5c0 -37.333 -11.667 -71.166 -35 -101.499s-56.666 -53.5 -99.999 -69.5c99.333 -28 149 -89.667 149 -185
z" />
    <glyph glyph-name="acute" unicode="&#xb4;" horiz-adv-x="644" 
d="M542 1536l-269 -293h-150l194 293h225z" />
    <glyph glyph-name="paragraph" unicode="&#xb6;" horiz-adv-x="1002" 
d="M646 520l-87 -0.000976562c-103.333 0 -192 20 -266 60s-130.167 95.333 -168.5 166s-57.5 151.334 -57.5 242.001c0 90 19.167 170.333 57.5 241s94.5 126.167 168.5 166.5s162.667 60.5 266 60.5h275v-1456h-188v520z" />
    <glyph glyph-name="periodcentered" unicode="&#xb7;" horiz-adv-x="536" 
d="M347.5 809c20.333 -20.667 30.5 -47.334 30.5 -80.001c0 -32 -10.167 -58.167 -30.5 -78.5s-48.833 -30.5 -85.5 -30.5c-36 0 -64.167 10.167 -84.5 30.5s-30.5 46.5 -30.5 78.5c0 32.667 10 59.334 30 80.001s48.333 31 85 31s65.167 -10.333 85.5 -31z" />
    <glyph glyph-name="cedilla" unicode="&#xb8;" horiz-adv-x="508" 
d="M274 -53c44.667 -7.33301 81.333 -24.668 110 -52.001s43 -67.666 43 -120.999c0 -64 -26.333 -114.833 -79 -152.5s-127.667 -56.5 -225 -56.5l-7 106c49.333 0 89.333 8.16699 120 24.5s46 41.166 46 74.499c0 22.667 -5.5 40.334 -16.5 53.001s-27.833 22 -50.5 28
s-54 10.667 -94 14l31 135h134z" />
    <glyph glyph-name="uni00B9" unicode="&#xb9;" 
d="M338 667v603l-215 -58v128l355 116h18v-789h-158z" />
    <glyph glyph-name="ordmasculine" unicode="&#xba;" horiz-adv-x="932" 
d="M165 1307c28 53.333 67.834 95 119.501 125s111.834 45 180.501 45c69.333 0 129.833 -15 181.5 -45s91.5 -71.667 119.5 -125s42 -114.333 42 -183v-81c0 -68.667 -13.833 -129.667 -41.5 -183s-67.334 -94.833 -119.001 -124.5s-111.834 -44.5 -180.501 -44.5
c-69.333 0 -130 14.833 -182 44.5s-92 71.167 -120 124.5s-42 114.333 -42 183v81c0 68.667 14 129.667 42 183zM332.501 888c30.333 -39.333 75.168 -58.998 134.501 -58.998c57.333 0 101.166 19.667 131.499 59s45.5 91 45.5 155v81
c0 63.333 -15.333 114.666 -46 153.999s-75 59 -133 59s-102.167 -19.833 -132.5 -59.5s-45.5 -90.834 -45.5 -153.501v-81c0 -64 15.167 -115.667 45.5 -155z" />
    <glyph glyph-name="guillemotright" unicode="&#xbb;" horiz-adv-x="961" 
d="M540 560v-13v-6l-295 -388h-142l257 398l-257 398h142zM890 560v-13v-6l-295 -388h-142l257 398l-257 398h142z" />
    <glyph glyph-name="questiondown" unicode="&#xbf;" horiz-adv-x="970" 
d="M406.5 922c-19.667 20 -29.5 45.333 -29.5 76c0 30 9.83301 54.833 29.5 74.5s46.834 29.5 81.501 29.5s61.5 -9.83301 80.5 -29.5s28.5 -44.5 28.5 -74.5c0 -30.667 -9.5 -56 -28.5 -76s-45.833 -30 -80.5 -30s-61.834 10 -81.501 30zM572.5 527.5
c-11 -39 -27.3359 -74.002 -49.0029 -105.002s-56.167 -72.167 -103.5 -123.5l-24 -25c-33.333 -35.333 -59 -64.666 -77 -87.999s-33.167 -50.5 -45.5 -81.5s-18.5 -66.167 -18.5 -105.5c0 -72.667 19.167 -128.167 57.5 -166.5s93.5 -57.5 165.5 -57.5
c40 0 77 7.66699 111 23s61.5 38.333 82.5 69s31.5 68.334 31.5 113.001h187c-0.666992 -74 -19 -138.667 -55 -194s-85.167 -97.833 -147.5 -127.5s-132.166 -44.5 -209.499 -44.5c-86 0 -159.667 15 -221 45s-108.166 73.5 -140.499 130.5s-48.5 125.167 -48.5 204.5
c0 56.667 11.333 110.5 34 161.5s51.334 97.667 86.001 140s76.334 87.5 125.001 135.5c33.333 32.667 56.666 69 69.999 109s20 86.667 20 140h187c-0.666992 -62.667 -6.5 -113.5 -17.5 -152.5z" />
    <glyph glyph-name="Agrave" unicode="&#xc0;" horiz-adv-x="1338" 
d="M973 381h-607l-138 -381h-200l556 1456h128h42l557 -1456h-199zM916 538l-247 680l-246 -680h493zM602 1554l-259 293h226l193 -293h-160z" />
    <glyph glyph-name="Aacute" unicode="&#xc1;" horiz-adv-x="1338" 
d="M973 381h-607l-138 -381h-200l556 1456h128h42l557 -1456h-199zM916 538l-247 680l-246 -680h493zM999 1847l-269 -293h-150l194 293h225z" />
    <glyph glyph-name="Acircumflex" unicode="&#xc2;" horiz-adv-x="1338" 
d="M973 381h-607l-138 -381h-200l556 1456h128h42l557 -1456h-199zM916 538l-247 680l-246 -680h493zM977 1564h-154l-150 170l-149 -170h-153v11l246 272h112l248 -273v-10z" />
    <glyph glyph-name="Atilde" unicode="&#xc3;" horiz-adv-x="1338" 
d="M973 381h-607l-138 -381h-200l556 1456h128h42l557 -1456h-199zM916 538l-247 680l-246 -680h493zM999.5 1689c-19 -36.667 -45.0039 -65 -78.0039 -85s-69.5 -30 -109.5 -30c-31.333 0 -57.666 4.33301 -78.999 13s-44.333 21.334 -69 38.001
c-21.333 14.667 -40.666 25.667 -57.999 33s-37.666 11 -60.999 11c-28.667 0 -52.5 -10.833 -71.5 -32.5s-28.5 -48.167 -28.5 -79.5l-125 7c0 47.333 9.5 89.666 28.5 126.999s44.833 66.5 77.5 87.5s69 31.5 109 31.5c25.333 0 48 -4 68 -12s44 -20.333 72 -37
c25.333 -16 47.333 -27.833 66 -35.5s39.334 -11.5 62.001 -11.5c28 0 51.667 10.833 71 32.5s29 48.5 29 80.5l125 -12c0 -47.333 -9.5 -89.333 -28.5 -126z" />
    <glyph glyph-name="Adieresis" unicode="&#xc4;" horiz-adv-x="1338" 
d="M973 381h-607l-138 -381h-200l556 1456h128h42l557 -1456h-199zM916 538l-247 680l-246 -680h493zM541 1759c19.333 -20 29 -45.333 29 -76c0 -30 -9.66699 -54.833 -29 -74.5s-46.333 -29.5 -81 -29.5s-61.667 9.83301 -81 29.5s-29 44.5 -29 74.5
c0 30.667 9.66699 56 29 76s46.333 30 81 30s61.667 -10 81 -30zM971.5 1757c19.667 -20 29.5 -45.333 29.5 -76c0 -30 -9.83301 -54.833 -29.5 -74.5s-46.834 -29.5 -81.501 -29.5s-61.5 9.83301 -80.5 29.5s-28.5 44.5 -28.5 74.5c0 30.667 9.5 56 28.5 76
s45.833 30 80.5 30s61.834 -10 81.501 -30z" />
    <glyph glyph-name="Aring" unicode="&#xc5;" horiz-adv-x="1338" 
d="M973 381h-607l-138 -381h-200l556 1456h128h42l557 -1456h-199zM916 538l-247 680l-246 -680h493zM782 1910.5c32.667 -18.333 58.501 -43.5 77.501 -75.5s28.5 -67 28.5 -105s-9.5 -72.5 -28.5 -103.5s-44.833 -55.333 -77.5 -73s-69 -26.5 -109 -26.5
c-40.667 0 -77.334 8.83301 -110.001 26.5s-58.5 42 -77.5 73s-28.5 65.5 -28.5 103.5s9.5 73 28.5 105s45 57.167 78 75.5s69.5 27.5 109.5 27.5s76.333 -9.16699 109 -27.5zM756.001 1649.5c22 23 33 49.834 33 80.501c0 32 -11 59.833 -33 83.5s-49.667 35.5 -83 35.5
s-61 -11.833 -83 -35.5s-33 -51.5 -33 -83.5c0 -20 5 -38.833 15 -56.5s23.833 -31.834 41.5 -42.501s37.5 -16 59.5 -16c33.333 0 61 11.5 83 34.5z" />
    <glyph glyph-name="AE" unicode="&#xc6;" horiz-adv-x="1915" 
d="M1881 150v-150h-733h-152l-15 354h-563l-205 -354h-229l881 1456h120h137h697v-150h-691l20 -473h590v-150h-584l23 -533h704zM974 527l-31 734l-425 -734h456z" />
    <glyph glyph-name="Ccedilla" unicode="&#xc7;" horiz-adv-x="1333" 
d="M880.5 173.5c49 25 86 61.165 111 108.498s43.5 107.333 55.5 180h194c-15.333 -136.667 -64 -248 -146 -334s-197 -134.667 -345 -146l-10 -45c44.667 -7.33301 81.334 -24.666 110.001 -51.999s43 -67.666 43 -120.999c0 -64 -26.333 -114.833 -79 -152.5
s-127.667 -56.5 -225 -56.5l-7 106c49.333 0 89.333 8.16699 120 24.5s46 41.166 46 74.499c0 22.667 -5.5 40.334 -16.5 53.001s-27.833 22 -50.5 28s-54 10.667 -94 14l30 129c-100.667 11.333 -188.5 46.166 -263.5 104.499s-132.833 136 -173.5 233
s-61 207.833 -61 332.5v147c0 134.667 23.833 253 71.5 355s115.834 180.833 204.501 236.5s192.334 83.5 311.001 83.5c107.333 0 199.333 -20.167 276 -60.5s136.5 -97 179.5 -170s69.5 -158.5 79.5 -256.5h-194c-15.333 108.667 -49.333 190.834 -102 246.501
s-132.334 83.5 -239.001 83.5c-84.667 0 -156.334 -21.333 -215.001 -64s-102.834 -102.667 -132.501 -180s-44.5 -168 -44.5 -272v-149c0 -98.667 13.667 -187 41 -265s69 -139.667 125 -185s125.333 -68 208 -68c79.333 0 143.5 12.5 192.5 37.5z" />
    <glyph glyph-name="Egrave" unicode="&#xc8;" horiz-adv-x="1164" 
d="M1094 156v-156h-769h-156v1456h194h721v-157h-721v-469h629v-156h-629v-518h731zM548 1565l-259 293h226l193 -293h-160z" />
    <glyph glyph-name="Eacute" unicode="&#xc9;" horiz-adv-x="1164" 
d="M1094 156v-156h-769h-156v1456h194h721v-157h-721v-469h629v-156h-629v-518h731zM945 1858l-269 -293h-150l194 293h225z" />
    <glyph glyph-name="Ecircumflex" unicode="&#xca;" horiz-adv-x="1164" 
d="M1094 156v-156h-769h-156v1456h194h721v-157h-721v-469h629v-156h-629v-518h731zM923 1575h-154l-150 170l-149 -170h-153v11l246 272h112l248 -273v-10z" />
    <glyph glyph-name="Edieresis" unicode="&#xcb;" horiz-adv-x="1164" 
d="M1094 156v-156h-769h-156v1456h194h721v-157h-721v-469h629v-156h-629v-518h731zM487 1770c19.333 -20 29 -45.333 29 -76c0 -30 -9.66699 -54.833 -29 -74.5s-46.333 -29.5 -81 -29.5s-61.667 9.83301 -81 29.5s-29 44.5 -29 74.5c0 30.667 9.66699 56 29 76
s46.333 30 81 30s61.667 -10 81 -30zM917.5 1768c19.667 -20 29.5 -45.333 29.5 -76c0 -30 -9.83301 -54.833 -29.5 -74.5s-46.834 -29.5 -81.501 -29.5s-61.5 9.83301 -80.5 29.5s-28.5 44.5 -28.5 74.5c0 30.667 9.5 56 28.5 76s45.833 30 80.5 30s61.834 -10 81.501 -30z
" />
    <glyph glyph-name="Igrave" unicode="&#xcc;" horiz-adv-x="558" 
d="M183 0v1456h194v-1456h-194zM208 1565l-259 293h226l193 -293h-160z" />
    <glyph glyph-name="Iacute" unicode="&#xcd;" horiz-adv-x="558" 
d="M183 0v1456h194v-1456h-194zM605 1858l-269 -293h-150l194 293h225z" />
    <glyph glyph-name="Icircumflex" unicode="&#xce;" horiz-adv-x="558" 
d="M183 0v1456h194v-1456h-194zM583 1575h-154l-150 170l-149 -170h-153v11l246 272h112l248 -273v-10z" />
    <glyph glyph-name="Idieresis" unicode="&#xcf;" horiz-adv-x="558" 
d="M183 0v1456h194v-1456h-194zM147 1770c19.333 -20 29 -45.333 29 -76c0 -30 -9.66699 -54.833 -29 -74.5s-46.333 -29.5 -81 -29.5s-61.667 9.83301 -81 29.5s-29 44.5 -29 74.5c0 30.667 9.66699 56 29 76s46.333 30 81 30s61.667 -10 81 -30zM577.5 1768
c19.667 -20 29.5 -45.333 29.5 -76c0 -30 -9.83301 -54.833 -29.5 -74.5s-46.834 -29.5 -81.501 -29.5s-61.5 9.83301 -80.5 29.5s-28.5 44.5 -28.5 74.5c0 30.667 9.5 56 28.5 76s45.833 30 80.5 30s61.834 -10 81.501 -30z" />
    <glyph glyph-name="Eth" unicode="&#xd0;" horiz-adv-x="1344" 
d="M916.5 1372.5c97 -55.667 172.333 -135.167 226 -238.5s80.5 -224 80.5 -362v-88c0 -139.333 -26.833 -260.5 -80.5 -363.5s-130.167 -182.167 -229.5 -237.5s-216 -83 -350 -83h-304h-90v666h-163v150h163v640h194h217c127.333 0 239.5 -27.833 336.5 -83.5zM1031 774
c0 110.667 -17.5 205.168 -52.5 283.501s-86.333 138.166 -154 179.499s-149.167 62 -244.5 62h-217v-483h281v-150h-281v-510h200c101.333 0 187 21.5 257 64.5s122.667 104 158 183s53 172.5 53 280.5v90z" />
    <glyph glyph-name="Ntilde" unicode="&#xd1;" horiz-adv-x="1461" 
d="M1094 0l-731 1126v-1126h-194v1456h194l734 -1129v1129h192v-1456h-195zM1052.5 1689c-19 -36.667 -45.0039 -65 -78.0039 -85s-69.5 -30 -109.5 -30c-31.333 0 -57.666 4.33301 -78.999 13s-44.333 21.334 -69 38.001c-21.333 14.667 -40.666 25.667 -57.999 33
s-37.666 11 -60.999 11c-28.667 0 -52.5 -10.833 -71.5 -32.5s-28.5 -48.167 -28.5 -79.5l-125 7c0 47.333 9.5 89.666 28.5 126.999s44.833 66.5 77.5 87.5s69 31.5 109 31.5c25.333 0 48 -4 68 -12s44 -20.333 72 -37c25.333 -16 47.333 -27.833 66 -35.5
s39.334 -11.5 62.001 -11.5c28 0 51.667 10.833 71 32.5s29 48.5 29 80.5l125 -12c0 -47.333 -9.5 -89.333 -28.5 -126z" />
    <glyph glyph-name="Ograve" unicode="&#xd2;" horiz-adv-x="1410" 
d="M1218.5 307c-47.667 -105.333 -115.501 -186.168 -203.501 -242.501s-191 -84.5 -309 -84.5c-114.667 0 -216.5 28.333 -305.5 85s-158.333 137.834 -208 243.501s-74.5 229.834 -74.5 372.501v93c0 142.667 24.667 267 74 373s118.333 187.333 207 244
s190.334 85 305.001 85c118 0 221.167 -28.333 309.5 -85s156.5 -137.834 204.5 -243.501s72 -230.167 72 -373.5v-93c0 -144 -23.833 -268.667 -71.5 -374zM1051.5 1068.5c-31 80.333 -76 141.169 -135 182.502s-129.833 62 -212.5 62
c-79.333 0 -148.666 -20.833 -207.999 -62.5s-105 -102.667 -137 -183s-48 -177.5 -48 -291.5v-95c0 -114.667 16.167 -212.334 48.5 -293.001s78.166 -141.834 137.499 -183.501s129 -62.5 209 -62.5c125.333 0 222 46.333 290 139s102 226 102 400v95
c0 114.667 -15.5 212.167 -46.5 292.5zM635.999 1556l-259 293h226l193 -293h-160z" />
    <glyph glyph-name="Oacute" unicode="&#xd3;" horiz-adv-x="1410" 
d="M1218.5 307c-47.667 -105.333 -115.501 -186.168 -203.501 -242.501s-191 -84.5 -309 -84.5c-114.667 0 -216.5 28.333 -305.5 85s-158.333 137.834 -208 243.501s-74.5 229.834 -74.5 372.501v93c0 142.667 24.667 267 74 373s118.333 187.333 207 244
s190.334 85 305.001 85c118 0 221.167 -28.333 309.5 -85s156.5 -137.834 204.5 -243.501s72 -230.167 72 -373.5v-93c0 -144 -23.833 -268.667 -71.5 -374zM1051.5 1068.5c-31 80.333 -76 141.169 -135 182.502s-129.833 62 -212.5 62
c-79.333 0 -148.666 -20.833 -207.999 -62.5s-105 -102.667 -137 -183s-48 -177.5 -48 -291.5v-95c0 -114.667 16.167 -212.334 48.5 -293.001s78.166 -141.834 137.499 -183.501s129 -62.5 209 -62.5c125.333 0 222 46.333 290 139s102 226 102 400v95
c0 114.667 -15.5 212.167 -46.5 292.5zM1033 1849l-269 -293h-150l194 293h225z" />
    <glyph glyph-name="Ocircumflex" unicode="&#xd4;" horiz-adv-x="1410" 
d="M1218.5 307c-47.667 -105.333 -115.501 -186.168 -203.501 -242.501s-191 -84.5 -309 -84.5c-114.667 0 -216.5 28.333 -305.5 85s-158.333 137.834 -208 243.501s-74.5 229.834 -74.5 372.501v93c0 142.667 24.667 267 74 373s118.333 187.333 207 244
s190.334 85 305.001 85c118 0 221.167 -28.333 309.5 -85s156.5 -137.834 204.5 -243.501s72 -230.167 72 -373.5v-93c0 -144 -23.833 -268.667 -71.5 -374zM1051.5 1068.5c-31 80.333 -76 141.169 -135 182.502s-129.833 62 -212.5 62
c-79.333 0 -148.666 -20.833 -207.999 -62.5s-105 -102.667 -137 -183s-48 -177.5 -48 -291.5v-95c0 -114.667 16.167 -212.334 48.5 -293.001s78.166 -141.834 137.499 -183.501s129 -62.5 209 -62.5c125.333 0 222 46.333 290 139s102 226 102 400v95
c0 114.667 -15.5 212.167 -46.5 292.5zM1011 1566h-154l-150 170l-149 -170h-153v11l246 272h112l248 -273v-10z" />
    <glyph glyph-name="Otilde" unicode="&#xd5;" horiz-adv-x="1410" 
d="M1218.5 307c-47.667 -105.333 -115.501 -186.168 -203.501 -242.501s-191 -84.5 -309 -84.5c-114.667 0 -216.5 28.333 -305.5 85s-158.333 137.834 -208 243.501s-74.5 229.834 -74.5 372.501v93c0 142.667 24.667 267 74 373s118.333 187.333 207 244
s190.334 85 305.001 85c118 0 221.167 -28.333 309.5 -85s156.5 -137.834 204.5 -243.501s72 -230.167 72 -373.5v-93c0 -144 -23.833 -268.667 -71.5 -374zM1051.5 1068.5c-31 80.333 -76 141.169 -135 182.502s-129.833 62 -212.5 62
c-79.333 0 -148.666 -20.833 -207.999 -62.5s-105 -102.667 -137 -183s-48 -177.5 -48 -291.5v-95c0 -114.667 16.167 -212.334 48.5 -293.001s78.166 -141.834 137.499 -183.501s129 -62.5 209 -62.5c125.333 0 222 46.333 290 139s102 226 102 400v95
c0 114.667 -15.5 212.167 -46.5 292.5zM1033.5 1691c-19 -36.667 -45.0039 -65 -78.0039 -85s-69.5 -30 -109.5 -30c-31.333 0 -57.666 4.33301 -78.999 13s-44.333 21.334 -69 38.001c-21.333 14.667 -40.666 25.667 -57.999 33s-37.666 11 -60.999 11
c-28.667 0 -52.5 -10.833 -71.5 -32.5s-28.5 -48.167 -28.5 -79.5l-125 7c0 47.333 9.5 89.666 28.5 126.999s44.833 66.5 77.5 87.5s69 31.5 109 31.5c25.333 0 48 -4 68 -12s44 -20.333 72 -37c25.333 -16 47.333 -27.833 66 -35.5s39.334 -11.5 62.001 -11.5
c28 0 51.667 10.833 71 32.5s29 48.5 29 80.5l125 -12c0 -47.333 -9.5 -89.333 -28.5 -126z" />
    <glyph glyph-name="Odieresis" unicode="&#xd6;" horiz-adv-x="1410" 
d="M1218.5 307c-47.667 -105.333 -115.501 -186.168 -203.501 -242.501s-191 -84.5 -309 -84.5c-114.667 0 -216.5 28.333 -305.5 85s-158.333 137.834 -208 243.501s-74.5 229.834 -74.5 372.501v93c0 142.667 24.667 267 74 373s118.333 187.333 207 244
s190.334 85 305.001 85c118 0 221.167 -28.333 309.5 -85s156.5 -137.834 204.5 -243.501s72 -230.167 72 -373.5v-93c0 -144 -23.833 -268.667 -71.5 -374zM1051.5 1068.5c-31 80.333 -76 141.169 -135 182.502s-129.833 62 -212.5 62
c-79.333 0 -148.666 -20.833 -207.999 -62.5s-105 -102.667 -137 -183s-48 -177.5 -48 -291.5v-95c0 -114.667 16.167 -212.334 48.5 -293.001s78.166 -141.834 137.499 -183.501s129 -62.5 209 -62.5c125.333 0 222 46.333 290 139s102 226 102 400v95
c0 114.667 -15.5 212.167 -46.5 292.5zM574.999 1761c19.333 -20 29 -45.333 29 -76c0 -30 -9.66699 -54.833 -29 -74.5s-46.333 -29.5 -81 -29.5s-61.667 9.83301 -81 29.5s-29 44.5 -29 74.5c0 30.667 9.66699 56 29 76s46.333 30 81 30s61.667 -10 81 -30zM1005.5 1759
c19.667 -20 29.5 -45.333 29.5 -76c0 -30 -9.83301 -54.833 -29.5 -74.5s-46.834 -29.5 -81.501 -29.5s-61.5 9.83301 -80.5 29.5s-28.5 44.5 -28.5 74.5c0 30.667 9.5 56 28.5 76s45.833 30 80.5 30s61.834 -10 81.501 -30z" />
    <glyph glyph-name="multiply" unicode="&#xd7;" horiz-adv-x="1093" 
d="M870 204l-330 337l-331 -337l-120 122l331 337l-329 335l120 122l329 -334l328 334l120 -122l-328 -335l330 -337z" />
    <glyph glyph-name="Oslash" unicode="&#xd8;" horiz-adv-x="1410" 
d="M1151 1261c45.333 -60 79.832 -131.168 103.499 -213.501s35.5 -173.5 35.5 -273.5v-93c0 -144 -23.833 -268.667 -71.5 -374s-115.5 -186.166 -203.5 -242.499s-191 -84.5 -309 -84.5c-111.333 0 -212 27.333 -302 82l-96 -155h-144l145 232
c-61.333 61.333 -108.5 138 -141.5 230s-49.5 196 -49.5 312v93c0 142.667 24.667 267 74 373s118.333 187.333 207 244s190.334 85 305.001 85c71.333 0 137.5 -10.5 198.5 -31.5s115.5 -51.833 163.5 -92.5l103 164h141zM407.999 296.999l563.999 904
c-66.667 74.667 -156 112 -268 112c-79.333 0 -148.666 -20.833 -207.999 -62.5s-105 -102.667 -137 -183s-48 -177.5 -48 -291.5v-95c0 -161.333 32.333 -289.333 97 -384zM1043 1088l-547.999 -881c59.333 -43.333 129.666 -65 210.999 -65c125.333 0 222 46.333 290 139
s102 226 102 400v95c0 123.333 -18.333 227.333 -55 312z" />
    <glyph glyph-name="Ugrave" unicode="&#xd9;" horiz-adv-x="1328" 
d="M1195 471c0 -105.333 -23.833 -195 -71.5 -269s-111.667 -129.5 -192 -166.5s-168.833 -55.5 -265.5 -55.5c-101.333 0 -191.5 18.5 -270.5 55.5s-141.333 92.333 -187 166s-68.5 163.5 -68.5 269.5v985h192v-985c0 -110.667 29.833 -194.167 89.5 -250.5
s141.167 -84.5 244.5 -84.5c104 0 185.667 28.167 245 84.5s89 139.833 89 250.5v985h195v-985zM596 1554l-259 293h226l193 -293h-160z" />
    <glyph glyph-name="Uacute" unicode="&#xda;" horiz-adv-x="1328" 
d="M1195 471c0 -105.333 -23.833 -195 -71.5 -269s-111.667 -129.5 -192 -166.5s-168.833 -55.5 -265.5 -55.5c-101.333 0 -191.5 18.5 -270.5 55.5s-141.333 92.333 -187 166s-68.5 163.5 -68.5 269.5v985h192v-985c0 -110.667 29.833 -194.167 89.5 -250.5
s141.167 -84.5 244.5 -84.5c104 0 185.667 28.167 245 84.5s89 139.833 89 250.5v985h195v-985zM993 1847l-269 -293h-150l194 293h225z" />
    <glyph glyph-name="Ucircumflex" unicode="&#xdb;" horiz-adv-x="1328" 
d="M1195 471c0 -105.333 -23.833 -195 -71.5 -269s-111.667 -129.5 -192 -166.5s-168.833 -55.5 -265.5 -55.5c-101.333 0 -191.5 18.5 -270.5 55.5s-141.333 92.333 -187 166s-68.5 163.5 -68.5 269.5v985h192v-985c0 -110.667 29.833 -194.167 89.5 -250.5
s141.167 -84.5 244.5 -84.5c104 0 185.667 28.167 245 84.5s89 139.833 89 250.5v985h195v-985zM971 1564h-154l-150 170l-149 -170h-153v11l246 272h112l248 -273v-10z" />
    <glyph glyph-name="Udieresis" unicode="&#xdc;" horiz-adv-x="1328" 
d="M1195 471c0 -105.333 -23.833 -195 -71.5 -269s-111.667 -129.5 -192 -166.5s-168.833 -55.5 -265.5 -55.5c-101.333 0 -191.5 18.5 -270.5 55.5s-141.333 92.333 -187 166s-68.5 163.5 -68.5 269.5v985h192v-985c0 -110.667 29.833 -194.167 89.5 -250.5
s141.167 -84.5 244.5 -84.5c104 0 185.667 28.167 245 84.5s89 139.833 89 250.5v985h195v-985zM535 1759c19.333 -20 29 -45.333 29 -76c0 -30 -9.66699 -54.833 -29 -74.5s-46.333 -29.5 -81 -29.5s-61.667 9.83301 -81 29.5s-29 44.5 -29 74.5c0 30.667 9.66699 56 29 76
s46.333 30 81 30s61.667 -10 81 -30zM965.5 1757c19.667 -20 29.5 -45.333 29.5 -76c0 -30 -9.83301 -54.833 -29.5 -74.5s-46.834 -29.5 -81.501 -29.5s-61.5 9.83301 -80.5 29.5s-28.5 44.5 -28.5 74.5c0 30.667 9.5 56 28.5 76s45.833 30 80.5 30s61.834 -10 81.501 -30z
" />
    <glyph glyph-name="Yacute" unicode="&#xdd;" horiz-adv-x="1230" 
d="M992 1456h220l-501 -912v-544h-195v544l-501 912h222l377 -732zM944 1846l-269 -293h-150l194 293h225z" />
    <glyph glyph-name="Thorn" unicode="&#xde;" horiz-adv-x="1210" 
d="M894 1108.5c73.333 -36.333 129 -86.5 167 -150.5s57 -137.333 57 -220c0 -82 -19 -155 -57 -219s-93.667 -114.167 -167 -150.5s-161.333 -54.5 -264 -54.5h-277v-314h-187v1456h187v-293h277c102.667 0 190.667 -18.167 264 -54.5zM799.5 502
c45 25.333 78.167 58.667 99.5 100s32 86 32 134c0 49.333 -10.667 95 -32 137s-54.5 75.833 -99.5 101.5s-101.5 38.5 -169.5 38.5h-277v-549h277c68 0 124.5 12.667 169.5 38z" />
    <glyph glyph-name="germandbls" unicode="&#xdf;" horiz-adv-x="1218" 
d="M139 0l0.00292969 1112c0 95.333 16.333 176.166 49 242.499s78.667 116.166 138 149.499s128.333 50 207 50c74.667 0 140.167 -12.333 196.5 -37s100.5 -62.167 132.5 -112.5s48 -112.833 48 -187.5c0 -36.667 -3.5 -69.5 -10.5 -98.5s-15.333 -53.833 -25 -74.5
s-22.5 -44.667 -38.5 -72c-18.667 -30.667 -32.334 -56.834 -41.001 -78.501s-13 -46.167 -13 -73.5c0 -26 6.66699 -50.5 20 -73.5s30.166 -44 50.499 -63s47.5 -42.167 81.5 -69.5c42.667 -34 77 -63.667 103 -89s48.167 -55.5 66.5 -90.5s27.5 -74.167 27.5 -117.5
c0 -74 -16.167 -136.167 -48.5 -186.5s-77.5 -88 -135.5 -113s-125 -37.5 -201 -37.5c-54.667 0 -111.667 7.33301 -171 22s-102 31.667 -128 51l42 153c30 -18.667 66.667 -36 110 -52s85.666 -24 126.999 -24c74 0 128.833 16.333 164.5 49s53.5 75.667 53.5 129
c0 27.333 -6.66699 52.5 -20 75.5s-30 44 -50 63s-47 42.167 -81 69.5c-42.667 34.667 -77 64.834 -103 90.501s-48.167 56.667 -66.5 93s-27.5 77.166 -27.5 122.499c0 36 5.83301 68.167 17.5 96.5s29.167 60.833 52.5 97.5c22.667 36.667 39.667 68.334 51 95.001
s17 57 17 91c0 64.667 -17.667 114.5 -53 149.5s-81.333 52.5 -138 52.5c-70 0 -123.833 -24 -161.5 -72s-56.5 -121.333 -56.5 -220v-1112h-186z" />
    <glyph glyph-name="agrave" unicode="&#xe0;" horiz-adv-x="1115" 
d="M975 118.5c6.66699 -40.333 15.999 -74.5 27.999 -102.5v-16h-195c-11.333 26 -20 63.667 -26 113c-37.333 -40 -82.166 -72.167 -134.499 -96.5s-109.833 -36.5 -172.5 -36.5c-72 0 -135.833 14.167 -191.5 42.5s-98.667 66.833 -129 115.5s-45.5 102.667 -45.5 162
c0 76.667 19.833 141.667 59.5 195s96 93.5 169 120.5s159.167 40.5 258.5 40.5h182v86c0 66 -19.5 117.833 -58.5 155.5s-95.167 56.5 -168.5 56.5c-44.667 0 -84.667 -7.83301 -120 -23.5s-62.833 -36.667 -82.5 -63s-29.5 -54.833 -29.5 -85.5h-187
c0 52.667 18 103.667 54 153s86.667 89.5 152 120.5s140 46.5 224 46.5c80 0 150.167 -13.5 210.5 -40.5s107.5 -67.667 141.5 -122s51 -120.833 51 -199.5v-504c0 -38 3.33301 -77.167 10 -117.5zM621.499 162.5c37 15 68.834 34.832 95.501 59.499s47 51.334 61 80.001
v224h-152c-106.667 0 -188.334 -16.833 -245.001 -50.5s-85 -83.5 -85 -149.5c0 -35.333 8 -67 24 -95s39.333 -50.167 70 -66.5s68 -24.5 112 -24.5c42.667 0 82.5 7.5 119.5 22.5zM511 1243l-259 293h226l193 -293h-160z" />
    <glyph glyph-name="aacute" unicode="&#xe1;" horiz-adv-x="1115" 
d="M975 118.5c6.66699 -40.333 15.999 -74.5 27.999 -102.5v-16h-195c-11.333 26 -20 63.667 -26 113c-37.333 -40 -82.166 -72.167 -134.499 -96.5s-109.833 -36.5 -172.5 -36.5c-72 0 -135.833 14.167 -191.5 42.5s-98.667 66.833 -129 115.5s-45.5 102.667 -45.5 162
c0 76.667 19.833 141.667 59.5 195s96 93.5 169 120.5s159.167 40.5 258.5 40.5h182v86c0 66 -19.5 117.833 -58.5 155.5s-95.167 56.5 -168.5 56.5c-44.667 0 -84.667 -7.83301 -120 -23.5s-62.833 -36.667 -82.5 -63s-29.5 -54.833 -29.5 -85.5h-187
c0 52.667 18 103.667 54 153s86.667 89.5 152 120.5s140 46.5 224 46.5c80 0 150.167 -13.5 210.5 -40.5s107.5 -67.667 141.5 -122s51 -120.833 51 -199.5v-504c0 -38 3.33301 -77.167 10 -117.5zM621.499 162.5c37 15 68.834 34.832 95.501 59.499s47 51.334 61 80.001
v224h-152c-106.667 0 -188.334 -16.833 -245.001 -50.5s-85 -83.5 -85 -149.5c0 -35.333 8 -67 24 -95s39.333 -50.167 70 -66.5s68 -24.5 112 -24.5c42.667 0 82.5 7.5 119.5 22.5zM908 1536l-269 -293h-150l194 293h225z" />
    <glyph glyph-name="acircumflex" unicode="&#xe2;" horiz-adv-x="1115" 
d="M975 118.5c6.66699 -40.333 15.999 -74.5 27.999 -102.5v-16h-195c-11.333 26 -20 63.667 -26 113c-37.333 -40 -82.166 -72.167 -134.499 -96.5s-109.833 -36.5 -172.5 -36.5c-72 0 -135.833 14.167 -191.5 42.5s-98.667 66.833 -129 115.5s-45.5 102.667 -45.5 162
c0 76.667 19.833 141.667 59.5 195s96 93.5 169 120.5s159.167 40.5 258.5 40.5h182v86c0 66 -19.5 117.833 -58.5 155.5s-95.167 56.5 -168.5 56.5c-44.667 0 -84.667 -7.83301 -120 -23.5s-62.833 -36.667 -82.5 -63s-29.5 -54.833 -29.5 -85.5h-187
c0 52.667 18 103.667 54 153s86.667 89.5 152 120.5s140 46.5 224 46.5c80 0 150.167 -13.5 210.5 -40.5s107.5 -67.667 141.5 -122s51 -120.833 51 -199.5v-504c0 -38 3.33301 -77.167 10 -117.5zM621.499 162.5c37 15 68.834 34.832 95.501 59.499s47 51.334 61 80.001
v224h-152c-106.667 0 -188.334 -16.833 -245.001 -50.5s-85 -83.5 -85 -149.5c0 -35.333 8 -67 24 -95s39.333 -50.167 70 -66.5s68 -24.5 112 -24.5c42.667 0 82.5 7.5 119.5 22.5zM885 1253h-154l-150 170l-149 -170h-153v11l246 272h112l248 -273v-10z" />
    <glyph glyph-name="atilde" unicode="&#xe3;" horiz-adv-x="1115" 
d="M975 118.5c6.66699 -40.333 15.999 -74.5 27.999 -102.5v-16h-195c-11.333 26 -20 63.667 -26 113c-37.333 -40 -82.166 -72.167 -134.499 -96.5s-109.833 -36.5 -172.5 -36.5c-72 0 -135.833 14.167 -191.5 42.5s-98.667 66.833 -129 115.5s-45.5 102.667 -45.5 162
c0 76.667 19.833 141.667 59.5 195s96 93.5 169 120.5s159.167 40.5 258.5 40.5h182v86c0 66 -19.5 117.833 -58.5 155.5s-95.167 56.5 -168.5 56.5c-44.667 0 -84.667 -7.83301 -120 -23.5s-62.833 -36.667 -82.5 -63s-29.5 -54.833 -29.5 -85.5h-187
c0 52.667 18 103.667 54 153s86.667 89.5 152 120.5s140 46.5 224 46.5c80 0 150.167 -13.5 210.5 -40.5s107.5 -67.667 141.5 -122s51 -120.833 51 -199.5v-504c0 -38 3.33301 -77.167 10 -117.5zM621.499 162.5c37 15 68.834 34.832 95.501 59.499s47 51.334 61 80.001
v224h-152c-106.667 0 -188.334 -16.833 -245.001 -50.5s-85 -83.5 -85 -149.5c0 -35.333 8 -67 24 -95s39.333 -50.167 70 -66.5s68 -24.5 112 -24.5c42.667 0 82.5 7.5 119.5 22.5zM907.5 1378c-19 -36.667 -45.0039 -65 -78.0039 -85s-69.5 -30 -109.5 -30
c-31.333 0 -57.666 4.33301 -78.999 13s-44.333 21.334 -69 38.001c-21.333 14.667 -40.666 25.667 -57.999 33s-37.666 11 -60.999 11c-28.667 0 -52.5 -10.833 -71.5 -32.5s-28.5 -48.167 -28.5 -79.5l-125 7c0 47.333 9.5 89.666 28.5 126.999s44.833 66.5 77.5 87.5
s69 31.5 109 31.5c25.333 0 48 -4 68 -12s44 -20.333 72 -37c25.333 -16 47.333 -27.833 66 -35.5s39.334 -11.5 62.001 -11.5c28 0 51.667 10.833 71 32.5s29 48.5 29 80.5l125 -12c0 -47.333 -9.5 -89.333 -28.5 -126z" />
    <glyph glyph-name="adieresis" unicode="&#xe4;" horiz-adv-x="1115" 
d="M975 118.5c6.66699 -40.333 15.999 -74.5 27.999 -102.5v-16h-195c-11.333 26 -20 63.667 -26 113c-37.333 -40 -82.166 -72.167 -134.499 -96.5s-109.833 -36.5 -172.5 -36.5c-72 0 -135.833 14.167 -191.5 42.5s-98.667 66.833 -129 115.5s-45.5 102.667 -45.5 162
c0 76.667 19.833 141.667 59.5 195s96 93.5 169 120.5s159.167 40.5 258.5 40.5h182v86c0 66 -19.5 117.833 -58.5 155.5s-95.167 56.5 -168.5 56.5c-44.667 0 -84.667 -7.83301 -120 -23.5s-62.833 -36.667 -82.5 -63s-29.5 -54.833 -29.5 -85.5h-187
c0 52.667 18 103.667 54 153s86.667 89.5 152 120.5s140 46.5 224 46.5c80 0 150.167 -13.5 210.5 -40.5s107.5 -67.667 141.5 -122s51 -120.833 51 -199.5v-504c0 -38 3.33301 -77.167 10 -117.5zM621.499 162.5c37 15 68.834 34.832 95.501 59.499s47 51.334 61 80.001
v224h-152c-106.667 0 -188.334 -16.833 -245.001 -50.5s-85 -83.5 -85 -149.5c0 -35.333 8 -67 24 -95s39.333 -50.167 70 -66.5s68 -24.5 112 -24.5c42.667 0 82.5 7.5 119.5 22.5zM450 1448c19.333 -20 29 -45.333 29 -76c0 -30 -9.66699 -54.833 -29 -74.5
s-46.333 -29.5 -81 -29.5s-61.667 9.83301 -81 29.5s-29 44.5 -29 74.5c0 30.667 9.66699 56 29 76s46.333 30 81 30s61.667 -10 81 -30zM880.5 1446c19.667 -20 29.5 -45.333 29.5 -76c0 -30 -9.83301 -54.833 -29.5 -74.5s-46.834 -29.5 -81.501 -29.5
s-61.5 9.83301 -80.5 29.5s-28.5 44.5 -28.5 74.5c0 30.667 9.5 56 28.5 76s45.833 30 80.5 30s61.834 -10 81.501 -30z" />
    <glyph glyph-name="aring" unicode="&#xe5;" horiz-adv-x="1115" 
d="M975 118.5c6.66699 -40.333 15.999 -74.5 27.999 -102.5v-16h-195c-11.333 26 -20 63.667 -26 113c-37.333 -40 -82.166 -72.167 -134.499 -96.5s-109.833 -36.5 -172.5 -36.5c-72 0 -135.833 14.167 -191.5 42.5s-98.667 66.833 -129 115.5s-45.5 102.667 -45.5 162
c0 76.667 19.833 141.667 59.5 195s96 93.5 169 120.5s159.167 40.5 258.5 40.5h182v86c0 66 -19.5 117.833 -58.5 155.5s-95.167 56.5 -168.5 56.5c-44.667 0 -84.667 -7.83301 -120 -23.5s-62.833 -36.667 -82.5 -63s-29.5 -54.833 -29.5 -85.5h-187
c0 52.667 18 103.667 54 153s86.667 89.5 152 120.5s140 46.5 224 46.5c80 0 150.167 -13.5 210.5 -40.5s107.5 -67.667 141.5 -122s51 -120.833 51 -199.5v-504c0 -38 3.33301 -77.167 10 -117.5zM621.499 162.5c37 15 68.834 34.832 95.501 59.499s47 51.334 61 80.001
v224h-152c-106.667 0 -188.334 -16.833 -245.001 -50.5s-85 -83.5 -85 -149.5c0 -35.333 8 -67 24 -95s39.333 -50.167 70 -66.5s68 -24.5 112 -24.5c42.667 0 82.5 7.5 119.5 22.5zM691 1599.5c32.667 -18.333 58.501 -43.5 77.501 -75.5s28.5 -67 28.5 -105
s-9.5 -72.5 -28.5 -103.5s-44.833 -55.333 -77.5 -73s-69 -26.5 -109 -26.5c-40.667 0 -77.334 8.83301 -110.001 26.5s-58.5 42 -77.5 73s-28.5 65.5 -28.5 103.5s9.5 73 28.5 105s45 57.167 78 75.5s69.5 27.5 109.5 27.5s76.333 -9.16699 109 -27.5zM665.001 1338.5
c22 23 33 49.834 33 80.501c0 32 -11 59.833 -33 83.5s-49.667 35.5 -83 35.5s-61 -11.833 -83 -35.5s-33 -51.5 -33 -83.5c0 -20 5 -38.833 15 -56.5s23.833 -31.834 41.5 -42.501s37.5 -16 59.5 -16c33.333 0 61 11.5 83 34.5z" />
    <glyph glyph-name="ae" unicode="&#xe6;" horiz-adv-x="1730" 
d="M1661 499l-727.004 -0.000976562c2 -71.333 15.167 -134.666 39.5 -189.999s60.666 -99 108.999 -131s108.5 -48 180.5 -48c48.667 0 92.334 5.33301 131.001 16s70.834 23 96.501 37s54.834 32 87.501 54l65 -135c-36.667 -30 -86 -58 -148 -84s-139.333 -39 -232 -39
c-87.333 0 -164.666 15.667 -231.999 47s-122.666 75.666 -165.999 132.999c-38.667 -50.667 -94.5 -93.334 -167.5 -128.001s-161.167 -52 -264.5 -52c-74.667 0 -138.667 13.333 -192 40s-93.833 64.334 -121.5 113.001s-41.5 106 -41.5 172c0 106 38.333 187.667 115 245
s188 86 334 86h221v85c0 72.667 -18.333 129.5 -55 170.5s-89 61.5 -157 61.5c-48 0 -90.5 -8.66699 -127.5 -26s-65.667 -40.666 -86 -69.999s-30.5 -61.333 -30.5 -96l-186 18c0 62 18 117.5 54 166.5s86.667 87.5 152 115.5s140 42 224 42c77.333 0 145.333 -14 204 -42
s104 -69 136 -123c42 52.667 92.5 93.5 151.5 122.5s122.5 43.167 190.5 42.5c94.667 0 175.167 -19.667 241.5 -59s116.5 -95.333 150.5 -168s51 -159 51 -259v-117zM1474 670.999c0 82.667 -20.6689 150.167 -62.002 202.5s-106 78.5 -194 78.5
c-52 0 -97.667 -13.333 -137 -40s-71.166 -63.5 -95.499 -110.5s-40.166 -100.833 -47.499 -161.5h536v31zM620.494 166.999c52.333 25.333 94.833 55.334 127.5 90.001v240h-219c-56 0 -103.833 -9 -143.5 -27s-69.667 -42 -90 -72s-30.5 -62.667 -30.5 -98
c0 -50.667 17.333 -91.834 52 -123.501s85.667 -47.5 153 -47.5c48 0 98.167 12.667 150.5 38z" />
    <glyph glyph-name="ccedilla" unicode="&#xe7;" horiz-adv-x="1073" 
d="M695.5 157.5c37.667 18.333 68.5 43.6641 92.5 75.9971s37.667 68.5 41 108.5h177c-3.33301 -60.667 -23.5 -118 -60.5 -172s-85.667 -98 -146 -132s-125.833 -53 -196.5 -57l-10 -44c44.667 -7.33301 81.334 -24.666 110.001 -51.999s43 -67.666 43 -120.999
c0 -64 -26.333 -114.833 -79 -152.5s-127.667 -56.5 -225 -56.5l-7 106c49.333 0 89.333 8.16699 120 24.5s46 41.166 46 74.499c0 22.667 -5.5 40.334 -16.5 53.001s-27.833 22 -50.5 28s-54 10.667 -94 14l31 134c-82.667 15.333 -152.334 48.333 -209.001 99
s-99.167 113.334 -127.5 188.001s-42.5 156 -42.5 244v42c0 100 18 190.833 54 272.5s90.167 146.667 162.5 195s160.833 72.5 265.5 72.5c82.667 0 156.167 -17 220.5 -51s114.833 -80.833 151.5 -140.5s56.667 -126.5 60 -200.5h-177c-3.33301 44.667 -16 85.5 -38 122.5
s-51.667 66.167 -89 87.5s-80 32 -128 32c-71.333 0 -129 -18.5 -173 -55.5s-75.333 -84.667 -94 -143s-28 -122.166 -28 -191.499v-42c0 -110.667 22.833 -203.334 68.5 -278.001s121.167 -112 226.5 -112c43.333 0 83.833 9.16699 121.5 27.5z" />
    <glyph glyph-name="egrave" unicode="&#xe8;" horiz-adv-x="1087" 
d="M1012 490l-732 0.00195312c2 -67.333 16 -128.333 42 -183s62.833 -97.834 110.5 -129.501s103.5 -47.5 167.5 -47.5c62.667 0 116.834 12.667 162.501 38s86.5 61.666 122.5 108.999l113 -88c-40 -61.333 -93.333 -111.5 -160 -150.5s-149.334 -58.5 -248.001 -58.5
s-185.667 22.333 -261 67s-133.5 106.667 -174.5 186s-61.5 169.333 -61.5 270v43c0 112.667 22 211.167 66 295.5s102.167 148.833 174.5 193.5s149.833 67 232.5 67c100.667 0 184.167 -22.5 250.5 -67.5s115.5 -107.167 147.5 -186.5s48 -171 48 -275v-83zM825 654.002
c-5.33301 84.667 -28.165 155.499 -68.498 212.499s-103.833 85.5 -190.5 85.5c-74.667 0 -136.834 -27.167 -186.501 -81.5s-80.834 -131.166 -93.501 -230.499h539v14zM495.001 1243l-259 293h226l193 -293h-160z" />
    <glyph glyph-name="eacute" unicode="&#xe9;" horiz-adv-x="1087" 
d="M1012 490l-732 0.00195312c2 -67.333 16 -128.333 42 -183s62.833 -97.834 110.5 -129.501s103.5 -47.5 167.5 -47.5c62.667 0 116.834 12.667 162.501 38s86.5 61.666 122.5 108.999l113 -88c-40 -61.333 -93.333 -111.5 -160 -150.5s-149.334 -58.5 -248.001 -58.5
s-185.667 22.333 -261 67s-133.5 106.667 -174.5 186s-61.5 169.333 -61.5 270v43c0 112.667 22 211.167 66 295.5s102.167 148.833 174.5 193.5s149.833 67 232.5 67c100.667 0 184.167 -22.5 250.5 -67.5s115.5 -107.167 147.5 -186.5s48 -171 48 -275v-83zM825 654.002
c-5.33301 84.667 -28.165 155.499 -68.498 212.499s-103.833 85.5 -190.5 85.5c-74.667 0 -136.834 -27.167 -186.501 -81.5s-80.834 -131.166 -93.501 -230.499h539v14zM891.001 1536l-269 -293h-150l194 293h225z" />
    <glyph glyph-name="ecircumflex" unicode="&#xea;" horiz-adv-x="1087" 
d="M1012 490l-732 0.00195312c2 -67.333 16 -128.333 42 -183s62.833 -97.834 110.5 -129.501s103.5 -47.5 167.5 -47.5c62.667 0 116.834 12.667 162.501 38s86.5 61.666 122.5 108.999l113 -88c-40 -61.333 -93.333 -111.5 -160 -150.5s-149.334 -58.5 -248.001 -58.5
s-185.667 22.333 -261 67s-133.5 106.667 -174.5 186s-61.5 169.333 -61.5 270v43c0 112.667 22 211.167 66 295.5s102.167 148.833 174.5 193.5s149.833 67 232.5 67c100.667 0 184.167 -22.5 250.5 -67.5s115.5 -107.167 147.5 -186.5s48 -171 48 -275v-83zM825 654.002
c-5.33301 84.667 -28.165 155.499 -68.498 212.499s-103.833 85.5 -190.5 85.5c-74.667 0 -136.834 -27.167 -186.501 -81.5s-80.834 -131.166 -93.501 -230.499h539v14zM869.001 1253h-154l-150 170l-149 -170h-153v11l246 272h112l248 -273v-10z" />
    <glyph glyph-name="edieresis" unicode="&#xeb;" horiz-adv-x="1087" 
d="M1012 490l-732 0.00195312c2 -67.333 16 -128.333 42 -183s62.833 -97.834 110.5 -129.501s103.5 -47.5 167.5 -47.5c62.667 0 116.834 12.667 162.501 38s86.5 61.666 122.5 108.999l113 -88c-40 -61.333 -93.333 -111.5 -160 -150.5s-149.334 -58.5 -248.001 -58.5
s-185.667 22.333 -261 67s-133.5 106.667 -174.5 186s-61.5 169.333 -61.5 270v43c0 112.667 22 211.167 66 295.5s102.167 148.833 174.5 193.5s149.833 67 232.5 67c100.667 0 184.167 -22.5 250.5 -67.5s115.5 -107.167 147.5 -186.5s48 -171 48 -275v-83zM825 654.002
c-5.33301 84.667 -28.165 155.499 -68.498 212.499s-103.833 85.5 -190.5 85.5c-74.667 0 -136.834 -27.167 -186.501 -81.5s-80.834 -131.166 -93.501 -230.499h539v14zM433.001 1448c19.333 -20 29 -45.333 29 -76c0 -30 -9.66699 -54.833 -29 -74.5
s-46.333 -29.5 -81 -29.5s-61.667 9.83301 -81 29.5s-29 44.5 -29 74.5c0 30.667 9.66699 56 29 76s46.333 30 81 30s61.667 -10 81 -30zM863.501 1446c19.667 -20 29.5 -45.333 29.5 -76c0 -30 -9.83301 -54.833 -29.5 -74.5s-46.834 -29.5 -81.501 -29.5
s-61.5 9.83301 -80.5 29.5s-28.5 44.5 -28.5 74.5c0 30.667 9.5 56 28.5 76s45.833 30 80.5 30s61.834 -10 81.501 -30z" />
    <glyph glyph-name="igrave" unicode="&#xec;" horiz-adv-x="508" 
d="M156 0v1082h186v-1082h-186zM182 1241l-259 293h226l193 -293h-160z" />
    <glyph glyph-name="iacute" unicode="&#xed;" horiz-adv-x="508" 
d="M156 0v1082h186v-1082h-186zM579 1534l-269 -293h-150l194 293h225z" />
    <glyph glyph-name="icircumflex" unicode="&#xee;" horiz-adv-x="508" 
d="M156 0v1082h186v-1082h-186zM557 1251h-154l-150 170l-149 -170h-153v11l246 272h112l248 -273v-10z" />
    <glyph glyph-name="idieresis" unicode="&#xef;" horiz-adv-x="508" 
d="M156 0v1082h186v-1082h-186zM121 1446c19.333 -20 29 -45.333 29 -76c0 -30 -9.66699 -54.833 -29 -74.5s-46.333 -29.5 -81 -29.5s-61.667 9.83301 -81 29.5s-29 44.5 -29 74.5c0 30.667 9.66699 56 29 76s46.333 30 81 30s61.667 -10 81 -30zM551.5 1444
c19.667 -20 29.5 -45.333 29.5 -76c0 -30 -9.83301 -54.833 -29.5 -74.5s-46.834 -29.5 -81.501 -29.5s-61.5 9.83301 -80.5 29.5s-28.5 44.5 -28.5 74.5c0 30.667 9.5 56 28.5 76s45.833 30 80.5 30s61.834 -10 81.501 -30z" />
    <glyph glyph-name="eth" unicode="&#xf0;" horiz-adv-x="1201" 
d="M1005.5 1005.5c43 -113 64.498 -237.166 64.498 -372.499v-98c0 -108 -20 -204.167 -60 -288.5s-95.667 -149.833 -167 -196.5s-151.666 -70 -240.999 -70c-92 0 -174.167 21.667 -246.5 65s-128.666 102.166 -168.999 176.499s-60.5 156.5 -60.5 246.5
c0 100.667 19.333 189.667 58 267s92 137.166 160 179.499s144.667 63.5 230 63.5c54 0 105.333 -10.167 154 -30.5s91.667 -47.833 129 -82.5c-33.333 132.667 -96.333 244.334 -189 335.001l-217 -147l-74 99l193 130c-88.667 61.333 -194 108 -316 140l58 159
c159.333 -36.667 297.333 -101 414 -193l189 128l73 -99l-168 -114c80.667 -85.333 142.5 -184.5 185.5 -297.5zM882.998 635.001c0 26 -0.333008 45 -1 57c-21.333 38.667 -54.5 70.834 -99.5 96.501s-99.833 38.5 -164.5 38.5c-64 0 -118.833 -14.5 -164.5 -43.5
s-80.5 -70.5 -104.5 -124.5s-36 -117.667 -36 -191c0 -56.667 11.667 -110.834 35 -162.501s57.166 -93.667 101.499 -126s96.5 -48.5 156.5 -48.5c56 0 104.833 17.5 146.5 52.5s73.834 83 96.501 144s34 130.167 34 207.5v100z" />
    <glyph glyph-name="ntilde" unicode="&#xf1;" horiz-adv-x="1131" 
d="M992 709l0.000976562 -709.001h-187v711c0 82.667 -17.833 142.667 -53.5 180s-89.5 56 -161.5 56c-57.333 0 -108.833 -15.667 -154.5 -47s-81.834 -73.333 -108.501 -126v-774h-187v1082h177l6 -133c39.333 48.667 86.333 86.334 141 113.001s115 40 181 40
c231.333 0 347 -131 347 -393zM898.501 1378c-19 -36.667 -45.0039 -65 -78.0039 -85s-69.5 -30 -109.5 -30c-31.333 0 -57.666 4.33301 -78.999 13s-44.333 21.334 -69 38.001c-21.333 14.667 -40.666 25.667 -57.999 33s-37.666 11 -60.999 11
c-28.667 0 -52.5 -10.833 -71.5 -32.5s-28.5 -48.167 -28.5 -79.5l-125 7c0 47.333 9.5 89.666 28.5 126.999s44.833 66.5 77.5 87.5s69 31.5 109 31.5c25.333 0 48 -4 68 -12s44 -20.333 72 -37c25.333 -16 47.333 -27.833 66 -35.5s39.334 -11.5 62.001 -11.5
c28 0 51.667 10.833 71 32.5s29 48.5 29 80.5l125 -12c0 -47.333 -9.5 -89.333 -28.5 -126z" />
    <glyph glyph-name="ograve" unicode="&#xf2;" horiz-adv-x="1169" 
d="M152 834c40 83.333 97.1641 148.833 171.497 196.5s160.833 71.5 259.5 71.5c100 0 187.333 -23.833 262 -71.5s132 -113.167 172 -196.5s60 -177.333 60 -282v-23c0 -104.667 -20 -198.5 -60 -281.5s-97.167 -148.333 -171.5 -196s-161.166 -71.5 -260.499 -71.5
s-186.166 23.833 -260.499 71.5s-131.666 113 -171.999 196s-60.5 176.833 -60.5 281.5v23c0 104.667 20 198.667 60 282zM313.497 328c23 -60.667 57.5 -108.834 103.5 -144.501s102 -53.5 168 -53.5c65.333 0 121 17.833 167 53.5s80.5 83.834 103.5 144.501
s34.5 127.667 34.5 201v23c0 73.333 -11.667 140.333 -35 201s-58 109 -104 145s-102 54 -168 54c-65.333 0 -120.833 -18 -166.5 -54s-80 -84.333 -103 -145s-34.5 -127.667 -34.5 -201v-23c0 -73.333 11.5 -140.333 34.5 -201zM504.997 1243l-259 293h226l193 -293h-160z
" />
    <glyph glyph-name="oacute" unicode="&#xf3;" horiz-adv-x="1169" 
d="M152 834c40 83.333 97.1641 148.833 171.497 196.5s160.833 71.5 259.5 71.5c100 0 187.333 -23.833 262 -71.5s132 -113.167 172 -196.5s60 -177.333 60 -282v-23c0 -104.667 -20 -198.5 -60 -281.5s-97.167 -148.333 -171.5 -196s-161.166 -71.5 -260.499 -71.5
s-186.166 23.833 -260.499 71.5s-131.666 113 -171.999 196s-60.5 176.833 -60.5 281.5v23c0 104.667 20 198.667 60 282zM313.497 328c23 -60.667 57.5 -108.834 103.5 -144.501s102 -53.5 168 -53.5c65.333 0 121 17.833 167 53.5s80.5 83.834 103.5 144.501
s34.5 127.667 34.5 201v23c0 73.333 -11.667 140.333 -35 201s-58 109 -104 145s-102 54 -168 54c-65.333 0 -120.833 -18 -166.5 -54s-80 -84.333 -103 -145s-34.5 -127.667 -34.5 -201v-23c0 -73.333 11.5 -140.333 34.5 -201zM900.997 1536l-269 -293h-150l194 293h225z
" />
    <glyph glyph-name="ocircumflex" unicode="&#xf4;" horiz-adv-x="1169" 
d="M152 834c40 83.333 97.1641 148.833 171.497 196.5s160.833 71.5 259.5 71.5c100 0 187.333 -23.833 262 -71.5s132 -113.167 172 -196.5s60 -177.333 60 -282v-23c0 -104.667 -20 -198.5 -60 -281.5s-97.167 -148.333 -171.5 -196s-161.166 -71.5 -260.499 -71.5
s-186.166 23.833 -260.499 71.5s-131.666 113 -171.999 196s-60.5 176.833 -60.5 281.5v23c0 104.667 20 198.667 60 282zM313.497 328c23 -60.667 57.5 -108.834 103.5 -144.501s102 -53.5 168 -53.5c65.333 0 121 17.833 167 53.5s80.5 83.834 103.5 144.501
s34.5 127.667 34.5 201v23c0 73.333 -11.667 140.333 -35 201s-58 109 -104 145s-102 54 -168 54c-65.333 0 -120.833 -18 -166.5 -54s-80 -84.333 -103 -145s-34.5 -127.667 -34.5 -201v-23c0 -73.333 11.5 -140.333 34.5 -201zM878.997 1253h-154l-150 170l-149 -170h-153
v11l246 272h112l248 -273v-10z" />
    <glyph glyph-name="otilde" unicode="&#xf5;" horiz-adv-x="1169" 
d="M152 834c40 83.333 97.1641 148.833 171.497 196.5s160.833 71.5 259.5 71.5c100 0 187.333 -23.833 262 -71.5s132 -113.167 172 -196.5s60 -177.333 60 -282v-23c0 -104.667 -20 -198.5 -60 -281.5s-97.167 -148.333 -171.5 -196s-161.166 -71.5 -260.499 -71.5
s-186.166 23.833 -260.499 71.5s-131.666 113 -171.999 196s-60.5 176.833 -60.5 281.5v23c0 104.667 20 198.667 60 282zM313.497 328c23 -60.667 57.5 -108.834 103.5 -144.501s102 -53.5 168 -53.5c65.333 0 121 17.833 167 53.5s80.5 83.834 103.5 144.501
s34.5 127.667 34.5 201v23c0 73.333 -11.667 140.333 -35 201s-58 109 -104 145s-102 54 -168 54c-65.333 0 -120.833 -18 -166.5 -54s-80 -84.333 -103 -145s-34.5 -127.667 -34.5 -201v-23c0 -73.333 11.5 -140.333 34.5 -201zM901.497 1378
c-19 -36.667 -45.0039 -65 -78.0039 -85s-69.5 -30 -109.5 -30c-31.333 0 -57.666 4.33301 -78.999 13s-44.333 21.334 -69 38.001c-21.333 14.667 -40.666 25.667 -57.999 33s-37.666 11 -60.999 11c-28.667 0 -52.5 -10.833 -71.5 -32.5s-28.5 -48.167 -28.5 -79.5l-125 7
c0 47.333 9.5 89.666 28.5 126.999s44.833 66.5 77.5 87.5s69 31.5 109 31.5c25.333 0 48 -4 68 -12s44 -20.333 72 -37c25.333 -16 47.333 -27.833 66 -35.5s39.334 -11.5 62.001 -11.5c28 0 51.667 10.833 71 32.5s29 48.5 29 80.5l125 -12
c0 -47.333 -9.5 -89.333 -28.5 -126z" />
    <glyph glyph-name="odieresis" unicode="&#xf6;" horiz-adv-x="1169" 
d="M152 834c40 83.333 97.1641 148.833 171.497 196.5s160.833 71.5 259.5 71.5c100 0 187.333 -23.833 262 -71.5s132 -113.167 172 -196.5s60 -177.333 60 -282v-23c0 -104.667 -20 -198.5 -60 -281.5s-97.167 -148.333 -171.5 -196s-161.166 -71.5 -260.499 -71.5
s-186.166 23.833 -260.499 71.5s-131.666 113 -171.999 196s-60.5 176.833 -60.5 281.5v23c0 104.667 20 198.667 60 282zM313.497 328c23 -60.667 57.5 -108.834 103.5 -144.501s102 -53.5 168 -53.5c65.333 0 121 17.833 167 53.5s80.5 83.834 103.5 144.501
s34.5 127.667 34.5 201v23c0 73.333 -11.667 140.333 -35 201s-58 109 -104 145s-102 54 -168 54c-65.333 0 -120.833 -18 -166.5 -54s-80 -84.333 -103 -145s-34.5 -127.667 -34.5 -201v-23c0 -73.333 11.5 -140.333 34.5 -201zM442.997 1448c19.333 -20 29 -45.333 29 -76
c0 -30 -9.66699 -54.833 -29 -74.5s-46.333 -29.5 -81 -29.5s-61.667 9.83301 -81 29.5s-29 44.5 -29 74.5c0 30.667 9.66699 56 29 76s46.333 30 81 30s61.667 -10 81 -30zM873.497 1446c19.667 -20 29.5 -45.333 29.5 -76c0 -30 -9.83301 -54.833 -29.5 -74.5
s-46.834 -29.5 -81.501 -29.5s-61.5 9.83301 -80.5 29.5s-28.5 44.5 -28.5 74.5c0 30.667 9.5 56 28.5 76s45.833 30 80.5 30s61.834 -10 81.501 -30z" />
    <glyph glyph-name="divide" unicode="&#xf7;" horiz-adv-x="1170" 
d="M661.5 1178.5c20.333 -21 30.5 -47.833 30.5 -80.5c0 -31.333 -10.167 -57.333 -30.5 -78s-48.833 -31 -85.5 -31s-65 10.167 -85 30.5s-30 46.5 -30 78.5c0 32.667 10 59.5 30 80.5s48.333 31.5 85 31.5s65.167 -10.5 85.5 -31.5zM71 601v183h998v-183h-998zM661.5 362
c20.333 -20.667 30.5 -47.334 30.5 -80.001c0 -31.333 -10.167 -57.333 -30.5 -78s-48.833 -31 -85.5 -31s-65 10.167 -85 30.5s-30 46.5 -30 78.5c0 32.667 10 59.334 30 80.001s48.333 31 85 31s65.167 -10.333 85.5 -31z" />
    <glyph glyph-name="oslash" unicode="&#xf8;" horiz-adv-x="1161" 
d="M1026.5 812.5c33.667 -78.333 50.499 -165.168 50.499 -260.501v-23c0 -104.667 -20 -198.5 -60 -281.5s-97.167 -148.333 -171.5 -196s-161.166 -71.5 -260.499 -71.5c-68.667 0 -132 11.667 -190 35l-74 -150h-124l101 204c-65.333 48.667 -116 113 -152 193
s-54 169 -54 267v23c0 104.667 20 198.667 60 282s97.167 148.833 171.5 196.5s160.833 71.5 259.5 71.5c75.333 0 143.333 -13.667 204 -41l73 148h124l-101 -205c62 -49.333 109.833 -113.166 143.5 -191.499zM302.499 357.998c16.333 -52.667 40.168 -97.333 71.501 -134
l343 696c-40.667 21.333 -85.334 32 -134.001 32c-65.333 0 -120.833 -18 -166.5 -54s-80.167 -84.5 -103.5 -145.5s-35 -127.833 -35 -200.5v-23c0 -61.333 8.16699 -118.333 24.5 -171zM890.001 551.999c0 57.333 -7.33301 111.167 -22 161.5s-36 94.166 -64 131.499
l-340 -690c36.667 -16.667 77 -25 121 -25c65.333 0 121 17.833 167 53.5s80.5 83.834 103.5 144.501s34.5 127.667 34.5 201v23z" />
    <glyph glyph-name="ugrave" unicode="&#xf9;" horiz-adv-x="1129" 
d="M989 1082v-1082h-178l-3 107c-72 -84.667 -177.667 -127 -317 -127c-111.333 0 -198.333 32.667 -261 98s-94 167.333 -94 306v698h187v-700c0 -90 18.5 -153.5 55.5 -190.5s84.5 -55.5 142.5 -55.5c140 0 233.667 52.333 281 157v789h187zM497 1243l-259 293h226
l193 -293h-160z" />
    <glyph glyph-name="uacute" unicode="&#xfa;" horiz-adv-x="1129" 
d="M989 1082v-1082h-178l-3 107c-72 -84.667 -177.667 -127 -317 -127c-111.333 0 -198.333 32.667 -261 98s-94 167.333 -94 306v698h187v-700c0 -90 18.5 -153.5 55.5 -190.5s84.5 -55.5 142.5 -55.5c140 0 233.667 52.333 281 157v789h187zM893 1536l-269 -293h-150
l194 293h225z" />
    <glyph glyph-name="ucircumflex" unicode="&#xfb;" horiz-adv-x="1129" 
d="M989 1082v-1082h-178l-3 107c-72 -84.667 -177.667 -127 -317 -127c-111.333 0 -198.333 32.667 -261 98s-94 167.333 -94 306v698h187v-700c0 -90 18.5 -153.5 55.5 -190.5s84.5 -55.5 142.5 -55.5c140 0 233.667 52.333 281 157v789h187zM871 1253h-154l-150 170
l-149 -170h-153v11l246 272h112l248 -273v-10z" />
    <glyph glyph-name="udieresis" unicode="&#xfc;" horiz-adv-x="1129" 
d="M989 1082v-1082h-178l-3 107c-72 -84.667 -177.667 -127 -317 -127c-111.333 0 -198.333 32.667 -261 98s-94 167.333 -94 306v698h187v-700c0 -90 18.5 -153.5 55.5 -190.5s84.5 -55.5 142.5 -55.5c140 0 233.667 52.333 281 157v789h187zM436 1448
c19.333 -20 29 -45.333 29 -76c0 -30 -9.66699 -54.833 -29 -74.5s-46.333 -29.5 -81 -29.5s-61.667 9.83301 -81 29.5s-29 44.5 -29 74.5c0 30.667 9.66699 56 29 76s46.333 30 81 30s61.667 -10 81 -30zM866.5 1446c19.667 -20 29.5 -45.333 29.5 -76
c0 -30 -9.83301 -54.833 -29.5 -74.5s-46.834 -29.5 -81.501 -29.5s-61.5 9.83301 -80.5 29.5s-28.5 44.5 -28.5 74.5c0 30.667 9.5 56 28.5 76s45.833 30 80.5 30s61.834 -10 81.501 -30z" />
    <glyph glyph-name="yacute" unicode="&#xfd;" horiz-adv-x="969" 
d="M944 1082l-433.999 -1249c-26.667 -72.667 -65.167 -135.834 -115.5 -189.501s-118.833 -80.5 -205.5 -80.5c-14 0 -32.167 1.83301 -54.5 5.5s-39.166 7.16699 -50.499 10.5v149c7.33301 -1.33301 15.666 -2.5 24.999 -3.5s17.666 -1.5 24.999 -1.5
c63.333 0 112.5 13.167 147.5 39.5s63.5 72.5 85.5 138.5l41 111l-386 1070h204l268 -810l251 810h199zM834.001 1536l-269 -293h-150l194 293h225z" />
    <glyph glyph-name="thorn" unicode="&#xfe;" horiz-adv-x="1181" 
d="M871 1033.5c63.333 -45.667 111.5 -110 144.5 -193s49.5 -179.833 49.5 -290.5v-21c0 -106 -16.5 -200.5 -49.5 -283.5s-81.167 -148 -144.5 -195s-138.666 -70.5 -225.999 -70.5c-130.667 0 -233.667 41.333 -309 124v-520h-187v1952h187v-563
c75.333 86 177.333 129 306 129c89.333 0 165.666 -22.833 228.999 -68.5zM878 550c0 74.667 -10.498 141.833 -31.498 201.5s-53.333 107.167 -97 142.5s-97.834 53 -162.501 53c-58.667 0 -108.667 -13.333 -150 -40s-75 -63 -101 -109v-521
c55.333 -98 139.666 -147 252.999 -147c64 0 117.667 17.833 161 53.5s75.5 83.5 96.5 143.5s31.5 127.333 31.5 202v21z" />
    <glyph glyph-name="ydieresis" unicode="&#xff;" horiz-adv-x="969" 
d="M944 1082l-433.999 -1249c-26.667 -72.667 -65.167 -135.834 -115.5 -189.501s-118.833 -80.5 -205.5 -80.5c-14 0 -32.167 1.83301 -54.5 5.5s-39.166 7.16699 -50.499 10.5v149c7.33301 -1.33301 15.666 -2.5 24.999 -3.5s17.666 -1.5 24.999 -1.5
c63.333 0 112.5 13.167 147.5 39.5s63.5 72.5 85.5 138.5l41 111l-386 1070h204l268 -810l251 810h199zM376.001 1448c19.333 -20 29 -45.333 29 -76c0 -30 -9.66699 -54.833 -29 -74.5s-46.333 -29.5 -81 -29.5s-61.667 9.83301 -81 29.5s-29 44.5 -29 74.5
c0 30.667 9.66699 56 29 76s46.333 30 81 30s61.667 -10 81 -30zM806.501 1446c19.667 -20 29.5 -45.333 29.5 -76c0 -30 -9.83301 -54.833 -29.5 -74.5s-46.834 -29.5 -81.501 -29.5s-61.5 9.83301 -80.5 29.5s-28.5 44.5 -28.5 74.5c0 30.667 9.5 56 28.5 76
s45.833 30 80.5 30s61.834 -10 81.501 -30z" />
    <glyph glyph-name="dotlessi" unicode="&#x131;" horiz-adv-x="508" 
d="M156 0v1082h186v-1082h-186z" />
    <glyph glyph-name="OE" unicode="&#x152;" horiz-adv-x="1954" 
d="M1801 156v-155.997h-770h-77c-61.333 -6.66699 -114 -11.834 -158 -15.501s-88.667 -5.5 -134 -5.5c-109.333 0 -206.166 25.167 -290.499 75.5s-149.833 120.666 -196.5 210.999s-70 193.833 -70 310.5v304c0 116.667 23.167 220.167 69.5 310.5
s111.666 160.666 195.999 210.999s180.833 75.5 289.5 75.5c81.333 0 179.333 -7 294 -21h116h721v-157h-721v-469h629v-156h-629v-518h731zM337 332.503c30 -67 72.667 -117.668 128 -152.001s121 -51.5 197 -51.5c68 0 139.333 5 214 15v1168
c-70.667 9.33301 -142.667 14 -216 14c-76 0 -141.5 -17 -196.5 -51s-97.333 -84.167 -127 -150.5s-44.5 -147.166 -44.5 -242.499v-306c0 -95.333 15 -176.5 45 -243.5z" />
    <glyph glyph-name="oe" unicode="&#x153;" horiz-adv-x="1859" 
d="M1791 499l-716.004 0.000976562c2.66699 -70 15.834 -132.833 39.501 -188.5s57.834 -99.667 102.501 -132s98.334 -48.5 161.001 -48.5c126.667 0 229.667 36 309 108l73 -125c-38 -38 -88.667 -69.833 -152 -95.5s-140 -38.5 -230 -38.5
c-87.333 0 -165.5 18.5 -234.5 55.5s-124.833 89.167 -167.5 156.5c-41.333 -67.333 -95.5 -119.5 -162.5 -156.5s-144.167 -55.5 -231.5 -55.5c-98.667 0 -184.667 23.833 -258 71.5s-129.5 113.167 -168.5 196.5s-58.5 177.333 -58.5 282v23
c0 104.667 19.5 198.667 58.5 282s94.833 148.833 167.5 196.5s158.334 71.5 257.001 71.5c88 0 166 -18.833 234 -56.5s122.667 -90.5 164 -158.5c43.333 67.333 97.833 120.166 163.5 158.499s135.167 57.166 208.5 56.499c96.667 0 178 -20.167 244 -60.5
s115.333 -96.666 148 -168.999s49 -156.5 49 -252.5v-121zM877.996 552.001c0 73.333 -10.834 140.333 -32.501 201s-55 109 -100 145s-100.167 54 -165.5 54s-120.166 -18 -164.499 -54s-77.333 -84.333 -99 -145s-32.5 -127.667 -32.5 -201v-23
c0 -74 10.833 -141.167 32.5 -201.5s54.834 -108.333 99.501 -144s100 -53.5 166 -53.5c65.333 0 120.166 17.833 164.499 53.5s77.333 83.667 99 144s32.5 127.5 32.5 201.5v23zM1604 675.001c0 50.667 -9.16797 97 -27.501 139s-46.666 75.5 -84.999 100.5
s-85.5 37.5 -141.5 37.5c-45.333 0 -86.833 -13.167 -124.5 -39.5s-69 -62.333 -94 -108s-41.833 -97.5 -50.5 -155.5h523v26z" />
    <glyph glyph-name="longs" unicode="&#x17f;" horiz-adv-x="509" 
d="M160 1197c0 114.667 29.999 203.333 89.999 266s143.333 94 250 94c39.333 0 87 -7 143 -21l-23 -141c-27.333 8 -57.666 12 -90.999 12c-58.667 0 -103.667 -18.5 -135 -55.5s-47 -88.5 -47 -154.5v-1197h-187v1197z" />
    <glyph glyph-name="circumflex" unicode="&#x2c6;" horiz-adv-x="966" 
d="M776 1253h-154l-150 170l-149 -170h-153v11l246 272h112l248 -273v-10z" />
    <glyph glyph-name="ring" unicode="&#x2da;" horiz-adv-x="687" 
d="M446 1588.5c32.667 -18.333 58.501 -43.5 77.501 -75.5s28.5 -67 28.5 -105s-9.5 -72.5 -28.5 -103.5s-44.833 -55.333 -77.5 -73s-69 -26.5 -109 -26.5c-40.667 0 -77.334 8.83301 -110.001 26.5s-58.5 42 -77.5 73s-28.5 65.5 -28.5 103.5s9.5 73 28.5 105
s45 57.167 78 75.5s69.5 27.5 109.5 27.5s76.333 -9.16699 109 -27.5zM420.001 1327.5c22 23 33 49.834 33 80.501c0 32 -11 59.833 -33 83.5s-49.667 35.5 -83 35.5s-61 -11.833 -83 -35.5s-33 -51.5 -33 -83.5c0 -20 5 -38.833 15 -56.5s23.833 -31.834 41.5 -42.501
s37.5 -16 59.5 -16c33.333 0 61 11.5 83 34.5z" />
    <glyph glyph-name="tilde" unicode="&#x2dc;" horiz-adv-x="968" 
d="M803.5 1374c-19 -36.667 -45.0029 -65 -78.0029 -85s-69.5 -30 -109.5 -30c-31.333 0 -57.666 4.33301 -78.999 13s-44.666 21.334 -69.999 38.001c-22 14.667 -41.333 25.667 -58 33s-37 11 -61 11c-28 0 -51.5 -10.833 -70.5 -32.5s-28.5 -48.167 -28.5 -79.5l-125 7
c0 47.333 9.33301 89.666 28 126.999s44.334 66.5 77.001 87.5s69.334 31.5 110.001 31.5c25.333 0 47.833 -4 67.5 -12s43.5 -20.333 71.5 -37c24 -15.333 45.667 -27 65 -35s40.666 -12 63.999 -12c28 0 51.667 10.833 71 32.5s29 48.5 29 80.5l125 -12
c0 -47.333 -9.5 -89.333 -28.5 -126z" />
    <glyph glyph-name="gravecomb" unicode="&#x300;" horiz-adv-x="0" 
d="M-600 1243l-259 293h226l193 -293h-160z" />
    <glyph glyph-name="acutecomb" unicode="&#x301;" horiz-adv-x="0" 
d="M-240 1536l-269 -293h-150l194 293h225z" />
    <glyph glyph-name="tildecomb" unicode="&#x303;" horiz-adv-x="0" 
d="M-207.5 1374c-19 -36.667 -45.0039 -65 -78.0039 -85s-69.5 -30 -109.5 -30c-31.333 0 -57.666 4.33301 -78.999 13s-44.333 21.334 -69 38.001c-21.333 14.667 -40.666 25.667 -57.999 33s-37.666 11 -60.999 11c-28.667 0 -52.5 -10.833 -71.5 -32.5
s-28.5 -48.167 -28.5 -79.5l-125 7c0 47.333 9.5 89.666 28.5 126.999s44.833 66.5 77.5 87.5s69 31.5 109 31.5c25.333 0 48 -4 68 -12s44 -20.333 72 -37c25.333 -16 47.333 -27.833 66 -35.5s39.334 -11.5 62.001 -11.5c28 0 51.667 10.833 71 32.5s29 48.5 29 80.5
l125 -12c0 -47.333 -9.5 -89.333 -28.5 -126z" />
    <glyph glyph-name="alpha" unicode="&#x3b1;" horiz-adv-x="1158" 
d="M1144 13c-19.333 -13.333 -38.6709 -22.333 -58.0039 -27s-41.333 -7 -66 -7c-97.333 0 -158.666 54.667 -183.999 164c-72 -109.333 -177 -164 -315 -164c-87.333 0 -162.666 22 -225.999 66s-111.666 105.5 -144.999 184.5s-50 169.5 -50 271.5v21
c0 114.667 16.5 215.667 49.5 303s81.333 155.333 145 204s139.834 73 228.501 73c135.333 0 238.333 -53 309 -159l17 139h158v-787c0 -56.667 7.16699 -96 21.5 -118s33.833 -33 58.5 -33c8 0 19.333 1.66699 34 5zM719.495 178c41 32.667 74.499 78.001 100.499 136.001
v450c-56 125.333 -139.667 188 -251 188c-95.333 0 -166.166 -40.167 -212.499 -120.5s-69.5 -183.5 -69.5 -309.5v-21c0 -110.667 23 -200.334 69 -269.001s116.333 -103 211 -103c60.667 0 111.5 16.333 152.5 49z" />
    <glyph glyph-name="uni05B0" unicode="&#x5b0;" horiz-adv-x="0" 
d="M541.5 -295c-15 14 -22.5 31.333 -22.5 52s7.5 38 22.5 52s33.5 21 55.5 21c22.667 0 41.334 -6.83301 56.001 -20.5s22 -31.167 22 -52.5c0 -20.667 -7.33301 -38 -22 -52s-33.334 -21 -56.001 -21c-22 0 -40.5 7 -55.5 21zM541.5 -526c-15 14 -22.5 31.333 -22.5 52
s7.5 38 22.5 52s33.5 21 55.5 21c22.667 0 41.334 -6.83301 56.001 -20.5s22 -31.167 22 -52.5c0 -20.667 -7.33301 -38 -22 -52s-33.334 -21 -56.001 -21c-22 0 -40.5 7 -55.5 21z" />
    <glyph glyph-name="uni05B1" unicode="&#x5b1;" horiz-adv-x="0" 
d="M313.5 -295c-15 14 -22.5 31.333 -22.5 52s7.5 38 22.5 52s33.5 21 55.5 21c22.667 0 41.334 -6.83301 56.001 -20.5s22 -31.167 22 -52.5c0 -20.667 -7.33301 -38 -22 -52s-33.334 -21 -56.001 -21c-22 0 -40.5 7 -55.5 21zM541.5 -295c-15 14 -22.5 31.333 -22.5 52
s7.5 38 22.5 52s33.5 21 55.5 21c22.667 0 41.334 -6.83301 56.001 -20.5s22 -31.167 22 -52.5c0 -20.667 -7.33301 -38 -22 -52s-33.334 -21 -56.001 -21c-22 0 -40.5 7 -55.5 21zM771.5 -295c-15 14 -22.5 31.333 -22.5 52s7.5 38 22.5 52s33.833 21 56.5 21
c22 0 40.333 -7 55 -21s22 -31.333 22 -52s-7.33301 -38 -22 -52s-33 -21 -55 -21c-22.667 0 -41.5 7 -56.5 21zM427.5 -491.5c-15 13.667 -22.5 30.834 -22.5 51.501c0 21.333 7.5 39 22.5 53s33.833 21 56.5 21c22 0 40.5 -7.16699 55.5 -21.5s22.5 -31.833 22.5 -52.5
s-7.5 -37.834 -22.5 -51.501s-33.5 -20.5 -55.5 -20.5c-22.667 0 -41.5 6.83301 -56.5 20.5zM771.5 -526c-15 14 -22.5 31.333 -22.5 52s7.5 38 22.5 52s33.833 21 56.5 21c22 0 40.333 -7 55 -21s22 -31.333 22 -52s-7.33301 -38 -22 -52s-33 -21 -55 -21
c-22.667 0 -41.5 7 -56.5 21z" />
    <glyph glyph-name="uni05B2" unicode="&#x5b2;" horiz-adv-x="0" 
d="M761.5 -295c-15 14 -22.5 31.333 -22.5 52s7.5 38 22.5 52s33.833 21 56.5 21c22 0 40.5 -7 55.5 -21s22.5 -31.333 22.5 -52s-7.5 -38 -22.5 -52s-33.5 -21 -55.5 -21c-22.667 0 -41.5 7 -56.5 21zM301 -195h367v-94h-367v94zM761.5 -526c-15 14 -22.5 31.333 -22.5 52
s7.5 38 22.5 52s33.833 21 56.5 21c22 0 40.5 -7 55.5 -21s22.5 -31.333 22.5 -52s-7.5 -38 -22.5 -52s-33.5 -21 -55.5 -21c-22.667 0 -41.5 7 -56.5 21z" />
    <glyph glyph-name="uni05B3" unicode="&#x5b3;" horiz-adv-x="0" 
d="M761.5 -295c-15 14 -22.5 31.333 -22.5 52s7.5 38 22.5 52s33.833 21 56.5 21c22 0 40.5 -7 55.5 -21s22.5 -31.333 22.5 -52s-7.5 -38 -22.5 -52s-33.5 -21 -55.5 -21c-22.667 0 -41.5 7 -56.5 21zM432.5 -508.5c-15 14.333 -22.498 31.5 -22.498 51.5
c0 8.66699 1.16699 16.334 3.5 23.001s6.16602 15.334 11.499 26.001c8.66699 16 15.5 32.5 20.5 49.5s8.5 40.167 10.5 69.5h-156v94h371v-94h-152c2 -29.333 5.5 -52.5 10.5 -69.5s11.833 -33.5 20.5 -49.5c5.33301 -10.667 9.16602 -19.334 11.499 -26.001
s3.5 -14.334 3.5 -23.001c0 -20.667 -7.33301 -38 -22 -52s-33 -21 -55 -21s-40.5 7.16699 -55.5 21.5zM761.502 -526c-15 14 -22.5 31.333 -22.5 52s7.5 38 22.5 52s33.833 21 56.5 21c22 0 40.5 -7 55.5 -21s22.5 -31.333 22.5 -52s-7.5 -38 -22.5 -52
s-33.5 -21 -55.5 -21c-22.667 0 -41.5 7 -56.5 21z" />
    <glyph glyph-name="uni05B4" unicode="&#x5b4;" horiz-adv-x="0" 
d="M542 -294c-15.333 14.667 -23.001 31.667 -23.001 51c0 20.667 7.5 38 22.5 52s33.5 21 55.5 21c22.667 0 41.334 -6.83301 56.001 -20.5s22 -31.167 22 -52.5c0 -20.667 -7.33301 -38 -22 -52s-33.334 -21 -56.001 -21c-21.333 0 -39.666 7.33301 -54.999 22z" />
    <glyph glyph-name="uni05B5" unicode="&#x5b5;" horiz-adv-x="0" 
d="M428 -294c-15.333 14.667 -23 31.667 -23 51c0 20.667 7.5 38 22.5 52s33.833 21 56.5 21c22 0 40.5 -7 55.5 -21s22.5 -31.333 22.5 -52s-7.5 -38 -22.5 -52s-33.5 -21 -55.5 -21s-40.667 7.33301 -56 22zM655 -294c-15.333 14.667 -23 31.667 -23 51
c0 20.667 7.66699 38 23 52s34 21 56 21c22.667 0 41.334 -6.83301 56.001 -20.5s22 -31.167 22 -52.5c0 -20.667 -7.33301 -38 -22 -52s-33.334 -21 -56.001 -21c-22 0 -40.667 7.33301 -56 22z" />
    <glyph glyph-name="uni05B6" unicode="&#x5b6;" horiz-adv-x="0" 
d="M428 -294c-15.333 14.667 -23 31.667 -23 51c0 20.667 7.5 38 22.5 52s33.833 21 56.5 21c22 0 40.5 -7 55.5 -21s22.5 -31.333 22.5 -52s-7.5 -38 -22.5 -52s-33.5 -21 -55.5 -21s-40.667 7.33301 -56 22zM655 -294c-15.333 14.667 -23 31.667 -23 51
c0 20.667 7.66699 38 23 52s34 21 56 21c22.667 0 41.334 -6.83301 56.001 -20.5s22 -31.167 22 -52.5c0 -20.667 -7.33301 -38 -22 -52s-33.334 -21 -56.001 -21c-22 0 -40.667 7.33301 -56 22zM541.5 -491.5c-15 13.667 -22.5 30.834 -22.5 51.501s7.5 38.167 22.5 52.5
s33.5 21.5 55.5 21.5c22.667 0 41.334 -7 56.001 -21s22 -31.667 22 -53c0 -20.667 -7.33301 -37.834 -22 -51.501s-33.334 -20.5 -56.001 -20.5c-22 0 -40.5 6.83301 -55.5 20.5z" />
    <glyph glyph-name="uni05B7" unicode="&#x5b7;" horiz-adv-x="0" 
d="M395 -195h404v-94h-404v94z" />
    <glyph glyph-name="uni05B8" unicode="&#x5b8;" horiz-adv-x="0" 
d="M544 -513c-15.333 14.667 -22.998 31.665 -22.998 50.998c0 8.66699 1.16699 16.334 3.5 23.001s6.16602 15.334 11.499 26.001c8.66699 16.667 15.667 33.834 21 51.501s9 41.834 11 72.501h-159v94h377v-94h-155c2 -30.667 5.66699 -54.834 11 -72.501
s12.333 -34.834 21 -51.501c5.33301 -11.333 9.16602 -20 11.499 -26s3.5 -13.667 3.5 -23c0 -20.667 -7.5 -38 -22.5 -52s-33.5 -21 -55.5 -21s-40.667 7.33301 -56 22z" />
    <glyph glyph-name="uni05B9" unicode="&#x5b9;" horiz-adv-x="0" 
d="M205 1352.5c-15.333 14.333 -23 31.168 -23 50.501c0 20.667 7.5 38 22.5 52s33.833 21 56.5 21s41.5 -7 56.5 -21s22.5 -31.333 22.5 -52s-7.5 -37.834 -22.5 -51.501s-33.833 -20.5 -56.5 -20.5c-22 0 -40.667 7.16699 -56 21.5z" />
    <glyph glyph-name="uni05BA" unicode="&#x5ba;" horiz-adv-x="0" 
d="M205 1352.5c-15.333 14.333 -23 31.168 -23 50.501c0 20.667 7.5 38 22.5 52s33.833 21 56.5 21s41.5 -7 56.5 -21s22.5 -31.333 22.5 -52s-7.5 -37.834 -22.5 -51.501s-33.833 -20.5 -56.5 -20.5c-22 0 -40.667 7.16699 -56 21.5z" />
    <glyph glyph-name="uni05BB" unicode="&#x5bb;" horiz-adv-x="0" 
d="M543 -294c-15.333 14.667 -23.001 31.667 -23.001 51c0 20.667 7.5 38 22.5 52s33.5 21 55.5 21c22.667 0 41.334 -6.83301 56.001 -20.5s22 -31.167 22 -52.5c0 -20.667 -7.33301 -38 -22 -52s-33.334 -21 -56.001 -21c-21.333 0 -39.666 7.33301 -54.999 22z
M667.999 -479.5c-15.333 14.333 -23 31.168 -23 50.501c0 21.333 7.5 39 22.5 53s33.833 21 56.5 21c22 0 40.5 -7.16699 55.5 -21.5s22.5 -31.833 22.5 -52.5s-7.5 -37.834 -22.5 -51.501s-33.5 -20.5 -55.5 -20.5s-40.667 7.16699 -56 21.5zM793.999 -664.998
c-15.333 14.667 -23.001 31.667 -23.001 51c0 20.667 7.5 38.167 22.5 52.5s33.5 21.5 55.5 21.5c22.667 0 41.334 -7 56.001 -21s22 -31.667 22 -53c0 -20.667 -7.33301 -38 -22 -52s-33.334 -21 -56.001 -21c-21.333 0 -39.666 7.33301 -54.999 22z" />
    <glyph glyph-name="uni05BC" unicode="&#x5bc;" horiz-adv-x="0" 
d="M260.5 547c-15 14.667 -22.5 32 -22.5 52c0 20.667 7.5 38 22.5 52s33.5 21 55.5 21c22.667 0 41.5 -7 56.5 -21s22.5 -31.333 22.5 -52c0 -21.333 -7.5 -39 -22.5 -53s-33.833 -21 -56.5 -21c-22 0 -40.5 7.33301 -55.5 22z" />
    <glyph glyph-name="uni05BE" unicode="&#x5be;" horiz-adv-x="517" 
d="M60 1029v149h397v-149h-397z" />
    <glyph glyph-name="uni05BF" unicode="&#x5bf;" horiz-adv-x="0" 
d="M240 1464h487v-107h-487v107z" />
    <glyph glyph-name="uni05C1" unicode="&#x5c1;" horiz-adv-x="0" 
d="M1272 1352.5c-15.333 14.333 -23 31.168 -23 50.501c0 20.667 7.5 38 22.5 52s33.833 21 56.5 21c22 0 40.5 -7 55.5 -21s22.5 -31.333 22.5 -52s-7.5 -37.834 -22.5 -51.501s-33.5 -20.5 -55.5 -20.5s-40.667 7.16699 -56 21.5z" />
    <glyph glyph-name="uni05C2" unicode="&#x5c2;" horiz-adv-x="0" 
d="M182.5 1352.5c-15 14.333 -22.5 31.168 -22.5 50.501c0 20.667 7.5 38 22.5 52s33.5 21 55.5 21c22.667 0 41.5 -7 56.5 -21s22.5 -31.333 22.5 -52s-7.5 -37.834 -22.5 -51.501s-33.833 -20.5 -56.5 -20.5c-22 0 -40.5 7.16699 -55.5 21.5z" />
    <glyph glyph-name="uni05C7" unicode="&#x5c7;" horiz-adv-x="0" 
d="M545 -541c-15.333 14.667 -23.001 31.667 -23.001 51c0 8.66699 1 16.167 3 22.5s5.33301 14.833 10 25.5c8.66699 17.333 15.834 37 21.501 59s9.5 53 11.5 93h-148v96h358v-96h-145c2 -39.333 5.83301 -70 11.5 -92s13.167 -42 22.5 -60
c4.66699 -10.667 8 -19.167 10 -25.5s3 -13.833 3 -22.5c0 -20.667 -7.5 -38 -22.5 -52s-33.833 -21 -56.5 -21c-22 0 -40.667 7.33301 -56 22z" />
    <glyph glyph-name="uni05D0" unicode="&#x5d0;" horiz-adv-x="1314" 
d="M840 515l372.999 -514.999h-207l-525 724c-71.333 -44.667 -107 -121.334 -107 -230.001v-494h-180v427c0 102 17.333 185.5 52 250.5s88.334 114.167 161.001 147.5l-255 353h208l365 -504l284 504h209z" />
    <glyph glyph-name="uni05D1" unicode="&#x5d1;" horiz-adv-x="1079" 
d="M1029 142l0.000976562 -141.999h-968v150h640v589c0 102 -22.833 175.833 -68.5 221.5s-119.834 68.5 -222.501 68.5h-285v149h295c154 0 270.167 -37.333 348.5 -112s117.5 -185.334 117.5 -332.001v-577z" />
    <glyph glyph-name="uni05D2" unicode="&#x5d2;" horiz-adv-x="792" 
d="M20 -5v170.999c18 -2.66699 37.333 -4 58 -4c96 2.66699 174 31.834 234 87.501s98.333 127.167 115 214.5v565h-266v149h449v-608c0 -62 6.33301 -122 19 -180l82 -390h-175l-69 330h-7c-8 -59.333 -30.333 -115 -67 -167s-83.5 -93.5 -140.5 -124.5
s-118.833 -46.5 -185.5 -46.5c-21.333 0 -37 1 -47 3z" />
    <glyph glyph-name="uni05D3" unicode="&#x5d3;" horiz-adv-x="1067" 
d="M1003 1178v-149h-197v-1029h-186v1029h-560v149h943z" />
    <glyph glyph-name="uni05D4" unicode="&#x5d4;" horiz-adv-x="1204" 
d="M866 739c0 102 -23 175.834 -69 221.501s-120 68.5 -222 68.5h-427v149h436c154 0 270.5 -37.333 349.5 -112s118.5 -185.334 118.5 -332.001v-734h-186v739zM150 402.001c0 60.667 4.5 108.5 13.5 143.5s21.833 70.167 38.5 105.5h152c-8 -30.667 -14 -64.667 -18 -102
s-6 -82.333 -6 -135v-414h-180v402z" />
    <glyph glyph-name="uni05D5" unicode="&#x5d5;" horiz-adv-x="604" 
d="M237 1029h-137v149h323v-1178h-186v1029z" />
    <glyph glyph-name="uni05D6" unicode="&#x5d6;" horiz-adv-x="724" 
d="M159 1021l-83 14v143h572l-1 -149h-304l167 -1029h-191z" />
    <glyph glyph-name="uni05D7" unicode="&#x5d7;" horiz-adv-x="1243" 
d="M182 1178h442.999c156 0 272.333 -37.167 349 -111.5s115.334 -187.5 116.001 -339.5v-727h-185v738c0 102 -22 176 -66 222s-114.667 69 -212 69h-260l-1 -1029h-185z" />
    <glyph glyph-name="uni05D8" unicode="&#x5d8;" horiz-adv-x="1263" 
d="M405.5 37c-71 39.333 -126.165 94.666 -165.498 165.999s-59 154 -59 248v727h185v-740c0 -62 11.833 -116.5 35.5 -163.5s57 -83.5 100 -109.5s92.833 -39 149.5 -39c56 0 105.5 13 148.5 39s76.333 62.5 100 109.5s35.5 101.5 35.5 163.5v395
c0 64 -14.167 113.5 -42.5 148.5s-68.5 52.5 -120.5 52.5c-43.333 0 -91.333 -12.667 -144 -38l-29 124c33.333 21.333 70.166 38.166 110.499 50.499s79.166 18.5 116.499 18.5c60.667 0 113.167 -13.667 157.5 -41s78.333 -66.666 102 -117.999s35.5 -112 35.5 -182v-397
c0 -94 -19.5 -176.667 -58.5 -248s-93.833 -126.666 -164.5 -165.999s-152.667 -59 -246 -59s-175.5 19.667 -246.5 59z" />
    <glyph glyph-name="uni05D9" unicode="&#x5d9;" horiz-adv-x="618" 
d="M271 1029h-216v149h402v-657h-186v508z" />
    <glyph glyph-name="uni05DA" unicode="&#x5da;" horiz-adv-x="1014" 
d="M651 1029h-586v149h769v-1594h-183v1445z" />
    <glyph glyph-name="uni05DB" unicode="&#x5db;" horiz-adv-x="1101" 
d="M81 36l30.001 139.002c106 -28.667 200 -43 282 -43c111.333 0 196.166 27.167 254.499 81.5s87.5 132.166 87.5 233.499v582h-613v149h798v-691c0 -166.667 -44.333 -292.334 -133 -377.001s-212 -127 -370 -127c-100.667 0 -212.667 17.667 -336 53z" />
    <glyph glyph-name="uni05DC" unicode="&#x5dc;" horiz-adv-x="1052" 
d="M978 1061l-432 -1061h-199l427 1029h-691v507h185v-358h710v-117z" />
    <glyph glyph-name="uni05DD" unicode="&#x5dd;" horiz-adv-x="1301" 
d="M180 1178h940v-1178h-940v1178zM935 150v879h-570v-879h570z" />
    <glyph glyph-name="uni05DE" unicode="&#x5de;" horiz-adv-x="1299" 
d="M261 749c6.66699 54.667 22.1641 106.165 46.4971 154.498s52.833 85.5 85.5 111.5c2.66699 2 9.33398 6.66699 20.001 14l-2 3c-30 -5.33301 -67.5 -13.833 -112.5 -25.5s-86.167 -23.834 -123.5 -36.501l-43 140c77.333 26.667 164 48.334 260 65.001
s184.333 25 265 25c158.667 0 279.834 -42.167 363.501 -126.5s125.834 -208.166 126.501 -371.499v-702h-485v149h300v574c0 104.667 -23.667 184.334 -71 239.001s-116 82 -206 82c-64.667 0 -118.667 -24.833 -162 -74.5s-70 -117.167 -80 -202.5l-89 -767h-183z" />
    <glyph glyph-name="uni05DF" unicode="&#x5df;" horiz-adv-x="589" 
d="M225 1029h-139v149h322v-1594h-183v1445z" />
    <glyph glyph-name="uni05E0" unicode="&#x5e0;" horiz-adv-x="742" 
d="M60 2l5 145.001c43.333 -8.66699 92 -13 146 -13c54.667 0 95.667 15.667 123 47s41 79.666 41 144.999v703h-231v149h417v-867c0 -108 -26.667 -190.167 -80 -246.5s-130 -84.5 -230 -84.5c-61.333 0 -125 7.33301 -191 22z" />
    <glyph glyph-name="uni05E1" unicode="&#x5e1;" horiz-adv-x="1305" 
d="M409.5 45.5c-75 45 -133.501 108.334 -175.501 190.001s-63.333 176.167 -64 283.5v120c0 51.333 7.16699 102.333 21.5 153s34.166 96.167 59.499 136.5s54 71.166 86 92.499c5.33301 4 10 6.66699 14 8l-1 3c-35.333 -4 -105.666 -20.333 -210.999 -49l-36 140
c78 23.333 166 42 264 56s188.333 21 271 21c109.333 0 203.5 -21.5 282.5 -64.5s139.667 -105 182 -186s63.5 -177.5 63.5 -289.5v-141c0 -107.333 -20.667 -201.833 -62 -283.5s-99.666 -145 -174.999 -190s-162.333 -67.5 -261 -67.5c-97.333 0 -183.5 22.5 -258.5 67.5z
M832.499 182.501c47.667 31.667 84.5 76.502 110.5 134.502s39 125 39 201v140c0 78.667 -13.167 147.167 -39.5 205.5s-64 103 -113 134s-106.5 46.5 -172.5 46.5c-59.333 0 -111.5 -15.833 -156.5 -47.5s-80 -77.334 -105 -137.001s-38.167 -129.834 -39.5 -210.501v-131
c0 -76 13 -143 39 -201s62.5 -102.833 109.5 -134.5s101.5 -47.5 163.5 -47.5s116.833 15.833 164.5 47.5z" />
    <glyph glyph-name="uni05E2" unicode="&#x5e2;" horiz-adv-x="1185" 
d="M1004 1178v-705.999c0 -106 -21.833 -196.167 -65.5 -270.5s-105 -130.666 -184 -168.999s-170.5 -57.5 -274.5 -57.5c-134 0 -273.667 27.667 -419 83l45 138c116 -44.667 220.333 -70 313 -76c-49.333 57.333 -82.333 123.666 -99 198.999l-195 859h186l191 -869
c8.66699 -40.667 17.667 -75 27 -103s21 -53.667 35 -77c80 18 142.5 55.667 187.5 113s67.5 131.666 67.5 222.999v713h185z" />
    <glyph glyph-name="uni05E3" unicode="&#x5e3;" horiz-adv-x="1215" 
d="M1034 -416l-183.001 0.000976562v1445h-404c-21.333 -36.667 -38.666 -84 -51.999 -142s-20 -114.667 -20 -170v-136c15.333 -6.66699 35.333 -11.334 60 -14.001s57 -4 97 -4v-160c-82.667 0 -147.667 4.83301 -195 14.5s-95 27.167 -143 52.5l-3 197
c-1.33301 66.667 6.66699 133 24 199s41 120.333 71 163h-143v149h891v-1594z" />
    <glyph glyph-name="uni05E4" unicode="&#x5e4;" horiz-adv-x="1284" 
d="M397 -3c-68.667 11.333 -134.668 28.002 -198.001 50.002l36 139c58.667 -18 118.167 -31.5 178.5 -40.5s114.5 -13.5 162.5 -13.5c109.333 1.33301 193.666 29 252.999 83s89 131.333 89 232v582h-472c-21.333 -36.667 -38.5 -83.167 -51.5 -139.5
s-19.5 -112.5 -19.5 -168.5v-90c14.667 -6.66699 34.334 -11.334 59.001 -14.001s57 -4 97 -4v-160c-82.667 0 -147.667 4.83301 -195 14.5s-94.666 27.167 -141.999 52.5l-4 152c0 67.333 8.5 133.166 25.5 197.499s40.167 117.5 69.5 159.5h-143v149h961v-696
c0 -110.667 -21.667 -203.5 -65 -278.5s-103.5 -131 -180.5 -168s-166.5 -55.5 -268.5 -55.5c-59.333 0 -123.333 5.66699 -192 17z" />
    <glyph glyph-name="uni05E5" unicode="&#x5e5;" horiz-adv-x="1096" 
d="M713 506c20 -28.667 34.5 -59.833 43.5 -93.5s13.5 -72.167 13.5 -115.5v-713h-175v730c0 52.667 -12.667 97.667 -38 135l-498 729h209l312 -477l263 477h209l-363 -637z" />
    <glyph glyph-name="uni05E6" unicode="&#x5e6;" horiz-adv-x="1119" 
d="M691 543l311 -449v-94h-872v150h633l-704 1028h209l314 -474l261 474h209z" />
    <glyph glyph-name="uni05E7" unicode="&#x5e7;" horiz-adv-x="1273" 
d="M577 146c66 2 123.668 16.667 173.001 44s87.666 65.833 114.999 115.5s41 108.5 41 176.5v547h-727v149h913v-692c0 -98 -21.167 -183.167 -63.5 -255.5s-102.333 -128.333 -180 -168s-168.167 -60.5 -271.5 -62.5v146zM202.001 442c0 60 4.50098 107.333 13.501 142
s21.833 69.667 38.5 105h152c-8.66699 -30 -14.834 -63.333 -18.501 -100s-5.5 -82 -5.5 -136v-869h-180v858z" />
    <glyph glyph-name="uni05E8" unicode="&#x5e8;" horiz-adv-x="1005" 
d="M667 822c0 64 -18.834 114.498 -56.501 151.498s-89.167 55.5 -154.5 55.5h-396v149h402c80.667 0 150.334 -14.667 209.001 -44s103.5 -71.666 134.5 -126.999s46.5 -121.666 46.5 -198.999v-808h-185v822z" />
    <glyph glyph-name="uni05E9" unicode="&#x5e9;" horiz-adv-x="1626" 
d="M361 209c64 -27.333 131.334 -48.667 202.001 -64s138 -23 202 -23c96 0 181.667 13.833 257 41.5s134.666 69.667 177.999 126s65 125.833 65 208.5v680h180v-697c0 -110.667 -29.833 -204.167 -89.5 -280.5s-140.167 -133.5 -241.5 -171.5s-214.666 -57 -339.999 -57
c-97.333 0 -197.333 11.5 -300 34.5s-200.334 56.833 -293.001 101.5v1070h180v-969zM700.001 432.499c12.667 45.667 19 98.832 19 159.499v586h181v-553c0 -68 -8.33301 -127.167 -25 -177.5s-42.334 -93.166 -77.001 -128.499l-154 6
c24.667 26 43.334 61.833 56.001 107.5z" />
    <glyph glyph-name="uni05EA" unicode="&#x5ea;" horiz-adv-x="1279" 
d="M1011.5 1066.5c77 -74.333 115.5 -187.501 115.5 -339.501v-727h-185l-1 738c0 102 -21.833 176 -65.5 222s-114.167 69 -211.5 69h-167c-22 -36 -39.5 -82.167 -52.5 -138.5s-19.5 -114.166 -19.5 -173.499v-397c0 -108 -25.667 -190 -77 -246s-126 -84 -224 -84
c-28.667 0 -67 3 -115 9v149c21.333 -2.66699 44.333 -4 69 -4c58 0 100.167 15 126.5 45s39.5 77.333 39.5 142v372c0 60.667 8 121.167 24 181.5s38 108.5 66 144.5h-221v149h549c156 0 272.5 -37.167 349.5 -111.5z" />
    <glyph glyph-name="uni05F0" unicode="&#x5f0;" horiz-adv-x="1207" 
d="M840 1029h-137v149h323v-1178h-186v1029zM237 1029h-137v149h323v-1178h-186v1029z" />
    <glyph glyph-name="uni05F1" unicode="&#x5f1;" horiz-adv-x="1222" 
d="M875 1029h-216v149h402v-657h-186v508zM237 1029h-137v149h323v-1178h-186v1029z" />
    <glyph glyph-name="uni05F2" unicode="&#x5f2;" horiz-adv-x="1237" 
d="M890 1029h-216v149h402v-657h-186v508zM271 1029h-216v149h402v-657h-186v508z" />
    <glyph glyph-name="uni05F3" unicode="&#x5f3;" horiz-adv-x="343" 
d="M15 952c62.667 84 93.999 176.666 93.999 277.999v195h169l-1 -181c0 -66 -13.667 -129.667 -41 -191s-63.666 -112.666 -108.999 -153.999z" />
    <glyph glyph-name="uni05F4" unicode="&#x5f4;" horiz-adv-x="672" 
d="M27 952c62.667 82.667 94.001 175.332 94.001 277.999v195h169v-181c0 -65.333 -13.833 -128.666 -41.5 -189.999s-63.834 -113 -108.501 -155zM329.001 951.998c62.667 82.667 94 175.333 94 278v195h169l-1 -181c0 -66 -13.667 -129.5 -41 -190.5
s-63.333 -112.5 -108 -154.5z" />
    <glyph glyph-name="uni1E9E" unicode="&#x1e9e;" horiz-adv-x="1323" 
d="M1109.5 722c81 -75.333 121.502 -180.001 121.502 -314.001c0 -89.333 -20.833 -166.166 -62.5 -230.499s-99.5 -113.5 -173.5 -147.5s-159.333 -51 -256 -51c-98 0 -191.667 16.667 -281 50l54 152c72 -34 147.667 -51 227 -51c63.333 0 118 11.5 164 34.5
s81.167 55.167 105.5 96.5s36.5 89 36.5 143c0 102 -27.333 177 -82 225s-137.334 72 -248.001 72h-147v146v4l307 373c-38.667 31.333 -80 56.166 -124 74.499s-96.667 27.5 -158 27.5c-100.667 0 -169.834 -32.5 -207.501 -97.5s-56.5 -154.5 -56.5 -268.5v-960h-186v962
c0 171.333 37.167 299.833 111.5 385.5s187.166 128.5 338.499 128.5c100.667 0 191.334 -19.833 272.001 -59.5s157.667 -94.5 231 -164.5l-332 -406c149.333 -7.33301 264.5 -48.666 345.5 -123.999z" />
    <glyph glyph-name="uni200C" unicode="&#x200c;" horiz-adv-x="0" 
d="M-527 1275v-1475h-117v1475h117z" />
    <glyph glyph-name="uni200D" unicode="&#x200d;" horiz-adv-x="0" 
d="M-498 1227l182 -185l-87 -87l-127 129v-1284h-116v1276l-118 -121l-88 87l182 185l-182 186l87 87l181 -185l182 185l86 -87z" />
    <glyph glyph-name="uni200E" unicode="&#x200e;" horiz-adv-x="0" 
d="M-207 1216l-248 -222h-165l190 164h-268v-1358h-117v1475h396l-192 181h166z" />
    <glyph glyph-name="uni200F" unicode="&#x200f;" horiz-adv-x="0" 
d="M-268 -200h-117v1358h-269l191 -164h-165l-248 222l238 240h166l-192 -181h396v-1475z" />
    <glyph glyph-name="endash" unicode="&#x2013;" horiz-adv-x="1344" 
d="M162 652v150h1002v-150h-1002z" />
    <glyph glyph-name="emdash" unicode="&#x2014;" horiz-adv-x="1599" 
d="M145 652v150h1336v-150h-1336z" />
    <glyph glyph-name="quoteleft" unicode="&#x2018;" horiz-adv-x="411" 
d="M143 1389.5c31.333 67 74.333 122.499 129 166.499l106 -72c-32.667 -45.333 -57 -91.166 -73 -137.499s-24 -95.833 -24 -148.5v-124h-185v121c0 62.667 15.667 127.5 47 194.5z" />
    <glyph glyph-name="quoteright" unicode="&#x2019;" horiz-adv-x="411" 
d="M282 1213.5c-31.333 -67 -74 -122.501 -128 -166.501l-106 72c32 44.667 56 90.334 72 137.001s24 96.667 24 150v130h185v-128c0 -62.667 -15.667 -127.5 -47 -194.5z" />
    <glyph glyph-name="quotesinglbase" unicode="&#x201a;" horiz-adv-x="409" 
d="M270 -115.5c-31.333 -67 -74 -122.502 -128 -166.502l-106 72c32 44.667 55.833 90.334 71.5 137.001s23.5 96.334 23.5 149.001v107h186v-104c0 -62.667 -15.667 -127.5 -47 -194.5z" />
    <glyph glyph-name="quotedblleft" unicode="&#x201c;" horiz-adv-x="727" 
d="M152 1389.5c31.333 67 74.333 122.499 129 166.499l106 -72c-32.667 -45.333 -57 -91.166 -73 -137.499s-24 -95.833 -24 -148.5v-124h-185v121c0 62.667 15.667 127.5 47 194.5zM468 1389.5c31.333 67 74.333 122.499 129 166.499l106 -72
c-32.667 -45.333 -57 -91.166 -73 -137.499s-24 -95.833 -24 -148.5v-124h-185v121c0 62.667 15.667 127.5 47 194.5z" />
    <glyph glyph-name="quotedblright" unicode="&#x201d;" horiz-adv-x="734" 
d="M294 1213.5c-31.333 -67 -74 -122.501 -128 -166.501l-106 72c32 44.667 56 90.334 72 137.001s24 96.667 24 150v130h185v-128c0 -62.667 -15.667 -127.5 -47 -194.5zM602 1213.5c-31.333 -67 -74 -122.501 -128 -166.501l-106 72c32 44.667 56 90.334 72 137.001
s24 96.667 24 150v130h185v-128c0 -62.667 -15.667 -127.5 -47 -194.5z" />
    <glyph glyph-name="quotedblbase" unicode="&#x201e;" horiz-adv-x="709" 
d="M270 -125.5c-31.333 -70.333 -74 -128.499 -128 -174.499l-106 72c32 47.333 55.833 95.666 71.5 144.999s23.5 102.333 23.5 159v170h186v-167c0 -66 -15.667 -134.167 -47 -204.5zM568 -125.499c-31.333 -70.333 -74 -128.499 -128 -174.499l-106 72
c31.333 47.333 54.833 95.666 70.5 144.999s23.5 102.333 23.5 159v170h187v-167c0 -66 -15.667 -134.167 -47 -204.5z" />
    <glyph glyph-name="bullet" unicode="&#x2022;" horiz-adv-x="691" 
d="M164 874c16.667 30 40.334 53.5 71.001 70.5s66.334 25.5 107.001 25.5c42 0 78.5 -8.5 109.5 -25.5s54.667 -40.333 71 -70s24.5 -63.834 24.5 -102.501v-40c0 -58.667 -18.333 -106 -55 -142s-86.334 -54 -149.001 -54c-41.333 0 -77.333 8.33301 -108 25
s-54.334 39.834 -71.001 69.501s-25 63.5 -25 101.5v40c0 38 8.33301 72 25 102z" />
    <glyph glyph-name="ellipsis" unicode="&#x2026;" horiz-adv-x="1371" 
d="M347.5 177.5c20.333 -21 30.5 -47.832 30.5 -80.499c0 -32 -10.167 -58 -30.5 -78s-48.833 -30 -85.5 -30c-36 0 -64.167 10.167 -84.5 30.5s-30.5 46.166 -30.5 77.499c0 32.667 10.167 59.5 30.5 80.5s48.5 31.5 84.5 31.5c36.667 0 65.167 -10.5 85.5 -31.5z
M785.5 177.501c20.333 -21 30.5 -47.832 30.5 -80.499c0 -32 -10.167 -58 -30.5 -78s-48.833 -30 -85.5 -30c-36 0 -64.167 10.167 -84.5 30.5s-30.5 46.166 -30.5 77.499c0 32.667 10.167 59.5 30.5 80.5s48.5 31.5 84.5 31.5c36.667 0 65.167 -10.5 85.5 -31.5z
M1201.5 177.502c20.333 -21 30.5 -47.832 30.5 -80.499c0 -32 -10.167 -58 -30.5 -78s-48.833 -30 -85.5 -30c-36 0 -64.167 10.167 -84.5 30.5s-30.5 46.166 -30.5 77.499c0 32.667 10.167 59.5 30.5 80.5s48.5 31.5 84.5 31.5c36.667 0 65.167 -10.5 85.5 -31.5z" />
    <glyph glyph-name="guilsinglleft" unicode="&#x2039;" horiz-adv-x="615" 
d="M288 551l258 -397h-143l-295 388v13v6l295 388h143z" />
    <glyph glyph-name="guilsinglright" unicode="&#x203a;" horiz-adv-x="615" 
d="M527 560v-13v-6l-295 -388h-142l257 398l-257 398h142z" />
    <glyph glyph-name="fraction" unicode="&#x2044;" horiz-adv-x="931" 
d="M60 177l711 1138l105 -66l-711 -1138z" />
    <glyph glyph-name="uni2070" unicode="&#x2070;" 
d="M591.5 740.5c-52.333 -56.333 -123.833 -84.5 -214.5 -84.5c-92 0 -164.5 28.167 -217.5 84.5s-79.5 140.166 -79.5 251.499v139c0 110.667 26.333 194.334 79 251.001s124.667 85 216 85s163.333 -28.333 216 -85s79 -140.334 79 -251.001v-139
c0 -111.333 -26.167 -195.166 -78.5 -251.499zM375 1339c-90.667 0 -136 -64.667 -136 -194v-166c0 -130.667 46 -196 138 -196c90 0 135 65.333 135 196v166c0 129.333 -45.667 194 -137 194z" />
    <glyph glyph-name="uni2074" unicode="&#x2074;" 
d="M700 837h-107v-170h-159v170h-373l-7 101l377 518h125h37v-490h107v-129zM434 966v288l-15 -26l-206 -262h221z" />
    <glyph glyph-name="uni2075" unicode="&#x2075;" 
d="M162 1456l479.001 0.00195312v-130h-348l-23 -172c16.667 7.33301 37.167 14 61.5 20s50.166 9 77.499 9c85.333 0 151.833 -22.833 199.5 -68.5s71.5 -108.834 71.5 -189.501c0 -49.333 -10.833 -94.333 -32.5 -135s-54.5 -73.167 -98.5 -97.5s-98.333 -36.5 -163 -36.5
c-50.667 0 -98 9 -142 27s-79.833 44.167 -107.5 78.5s-42.834 74.833 -45.501 121.5h156c4 -33.333 18.167 -58.333 42.5 -75s56.5 -25 96.5 -25c46 0 80 13.167 102 39.5s33 61.166 33 104.499c0 42.667 -13.167 76.667 -39.5 102s-63.166 38 -110.499 38
c-32.667 0 -58 -3.66699 -76 -11s-36.667 -18 -56 -32l-127 31z" />
    <glyph glyph-name="uni2076" unicode="&#x2076;" 
d="M570 1156.5c38 -23 66.5 -54.3301 85.5 -93.9971s28.5 -84.834 28.5 -135.501c0 -51.333 -11.833 -97.5 -35.5 -138.5s-57.667 -73.333 -102 -97s-95.833 -35.5 -154.5 -35.5c-62 0 -116 12.667 -162 38s-81.5 61.666 -106.5 108.999s-37.5 102.666 -37.5 165.999v56
c0 140 38.167 248.5 114.5 325.5s186.5 115.5 330.5 115.5h22v-130h-11c-181.333 0 -280 -74 -296 -222c22.667 23.333 49.667 42 81 56s66 21 104 21c54.667 0 101 -11.5 139 -34.5zM488.5 823.503c25 27 37.5 61.167 37.5 102.5c0 42 -12 75.5 -36 100.5
s-58 37.5 -102 37.5c-32 0 -61 -7.16699 -87 -21.5s-45 -32.166 -57 -53.499v-35c0 -54.667 13.333 -96.834 40 -126.501s61.667 -44.5 105 -44.5c41.333 0 74.5 13.5 99.5 40.5z" />
    <glyph glyph-name="uni2077" unicode="&#x2077;" 
d="M329 667h-167l349 661h-452v128h619v-89z" />
    <glyph glyph-name="uni2078" unicode="&#x2078;" 
d="M635 997c24.667 -32.667 37 -70.668 37 -114.001c0 -48.667 -12.833 -90 -38.5 -124s-60.834 -59.667 -105.501 -77s-95.334 -26 -152.001 -26s-107.5 8.66699 -152.5 26s-80.333 43 -106 77s-38.5 75.333 -38.5 124c0 43.333 12.333 81.333 37 114
s58.667 58.334 102 77.001c-37.333 17.333 -66.5 40.833 -87.5 70.5s-31.5 63.834 -31.5 102.501c0 69.333 25.333 123.333 76 162s117.334 58 200.001 58c54 0 101.833 -8.5 143.5 -25.5s74.334 -42.167 98.001 -75.5s35.5 -73 35.5 -119
c0 -38.667 -10.5 -72.834 -31.5 -102.501s-50.167 -53.5 -87.5 -71.5c43.333 -18 77.333 -43.333 102 -76zM288.5 1312.5c-21 -18.333 -31.5 -43.168 -31.5 -74.501s10.667 -56.333 32 -75s50.333 -28 87 -28c36 0 64.667 9.33301 86 28s32 43.667 32 75
c0 30.667 -10.833 55.334 -32.5 74.001s-50.5 28 -86.5 28c-36.667 0 -65.5 -9.16699 -86.5 -27.5zM476 812.997c25.333 20 38.001 47.333 38.001 82c0 34 -12.833 61 -38.5 81s-59.167 30 -100.5 30c-42 0 -75.333 -10 -100 -30s-37 -47 -37 -81
c0 -34.667 12.5 -62 37.5 -82s58.5 -30 100.5 -30c41.333 0 74.666 10 99.999 30z" />
    <glyph glyph-name="uni2079" unicode="&#x2079;" 
d="M583.5 1382c52.333 -56.667 78.4971 -135.668 78.4971 -237.001v-52c0 -141.333 -36 -248.833 -108 -322.5s-182 -110.5 -330 -110.5h-15v126h14c90 0 157.333 16.333 202 49s70.334 83.334 77.001 152.001c-21.333 -20 -46.666 -35.833 -75.999 -47.5
s-60.666 -17.5 -93.999 -17.5c-55.333 0 -102.333 11.167 -141 33.5s-68 53.333 -88 93s-30 85.5 -30 137.5c0 51.333 12 98.333 36 141s58.333 76.667 103 102s96 38 154 38c92.667 0 165.167 -28.333 217.5 -85zM451.497 1063.5c23.667 13.667 41.167 30.835 52.5 51.502
v59c0 53.333 -12.667 94.166 -38 122.499s-58.666 42.5 -99.999 42.5c-40.667 0 -73.334 -14.833 -98.001 -44.5s-37 -65.834 -37 -108.501c0 -42 11.833 -76.333 35.5 -103s57.5 -40 101.5 -40c32 0 59.833 6.83301 83.5 20.5z" />
    <glyph glyph-name="uni2080" unicode="&#x2080;" 
d="M591.5 -294.5c-52.333 -56.333 -123.833 -84.5 -214.5 -84.5c-92 0 -164.5 28.167 -217.5 84.5s-79.5 140.166 -79.5 251.499v139c0 110.667 26.333 194.334 79 251.001s124.667 85 216 85s163.333 -28.333 216 -85s79 -140.334 79 -251.001v-139
c0 -111.333 -26.167 -195.166 -78.5 -251.499zM375 304c-90.667 0 -136 -64.667 -136 -194v-166c0 -130.667 46 -196 138 -196c90 0 135 65.333 135 196v166c0 129.333 -45.667 194 -137 194z" />
    <glyph glyph-name="uni2081" unicode="&#x2081;" 
d="M338 -367v603l-215 -58v128l355 116h18v-789h-158z" />
    <glyph glyph-name="uni2082" unicode="&#x2082;" 
d="M84 -367l0.000976562 108.002l289 271c42.667 40 73.334 74.667 92.001 104s28 55.666 28 78.999c0 33.333 -10.833 60.166 -32.5 80.499s-51.834 30.5 -90.501 30.5c-48 0 -84.167 -12.333 -108.5 -37s-36.5 -57 -36.5 -97h-159c0 48 12.167 91.833 36.5 131.5
s59.166 71.167 104.499 94.5s98.333 35 159 35c59.333 0 110.5 -9.5 153.5 -28.5s75.833 -46.333 98.5 -82s34 -77.5 34 -125.5c0 -34 -7.5 -66.167 -22.5 -96.5s-35.667 -60 -62 -89s-61.833 -63.833 -106.5 -104.5l-175 -147h398v-127h-600z" />
    <glyph glyph-name="uni2083" unicode="&#x2083;" 
d="M667 -147c0 -48 -13.1689 -89.334 -39.502 -124.001s-62.666 -61.167 -108.999 -79.5s-98.833 -27.5 -157.5 -27.5c-52.667 0 -101.667 8.5 -147 25.5s-81.833 43 -109.5 78s-41.5 78.167 -41.5 129.5h158c0 -30.667 13.5 -56 40.5 -76s61.833 -30 104.5 -30
c45.333 0 80.333 10.167 105 30.5s37 47.5 37 81.5c0 40.667 -13.5 70.167 -40.5 88.5s-66.167 27.5 -117.5 27.5h-85v77v38h85c47.333 0 83.333 10 108 30s37 46.667 37 80c0 31.333 -11 56.5 -33 75.5s-55 28.5 -99 28.5c-38 0 -69.333 -8.5 -94 -25.5
s-37 -39.833 -37 -68.5h-159c0 44 12.667 82.833 38 116.5s59.833 59.5 103.5 77.5s92.167 27 145.5 27c89.333 0 160.5 -19.5 213.5 -58.5s79.5 -94.167 79.5 -165.5c0 -37.333 -11.667 -71.166 -35 -101.499s-56.666 -53.5 -99.999 -69.5c99.333 -28 149 -89.667 149 -185
z" />
    <glyph glyph-name="uni2084" unicode="&#x2084;" 
d="M700 -197h-107v-170h-159v170h-373l-7 101l377 518h125h37v-490h107v-129zM434 -68v288l-15 -26l-206 -262h221z" />
    <glyph glyph-name="uni2085" unicode="&#x2085;" 
d="M162 422l479.001 0.00195312v-130h-348l-23 -172c16.667 7.33301 37.167 14 61.5 20s50.166 9 77.499 9c85.333 0 151.833 -22.833 199.5 -68.5s71.5 -108.834 71.5 -189.501c0 -49.333 -10.833 -94.333 -32.5 -135s-54.5 -73.167 -98.5 -97.5s-98.333 -36.5 -163 -36.5
c-50.667 0 -98 9 -142 27s-79.833 44.167 -107.5 78.5s-42.834 74.833 -45.501 121.5h156c4 -33.333 18.167 -58.333 42.5 -75s56.5 -25 96.5 -25c46 0 80 13.167 102 39.5s33 61.166 33 104.499c0 42.667 -13.167 76.667 -39.5 102s-63.166 38 -110.499 38
c-32.667 0 -58 -3.66699 -76 -11s-36.667 -18 -56 -32l-127 31z" />
    <glyph glyph-name="uni2086" unicode="&#x2086;" 
d="M570 122.5c38 -23 66.5 -54.3301 85.5 -93.9971s28.5 -84.834 28.5 -135.501c0 -51.333 -11.833 -97.5 -35.5 -138.5s-57.667 -73.333 -102 -97s-95.833 -35.5 -154.5 -35.5c-62 0 -116 12.667 -162 38s-81.5 61.666 -106.5 108.999s-37.5 102.666 -37.5 165.999v56
c0 140 38.167 248.5 114.5 325.5s186.5 115.5 330.5 115.5h22v-130h-11c-181.333 0 -280 -74 -296 -222c22.667 23.333 49.667 42 81 56s66 21 104 21c54.667 0 101 -11.5 139 -34.5zM488.5 -210.497c25 27 37.5 61.167 37.5 102.5c0 42 -12 75.5 -36 100.5
s-58 37.5 -102 37.5c-32 0 -61 -7.16699 -87 -21.5s-45 -32.166 -57 -53.499v-35c0 -54.667 13.333 -96.834 40 -126.501s61.667 -44.5 105 -44.5c41.333 0 74.5 13.5 99.5 40.5z" />
    <glyph glyph-name="uni2087" unicode="&#x2087;" 
d="M329 -367h-167l349 661h-452v128h619v-89z" />
    <glyph glyph-name="uni2088" unicode="&#x2088;" 
d="M635 -37c24.667 -32.667 37 -70.668 37 -114.001c0 -48.667 -12.833 -90 -38.5 -124s-60.834 -59.667 -105.501 -77s-95.334 -26 -152.001 -26s-107.5 8.66699 -152.5 26s-80.333 43 -106 77s-38.5 75.333 -38.5 124c0 43.333 12.333 81.333 37 114
s58.667 58.334 102 77.001c-37.333 17.333 -66.5 40.833 -87.5 70.5s-31.5 63.834 -31.5 102.501c0 69.333 25.333 123.333 76 162s117.334 58 200.001 58c54 0 101.833 -8.5 143.5 -25.5s74.334 -42.167 98.001 -75.5s35.5 -73 35.5 -119
c0 -38.667 -10.5 -72.834 -31.5 -102.501s-50.167 -53.5 -87.5 -71.5c43.333 -18 77.333 -43.333 102 -76zM288.5 278.499c-21 -18.333 -31.5 -43.168 -31.5 -74.501s10.667 -56.333 32 -75s50.333 -28 87 -28c36 0 64.667 9.33301 86 28s32 43.667 32 75
c0 30.667 -10.833 55.334 -32.5 74.001s-50.5 28 -86.5 28c-36.667 0 -65.5 -9.16699 -86.5 -27.5zM476 -221.003c25.333 20 38.001 47.333 38.001 82c0 34 -12.833 61 -38.5 81s-59.167 30 -100.5 30c-42 0 -75.333 -10 -100 -30s-37 -47 -37 -81
c0 -34.667 12.5 -62 37.5 -82s58.5 -30 100.5 -30c41.333 0 74.666 10 99.999 30z" />
    <glyph glyph-name="uni2089" unicode="&#x2089;" 
d="M583.5 348c52.333 -56.667 78.4971 -135.668 78.4971 -237.001v-52c0 -141.333 -36 -248.833 -108 -322.5s-182 -110.5 -330 -110.5h-15v126h14c90 0 157.333 16.333 202 49s70.334 83.334 77.001 152.001c-21.333 -20 -46.666 -35.833 -75.999 -47.5
s-60.666 -17.5 -93.999 -17.5c-55.333 0 -102.333 11.167 -141 33.5s-68 53.333 -88 93s-30 85.5 -30 137.5c0 51.333 12 98.333 36 141s58.333 76.667 103 102s96 38 154 38c92.667 0 165.167 -28.333 217.5 -85zM451.497 29.499c23.667 13.667 41.167 30.835 52.5 51.502
v59c0 53.333 -12.667 94.166 -38 122.499s-58.666 42.5 -99.999 42.5c-40.667 0 -73.334 -14.833 -98.001 -44.5s-37 -65.834 -37 -108.501c0 -42 11.833 -76.333 35.5 -103s57.5 -40 101.5 -40c32 0 59.833 6.83301 83.5 20.5z" />
    <glyph glyph-name="Euro" unicode="&#x20ac;" horiz-adv-x="1151" 
d="M1033 169l20 -158.999c-78 -20 -158 -30 -240 -30c-106 0 -199 21.167 -279 63.5s-142.833 105.5 -188.5 189.5s-69.5 187 -71.5 309h-178v123h177v138h-177v124h178c4 119.333 28.833 220 74.5 302s108.167 143.667 187.5 185s171.333 62 276 62
c71.333 0 151.666 -10.333 240.999 -31l-20 -160c-73.333 23.333 -146.333 35 -219 35c-105.333 0 -188.166 -32.833 -248.499 -98.5s-92.833 -163.834 -97.5 -294.501h383v-124h-383v-138h383v-123h-383c2.66699 -134.667 34.5 -236.167 95.5 -304.5
s144.833 -102.5 251.5 -102.5c76 0 148.667 11.333 218 34z" />
    <glyph glyph-name="minus" unicode="&#x2212;" horiz-adv-x="1171" 
d="M168 652v150h835v-150h-835z" />
    <glyph glyph-name="fi" unicode="&#xfb01;" horiz-adv-x="1135" 
d="M442 1339.5c-35.333 -35 -53.001 -89.167 -53.001 -162.5v-95h220v-141h-220v-941h-187v941h-171v141h171v95c0 80.667 15.833 149.5 47.5 206.5s77.334 100.167 137.001 129.5s130.5 44 212.5 44c44.667 0 89.167 -5.16699 133.5 -15.5s94.166 -25.5 149.499 -45.5
l-31 -154c-83.333 33.333 -162.666 50 -237.999 50c-78.667 0 -135.667 -17.5 -171 -52.5zM973.999 1082v-1082h-187v1082h187z" />
    <glyph glyph-name="longst" unicode="&#xfb05;" horiz-adv-x="1263" 
d="M1180 0c-42.667 -13.333 -90.334 -20.001 -143.001 -20.001c-75.333 0 -135.833 22.667 -181.5 68s-68.5 119 -68.5 221v672h-197v141h197v263v25c-19.333 10 -47.666 18.667 -84.999 26s-71.333 11 -102 11c-58.667 0 -103.667 -18.5 -135 -55.5s-47 -88.5 -47 -154.5
v-1197h-187v941h-170v141h170v115c0 114.667 30 203.334 90 266.001s143.333 94 250 94c59.333 0 126 -9.16699 200 -27.5s141.667 -42.5 203 -72.5v-112v-263h201v-141h-201v-673c0 -50.667 10.5 -85 31.5 -103s49.833 -27 86.5 -27c26.667 0 55.667 3.66699 87 11z" />
    <glyph glyph-name="st" unicode="&#xfb06;" horiz-adv-x="1692" 
d="M1621 0c-42.667 -13.333 -90.335 -20.0049 -143.002 -20.0049c-74 0 -134.167 25.833 -180.5 77.5s-69.5 131.834 -69.5 240.501v643h-188v141h188v86c0 72 -16.167 128.5 -48.5 169.5s-82.833 61.5 -151.5 61.5c-57.333 0 -101.5 -14.333 -132.5 -43
s-46.5 -67 -46.5 -115c0 -33.333 3.66699 -65 11 -95s18.333 -66.333 33 -109c18 -52.667 31.5 -98.667 40.5 -138s13.5 -84 13.5 -134h-104h-84c0 30.667 -9 60.334 -27 89.001s-44.167 52.167 -78.5 70.5s-74.5 27.5 -120.5 27.5c-48.667 0 -89 -7.5 -121 -22.5
s-55.5 -34.667 -70.5 -59s-22.5 -50.5 -22.5 -78.5c0 -28.667 6.83301 -52.5 20.5 -71.5s38.334 -36.167 74.001 -51.5s87.167 -30.333 154.5 -45c90.667 -20.667 164.334 -45 221.001 -73s98.834 -62.333 126.501 -103s41.5 -90 41.5 -148
c0 -62.667 -17.333 -118.167 -52 -166.5s-83.667 -86 -147 -113s-136.666 -40.5 -219.999 -40.5c-92 0 -171.5 16.5 -238.5 49.5s-117.833 76.5 -152.5 130.5s-52 111.667 -52 173h187c2.66699 -48 16.667 -87.167 42 -117.5s56.833 -52.166 94.5 -65.499
s77.5 -20 119.5 -20c48.667 0 90.5 6.83301 125.5 20.5s61.5 32.334 79.5 56.001s27 50.5 27 80.5s-6.33301 56 -19 78s-37 42.333 -73 61s-88 35 -156 49c-128.667 26.667 -225.834 64 -291.501 112s-98.5 114.333 -98.5 199c0 57.333 16.667 110 50 158
s80.5 86.333 141.5 115s130.833 43 209.5 43c68 0 128.333 -9.66699 181 -29c-29.333 73.333 -44 137 -44 191s15.167 103 45.5 147s72.666 78.667 126.999 104s116.5 38 186.5 38c142.667 0 242.5 -37.667 299.5 -113s85.833 -165.666 86.5 -270.999v-87h201v-141h-201
v-644c0 -106 39.333 -159 118 -159c26.667 0 55.667 3.66699 87 11z" />
    <glyph glyph-name="uniFB1F" unicode="&#xfb1f;" horiz-adv-x="1237" 
d="M890 1029h-216v149h402v-657h-186v508zM271 1029h-216v149h402v-657h-186v508zM167 -195h404v-94h-404v94z" />
    <glyph glyph-name="uniFB20" unicode="&#xfb20;" horiz-adv-x="1218" 
d="M1037 1178l-35.0049 -715c-5.33301 -106.667 -29.666 -197.667 -72.999 -273s-103.166 -132.333 -179.499 -171s-166.166 -58 -269.499 -58c-124 0 -263.667 29 -419 87l45 139c124 -48.667 236.333 -74.667 337 -78c-54 59.333 -90 129.333 -108 210l-195 859h186
l190 -869c8.66699 -41.333 18 -76.5 28 -105.5s22.333 -55.5 37 -79.5c72.667 20 129.334 58 170.001 114s63.334 128.333 68.001 217l34 723h184z" />
    <glyph glyph-name="uniFB21" unicode="&#xfb21;" horiz-adv-x="1812" 
d="M1267 383l417 -383.001h-256l-951 878c-24.667 -39.333 -43.167 -83.666 -55.5 -132.999s-18.5 -107 -18.5 -173v-572h-180v578c0 168.667 55.333 295.667 166 381l-237 219h248l733 -672l375 672h208z" />
    <glyph glyph-name="uniFB22" unicode="&#xfb22;" horiz-adv-x="1347" 
d="M1283 1178v-139l-238 -22v-1017h-185v1029h-800v149h1223z" />
    <glyph glyph-name="uniFB23" unicode="&#xfb23;" horiz-adv-x="1631" 
d="M1293 822c0 64 -18.667 114.498 -56 151.498s-88.333 55.5 -153 55.5h-935v149h939c81.333 0 151.333 -14.667 210 -44s103.5 -71.666 134.5 -126.999s46.5 -121.666 46.5 -198.999v-808h-186v822zM148 395.998c0 52 3.66895 96.168 11.002 132.501
s16.666 70.5 27.999 102.5l166 24l8 -9c-8.66699 -33.333 -15.834 -72.333 -21.501 -117s-8.5 -91.334 -8.5 -140.001v-389h-183v396z" />
    <glyph glyph-name="uniFB24" unicode="&#xfb24;" horiz-adv-x="1563" 
d="M400.5 -16c-103.667 12 -210.165 29.667 -319.498 53l28 149c108 -21.333 211 -37.5 309 -48.5s184.667 -16.5 260 -16.5c174.667 0 304.667 28.833 390 86.5s128.333 143.167 129 256.5v565h-1082v149h1267v-715c-0.666992 -164.667 -60.834 -288.667 -180.501 -372
s-291.834 -125 -516.501 -125c-86 0 -180.833 6 -284.5 18z" />
    <glyph glyph-name="uniFB25" unicode="&#xfb25;" horiz-adv-x="1417" 
d="M1343 1061l-616 -1061h-199l587 1029h-1032v472h185v-323h1075v-117z" />
    <glyph glyph-name="uniFB26" unicode="&#xfb26;" horiz-adv-x="1764" 
d="M114 1178h1500v-1178h-1500v1178zM1429 150v879h-1130v-879h1130z" />
    <glyph glyph-name="uniFB27" unicode="&#xfb27;" horiz-adv-x="1435" 
d="M1097 822c0 64 -18.668 114.498 -56.001 151.498s-88.666 55.5 -153.999 55.5h-827v149h831c81.333 0 151.333 -14.667 210 -44s103.5 -71.666 134.5 -126.999s46.5 -121.666 46.5 -198.999v-808h-185v822z" />
    <glyph glyph-name="uniFB28" unicode="&#xfb28;" horiz-adv-x="1755" 
d="M1488 1066.5c76.667 -74.333 115 -187.501 115 -339.501v-727h-185l-1 738c0 102 -21.833 176 -65.5 222s-114.167 69 -211.5 69h-643c-22 -36 -39.5 -82.167 -52.5 -138.5s-19.5 -114.166 -19.5 -173.499v-397c0 -108 -25.667 -190 -77 -246s-126 -84 -224 -84
c-28.667 0 -67 3 -115 9v149c21.333 -2.66699 44.333 -4 69 -4c58 0 100.167 15 126.5 45s39.5 77.333 39.5 142v372c0 60.667 8 121.167 24 181.5s38 108.5 66 144.5h-221v149h1026c156 0 272.333 -37.167 349 -111.5z" />
    <glyph glyph-name="uniFB29" unicode="&#xfb29;" horiz-adv-x="1128" 
d="M641 1206v-449h420v-156h-998v156h410v449h168z" />
    <glyph glyph-name="uniFB2A" unicode="&#xfb2a;" horiz-adv-x="1626" 
d="M361 209c64 -27.333 131.334 -48.667 202.001 -64s138 -23 202 -23c96 0 181.667 13.833 257 41.5s134.666 69.667 177.999 126s65 125.833 65 208.5v680h180v-697c0 -110.667 -29.833 -204.167 -89.5 -280.5s-140.167 -133.5 -241.5 -171.5s-214.666 -57 -339.999 -57
c-97.333 0 -197.333 11.5 -300 34.5s-200.334 56.833 -293.001 101.5v1070h180v-969zM700.001 432.499c12.667 45.667 19 98.832 19 159.499v586h181v-553c0 -68 -8.33301 -127.167 -25 -177.5s-42.334 -93.166 -77.001 -128.499l-154 6
c24.667 26 43.334 61.833 56.001 107.5zM1293 1352.5c-15.333 14.333 -23 31.168 -23 50.501c0 20.667 7.5 38 22.5 52s33.833 21 56.5 21c22 0 40.5 -7 55.5 -21s22.5 -31.333 22.5 -52s-7.5 -37.834 -22.5 -51.501s-33.5 -20.5 -55.5 -20.5s-40.667 7.16699 -56 21.5z" />
    <glyph glyph-name="uniFB2B" unicode="&#xfb2b;" horiz-adv-x="1626" 
d="M361 209c64 -27.333 131.334 -48.667 202.001 -64s138 -23 202 -23c96 0 181.667 13.833 257 41.5s134.666 69.667 177.999 126s65 125.833 65 208.5v680h180v-697c0 -110.667 -29.833 -204.167 -89.5 -280.5s-140.167 -133.5 -241.5 -171.5s-214.666 -57 -339.999 -57
c-97.333 0 -197.333 11.5 -300 34.5s-200.334 56.833 -293.001 101.5v1070h180v-969zM700.001 432.499c12.667 45.667 19 98.832 19 159.499v586h181v-553c0 -68 -8.33301 -127.167 -25 -177.5s-42.334 -93.166 -77.001 -128.499l-154 6
c24.667 26 43.334 61.833 56.001 107.5zM208.501 1352.5c-15 14.333 -22.5 31.168 -22.5 50.501c0 20.667 7.5 38 22.5 52s33.5 21 55.5 21c22.667 0 41.5 -7 56.5 -21s22.5 -31.333 22.5 -52s-7.5 -37.834 -22.5 -51.501s-33.833 -20.5 -56.5 -20.5
c-22 0 -40.5 7.16699 -55.5 21.5z" />
    <glyph glyph-name="uniFB2C" unicode="&#xfb2c;" horiz-adv-x="1626" 
d="M361 209c64 -27.333 131.334 -48.667 202.001 -64s138 -23 202 -23c96 0 181.667 13.833 257 41.5s134.666 69.667 177.999 126s65 125.833 65 208.5v680h180v-697c0 -110.667 -29.833 -204.167 -89.5 -280.5s-140.167 -133.5 -241.5 -171.5s-214.666 -57 -339.999 -57
c-97.333 0 -197.333 11.5 -300 34.5s-200.334 56.833 -293.001 101.5v1070h180v-969zM700.001 432.499c12.667 45.667 19 98.832 19 159.499v586h181v-553c0 -68 -8.33301 -127.167 -25 -177.5s-42.334 -93.166 -77.001 -128.499l-154 6
c24.667 26 43.334 61.833 56.001 107.5zM1026.5 550.997c-15 14.667 -22.5 32 -22.5 52c0 20.667 7.5 38 22.5 52s33.5 21 55.5 21c22.667 0 41.5 -7 56.5 -21s22.5 -31.333 22.5 -52c0 -21.333 -7.5 -39 -22.5 -53s-33.833 -21 -56.5 -21c-22 0 -40.5 7.33301 -55.5 22z
M1293 1352.5c-15.333 14.333 -23 31.168 -23 50.501c0 20.667 7.5 38 22.5 52s33.833 21 56.5 21c22 0 40.5 -7 55.5 -21s22.5 -31.333 22.5 -52s-7.5 -37.834 -22.5 -51.501s-33.5 -20.5 -55.5 -20.5s-40.667 7.16699 -56 21.5z" />
    <glyph glyph-name="uniFB2D" unicode="&#xfb2d;" horiz-adv-x="1626" 
d="M361 209c64 -27.333 131.334 -48.667 202.001 -64s138 -23 202 -23c96 0 181.667 13.833 257 41.5s134.666 69.667 177.999 126s65 125.833 65 208.5v680h180v-697c0 -110.667 -29.833 -204.167 -89.5 -280.5s-140.167 -133.5 -241.5 -171.5s-214.666 -57 -339.999 -57
c-97.333 0 -197.333 11.5 -300 34.5s-200.334 56.833 -293.001 101.5v1070h180v-969zM700.001 432.499c12.667 45.667 19 98.832 19 159.499v586h181v-553c0 -68 -8.33301 -127.167 -25 -177.5s-42.334 -93.166 -77.001 -128.499l-154 6
c24.667 26 43.334 61.833 56.001 107.5zM1026.5 550.997c-15 14.667 -22.5 32 -22.5 52c0 20.667 7.5 38 22.5 52s33.5 21 55.5 21c22.667 0 41.5 -7 56.5 -21s22.5 -31.333 22.5 -52c0 -21.333 -7.5 -39 -22.5 -53s-33.833 -21 -56.5 -21c-22 0 -40.5 7.33301 -55.5 22z
M208.501 1352.5c-15 14.333 -22.5 31.168 -22.5 50.501c0 20.667 7.5 38 22.5 52s33.5 21 55.5 21c22.667 0 41.5 -7 56.5 -21s22.5 -31.333 22.5 -52s-7.5 -37.834 -22.5 -51.501s-33.833 -20.5 -56.5 -20.5c-22 0 -40.5 7.16699 -55.5 21.5z" />
    <glyph glyph-name="uniFB2E" unicode="&#xfb2e;" horiz-adv-x="1314" 
d="M840 515l372.999 -514.999h-207l-525 724c-71.333 -44.667 -107 -121.334 -107 -230.001v-494h-180v427c0 102 17.333 185.5 52 250.5s88.334 114.167 161.001 147.5l-255 353h208l365 -504l284 504h209zM476.999 -194.999h404v-94h-404v94z" />
    <glyph glyph-name="uniFB2F" unicode="&#xfb2f;" horiz-adv-x="1314" 
d="M840 515l372.999 -514.999h-207l-525 724c-71.333 -44.667 -107 -121.334 -107 -230.001v-494h-180v427c0 102 17.333 185.5 52 250.5s88.334 114.167 161.001 147.5l-255 353h208l365 -504l284 504h209zM625.999 -512.999c-15.333 14.667 -22.998 31.665 -22.998 50.998
c0 8.66699 1.16699 16.334 3.5 23.001s6.16602 15.334 11.499 26.001c8.66699 16.667 15.667 33.834 21 51.501s9 41.834 11 72.501h-159v94h377v-94h-155c2 -30.667 5.66699 -54.834 11 -72.501s12.333 -34.834 21 -51.501c5.33301 -11.333 9.16602 -20 11.499 -26
s3.5 -13.667 3.5 -23c0 -20.667 -7.5 -38 -22.5 -52s-33.5 -21 -55.5 -21s-40.667 7.33301 -56 22z" />
    <glyph glyph-name="uniFB30" unicode="&#xfb30;" horiz-adv-x="1314" 
d="M840 515l372.999 -514.999h-207l-525 724c-71.333 -44.667 -107 -121.334 -107 -230.001v-494h-180v427c0 102 17.333 185.5 52 250.5s88.334 114.167 161.001 147.5l-255 353h208l365 -504l284 504h209zM527.499 170.001c-15 14.667 -22.5 32 -22.5 52
c0 20.667 7.5 38 22.5 52s33.5 21 55.5 21c22.667 0 41.5 -7 56.5 -21s22.5 -31.333 22.5 -52c0 -21.333 -7.5 -39 -22.5 -53s-33.833 -21 -56.5 -21c-22 0 -40.5 7.33301 -55.5 22z" />
    <glyph glyph-name="uniFB31" unicode="&#xfb31;" horiz-adv-x="1079" 
d="M1029 142l0.000976562 -141.999h-968v150h640v589c0 102 -22.833 175.833 -68.5 221.5s-119.834 68.5 -222.501 68.5h-285v149h295c154 0 270.167 -37.333 348.5 -112s117.5 -185.334 117.5 -332.001v-577zM325.501 551.001c-15 14.667 -22.5 32 -22.5 52
c0 20.667 7.5 38 22.5 52s33.5 21 55.5 21c22.667 0 41.5 -7 56.5 -21s22.5 -31.333 22.5 -52c0 -21.333 -7.5 -39 -22.5 -53s-33.833 -21 -56.5 -21c-22 0 -40.5 7.33301 -55.5 22z" />
    <glyph glyph-name="uniFB32" unicode="&#xfb32;" horiz-adv-x="792" 
d="M20 -5v170.999c18 -2.66699 37.333 -4 58 -4c96 2.66699 174 31.834 234 87.501s98.333 127.167 115 214.5v565h-266v149h449v-608c0 -62 6.33301 -122 19 -180l82 -390h-175l-69 330h-7c-8 -59.333 -30.333 -115 -67 -167s-83.5 -93.5 -140.5 -124.5
s-118.833 -46.5 -185.5 -46.5c-21.333 0 -37 1 -47 3zM145.5 550.999c-15 14.667 -22.5 32 -22.5 52c0 20.667 7.5 38 22.5 52s33.5 21 55.5 21c22.667 0 41.5 -7 56.5 -21s22.5 -31.333 22.5 -52c0 -21.333 -7.5 -39 -22.5 -53s-33.833 -21 -56.5 -21
c-22 0 -40.5 7.33301 -55.5 22z" />
    <glyph glyph-name="uniFB33" unicode="&#xfb33;" horiz-adv-x="1067" 
d="M1003 1178v-149h-197v-1029h-186v1029h-560v149h943zM266.5 551c-15 14.667 -22.5 32 -22.5 52c0 20.667 7.5 38 22.5 52s33.5 21 55.5 21c22.667 0 41.5 -7 56.5 -21s22.5 -31.333 22.5 -52c0 -21.333 -7.5 -39 -22.5 -53s-33.833 -21 -56.5 -21
c-22 0 -40.5 7.33301 -55.5 22z" />
    <glyph glyph-name="uniFB34" unicode="&#xfb34;" horiz-adv-x="1204" 
d="M866 739c0 102 -23 175.834 -69 221.501s-120 68.5 -222 68.5h-427v149h436c154 0 270.5 -37.333 349.5 -112s118.5 -185.334 118.5 -332.001v-734h-186v739zM150 402.001c0 60.667 4.5 108.5 13.5 143.5s21.833 70.167 38.5 105.5h152c-8 -30.667 -14 -64.667 -18 -102
s-6 -82.333 -6 -135v-414h-180v402zM542.5 551.001c-15 14.667 -22.5 32 -22.5 52c0 20.667 7.5 38 22.5 52s33.5 21 55.5 21c22.667 0 41.5 -7 56.5 -21s22.5 -31.333 22.5 -52c0 -21.333 -7.5 -39 -22.5 -53s-33.833 -21 -56.5 -21c-22 0 -40.5 7.33301 -55.5 22z" />
    <glyph glyph-name="uniFB35" unicode="&#xfb35;" horiz-adv-x="604" 
d="M237 1029h-137v149h323v-1178h-186v1029zM15.5 551c-15 14.667 -22.5 32 -22.5 52c0 20.667 7.5 38 22.5 52s33.5 21 55.5 21c22.667 0 41.5 -7 56.5 -21s22.5 -31.333 22.5 -52c0 -21.333 -7.5 -39 -22.5 -53s-33.833 -21 -56.5 -21c-22 0 -40.5 7.33301 -55.5 22z" />
    <glyph glyph-name="uniFB36" unicode="&#xfb36;" horiz-adv-x="724" 
d="M159 1021l-83 14v143h572l-1 -149h-304l167 -1029h-191zM509.5 551c-15 14.667 -22.5 32 -22.5 52c0 20.667 7.5 38 22.5 52s33.5 21 55.5 21c22.667 0 41.5 -7 56.5 -21s22.5 -31.333 22.5 -52c0 -21.333 -7.5 -39 -22.5 -53s-33.833 -21 -56.5 -21
c-22 0 -40.5 7.33301 -55.5 22z" />
    <glyph glyph-name="uniFB38" unicode="&#xfb38;" horiz-adv-x="1263" 
d="M405.5 37c-71 39.333 -126.165 94.666 -165.498 165.999s-59 154 -59 248v727h185v-740c0 -62 11.833 -116.5 35.5 -163.5s57 -83.5 100 -109.5s92.833 -39 149.5 -39c56 0 105.5 13 148.5 39s76.333 62.5 100 109.5s35.5 101.5 35.5 163.5v395
c0 64 -14.167 113.5 -42.5 148.5s-68.5 52.5 -120.5 52.5c-43.333 0 -91.333 -12.667 -144 -38l-29 124c33.333 21.333 70.166 38.166 110.499 50.499s79.166 18.5 116.499 18.5c60.667 0 113.167 -13.667 157.5 -41s78.333 -66.666 102 -117.999s35.5 -112 35.5 -182v-397
c0 -94 -19.5 -176.667 -58.5 -248s-93.833 -126.666 -164.5 -165.999s-152.667 -59 -246 -59s-175.5 19.667 -246.5 59zM595.502 551c-15 14.667 -22.5 32 -22.5 52c0 20.667 7.5 38 22.5 52s33.5 21 55.5 21c22.667 0 41.5 -7 56.5 -21s22.5 -31.333 22.5 -52
c0 -21.333 -7.5 -39 -22.5 -53s-33.833 -21 -56.5 -21c-22 0 -40.5 7.33301 -55.5 22z" />
    <glyph glyph-name="uniFB39" unicode="&#xfb39;" horiz-adv-x="618" 
d="M271 1029h-216v149h402v-657h-186v508zM35.5 739c-15 14.667 -22.5 32 -22.5 52c0 20.667 7.5 38 22.5 52s33.5 21 55.5 21c22.667 0 41.5 -7 56.5 -21s22.5 -31.333 22.5 -52c0 -21.333 -7.5 -39 -22.5 -53s-33.833 -21 -56.5 -21c-22 0 -40.5 7.33301 -55.5 22z" />
    <glyph glyph-name="uniFB3A" unicode="&#xfb3a;" horiz-adv-x="1014" 
d="M651 1029h-586v149h769v-1594h-183v1445zM273.5 551c-15 14.667 -22.5 32 -22.5 52c0 20.667 7.5 38 22.5 52s33.5 21 55.5 21c22.667 0 41.5 -7 56.5 -21s22.5 -31.333 22.5 -52c0 -21.333 -7.5 -39 -22.5 -53s-33.833 -21 -56.5 -21c-22 0 -40.5 7.33301 -55.5 22z" />
    <glyph glyph-name="uniFB3B" unicode="&#xfb3b;" horiz-adv-x="1101" 
d="M81 36l30.001 139.002c106 -28.667 200 -43 282 -43c111.333 0 196.166 27.167 254.499 81.5s87.5 132.166 87.5 233.499v582h-613v149h798v-691c0 -166.667 -44.333 -292.334 -133 -377.001s-212 -127 -370 -127c-100.667 0 -212.667 17.667 -336 53zM352.501 551.002
c-15 14.667 -22.5 32 -22.5 52c0 20.667 7.5 38 22.5 52s33.5 21 55.5 21c22.667 0 41.5 -7 56.5 -21s22.5 -31.333 22.5 -52c0 -21.333 -7.5 -39 -22.5 -53s-33.833 -21 -56.5 -21c-22 0 -40.5 7.33301 -55.5 22z" />
    <glyph glyph-name="uniFB3C" unicode="&#xfb3c;" horiz-adv-x="1052" 
d="M978 1061l-432 -1061h-199l427 1029h-691v507h185v-358h710v-117zM254.5 627c-15 14.667 -22.5 32 -22.5 52c0 20.667 7.5 38 22.5 52s33.5 21 55.5 21c22.667 0 41.5 -7 56.5 -21s22.5 -31.333 22.5 -52c0 -21.333 -7.5 -39 -22.5 -53s-33.833 -21 -56.5 -21
c-22 0 -40.5 7.33301 -55.5 22z" />
    <glyph glyph-name="uniFB3E" unicode="&#xfb3e;" horiz-adv-x="1299" 
d="M261 749c6.66699 54.667 22.1641 106.165 46.4971 154.498s52.833 85.5 85.5 111.5c2.66699 2 9.33398 6.66699 20.001 14l-2 3c-30 -5.33301 -67.5 -13.833 -112.5 -25.5s-86.167 -23.834 -123.5 -36.501l-43 140c77.333 26.667 164 48.334 260 65.001
s184.333 25 265 25c158.667 0 279.834 -42.167 363.501 -126.5s125.834 -208.166 126.501 -371.499v-702h-485v149h300v574c0 104.667 -23.667 184.334 -71 239.001s-116 82 -206 82c-64.667 0 -118.667 -24.833 -162 -74.5s-70 -117.167 -80 -202.5l-89 -767h-183z
M632.497 550.998c-15 14.667 -22.5 32 -22.5 52c0 20.667 7.5 38 22.5 52s33.5 21 55.5 21c22.667 0 41.5 -7 56.5 -21s22.5 -31.333 22.5 -52c0 -21.333 -7.5 -39 -22.5 -53s-33.833 -21 -56.5 -21c-22 0 -40.5 7.33301 -55.5 22z" />
    <glyph glyph-name="uniFB40" unicode="&#xfb40;" horiz-adv-x="742" 
d="M60 2l5 145.001c43.333 -8.66699 92 -13 146 -13c54.667 0 95.667 15.667 123 47s41 79.666 41 144.999v703h-231v149h417v-867c0 -108 -26.667 -190.167 -80 -246.5s-130 -84.5 -230 -84.5c-61.333 0 -125 7.33301 -191 22zM116.5 551.001c-15 14.667 -22.5 32 -22.5 52
c0 20.667 7.5 38 22.5 52s33.5 21 55.5 21c22.667 0 41.5 -7 56.5 -21s22.5 -31.333 22.5 -52c0 -21.333 -7.5 -39 -22.5 -53s-33.833 -21 -56.5 -21c-22 0 -40.5 7.33301 -55.5 22z" />
    <glyph glyph-name="uniFB41" unicode="&#xfb41;" horiz-adv-x="1305" 
d="M409.5 45.5c-75 45 -133.501 108.334 -175.501 190.001s-63.333 176.167 -64 283.5v120c0 51.333 7.16699 102.333 21.5 153s34.166 96.167 59.499 136.5s54 71.166 86 92.499c5.33301 4 10 6.66699 14 8l-1 3c-35.333 -4 -105.666 -20.333 -210.999 -49l-36 140
c78 23.333 166 42 264 56s188.333 21 271 21c109.333 0 203.5 -21.5 282.5 -64.5s139.667 -105 182 -186s63.5 -177.5 63.5 -289.5v-141c0 -107.333 -20.667 -201.833 -62 -283.5s-99.666 -145 -174.999 -190s-162.333 -67.5 -261 -67.5c-97.333 0 -183.5 22.5 -258.5 67.5z
M832.499 182.501c47.667 31.667 84.5 76.502 110.5 134.502s39 125 39 201v140c0 78.667 -13.167 147.167 -39.5 205.5s-64 103 -113 134s-106.5 46.5 -172.5 46.5c-59.333 0 -111.5 -15.833 -156.5 -47.5s-80 -77.334 -105 -137.001s-38.167 -129.834 -39.5 -210.501v-131
c0 -76 13 -143 39 -201s62.5 -102.833 109.5 -134.5s101.5 -47.5 163.5 -47.5s116.833 15.833 164.5 47.5zM612.499 551.003c-15 14.667 -22.5 32 -22.5 52c0 20.667 7.5 38 22.5 52s33.5 21 55.5 21c22.667 0 41.5 -7 56.5 -21s22.5 -31.333 22.5 -52
c0 -21.333 -7.5 -39 -22.5 -53s-33.833 -21 -56.5 -21c-22 0 -40.5 7.33301 -55.5 22z" />
    <glyph glyph-name="uniFB43" unicode="&#xfb43;" horiz-adv-x="1215" 
d="M1034 -416l-183.001 0.000976562v1445h-404c-21.333 -36.667 -38.666 -84 -51.999 -142s-20 -114.667 -20 -170v-136c15.333 -6.66699 35.333 -11.334 60 -14.001s57 -4 97 -4v-160c-82.667 0 -147.667 4.83301 -195 14.5s-95 27.167 -143 52.5l-3 197
c-1.33301 66.667 6.66699 133 24 199s41 120.333 71 163h-143v149h891v-1594zM560.499 729.001c-15 14.667 -22.5 32 -22.5 52c0 20.667 7.5 38 22.5 52s33.5 21 55.5 21c22.667 0 41.5 -7 56.5 -21s22.5 -31.333 22.5 -52c0 -21.333 -7.5 -39 -22.5 -53
s-33.833 -21 -56.5 -21c-22 0 -40.5 7.33301 -55.5 22z" />
    <glyph glyph-name="uniFB44" unicode="&#xfb44;" horiz-adv-x="1284" 
d="M397 -3c-68.667 11.333 -134.668 28.002 -198.001 50.002l36 139c58.667 -18 118.167 -31.5 178.5 -40.5s114.5 -13.5 162.5 -13.5c109.333 1.33301 193.666 29 252.999 83s89 131.333 89 232v582h-472c-21.333 -36.667 -38.5 -83.167 -51.5 -139.5
s-19.5 -112.5 -19.5 -168.5v-90c14.667 -6.66699 34.334 -11.334 59.001 -14.001s57 -4 97 -4v-160c-82.667 0 -147.667 4.83301 -195 14.5s-94.666 27.167 -141.999 52.5l-4 152c0 67.333 8.5 133.166 25.5 197.499s40.167 117.5 69.5 159.5h-143v149h961v-696
c0 -110.667 -21.667 -203.5 -65 -278.5s-103.5 -131 -180.5 -168s-166.5 -55.5 -268.5 -55.5c-59.333 0 -123.333 5.66699 -192 17zM593.499 741.002c-15 14.667 -22.5 32 -22.5 52c0 20.667 7.5 38 22.5 52s33.5 21 55.5 21c22.667 0 41.5 -7 56.5 -21
s22.5 -31.333 22.5 -52c0 -21.333 -7.5 -39 -22.5 -53s-33.833 -21 -56.5 -21c-22 0 -40.5 7.33301 -55.5 22z" />
    <glyph glyph-name="uniFB46" unicode="&#xfb46;" horiz-adv-x="1119" 
d="M691 543l311 -449v-94h-872v150h633l-704 1028h209l314 -474l261 474h209zM378.5 308c-15 -14 -33.833 -21 -56.5 -21c-22 0 -40.5 7.33301 -55.5 22s-22.5 32 -22.5 52c0 20.667 7.5 38 22.5 52s33.5 21 55.5 21c22.667 0 41.5 -7 56.5 -21s22.5 -31.333 22.5 -52
c0 -21.333 -7.5 -39 -22.5 -53z" />
    <glyph glyph-name="uniFB47" unicode="&#xfb47;" horiz-adv-x="1273" 
d="M577 146c66 2 123.668 16.667 173.001 44s87.666 65.833 114.999 115.5s41 108.5 41 176.5v547h-727v149h913v-692c0 -98 -21.167 -183.167 -63.5 -255.5s-102.333 -128.333 -180 -168s-168.167 -60.5 -271.5 -62.5v146zM202.001 442c0 60 4.50098 107.333 13.501 142
s21.833 69.667 38.5 105h152c-8.66699 -30 -14.834 -63.333 -18.501 -100s-5.5 -82 -5.5 -136v-869h-180v858zM582.502 551c-15 14.667 -22.5 32 -22.5 52c0 20.667 7.5 38 22.5 52s33.5 21 55.5 21c22.667 0 41.5 -7 56.5 -21s22.5 -31.333 22.5 -52
c0 -21.333 -7.5 -39 -22.5 -53s-33.833 -21 -56.5 -21c-22 0 -40.5 7.33301 -55.5 22z" />
    <glyph glyph-name="uniFB48" unicode="&#xfb48;" horiz-adv-x="1005" 
d="M667 822c0 64 -18.834 114.498 -56.501 151.498s-89.167 55.5 -154.5 55.5h-396v149h402c80.667 0 150.334 -14.667 209.001 -44s103.5 -71.666 134.5 -126.999s46.5 -121.666 46.5 -198.999v-808h-185v822zM285.499 550.998c-15 14.667 -22.5 32 -22.5 52
c0 20.667 7.5 38 22.5 52s33.5 21 55.5 21c22.667 0 41.5 -7 56.5 -21s22.5 -31.333 22.5 -52c0 -21.333 -7.5 -39 -22.5 -53s-33.833 -21 -56.5 -21c-22 0 -40.5 7.33301 -55.5 22z" />
    <glyph glyph-name="uniFB49" unicode="&#xfb49;" horiz-adv-x="1626" 
d="M361 209c64 -27.333 131.334 -48.667 202.001 -64s138 -23 202 -23c96 0 181.667 13.833 257 41.5s134.666 69.667 177.999 126s65 125.833 65 208.5v680h180v-697c0 -110.667 -29.833 -204.167 -89.5 -280.5s-140.167 -133.5 -241.5 -171.5s-214.666 -57 -339.999 -57
c-97.333 0 -197.333 11.5 -300 34.5s-200.334 56.833 -293.001 101.5v1070h180v-969zM700.001 432.499c12.667 45.667 19 98.832 19 159.499v586h181v-553c0 -68 -8.33301 -127.167 -25 -177.5s-42.334 -93.166 -77.001 -128.499l-154 6
c24.667 26 43.334 61.833 56.001 107.5zM1026.5 550.997c-15 14.667 -22.5 32 -22.5 52c0 20.667 7.5 38 22.5 52s33.5 21 55.5 21c22.667 0 41.5 -7 56.5 -21s22.5 -31.333 22.5 -52c0 -21.333 -7.5 -39 -22.5 -53s-33.833 -21 -56.5 -21c-22 0 -40.5 7.33301 -55.5 22z
" />
    <glyph glyph-name="uniFB4A" unicode="&#xfb4a;" horiz-adv-x="1279" 
d="M1011.5 1066.5c77 -74.333 115.5 -187.501 115.5 -339.501v-727h-185l-1 738c0 102 -21.833 176 -65.5 222s-114.167 69 -211.5 69h-167c-22 -36 -39.5 -82.167 -52.5 -138.5s-19.5 -114.166 -19.5 -173.499v-397c0 -108 -25.667 -190 -77 -246s-126 -84 -224 -84
c-28.667 0 -67 3 -115 9v149c21.333 -2.66699 44.333 -4 69 -4c58 0 100.167 15 126.5 45s39.5 77.333 39.5 142v372c0 60.667 8 121.167 24 181.5s38 108.5 66 144.5h-221v149h549c156 0 272.5 -37.167 349.5 -111.5zM627.5 550.999c-15 14.667 -22.5 32 -22.5 52
c0 20.667 7.5 38 22.5 52s33.5 21 55.5 21c22.667 0 41.5 -7 56.5 -21s22.5 -31.333 22.5 -52c0 -21.333 -7.5 -39 -22.5 -53s-33.833 -21 -56.5 -21c-22 0 -40.5 7.33301 -55.5 22z" />
    <glyph glyph-name="uniFB4B" unicode="&#xfb4b;" horiz-adv-x="604" 
d="M237 1029h-137v149h323v-1178h-186v1029zM208 1352.5c-15.333 14.333 -23 31.168 -23 50.501c0 20.667 7.5 38 22.5 52s33.833 21 56.5 21s41.5 -7 56.5 -21s22.5 -31.333 22.5 -52s-7.5 -37.834 -22.5 -51.501s-33.833 -20.5 -56.5 -20.5
c-22 0 -40.667 7.16699 -56 21.5z" />
    <glyph glyph-name="uniFB4C" unicode="&#xfb4c;" horiz-adv-x="1079" 
d="M1029 142l0.000976562 -141.999h-968v150h640v589c0 102 -22.833 175.833 -68.5 221.5s-119.834 68.5 -222.501 68.5h-285v149h295c154 0 270.167 -37.333 348.5 -112s117.5 -185.334 117.5 -332.001v-577zM240.001 1464h487v-107h-487v107z" />
    <glyph glyph-name="uniFB4D" unicode="&#xfb4d;" horiz-adv-x="1101" 
d="M81 36l30.001 139.002c106 -28.667 200 -43 282 -43c111.333 0 196.166 27.167 254.499 81.5s87.5 132.166 87.5 233.499v582h-613v149h798v-691c0 -166.667 -44.333 -292.334 -133 -377.001s-212 -127 -370 -127c-100.667 0 -212.667 17.667 -336 53zM234.001 1464h487
v-107h-487v107z" />
    <glyph glyph-name="uniFB4E" unicode="&#xfb4e;" horiz-adv-x="1284" 
d="M397 -3c-68.667 11.333 -134.668 28.002 -198.001 50.002l36 139c58.667 -18 118.167 -31.5 178.5 -40.5s114.5 -13.5 162.5 -13.5c109.333 1.33301 193.666 29 252.999 83s89 131.333 89 232v582h-472c-21.333 -36.667 -38.5 -83.167 -51.5 -139.5
s-19.5 -112.5 -19.5 -168.5v-90c14.667 -6.66699 34.334 -11.334 59.001 -14.001s57 -4 97 -4v-160c-82.667 0 -147.667 4.83301 -195 14.5s-94.666 27.167 -141.999 52.5l-4 152c0 67.333 8.5 133.166 25.5 197.499s40.167 117.5 69.5 159.5h-143v149h961v-696
c0 -110.667 -21.667 -203.5 -65 -278.5s-103.5 -131 -180.5 -168s-166.5 -55.5 -268.5 -55.5c-59.333 0 -123.333 5.66699 -192 17zM400.999 1464h487v-107h-487v107z" />
    <glyph glyph-name="uniFB4F" unicode="&#xfb4f;" horiz-adv-x="1195" 
d="M715 505l360 -505h-205l-787 1100v401h185v-369l333 -467l289 513h209z" />
    <glyph glyph-name=".null" horiz-adv-x="0" 
 />
    <glyph glyph-name="K.alt" horiz-adv-x="1316" 
d="M548 655h-176v-655h-194v1456h194v-642h149l507 642h241l-556 -704l598 -752h-238z" />
    <glyph glyph-name="R.alt" horiz-adv-x="1356" 
d="M1252 25l0.000976562 -24.999h-199c-41.333 37.333 -62 116.666 -62 237.999v129c0 52.667 -10.5 98.667 -31.5 138s-51.333 69.833 -91 91.5s-86.167 32.5 -139.5 32.5h-357v-629h-194v1456h526c159.333 0 281 -35.333 365 -106s126 -173.667 126 -309
c0 -74.667 -20.333 -139.834 -61 -195.501s-99.667 -99.834 -177 -132.501c81.333 -25.333 139.666 -67.166 174.999 -125.499s53 -131.166 53 -218.499v-133c0 -98.667 22.333 -169 67 -211zM926.501 849.501c49.667 43 74.5 106.833 74.5 191.5
c0 82 -24.167 145.5 -72.5 190.5s-123.833 67.5 -226.5 67.5h-330v-514h312c112 0 192.833 21.5 242.5 64.5z" />
    <glyph glyph-name="K.alt2" horiz-adv-x="1342" 
d="M1037 0l-665 692v-692h-194v1456h194v-647h11l611 647h242l-660 -709l700 -747h-239z" />
    <glyph glyph-name="C.ss06" horiz-adv-x="1411" 
d="M1226 212c-45.333 -72.667 -107.831 -129.666 -187.498 -170.999s-174.5 -62 -284.5 -62c-118 0 -224.833 30 -320.5 90s-170.834 144.5 -225.501 253.5s-82 233.833 -82 374.5v61c0 142 26.167 267.333 78.5 376s125.333 193 219 253s200.834 90 321.501 90
c108 0 202.667 -20.5 284 -61.5s146 -98.167 194 -171.5s77.333 -158.333 88 -255h-195c-15.333 104.667 -53.833 186 -115.5 244s-146.834 87 -255.501 87c-86 0 -160.833 -23.5 -224.5 -70.5s-112.834 -112.833 -147.501 -197.5s-52 -182 -52 -292v-63
c0 -109.333 18.5 -206.5 55.5 -291.5s88.5 -151.333 154.5 -199s140.333 -71.5 223 -71.5c112 0 196.167 27.667 252.5 83s92.833 136.666 109.5 243.999h194c-10.667 -94 -38.667 -177.333 -84 -250z" />
    <glyph glyph-name="D.ss06" horiz-adv-x="1428" 
d="M962.5 1369c104.333 -58 186.335 -140.499 246.002 -247.499s89.5 -231.167 89.5 -372.5v-43c0 -142 -29.833 -266.333 -89.5 -373s-142.834 -188.834 -249.501 -246.501s-228 -86.5 -364 -86.5h-328h-89v1456h194h240c129.333 0 246.166 -29 350.499 -87zM1102 751.001
c0 113.333 -20.333 211.333 -61 294s-98 145.667 -172 189s-160 65 -258 65h-239v-1143h222c104.667 0 195.167 22.833 271.5 68.5s134.833 110 175.5 193s61 179.167 61 288.5v45z" />
    <glyph glyph-name="G.ss06" horiz-adv-x="1455" 
d="M1213.5 95.5c-44.333 -32.333 -103.002 -59.835 -176.002 -82.502s-157.833 -34 -254.5 -34c-124 0 -235.833 29.833 -335.5 89.5s-178.167 145.167 -235.5 256.5s-86 241.333 -86 390v27c0 149.333 26.667 279.5 80 390.5s127 196.167 221 255.5s200.667 89 320 89
c169.333 0 300.5 -40.167 393.5 -120.5s150.167 -189.166 171.5 -326.499h-195c-17.333 88.667 -54.666 159.167 -111.999 211.5s-143.333 78.5 -258 78.5c-82.667 0 -156.334 -23.833 -221.001 -71.5s-115 -115 -151 -202s-54 -187.833 -54 -302.5v-29
c0 -117.333 20 -219.833 60 -307.5s95 -155 165 -202s149 -70.5 237 -70.5c87.333 0 159.333 11 216 33s96.334 46.667 119.001 74v327h-334v154h528v-532c-21.333 -31.333 -54.166 -63.166 -98.499 -95.499z" />
    <glyph glyph-name="O.ss06" horiz-adv-x="1505" 
d="M1295 330.5c-54 -110.333 -128.332 -196.498 -222.999 -258.498s-201 -93 -319 -93c-115.333 0 -220.833 31 -316.5 93s-171.334 148.333 -227.001 259s-83.5 235.667 -83.5 375v44c0 139.333 27.833 264.166 83.5 374.499s131.167 196.666 226.5 258.999
s200.333 93.5 315 93.5c118 0 224.5 -31 319.5 -93s169.667 -148.167 224 -258.5s81.5 -235.5 81.5 -375.5v-44c0 -140 -27 -265.167 -81 -375.5zM1128 1044.5c-37.333 85 -88.8301 151.168 -154.497 198.501s-139.834 71 -222.501 71c-79.333 0 -152 -23.667 -218 -71
s-118.167 -113.666 -156.5 -198.999s-57.5 -182.666 -57.5 -291.999v-46c0 -110 19.333 -207.833 58 -293.5s91.167 -152.334 157.5 -200.001s139.166 -71.5 218.499 -71.5c83.333 0 157.666 23.667 222.999 71s116.333 113.666 153 198.999s55 183.666 55 294.999v46
c0 110 -18.667 207.5 -56 292.5z" />
    <glyph glyph-name="Q.ss06" horiz-adv-x="1508" 
d="M1291 321.5c-56.667 -112.333 -134 -198.167 -232 -257.5l250 -196l-132 -120l-306 242c-40 -7.33301 -79.333 -11 -118 -11c-115.333 0 -220.833 31 -316.5 93s-171.334 148.333 -227.001 259s-83.5 235.667 -83.5 375v42c0 139.333 27.667 264.5 83 375.5
s130.833 197.667 226.5 260s200.834 93.5 315.501 93.5c118 0 224.5 -31 319.5 -93s169.667 -148.5 224 -259.5s81.5 -236.5 81.5 -376.5v-42c0 -144 -28.333 -272.167 -85 -384.5zM377 411.999c38.667 -86 91.1699 -152.666 157.503 -199.999s139.166 -71 218.499 -71
c83.333 0 157.666 23.5 222.999 70.5s116.333 113.333 153 199s55 184.167 55 295.5v44c0 110.667 -18.667 208.667 -56 294s-88.833 151.666 -154.5 198.999s-139.834 71 -222.501 71c-79.333 0 -152 -23.667 -218 -71s-118.167 -113.833 -156.5 -199.5
s-57.5 -183.5 -57.5 -293.5v-44c0 -110 19.333 -208 58 -294z" />
    <glyph glyph-name="g.alt" horiz-adv-x="1082" 
d="M924.5 123c71 -48.667 106.499 -122.336 106.499 -221.003c0 -53.333 -21.667 -106.166 -65 -158.499s-105.833 -95.666 -187.5 -129.999s-176.5 -51.5 -284.5 -51.5c-96.667 0 -180 12.5 -250 37.5s-123.167 58.667 -159.5 101s-54.5 88.5 -54.5 138.5
c0 60 16.667 112.333 50 157s76.333 80.334 129 107.001c-38 30.667 -57 71 -57 121c0 46.667 10.667 86.5 32 119.5s49 61.833 83 86.5c-54.667 33.333 -97.5 75.5 -128.5 126.5s-46.5 106.167 -46.5 165.5v22c0 68.667 18.167 130.167 54.5 184.5s87 96.833 152 127.5
s139.167 46 222.5 46c54 0 105 -6.66699 153 -20h366l2 -145h-152c40 -56.667 60 -121 60 -193v-22c0 -64.667 -18 -124.334 -54 -179.001s-86.5 -98.167 -151.5 -130.5s-138.833 -48.5 -221.5 -48.5c-51.333 0 -101.666 7 -150.999 21
c-34.667 -29.333 -52 -64.666 -52 -105.999c0 -55.333 42.333 -83 127 -83h172c132.667 0 234.5 -24.333 305.5 -73zM278.999 721.998c0 -35.333 10.333 -68.833 31 -100.5s49.5 -57.334 86.5 -77.001s79.167 -29.5 126.5 -29.5c46.667 0 88.334 9.83301 125.001 29.5
s65.167 45.334 85.5 77.001s30.5 65.167 30.5 100.5v22c0 37.333 -10.333 71.833 -31 103.5s-49.334 57 -86.001 76s-78.667 28.5 -126 28.5c-46.667 0 -88.5 -9.5 -125.5 -28.5s-65.667 -44.333 -86 -76s-30.5 -66.167 -30.5 -103.5v-22zM679.999 -259.002
c53.333 19.333 94.0029 43.6689 122.003 73.002s42 58.666 42 87.999c0 48 -16.833 84 -50.5 108s-91.834 36 -174.501 36h-208c-26.667 0 -52.667 2 -78 6c-34 -15.333 -61.833 -38.833 -83.5 -70.5s-32.5 -67.167 -32.5 -106.5c0 -30.667 10.167 -58.334 30.5 -83.001
s51.166 -44.167 92.499 -58.5s92.666 -21.5 153.999 -21.5c70.667 0 132.667 9.66699 186 29z" />
    <glyph glyph-name="k.alt" horiz-adv-x="1045" 
d="M463 502h-130v-502h-186v1536h186v-882h126l313 428h221l-376 -492l429 -590h-221z" />
    <glyph glyph-name="k.alt2" horiz-adv-x="1041" 
d="M338 500h-5v-500h-186v1560h186v-907h1l393 429h242l-469 -498l511 -584h-230z" />
    <glyph glyph-name="b.ss06" horiz-adv-x="1150" 
d="M869 1033.5c66.667 -45.667 118.001 -110.17 154.001 -193.503s54 -179.666 54 -288.999v-21c0 -105.333 -18.167 -199.666 -54.5 -282.999s-87.833 -148.666 -154.5 -195.999s-143.667 -71 -231 -71c-138.667 0 -245.334 49.333 -320.001 148l-16 -128h-161v1536h187
v-570c74 90.667 176.667 136 308 136c89.333 0 167.333 -22.833 234 -68.5zM890.001 550.997c0 76 -11.335 143.833 -34.002 203.5s-56.667 106.667 -102 141s-100.666 51.5 -165.999 51.5c-63.333 0 -116.5 -15.167 -159.5 -45.5s-76.833 -71.5 -101.5 -123.5v-473
c25.333 -51.333 59.833 -92.333 103.5 -123s96.834 -46 159.501 -46c64 0 118.667 17.5 164 52.5s79.333 82.333 102 142s34 126.167 34 199.5v21z" />
    <glyph glyph-name="c.ss06" horiz-adv-x="1075" 
d="M1008 342c-3.33301 -63.333 -24.8311 -122.832 -64.498 -178.499s-92 -100.167 -157 -133.5s-134.833 -50 -209.5 -50c-104.667 0 -193.5 24.167 -266.5 72.5s-127.5 113.333 -163.5 195s-54 172.5 -54 272.5v42c0 100 18.167 190.833 54.5 272.5
s90.666 146.667 162.999 195s160.833 72.5 265.5 72.5c82.667 0 156.167 -17 220.5 -51s114.833 -80.833 151.5 -140.5s56.667 -126.5 60 -200.5h-177c-3.33301 44.667 -16 85.5 -38 122.5s-51.667 66.167 -89 87.5s-80 32 -128 32c-71.333 0 -129 -18.5 -173 -55.5
s-75.5 -84.667 -94.5 -143s-28.5 -122.166 -28.5 -191.499v-42c0 -110.667 23 -203.334 69 -278.001s122 -112 228 -112c43.333 0 83.666 9.16699 120.999 27.5s68 43.666 92 75.999s37.667 68.5 41 108.5h177z" />
    <glyph glyph-name="d.ss06" horiz-adv-x="1172" 
d="M1025 1536v-1536h-162l-14 119c-74 -92.667 -178 -139 -312 -139c-83.333 0 -159 23.833 -227 71.5s-121.5 113.167 -160.5 196.5s-58.5 177 -58.5 281v21c0 108 19.333 203.833 58 287.5s92 148.667 160 195s144.667 69.5 230 69.5c126.667 0 226.667 -42.333 300 -127
v561h186zM737 177.5c41.333 27.667 75.334 66.168 102.001 115.501v501c-55.333 102 -140 153 -254 153c-65.333 0 -121 -17.333 -167 -52s-80.833 -82 -104.5 -142s-35.5 -127.667 -35.5 -203v-21c0 -73.333 11.833 -139.833 35.5 -199.5s58.5 -106.834 104.5 -141.501
s101 -52 165 -52c61.333 0 112.666 13.833 153.999 41.5z" />
    <glyph glyph-name="g.ss06" horiz-adv-x="1165" 
d="M1025 1082l-0.00195312 -1004c0 -107.333 -18.167 -198.666 -54.5 -273.999s-89.666 -132.666 -159.999 -171.999s-155.5 -59 -255.5 -59c-57.333 0 -119.166 9 -185.499 27s-124.166 44 -173.499 78l56 137c41.333 -28 88.833 -50.333 142.5 -67s106.5 -25 158.5 -25
c97.333 0 169.166 29 215.499 87s69.5 144.333 69.5 259v38c-73.333 -84.667 -174 -127 -302 -127c-85.333 0 -161.833 23.667 -229.5 71s-120.5 112.833 -158.5 196.5s-57 177.5 -57 281.5v21c0 108.667 18.833 204.834 56.5 288.501s90.5 148.5 158.5 194.5
s145.333 69 232 69c135.333 0 240 -48.333 314 -145l16 125h157zM837.998 294.997l0.000976562 497.001c-54.667 103.333 -139.334 155 -254.001 155c-65.333 0 -121 -17.333 -167 -52s-80.667 -82 -104 -142s-35 -127.667 -35 -203v-21
c0 -73.333 11.667 -139.833 35 -199.5s58 -106.834 104 -141.501s101 -52 165 -52c116 0 201.333 53 256 159z" />
    <glyph glyph-name="o.ss06" horiz-adv-x="1183" 
d="M152.5 833.5c41.667 83.667 100.334 149.334 176.001 197.001s162.834 71.5 261.501 71.5c99.333 0 187.166 -23.833 263.499 -71.5s135.333 -113.334 177 -197.001s62.5 -177.5 62.5 -281.5v-23c0 -104 -20.833 -197.667 -62.5 -281s-100.334 -148.833 -176.001 -196.5
s-163.167 -71.5 -262.5 -71.5s-187 23.833 -263 71.5s-134.833 113.167 -176.5 196.5s-62.5 177 -62.5 281v23c0 104 20.833 197.833 62.5 281.5zM314 328.5c24.667 -60.333 60.668 -108.501 108.001 -144.501s104 -54 170 -54c65.333 0 121.666 18 168.999 54
s83.5 84.333 108.5 145s37.5 127.334 37.5 200.001v23c0 72 -12.5 138.5 -37.5 199.5s-61.5 109.667 -109.5 146s-104.667 54.5 -170 54.5c-64.667 0 -120.667 -18.167 -168 -54.5s-83.333 -84.833 -108 -145.5s-37 -127.334 -37 -200.001v-23
c0 -73.333 12.333 -140.166 37 -200.499z" />
    <glyph glyph-name="p.ss06" horiz-adv-x="1166" 
d="M867 1033c66.667 -46 118 -110.668 154 -194.001s54 -179.666 54 -288.999v-21c0 -105.333 -18 -199.5 -54 -282.5s-87.333 -148.167 -154 -195.5s-143.667 -71 -231 -71c-130.667 0 -233.667 41.333 -309 124v-520h-187v1498h160l16 -122c76 94.667 181.667 142 317 142
c89.333 0 167.333 -23 234 -69zM888 549.999c0 75.333 -12.002 142.999 -36.002 202.999s-59.5 107.333 -106.5 142s-103.167 52 -168.5 52c-58.667 0 -108.667 -13.333 -150 -40s-74.666 -63 -99.999 -109v-521c55.333 -98 139.333 -147 252 -147
c64.667 0 120.334 17.833 167.001 53.5s82 83.834 106 144.501s36 127.667 36 201v21z" />
    <glyph glyph-name="q.ss06" horiz-adv-x="1181" 
d="M1025 1082l0.000976562 -1498h-187v514c-74.667 -78.667 -173.667 -118 -297 -118c-88 0 -166.167 23.5 -234.5 70.5s-121.333 112.167 -159 195.5s-56.5 177.333 -56.5 282v21c0 109.333 18.833 205.666 56.5 288.999s90.667 148.166 159 194.499
s147.166 69.5 236.499 69.5c129.333 0 231.333 -44 306 -132l14 112h162zM838.001 276.002l-0.00195312 532.999c-26.667 44 -60.667 78.833 -102 104.5s-90.333 38.5 -147 38.5c-65.333 0 -121.5 -17.667 -168.5 -53s-82.5 -83.5 -106.5 -144.5s-36 -129.5 -36 -205.5v-21
c0 -73.333 12 -140.166 36 -200.499s59.333 -108.333 106 -144s102.334 -53.5 167.001 -53.5c108.667 0 192.334 48.667 251.001 146z" />
    <glyph glyph-name="e.ss07" horiz-adv-x="1087" 
d="M1012 490l-730.998 0.000976562c4 -68 20.667 -129.167 50 -183.5s70.166 -97.333 122.499 -129s113.166 -47.5 182.499 -47.5c56.667 0 108.5 8.33301 155.5 25s88.167 38.667 123.5 66l57 -126c-36 -32 -82.5 -59.167 -139.5 -81.5s-125.5 -33.5 -205.5 -33.5
c-106 0 -199.5 23 -280.5 69s-143.5 109.833 -187.5 191.5s-66 174.834 -66 279.501v44c0 109.333 22 204.833 66 286.5s102.167 144 174.5 187s149.833 64.5 232.5 64.5c100.667 0 184.167 -20.833 250.5 -62.5s115.5 -99.334 147.5 -173.001s48 -158.834 48 -255.501v-121
zM825.002 666.001c0 52 -8.83301 99.5 -26.5 142.5s-45.834 77.667 -84.501 104s-88 39.5 -148 39.5c-50 0 -95 -12.167 -135 -36.5s-72.667 -59.833 -98 -106.5s-41.666 -103 -48.999 -169h541v26z" />
    <glyph glyph-name="g.ss07" horiz-adv-x="1150" 
d="M1011 1082l-0.00390625 -1022c0 -103.333 -18.333 -191.333 -55 -264s-90.167 -128 -160.5 -166s-155.5 -57 -255.5 -57c-51.333 0 -106.833 7.33301 -166.5 22s-111.5 36 -155.5 64l56 137c37.333 -22.667 79.333 -40.5 126 -53.5s92.667 -19.5 138 -19.5
c98 0 170.167 27.5 216.5 82.5s69.5 136.5 69.5 244.5v57c-73.333 -84.667 -174 -127 -302 -127c-85.333 0 -160.166 23.5 -224.499 70.5s-114 112 -149 195s-52.5 177.167 -52.5 282.5v21c0 109.333 17.333 205.833 52 289.5s84.334 148.5 149.001 194.5
s140.334 69 227.001 69c134.667 0 239.334 -48.333 314.001 -145l15 125h158zM823.996 295v497c-25.333 48 -59 85.833 -101 113.5s-93 41.5 -153 41.5c-96 0 -167.833 -36.5 -215.5 -109.5s-71.5 -169.167 -71.5 -288.5v-21c0 -74.667 10.167 -141.5 30.5 -200.5
s51.833 -105.667 94.5 -140s96 -51.5 160 -51.5c116 0 201.333 53 256 159z" />
    <glyph glyph-name="f_f" horiz-adv-x="1425" 
d="M467 1347.5c-32.667 -35 -49 -85.166 -49 -150.499v-115h230v-141h-230v-941h-187v941h-170v141h170v115c0 115.333 31.5 204.166 94.5 266.499s150.5 93.5 262.5 93.5c40.667 0 83 -5.33301 127 -16l-10 -149c-30 5.33301 -63.333 8 -100 8
c-59.333 0 -105.333 -17.5 -138 -52.5zM1179 1347.5c-32.667 -35 -49 -85.166 -49 -150.499v-115h230v-141h-230v-941h-187v941h-170v141h170v115c0 115.333 31.5 204.166 94.5 266.499s150.5 93.5 262.5 93.5c40.667 0 83 -5.33301 127 -16l-10 -149
c-30 5.33301 -63.333 8 -100 8c-59.333 0 -105.333 -17.5 -138 -52.5z" />
    <glyph glyph-name="f_f_i" horiz-adv-x="1749" 
d="M1056 1339.5c-35.333 -35 -53.001 -89.166 -53.001 -162.499v-95h221v-141h-221v-941h-187v941h-170h-228v-941h-187v941h-170v141h170v115c0 115.333 31.5 204.166 94.5 266.499s150.5 93.5 262.5 93.5c40.667 0 83 -5.33301 127 -16l-10 -149
c-30 5.33301 -63.333 8 -100 8c-59.333 0 -105.333 -17.5 -138 -52.5s-49 -85.167 -49 -150.5v-115h239h159v95c0 80.667 16 149.5 48 206.5s77.667 100.167 137 129.5s130 44 212 44c44.667 0 89.167 -5.16699 133.5 -15.5s94.5 -25.5 150.5 -45.5l-32 -154
c-83.333 33.333 -162.666 50 -237.999 50c-78.667 0 -135.667 -17.5 -171 -52.5zM1588 1082v-1082h-187v1082h187z" />
    <glyph glyph-name="f_f_l" horiz-adv-x="1749" 
d="M1349 1540.5c68 -11 147.665 -25.8311 238.998 -44.498v-1496h-187v1381c-85.333 12.667 -151.666 19 -198.999 19c-64.667 0 -114 -17.333 -148 -52s-51 -85 -51 -151v-115h230v-141h-230v-941h-187v941h-170h-228v-941h-187v941h-170v141h170v115
c0 115.333 31.5 204.166 94.5 266.499s150.5 93.5 262.5 93.5c40.667 0 83 -5.33301 127 -16l-10 -149c-30 5.33301 -63.333 8 -100 8c-59.333 0 -105.333 -17.5 -138 -52.5s-49 -85.167 -49 -150.5v-115h240h158v115c0 115.333 32.333 204.166 97 266.499
s156.334 93.5 275.001 93.5c39.333 0 93 -5.5 161 -16.5z" />
    <glyph glyph-name="f_l" horiz-adv-x="1164" 
d="M764 1540.5c68 -11 147.665 -25.833 238.998 -44.5v-1496h-187v1381c-85.333 12.667 -151.666 19 -198.999 19c-64.667 0 -114 -17.333 -148 -52s-51 -85 -51 -151v-115h230v-141h-230v-941h-187v941h-170v141h170v115c0 116 32.333 205 97 267s156.334 93 275.001 93
c39.333 0 93 -5.5 161 -16.5z" />
    <glyph glyph-name="A.smcp" horiz-adv-x="1159" 
d="M839 280h-518l-111 -280h-190l479 1165h122h45l472 -1165h-190zM780 431l-199 507l-201 -507h400z" />
    <glyph glyph-name="Aacute.smcp" horiz-adv-x="1159" 
d="M839 280h-518l-111 -280h-190l479 1165h122h45l472 -1165h-190zM780 431l-199 507l-201 -507h400zM908 1566l-269 -293h-150l194 293h225z" />
    <glyph glyph-name="Acircumflex.smcp" horiz-adv-x="1159" 
d="M839 280h-518l-111 -280h-190l479 1165h122h45l472 -1165h-190zM780 431l-199 507l-201 -507h400zM886 1283h-154l-150 170l-149 -170h-153v11l246 272h112l248 -273v-10z" />
    <glyph glyph-name="Adieresis.smcp" horiz-adv-x="1159" 
d="M839 280h-518l-111 -280h-190l479 1165h122h45l472 -1165h-190zM780 431l-199 507l-201 -507h400zM450 1478c19.333 -20 29 -45.333 29 -76c0 -30 -9.66699 -54.833 -29 -74.5s-46.333 -29.5 -81 -29.5s-61.667 9.83301 -81 29.5s-29 44.5 -29 74.5
c0 30.667 9.66699 56 29 76s46.333 30 81 30s61.667 -10 81 -30zM880.5 1476c19.667 -20 29.5 -45.333 29.5 -76c0 -30 -9.83301 -54.833 -29.5 -74.5s-46.834 -29.5 -81.501 -29.5s-61.5 9.83301 -80.5 29.5s-28.5 44.5 -28.5 74.5c0 30.667 9.5 56 28.5 76
s45.833 30 80.5 30s61.834 -10 81.501 -30z" />
    <glyph glyph-name="Agrave.smcp" horiz-adv-x="1159" 
d="M839 280h-518l-111 -280h-190l479 1165h122h45l472 -1165h-190zM780 431l-199 507l-201 -507h400zM511 1273l-259 293h226l193 -293h-160z" />
    <glyph glyph-name="Aring.smcp" horiz-adv-x="1159" 
d="M839 280h-518l-111 -280h-190l479 1165h122h45l472 -1165h-190zM780 431l-199 507l-201 -507h400zM691 1629.5c32.667 -18.333 58.501 -43.5 77.501 -75.5s28.5 -67 28.5 -105s-9.5 -72.5 -28.5 -103.5s-44.833 -55.333 -77.5 -73s-69 -26.5 -109 -26.5
c-40.667 0 -77.334 8.83301 -110.001 26.5s-58.5 42 -77.5 73s-28.5 65.5 -28.5 103.5s9.5 73 28.5 105s45 57.167 78 75.5s69.5 27.5 109.5 27.5s76.333 -9.16699 109 -27.5zM665.001 1368.5c22 23 33 49.834 33 80.501c0 32 -11 59.833 -33 83.5s-49.667 35.5 -83 35.5
s-61 -11.833 -83 -35.5s-33 -51.5 -33 -83.5c0 -20 5 -38.833 15 -56.5s23.833 -31.834 41.5 -42.501s37.5 -16 59.5 -16c33.333 0 61 11.5 83 34.5z" />
    <glyph glyph-name="Atilde.smcp" horiz-adv-x="1159" 
d="M839 280h-518l-111 -280h-190l479 1165h122h45l472 -1165h-190zM780 431l-199 507l-201 -507h400zM908.5 1408c-19 -36.667 -45.0039 -65 -78.0039 -85s-69.5 -30 -109.5 -30c-31.333 0 -57.666 4.33301 -78.999 13s-44.333 21.334 -69 38.001
c-21.333 14.667 -40.666 25.667 -57.999 33s-37.666 11 -60.999 11c-28.667 0 -52.5 -10.833 -71.5 -32.5s-28.5 -48.167 -28.5 -79.5l-125 7c0 47.333 9.5 89.666 28.5 126.999s44.833 66.5 77.5 87.5s69 31.5 109 31.5c25.333 0 48 -4 68 -12s44 -20.333 72 -37
c25.333 -16 47.333 -27.833 66 -35.5s39.334 -11.5 62.001 -11.5c28 0 51.667 10.833 71 32.5s29 48.5 29 80.5l125 -12c0 -47.333 -9.5 -89.333 -28.5 -126z" />
    <glyph glyph-name="AE.smcp" horiz-adv-x="1594" 
d="M1522 149v-149h-570h-160l-11 302h-409l-163 -302h-200l662 1165h118h148h543v-149h-538l12 -333h463v-149h-458l14 -385h549zM776 452l-20 562l-303 -562h323z" />
    <glyph glyph-name="B.smcp" horiz-adv-x="1105" 
d="M952 507c37.333 -50.667 56 -108.332 56 -172.999c0 -108.667 -37.5 -191.5 -112.5 -248.5s-178.5 -85.5 -310.5 -85.5h-376h-71v1165h407c136 0 241.833 -26.333 317.5 -79s113.5 -132 113.5 -238c0 -54 -15.833 -102 -47.5 -144s-76.5 -74 -134.5 -96
c68 -16.667 120.667 -50.334 158 -101.001zM325 1014v-343h233c72 0 128.5 14.5 169.5 43.5s61.5 70.833 61.5 125.5c0 116 -81.333 174 -244 174h-220zM759.5 199.002c41 32.667 61.5 78 61.5 136c0 61.333 -18.667 109.333 -56 144s-94.333 52 -171 52h-269v-381h260
c75.333 0 133.5 16.333 174.5 49z" />
    <glyph glyph-name="C.smcp" horiz-adv-x="1148" 
d="M1003 171.5c-38 -59 -91.499 -105.002 -160.499 -138.002s-152.5 -49.5 -250.5 -49.5c-99.333 0 -186.333 22.333 -261 67s-132.334 108.334 -173.001 191.001s-61 179 -61 289v102c0 110.667 20.5 207.334 61.5 290.001s99.667 146.334 176 191.001s165.833 67 268.5 67
c94.667 0 175.667 -16.5 243 -49.5s119.833 -79.333 157.5 -139s60.834 -129.5 69.501 -209.5h-187c-11.333 81.333 -38.833 142.833 -82.5 184.5s-110.5 62.5 -200.5 62.5c-104.667 0 -184.334 -34.5 -239.001 -103.5s-82 -166.5 -82 -292.5v-103
c0 -122.667 25.833 -219.5 77.5 -290.5s129.167 -106.5 232.5 -106.5c64.667 0 117.167 9.16699 157.5 27.5s71 45.166 92 80.499s35.833 80.333 44.5 135h187c-8.66699 -78 -32 -146.5 -70 -205.5z" />
    <glyph glyph-name="Ccedilla.smcp" horiz-adv-x="1148" 
d="M749.5 161.5c40.333 18.333 70.998 45.1641 91.998 80.4971s35.833 80.333 44.5 135h187c-12 -110 -53.167 -199.833 -123.5 -269.5s-168.166 -109.834 -293.499 -120.501l-10 -44c44.667 -7.33301 81.334 -24.666 110.001 -51.999s43 -67.666 43 -120.999
c0 -64 -26.333 -114.833 -79 -152.5s-127.667 -56.5 -225 -56.5l-7 106c49.333 0 89.333 8.16699 120 24.5s46 41.166 46 74.499c0 22.667 -5.5 40.334 -16.5 53.001s-27.833 22 -50.5 28s-54 10.667 -94 14l29 127c-86.667 10 -162 38.667 -226 86s-113.167 110 -147.5 188
s-51.5 167.667 -51.5 269v102c0 110.667 20.5 207.334 61.5 290.001s99.667 146.334 176 191.001s165.833 67 268.5 67c94.667 0 175.667 -16.5 243 -49.5s119.833 -79.333 157.5 -139s60.834 -129.5 69.501 -209.5h-187c-11.333 81.333 -38.833 142.833 -82.5 184.5
s-110.5 62.5 -200.5 62.5c-104.667 0 -184.334 -34.5 -239.001 -103.5s-82 -166.5 -82 -292.5v-103c0 -122.667 25.833 -219.5 77.5 -290.5s129.167 -106.5 232.5 -106.5c64.667 0 117.167 9.16699 157.5 27.5z" />
    <glyph glyph-name="D.smcp" horiz-adv-x="1152" 
d="M789.5 1097c84.333 -45.333 149.834 -109.667 196.501 -193s70 -180 70 -290v-64c0 -110.667 -23.333 -207.5 -70 -290.5s-113 -147 -199 -192s-186 -67.5 -300 -67.5h-264h-85v1165h187h174c109.333 0 206.166 -22.667 290.499 -68zM870.001 615.999
c0 128 -31.667 226.333 -95 295s-155.333 103 -276 103h-174v-864h162c126 0 221.333 35.167 286 105.5s97 168.5 97 294.5v66z" />
    <glyph glyph-name="Eth.smcp" horiz-adv-x="1152" 
d="M789.5 1097c84.333 -45.333 149.834 -109.667 196.501 -193s70 -180 70 -290v-64c0 -110.667 -23.333 -207.5 -70 -290.5s-113 -147 -199 -192s-186 -67.5 -300 -67.5h-264h-85v514h-206v150h206v501h187h174c109.333 0 206.166 -22.667 290.499 -68zM870.001 615.999
c0 128 -31.667 226.333 -95 295s-155.333 103 -276 103h-174v-350h245v-150h-245v-364h162c126 0 221.333 35.167 286 105.5s97 168.5 97 294.5v66z" />
    <glyph glyph-name="E.smcp" horiz-adv-x="998" 
d="M943 0h-664h-141v1165h187h612v-151h-612v-336h531v-151h-531v-377h618v-150z" />
    <glyph glyph-name="Eacute.smcp" horiz-adv-x="998" 
d="M943 0h-664h-141v1165h187h612v-151h-612v-336h531v-151h-531v-377h618v-150zM863 1566l-269 -293h-150l194 293h225z" />
    <glyph glyph-name="Ecircumflex.smcp" horiz-adv-x="998" 
d="M943 0h-664h-141v1165h187h612v-151h-612v-336h531v-151h-531v-377h618v-150zM840 1283h-154l-150 170l-149 -170h-153v11l246 272h112l248 -273v-10z" />
    <glyph glyph-name="Edieresis.smcp" horiz-adv-x="998" 
d="M943 0h-664h-141v1165h187h612v-151h-612v-336h531v-151h-531v-377h618v-150zM405 1478c19.333 -20 29 -45.333 29 -76c0 -30 -9.66699 -54.833 -29 -74.5s-46.333 -29.5 -81 -29.5s-61.667 9.83301 -81 29.5s-29 44.5 -29 74.5c0 30.667 9.66699 56 29 76
s46.333 30 81 30s61.667 -10 81 -30zM835.5 1476c19.667 -20 29.5 -45.333 29.5 -76c0 -30 -9.83301 -54.833 -29.5 -74.5s-46.834 -29.5 -81.501 -29.5s-61.5 9.83301 -80.5 29.5s-28.5 44.5 -28.5 74.5c0 30.667 9.5 56 28.5 76s45.833 30 80.5 30s61.834 -10 81.501 -30z
" />
    <glyph glyph-name="Egrave.smcp" horiz-adv-x="998" 
d="M943 0h-664h-141v1165h187h612v-151h-612v-336h531v-151h-531v-377h618v-150zM466 1273l-259 293h226l193 -293h-160z" />
    <glyph glyph-name="F.smcp" horiz-adv-x="971" 
d="M325 1014v-362h518v-152h-518v-500h-187v1165h187h598v-151h-598z" />
    <glyph glyph-name="G.smcp" horiz-adv-x="1196" 
d="M919.5 34c-71.667 -33.333 -169.168 -50.002 -292.501 -50.002c-103.333 0 -194.833 22.167 -274.5 66.5s-141.834 108.333 -186.501 192s-67 182.834 -67 297.501v85c0 116 20.167 215.667 60.5 299s98.5 147 174.5 191s167.333 66 274 66c142 0 251.667 -33 329 -99
s124.333 -155.667 141 -269h-185c-27.333 144.667 -121.666 217 -282.999 217c-107.333 0 -188 -34.833 -242 -104.5s-81 -169.167 -81 -298.5v-87c0 -84.667 14 -157.5 42 -218.5s67.833 -107.5 119.5 -139.5s112.5 -48 182.5 -48c72.667 0 128.834 7.33301 168.501 22
s70.5 32.334 92.5 53.001v239h-280v143h466v-441c-34 -44 -86.833 -82.667 -158.5 -116z" />
    <glyph glyph-name="H.smcp" horiz-adv-x="1252" 
d="M1113 1165v-1165h-186v499h-602v-499h-187v1165h187v-515h602v515h186z" />
    <glyph glyph-name="I.smcp" horiz-adv-x="489" 
d="M151 0v1165h187v-1165h-187z" />
    <glyph glyph-name="Iacute.smcp" horiz-adv-x="489" 
d="M151 0v1165h187v-1165h-187zM571 1566l-269 -293h-150l194 293h225z" />
    <glyph glyph-name="Icircumflex.smcp" horiz-adv-x="489" 
d="M151 0v1165h187v-1165h-187zM548 1283h-154l-150 170l-149 -170h-153v11l246 272h112l248 -273v-10z" />
    <glyph glyph-name="Idieresis.smcp" horiz-adv-x="489" 
d="M151 0v1165h187v-1165h-187zM113 1478c19.333 -20 29 -45.333 29 -76c0 -30 -9.66699 -54.833 -29 -74.5s-46.333 -29.5 -81 -29.5s-61.667 9.83301 -81 29.5s-29 44.5 -29 74.5c0 30.667 9.66699 56 29 76s46.333 30 81 30s61.667 -10 81 -30zM543.5 1476
c19.667 -20 29.5 -45.333 29.5 -76c0 -30 -9.83301 -54.833 -29.5 -74.5s-46.834 -29.5 -81.501 -29.5s-61.5 9.83301 -80.5 29.5s-28.5 44.5 -28.5 74.5c0 30.667 9.5 56 28.5 76s45.833 30 80.5 30s61.834 -10 81.501 -30z" />
    <glyph glyph-name="Igrave.smcp" horiz-adv-x="489" 
d="M151 0v1165h187v-1165h-187zM174 1273l-259 293h226l193 -293h-160z" />
    <glyph glyph-name="J.smcp" horiz-adv-x="975" 
d="M846 1165l-0.00195312 -826c0 -72.667 -16.667 -135.667 -50 -189s-79.5 -94.333 -138.5 -123s-125.833 -43 -200.5 -43c-80.667 0 -152.167 12.833 -214.5 38.5s-111.166 64.5 -146.499 116.5s-53 116 -53 192h188c0 -67.333 19.833 -117 59.5 -149
s95.167 -48 166.5 -48c60.667 0 109.334 18.333 146.001 55s55 86.667 55 150v826h188z" />
    <glyph glyph-name="K.smcp" horiz-adv-x="1109" 
d="M472 520l-147 -141v-379h-187v1165h187v-554l129 142l395 412h229l-478 -518l512 -647h-227z" />
    <glyph glyph-name="L.smcp" horiz-adv-x="949" 
d="M908 150v-150h-628h-142v1165h187v-1015h583z" />
    <glyph glyph-name="M.smcp" horiz-adv-x="1538" 
d="M1400 0h-186v403l19 527l-396 -930h-137l-395 928l19 -525v-403h-186v1165h159h83l389 -913l389 913h242v-1165z" />
    <glyph glyph-name="N.smcp" horiz-adv-x="1251" 
d="M927 0l-602 878v-878h-187v1165h187l602 -878v878h186v-1165h-186z" />
    <glyph glyph-name="Ntilde.smcp" horiz-adv-x="1251" 
d="M927 0l-602 878v-878h-187v1165h187l602 -878v878h186v-1165h-186zM950.5 1408c-19 -36.667 -45.0039 -65 -78.0039 -85s-69.5 -30 -109.5 -30c-31.333 0 -57.666 4.33301 -78.999 13s-44.333 21.334 -69 38.001c-21.333 14.667 -40.666 25.667 -57.999 33
s-37.666 11 -60.999 11c-28.667 0 -52.5 -10.833 -71.5 -32.5s-28.5 -48.167 -28.5 -79.5l-125 7c0 47.333 9.5 89.666 28.5 126.999s44.833 66.5 77.5 87.5s69 31.5 109 31.5c25.333 0 48 -4 68 -12s44 -20.333 72 -37c25.333 -16 47.333 -27.833 66 -35.5
s39.334 -11.5 62.001 -11.5c28 0 51.667 10.833 71 32.5s29 48.5 29 80.5l125 -12c0 -47.333 -9.5 -89.333 -28.5 -126z" />
    <glyph glyph-name="O.smcp" horiz-adv-x="1212" 
d="M1053 247.5c-42 -85 -101.333 -150.169 -178 -195.502s-166 -68 -268 -68c-100 0 -188.667 22.667 -266 68s-137.5 110.5 -180.5 195.5s-64.5 185.167 -64.5 300.5v68c0 115.333 21.333 215.5 64 300.5s102.5 150.333 179.5 196s165.5 68.5 265.5 68.5
c102 0 191.5 -22.667 268.5 -68s136.667 -110.666 179 -195.999s63.5 -185.666 63.5 -300.999v-68c0 -115.333 -21 -215.5 -63 -300.5zM845.5 920.498c-57 71 -137.166 106.501 -240.499 106.501c-66 0 -123.333 -15.833 -172 -47.5s-86.167 -78.167 -112.5 -139.5
s-39.5 -135.333 -39.5 -222v-70c0 -86.667 13.333 -160.834 40 -222.501s64.5 -108.5 113.5 -140.5s106.5 -48 172.5 -48c103.333 0 183.166 35.5 239.499 106.5s84.5 172.5 84.5 304.5v70c0 130.667 -28.5 231.5 -85.5 302.5z" />
    <glyph glyph-name="Oacute.smcp" horiz-adv-x="1212" 
d="M1053 247.5c-42 -85 -101.333 -150.169 -178 -195.502s-166 -68 -268 -68c-100 0 -188.667 22.667 -266 68s-137.5 110.5 -180.5 195.5s-64.5 185.167 -64.5 300.5v68c0 115.333 21.333 215.5 64 300.5s102.5 150.333 179.5 196s165.5 68.5 265.5 68.5
c102 0 191.5 -22.667 268.5 -68s136.667 -110.666 179 -195.999s63.5 -185.666 63.5 -300.999v-68c0 -115.333 -21 -215.5 -63 -300.5zM845.5 920.498c-57 71 -137.166 106.501 -240.499 106.501c-66 0 -123.333 -15.833 -172 -47.5s-86.167 -78.167 -112.5 -139.5
s-39.5 -135.333 -39.5 -222v-70c0 -86.667 13.333 -160.834 40 -222.501s64.5 -108.5 113.5 -140.5s106.5 -48 172.5 -48c103.333 0 183.166 35.5 239.499 106.5s84.5 172.5 84.5 304.5v70c0 130.667 -28.5 231.5 -85.5 302.5zM933.001 1566l-269 -293h-150l194 293h225z
" />
    <glyph glyph-name="Ocircumflex.smcp" horiz-adv-x="1212" 
d="M1053 247.5c-42 -85 -101.333 -150.169 -178 -195.502s-166 -68 -268 -68c-100 0 -188.667 22.667 -266 68s-137.5 110.5 -180.5 195.5s-64.5 185.167 -64.5 300.5v68c0 115.333 21.333 215.5 64 300.5s102.5 150.333 179.5 196s165.5 68.5 265.5 68.5
c102 0 191.5 -22.667 268.5 -68s136.667 -110.666 179 -195.999s63.5 -185.666 63.5 -300.999v-68c0 -115.333 -21 -215.5 -63 -300.5zM845.5 920.498c-57 71 -137.166 106.501 -240.499 106.501c-66 0 -123.333 -15.833 -172 -47.5s-86.167 -78.167 -112.5 -139.5
s-39.5 -135.333 -39.5 -222v-70c0 -86.667 13.333 -160.834 40 -222.501s64.5 -108.5 113.5 -140.5s106.5 -48 172.5 -48c103.333 0 183.166 35.5 239.499 106.5s84.5 172.5 84.5 304.5v70c0 130.667 -28.5 231.5 -85.5 302.5zM911.001 1283h-154l-150 170l-149 -170h-153
v11l246 272h112l248 -273v-10z" />
    <glyph glyph-name="Odieresis.smcp" horiz-adv-x="1212" 
d="M1053 247.5c-42 -85 -101.333 -150.169 -178 -195.502s-166 -68 -268 -68c-100 0 -188.667 22.667 -266 68s-137.5 110.5 -180.5 195.5s-64.5 185.167 -64.5 300.5v68c0 115.333 21.333 215.5 64 300.5s102.5 150.333 179.5 196s165.5 68.5 265.5 68.5
c102 0 191.5 -22.667 268.5 -68s136.667 -110.666 179 -195.999s63.5 -185.666 63.5 -300.999v-68c0 -115.333 -21 -215.5 -63 -300.5zM845.5 920.498c-57 71 -137.166 106.501 -240.499 106.501c-66 0 -123.333 -15.833 -172 -47.5s-86.167 -78.167 -112.5 -139.5
s-39.5 -135.333 -39.5 -222v-70c0 -86.667 13.333 -160.834 40 -222.501s64.5 -108.5 113.5 -140.5s106.5 -48 172.5 -48c103.333 0 183.166 35.5 239.499 106.5s84.5 172.5 84.5 304.5v70c0 130.667 -28.5 231.5 -85.5 302.5zM475.001 1478c19.333 -20 29 -45.333 29 -76
c0 -30 -9.66699 -54.833 -29 -74.5s-46.333 -29.5 -81 -29.5s-61.667 9.83301 -81 29.5s-29 44.5 -29 74.5c0 30.667 9.66699 56 29 76s46.333 30 81 30s61.667 -10 81 -30zM905.501 1476c19.667 -20 29.5 -45.333 29.5 -76c0 -30 -9.83301 -54.833 -29.5 -74.5
s-46.834 -29.5 -81.501 -29.5s-61.5 9.83301 -80.5 29.5s-28.5 44.5 -28.5 74.5c0 30.667 9.5 56 28.5 76s45.833 30 80.5 30s61.834 -10 81.501 -30z" />
    <glyph glyph-name="Ograve.smcp" horiz-adv-x="1212" 
d="M1053 247.5c-42 -85 -101.333 -150.169 -178 -195.502s-166 -68 -268 -68c-100 0 -188.667 22.667 -266 68s-137.5 110.5 -180.5 195.5s-64.5 185.167 -64.5 300.5v68c0 115.333 21.333 215.5 64 300.5s102.5 150.333 179.5 196s165.5 68.5 265.5 68.5
c102 0 191.5 -22.667 268.5 -68s136.667 -110.666 179 -195.999s63.5 -185.666 63.5 -300.999v-68c0 -115.333 -21 -215.5 -63 -300.5zM845.5 920.498c-57 71 -137.166 106.501 -240.499 106.501c-66 0 -123.333 -15.833 -172 -47.5s-86.167 -78.167 -112.5 -139.5
s-39.5 -135.333 -39.5 -222v-70c0 -86.667 13.333 -160.834 40 -222.501s64.5 -108.5 113.5 -140.5s106.5 -48 172.5 -48c103.333 0 183.166 35.5 239.499 106.5s84.5 172.5 84.5 304.5v70c0 130.667 -28.5 231.5 -85.5 302.5zM536.001 1273l-259 293h226l193 -293h-160z
" />
    <glyph glyph-name="Oslash.smcp" horiz-adv-x="1212" 
d="M1082 845c22.667 -68.667 34 -145 34 -229v-68c0 -115.333 -21 -215.5 -63 -300.5s-101.333 -150.167 -178 -195.5s-166 -68 -268 -68s-192 23.333 -270 70l-74 -112h-151l128 191c-46 50 -81.5 110 -106.5 180s-37.5 148.333 -37.5 235v68
c0 115.333 21.333 215.5 64 300.5s102.5 150.333 179.5 196s165.5 68.5 265.5 68.5c108.667 0 203 -25.667 283 -77l69 103h150l-124 -185c43.333 -49.333 76.333 -108.333 99 -177zM341 285l456 682.001c-51.333 40 -115.333 60 -192 60c-66 0 -123.333 -15.833 -172 -47.5
s-86.167 -78.167 -112.5 -139.5s-39.5 -135.333 -39.5 -222v-70c0 -106.667 20 -194.334 60 -263.001zM931 618.001c0 99.333 -17 182.333 -51 249l-452 -677c50.667 -35.333 110.334 -53 179.001 -53c103.333 0 183.166 35.5 239.499 106.5s84.5 172.5 84.5 304.5v70z" />
    <glyph glyph-name="Otilde.smcp" horiz-adv-x="1212" 
d="M1053 247.5c-42 -85 -101.333 -150.169 -178 -195.502s-166 -68 -268 -68c-100 0 -188.667 22.667 -266 68s-137.5 110.5 -180.5 195.5s-64.5 185.167 -64.5 300.5v68c0 115.333 21.333 215.5 64 300.5s102.5 150.333 179.5 196s165.5 68.5 265.5 68.5
c102 0 191.5 -22.667 268.5 -68s136.667 -110.666 179 -195.999s63.5 -185.666 63.5 -300.999v-68c0 -115.333 -21 -215.5 -63 -300.5zM845.5 920.498c-57 71 -137.166 106.501 -240.499 106.501c-66 0 -123.333 -15.833 -172 -47.5s-86.167 -78.167 -112.5 -139.5
s-39.5 -135.333 -39.5 -222v-70c0 -86.667 13.333 -160.834 40 -222.501s64.5 -108.5 113.5 -140.5s106.5 -48 172.5 -48c103.333 0 183.166 35.5 239.499 106.5s84.5 172.5 84.5 304.5v70c0 130.667 -28.5 231.5 -85.5 302.5zM933.501 1408
c-19 -36.667 -45.0039 -65 -78.0039 -85s-69.5 -30 -109.5 -30c-31.333 0 -57.666 4.33301 -78.999 13s-44.333 21.334 -69 38.001c-21.333 14.667 -40.666 25.667 -57.999 33s-37.666 11 -60.999 11c-28.667 0 -52.5 -10.833 -71.5 -32.5s-28.5 -48.167 -28.5 -79.5l-125 7
c0 47.333 9.5 89.666 28.5 126.999s44.833 66.5 77.5 87.5s69 31.5 109 31.5c25.333 0 48 -4 68 -12s44 -20.333 72 -37c25.333 -16 47.333 -27.833 66 -35.5s39.334 -11.5 62.001 -11.5c28 0 51.667 10.833 71 32.5s29 48.5 29 80.5l125 -12
c0 -47.333 -9.5 -89.333 -28.5 -126z" />
    <glyph glyph-name="P.smcp" horiz-adv-x="1117" 
d="M846.5 1118.5c67 -31 118.002 -74.165 153.002 -129.498s52.5 -119 52.5 -191c0 -74.667 -17.333 -138.834 -52 -192.501s-85.334 -94.834 -152.001 -123.501s-147.334 -43 -242.001 -43h-281v-439h-187v1165h468c93.333 0 173.5 -15.5 240.5 -46.5zM801.502 645.502
c42.333 37 63.501 87.167 63.501 150.5c0 40 -9.16699 76.333 -27.5 109s-46.833 59 -85.5 79s-87.334 30 -146.001 30h-281v-424h281c88 0 153.167 18.5 195.5 55.5z" />
    <glyph glyph-name="Thorn.smcp" horiz-adv-x="1017" 
d="M746.5 916c67 -31.333 118.002 -74.668 153.002 -130.001s52.5 -118.666 52.5 -189.999c0 -74.667 -17.333 -139 -52 -193s-85.334 -95.333 -152.001 -124s-147.334 -43 -242.001 -43h-181v-236h-187v1165h187v-202h181c93.333 0 173.5 -15.667 240.5 -47z
M701.502 443.498c42.333 37 63.501 87.166 63.501 150.499c0 40 -9.16699 76.333 -27.5 109s-46.833 58.834 -85.5 78.501s-87.334 29.5 -146.001 29.5h-181v-423h181c88 0 153.167 18.5 195.5 55.5z" />
    <glyph glyph-name="Q.smcp" horiz-adv-x="1212" 
d="M987 -203l-262.002 200c-37.333 -8.66699 -78.666 -13 -123.999 -13c-100 0 -188.667 22.667 -266 68s-137.666 110.666 -180.999 195.999s-65 185.333 -65 300v68c0 115.333 21.5 215.5 64.5 300.5s103 150.333 180 196s165.5 68.5 265.5 68.5
c102 0 191.5 -22.667 268.5 -68s136.667 -110.666 179 -195.999s63.5 -185.666 63.5 -300.999v-68c0 -108.667 -18.667 -203.834 -56 -285.501s-90.333 -146.167 -159 -193.5l218 -162zM314.998 325.5c26.667 -61.667 64.501 -108.499 113.501 -140.499s106.5 -48 172.5 -48
c103.333 0 183.166 35.5 239.499 106.5s84.5 172.5 84.5 304.5v70c0 130.667 -28.5 231.5 -85.5 302.5s-137.167 106.5 -240.5 106.5c-66 0 -123.333 -15.833 -172 -47.5s-86.167 -78.167 -112.5 -139.5s-39.5 -135.333 -39.5 -222v-70
c0 -86.667 13.333 -160.834 40 -222.501z" />
    <glyph glyph-name="R.smcp" horiz-adv-x="1098" 
d="M1062 10l0.000976562 -10h-200l-260 450h-277v-450h-187v1165h426c142 0 251.667 -30.667 329 -92s116 -149 116 -263c0 -76 -20.333 -140.833 -61 -194.5s-98.334 -94.5 -173.001 -122.5zM325.001 600h244.001c54.667 0 101 8.66699 139 26s66.5 41.333 85.5 72
s28.5 65.667 28.5 105c0 65.333 -21.333 116.833 -64 154.5s-107.334 56.5 -194.001 56.5h-239v-414z" />
    <glyph glyph-name="S.smcp" horiz-adv-x="1056" 
d="M215.5 639.5c-72.333 55.667 -108.497 129.501 -108.497 221.501c0 62 18.167 117.167 54.5 165.5s87.333 86.166 153 113.499s141.5 41 227.5 41c90.667 0 169.667 -15.833 237 -47.5s118.833 -74.5 154.5 -128.5s53.5 -113.667 53.5 -179h-187
c0 62 -22 111.667 -66 149s-108.667 56 -194 56c-80 0 -141 -15.5 -183 -46.5s-63 -71.833 -63 -122.5c0 -30.667 9.66699 -57.5 29 -80.5s50.166 -43.833 92.499 -62.5s99.5 -37 171.5 -55c134 -34 234.667 -80 302 -138s101 -133.333 101 -226
c0 -64 -18.333 -119.833 -55 -167.5s-88.334 -84.334 -155.001 -110.001s-144 -38.5 -232 -38.5c-82 0 -159.833 13.833 -233.5 41.5s-133.334 69 -179.001 124s-68.5 121.5 -68.5 199.5h188c0 -73.333 27.167 -127.666 81.5 -162.999s124.833 -53 211.5 -53
c81.333 0 144 15 188 45s66 70 66 120c0 34.667 -7.83301 64 -23.5 88s-43 45.5 -82 64.5s-94.167 37.167 -165.5 54.5c-138 34 -243.167 78.833 -315.5 134.5z" />
    <glyph glyph-name="uni1E9E.smcp" horiz-adv-x="1105" 
d="M925.5 574c61.667 -54 92.501 -126.667 92.501 -218c0 -78.667 -16.667 -146.334 -50 -203.001s-79.833 -99.834 -139.5 -129.501s-128.5 -44.5 -206.5 -44.5c-80 0 -154.333 17 -223 51l53 151c54.667 -34 111.334 -51 170.001 -51c64.667 0 115.667 20.5 153 61.5
s56 94.833 56 161.5c0 64 -22.333 110.5 -67 139.5s-112.334 43.5 -203.001 43.5h-84v136l236 296c-24 18.667 -49.833 33.834 -77.5 45.501s-60.167 17.5 -97.5 17.5c-142.667 0 -214 -93.333 -214 -280v-751h-186v753c0.666992 142.667 34 249.667 100 321
s166 107 300 107c80.667 0 153.167 -16.167 217.5 -48.5s126.166 -77.166 185.499 -134.499l-273 -329c110 -9.33301 195.833 -41 257.5 -95z" />
    <glyph glyph-name="T.smcp" horiz-adv-x="1063" 
d="M1021 1014h-398v-1014h-186v1014h-396v151h582h398v-151z" />
    <glyph glyph-name="U.smcp" horiz-adv-x="1148" 
d="M1035 385c0 -86 -20.5 -158.999 -61.5 -218.999s-96.333 -105.333 -166 -136s-147.167 -46 -232.5 -46c-88.667 0 -167.667 15.167 -237 45.5s-123.666 75.666 -162.999 135.999s-59 133.5 -59 219.5v780h185v-780c0 -84 24.333 -146.833 73 -188.5
s115.667 -62.5 201 -62.5s152.166 20.833 200.499 62.5s72.5 104.5 72.5 188.5v780h187v-780z" />
    </font>
</defs>
</svg>
