<?xml version="1.0" standalone="no"?>
<!DOCTYPE svg PUBLIC "-//W3C//DTD SVG 1.1//EN" "http://www.w3.org/Graphics/SVG/1.1/DTD/svg11.dtd" >
<svg xmlns="http://www.w3.org/2000/svg" xmlns:xlink="http://www.w3.org/1999/xlink" version="1.1">
<metadata>
Created by FontForge 20170910 at Thu Sep  2 19:01:38 2010
 By Jimmy Wärting
Copyright 2010 by Maxim Iorsh (iorsh@users.sourceforge.net). Distributed under the terms of GNU General Public License version 2(http://www.gnu.org/licenses/gpl.html). All rights reserved.
</metadata>
<defs>
<font id="JournalCLM-Light" horiz-adv-x="214" >
  <font-face 
    font-family="Journal CLM"
    font-weight="500"
    font-stretch="normal"
    units-per-em="1000"
    panose-1="2 0 3 3 0 0 0 0 0 0"
    ascent="700"
    descent="-300"
    cap-height="600"
    bbox="0 -250 1088.32 750"
    underline-thickness="50"
    underline-position="-100"
    stemh="40"
    unicode-range="U+0020-2502"
  />
<missing-glyph horiz-adv-x="500" 
d="M50 0v466h400v-466h-400zM100 50h300v366h-300v-366z" />
    <glyph glyph-name=".notdef" horiz-adv-x="500" 
d="M50 0v466h400v-466h-400zM100 50h300v366h-300v-366z" />
    <glyph glyph-name="uni0000" horiz-adv-x="700" 
d="M130 585v-670h440v670h-440zM100 600h500v-700h-500v700z" />
    <glyph glyph-name="uni0000" horiz-adv-x="700" 
d="M130 585v-670h440v670h-440zM100 600h500v-700h-500v700z" />
    <glyph glyph-name="space" unicode=" " horiz-adv-x="390" 
 />
    <glyph glyph-name="exclam" unicode="!" horiz-adv-x="242" 
d="M83.7998 26c0 19.8711 16.665 36 37.2002 36s37.2002 -16.1289 37.2002 -36s-16.665 -36 -37.2002 -36s-37.2002 16.1289 -37.2002 36zM107.842 294c0 91 3.1582 176 -11.8418 256l45 45c-11.7363 -82.1562 -18 -146.468 -18 -300c0 -39 1 -78 16 -108l-37 -22
c5 42 6 86.0342 5.8418 129z" />
    <glyph glyph-name="quotedbl" unicode="&#x22;" horiz-adv-x="396" 
d="M276.559 474.224c7.12598 18.9551 25.6221 62.8799 -12.6611 86.0859l85 21.5c-23.5 -31 -40.5 -63 -57.3008 -108.833c-9.34473 -25.4912 -15.127 -51.6035 -13.5996 -80.2207l-53.998 -15.7568c21.4443 34.8184 39.6074 62.7744 52.5596 97.2246zM96.5576 474.224
c7.12598 18.9551 25.6221 62.8799 -12.6602 86.0859l85 21.5c-23.5 -31 -40.5 -63 -57.3008 -108.833c-9.34473 -25.4912 -15.127 -51.6035 -13.5996 -80.2207l-53.998 -15.7568c21.4443 34.8184 39.6074 62.7744 52.5586 97.2246z" />
    <glyph glyph-name="percent" unicode="%" horiz-adv-x="552" 
d="M36.1729 375.002c0 39.207 6.44434 73.3213 28.8584 96.5527c20.2148 20.9492 45.6895 28.4473 77.9697 28.4473c31.7393 0 57.2129 -7.49805 77.4277 -28.4473c22.4141 -23.2314 28.8574 -57.3447 28.8574 -96.5518c0 -14.6172 -0.894531 -28.5264 -3.17969 -41.4277
c24.0693 0.0146484 48.9639 5.59961 74.8945 17.9248c36.8555 17.5195 57.333 39.5791 71.1318 62.8711c16.6045 28.0273 29.9883 62.5527 11.6445 88.1309l70.8857 -6.46094l-92.4033 -122.885c-68.3623 -90.915 -212.267 -281.424 -260.469 -370.315l-69.791 -17.8408
c67.8242 71.4229 181.483 218.421 293.5 365c-7 -5.25 -13.75 -9.25 -21 -12.5c-28.7109 -12.8701 -55.3438 -18.9414 -81.7285 -18.5322c-4.4502 -15.5986 -11.542 -29.3193 -22.3428 -40.5127c-20.2148 -20.9482 -45.6953 -28.4619 -77.4287 -28.4619
c-32.2861 0 -57.7549 7.51367 -77.9697 28.4619c-22.415 23.2285 -28.8574 57.3408 -28.8574 96.5469zM327.562 124.996c0 -35.1914 4.55566 -68.2725 20.4414 -86.6621c15.1934 -17.5889 30.9961 -25.5342 57.9902 -25.5352
c26.1865 0.000976562 42.4512 7.94629 57.6455 25.5352c15.8848 18.3896 20.4395 51.4697 20.4395 86.6611c0 35.1934 -6.19043 70.1846 -20.4404 86.665c-15.2021 17.5791 -30.9932 25.5342 -57.5107 25.5342c-15.6357 0 -25.6807 -2.58594 -35.7842 -10.5742
c-8.55176 -6.76172 -14.8027 -15.5059 -15.0371 -35.2422l-14.0977 18.3262c-10.8076 -25.376 -13.6465 -53.8447 -13.6465 -84.708zM299.168 124.995c0 39.207 6.44434 73.3203 28.8584 96.5518c20.2148 20.9492 45.6895 28.4473 77.9697 28.4473
c31.7393 0 57.2129 -7.49805 77.4277 -28.4473c22.4141 -23.2314 28.8574 -57.3447 28.8574 -96.5518c0 -39.2061 -6.44238 -73.3184 -28.8574 -96.5469c-20.2148 -20.9482 -45.6953 -28.4473 -77.4287 -28.4482c-32.2861 0.000976562 -57.7549 7.5 -77.9697 28.4482
c-22.415 23.2285 -28.8574 57.3408 -28.8574 96.5469zM64.5703 375.002c0 -35.1914 4.55664 -68.2734 20.4424 -86.6621c15.1934 -17.5889 30.9961 -25.5342 57.9902 -25.5352c26.1865 0.000976562 42.4512 7.94629 57.6455 25.5352
c7.2666 8.41309 12.1631 19.9014 15.3369 33.2598c-14.7725 2.66211 -29.6602 7.31348 -44.9834 13.9004c-37.748 16.2266 -82.5664 61.4297 -92.7852 124.21c-10.8076 -25.376 -13.6465 -53.8447 -13.6465 -84.708zM218.67 335.964
c1.74219 12.2178 2.41895 25.4707 2.41895 39.0371c0 35.1934 -6.19043 70.1846 -20.4404 86.6641c-15.2021 17.5791 -30.9932 25.5342 -57.5107 25.5342c-15.6357 0 -25.6807 -2.58594 -35.7842 -10.5742c-8.55273 -6.76172 -17.3506 -23.626 -7.07227 -45.4893
c18.5391 -39.4346 45.6641 -68.7686 75.8389 -82.0498c13.9336 -6.13281 28.1006 -10.5977 42.5498 -13.1221z" />
    <glyph glyph-name="quotesingle" unicode="'" horiz-adv-x="217" 
d="M96.5586 474.224c7.12598 18.9551 25.6221 62.8799 -12.6602 86.0859l85 21.5c-23.5 -31 -40.5 -63 -57.3008 -108.833c-9.34473 -25.4912 -15.127 -51.6035 -13.5996 -80.2207l-53.998 -15.7568c21.4443 34.8184 39.6074 62.7744 52.5586 97.2246z" />
    <glyph glyph-name="parenleft" unicode="(" horiz-adv-x="308" 
d="M273.311 581.599l5.05273 -12.9072c-28.293 -12.8496 -52.7568 -31.2598 -76.7891 -55.71c-55.7783 -56.7432 -71.7754 -158.822 -71.7754 -267.409c0 -108.593 21.7393 -216.562 71.7754 -267.412c23.4678 -23.8496 47.3369 -41.959 74.8145 -54.7646l-6.07812 -13.293
c-33.6924 12.8428 -63.6289 32.499 -90.2695 60.7881c-62.1719 66.0215 -80.041 162.988 -80.041 274.417c0 111.424 17.8672 208.363 80.041 274.379c27.4307 29.126 58.3525 49.1025 93.2695 61.9121z" />
    <glyph glyph-name="parenright" unicode=")" horiz-adv-x="308" 
d="M35.0527 -89.8984l-5.05273 12.9082c28.293 12.8506 52.7568 31.2607 76.7891 55.71c55.7783 56.7432 71.7754 158.822 71.7754 267.409c0 108.594 -21.7393 216.562 -71.7754 267.412c-23.4678 23.8496 -47.3369 41.959 -74.8145 54.7646l6.07812 13.293
c33.6914 -12.8428 63.6289 -32.499 90.2686 -60.7881c62.1719 -66.0225 80.041 -162.989 80.041 -274.417c0 -111.425 -17.8672 -208.363 -80.041 -274.379c-27.4297 -29.126 -58.3516 -49.1035 -93.2686 -61.9131z" />
    <glyph glyph-name="asterisk" unicode="*" horiz-adv-x="496" 
d="M267.308 254.729c25.1621 -34.125 64.127 -82.8145 109.916 -125.808l-62.8584 9.95703c-16.8496 42.3721 -44.4805 85.7451 -59.2441 106.931c-24.6807 -34.4756 -58.9453 -86.5811 -85.6836 -143.414l-9.95605 62.8574
c35.0918 29.1201 67.8027 68.8018 83.3906 89.3906c-40.415 12.8184 -100.559 29.3057 -162.873 37.1729l56.7051 28.8916c38.5381 -24.375 86.3857 -43.2227 110.783 -51.6846c-0.297852 42.3975 -3.20312 104.692 -14.9766 166.388l45 -45
c-11.2734 -44.1846 -14.4121 -95.5156 -14.9209 -121.335c40.2295 13.3857 98.5771 35.3984 153.616 65.6602l-28.8936 -56.7041c-45.5049 -2.93164 -95.2939 -15.8066 -120.005 -23.3027z" />
    <glyph glyph-name="plus" unicode="+" horiz-adv-x="507" 
d="M246.387 269.023c-0.297852 42.3975 -3.20312 104.692 -14.9775 166.388l45 -45c-11.2725 -44.1846 -14.4121 -95.5156 -14.9199 -121.334c25.8184 0.507812 77.1494 3.64746 121.334 14.9199l45 -45c-61.6953 11.7744 -123.99 14.6797 -166.388 14.9775
c0.300781 -42.3975 3.19922 -104.692 14.9736 -166.388l-45 45c11.2725 44.1846 14.415 95.5156 14.9238 121.334c-25.8184 -0.508789 -77.1494 -3.65137 -121.334 -14.9238l-45 45c61.6953 -11.7744 123.99 -14.6729 166.388 -14.9736z" />
    <glyph glyph-name="comma" unicode="," 
d="M107.2 61.998c-20.5352 0 -37.1992 -16.1279 -37.1992 -35.999s16.665 -36 37.2002 -36c2.14453 0 4.24609 0.175781 6.29199 0.513672c-2.3584 -10.7842 -6.24219 -20.4697 -8.73438 -27.0996c-12.9521 -34.4502 -31.1143 -62.4062 -52.5586 -97.2246l53.998 15.7568
c-1.52734 28.6172 4.25488 54.7285 13.6006 80.2197c5.77637 15.7588 12.2031 30.7549 18.2832 43.7646c3.98926 5.73535 6.31836 12.6406 6.31836 20.0684c0 19.8711 -16.666 36 -37.2002 36z" />
    <glyph glyph-name="hyphen" unicode="-" horiz-adv-x="435" 
d="M220.824 254l78 -0.00390625c-22.0352 0 -79.8242 -2.5 -128.824 -15l-45 45c-12.5 -12.4961 53.6768 -14.9961 96 -15c22.0352 0 79.8242 2.5 128.824 15l45 -45c-65.5 12.5 -131.677 15 -174 15.0039z" />
    <glyph glyph-name="period" unicode="." 
d="M70 26c0 19.8711 16.665 36 37.2002 36c20.5342 0 37.2002 -16.1289 37.2002 -36s-16.666 -36 -37.2002 -36c-20.5352 0 -37.2002 16.1289 -37.2002 36z" />
    <glyph glyph-name="slash" unicode="/" horiz-adv-x="418" 
d="M199.061 251.733c51.1582 84.5283 131.948 220.542 157.329 288.098l61.8047 15.1689c-48.2236 -58.835 -127.878 -185.241 -202.894 -306.557c-50.3857 -84.9746 -129.04 -220.369 -153.637 -287.708l-61.6641 -15.7354
c47.4658 59.0039 125.458 185.247 199.061 306.733z" />
    <glyph glyph-name="zero" unicode="0" horiz-adv-x="484" 
d="M242.538 -7.49707c-58.1895 0.000976562 -104.099 15.5283 -140.529 58.8965c-40.3975 48.0898 -52.0068 118.717 -52.0068 199.885c0 81.1719 11.6104 151.796 52.0068 199.889c36.4307 43.373 82.3418 58.8965 140.519 58.8965
c57.2031 0 103.114 -15.5234 139.545 -58.8965c40.3955 -48.0928 52.0059 -118.717 52.0059 -199.889c0 -81.168 -11.6094 -151.795 -52.0068 -199.885c-36.4307 -43.3682 -82.3418 -58.8955 -139.533 -58.8965zM242.389 7.62891
c54.0518 0.000976562 87.6338 17.252 118.995 55.4414c32.79 39.9258 42.1934 111.753 42.1934 188.159c0 76.4111 -12.7793 152.383 -42.1934 188.164c-31.3779 38.1689 -63.9727 55.4395 -118.709 55.4395c-32.2744 0 -53.0127 -5.61133 -73.8652 -22.9561
c-17.6533 -14.6816 -30.5557 -33.6699 -31.04 -76.5215l-29.0986 39.791c-22.3096 -55.0938 -28.168 -116.908 -28.168 -183.917c0 -76.4062 9.4043 -148.233 42.1934 -188.159c31.3623 -38.1895 63.9736 -55.4404 119.692 -55.4414z" />
    <glyph glyph-name="one" unicode="1" horiz-adv-x="295" 
d="M185.658 392c0.341797 -90 -0.158203 -281 9.8418 -362l-45 -45c16 136.5 17.5 253 20 406c1.20898 73.9902 -15 85 -159.5 27.5l-6 6l180.5 90.5c0 -38.29 -0.00488281 -80.0342 0.158203 -123z" />
    <glyph glyph-name="two" unicode="2" horiz-adv-x="473" 
d="M423 38.2305l-44.999 -44.999c-59.5 15 -108.114 15 -184 15c-35.5 0 -93.5 -1.93457 -139 -15c8 45.2246 24.9814 85.7998 60.5 128.138c42.0908 50.1709 76.5 68.8428 133 102.51c45.873 27.334 82 50.0176 105.5 82.9111c18.0381 25.249 28.5 55.5713 28.5 82.8887
c0 29.2158 -10.9775 52.5801 -29.5 70.7314c-23.5 23.0293 -56 34.3408 -95 34.3408c-42.5 0 -67.833 -0.34082 -98.6465 -17.4258c-31.3682 -17.3896 -52.9648 -52.4258 -37.2178 -85.6201l-53.1367 35.1045c18.3438 30.4395 45.374 51.9619 84.168 67.6396
c28.333 11.4492 57.0049 15.5508 85.333 15.5508c50.0918 0 89.6533 -6.91113 125.999 -37.6934c27 -22.8682 40.6494 -54.0693 40.6494 -92.5166c0 -28.8096 -6.94141 -57.2129 -22.6494 -84.1611c-26.5 -45.4639 -72.5 -70.3613 -110 -93.9834
c-85.0596 -53.5801 -160.5 -91.9717 -190 -178.415c132 0 254.795 -0.304688 340.5 15z" />
    <glyph glyph-name="three" unicode="3" horiz-adv-x="467" 
d="M113.136 393.32l-53.1309 35.3076c18.3438 30.0078 48.6455 52.3887 81.499 65.8633c28 11.4854 56 15.499 89.8457 15.499c53.6543 0 96.0879 -11.3418 131.117 -40.5205c25.5371 -21.2734 40.375 -49.6602 40.375 -87.0996
c0 -35.8945 -14.0186 -62.8545 -38.9268 -85.1172c-19.0088 -16.9902 -44.9111 -30.3682 -77.7236 -36.2705c34.5615 -6.43164 65.3135 -20.1562 85.3232 -38.5215c26.2188 -24.0664 40.9746 -53.207 40.9746 -92.0117c0 -40.0986 -14.9873 -69.1191 -41.5 -94.0684
c-32.502 -30.5859 -81.2822 -43.8828 -140.987 -43.8828c-35 0 -66.9287 4.46191 -95.833 15.5537c-37.167 14.2627 -65.8232 36.6279 -84.167 67.1387l53.1357 35.9033c-15.7461 -33.2959 5.91504 -68.3174 37.2178 -85.8857
c27.4785 -15.4248 58.6455 -18.4746 89.7998 -18.4746c49.8457 0 90.3457 11.3223 119.192 40.9463c20.2969 20.8438 33.2695 49.0898 33.2695 84.5117c0 35.0732 -11.5967 63.9053 -33.2695 83.5479c-25.0488 22.7041 -52.0137 34.1875 -88.5127 39.1553
c-14.209 -1.88281 -29.21 -2.52539 -41.334 -2.52539c-39.1299 0 -39.1299 16.1758 0 16.1758c14.2256 0 27.1035 -0.891602 40.3809 -2.68945c34.0859 4.85742 60.4678 16.9189 82.9805 36.7891c20.5898 18.1709 31.6064 44.7227 31.6064 77.29
c0 32.915 -10.9688 58.7695 -31.6064 78.2559c-26.7861 25.293 -65.3623 37.8037 -111.362 37.8037c-29.5 0 -55.5 -4.52051 -81.1465 -18.2012c-31.5459 -16.8281 -52.9648 -51.7236 -37.2178 -84.4727z" />
    <glyph glyph-name="four" unicode="4" horiz-adv-x="477" 
d="M342.902 304.089c0 -12.6621 -0.117188 -67.6533 2.0957 -128.258c27.2334 1.10547 63.8887 5.1416 87.502 14.6699l-30 -30c-28.5381 0 -37.0312 -0.0644531 -56.8926 -0.0644531c2.04199 -47.7314 5.62109 -96.9922 11.8926 -130.437l-45 -45
c6.00195 42.0146 9.57324 111.147 11.6299 175.358c-100.625 -0.450195 -193.51 -3.54004 -279.13 -14.8584c50.3184 75.8232 187.386 281.938 219.123 356.889l62.377 12.6123c-55.2061 -61.9639 -147.767 -197.746 -233.667 -324.999
c78.7178 -11.7842 143.294 -14.4082 231.757 -14.498c1.59766 55.4033 2.08789 105.08 2.08789 127.475c0 34.0547 1.32227 56.0215 -4.67773 74.0215l30 30c-9.5 -38.5 -9.09766 -75.9111 -9.09766 -102.911z" />
    <glyph glyph-name="five" unicode="5" horiz-adv-x="443" 
d="M91.4248 304.993c33.8125 27.7939 74.6426 38.252 124.129 38.2529c59.7051 -0.000976562 113.106 -14.4717 150.487 -56.9971c27.2412 -30.9902 42.5 -69.1914 42.5 -118.167c0 -49.0371 -15.373 -87.4756 -42.5 -118.336
c-37.3809 -42.5254 -90.7822 -56.9961 -150.487 -56.9971c-58.5527 -0.172852 -118.302 19.1699 -152.013 58.5c-7 8.16699 -13.333 16.833 -20 29.5l35 42c3 -30.5 13.374 -53.7666 27.5 -71.5c23.5 -29.5 56 -43.5234 109.666 -43.5234
c57.4443 0 97.3604 16.1543 129.693 53.585c21.5498 24.9473 33.2705 63.0859 33.2705 106.661c0 43.5928 -11.5967 81.623 -33.2705 106.714c-32.333 37.4297 -72.249 53.584 -129.693 53.585c-57.751 -0.000976562 -94.874 -15.3398 -127.207 -52.7705l-35 -25.5
c26.5 76.167 36.167 175 42.5 242.335l-17.5 17.665c30.5 -9.5 91.001 -15 109.001 -15c55 0 84.5 0 141 15l45 -45c-76 12.5 -124 15 -185.5 14.8779c-33.5547 0.12207 -48.001 0.12207 -79.501 0.12207z" />
    <glyph glyph-name="six" unicode="6" horiz-adv-x="485" 
d="M114.615 217.302l-11.4072 11.3369c-9.73145 21.6035 -4.03223 40.0205 3.40625 54.2607c23.3555 44.7158 83.6494 67.1768 140.627 67c58.0996 -0.000976562 110.064 -14.7559 146.44 -58.1191c26.3965 -31.4668 41.3555 -70.9189 41.3555 -120.666
c0 -49.6826 -14.8486 -88.8926 -41.3555 -120.493c-36.376 -43.3623 -88.3408 -58.1182 -146.44 -58.1191c-58.0986 0.000976562 -104.622 16.5771 -140.315 60.8975c-39.3916 48.9111 -51.9268 116.69 -51.9268 197.847c0 81.1592 25.5537 151.773 65.8877 199.859
c36.376 43.3672 82.2139 58.8887 139.329 58.8887s105.731 -12.2373 144.994 -42.3184l-40.0596 -49.7607c-3.87695 27.5645 -11.1445 45.9414 -31.498 59.7256c-22.5078 15.2422 -46.0361 17.3555 -73.4707 17.3555c-54.6934 0 -87.2627 -17.2822 -118.615 -55.4756
c-29.3906 -35.8037 -56.0635 -111.825 -56.0635 -188.285c0 -76.4551 10.5674 -145.315 42.1602 -186.269c29.5977 -38.3691 63.9219 -57.4863 119.894 -57.4873c55.6729 0.000976562 94.3594 16.4932 125.696 54.707c21.0059 25.6152 32.2451 64.6357 32.2451 108.948
c0 44.291 -11.3594 83.4229 -32.2451 108.891c-31.3369 38.2139 -70.0234 54.707 -125.696 54.707c-52.0127 0 -83.5117 -14.3164 -106.287 -44.4336c-13.6924 -18.1055 -23.7461 -41.8604 -26.6543 -72.9971z" />
    <glyph glyph-name="seven" unicode="7" horiz-adv-x="431" 
d="M293 485c-60.5 0 -148 0 -228 -15l-45 45c112.5 -15 270.5 -20 386 -8.5c-57.6211 -138.491 -151.998 -372.064 -191.166 -492.239l-58.834 -24.2607c66.0918 119.803 155.117 334.16 218.5 486.5c-22.5 8.5 -54.5 8.5 -81.5 8.5z" />
    <glyph glyph-name="eight" unicode="8" horiz-adv-x="510" 
d="M379.04 335.544c5.23535 13.4883 9.71191 27.6729 9.71191 54.8584c0 29.0371 -9.4707 53.0889 -27.1738 69.4121c-14.8643 13.7051 -42.3711 34.8525 -105.928 34.8525c-48.2236 -0.00195312 -79.8711 -10.6006 -106.177 -34.8516
c-17.7031 -16.3232 -27.1738 -40.375 -27.1738 -69.4121c0 -29.0225 9.57324 -53.1484 27.1738 -69.375c26.4072 -24.3447 59.0088 -34.8496 105.927 -34.8496c43.832 0 70.377 9.12012 89.5713 28.3047c11.5371 11.5361 20.0088 26.6689 22.4609 46.5068zM333.245 281.896
c30.1934 -7.54297 56.9717 -20.3594 78.5908 -40.6328c28.1826 -26.4287 44.1533 -58.3828 44.1533 -101.341c0 -42.9082 -15.8516 -74.6582 -44.1533 -101.198c-38.834 -36.418 -94.3135 -48.8105 -156.342 -48.8115
c-62.0264 0.000976562 -117.508 12.3936 -156.343 48.8115c-28.3008 26.54 -44.1533 58.29 -44.1533 101.198c0 42.1924 15.333 73.8848 42.5693 100.053c20.1572 19.3652 49.251 33.0352 81.9111 41.333c-18.543 6.15332 -35.1377 15.3154 -49.0586 28.3262
c-22.6406 21.1553 -35.3223 46.4463 -35.3223 80.667c0 33.6357 12.2656 58.8984 34.0557 79.7588c28.0322 26.834 77.6768 39.9971 126.34 39.9385c49.6211 -0.0595703 94.0039 -9.87988 125.072 -38.9111c22.5469 -21.0684 35.3252 -46.5225 35.3252 -80.7861
c0 -34.2207 -12.6836 -59.5117 -35.3242 -80.667c-13.4844 -12.6035 -29.4785 -21.5957 -47.3213 -27.7383zM97.5371 208.251c-8.36816 -15.7568 -12.6631 -34.0527 -12.6631 -68.8252c0 -37.4434 12.1299 -68.7275 34.7998 -89.8545
c33.8193 -31.5156 75.5703 -45.1172 135.655 -45.1191c60.4062 0.00195312 102.157 13.6035 135.978 45.1191c22.6699 21.127 34.7988 52.4111 34.7988 89.8545c0 37.4258 -12.2588 68.8027 -34.7988 89.8096c-37.5439 34.9883 -81.3936 45.1182 -135.656 45.1182
c-45.8809 0 -85.125 -6.75293 -114.706 -36.6465c-14.7764 -14.9307 -25.627 -34.5205 -28.7637 -60.2021z" />
    <glyph glyph-name="nine" unicode="9" horiz-adv-x="485" 
d="M232.79 152.595c-55.1943 0 -110.054 14.7568 -146.43 58.1201c-26.3975 31.4668 -41.3574 70.918 -41.3574 120.665c0 49.6816 14.8486 88.8926 41.3574 120.493c36.376 43.3623 88.3408 58.1191 146.44 58.1201
c58.0977 -0.000976562 103.938 -15.5264 140.314 -58.8896c40.334 -48.083 51.9258 -118.699 51.9258 -199.855c0 -81.1592 -18.4893 -148.719 -64.9141 -200.865c-36.5518 -41.0566 -83.1865 -57.8818 -140.303 -57.8818c-57.1152 0 -105.731 12.2354 -144.993 42.3174
l40.3887 49.7627c3.87598 -27.5645 11.1445 -45.9424 31.4971 -59.7246c22.5088 -15.2422 46.0371 -17.3555 73.4707 -17.3555c54.6934 0 88.2383 17.8125 119.584 54.4707c37.6523 44.0312 55.583 111.376 55.0947 189.289
c-0.476562 76.4531 -9.39453 148.326 -42.1582 188.28c-31.3369 38.2129 -63.9219 55.4746 -119.894 55.4766c-55.6738 -0.00195312 -94.3594 -16.4951 -125.696 -54.708c-21.0068 -25.6172 -32.2461 -64.6357 -32.2461 -108.947
c0 -44.291 11.3594 -83.4238 32.2461 -108.892c31.3369 -38.2139 72.8066 -54.707 125.696 -54.707c49.4121 0 79.335 14.3174 100.973 44.4336c13.0059 18.1064 22.5576 41.8613 25.3184 72.9971l10.5156 -11.3369c9.24512 -21.6035 3.83105 -40.0205 -3.23535 -54.2617
c-22.1865 -44.7158 -79.4658 -67.1777 -133.596 -67.001z" />
    <glyph glyph-name="colon" unicode=":" 
d="M70 344c0 19.8721 16.665 36 37.2002 36c20.5342 0 37.2002 -16.1279 37.2002 -36s-16.666 -36 -37.2002 -36c-20.5352 0 -37.2002 16.1279 -37.2002 36zM70 26c0 19.8711 16.665 36 37.2002 36c20.5342 0 37.2002 -16.1289 37.2002 -36s-16.666 -36 -37.2002 -36
c-20.5352 0 -37.2002 16.1289 -37.2002 36z" />
    <glyph glyph-name="semicolon" unicode=";" 
d="M70 344c0 19.8721 16.665 36 37.2002 36c20.5342 0 37.2002 -16.1279 37.2002 -36s-16.666 -36 -37.2002 -36c-20.5352 0 -37.2002 16.1279 -37.2002 36zM107.2 61.998c-20.5352 0 -37.1992 -16.1279 -37.1992 -35.999s16.665 -36 37.2002 -36
c2.14453 0 4.24609 0.175781 6.29199 0.513672c-2.3584 -10.7842 -6.24219 -20.4697 -8.73438 -27.0996c-12.9521 -34.4502 -31.1143 -62.4062 -52.5586 -97.2246l53.998 15.7568c-1.52734 28.6172 4.25488 54.7285 13.6006 80.2197
c5.77637 15.7588 12.2031 30.7549 18.2832 43.7646c3.98926 5.73535 6.31836 12.6406 6.31836 20.0684c0 19.8711 -16.666 36 -37.2002 36z" />
    <glyph glyph-name="less" unicode="&#x3c;" horiz-adv-x="436" 
d="M77.001 249.857c80.6348 -57.0762 203.438 -142.176 268.573 -172.125l10.71 -62.7314c-54.9834 52.0703 -191.134 151.832 -306.286 234.997c115.151 83.1631 251.303 182.933 306.286 235.003l-10.71 -62.7314c-65.1357 -29.9502 -187.938 -115.335 -268.573 -172.412z
" />
    <glyph glyph-name="equal" unicode="=" horiz-adv-x="517" 
d="M258.824 194c-22.0352 0 -79.8242 -2.5 -128.824 -15l-45 45c65.5 -12.5 131.677 -15 174 -15.0039c22.0352 0 79.8242 2.5 128.824 15l45 -45c-65.5 12.5 -131.677 15 -174 15.0039zM432.824 298.996c12.5 12.4961 -53.6768 14.9961 -96 15
c-22.0352 0 -79.8242 -2.5 -128.824 -15l-45 45c-12.5 -12.4961 53.6768 -14.9961 96 -15c22.0352 0 79.8242 2.5 128.824 15z" />
    <glyph glyph-name="greater" unicode="&#x3e;" horiz-adv-x="436" 
d="M359.284 249.857c-80.6348 57.0771 -203.438 142.462 -268.573 172.412l-10.71 62.7314c54.9834 -52.0703 191.135 -151.84 306.286 -235.003c-115.152 -83.165 -251.303 -182.927 -306.286 -234.997l10.71 62.7314c65.1357 29.9492 187.938 115.049 268.573 172.125z
" />
    <glyph glyph-name="question" unicode="?" horiz-adv-x="412" 
d="M199.364 255.595c0 -35.5947 2.23047 -70.9736 16.0391 -98.5928l-37 -22c5 42 5.5 92.9668 5.5 136c46.6904 0.763672 79.5127 12.1006 106.239 44.085c18.4219 22.0479 28.2803 55.5723 28.2803 93.7695c0 38.1787 -10.0186 72.1455 -28.2793 93.7227
c-24.1543 28.5381 -56.1523 45.7627 -91.5166 45.7627c-51.999 0 -105.577 -30.9502 -95.2227 -78.3398l-43.4043 46.541c29.627 29.2988 69.7129 44.332 123.628 44.2998c49.9502 -0.0302734 94.3555 -13.1836 126.026 -48.3604
c24.4141 -27.1162 38.25 -60.7725 38.25 -103.981c0 -43.1553 -13.7334 -76.6035 -38.25 -103.834c-28.2969 -31.4297 -66.7949 -45.4199 -110.29 -49.0723zM157.203 26.002c0 19.8711 16.665 36 37.2002 36s37.2002 -16.1289 37.2002 -36s-16.665 -36 -37.2002 -36
s-37.2002 16.1289 -37.2002 36z" />
    <glyph glyph-name="A" unicode="A" horiz-adv-x="700" 
d="M130 585v-670h440v670h-440zM100 600h500v-700h-500v700z" />
    <glyph glyph-name="bracketleft" unicode="[" horiz-adv-x="311" 
d="M132.629 548.739c-13.3047 -90.7393 -16.5 -287.343 -17.6299 -430.739c0 -23.7246 -2.04688 -126.202 11.8984 -170.392c26.4639 0.643555 76.4893 4.43848 119.426 15.3916l45 -45c-57.3447 10.9434 -116.078 14.3506 -158 15l-38.3242 -19
c6.32422 58 5 160.034 4.8418 203c0 91 0.482422 324 -9.8418 403.688l45 45c67.1523 1.92969 105.097 6.99707 156.309 14.3125l-45 -45c-40.9639 7.68066 -67.3066 11.7861 -113.679 13.7383z" />
    <glyph glyph-name="backslash" unicode="\" horiz-adv-x="418" 
d="M203.285 241.636c-54.9883 82.0889 -144.114 212.792 -194.614 264.344l12.3721 62.4258c32.9424 -68.5713 113.842 -194.184 192.087 -313.44c55.7207 -81.5781 145.188 -210.083 195.822 -260.834l-11.7988 -62.5361
c-33.416 67.9541 -114.871 191.992 -193.868 310.041z" />
    <glyph glyph-name="bracketright" unicode="]" horiz-adv-x="311" 
d="M178.695 -54.7393c13.3047 90.7393 16.5 287.345 17.6299 430.74c0 23.7246 2.04688 126.201 -11.8984 170.392c-26.4639 -0.643555 -76.4883 -4.43848 -119.427 -15.3916l-45 45c57.3457 -10.9434 116.078 -14.3516 158 -15.001l38.3242 19
c-6.32422 -58 -5 -160.034 -4.8418 -203c0 -91 -0.482422 -324 9.8418 -403.688l-45 -45c-67.1523 -1.92969 -105.096 -6.99609 -156.308 -14.3115l45 45c40.9639 -7.68066 67.3066 -11.7871 113.679 -13.7393z" />
    <glyph glyph-name="grave" unicode="`" horiz-adv-x="217" 
d="M106.209 466.461c-8.83887 18.2197 -27.9551 61.877 -71.1436 50.0938l42.9355 76.4443c6.2998 -38.3867 17.7998 -72.749 39.4688 -116.491c12.0508 -24.3291 27.0059 -46.502 48.8086 -65.0986l-25.7539 -50.0078c-10.4834 39.5264 -18.251 71.9473 -34.3154 105.06z
" />
    <glyph glyph-name="afii57645" unicode="&#x5be;" horiz-adv-x="497" 
d="M422.824 469.996c12.5 12.4961 -53.6768 14.9961 -96 15c-22.0352 0 -79.8242 -2.5 -128.824 -15l-45 45c-12.5 -12.4961 53.6768 -14.9961 96 -15c22.0352 0 79.8242 2.5 128.824 15z" />
    <glyph glyph-name="afii57664" unicode="&#x5d0;" horiz-adv-x="522" 
d="M267.545 226.338c74.8096 -88.0635 154.984 -183.908 195.816 -242.126l5.14844 64.3809c-30.0713 12.9287 -72.4512 60.0322 -121.124 117.055c16.377 7.39453 31.3848 16.4482 47.2783 28.8662c27.8604 21.7656 45.6992 66.9531 53.0703 127.001
c2.75 22.4033 7.36133 54.5303 9.43066 71.3818l14.833 122.103l-52.291 -23.8047c29.707 -28.835 22.2168 -96.3154 14.1543 -159.609c-5.75 -45.1348 -17.1836 -89.0938 -43.9297 -109.99c-20.8926 -16.3232 -39.4404 -26.0615 -62.4209 -32.5684l-43.2695 50.6885
c-84.8096 99.4121 -175.973 209.583 -222.605 276.072l-5.14746 -64.3809c36.5762 -19.4463 74.7861 -61.585 121.153 -117.104c-16.1797 -6.79688 -32.1045 -16.1123 -48.5234 -28.9404c-27.8594 -21.7656 -47.4844 -66.8301 -54.8555 -126.878
c-2.75 -22.4043 -7.36035 -54.5303 -9.42969 -71.3828l-14.833 -122.102l51.7949 23.8652c-26.1289 37.4629 -24.2441 76.4297 -13.7188 159.053c5.75 45.1348 18.9697 88.9727 45.7158 109.868c21.7256 16.9736 41.6338 26.4736 64.1299 32.0625z" />
    <glyph glyph-name="afii57665" unicode="&#x5d1;" horiz-adv-x="520" 
d="M47 515c75 -15 119 -15.001 201 -15.001c60.5 0 94 -15 119 -40c32 -32 39 -73.5 39 -136c0 -112 -3 -186 6 -284l-25 -25c27 0 74.5 3.5 103 15l-30 -30c-35.3555 0 -39.9453 0 -73.5 -0.12207c-133.479 -0.484375 -270.5 0.12207 -354.5 -9.87793l45 45
c77.3496 -14.5029 209.854 -19.9834 300.801 -19.999c9.08984 116.189 7.19922 190.81 7.19922 325c0 45.4805 -7 83 -36 112c-24 24 -55.5 33 -101 33c-69 0 -101 0 -156 -15z" />
    <glyph glyph-name="afii57666" unicode="&#x5d2;" horiz-adv-x="403" 
d="M46.499 515c44.2754 -11.2217 83.6543 -15 136.549 -14.8438c33.8066 0.0996094 57.583 -8.66504 77.7744 -23.1572c36.1631 -25.957 48.8789 -65.6113 57.582 -127.162c15.5967 -110.298 32.3545 -217.76 54.9199 -312.708l-38.3223 -52.1299
c-3.3877 58.3242 -8.20898 116.025 -14.4219 175.235c-111.98 -78.2676 -187.713 -130.708 -227.256 -173.509l-60.3232 20.2734c92.457 37.5352 168.929 88.4375 285.643 171.318c-6.41797 58.8379 -14.1904 119.362 -23.2783 183.63
c-6.33301 44.79 -18.4941 80.5254 -51.2676 104.049c-18.2051 13.0664 -37.7451 18.8643 -64.0303 18.9209c-38.2178 0.0830078 -62.9746 -2.47266 -88.6309 -14.917z" />
    <glyph glyph-name="afii57667" unicode="&#x5d3;" horiz-adv-x="510" 
d="M32 515c105 -15 262 -15 438 -15l-30 -30c-19.3633 12.3232 -46 15 -73 15c0 -150 5 -329 15 -455l-45 -45c15 136 9 335 9 500c-91 0 -189 0 -269 -15z" />
    <glyph glyph-name="afii57668" unicode="&#x5d4;" horiz-adv-x="530" 
d="M77 -15c12.2646 83.9199 24 183 5 278l42 42c-19.2588 -93.4473 -15.7217 -195.063 -2 -275zM60 515c75 -15 170 -15 252 -15c60.5 0 94 -15 119 -40c32 -32 39 -73.5 39 -136c0 -112 1 -196 10 -294l-45 -45c10 122 14 217 14 355c0 45.4805 -7 83 -36 112
c-24 24 -55.5 33 -101 33c-69 0 -152 0 -207 -15z" />
    <glyph glyph-name="afii57669" unicode="&#x5d5;" horiz-adv-x="265" 
d="M150.658 392c0 -91 -0.158203 -282 14.8418 -362l-45 -45c11.7363 82.1562 13.79 252.473 15 406c0 27 -1.5 83 -45.5 94l60.5 30c0 -38.29 0 -80.0342 0.158203 -123z" />
    <glyph glyph-name="afii57670" unicode="&#x5d6;" horiz-adv-x="290" 
d="M30 515c68 -15 136 -15 230 -15l-24 -24c-27.5 9 -52 9 -79 9c0 -150 5 -329 15 -455l-45 -45c15 136 9 334 9 499c-20 -1.33398 -41.833 -5.5 -61 -14z" />
    <glyph glyph-name="afii57671" unicode="&#x5d7;" horiz-adv-x="566" 
d="M115 470.005l-45 44.9951c75 -15 196 -15 278 -15c60.5 0 94 -15 119 -40c32 -32 39 -73.5 39 -136c0 -112 1 -196 10 -294l-45 -45c10 122 14 217 14 355c0 45.4805 -7 83 -36 112c-24 24 -55.5 33 -101 33c-62.1289 0 -165.393 0 -216.333 -10.9512
c0 -112 0.833008 -346.049 9.83301 -444.049l-45 -45c10 122 18.5 347.005 18.5 485.005z" />
    <glyph glyph-name="afii57672" unicode="&#x5d8;" horiz-adv-x="554" 
d="M259.777 416.16l-43.4053 46.54c29.627 29.2988 69.627 44.2988 123.627 44.2988c56.5 0 101 -24 131 -66.5c33.1982 -47.0303 39.875 -109.088 30.2471 -187.504c-9.62793 -78.4131 -41.3896 -149.642 -93.667 -196.099
c-47.1436 -41.8965 -101.913 -56.8965 -168.985 -56.8965c-42.3232 0 -71.96 0 -104.722 -15c1.63672 82.9893 -18.3115 252.918 -35.8223 405.119c-3.28809 26.7373 -11.6035 81.9844 -56.6221 86.7529l56.4004 38.1279l15.1514 -121.78
c11.0879 -90.1162 32.7939 -270.72 65.917 -378.22h61.3643c65.7402 0 107.056 16.6416 148.743 53.4824c43.585 38.5176 73.2363 110.807 82.2871 184.516c9.05078 73.7119 9.70996 147.502 -18.79 187.502c-24.0439 33.7461 -59 54 -97.5 54
c-51.999 0 -105.577 -30.9502 -95.2236 -78.3398z" />
    <glyph glyph-name="afii57673" unicode="&#x5d9;" horiz-adv-x="217" 
d="M107.643 381c0 27 1.85742 90.5 -42.1426 101.5l65 32.5c-6.3418 -40 -8.5 -85.5342 -8.3418 -128.5c0.364258 -36.1953 4 -71.5 15.5 -106.5l-45 -45c7.82031 53.5156 14.9844 96.9287 14.9844 146z" />
    <glyph glyph-name="afii57674" unicode="&#x5da;" horiz-adv-x="517" 
d="M393.5 424c-29 35 -81.5 61 -147.676 61c-75.3242 0 -104.283 -1.62695 -153.824 -14.9951l-45 44.9951c65.5 -12.5 118.5 -15.0039 199 -15.0039c67.0723 0 115.05 -14.9463 157 -56.8965c49 -49 60 -116.1 60 -236.1c0 -91 -5 -282 10 -362l-45 -45
c11.7363 82.1562 15 252.468 15 406c0 100 -6.39258 165.975 -49.5 218z" />
    <glyph glyph-name="afii57675" unicode="&#x5db;" horiz-adv-x="487" 
d="M221 0c-42.3232 0 -99 -0.000976562 -174 -10.001l45 45c54.5 -20 109.039 -20 128.824 -20c66.3672 0 105.012 16.6416 142.176 53.4824c38.8564 38.5176 50 107.807 50 181.516c0 73.7119 -15.1436 147.002 -50 181.52
c-37.1836 36.8213 -75.8086 53.4824 -142.176 53.4824c-22.0352 0 -79.8242 -2.5 -128.824 -15l-45 45c65.5 -12.5 131.677 -15 174 -15.0039c67.0723 0 120 -14.9961 162 -56.8965c46.5713 -46.4609 59.957 -114.688 59.957 -193.104
c0 -78.4131 -13.3838 -146.642 -59.957 -193.099c-42 -41.8965 -94.9277 -56.8965 -162 -56.8965z" />
    <glyph glyph-name="afii57676" unicode="&#x5dc;" horiz-adv-x="497" 
d="M293.388 500c70.6328 0 104.725 -21.1504 127.607 -49.5713c42.21 -50.7002 31.8926 -107.929 -15.7979 -194.347c-54.1133 -98.0586 -97.1338 -170.24 -138.34 -259.611l-61.4697 -16.4707c69.6602 100.655 121.5 183.5 189.624 300.438
c23.1865 39.8018 52.0693 104.647 10.2227 158.99c-24.5225 33.1729 -59.374 45.5713 -111.847 45.5713c-69 0 -183.599 0 -238.599 -15c12.7109 82.5 14.7109 154 -4 226l65.79 -30c-42.0605 -11 -37.9961 -58.5898 -38.5791 -86c-0.5 -23.5 0.90918 -51.5 7 -74.5
c70.5 -5.5 126.388 -5.5 208.388 -5.5z" />
    <glyph glyph-name="afii57677" unicode="&#x5dd;" horiz-adv-x="547" 
d="M115 10.5l19.499 19.5c80 -15 204 -15 320.5 -15c6 73.5 6.5 139.5 8 234.998c1.1582 73.7031 -15.1436 147.002 -50 181.52c-37.1836 36.8213 -75.8086 53.4824 -142.176 53.4824c-9.5459 0 -34.624 -0.46875 -63.9678 -2.0166
c-27.6143 -14.0244 -51.751 -37.8857 -65.9424 -60.9834c-16.543 -26.9277 -25.5137 -68.5 -25.5137 -114.5c0 -79.3369 -5.1709 -197.162 -0.399414 -297zM181.875 481.445c-31.8535 -2.26074 -64.9512 -5.85352 -86.877 -11.4463l-45 45
c65.5 -12.5 178.677 -15 221 -15.0039c67.0723 -0.00585938 120 -14.9961 162 -56.8965c46.5713 -46.4609 49.8486 -114.875 52.501 -193.102c3 -88.5 6.45703 -156.461 11.5 -219.998l-29.5 -30c-173.5 0 -299.993 -4.14648 -375.97 -15
c3.9082 99.668 2.66895 210.401 2.66895 321.302c0 55.6992 12.3076 97.2539 31.7256 126.199c13.5107 20.1406 34.3877 39.168 55.9512 48.9453z" />
    <glyph glyph-name="afii57678" unicode="&#x5de;" horiz-adv-x="533" 
d="M174 -10l45.0029 45.002c62 -14.5 163.711 -19.0244 240.334 -20c0.666016 70 0.383789 156.863 -3.18164 240c-3.94434 91.998 -17.4326 152.392 -54.1797 188c-38.1846 37 -105.159 49.5791 -163.057 33c-59.3594 -16.998 -98.0215 -84.002 -110.204 -169.002
c-16.4229 -114.575 -28.6113 -230.866 -26.0205 -283.524l-50.6934 -38.4736c15.3389 53.7334 40.8428 202.39 60.4473 332.614c-9.58594 66.5869 -21.667 126.663 -42.8652 147.033l38.918 50.3516c1.53223 -33.5859 8.03809 -98.2305 15.5 -159.999
c15.9648 68 46.9707 120.648 107.12 142.5c64.0557 23.2705 137.148 6.92969 180.453 -37.5186c47.3213 -48.5684 55.8389 -117.685 62.7246 -195.129c7.78906 -87.6152 15.8398 -171.313 24.2129 -234.851l-29.8447 -30.0039c-105.406 -1.26562 -216.667 0 -294.667 -10z
" />
    <glyph glyph-name="afii57679" unicode="&#x5df;" horiz-adv-x="225" 
d="M130.658 392c0 -91 -0.158203 -465.001 14.8418 -545.001l-45 -45c11.7363 82.1562 13.79 435.474 15 589.001c0 27 -1.5 83 -45.5 94l60.5 30c0 -38.29 0 -80.0342 0.158203 -123z" />
    <glyph glyph-name="afii57680" unicode="&#x5e0;" horiz-adv-x="353" 
d="M39 -15l44.999 45c55.5059 -10.4072 100.293 -14.0273 176.865 -15.0029c5.70605 69.2832 7.83887 187.343 8.63477 260.503c0.879883 80.958 -8.04688 130.661 -38.7207 161.038c-32.7207 32.4014 -75.6455 37.7559 -127.013 28.4551l-40.7656 55.5078
c29.5762 -10.2676 59.5322 -17.7695 90.2822 -23.8428c7.42969 -1.46777 14.5215 -3.22559 21.3896 -5.34863c25.8418 -7.99121 48.5205 -21.1465 68.4639 -41.04c41.9141 -41.8154 44.8643 -103.388 47.25 -173.791c2.7002 -79.6504 7.57129 -182.938 12.6143 -246.475
l-30.6924 -30.6924c-105.473 -1.26562 -166.561 -4.77637 -233.308 -14.3115z" />
    <glyph glyph-name="afii57681" unicode="&#x5e1;" horiz-adv-x="506" 
d="M145.216 477.701c47.5557 5.90625 101.241 7.29883 116.194 7.29883c60.3379 0 95.4541 -16.9287 129.26 -54.3389c31.6895 -35.0703 45.457 -109.531 45.457 -184.423c0 -74.8877 -10.1309 -145.287 -45.457 -184.421
c-33.7881 -37.4307 -68.9219 -54.3369 -128.951 -54.3379c-60.3379 0 -95.4697 16.9072 -129.259 54.3379c-35.3271 39.1348 -45.4033 109.533 -45.4033 184.421c0 74.8916 6.88477 149.353 22.7285 184.423c10.5762 23.4102 21.4102 38.7988 35.4307 47.04z
M119.836 473.957c-7.10156 -7.71875 -14.5146 -18.0762 -23.3154 -33.3311c-25.9443 -44.9746 -39.9629 -114.797 -39.9629 -194.389c0 -79.5889 12.3076 -148.831 55.333 -195.985c38.7998 -42.5254 87.6973 -57.75 149.659 -57.75
c61.9736 0.000976562 110.87 15.2246 149.672 57.75c43.0234 47.1543 55.3887 116.396 55.3887 195.985c0 79.5918 -12.3662 148.854 -55.3887 196.012c-38.8018 42.5293 -87.709 57.7441 -149.672 57.75c-39.0986 0.00390625 -138.561 2.5 -206.549 15l44.9658 -45
c5.93848 1.44922 13.0684 2.76562 19.8691 3.95801z" />
    <glyph glyph-name="afii57682" unicode="&#x5e2;" horiz-adv-x="521" 
d="M434.515 515l36.499 -52.1299c-25.8809 -94.9482 -46.3896 -202.41 -65.8398 -312.708c-10.8535 -61.5508 -24.9521 -101.204 -62.0234 -127.161c-20.6963 -14.4922 -44.7793 -23.2568 -78.583 -23.1572c-52.8877 0.15625 -143.053 0.157227 -213.553 -14.8428l45 45
c21.2646 -6.50977 56.2734 -10.1943 80.8955 -12.2734c-7.43262 46.1836 -15.6719 84.4268 -26.4219 122.423c-37.0195 130.848 -62.3604 212.418 -107.009 318.443l33.4062 56.4072c9.63867 -61.749 32.8242 -157.298 57.8398 -254.919
c22.2412 -77.8213 39.249 -138.57 68.5381 -211.812l-16.8232 -31.2715c28.7334 -1.97852 56.1943 -1.95801 75.6846 -1.91602c26.2861 0.0566406 46.0293 5.85449 64.6895 18.9209c33.5957 23.5244 47.0039 59.2578 54.9023 104.048
c23.9639 135.903 41.4609 255.065 52.7979 376.948z" />
    <glyph glyph-name="afii57683" unicode="&#x5e3;" horiz-adv-x="517" 
d="M399 424c-29 35 -82.001 60.999 -148.177 60.999c-25.0596 0 -45.541 -0.179688 -63.541 -0.913086c-46.9131 -31.1787 -73.2832 -75.6104 -73.2832 -129.086c0 -52 26 -103 73 -91l-45 -45c-33 38 -49 82 -49 134c0 56.2881 32.3184 108.529 73.7363 129.919
c-26.2529 -1.98242 -48.2705 -5.77344 -74.7354 -12.9141l-45 44.9951c65.5 -12.5 123.5 -15.0039 204 -15.0039c67.0723 0 120.05 -14.9463 162 -56.8965c49 -49 60 -116.1 60 -236.1c0 -91 -5 -282 10 -362l-45 -45c11.7363 82.1562 15 252.468 15 406
c0 100 -10.8926 165.975 -54 218z" />
    <glyph glyph-name="afii57684" unicode="&#x5e4;" horiz-adv-x="517" 
d="M92 470.005l-45.001 44.9941c65.5 -12.5 123.5 -15.0039 204 -15.0039c67.0723 0 120 -14.9961 162 -56.8965c46.5713 -46.4609 59.957 -114.688 59.957 -193.104c0 -78.4131 -13.3838 -146.642 -59.957 -193.099c-42 -41.8965 -94.9277 -56.8965 -162 -56.8965
c-84 0 -129 0 -204 -10l45 45c55.333 -18.333 101.5 -20 158.824 -20c66.3672 0 105.012 16.6416 142.176 53.4824c38.8564 38.5176 50 107.805 50 181.514c0 73.7119 -15.1436 147.004 -50 181.521c-37.1836 36.8213 -76 53.4824 -142.176 53.4824
c-25.1621 0 -45.707 -0.181641 -63.7598 -0.921875c-45.7559 -30.9873 -73.0635 -75.2373 -73.0635 -129.078c0 -52 26 -103 73 -91l-45 -45c-33 38 -49 82 -49 134c0 56.8672 33.0693 108.636 73.6836 129.915c-26.2295 -1.9834 -48.2363 -5.77441 -74.6836 -12.9102z" />
    <glyph glyph-name="afii57685" unicode="&#x5e5;" horiz-adv-x="502" 
d="M268.596 -210.449c-34.9854 136.001 -95.917 331.429 -157.333 517.871c-22.8389 69.3301 -47.1074 133.627 -73.4414 151.024l29.1787 56.5547c9.30371 -40.2236 30.3584 -109.809 54.1377 -186.062c26.625 -85.3779 53.3477 -167.833 79.6709 -242.86l7.97754 35.7314
c37.1221 19.0488 61.5293 27.6914 100.096 51.7832c63.2588 39.5166 89.666 95.8203 99.6113 157.606c10.1387 62.9961 19.9375 130.178 -8.78418 159.995l53.0615 22.0342l-18.9268 -121.535c-2.63477 -16.7734 -8.32227 -48.7275 -11.8232 -71.0254
c-9.38379 -59.7666 -38.8525 -118.69 -102.543 -161.631c-47.2188 -31.834 -73.333 -49.3242 -115.76 -81.2266c32.2939 -91.4756 63.9551 -171.494 94.0557 -231.706z" />
    <glyph glyph-name="afii57686" unicode="&#x5e6;" horiz-adv-x="510" 
d="M424.389 390.823c-13.8223 -64.3496 -27.2656 -139.385 -28.0039 -183.889l-46.4219 -29.8721l59.2139 -69.418c23.1982 -27.3281 42.501 -45.7363 31.0195 -78.126c-6.62695 -18.6973 -25.8301 -29.5195 -49.1992 -29.5195c-75.4404 0 -269 0 -344 -15l45 45
c55 -15 225.7 -15 290.5 -15c17.2002 0 27.7949 8.58594 32 21.1992c8.7998 26.4004 -8.0332 42.3594 -23.085 59.8828c-161.415 187.918 -254.415 304.918 -329.877 362.514l5.46191 63.4043c57.3975 -80.793 182.682 -227.601 279.69 -341.104
c25.876 58.3652 43.4824 128.929 62.6729 212.165c6.06641 26.3096 16.1318 81.4307 -24.5371 101.509l65.4854 16.4941z" />
    <glyph glyph-name="afii57687" unicode="&#x5e7;" horiz-adv-x="520" 
d="M47 515c75 -15 187.001 -15 269.001 -15c70.6328 0 104.725 -21.1504 127.606 -49.5713c42.21 -50.7002 29.3926 -116.43 -2.61914 -177.983c-51.8701 -99.7393 -90.4883 -176.946 -125.187 -265.681l-59.8018 -21.7656c68.5 105.5 114.396 185.752 172.718 310.822
c10.9697 23.5254 40.9756 89.2646 -0.870117 143.607c-24.5234 33.1729 -59.374 45.5713 -111.848 45.5713c-69 0 -169 0 -224 -15zM130.659 160c0 -91 -0.158203 -248 14.8418 -328l-45 -45c11.7363 82.1562 14 219 15 372c0.288086 43.999 -6.5 92.5 -30 117.5l45 22.5
c0 -38.29 0 -96.0342 0.158203 -139z" />
    <glyph glyph-name="afii57688" unicode="&#x5e8;" horiz-adv-x="510" 
d="M435.5 250c3 -88.5 6.45605 -156.463 11.499 -220l-45 -45c8.24121 74.7148 9.5 169.5 11 264.998c1.1582 73.7031 -15.1436 147.002 -50 181.52c-37.1836 36.8213 -75.8086 53.4824 -142.176 53.4824c-22.0352 0 -79.8242 -2.5 -128.824 -15l-45 45
c65.5 -12.5 131.677 -15 174 -15.0039c67.0723 0 120 -14.9961 162 -56.8965c46.5713 -46.4609 49.8486 -114.873 52.501 -193.1z" />
    <glyph glyph-name="afii57689" unicode="&#x5e9;" horiz-adv-x="645" 
d="M528.835 160.803c13.4834 138.091 29.0479 280.412 26.4697 354.198l39.9385 -49.5479c-18.5693 -61.7002 -32.9053 -193.817 -43.8154 -290.984c-6.97363 -62.1104 -16.123 -102.469 -48.123 -134.469c-25 -25 -58.5 -40 -119 -40c-82 0 -184.5 3 -248.71 -15
c1.9043 100.327 -15.0811 261.223 -29.9697 405.173c-2.98926 26.834 -10.6797 82.3232 -55.627 88.3848l56.8066 36.5127l13.7744 -122.226c4.33203 -37.627 11.1143 -95.9014 19.2705 -156.729l12.2793 23.1338c30.25 -8.25 57.8496 -8.25 95.7998 -8.25
c25.0254 0 42.3506 4.9502 55.5508 18.1504c15.9502 15.9502 21.4932 36.3486 22.7236 61.333c2.46094 75.2871 3.0791 141.737 -0.895508 184.519l42.7314 -47.1592c-7.68164 -32.1475 -18.5059 -82.4287 -22.7549 -137.248
c-1.69336 -34.333 -6.80469 -55.9941 -24.4033 -73.5938c-13.75 -13.75 -32.1748 -22 -65.4502 -22c-42.8672 0 -75.8867 0 -114.473 -7.08398c11.2383 -82.8555 24.9199 -168.923 38.3496 -212.916h205c45.5 0 77 9 101 33c29 29 38.6748 67.5811 43.5273 112.803z" />
    <glyph glyph-name="afii57690" unicode="&#x5ea;" horiz-adv-x="572" 
d="M354 500c60.5 0 93.999 -14.999 118.999 -39.999c32 -32 39 -73.5 39 -136c0 -112 1 -196 10 -294l-45 -45c10 122 14 217 14 355c0 45.4805 -7 83 -36 112c-24 24 -55.5 33 -101 33c-46.2666 0 -120.437 -4 -177 -4c-3.5 -54.5 -2.66504 -156.388 -2.66504 -240.833
c0 -49.376 1.48535 -97.959 3.61133 -139.167c1.42578 -27.6494 3.13965 -51.9795 4.88672 -71l-30.167 -30.167c-61.4541 -2.16113 -100.711 -3.83984 -142.666 -9.83301l45 45c28.5508 -5.35352 58.333 -10.334 94.9971 -10.333
c1.19531 17.2461 2.51758 36.1768 3.79785 56.333c3.23535 50.9609 6.20605 109.762 6.20605 169c0 67.9619 -4.5 137 -16.874 196.522l24.1279 33.6416c-23.8613 -2.19434 -49.2783 -5.80762 -65.2539 -10.165l-45 45c75 -15 215 -15 297 -15z" />
    <glyph glyph-name="endash" unicode="&#x2013;" horiz-adv-x="588" 
d="M283.399 254l109.835 -0.00390625c-32.7451 0 -121.621 0.5 -194.437 -12l-39.9629 40c-12.5 -12.4961 83.8408 -12.9961 146.732 -13c32.7451 0 120.621 0.5 193.438 13l39.9629 -40c-97.334 12.5 -192.676 12 -255.568 12.0039z" />
    <glyph glyph-name="emdash" unicode="&#x2014;" horiz-adv-x="835" 
d="M388.295 254l163.15 -0.00390625c-50.6807 0 -186.595 0.5 -299.295 -12l-40 40c-12.5 -12.4961 137.707 -12.9961 235.05 -13c50.6807 0 185.595 0.5 298.295 13l40 -40c-150.649 12.5 -299.857 12 -397.2 12.0039z" />
    <glyph glyph-name="afii00208" unicode="&#x2015;" horiz-adv-x="1138" 
d="M517.119 254l228.65 -0.00390625c-72.7158 0 -266.419 0.5 -428.119 -12l-40 40c-12.5 -12.4961 203.884 -12.9961 343.55 -13c72.7158 0 265.419 0.5 427.12 13l40 -40c-216.151 12.5 -431.535 12 -571.201 12.0039z" />
    <glyph glyph-name="ellipsis" unicode="&#x2026;" horiz-adv-x="854" 
d="M108.333 26c0 19.8711 16.665 36 37.2002 36c20.5342 0 37.2002 -16.1289 37.2002 -36s-16.666 -36 -37.2002 -36c-20.5352 0 -37.2002 16.1289 -37.2002 36zM373.333 26c0 19.8711 16.665 36 37.2002 36c20.5342 0 37.2002 -16.1289 37.2002 -36
s-16.666 -36 -37.2002 -36c-20.5352 0 -37.2002 16.1289 -37.2002 36zM638.333 26c0 19.8711 16.665 36 37.2002 36c20.5342 0 37.2002 -16.1289 37.2002 -36s-16.666 -36 -37.2002 -36c-20.5352 0 -37.2002 16.1289 -37.2002 36z" />
    <glyph glyph-name="SF110000" unicode="&#x2502;" horiz-adv-x="634" 
d="M334 750v-1000h-34v1000h34z" />
  </font>
</defs>
</svg>
