<?xml version="1.0" standalone="no"?>
<!DOCTYPE svg PUBLIC "-//W3C//DTD SVG 1.1//EN" "http://www.w3.org/Graphics/SVG/1.1/DTD/svg11.dtd" >
<svg>
<metadata>
Created by FontForge 20090914 at Thu Oct 12 23:14:28 2017
 By www-data
Copyright 2009 by Yoram Gnat (yoram.gnat@gmail.com)
Distributed under the terms of GNU General Public License version 2(http://www.gnu.org/licenses/gpl.html). 

Hebrew OpenType Layout logic copyright (c) 2003 &#38; 2007, Ralph Hancock &#38; John Hudson. This layout logic for Biblical Hebrew is open source software under the MIT License; for details  contact copyright holders at &#60;license@tiro.com&#62;.

As a special exception, if you create a document which uses this font, and embed this font or unaltered portions of this font into the document, this font does not by itself cause the resulting document to be covered by the GNU General Public License. This exception does not however invalidate any other reasons why the document might be covered by the GNU General Public License. If you modify this font, you may extend this exception to your version of the font, but you are not obligated to do so. If you do not wish to do so, delete this exception statement from your version.
</metadata>
<defs>
<font id="KeterAramTsova" horiz-adv-x="0" >
  <font-face 
    font-family="Keter Aram Tsova"
    font-weight="600"
    font-stretch="normal"
    units-per-em="2048"
    panose-1="2 0 0 0 0 0 0 0 0 0"
    ascent="1638"
    descent="-410"
    x-height="920.001"
    cap-height="1587"
    bbox="-700.001 -911 2661 2121"
    underline-thickness="70"
    underline-position="-170"
    unicode-range="U+0020-U+FB4F"
  />
<missing-glyph horiz-adv-x="748" 
d="M68 0v1365h544v-1365h-544zM136 68h408v1229h-408v-1229z" />
    <glyph glyph-name=".notdef" horiz-adv-x="748" 
d="M68 0v1365h544v-1365h-544zM136 68h408v1229h-408v-1229z" />
    <glyph glyph-name=".null" horiz-adv-x="1099" 
d="M426 348c12.667 20 25.5 36.668 38.5 50.001s23 22.166 30 26.499s19.5 11.166 37.5 20.499c22 -43.333 49.333 -80.666 82 -111.999c-33.333 -21.333 -69 -52.333 -107 -93c-44 34.667 -71 70.667 -81 108zM249 887.001c-2 7.33301 -3.00391 14.666 -3.00391 21.999
c0 70 62 151.333 186 244c24.667 15.333 45.834 26 63.501 32s38.834 9 63.501 9c58 0 108 -20.5 150 -61.5s63 -90.5 63 -148.5c0 -25.333 -4.16699 -50 -12.5 -74s-17.666 -44.333 -27.999 -61s-25.833 -35 -46.5 -55s-37.5 -35.167 -50.5 -45.5
s-32.167 -24.833 -57.5 -43.5c-7.33301 -5.33301 -12.666 -9.33301 -15.999 -12v-111l-106 -106v192l100 111c52 10.667 81.667 17 89 19c3.33301 4.66699 6 10.5 8 17.5s3.83301 16.333 5.5 28s3.16699 21.167 4.5 28.5c0 60.667 -23.333 111.834 -70 153.501
s-101.667 62.5 -165 62.5c-16.667 -3.33301 -30 -8 -40 -14s-17.167 -14 -21.5 -24s-7 -19.5 -8 -28.5s-1.5 -21.5 -1.5 -37.5zM969.996 98.001v1215h-893v-1215h893zM1077 1412v-1412h-1107v1412h1107z" />
    <glyph glyph-name=".null" horiz-adv-x="1099" 
d="M426 348c12.667 20 25.5 36.668 38.5 50.001s23 22.166 30 26.499s19.5 11.166 37.5 20.499c22 -43.333 49.333 -80.666 82 -111.999c-33.333 -21.333 -69 -52.333 -107 -93c-44 34.667 -71 70.667 -81 108zM249 887.001c-2 7.33301 -3.00391 14.666 -3.00391 21.999
c0 70 62 151.333 186 244c24.667 15.333 45.834 26 63.501 32s38.834 9 63.501 9c58 0 108 -20.5 150 -61.5s63 -90.5 63 -148.5c0 -25.333 -4.16699 -50 -12.5 -74s-17.666 -44.333 -27.999 -61s-25.833 -35 -46.5 -55s-37.5 -35.167 -50.5 -45.5
s-32.167 -24.833 -57.5 -43.5c-7.33301 -5.33301 -12.666 -9.33301 -15.999 -12v-111l-106 -106v192l100 111c52 10.667 81.667 17 89 19c3.33301 4.66699 6 10.5 8 17.5s3.83301 16.333 5.5 28s3.16699 21.167 4.5 28.5c0 60.667 -23.333 111.834 -70 153.501
s-101.667 62.5 -165 62.5c-16.667 -3.33301 -30 -8 -40 -14s-17.167 -14 -21.5 -24s-7 -19.5 -8 -28.5s-1.5 -21.5 -1.5 -37.5zM969.996 98.001v1215h-893v-1215h893zM1077 1412v-1412h-1107v1412h1107z" />
    <glyph glyph-name="space" unicode=" " horiz-adv-x="400" 
 />
    <glyph glyph-name="exclam" unicode="!" horiz-adv-x="648" 
d="M100 188c28 46 56.667 84.332 86 114.999s52.333 51.334 69 62.001s43.667 26 81 46c6.66699 4 12 7 16 9c56.667 -108.667 122 -198 196 -268c-80 -50 -165.333 -123.333 -256 -220c-46.667 36 -87.667 77.333 -123 124s-58.333 90.667 -69 132zM164 1444
c23.333 25.333 50 48.666 80 69.999s55 37 75 47s45.833 21.667 77.5 35s51.5 22 59.5 26c-32 -305.333 -48 -643.333 -48 -1014c-13.333 0 -26.833 -2.16699 -40.5 -6.5s-29.167 -12.166 -46.5 -23.499s-30.833 -20.666 -40.5 -27.999l-49.5 -39.5l-47 -38.5
c0 98 -3.33301 254.167 -10 468.5s-10 382.166 -10 503.499z" />
    <glyph glyph-name="quotedbl" unicode="&#x22;" horiz-adv-x="955" 
d="M567 1526l254.002 90l34 -275c0 -20 -1.33301 -38 -4 -54c-7.33301 -42.667 -23.833 -82.167 -49.5 -118.5s-56.334 -66.333 -92.001 -90s-72.334 -43 -110.001 -58s-75.5 -25.833 -113.5 -32.5c44.667 58.667 74 127 88 205c6.66699 44.667 10 85.667 10 123
c0 50.667 -5.66699 120.667 -17 210zM181.002 1523l254.002 90l34 -275c0 -20 -1.33301 -38 -4 -54c-7.33301 -42.667 -23.833 -82.167 -49.5 -118.5s-56.334 -66.333 -92.001 -90s-72.334 -43 -110.001 -58s-75.5 -25.833 -113.5 -32.5c44.667 58.667 74 127 88 205
c6.66699 38 10 79 10 123c0 50.667 -5.66699 120.667 -17 210z" />
    <glyph glyph-name="numbersign" unicode="#" horiz-adv-x="1438" 
d="M800 465l76 186h-238l-71 -186h233zM746 327h-233l-75 -196l-170 -62l105 258h-273l138 138h191l75 186h-272l138 138h192l62 154l138 30l-72 -184h242l60 146l138 30l-68 -176h276l-86 -138h-244l-72 -186h270l-86 -138h-236l-78 -204l-170 -62z" />
    <glyph glyph-name="dollar" unicode="$" horiz-adv-x="964" 
d="M552 374v-316.001c39.333 20 69.833 47.833 91.5 83.5s32.5 71.834 32.5 108.501c0 35.333 -10.667 64.833 -32 88.5s-52 35.5 -92 35.5zM446 571.999v353c-43.333 -24 -75.166 -52 -95.499 -84s-30.5 -65.333 -30.5 -100c0 -40 12.167 -76.333 36.5 -109
s54.166 -52.667 89.499 -60zM446 1028l0.00195312 102.007l110 166v-244c38.667 0 72.667 -1.66699 102 -5s57.5 -9.83301 84.5 -19.5s49 -22.334 66 -38.001s30.5 -36.334 40.5 -62.001s15 -56.167 15 -91.5c0 -65.333 -38.667 -98 -116 -98
c-30.667 0 -56.334 11.333 -77.001 34s-31 47.667 -31 75s10.667 47.666 32 60.999c-38 36.667 -71.667 55 -101 55h-15v-415c42 0 84.5 -4.16699 127.5 -12.5s81.833 -23 116.5 -44s52 -46.167 52 -75.5c0 -72 -10.333 -139.333 -31 -202s-54 -117.834 -100 -165.501
s-101.667 -78.5 -167 -92.5v-70l-108 -148v198h-212c-89.333 0 -134 38.667 -134 116c11.333 69.333 48.666 104 111.999 104c29.333 0 52.833 -10.333 70.5 -31s26.5 -43.334 26.5 -68.001c0 -7.33301 -1 -14.333 -3 -21c16.667 -8 36 -12 58 -12
c13.333 0 40.666 3.33301 81.999 10v340c-6 1.33301 -12.5 2 -19.5 2s-14.5 -0.333008 -22.5 -1s-14 -1 -18 -1h-28c-42.667 0 -77.334 10.667 -104.001 32c-30.667 24.667 -52.667 52.167 -66 82.5s-20 66.166 -20 107.499c0 63.333 16.833 129.666 50.5 198.999
s72.334 125.5 116.001 168.5s80.834 64.5 111.501 64.5z" />
    <glyph glyph-name="percent" unicode="%" horiz-adv-x="1849" 
d="M409 1161c-38.667 0 -70.834 -15.333 -96.501 -46s-38.5 -66.667 -38.5 -108c0 -50 22 -89.333 66 -118s95 -43 153 -43c16 0 34.5 17.5 55.5 52.5s31.5 63.167 31.5 84.5c0 48.667 -16.667 90.5 -50 125.5s-73.666 52.5 -120.999 52.5zM100 947
c0 51.333 22.668 98.8311 68.001 142.498s101.666 77.5 168.999 101.5s135.333 36 204 36c54 0 102 -16 144 -48s63 -72 63 -120c0 -31.333 -12.667 -65.166 -38 -101.499s-57.5 -69.166 -96.5 -98.499s-84.5 -53.833 -136.5 -73.5s-102.333 -29.5 -151 -29.5
c-60 0 -112.667 17.833 -158 53.5s-68 81.5 -68 137.5zM1410 672.998c-38.667 0 -70.833 -15.168 -96.5 -45.501s-38.5 -66.166 -38.5 -107.499c0 -50 22.167 -89.333 66.5 -118s95.5 -43 153.5 -43c16 0 34.333 17.333 55 52s31 62.667 31 84
c0 48.667 -16.5 90.5 -49.5 125.5s-73.5 52.5 -121.5 52.5zM1101 459.997c0 50.667 22.6689 98 68.002 142s101.666 78 168.999 102s135.333 36 204 36c54 0 102 -16.167 144 -48.5s63 -72.5 63 -120.5c0 -31.333 -12.667 -65 -38 -101s-57.5 -68.667 -96.5 -98
s-84.333 -53.833 -136 -73.5s-101.834 -29.5 -150.501 -29.5c-60.667 0 -113.667 17.833 -159 53.5s-68 81.5 -68 137.5zM1126 1508h184l-572 -1508h-196z" />
    <glyph glyph-name="ampersand" unicode="&#x26;" horiz-adv-x="2405" 
d="M583 565c-4.66699 14.667 -11.3291 30.335 -19.9961 47.002s-15.5 33.334 -20.5 50.001s-7.5 39 -7.5 67c0 44.667 14.333 86.167 43 124.5s66 70.5 112 96.5s98.833 49.5 158.5 70.5s118.834 37.667 177.501 50s117 22.5 175 30.5s106.667 13.5 146 16.5
s70.666 4.5 93.999 4.5c126.667 0 208.667 -26.333 246 -79c51.333 -80.667 77 -154.334 77 -221.001c0 -46.667 -14.667 -109 -44 -187c109.333 -24 217.333 -36 324 -36c89.333 0 176.333 8.66699 261 26l-101.5 -50c-18.333 -8.66699 -46.833 -20.667 -85.5 -36
s-76.5 -26.833 -113.5 -34.5s-79.833 -14.5 -128.5 -20.5c-24.667 0 -53.834 0.666992 -87.501 2s-61.5 2 -83.5 2c-24.667 -7.33301 -49.167 -17.666 -73.5 -30.999s-47.333 -29.5 -69 -48.5s-39.334 -41.667 -53.001 -68s-20.5 -53.833 -20.5 -82.5
c0 -121.333 94.667 -182 284 -182c107.333 0 221.666 17.333 342.999 52c-193.333 -118 -381.333 -177 -564 -177c-86.667 0 -162.334 21 -227.001 63s-97 95.333 -97 160c0 40.667 12.833 79.167 38.5 115.5s59.5 67.833 101.5 94.5s82 48.667 120 66
s77.333 32.666 118 45.999c-31.333 0 -78.666 4.33301 -141.999 13s-112 13 -146 13c-86 0 -166 -11.333 -240 -34c71.333 46.667 148.333 82.834 231 108.501s186.667 38.5 312 38.5c7.33301 31.333 11 59 11 83c0 64 -20.833 112.167 -62.5 144.5s-97.5 48.5 -167.5 48.5
c-86.667 0 -157.167 -1.66699 -211.5 -5s-113.5 -10.833 -177.5 -22.5s-123.667 -30 -179 -55s-111 -58.167 -167 -99.5c-13.333 -13.333 -22 -28.166 -26 -44.499s-6.33301 -35.833 -7 -58.5s-2.66699 -41.334 -6 -56.001c14.667 -2 34.167 -3.83301 58.5 -5.5
s45.166 -3.33398 62.499 -5.00098s36.5 -4 57.5 -7s38.667 -7 53 -12s28.166 -11.167 41.499 -18.5s23.166 -17 29.499 -29s9.5 -25.667 9.5 -41c0 -36.667 -42 -55 -126 -55c-3.33301 -0.666992 -8 -1 -14 -1c-7.33301 0 -14.166 1.66699 -20.499 5s-11.5 7 -15.5 11
l-20 21l-26 27c-45.333 24 -97.333 36 -156 36c-76.667 0 -138.834 -25.833 -186.501 -77.5s-71.5 -111.5 -71.5 -179.5c0 -62 29.5 -114 88.5 -156s128.5 -63 208.5 -63c76 0 142.833 7.33301 200.5 22s125.834 38.667 204.501 72
c-29.333 -47.333 -91.666 -87.5 -186.999 -120.5s-211 -49.5 -347 -49.5c-102 0 -189.5 28.167 -262.5 84.5s-109.5 124.833 -109.5 205.5c0 53.333 14.5 101.666 43.5 144.999s67 78.166 114 104.499s98.5 46.5 154.5 60.5s113 21 171 21z" />
    <glyph glyph-name="quotesingle" unicode="'" horiz-adv-x="568" 
d="M181 1523l254.003 90l34 -275c0 -20 -1.33301 -38 -4 -54c-7.33301 -42.667 -23.833 -82.167 -49.5 -118.5s-56.334 -66.333 -92.001 -90s-72.334 -43 -110.001 -58s-75.5 -25.833 -113.5 -32.5c45.333 60 74.666 128.333 87.999 205c6.66699 44.667 10 85.667 10 123
c0 50.667 -5.66699 120.667 -17 210z" />
    <glyph glyph-name="parenleft" unicode="(" horiz-adv-x="685" 
d="M469 1676c-116 -268.667 -173.999 -527.669 -173.999 -777.002c0 -322 96.667 -601.667 290 -839l-244 -236c-64.667 92.667 -121 220.834 -169 384.501s-72 333.834 -72 510.501c0 178.667 29.167 350.167 87.5 514.5s152.166 311.833 281.499 442.5z" />
    <glyph glyph-name="parenright" unicode=")" horiz-adv-x="685" 
d="M216 -176c116 268.667 173.999 527.669 173.999 777.002c0 322 -96.667 601.667 -290 839l244 236c64.667 -92.667 121 -220.834 169 -384.501s72 -333.834 72 -510.501c0 -178.667 -29.167 -350.167 -87.5 -514.5s-152.166 -311.833 -281.499 -442.5z" />
    <glyph glyph-name="asterisk" unicode="*" horiz-adv-x="888" 
d="M288 1073l231.001 -0.00195312c-33.333 -75.333 -50 -137.666 -50 -186.999c0 -4 0.333008 -10 1 -18s1 -14 1 -18c50.667 71.333 118.667 121.666 204 150.999l113 -215h-47c-69.333 0 -127.333 -15.333 -174 -46c30.667 -5.33301 57 -13.166 79 -23.499
s40.667 -23.5 56 -39.5s27.333 -30.833 36 -44.5s18.334 -31.834 29.001 -54.501l-139 -172c-2 4.66699 -6.33301 15.5 -13 32.5s-11.334 28.333 -14.001 34l-14 30.5c-6.66699 14.667 -12 25.334 -16 32.001s-9.83301 15.667 -17.5 27s-14.834 20.333 -21.501 27
s-14.667 13.834 -24 21.501s-19.333 14.167 -30 19.5c0 -100 -27 -182 -81 -246l-217 118c42 26 76.833 53.5 104.5 82.5s47.5 63.5 59.5 103.5c-39.333 -16.667 -78.666 -25 -117.999 -25c-42 0 -84 10 -126 30l46 235c3.33301 -3.33301 10.833 -10.333 22.5 -21
s20 -18 25 -22s13 -10 24 -18s20.833 -13.667 29.5 -17s19.5 -6.5 32.5 -9.5s26.5 -4.5 40.5 -4.5c15.333 0 27 0.666992 35 2c-20 18 -35.333 41 -46 69s-16.834 53.167 -18.501 75.5s-2.5 52.5 -2.5 90.5z" />
    <glyph glyph-name="plus" unicode="+" horiz-adv-x="1081" 
d="M981 604h-357v-357h-167v357h-357v167h357v357h167v-357h357v-167z" />
    <glyph glyph-name="comma" unicode="," horiz-adv-x="634" 
d="M195 337l299 106.002l40 -324c0 -24.667 -1.66699 -45.667 -5 -63c-8.66699 -50 -28 -96.333 -58 -139s-66 -78 -108 -106s-85.167 -50.833 -129.5 -68.5s-88.833 -30.5 -133.5 -38.5c52.667 69.333 87 149.666 103 240.999c8 47.333 12 95.666 12 144.999
c0 64 -6.66699 146.333 -20 247z" />
    <glyph glyph-name="hyphen" unicode="-" horiz-adv-x="1044" 
d="M230 668h714l-110 -240h-734z" />
    <glyph glyph-name="period" unicode="." horiz-adv-x="648" 
d="M100 188c28 46 56.667 84.332 86 114.999s52.333 51.334 69 62.001s43.667 26 81 46c6.66699 4 12 7 16 9c56.667 -108.667 122 -198 196 -268c-80 -50 -165.333 -123.333 -256 -220c-46.667 36 -87.667 77.333 -123 124s-58.333 90.667 -69 132z" />
    <glyph glyph-name="slash" unicode="/" horiz-adv-x="980" 
d="M716 1612h184l-624 -1612h-196z" />
    <glyph glyph-name="zero" unicode="0" horiz-adv-x="1341" 
d="M941 1262c94.667 -47.333 164.168 -117.999 208.501 -211.999s66.5 -201 66.5 -321c0 -93.333 -12.667 -189 -38 -287c-26 -81.333 -68 -156 -126 -224s-123.5 -121.333 -196.5 -160s-144.5 -58 -214.5 -58h-24h-11c-145.333 32.667 -254.666 109.167 -327.999 229.5
s-110 270.166 -110 449.499c25.333 192 90.166 342.833 194.499 452.5s230.166 164.5 377.499 164.5c62.667 0 129.667 -11.333 201 -34zM1021 875.001c-34 84.667 -88.168 155.165 -162.501 211.498s-154.833 84.5 -241.5 84.5c-40.667 0 -77 -5.66699 -109 -17
c-66.667 -50.667 -117.167 -118.667 -151.5 -204s-51.5 -169 -51.5 -251c0 -38 4 -71 12 -99c32 -135.333 85.833 -245.166 161.5 -329.499s162.167 -126.5 259.5 -126.5c50.667 0 104.334 13.667 161.001 41c55.333 43.333 97 101.833 125 175.5s42 154.5 42 242.5
c0 92.667 -15 183.334 -45 272.001z" />
    <glyph glyph-name="one" unicode="1" horiz-adv-x="828" 
d="M624 1210c-34 -158.667 -50.998 -320.336 -50.998 -485.003c0 -96 4.33301 -182 13 -258c0 -110 9.16699 -200.333 27.5 -271s50.166 -118 95.499 -142c17.333 -20 26 -33.667 26 -41c0 -8.66699 -9.66699 -13 -29 -13h-431c-2 2 -6 4 -12 6s-11 4 -15 6s-6 4.66699 -6 8
c0 7.33301 12 18.666 36 33.999c36 42.667 60.667 90 74 142s20 117.667 20 197c0 26 1.66699 61.833 5 107.5s5 78.5 5 98.5c0 89.333 -8.33301 205 -25 347c-19.333 44 -47 72.167 -83 84.5s-86.333 18.5 -151 18.5h-69c-22.667 10 -35 18.333 -37 25
c-0.666992 2 -1 4 -1 6c0 10 6 20.667 18 32c66.667 14.667 117.667 26.334 153 35.001s83.5 23.834 144.5 45.501s119.5 46.834 175.5 75.501c10 2.66699 25.5 9.83398 46.5 21.501s37.5 17.5 49.5 17.5c7.33301 0 15.666 -2 24.999 -6c8.66699 -4.66699 13 -11.667 13 -21
c0 -6.66699 -2.83301 -18 -8.5 -34s-8.5 -28 -8.5 -36z" />
    <glyph glyph-name="two" unicode="2" horiz-adv-x="1422" 
d="M331 -47c-86.667 0 -148.998 9.66504 -186.998 28.998s-57 52.333 -57 99c0 12 3.33301 19 10 21l89 40c64 32.667 117.667 69.667 161 111l459 341l76.5 54l67 46c15.667 10.667 33.167 24 52.5 40s33.833 30.833 43.5 44.5s19.167 30.167 28.5 49.5s15.833 41 19.5 65
s5.5 51.667 5.5 83v61c0 33.333 -11 61.333 -33 84c-10.667 20.667 -35.667 36.667 -75 48s-79 17 -119 17c-48 0 -94 -5.66699 -138 -17c-4.66699 -0.666992 -17.834 -3.16699 -39.501 -7.5s-36.834 -7.5 -45.501 -9.5s-20.5 -5.33301 -35.5 -10s-27.5 -9.66699 -37.5 -15
c-37.333 -21.333 -66.666 -39 -87.999 -53s-46.5 -34.667 -75.5 -62s-53.833 -58 -74.5 -92c0.666992 1.33301 1 3 1 5c0 22 -18.833 75.167 -56.5 159.5s-56.834 127.833 -57.501 130.5c3.33301 -1.33301 16.833 -11 40.5 -29s37.5 -28 41.5 -30
c8 -1.33301 13.333 -2 16 -2c6 0 10.667 1.33301 14 4c151.333 116 337.333 174 558 174c120 0 210.333 -33.5 271 -100.5s91 -163.5 91 -289.5c0 -46 -5.33301 -88.667 -16 -128s-23.5 -73.166 -38.5 -101.499s-36.833 -58 -65.5 -89s-54.834 -56.5 -78.501 -76.5
s-55.834 -45.667 -96.501 -77c-33.333 -23.333 -103.5 -60.666 -210.5 -111.999s-179.5 -96 -217.5 -134c-4.66699 -3.33301 -7 -12.666 -7 -27.999c0 -6.66699 1 -11.334 3 -14.001c50 -11.333 107 -17 171 -17c34.667 0 73.834 1.83301 117.501 5.5s79.5 7.5 107.5 11.5
l115.5 17l93.5 14c40 10 76.667 52 110 126c-10.667 -30 -16 -64 -16 -102c0 -49.333 8.33301 -96.333 25 -141s38.334 -76.667 65.001 -96h-186c-52 0 -186.833 -7.83301 -404.5 -23.5s-350.167 -23.5 -397.5 -23.5z" />
    <glyph glyph-name="three" unicode="3" horiz-adv-x="1370" 
d="M244 316c14 -85.333 61.6719 -153.169 143.005 -203.502s175.666 -75.5 282.999 -75.5c105.333 0 183.666 19 234.999 57c48.667 40.667 79 67.667 91 81c37.333 42.667 56 98.667 56 168c0 89.333 -31.333 160 -94 212c-78 69.333 -150.333 114.333 -217 135l-282 87
c-5.33301 14.667 -8 25 -8 31c0 9.33301 4.33301 18 13 26l204 166c41.333 30.667 72.666 57.667 93.999 81c6 3.33301 9 8.33301 9 15c0 6 -2.66699 11.833 -8 17.5s-11 8.5 -17 8.5h-19c-45.333 0 -85.333 5.16699 -120 15.5s-72.334 25.833 -113.001 46.5
s-71.667 35 -93 43c-25.333 0 -70.333 -11.333 -135 -34c-26.667 -8 -40 -24.333 -40 -49c0 -12 -1.16699 -24.667 -3.5 -38s-3.5 -20.666 -3.5 -21.999c-11.333 -9.33301 -21.333 -14 -30 -14c-13.333 0 -23.666 8.16699 -30.999 24.5s-11 38.833 -11 67.5v6v9
c0.666992 0.666992 2.5 3.16699 5.5 7.5s5.16699 7.83301 6.5 10.5v19c3.33301 0 13.166 6.83301 29.499 20.5s27.5 21.834 33.5 24.501c69.333 56 151.333 84 246 84c2.66699 1.33301 5.33398 2 8.00098 2c6 0 14.833 -2 26.5 -6s29.834 -10.833 54.501 -20.5
s48.334 -18.5 71.001 -26.5c94 -34.667 162 -52 204 -52h8c17.333 0 56.666 3.83301 117.999 11.5s94.666 11.5 99.999 11.5c0 -12 -4.33301 -22.667 -13 -32c-40.667 -17.333 -96 -57 -166 -119s-131.333 -121.667 -184 -179c-4.66699 -2.66699 -7 -7 -7 -13
s2.16699 -12 6.5 -18s9.5 -9 15.5 -9c82.667 0 166.167 -16.833 250.5 -50.5s151.5 -75.5 201.5 -125.5c63.333 -57.333 95 -118.333 95 -183c0 -303.333 -167 -484 -501 -542c-74.667 -18.667 -192 -28 -352 -28h-267c7.33301 23.333 21.166 79.5 41.499 168.5
s39.166 150.833 56.499 185.5c2 0 5 -0.666992 9 -2z" />
    <glyph glyph-name="four" unicode="4" horiz-adv-x="1250" 
d="M646 1013l-316 -334.999c22 -16.667 51.167 -27 87.5 -31s76.833 -6.33301 121.5 -7s81.667 -5.33398 111 -14.001l19 33v321zM16 529.001c64.667 33.333 133.667 83.3281 207 149.995s137.333 132 192 196l199.5 235.5c78.333 93 142.5 166.167 192.5 219.5l40 -22
c-26 -234 -39 -432 -39 -594c0 -13.333 0.333008 -33.166 1 -59.499s1 -45.833 1 -58.5c7.33301 -3.33301 21.833 -11.166 43.5 -23.499s41.334 -21.833 59.001 -28.5s35.167 -10 52.5 -10c44.667 0 85 26.667 121 80h7c15.333 0 27 -1.16699 35 -3.5
s15.333 -6.16602 22 -11.499s11.334 -8.66602 14.001 -9.99902c-53.333 -141.333 -135.333 -212 -246 -212c-30 0 -61 4.66699 -93 14v-261l36 -43.5l18 -21c2.66699 -3 7.66699 -7.66699 15 -14s11.666 -10.166 12.999 -11.499c6 -6 9 -11.333 9 -16
c0 -8.66699 -10.667 -16.667 -32 -24c-22 0 -53.833 -3.16699 -95.5 -9.5s-74.167 -9.5 -97.5 -9.5c-47.333 0 -92 6.33301 -134 19c-18 3.33301 -27 10 -27 20c0 7.33301 6.33301 18 19 32c6 3.33301 16.167 8 30.5 14s26 11.333 35 16s19.167 12.5 30.5 23.5
s20.666 24.167 27.999 39.5v261c-216 67.333 -414.333 101 -595 101h-62v22z" />
    <glyph glyph-name="five" unicode="5" horiz-adv-x="1347" 
d="M206 1119l190.004 152.999c13.333 2 40.333 8.16699 81 18.5s74 15.5 100 15.5c2 0 4.66699 -0.166992 8 -0.5s6 -0.5 8 -0.5c44.667 0 86.667 -3.33301 126 -10s83 -15.834 131 -27.501s89.333 -20.167 124 -25.5c8 0 19.333 -0.666992 34 -2s25 -2 31 -2
c43.333 0 91 10 143 30l-10 -26l-48 -34.5c-23.333 -17 -40.5 -29.167 -51.5 -36.5s-28.667 -17.333 -53 -30s-47 -22 -68 -28s-47.5 -11.333 -79.5 -16s-66.333 -7 -103 -7c-28 5.33301 -61.5 13.833 -100.5 25.5s-74.5 20.667 -106.5 27s-66.333 9.5 -103 9.5
c-29.333 0 -65.833 -3.83301 -109.5 -11.5s-71.5 -12.167 -83.5 -13.5c0 -24.667 -1.83301 -59.834 -5.5 -105.501s-5.5 -79.5 -5.5 -101.5c0 -56.667 3.66699 -106 11 -148c34 12.667 69 29.667 105 51l88.5 54c23 14.667 53.667 27.667 92 39s81.166 17 128.499 17
c292 -50.667 457 -186.334 495 -407.001c0 -72.667 -6.5 -138.167 -19.5 -196.5s-28.5 -107 -46.5 -146s-43.833 -73.333 -77.5 -103s-63.834 -52.667 -90.501 -69s-63.334 -30.666 -110.001 -42.999s-83.5 -20.666 -110.5 -24.999s-65.5 -9.83301 -115.5 -16.5
c-3.33301 -0.666992 -6 -1 -8 -1h-380h-6c-3.33301 0 -9.5 -2.66699 -18.5 -8s-14.833 -8 -17.5 -8c-1.33301 0 -2 1.33301 -2 4c0 6 2.33301 13.667 7 23c16.667 29.333 29.834 60.166 39.501 92.499s19 74.333 28 126s15.167 84.834 18.5 99.501
c37.333 -74 88.666 -135.5 153.999 -184.5s143.666 -73.5 234.999 -73.5c48 0 104.667 10 170 30c52 22.667 92.333 58.667 121 108s43 104 43 164c0 40 -7.33301 81 -22 123c-40.667 109.333 -92.167 192.833 -154.5 250.5s-153.833 99.834 -274.5 126.501
c-49.333 0 -91.666 -7.16699 -126.999 -21.5s-71.333 -33.5 -108 -57.5s-70.334 -41.333 -101.001 -52c6 50.667 9 110 9 178c0 30.667 -0.833008 76.334 -2.5 137.001s-2.5 106 -2.5 136z" />
    <glyph glyph-name="six" unicode="6" horiz-adv-x="1321" 
d="M1030 1133l-127 -165.002c-12.667 71.333 -32.667 123.5 -60 156.5s-70.666 56.5 -129.999 70.5c-56.667 0 -106.167 -10 -148.5 -30s-71.166 -48.333 -86.499 -85c-36.667 -64.667 -64.167 -125.667 -82.5 -183s-27.5 -123.666 -27.5 -198.999
c0 -78 10.667 -169.333 32 -274c48 -102 115.333 -180.833 202 -236.5s189.667 -83.5 309 -83.5h22c27.333 10.667 48.5 32.667 63.5 66s22.5 71.333 22.5 114c0 48 -9 93.5 -27 136.5s-44 75.167 -78 96.5c-68 66 -133 99 -195 99c-49.333 0 -95.5 -18 -138.5 -54
s-86.833 -85.667 -131.5 -149c0 29.333 3.83301 56.5 11.5 81.5s16.667 45.833 27 62.5s25.333 33.834 45 51.501s36.334 31.167 50.001 40.5s32.5 21.333 56.5 36c72 27.333 143.667 41 215 41c106 0 193.5 -29.5 262.5 -88.5s103.5 -139.833 103.5 -242.5
c-11.333 -58.667 -37 -113.834 -77 -165.501s-86 -93.667 -138 -126s-105.333 -57.666 -160 -75.999s-104.667 -27.5 -150 -27.5c-78 0 -150.5 15.667 -217.5 47s-123 73.333 -168 126s-80.167 113.834 -105.5 183.501s-38 142.5 -38 218.5c0 31.333 2 63 6 95
c20.667 93.333 48.667 177 84 251s73.5 134.667 114.5 182s85.833 86.666 134.5 117.999s96.167 53.333 142.5 66s93.5 19 141.5 19c24.667 0 49 -2 73 -6c26.667 -8.66699 48.667 -17.834 66 -27.501s32.166 -22.167 44.499 -37.5s21.166 -27.666 26.499 -36.999
s13.333 -26 24 -50c3.33301 -6.66699 5.66602 -11.667 6.99902 -15z" />
    <glyph glyph-name="seven" unicode="7" horiz-adv-x="1243" 
d="M357 0c-18 0 -36.5039 12 -55.5039 36s-28.5 54.667 -28.5 92c0 14.667 1.66699 32.667 5 54c10 51.333 22 99 36 143s28.5 84 43.5 120s34.833 73 59.5 111s47.834 71.667 69.501 101s51.334 64.333 89.001 105l103 107.5l125.5 122.5c6.66699 12.667 10 23.667 10 33
c0 6 -3.33301 11.667 -10 17h-18c-26.667 0 -68.5 9.33301 -125.5 28s-117.667 37.334 -182 56.001s-118.5 28 -162.5 28c-53.333 0 -96.666 -13.5 -129.999 -40.5s-50 -71.5 -50 -133.5c-2 2.66699 -9 9.66699 -21 21s-22.167 23.166 -30.5 35.499s-12.5 24.833 -12.5 37.5
c0 11.333 1.33301 19.666 4 24.999c48 84 97.833 141.667 149.5 173s118.834 47 201.501 47c38.667 -4 78 -12.5 118 -25.5s73.833 -25.667 101.5 -38s62.5 -23.5 104.5 -33.5s85.667 -15 131 -15h275l-107 -93l-113 -95c-31.333 -26 -67.333 -58.667 -108 -98
s-75 -76 -103 -110s-56.833 -75 -86.5 -123s-53.5 -96.333 -71.5 -145s-32.833 -104.667 -44.5 -168s-17.5 -130 -17.5 -200c-0.666992 -7.33301 -1 -17 -1 -29c0 -18 6.66699 -34.833 20 -50.5s26.333 -27 39 -34s25.667 -12.833 39 -17.5c-30 0 -65.5 -3.66699 -106.5 -11
s-74.5 -14.666 -100.5 -21.999z" />
    <glyph glyph-name="eight" unicode="8" horiz-adv-x="1367" 
d="M475 581c-34 -21.333 -60.3311 -50.5 -78.998 -87.5s-28 -75.833 -28 -116.5c0 -63.333 20.667 -116 62 -158c37.333 -38.667 81.666 -68.667 132.999 -90s105 -32 161 -32c68 0 133 16 195 48c17.333 37.333 26 78.333 26 123c0 86.667 -30 160 -90 220
c-87.333 86 -173.333 129 -258 129c-42.667 0 -83.334 -12 -122.001 -36zM494.002 1036c12 -60.667 51.667 -115.17 119 -163.503s139.333 -72.5 216 -72.5c42 0 80.667 7.66699 116 23c18.667 4.66699 32.667 17.834 42 39.501s14 47.834 14 78.501
c0 40.667 -7.33301 76 -22 106c-28.667 50 -67.5 94.333 -116.5 133s-98.833 61.334 -149.5 68.001c-52.667 0 -103 -19.167 -151 -57.5s-72 -80.5 -72 -126.5c0 -10.667 1.33301 -20 4 -28zM442.002 651.997c-14.667 18.667 -34.835 37.332 -60.502 55.999
s-47.667 34 -66 46s-34.833 31.667 -49.5 59s-22 60.666 -22 99.999c12 74 47.5 142.667 106.5 206s130.167 112.833 213.5 148.5s167.666 53.5 252.999 53.5c141.333 0 252.333 -49 333 -147c27.333 -38 41 -81.667 41 -131c0 -114 -78.333 -212 -235 -294
c15.333 -12 36 -23.167 62 -33.5l71 -28.5c21.333 -8.66699 42.833 -20.167 64.5 -34.5s39.667 -34.833 54 -61.5s23.5 -59.667 27.5 -99c0 -62 -9.66699 -118 -29 -168s-45.833 -92.5 -79.5 -127.5s-76 -65.833 -127 -92.5s-105.833 -48 -164.5 -64s-125 -29.333 -199 -40
c-33.333 -4 -64.666 -6 -93.999 -6c-37.333 0 -73.166 2.5 -107.499 7.5s-69.166 13.5 -104.499 25.5s-66 30 -92 54s-44 53 -54 87c-8 42 -12 80 -12 114c0 26.667 2.5 51.834 7.5 75.501s11.167 44.667 18.5 63s17.5 36.333 30.5 54s25.167 32.5 36.5 44.5
s25.833 25.167 43.5 39.5s32.334 25.5 44.001 33.5l46.5 31c19.333 12.667 33.666 22.334 42.999 29.001z" />
    <glyph glyph-name="nine" unicode="9" horiz-adv-x="1280" 
d="M571 1296c258.667 0 438.666 -101.667 539.999 -305c35.333 -80.667 53 -169 53 -265c0 -65.333 -9 -130 -27 -194s-46.5 -128.5 -85.5 -193.5s-93.5 -126.833 -163.5 -185.5s-152.333 -109.667 -247 -153c-98.667 -0 -173.667 13.333 -225 40
s-90.666 67.667 -117.999 123l146 164c0 -50.667 10.167 -93.167 30.5 -127.5s54.833 -61.166 103.5 -80.499c8 0 23.667 -1 47 -3s41.666 -3 54.999 -3c48.667 0 84 10.333 106 31c116 145.333 174 291 174 437c0 46.667 -4.33301 88.667 -13 126
c-13.333 71.333 -37.833 138.833 -73.5 202.5s-76.167 116.667 -121.5 159s-92.333 75.666 -141 99.999s-94 36.5 -136 36.5c-22 0 -41 -3.33301 -57 -10c-66 -36.667 -99 -98.334 -99 -185.001c0 -34.667 4.66699 -68 14 -100s19 -54.667 29 -68
c77.333 -108.667 156.666 -163 237.999 -163c42.667 0 85 12.667 127 38s90.667 62 146 110c-3.33301 -20.667 -13.5 -43.667 -30.5 -69s-39.667 -51 -68 -77s-64.666 -49.833 -108.999 -71.5s-92.166 -36.5 -143.499 -44.5c-72 0 -137.833 12 -197.5 36
s-108.167 60.333 -145.5 109s-56 105.667 -56 171v35c34.667 86.667 89.5 162.834 164.5 228.501s169.5 116.167 283.5 151.5z" />
    <glyph glyph-name="colon" unicode=":" horiz-adv-x="652" 
d="M104 860c28 46 56.667 84.332 86 114.999s52.333 51.334 69 62.001s43.667 26 81 46c6.66699 4 12 7 16 9c56.667 -108.667 122 -198 196 -268c-80 -50 -165.333 -123.333 -256 -220c-46.667 36 -87.667 77.333 -123 124s-58.333 90.667 -69 132zM100 187.999
c28 46 56.667 84.332 86 114.999s52.333 51.334 69 62.001s43.667 26 81 46c6.66699 4 12 7 16 9c56.667 -108.667 122 -198 196 -268c-80 -50 -165.333 -123.333 -256 -220c-46.667 36 -87.667 77.333 -123 124s-58.333 90.667 -69 132z" />
    <glyph glyph-name="semicolon" unicode=";" horiz-adv-x="650" 
d="M195 337l299 106.002l40 -324c0 -24.667 -1.66699 -45.667 -5 -63c-8.66699 -50 -28 -96.333 -58 -139s-66 -78 -108 -106s-85.167 -50.833 -129.5 -68.5s-88.833 -30.5 -133.5 -38.5c52.667 69.333 87 149.666 103 240.999c8 47.333 12 95.666 12 144.999
c0 64 -6.66699 146.333 -20 247zM102 860.002c28 46 56.667 84.332 86 114.999s52.333 51.334 69 62.001s43.667 26 81 46c6.66699 4 12 7 16 9c56.667 -108.667 122 -198 196 -268c-80 -50 -165.333 -123.333 -256 -220c-46.667 36 -87.667 77.333 -123 124
s-58.333 90.667 -69 132z" />
    <glyph glyph-name="less" unicode="&#x3c;" horiz-adv-x="1014" 
d="M100 823l682 519l132 -185l-634 -510l616 -484l-123 -185l-673 466v379z" />
    <glyph glyph-name="equal" unicode="=" horiz-adv-x="1237" 
d="M1137 778h-1037v197h1037v-197zM1137 340h-1037v196h1037v-196z" />
    <glyph glyph-name="greater" unicode="&#x3e;" horiz-adv-x="1014" 
d="M914 823v-379l-673 -466l-123 185l616 484l-634 510l132 185z" />
    <glyph glyph-name="question" unicode="?" horiz-adv-x="1138" 
d="M421 82c21.333 34 42.667 62.501 64 85.501s38.666 38.833 51.999 47.5s33.333 20 60 34c6 3.33301 10.333 5.66602 13 6.99902c40 -78.667 89 -145.667 147 -201c-60.667 -37.333 -124.667 -92.333 -192 -165c-35.333 27.333 -66.166 58.5 -92.499 93.5
s-43.5 67.833 -51.5 98.5zM104.001 1044c-2.66699 11.333 -3.99902 24.6699 -3.99902 40.0029c0 124.667 110.667 270 332 436c44 27.333 81.5 46.166 112.5 56.499s68.833 15.5 113.5 15.5c104.667 0 194.167 -36.5 268.5 -109.5s111.5 -161.167 111.5 -264.5
c0 -33.333 -3.83301 -65.666 -11.5 -96.999s-16.834 -59.166 -27.501 -83.499s-26.167 -50 -46.5 -77s-38.5 -49.333 -54.5 -67s-38.333 -38.834 -67 -63.501s-51.334 -43.334 -68.001 -56.001l-73 -55l-28 -21v-198l-190 -190v344l180 198l51.5 9.5
c20.333 3.66699 38.333 7.16699 54 10.5s33.167 8 52.5 14c6 8.66699 10.667 19 14 31s6.5 28.667 9.5 50s5.83301 38 8.5 50c0 109.333 -41.5 201.166 -124.5 275.499s-181.5 111.5 -295.5 111.5c-23.333 -4.66699 -43.166 -11.5 -59.499 -20.5s-28.833 -18.333 -37.5 -28
s-15.167 -22.834 -19.5 -39.501s-7 -31.667 -8 -45s-1.5 -31 -1.5 -53z" />
    <glyph glyph-name="at" unicode="@" horiz-adv-x="1576" 
d="M711 431l-231.001 -151.999c-10.667 -24 -16 -49.667 -16 -77c0 -14 2.33301 -25.333 7 -34c12 -17.333 35.667 -26 71 -26c20 0 40.5 2.5 61.5 7.5s34.833 9.16699 41.5 12.5c91.333 45.333 137 92.333 137 141c0 4 -0.666992 10 -2 18
c-9.33301 18 -19.666 36.167 -30.999 54.5s-20.333 32.166 -27 41.499zM215.999 222.001c-20.667 36 -36.6709 65.832 -48.0039 89.499s-24.833 57.834 -40.5 102.501s-27 96.5 -34 155.5s-10.5 126.167 -10.5 201.5c12.667 110.667 52.167 209.167 118.5 295.5
s151.5 153.166 255.5 200.499s217.667 71 341 71c64.667 0 128 -6.66699 190 -20s124.167 -36.666 186.5 -69.999s116.833 -75.333 163.5 -126s84.667 -116.834 114 -198.501s44 -173.834 44 -276.501c0 -85.333 -11.167 -164.666 -33.5 -237.999s-52.666 -136 -90.999 -188
s-79.5 -96.167 -123.5 -132.5s-91.333 -65.833 -142 -88.5c-8.66699 -7.33301 -24.5 -13.166 -47.5 -17.499s-39.5 -6.5 -49.5 -6.5c-5.33301 0 -10 1.16699 -14 3.5s-8.5 5.83301 -13.5 10.5s-8.83301 8 -11.5 10l-145 200l-47 -51.5l-50.5 -55
c-12.333 -13 -27.5 -26.5 -45.5 -40.5s-34.333 -23.667 -49 -29c-46.667 -16 -95 -24 -145 -24c-112 0 -180.667 42 -206 126v18c0 25.333 4.5 55.833 13.5 91.5s22.167 65.834 39.5 90.501c19.333 28 46.833 54 82.5 78s79.834 49.667 132.501 77s90.667 48.666 114 63.999
c-37.333 78.667 -80.666 131.667 -129.999 159s-117 41 -203 41c15.333 6.66699 41.166 22.5 77.499 47.5s72.166 46.333 107.499 64s68 26.5 98 26.5c56.667 0 103.667 -32.667 141 -98c22.667 -44 51.334 -108.833 86.001 -194.5s69.334 -162 104.001 -229
s76 -127.5 124 -181.5h4c22 0 48.167 20.667 78.5 62s57.5 97.333 81.5 168s36 140.667 36 210c-5.33301 45.333 -16.5 93.833 -33.5 145.5s-41 105.167 -72 160.5s-66.667 106 -107 152s-89 85.667 -146 119s-116.833 54 -179.5 62c-74 0 -141.5 -11.667 -202.5 -35
s-110.667 -54.166 -149 -92.499s-69.166 -79.5 -92.499 -123.5s-38.666 -89.667 -45.999 -137c-7.33301 -26 -11 -52.667 -11 -80c0 -42.667 8.66699 -73.834 26 -93.501s40.666 -34.5 69.999 -44.5c-73.333 -112 -110 -255.667 -110 -431z" />
    <glyph glyph-name="A" unicode="A" horiz-adv-x="1551" 
d="M762 1137c-35.333 69.333 -79.3379 104.005 -132.005 104.005c-30 0 -64 -11.667 -102 -35c6 33.333 13.667 67.666 23 102.999s22 74.666 38 117.999s36 78.833 60 106.5s49.667 41.5 77 41.5c28.667 0 60.167 -19.333 94.5 -58s70 -95.334 107 -170.001
s72.333 -151.834 106 -231.501s70.334 -176.167 110.001 -289.5l100.5 -294l94 -292c12 -2 24 -3 36 -3c50.667 0 91.667 21 123 63c-27.333 -90 -67.333 -163 -120 -219s-125.667 -92 -219 -108c-21.333 21.333 -44 58.5 -68 111.5s-49.333 120.333 -76 202
s-50.5 158.167 -71.5 229.5l-75.5 262l-66 230c-49.333 -50 -93.333 -101 -132 -153s-75.667 -112.5 -111 -181.5s-62.666 -146.667 -81.999 -233s-29 -178.166 -29 -275.499c40 0 79.667 7.5 119 22.5s77.833 37.167 115.5 66.5s71.667 59 102 89
s64.166 66.667 101.499 110c12.667 -14.667 19 -36.334 19 -65.001c0 -10.667 -0.333008 -19 -1 -25c-9.33301 -17.333 -24.666 -39.666 -45.999 -66.999s-52.333 -60.833 -93 -100.5s-84.5 -75.834 -131.5 -108.501s-103.167 -60.834 -168.5 -84.501s-131 -35.5 -197 -35.5
c-38 0 -78 12 -120 36s-63 49 -63 75v6c38.667 114.667 79.334 217 122.001 307s95.334 178.667 158.001 266s114.834 155.833 156.501 205.5l200.5 228.5z" />
    <glyph glyph-name="B" unicode="B" horiz-adv-x="1399" 
d="M478 678v-383.999c0 -60 44 -90 132 -90c55.333 0 123.666 16.833 204.999 50.5s153.833 77 217.5 130s95.5 102.833 95.5 149.5c0 45.333 -4.33301 88.833 -13 130.5s-21.834 81 -39.501 118s-42.167 66.5 -73.5 88.5s-67.333 33 -108 33
c-42.667 0 -90.667 -13.833 -144 -41.5s-111.166 -64.834 -173.499 -111.501s-95.166 -71 -98.499 -73zM477 770.001c8 9.33301 30 32.501 66 69.501s64.167 67.833 84.5 92.5s40.333 58.167 60 100.5s29.5 84.166 29.5 125.499c0 56 -11.667 106.333 -35 151
s-56.333 67 -99 67c-26 0 -50.167 -13.333 -72.5 -40s-33.5 -50 -33.5 -70v-496zM465 1412c34.667 33.333 61.334 57.6738 80.001 73.0068s44 29.833 76 43.5s66 20.5 102 20.5c53.333 0 96 -23 128 -69s48 -99 48 -159c0 -32.667 -2.83301 -62.834 -8.5 -90.501
s-15.334 -55.5 -29.001 -83.5s-25.834 -50.833 -36.501 -68.5s-27.334 -43.334 -50.001 -77.001l-51 -76.5c25.333 11.333 55.333 28.666 90 51.999s66.5 41.333 95.5 54s61.167 19 96.5 19c61.333 0 114.833 -19.667 160.5 -59s79.334 -88.333 101.001 -147
s32.5 -121.334 32.5 -188.001c0 -48.667 -14.167 -100.834 -42.5 -156.501s-66.166 -108.834 -113.499 -159.501s-102.666 -99.667 -165.999 -147s-128.666 -88.333 -195.999 -123s-136.666 -62.334 -207.999 -83.001s-137.333 -31 -198 -31
c-48.667 0 -80.334 9.5 -95.001 28.5s-22 60.167 -22 123.5v1066c0 72.667 -49.333 126.667 -148 162c23.333 16 50 37.167 80 63.5l75.5 67c20.333 18.333 42.166 34.5 65.499 48.5s43.666 21 60.999 21z" />
    <glyph glyph-name="C" unicode="C" horiz-adv-x="1473" 
d="M1365 419c0 -36 -9.66406 -73.1689 -28.9971 -111.502s-49 -75.5 -89 -111.5s-87.333 -68.167 -142 -96.5s-120.5 -51.166 -197.5 -68.499s-159.167 -26 -246.5 -26c-59.333 0 -112.833 7.83301 -160.5 23.5s-87.834 36.334 -120.501 62.001s-61.167 58 -85.5 97
s-43.5 78.833 -57.5 119.5s-25.167 87 -33.5 139s-13.833 100.667 -16.5 146s-4 95 -4 149c0 86 12.167 170.167 36.5 252.5s59.333 157.666 105 225.999s99.167 128.333 160.5 180s131.166 92 209.499 121s160.166 43.5 245.499 43.5c96 0 178.5 -32.5 247.5 -97.5
s103.5 -144.5 103.5 -238.5c0 -34.667 -14 -64.667 -42 -90s-58.667 -38 -92 -38c-50 0 -88.5 14.833 -115.5 44.5s-40.5 70.167 -40.5 121.5c-26 40 -55.167 65.5 -87.5 76.5s-82.166 16.5 -149.499 16.5h-4c-92.667 0 -162 -27.333 -208 -82
c-29.333 -35.333 -54 -70.5 -74 -105.5s-35.333 -67.167 -46 -96.5s-18.834 -63.5 -24.501 -102.5s-9.16699 -73.167 -10.5 -102.5s-2 -68 -2 -116v-23c0 -171.333 41 -308 123 -410s193.333 -153 334 -153c42.667 0 85 5.33301 127 16s78.333 22.834 109 36.501
s65 33.667 103 60s67.333 48 88 65z" />
    <glyph glyph-name="D" unicode="D" horiz-adv-x="2071" 
d="M768 1283c-22 -6 -41 -16.3359 -57 -31.0029s-27.833 -29.834 -35.5 -45.501s-13.834 -35 -18.501 -58s-7.33398 -42.167 -8.00098 -57.5s-1 -34 -1 -56v-471c0 -63.333 3.16699 -117.166 9.5 -161.499s17.666 -85.333 33.999 -123s39 -67.5 68 -89.5
s66.333 -39.167 112 -51.5s100.834 -18.5 165.501 -18.5c101.333 0 188.333 9.33301 261 28s135.334 49.334 188.001 92.001s92 100 118 172s39 160 39 264c0 68.667 -1.16699 124.167 -3.5 166.5s-8 86.5 -17 132.5s-21.5 81.833 -37.5 107.5s-39 51.834 -69 78.501
s-65.667 46.334 -107 59.001s-93.166 24.5 -155.499 35.5s-132.333 18.333 -210 22s-169.5 5.5 -275.5 5.5zM220 1735c50 -93.333 143.166 -157.335 279.499 -192.002s348.5 -52 636.5 -52c254 0 451.333 -64.333 592 -193s211 -310.667 211 -546
c0 -103.333 -9.16699 -194.333 -27.5 -273s-47 -146.667 -86 -204s-86 -105.166 -141 -143.499s-122.667 -69 -203 -92s-167.166 -39.333 -260.499 -49s-201.333 -14.5 -324 -14.5c-318 0 -477 152 -477 456v855c-54.667 0 -105.167 5 -151.5 15s-85 22.333 -116 37
s-60.833 34.167 -89.5 58.5s-51.167 46.333 -67.5 66s-34.833 43.834 -55.5 72.501z" />
    <glyph glyph-name="E" unicode="E" horiz-adv-x="1575" 
d="M432 897c38 0 87.1641 3.33203 147.497 9.99902s109.833 10 148.5 10c48 0 110 -4 186 -12s138 -12 186 -12c51.333 0 99.333 6 144 18s94 28.667 148 50s100.667 37.333 140 48c-35.333 -20.667 -73 -48 -113 -82l-99.5 -87c-26.333 -24 -59.833 -45.167 -100.5 -63.5
s-84.334 -27.5 -131.001 -27.5c-49.333 0 -112 -2 -188 -6s-138.667 -6 -188 -6c-34 0 -66 -2.5 -96 -7.5s-63.667 -11.833 -101 -20.5s-69 -15.334 -95 -20.001c0 -64 5 -121.833 15 -173.5s23.167 -95.167 39.5 -130.5s37 -65.833 62 -91.5s50 -45.834 75 -60.501
s53.833 -26.167 86.5 -34.5s62.667 -13.833 90 -16.5s57.666 -4 90.999 -4c32.667 0 80.667 9.83301 144 29.5s132.666 50.167 207.999 91.5s134 86.333 176 135c-20 -50.667 -53.667 -101.667 -101 -153s-102 -97.833 -164 -139.5s-131.833 -75.667 -209.5 -102
s-153.5 -39.5 -227.5 -39.5c-52.667 0 -101 4.33301 -145 13s-82.333 20.167 -115 34.5s-62 32.833 -88 55.5s-48 46.167 -66 70.5s-33.333 52.833 -46 85.5s-22.667 63.834 -30 93.501s-13 63.667 -17 102s-6.66699 73 -8 104s-2 66.167 -2 105.5
c0 97.333 10.167 190 30.5 278s51.833 169.833 94.5 245.5s94.5 141 155.5 196s134.5 98.167 220.5 129.5s180.333 47 283 47c106.667 0 193.334 -27.5 260.001 -82.5s100 -128.833 100 -221.5c0 -31.333 -16.667 -63.833 -50 -97.5s-70 -50.5 -110 -50.5
c-40.667 0 -74 14.333 -100 43s-42 66.334 -48 113.001c-3.33301 19.333 -11.166 35.833 -23.499 49.5s-25.666 24 -39.999 31s-33.666 12.333 -57.999 16s-45.166 5.83398 -62.499 6.50098s-40 1 -68 1c-51.333 0 -97.5 -11.667 -138.5 -35s-73.667 -52.333 -98 -87
s-44.666 -74 -60.999 -118s-27.5 -85 -33.5 -123s-9 -74 -9 -108z" />
    <glyph glyph-name="F" unicode="F" horiz-adv-x="1608" 
d="M263 324l-0.00390625 821c0 63.333 -10.167 113.166 -30.5 149.499s-56.833 54.5 -109.5 54.5c30.667 18.667 69.5 45 116.5 79s85.5 59.833 115.5 77.5s54.667 26.5 74 26.5c12.667 0 23.667 -4 33 -12s16.833 -21 22.5 -39s10.167 -34.333 13.5 -49s7 -36.167 11 -64.5
s7.33301 -49.166 10 -62.499l53 50.5c26 25 45.333 43 58 54l56 47.5c24.667 20.667 46.334 36 65.001 46s40.834 20.833 66.501 32.5s52 20 79 25s55.167 7.5 84.5 7.5c58.667 0 115.667 -5.5 171 -16.5s107.5 -27.667 156.5 -50s88.333 -53.166 118 -92.499
s44.5 -84.666 44.5 -135.999c-0.666992 -2.66699 -3.66699 -11.334 -9 -26.001s-9 -24.167 -11 -28.5s-6.83301 -11.833 -14.5 -22.5s-15.667 -17.834 -24 -21.501s-20.166 -7.5 -35.499 -11.5s-32.666 -6 -51.999 -6c-43.333 0 -75.833 13.167 -97.5 39.5
s-32.5 61.166 -32.5 104.499c-69.333 45.333 -163 68 -281 68c-64.667 0 -125.334 -7.83301 -182.001 -23.5s-106.667 -42 -150 -79s-69.666 -82.167 -78.999 -135.5v-470c162 74.667 321.667 112 479 112c134 0 285 -29.333 453 -88l-308 -140
c-65.333 60.667 -150 91 -254 91c-39.333 0 -84.333 -4.83301 -135 -14.5s-89.667 -18.334 -117 -26.001s-70.666 -20.5 -129.999 -38.5c0 -288.667 -32.333 -519.167 -97 -691.5s-156.334 -286.166 -275.001 -341.499c26 53.333 48.667 117.333 68 192
s33.5 143.834 42.5 207.501s16.333 128.834 22 195.501s9 114.167 10 142.5s1.5 49.166 1.5 62.499z" />
    <glyph glyph-name="G" unicode="G" horiz-adv-x="1571" 
d="M1213 270c5.33301 14 7.99902 26.3301 7.99902 36.9971c0 50.667 -43.667 88.334 -131 113.001c88.667 89.333 176.667 146.333 264 171c40 -54 60 -123 60 -207c0 -16.667 -0.833008 -34.334 -2.5 -53.001s-3.66699 -36 -6 -52s-6.16602 -35.333 -11.499 -58
s-9.5 -41.167 -12.5 -55.5s-8.66699 -34.5 -17 -60.5s-14.333 -45.167 -18 -57.5s-10.5 -33.166 -20.5 -62.499s-16.833 -49 -20.5 -59l-23 -63.5c-11.667 -32.333 -18.834 -52.5 -21.501 -60.5c-124 -96.667 -234 -154.667 -330 -174
c129.333 159.333 215.333 325.333 258 498l-48.5 -30.5c-23.667 -15 -40.334 -25.167 -50.001 -30.5s-25.834 -13.666 -48.501 -24.999s-43.334 -19.166 -62.001 -23.499s-42.167 -9.5 -70.5 -15.5s-59.833 -10.167 -94.5 -12.5s-73 -3.5 -115 -3.5
c-76.667 0 -145.167 12.167 -205.5 36.5s-109.666 56.833 -147.999 97.5s-70 89.167 -95 145.5s-42.667 114.5 -53 174.5s-15.5 124 -15.5 192c0 95.333 9.5 187.166 28.5 275.499s49 172 90 251s91 147.667 150 206s131 104.666 216 138.999s178.5 51.5 280.5 51.5
c46.667 0 92.167 -5.83301 136.5 -17.5s85 -28.5 122 -50.5s66.667 -50.833 89 -86.5s33.5 -75.5 33.5 -119.5c0 -49.333 -14.167 -91.333 -42.5 -126s-67.166 -52 -116.499 -52c-48 0 -85 17.833 -111 53.5s-39 77.167 -39 124.5c-40.667 30.667 -76.5 50.167 -107.5 58.5
s-72.167 12.5 -123.5 12.5c-252 0 -378 -211 -378 -633c0 -370.667 150.333 -556 451 -556c42.667 0 80.334 2 113.001 6s58.334 7.83301 77.001 11.5s39.667 11.834 63 24.501s38.833 21.834 46.5 27.501z" />
    <glyph glyph-name="H" unicode="H" horiz-adv-x="1798" 
d="M72 1457l118.005 69.4922c31.333 17.667 68.5 35.5 111.5 53.5s77.5 27 103.5 27c22 0 40 -6.66699 54 -20s24 -31.833 30 -55.5s10 -45.667 12 -66s3 -43.833 3 -70.5v-311c7.33301 4.66699 25 16.834 53 36.501s49.667 33.334 65 41.001s38.666 17.667 69.999 30
s66.833 21 106.5 26s85.167 7.5 136.5 7.5c106.667 0 207.667 -18.667 303 -56s175.166 -85.666 239.499 -144.999s115.333 -125.833 153 -199.5s56.5 -147.167 56.5 -220.5c0 -64.667 -11.333 -127.834 -34 -189.501s-52.334 -116.667 -89.001 -165
s-78.5 -92.5 -125.5 -132.5s-95 -72.833 -144 -98.5s-96.833 -44.5 -143.5 -56.5c54.667 46 99.667 92.5 135 139.5s61.833 96.167 79.5 147.5s29.667 100.833 36 148.5s9.5 103.834 9.5 168.501c0 34.667 -7.5 73.334 -22.5 116.001s-39.167 86.834 -72.5 132.501
s-73.333 87.167 -120 124.5s-105.334 68.166 -176.001 92.499s-147 36.5 -229 36.5c-50 0 -95.333 -8.83301 -136 -26.5s-72.334 -40 -95.001 -67s-39.834 -53.833 -51.501 -80.5s-17.5 -51 -17.5 -73v-639c18 -23.333 41.333 -35 70 -35c10.667 0 38.667 7 84 21
c-66 -73.333 -110.667 -119.666 -134 -138.999c-50.667 -42.667 -108.667 -67 -174 -73c-14 -1.33301 -29.333 -2 -46 -2c-42.667 4.66699 -64 34.334 -64 89.001c0 26.667 7.16699 68.334 21.5 125.001s21.5 93.334 21.5 110.001v953c0 68.667 -20.167 123.5 -60.5 164.5
s-86.166 61.5 -137.499 61.5z" />
    <glyph glyph-name="I" unicode="I" horiz-adv-x="775" 
d="M80 1325c137.333 149.333 251.999 224.002 343.999 224.002c20.667 0 37.834 -5.33301 51.501 -16s23.667 -26.167 30 -46.5s10.5 -40.333 12.5 -60s3 -43.167 3 -70.5c0 -9.33301 -0.166992 -23 -0.5 -41s-0.5 -31 -0.5 -39v-924c0 -25.333 1.5 -42.333 4.5 -51
s10.167 -13 21.5 -13c12 0 33.333 6.33301 64 19s52.334 19.667 65.001 21c-11.333 -18 -26.5 -43.5 -45.5 -76.5l-45.5 -78c-11.333 -19 -26.833 -41 -46.5 -66s-38.834 -44.333 -57.501 -58s-42 -25.334 -70 -35.001s-58.333 -14.5 -91 -14.5
c-41.333 0 -62 62.667 -62 188c0 26 3.16699 64.5 9.5 115.5s9.5 87.167 9.5 108.5v693c0 16.667 -1.16699 32.334 -3.5 47.001s-6.33301 28 -12 40s-11 22.5 -16 31.5s-12.667 17.667 -23 26s-18.5 15.166 -24.5 20.499s-15.667 11.166 -29 17.499l-28.5 13.5
c-5.66699 2.66699 -16 7 -31 13s-24.5 9.66699 -28.5 11z" />
    <glyph glyph-name="J" unicode="J" horiz-adv-x="747" 
d="M59 1300c80 80.667 150.999 142.334 212.999 185.001s121.667 64 179 64c22 0 41 -7.33301 57 -22s28 -34.334 36 -59.001s13.833 -49.834 17.5 -75.501s5.5 -52.5 5.5 -80.5v-817c0 -267.333 -32.167 -486.833 -96.5 -658.5s-168.166 -295.167 -311.499 -370.5
c56 140 95.833 292.5 119.5 457.5s35.5 349.167 35.5 552.5v545c0 84.667 -25.5 152.334 -76.5 203.001s-110.5 76 -178.5 76z" />
    <glyph glyph-name="K" unicode="K" horiz-adv-x="1980" 
d="M62 1411c42.667 40 99.1699 74.6689 169.503 104.002s133.833 44 190.5 44c18 0 32 -1.5 42 -4.5s20 -10 30 -21s17.167 -28.833 21.5 -53.5s6.5 -57 6.5 -97v-483h28c38.667 0 69.5 0.5 92.5 1.5s52 4.33301 87 10s65.167 13.834 90.5 24.501s53 26.5 83 47.5
s57.667 46.5 83 76.5c-1.33301 8 -3.16602 18 -5.49902 30s-4 22.667 -5 32s-1.5 19.333 -1.5 30c0 34.667 13.167 63.834 39.5 87.501s57.166 35.5 92.499 35.5c44.667 0 80.334 -17.333 107.001 -52s40 -78.334 40 -131.001c0 -48.667 -20 -93.667 -60 -135
s-91.5 -75 -154.5 -101s-131.5 -46.167 -205.5 -60.5s-147 -21.5 -219 -21.5l168.5 -116l193 -132l163.5 -106c74 -47.333 141.167 -87.333 201.5 -120s122.166 -63.667 185.499 -93c79.333 -31.333 153.333 -47 222 -47c58 0 129 12.667 213 38
c-21.333 -28.667 -48 -55.5 -80 -80.5s-63.167 -45.5 -93.5 -61.5s-59.166 -29.833 -86.499 -41.5s-49.333 -19.834 -66 -24.501l-25 -8c-148.667 0 -512.667 197 -1092 591v-369c15.333 -20.667 33.666 -31 54.999 -31c11.333 0 28.666 4.16699 51.999 12.5
s40.666 12.5 51.999 12.5l-31 -39c-5.33301 -6.66699 -16.833 -19.667 -34.5 -39s-32.167 -33.5 -43.5 -42.5s-27.833 -20.833 -49.5 -35.5s-42.167 -25.5 -61.5 -32.5s-42.333 -13.333 -69 -19s-54.334 -8.5 -83.001 -8.5c-47.333 0 -71 27.333 -71 82
c0 23.333 6 60.5 18 111.5s18 85.5 18 103.5v906c0 38 -5.16699 70.5 -15.5 97.5s-26 48.667 -47 65s-42.5 29.166 -64.5 38.499s-49 17.666 -81 24.999z" />
    <glyph glyph-name="L" unicode="L" horiz-adv-x="1473" 
d="M59 1351c29.333 31.333 55.1699 57.167 77.5029 77.5s48.5 40.5 78.5 60.5s61.833 35 95.5 45s69.834 15 108.501 15c21.333 0 39.666 -5.83301 54.999 -17.5s27 -27.5 35 -47.5s13.667 -40.833 17 -62.5s5 -45.167 5 -70.5v-940c0 -40 13.167 -75 39.5 -105
s62.166 -53.667 107.499 -71s95.166 -30.166 149.499 -38.499s112.5 -12.5 174.5 -12.5c90 0 176.667 8 260 24s147.666 37.333 192.999 64c-56 -85.333 -142 -152 -258 -200s-252.667 -72 -410 -72c-101.333 0 -186 5.66699 -254 17s-121 29.333 -159 54
s-64.667 53.167 -80 85.5s-23 72.166 -23 119.499v980c0 63.333 -70.667 95 -212 95z" />
    <glyph glyph-name="M" unicode="M" horiz-adv-x="2573" 
d="M1419 1228c25.333 49.333 62.167 95.002 110.5 137.002s98.166 75.5 149.499 100.5s100.166 44.5 146.499 58.5s83.833 21 112.5 21c44 0 85.333 -6.83301 124 -20.5s72.667 -32.334 102 -56.001s56.666 -52 82 -85c25.333 -33 46.666 -67.667 64 -104
c17.333 -36.333 33 -75.166 47 -116.499s25.333 -81.5 34 -120.5s15.834 -78 21.501 -117s9.5 -74 11.5 -105s3 -59.5 3 -85.5c0 -81.333 -9.16699 -159.5 -27.5 -234.5s-42.5 -141.167 -72.5 -198.5s-65.167 -110.333 -105.5 -159s-81.333 -89.334 -123 -122.001
s-84.167 -59.667 -127.5 -81c20 48 46.5 99.667 79.5 155l84.5 137c23.333 36 43.833 81.667 61.5 137s26.5 114.333 26.5 177c0 115.333 -20.667 228.166 -62 338.499s-98 201 -170 272s-148.667 106.5 -230 106.5c-68 0 -125.5 -17.667 -172.5 -53
s-91.5 -86.666 -133.5 -153.999c16 -130 24 -260 24 -390c0 -126.667 -8 -262.667 -24 -408c26.667 -9.33301 51.334 -14 74.001 -14c41.333 0 80.666 14.667 117.999 44c-5.33301 -46 -22.333 -92 -51 -138s-67.667 -85 -117 -117s-101.333 -48 -156 -48
c-58.667 0 -88 55.667 -88 167c0 11.333 2.5 31 7.5 59s10.5 55.833 16.5 83.5s9.33301 43.5 10 47.5v330c0 198.667 -41 343.834 -123 435.501s-204 137.5 -366 137.5c-60.667 0 -122.5 -31.833 -185.5 -95.5s-114.333 -143.167 -154 -238.5s-59.5 -187 -59.5 -275
c0 -83.333 6.33301 -158.833 19 -226.5s29 -121 49 -160s40.667 -68.833 62 -89.5s42 -31 62 -31c36 0 74 5.33301 114 16s73.333 21.834 100 33.501s61.334 28.167 104.001 49.5c-16.667 -60 -62.167 -113 -136.5 -159s-168.833 -69 -283.5 -69
c-85.333 0 -154.166 53 -206.499 159s-78.5 252 -78.5 438c0 136.667 24.5 263.5 73.5 380.5s115.5 215.667 199.5 296s183 143.166 297 188.499s235 68 363 68c39.333 0 78.166 -11.5 116.499 -34.5s70.5 -50.833 96.5 -83.5s47 -65.834 63 -99.501s24 -61.834 24 -84.501z
" />
    <glyph glyph-name="N" unicode="N" horiz-adv-x="1846" 
d="M360 1572c34.667 -71.333 77.002 -140.498 127.002 -207.498s102.667 -127.5 158 -181.5s113.333 -106.667 174 -158l184.5 -151.5l179 -146.5c57 -48 113 -100.667 168 -158s102.167 -115 141.5 -173v808c-14 60.667 -40.333 91 -79 91c-18 0 -42.333 -7.66699 -73 -23
c-1.33301 6.66699 -2 12.334 -2 17.001c0 23.333 7.66699 49.833 23 79.5s35 57.5 59 83.5s52.5 48 85.5 66s65.833 27 98.5 27c24 0 40.333 -9.66699 49 -29s13 -46 13 -80c0 -9.33301 -0.333008 -23.666 -1 -42.999s-1 -33.333 -1 -42v-1023
c-69.333 -128 -144 -237.333 -224 -328c-44.667 90.667 -95.167 174.667 -151.5 252s-111.833 142.166 -166.5 194.499s-115 104.333 -181 156s-127 96.167 -183 133.5s-117.333 80.666 -184 129.999s-124.667 96.666 -174 141.999v-628c0 -32 5 -58.667 15 -80
s24.5 -37 43.5 -47s37.667 -16.667 56 -20s40.166 -5 65.499 -5c-20.667 -16.667 -41.334 -37.5 -62.001 -62.5s-38.5 -47.5 -53.5 -67.5s-31.333 -39.333 -49 -58s-38.167 -33.334 -61.5 -44.001s-49.333 -16 -78 -16c-29.333 0 -44 19.667 -44 59
c0 8.66699 0.833008 23.167 2.5 43.5s2.5 35.5 2.5 45.5c0 17.333 -1.66699 32 -5 44v1032l-68 100c64 66.667 129.333 156 196 268z" />
    <glyph glyph-name="O" unicode="O" horiz-adv-x="1904" 
d="M826 1392c-66 0 -124.996 -17.499 -176.996 -52.499s-93.167 -81.333 -123.5 -139s-53.166 -120.167 -68.499 -187.5s-23 -137 -23 -209c0 -88.667 19 -172.667 57 -252s88.667 -146.5 152 -201.5s137 -98.5 221 -130.5s171.333 -48 262 -48
c111.333 0 207.166 38 287.499 114s120.5 168.667 120.5 278c0 84.667 -10.833 167.667 -32.5 249s-53.334 156.666 -95.001 225.999s-90.834 130.5 -147.501 183.5s-122.334 94.5 -197.001 124.5s-153.334 45 -236.001 45zM1134 1552c86 0 168.666 -16.333 247.999 -49
s148 -76.834 206 -132.501s104.167 -122.334 138.5 -200.001s51.5 -159.5 51.5 -245.5c0 -104.667 -18 -205.167 -54 -301.5s-86.167 -181.833 -150.5 -256.5s-139 -139.834 -224 -195.501s-178.167 -98.167 -279.5 -127.5s-205.333 -44 -312 -44
c-84.667 0 -164.167 18.5 -238.5 55.5s-137.166 86.333 -188.499 148s-91.666 132.834 -120.999 213.501s-44 164.334 -44 251.001c0 100 17 195.833 51 287.5s81.5 173.334 142.5 245.001s131.833 134 212.5 187s169.167 93.667 265.5 122s195.166 42.5 296.499 42.5z" />
    <glyph glyph-name="P" unicode="P" horiz-adv-x="1440" 
d="M482 420c14 0 32.9971 -0.167969 56.9971 -0.500977s41.333 -0.5 52 -0.5c80.667 0 157.334 24.333 230.001 73c88.667 58.667 154.834 124.5 198.501 197.5s65.5 159.167 65.5 258.5c0 47.333 -3 89.5 -9 126.5s-17.667 73.333 -35 109s-40.166 65.334 -68.499 89.001
s-66 42.667 -113 57s-101.833 21.5 -164.5 21.5c-92 0 -170 -39 -234 -117c22.667 -190 34 -376 34 -558v-49c0 -62.667 -4.33301 -131.667 -13 -207zM88.9971 1377c22 28 41.4951 51.168 58.4951 69.501s37.333 37.166 61 56.499s49 33.666 76 42.999s55.833 14 86.5 14
c16 0 31.333 -16.333 46 -49s25 -65 31 -97l10 -49c59.333 56 129.833 101.167 211.5 135.5s155.167 51.5 220.5 51.5c50.667 0 98.834 -10 144.501 -30s85.334 -46.5 119.001 -79.5s62.834 -70.667 87.501 -113s43.334 -86.166 56.001 -131.499s19 -89.666 19 -132.999
c0 -130.667 -21 -245.334 -63 -344.001s-100.833 -177.834 -176.5 -237.501s-163 -104.167 -262 -133.5s-208.833 -44 -329.5 -44c0 -126 -13 -260 -39 -402c-54.667 -62 -107.167 -113.5 -157.5 -154.5s-103.833 -72.5 -160.5 -94.5c8 24.667 21.333 59.167 40 103.5
s35.834 90.333 51.501 138s30.167 103.167 43.5 166.5c16 124.667 24 233.667 24 327v82c0 96 -0.666992 174.333 -2 235s-5.66602 135.334 -12.999 224.001s-18.333 173.334 -33 254.001c-8.66699 59.333 -24.834 103.166 -48.501 131.499s-57.5 48.5 -101.5 60.5z" />
    <glyph glyph-name="Q" unicode="Q" horiz-adv-x="2360" 
d="M1473 112c36.667 -18.667 73.6689 -42.0039 111.002 -70.0039s68.5 -52.667 93.5 -74s56.5 -43 94.5 -65s78.333 -39 121 -51c30 -8 57.667 -12 83 -12c32.667 0 78.334 8.33301 137.001 25s104 27 136 31c-46.667 -18.667 -97.5 -43.167 -152.5 -73.5l-136.5 -77.5
c-36 -21.333 -80.5 -40.166 -133.5 -56.499s-108.167 -24.5 -165.5 -24.5c-34 0 -65.333 5.66699 -94 17s-52.834 26 -72.501 44s-40.334 39.333 -62.001 64s-41.334 48.834 -59.001 72.501s-39.334 48.334 -65.001 74.001s-52.167 47.167 -79.5 64.5
c-57.333 37.333 -106.333 56 -147 56c-11.333 0 -21 -1.33301 -29 -4c-97.333 -26.667 -196 -40 -296 -40c-84.667 0 -164.167 18.5 -238.5 55.5s-137.166 86.333 -188.499 148s-91.666 132.834 -120.999 213.501s-44 164.334 -44 251.001c0 100 17 195.833 51 287.5
s81.5 173.334 142.5 245.001s131.833 134 212.5 187s169.167 93.667 265.5 122s195.166 42.5 296.499 42.5c86 0 168.667 -16.333 248 -49s148 -76.834 206 -132.501s104.167 -122.334 138.5 -200.001s51.5 -159.5 51.5 -245.5c0 -166 -42.833 -317 -128.5 -453
s-200.5 -245.333 -344.5 -328c33.333 0 61.833 -3.16699 85.5 -9.5s51.5 -17.833 83.5 -34.5zM825.002 1404c-66 0 -124.996 -17.499 -176.996 -52.499s-93.167 -81.333 -123.5 -139s-53.166 -120.167 -68.499 -187.5s-23 -137 -23 -209c0 -88.667 19 -172.667 57 -252
s88.667 -146.5 152 -201.5s137 -98.5 221 -130.5s171.333 -48 262 -48c111.333 0 207.166 38 287.499 114s120.5 168.667 120.5 278c0 84.667 -10.833 167.667 -32.5 249s-53.334 156.666 -95.001 225.999s-90.834 130.5 -147.501 183.5s-122.334 94.5 -197.001 124.5
s-153.334 45 -236.001 45z" />
    <glyph glyph-name="R" unicode="R" horiz-adv-x="1567" 
d="M507 561c50 20.667 106.833 53.832 170.5 99.499s123.5 95.334 179.5 149.001s103.167 109.5 141.5 167.5s57.5 107.333 57.5 148c0 70 -28.5 125.167 -85.5 165.5s-133.5 60.5 -229.5 60.5c-61.333 0 -119 -12.833 -173 -38.5s-93.333 -62.167 -118 -109.5
c38 -207.333 57 -421.333 57 -642zM87 1351l47.5049 53c21 24 38.5 42.833 52.5 56.5s31.167 28.5 51.5 44.5s42 27.833 65 35.5s47.5 11.5 73.5 11.5c20 0 35.333 -7.16699 46 -21.5s17.167 -30.666 19.5 -48.999s5.83301 -40.666 10.5 -66.999s10.667 -47.5 18 -63.5
c19.333 13.333 45.5 32.5 78.5 57.5s59 44 78 57s42.667 27.333 71 43s57.333 26.834 87 33.501s61.5 10 95.5 10c65.333 0 126.833 -12.333 184.5 -37s105 -61.334 142 -110.001s55.5 -104 55.5 -166c0 -33.333 -3 -65.333 -9 -96s-13.167 -58 -21.5 -82
s-21.5 -49.333 -39.5 -76s-33.833 -48.834 -47.5 -66.501s-34.334 -39.667 -62.001 -66l-67.5 -62.5l-77 -67c44.667 -6.66699 81.334 -27 110.001 -61c20 -24 35.5 -52.5 46.5 -85.5s18.167 -62 21.5 -87s10.333 -49.5 21 -73.5s26.334 -42 47.001 -54
c41.333 -23.333 75.166 -39.833 101.499 -49.5s54.166 -14.5 83.499 -14.5c34 0 84.333 7.66699 151 23c-62 -98.667 -157.667 -148 -287 -148c-24 0 -46.333 1.33301 -67 4c-35.333 10 -66.833 29.833 -94.5 59.5s-50.334 61.667 -68.001 96l-54 101
c-18.333 33 -41.5 60.5 -69.5 82.5s-60.667 33 -98 33c-32 0 -59.5 -1.5 -82.5 -4.5s-44.333 -9.33301 -64 -19s-33.834 -17.334 -42.501 -23.001s-23.667 -17.667 -45 -36s-36.333 -30.833 -45 -37.5c0 -114 -11 -221 -33 -321
c-8.66699 -28.667 -22.834 -55.167 -42.501 -79.5s-40 -44.666 -61 -60.999s-48.333 -32.833 -82 -49.5s-62.167 -29.5 -85.5 -38.5s-54 -19.833 -92 -32.5c9.33301 11.333 26.166 30.333 50.499 57s42.5 48 54.5 64s26 36.833 42 62.5s27.5 52.667 34.5 81
s10.5 59.166 10.5 92.499c0 117.333 -0.5 208.333 -1.5 273s-3.83301 147.5 -8.5 248.5s-13.167 196 -25.5 285s-28.5 177.167 -48.5 264.5c-12.667 50.667 -55.667 76 -129 76z" />
    <glyph glyph-name="S" unicode="S" horiz-adv-x="1372" 
d="M930 1351c-14 6 -30.3359 15 -49.0029 27s-35.834 21.333 -51.501 28s-32.834 10 -51.501 10c-80 0 -152 -27.667 -216 -83s-96 -117 -96 -185c0 -60.667 5.16699 -111.167 15.5 -151.5s24.833 -69.5 43.5 -87.5s36.834 -30 54.501 -36s38.5 -9 62.5 -9
c34.667 0 64.5 -0.333008 89.5 -1s57.667 -2.66699 98 -6s75 -7.83301 104 -13.5s60.167 -14.334 93.5 -26.001s60.5 -25.667 81.5 -42s38.5 -37 52.5 -62s21 -53.5 21 -85.5c0 -100.667 -14.833 -189 -44.5 -265s-75.834 -141.5 -138.501 -196.5s-145 -96.5 -247 -124.5
s-222.667 -42 -362 -42c-38.667 0 -72 3.66699 -100 11s-50.167 16.833 -66.5 28.5s-29.166 27 -38.499 46s-15.5 38.167 -18.5 57.5s-4.5 42.333 -4.5 69c0 36 16.833 63 50.5 81s72.834 27 117.501 27c38 0 66.833 -16.167 86.5 -48.5s29.5 -72.166 29.5 -119.499
c73.333 0 134.833 2.33301 184.5 7s95 13.5 136 26.5s73 31 96 54s40.667 52.5 53 88.5s18.5 80 18.5 132s-20.833 95.167 -62.5 129.5s-90.167 51.5 -145.5 51.5h-24c-12 -1.33301 -29.167 -3.66602 -51.5 -6.99902s-42.5 -5.83301 -60.5 -7.5s-35.333 -2.5 -52 -2.5
c-47.333 0 -94 8 -140 24c-101.333 36 -152 128.333 -152 277c0 90 14.833 173.167 44.5 249.5s72.334 142.666 128.001 198.999s125.834 100.5 210.501 132.5s179.334 48 284.001 48c78 0 145 -28.5 201 -85.5s84 -125.167 84 -204.5c0 -40 -13.5 -74.667 -40.5 -104
s-60.167 -44 -99.5 -44c-40.667 0 -76.167 13.667 -106.5 41s-45.5 62 -45.5 104c0 30 8 60 24 90z" />
    <glyph glyph-name="T" unicode="T" horiz-adv-x="1756" 
d="M516 636c0 -92 12.8369 -173.337 38.5039 -244.004s61.667 -127.5 108 -170.5s100.166 -75.333 161.499 -97s129 -32.5 203 -32.5c42.667 0 85 5.33301 127 16s78.333 22.834 109 36.501s65 33.667 103 60s67.333 48 88 65l86 73.5c0 -36 -9.66699 -73.167 -29 -111.5
s-49 -75.5 -89 -111.5s-87.333 -68.167 -142 -96.5s-120.5 -51.166 -197.5 -68.499s-159.167 -26 -246.5 -26c-82.667 0 -156.5 12.333 -221.5 37s-118.5 57.667 -160.5 99s-76.833 90.833 -104.5 148.5s-47.334 117.834 -59.001 180.501s-17.5 129.334 -17.5 200.001
c0 133.333 35.167 262 105.5 386s162.833 237.333 277.5 340c-85.333 12 -157 18 -215 18c-152.667 0 -278.334 -35.333 -377.001 -106c108 138 209.333 238 304 300c74.667 13.333 154 20 238 20c143.333 0 267.5 -3.66699 372.5 -11s203.833 -22.333 296.5 -45
c40.667 -12 80 -18 118 -18c22.667 0 46.334 2.5 71.001 7.5s43.667 9.83301 57 14.5s34 12.667 62 24s45.667 18.333 53 21c-12.667 -29.333 -23.334 -52.833 -32.001 -70.5s-21.667 -41.167 -39 -70.5s-33.833 -52.333 -49.5 -69s-34.834 -31.667 -57.501 -45
s-46 -20 -70 -20c-22.667 2.66699 -66.167 10.334 -130.5 23.001s-114.166 19 -149.499 19c-8 0 -19.667 0.333008 -35 1s-27 1 -35 1c-42.667 0 -87.167 -8.66699 -133.5 -26s-104.833 -52.666 -175.5 -105.999c-4 -4.66699 -13.5 -14.834 -28.5 -30.501
s-25.667 -27.334 -32 -35.001l-30.5 -37.5c-14 -17.333 -24.667 -32.833 -32 -46.5l-28 -53c-11.333 -21.667 -19.833 -43.667 -25.5 -66l-18.5 -76c-6.66699 -28.333 -11.334 -59.5 -14.001 -93.5s-4 -70 -4 -108z" />
    <glyph glyph-name="U" unicode="U" horiz-adv-x="1646" 
d="M979 1351c30.667 33.333 56.1689 59.6602 76.502 78.9932s45.5 39.833 75.5 61.5s61.167 37.334 93.5 47.001s67.5 14.5 105.5 14.5c16 0 29.167 -4.16699 39.5 -12.5s17.666 -20.5 21.999 -36.5s7.33301 -31.667 9 -47s2.5 -34 2.5 -56v-50v-935
c0 -20.667 2.66699 -39 8 -55s11.666 -28.667 18.999 -38s18 -17.833 32 -25.5s26.333 -13.167 37 -16.5s25.334 -7.66602 44.001 -12.999c-25.333 -18 -52.166 -41.667 -80.499 -71l-70 -74.5c-18.333 -20.333 -42.333 -38.5 -72 -54.5s-62.167 -24 -97.5 -24
c-18.667 0 -32.5 7 -41.5 21s-17 33.667 -24 59s-14.5 44 -22.5 56c-24 -11.333 -59.333 -30.166 -106 -56.499s-85.334 -46.833 -116.001 -61.5s-75 -28.667 -133 -42s-121 -20 -189 -20c-72.667 0 -139 29.833 -199 89.5s-106.5 137.334 -139.5 233.001
s-49.5 197.5 -49.5 305.5c0 60.667 6.66699 116.834 20 168.501s28.833 94.334 46.5 128.001l69.5 135c28.667 56.333 52.667 109.833 72 160.5c0 87.333 -92.667 131 -278 131c52.667 65.333 105 115.333 157 150s113.333 52 184 52c48 0 84.833 -21.833 110.5 -65.5
s38.5 -94.167 38.5 -151.5c0 -21.333 -0.833008 -41.5 -2.5 -60.5s-3.33398 -35.5 -5.00098 -49.5s-5.66699 -30.5 -12 -49.5l-14 -43c-3 -9.66699 -9.83301 -25.5 -20.5 -47.5l-23 -46.5l-30 -57l-33 -62.5c-35.333 -67.333 -53 -138 -53 -212
c0 -86.667 24.333 -184 73 -292c64.667 -126 174.334 -189 329.001 -189c21.333 0 47.666 1.66699 78.999 5c112 36.667 202.667 79.334 272 128.001v991c-21.333 16.667 -49 25 -83 25c-32 0 -72.333 -8.33301 -121 -25z" />
    <glyph glyph-name="V" unicode="V" horiz-adv-x="1545" 
d="M443 668c0 -28 0.164062 -50.0029 0.49707 -66.0029s1.33301 -39.333 3 -70s4.33398 -55.834 8.00098 -75.501s9 -43.667 16 -72s15.5 -51.666 25.5 -69.999s22.833 -37.666 38.5 -57.999s33.334 -36.5 53.001 -48.5s43.334 -22 71.001 -30s57.834 -12 90.501 -12
c61.333 0 118.333 26.167 171 78.5s95.834 119.666 129.501 201.999s60 172.333 79 270s28.5 193.5 28.5 287.5c0 25.333 -1.83301 52.5 -5.5 81.5s-10.334 60.333 -20.001 94s-21.667 63.667 -36 90s-33.666 48.333 -57.999 66s-51.833 26.5 -82.5 26.5
c-27.333 0 -52.333 -4.16699 -75 -12.5s-47.5 -20.166 -74.5 -35.499s-50.5 -26.666 -70.5 -33.999c15.333 33.333 34.333 65.333 57 96s49 59.834 79 87.501s64.667 49.667 104 66s80 24.5 122 24.5c45.333 0 85.5 -11.333 120.5 -34s63 -51.834 84 -87.501
s38.333 -78 52 -127s23 -97.167 28 -144.5s7.5 -97 7.5 -149c0 -66 -2.83301 -128.667 -8.5 -188s-16.834 -124 -33.501 -194s-38.5 -133.833 -65.5 -191.5s-64.167 -114.5 -111.5 -170.5s-102.166 -103 -164.499 -141s-138.833 -68.667 -229.5 -92s-191.667 -35 -303 -35
c-66.667 0 -119.334 19.167 -158.001 57.5s-58 93.166 -58 164.499v80v834c0 35.333 -6 65.5 -18 90.5s-25.167 42.667 -39.5 53s-33.333 22.5 -57 36.5s-40.834 25.667 -51.501 35l40 47c8 9.33301 21 23.5 39 42.5s33.5 33 46.5 42s29 19.167 48 30.5s38.667 19.333 59 24
s41.5 7 63.5 7c20 0 36.167 -4.16699 48.5 -12.5s21.333 -22.166 27 -41.499s9.16699 -38.666 10.5 -57.999s2 -46.333 2 -81c0 -111.333 -5.33301 -231.5 -16 -360.5s-16 -236.5 -16 -322.5z" />
    <glyph glyph-name="W" unicode="W" horiz-adv-x="2548" 
d="M1134 197c-24 -11.333 -59.334 -30.1719 -106.001 -56.5049s-85.334 -46.833 -116.001 -61.5s-75 -28.667 -133 -42s-121 -20 -189 -20c-72.667 0 -139 29.833 -199 89.5s-106.5 137.334 -139.5 233.001s-49.5 197.5 -49.5 305.5c0 60.667 6.66699 116.834 20 168.501
s28.833 94.334 46.5 128.001l69.5 135c28.667 56.333 52.667 109.833 72 160.5c0 87.333 -92.667 131 -278 131c52.667 65.333 105 115.333 157 150s113.333 52 184 52c48 0 84.833 -21.833 110.5 -65.5s38.5 -94.167 38.5 -151.5c0 -24 -0.5 -45.667 -1.5 -65
s-4.5 -40 -10.5 -62s-10 -38.167 -12 -48.5s-9.16699 -28.666 -21.5 -54.999l-23.5 -50.5c-3.33301 -7.33301 -14.666 -28.833 -33.999 -64.5s-31.666 -58.834 -36.999 -69.501c-35.333 -67.333 -53 -138.333 -53 -213c0 -86.667 24.333 -184 73 -292
c64.667 -126 174.334 -189 329.001 -189c21.333 0 47.666 1.66699 78.999 5c112 36.667 202.667 79.334 272 128.001v991c-21.333 16.667 -49 25 -83 25c-32 0 -72.333 -8.33301 -121 -25c30.667 33.333 56.167 59.666 76.5 78.999s45.5 39.833 75.5 61.5
s61.167 37.334 93.5 47.001s67.5 14.5 105.5 14.5c16 0 29.167 -4.16699 39.5 -12.5s17.666 -20.5 21.999 -36.5s7.33301 -31.667 9 -47s2.5 -34 2.5 -56v-50v-935c0 -24 2.5 -46.667 7.5 -68s15.333 -44 31 -68s36.167 -44.333 61.5 -61s60 -30.5 104 -41.5
s95.333 -16.5 154 -16.5c61.333 0 118.333 26.167 171 78.5s95.834 119.666 129.501 201.999s60 172.333 79 270s28.5 193.5 28.5 287.5c0 25.333 -1.83301 52.5 -5.5 81.5s-10.334 60.333 -20 94c-9.66699 33.667 -21.667 63.667 -36 90s-33.666 48.333 -57.999 66
s-51.833 26.5 -82.5 26.5c-27.333 0 -52.333 -4.16699 -75 -12.5s-47.5 -20.166 -74.5 -35.499s-50.5 -26.666 -70.5 -33.999c15.333 33.333 34.333 65.333 57 96s49 59.834 79 87.501s64.667 49.667 104 66s80 24.5 122 24.5c45.333 0 85.5 -11.333 120.5 -34
s63 -51.834 84 -87.501s38.333 -78 52 -127s23 -97.167 28 -144.5s7.5 -97 7.5 -149c0 -61.333 -4.83301 -124.5 -14.5 -189.5s-25.667 -132.5 -48 -202.5s-50 -136.833 -83 -200.5s-74.5 -124.167 -124.5 -181.5s-105.5 -107 -166.5 -149s-132.833 -75.333 -215.5 -100
s-171.334 -37 -266.001 -37h-33c-62 0 -109.333 3.33301 -142 10s-69 23.334 -109 50.001c-18 12 -30.167 26.833 -36.5 44.5s-11 39.667 -14 66s-7.5 47.166 -13.5 62.499z" />
    <glyph glyph-name="X" unicode="X" horiz-adv-x="1973" 
d="M341 1167c0 0.666992 2.33398 11.998 7.00098 33.998l11.5 53.5c3 13.667 8.5 34 16.5 61s15.5 49.667 22.5 68s16.5 39.166 28.5 62.499s24.167 41.833 36.5 55.5s26.833 25.5 43.5 35.5s34.334 15 53.001 15c28 0 55.167 -7.83301 81.5 -23.5
s49.166 -34.5 68.499 -56.5s40.333 -53 63 -93s41.167 -75.333 55.5 -106l57.5 -125.5l57 -123.5c342 359.333 592.333 539 751 539c26 0 48.667 -2.16699 68 -6.5s38 -12.166 56 -23.499s31.833 -28.833 41.5 -52.5s14.5 -53.167 14.5 -88.5
c0 -31.333 -16.5 -58.666 -49.5 -81.999s-71.5 -35 -115.5 -35c-64.667 0 -117.667 25 -159 75c-35.333 0 -70.333 -6.66699 -105 -20s-65.834 -29.833 -93.501 -49.5s-57.5 -45.167 -89.5 -76.5s-59.833 -60.833 -83.5 -88.5l-85.5 -97.5l-86 -93l420 -637
c59.333 -86 133.333 -129 222 -129c47.333 0 99.333 12 156 36c-6.66699 -8.66699 -16 -20 -28 -34s-35.167 -39.167 -69.5 -75.5s-67.166 -68.333 -98.499 -96s-65.833 -52.834 -103.5 -75.501s-69.834 -34 -96.501 -34c-18 0 -38.833 8.66699 -62.5 26
s-49.5 42.833 -77.5 76.5s-55.833 70 -83.5 109s-58.834 85.667 -93.501 140l-95.5 151.5l-100 161.5l-96.5 154.5c-68 -63.333 -138.5 -136.833 -211.5 -220.5l-202 -240l-194 -233c-67.667 -79 -142.667 -156.833 -225 -233.5s-167.833 -145.667 -256.5 -207l-30.5 -22.5
l-29 -21.5c-4.33301 -3.33301 -12.5 -9.16602 -24.5 -17.499s-20.833 -13.666 -26.5 -15.999s-14 -6 -25 -11s-20.5 -8.16699 -28.5 -9.5s-17.667 -2.83301 -29 -4.5s-23 -2.5 -35 -2.5c-50 0 -93 17.5 -129 52.5s-54 77.5 -54 127.5c0 40.667 14.333 75.334 43 104.001
s63.334 43 104.001 43c29.333 0 54.833 -6.83301 76.5 -20.5s45 -33.167 70 -58.5s47.167 -44 66.5 -56c105.333 86.667 208.5 182.5 309.5 287.5s186 199.833 255 284.5l245.5 294c94.667 111.333 181.667 207.666 261 288.999l-183 351c-34.667 24 -70.667 36 -108 36
c-32 0 -65 -9 -99 -27z" />
    <glyph glyph-name="Y" unicode="Y" horiz-adv-x="2107" 
d="M-28 1118c7.33301 46 19.5 94.3408 36.5 145.008s37.5 99.167 61.5 145.5s52.5 84.666 85.5 114.999s66.5 45.5 100.5 45.5c22.667 0 44.667 -8 66 -24s42 -39.833 62 -71.5s39 -66.334 57 -104.001s37 -83.334 57 -137.001l56 -153.5l61.5 -171l64.5 -172
c41.333 59.333 81.5 114.166 120.5 164.499s84.5 104 136.5 161s103.833 107.833 155.5 152.5s109.667 88.167 174 130.5s129.666 77.666 195.999 105.999s139 51 218 68s160.167 25.5 243.5 25.5c59.333 0 103.5 -14.667 132.5 -44s43.5 -69 43.5 -119
c0 -39.333 -24.5 -75 -73.5 -107s-98.5 -48 -148.5 -48c-32 0 -57.667 8.16699 -77 24.5s-29 41.166 -29 74.499c-96.667 0 -201.667 -28.5 -315 -85.5s-216.333 -128.333 -309 -214s-172.667 -180.334 -240 -284.001s-107.333 -200.167 -120 -289.5l148 -416
c6.66699 -18 10 -36 10 -54c0 -78.667 -43.667 -176.334 -131 -293.001s-191 -220.334 -311 -311.001c42 67.333 75.333 139.5 100 216.5s37 151.833 37 224.5c0 106.667 -12.333 213.667 -37 321s-53.167 200.833 -85.5 280.5l-127 317.5
c-52.333 132 -96.166 252.667 -131.499 362c-10 24.667 -28.667 44.334 -56 59.001s-57.333 22 -90 22c-58.667 0 -106 -21 -142 -63z" />
    <glyph glyph-name="Z" unicode="Z" horiz-adv-x="1961" 
d="M333 1472c30.667 23.333 60.168 41.8271 88.501 55.4941s59.666 23.334 93.999 29.001s63.166 9 86.499 10s59 1.5 107 1.5c88 0 200 -14 336 -42s248 -42 336 -42c6 2 19.667 6 41 12l40.5 11.5c5.66699 1.66699 17.5 4.83398 35.5 9.50098s30 7.83398 36 9.50098
s16.5 4.33398 31.5 8.00098s26.167 6 33.5 7s17.5 2.66699 30.5 5s24 3.83301 33 4.5s19 1.33398 30 2.00098s21.833 1 32.5 1c37.333 0 76 -3.33301 116 -10l-1364 -1380c70.667 7.33301 155.667 18.833 255 34.5s189 27.834 269 36.501s165.333 13 256 13
c56.667 0 111.5 -7 164.5 -21s97.833 -30.167 134.5 -48.5l138.5 -67c55.667 -26.333 107.167 -47.5 154.5 -63.5l-228 -188c-322.667 120 -620.667 180 -894 180c-268 0 -527.333 -54.667 -778 -164l1440 1416c-32 -3.33301 -70.833 -8.83301 -116.5 -16.5
s-86.667 -13.5 -123 -17.5s-75.166 -6 -116.499 -6c-54.667 0 -109.667 8.33301 -165 25l-166 50c-55.333 16.667 -110.333 25 -165 25c-42.667 0 -84 -6 -124 -18s-73.667 -26 -101 -42l-103.5 -58c-41.667 -22.667 -80.167 -40.667 -115.5 -54z" />
    <glyph glyph-name="bracketleft" unicode="[" horiz-adv-x="668" 
d="M338 812l-0.000976562 -743c36.667 0 78.667 2 126 6s82 9.33301 104 16l-44 -145c-42.667 5.33301 -73.667 8 -93 8c-35.333 0 -91.166 -1.33301 -167.499 -4s-130.833 -4 -163.5 -4v897v827c8.66699 0 25.167 -1.33301 49.5 -4s43.833 -4 58.5 -4
c40 0 101 1.33301 183 4s139.667 4 173 4l-24 -116h-202v-742z" />
    <glyph glyph-name="backslash" unicode="\" horiz-adv-x="1020" 
d="M284 1612l636 -1612h-196l-624 1612h184z" />
    <glyph glyph-name="bracketright" unicode="]" horiz-adv-x="668" 
d="M330 812l-0.000976562 742h-202l-24 116c33.333 0 91 -1.33301 173 -4s143 -4 183 -4c14.667 0 34 1.33301 58 4s40.667 4 50 4v-827v-897c-32.667 0 -87.167 1.33301 -163.5 4s-132.166 4 -167.499 4c-19.333 0 -50.333 -2.66699 -93 -8l-44 145
c22 -6.66699 56.667 -12 104 -16s89.333 -6 126 -6v743z" />
    <glyph glyph-name="asciicircum" unicode="^" horiz-adv-x="1171" 
d="M1071 925h-197l-286 226l-291 -226h-197l398 423h181z" />
    <glyph glyph-name="underscore" unicode="_" horiz-adv-x="1309" 
d="M1229 -441h-1149v111h1149v-111z" />
    <glyph glyph-name="grave" unicode="`" horiz-adv-x="729" 
d="M369 1542c19.333 -84 38.001 -151.668 56.001 -203.001c15.333 -40.667 32.666 -78 51.999 -112c40 -69.333 90.667 -123.666 152 -162.999c-30.667 -6 -64.334 -9 -101.001 -9c-33.333 0 -66 3 -98 9s-63.5 15.167 -94.5 27.5s-59.667 29.5 -86 51.5
s-48.166 47.667 -65.499 77c-8.66699 14.667 -16 31 -22 49l-62 273h269z" />
    <glyph glyph-name="a" unicode="a" horiz-adv-x="1260" 
d="M323 96c55.333 0 123 31.168 203 93.501s141.333 135.166 184 218.499l-34 165c-33.333 0 -78.833 -31.833 -136.5 -95.5s-108.167 -134 -151.5 -211s-65 -133.833 -65 -170.5zM581 770.001c-13.333 0 -33.3311 -4.99902 -59.998 -14.999s-46.334 -15 -59.001 -15
c3.33301 8 8.16602 18.667 14.499 32s18.333 36.833 36 70.5s34.667 63.5 51 89.5s34.333 49.667 54 71s36.834 32 51.501 32s28.834 -3.66699 42.501 -11s27.167 -19.333 40.5 -36s25.833 -35.167 37.5 -55.5s24.167 -46.833 37.5 -79.5l38 -97l42.5 -118.5l46 -135
l52.5 -155.5l59 -170c4 -5.33301 10.333 -8 19 -8c23.333 0 65 19.333 125 58c-10.667 -19.333 -21.5 -38 -32.5 -56s-27.333 -41.333 -49 -70s-43.167 -53 -64.5 -73s-46.333 -37.667 -75 -53s-57 -23 -85 -23c-19.333 0 -36.333 7.5 -51 22.5s-26.834 36 -36.501 63
s-17.834 54 -24.501 81l-22.5 94c-8.33301 35.667 -16.166 64.167 -23.499 85.5c-16.667 -15.333 -44.5 -43.166 -83.5 -83.499s-72 -72.5 -99 -96.5s-60.833 -50.5 -101.5 -79.5s-83.667 -50.667 -129 -65s-93 -21.5 -143 -21.5c-26 0 -56.833 14.5 -92.5 43.5
s-53.5 51.5 -53.5 67.5c0 46 33.167 110.667 99.5 194s145.5 165.666 237.5 246.999s179.667 149 263 203c-5.33301 25.333 -11.833 42.166 -19.5 50.499s-21.834 12.5 -42.501 12.5z" />
    <glyph glyph-name="b" unicode="b" horiz-adv-x="1442" 
d="M541 582v-171.999c0 -26.667 10 -51.334 30 -74.001c45.333 -39.333 82.166 -68.833 110.499 -88.5s62 -36.167 101 -49.5s81.833 -20 128.5 -20c64 0 114.667 28.167 152 84.5s56 121.5 56 195.5c0 78.667 -33.167 142.667 -99.5 192s-143.166 74 -230.499 74
c-42 0 -78.5 -5.16699 -109.5 -15.5s-67.833 -27.833 -110.5 -52.5c-12 -19.333 -19.667 -33.5 -23 -42.5s-5 -19.5 -5 -31.5zM537 684.001c7.33301 5.33301 28.8359 21.998 64.5029 49.998l74.5 57.5c14 10.333 38.333 26.333 73 48s64 37.167 88 46.5
s53.5 18.166 88.5 26.499s69.5 12.5 103.5 12.5c54.667 0 102 -7.83301 142 -23.5s72 -38 96 -67s42.5 -61 55.5 -96s22.167 -75.167 27.5 -120.5c0 -50.667 -16.333 -105.167 -49 -163.5s-75.334 -113.666 -128.001 -165.999s-110 -101.5 -172 -147.5
s-124.5 -84.667 -187.5 -116s-119.167 -52.666 -168.5 -63.999c-80.667 26 -150 60.333 -208 103s-103.667 100.334 -137 173.001v729c0 182 -85 299 -255 351c42 22 92 54.5 150 97.5s108.167 78 150.5 105s78.166 40.5 107.499 40.5c43.333 0 73.666 -15.667 90.999 -47
s26 -75.666 26 -132.999c0 -40 -5.5 -106.833 -16.5 -200.5s-16.5 -160.834 -16.5 -201.501v-294z" />
    <glyph glyph-name="c" unicode="c" horiz-adv-x="1247" 
d="M712 822c-18 0 -32.832 -0.666992 -44.499 -2s-26.167 -5.33301 -43.5 -12s-34.666 -16.667 -51.999 -30c-54 -52.667 -90.167 -108 -108.5 -166s-27.5 -131 -27.5 -219c0 -72.667 31.833 -138.334 95.5 -197.001s136.5 -88 218.5 -88c33.333 0 66 2.83301 98 8.5
s58.5 11.167 79.5 16.5s48.667 16.333 83 33s58.666 29 72.999 37l86.5 49c-32.667 -70 -103.5 -129.5 -212.5 -178.5s-246.167 -73.5 -411.5 -73.5c-122 0 -220.5 36.333 -295.5 109s-112.5 167 -112.5 283c0 168 59.167 298.833 177.5 392.5s273.833 140.5 466.5 140.5
c218.667 0 328 -52 328 -156c0 -27.333 -9.33301 -48.166 -28 -62.499s-56 -21.5 -112 -21.5c-48.667 0 -88.667 30.667 -120 92c-8.66699 14 -20.334 24.5 -35.001 31.5s-28.5 11 -41.5 12s-33.5 1.5 -61.5 1.5z" />
    <glyph glyph-name="d" unicode="d" horiz-adv-x="1699" 
d="M1116 235l0.000976562 425.001c-12.667 24 -30.167 44.333 -52.5 61s-44.5 29.167 -66.5 37.5s-50 14.666 -84 18.999s-61.833 6.83301 -83.5 7.5s-50.5 1 -86.5 1h-90c-14.667 0 -35.5 -9.66699 -62.5 -29s-54.333 -43.833 -82 -73.5s-51.834 -65.167 -72.501 -106.5
s-31 -80.666 -31 -117.999c0 -91.333 31.167 -170 93.5 -236s138.5 -99 228.5 -99c82.667 0 148.167 7.66699 196.5 23s112.5 44.666 192.5 87.999zM861.001 1280c14.667 14.667 35.8271 37.3389 63.4941 68.0059s49.834 54 66.501 70s38.334 33.833 65.001 53.5
s55.334 33.834 86.001 42.501s64.667 13 102 13c88 0 132 -109.667 132 -329c0 -40.667 -1.33301 -99.834 -4 -177.501s-4 -131.834 -4 -162.501v-534c0 -36.667 5.83301 -67.834 17.5 -93.501s25.834 -45.334 42.501 -59.001s39 -24.334 67 -32.001
s53.167 -12.334 75.5 -14.001s50.166 -2.5 83.499 -2.5c-99.333 -115.333 -221.666 -173 -366.999 -173c-20 0 -36.833 2.66699 -50.5 8s-25.5 14.5 -35.5 27.5s-17.833 25.167 -23.5 36.5s-13.334 28.833 -23.001 52.5s-18.167 42.834 -25.5 57.501
c-49.333 -10.667 -103.666 -25 -162.999 -43l-148 -46c-39.333 -12.667 -86.833 -23.834 -142.5 -33.501s-112.167 -14.5 -169.5 -14.5c-98.667 0 -184.5 31.167 -257.5 93.5s-109.5 140.166 -109.5 233.499c0 110.667 30.833 211.167 92.5 301.5s142.334 160 242.001 209
s206.834 73.5 321.501 73.5h334v182c0 32 -4.66699 58.333 -14 79s-23.833 36.667 -43.5 48s-38.667 19.833 -57 25.5s-43.5 12 -75.5 19s-58 13.833 -78 20.5z" />
    <glyph glyph-name="e" unicode="e" horiz-adv-x="1365" 
d="M421 536c140.667 0 302.666 18.6699 485.999 56.0029c2.66699 -0.666992 6.66699 -1 12 -1c29.333 0 44 17 44 51c-11.333 35.333 -28.166 64.666 -50.499 87.999s-49.833 40.166 -82.5 50.499s-63.834 17.166 -93.501 20.499s-65.5 5 -107.5 5
c-31.333 0 -60.666 -9.33301 -87.999 -28s-49.5 -42 -66.5 -70s-30.167 -57.167 -39.5 -87.5s-14 -58.5 -14 -84.5zM1255 264.003c-68.667 -78 -159.5 -141.499 -272.5 -190.499s-240.833 -73.5 -383.5 -73.5c-64.667 0 -124.167 7 -178.5 21s-102.833 35.333 -145.5 64
s-76 67.167 -100 115.5s-36 104.166 -36 167.499c0 74 11.333 142.5 34 205.5s52.167 115.667 88.5 158s77.833 78.5 124.5 108.5s93.667 51.667 141 65s94 20 140 20c306.667 0 504 -99 592 -297c-3.33301 -12.667 -8.66602 -26.667 -15.999 -42
s-13.666 -27.333 -18.999 -36l-9 -14c-55.333 -6.66699 -137.833 -18.5 -247.5 -35.5s-208.334 -30.333 -296.001 -40s-174.5 -14.5 -260.5 -14.5c0 -49.333 6.16699 -92.333 18.5 -129s28.166 -65.5 47.499 -86.5s43.333 -37.833 72 -50.5s56.667 -21.167 84 -25.5
s58 -6.5 92 -6.5h64c54.667 0 107.5 5.5 158.5 16.5s92.333 23.333 124 37s64.5 27 98.5 40s62.333 20.5 85 22.5z" />
    <glyph glyph-name="f" unicode="f" horiz-adv-x="1536" 
d="M406 913l-0.000976562 222.998c0 48.667 15.167 98.834 45.5 150.501s69.833 97.834 118.5 138.501s106.334 74 173.001 100s134 39 202 39c41.333 0 78.333 -0.666992 111 -2s67.834 -4.16602 105.501 -8.49902s70.5 -10.333 98.5 -18s55.667 -18 83 -31
s49.833 -28.5 67.5 -46.5s31.834 -40 42.501 -66s16 -55.333 16 -88c0 -101.333 -52 -152 -156 -152c-34.667 0 -65.834 10.667 -93.501 32s-41.5 48.666 -41.5 81.999c0 16.667 3.66699 33.334 11 50.001c-33.333 27.333 -78.5 49.833 -135.5 67.5s-113.5 26.5 -169.5 26.5
c-68 0 -123.5 -14.333 -166.5 -43s-64.5 -73.667 -64.5 -135v-318h580l-158 -143h-420v-702c0 -138.667 5 -245.5 15 -320.5s34 -141.167 72 -198.5l-49 23.5l-50 23.5c-11.333 5.33301 -26.666 13.5 -45.999 24.5s-34.333 20.667 -45 29s-23.834 19.666 -39.501 33.999
s-27.834 28.666 -36.501 42.999s-18.167 31.833 -28.5 52.5s-18 42.334 -23 65.001s-9.33301 48.667 -13 78s-5.5 61 -5.5 95v753h-333l120 142h213z" />
    <glyph glyph-name="g" unicode="g" horiz-adv-x="1435" 
d="M619 759c-73.333 0 -138.168 -20.001 -194.501 -60.001s-84.5 -93 -84.5 -159c0 -84 31.833 -155 95.5 -213s138.834 -87 225.501 -87c46 0 86 15 120 45s59 67 75 111s24 91 24 141c0 64.667 -26 117.834 -78 159.501s-113 62.5 -183 62.5zM1111 572.999
c0 -30 -3.16699 -57.8379 -9.5 -83.5049s-12.833 -46.667 -19.5 -63s-18.667 -34.666 -36 -54.999s-30.5 -34.666 -39.5 -42.999s-25.833 -22.833 -50.5 -43.5s-41 -34.667 -49 -42c73.333 -10 134.333 -24 183 -42s90.834 -43.667 126.501 -77s61.667 -75.833 78 -127.5
s24.5 -114.834 24.5 -189.501c-12 -115.333 -96 -248.666 -252 -399.999c-123.333 -36.667 -243.333 -55 -360 -55c-232.667 0 -459 76.333 -679 229c0 110 45.333 220.667 136 332c92.667 -93.333 205.167 -165.166 337.5 -215.499s258.5 -75.5 378.5 -75.5
c117.333 0 203.666 23 258.999 69c0 74 -10.667 137 -32 189s-51.833 92 -91.5 120s-83.5 48 -131.5 60s-103.333 18 -166 18c-192.667 0 -333.834 34.833 -423.501 104.5s-134.5 185.834 -134.5 348.501c0 64 17.833 123.333 53.5 178s80.834 98.834 135.501 132.501
s112.167 59.834 172.5 78.501s117.833 28 172.5 28c130 0 232 -34.333 306 -103s111 -159.334 111 -272.001z" />
    <glyph glyph-name="h" unicode="h" horiz-adv-x="1686" 
d="M575 661c45.333 40 82.998 71.666 112.998 94.999s66.833 48.166 110.5 74.499s88.667 45.5 135 57.5s95.833 18 148.5 18c87.333 0 169.166 -18.167 245.499 -54.5s138.5 -88.5 186.5 -156.5s72 -144 72 -228c0 -37.333 -11.167 -77 -33.5 -119
s-51.5 -81.5 -87.5 -118.5s-72.5 -70.333 -109.5 -100s-74.167 -56.167 -111.5 -79.5c30 82.667 45 162 45 238c0 116.667 -36.833 210.667 -110.5 282s-179.834 107 -318.501 107c-66 0 -119.667 -11.667 -161 -35s-82.333 -63 -123 -119v-180
c0 -31.333 -2.16699 -61.166 -6.5 -89.499s-9.66602 -53.5 -15.999 -75.5s-15.5 -43.333 -27.5 -64s-22.833 -38.167 -32.5 -52.5s-23.167 -29 -40.5 -44l-42.5 -36c-11 -9 -26.833 -19.333 -47.5 -31s-36 -20 -46 -25l-47 -23l-43 -20.5
c30.667 71.333 52.334 145 65.001 221s19 176.333 19 301v564c0 45.333 -6.16699 85 -18.5 119s-30.166 61.5 -53.499 82.5s-48.166 37.667 -74.499 50s-56.5 22.5 -90.5 30.5c60.667 72 126.167 133.5 196.5 184.5s131.833 76.5 184.5 76.5c26 0 47.667 -6 65 -18
s30.5 -29.833 39.5 -53.5s15.167 -49.167 18.5 -76.5s5 -60 5 -98c0 -28 -1.33301 -73.167 -4 -135.5s-4 -109.166 -4 -140.499v-328z" />
    <glyph glyph-name="i" unicode="i" horiz-adv-x="826" 
d="M303 530c0 20.667 -0.668945 38.334 -2.00195 53.001s-4 30.334 -8 47.001s-10.833 29.5 -20.5 38.5s-22.167 13.5 -37.5 13.5s-28.833 -3.83301 -40.5 -11.5s-24.167 -18.334 -37.5 -32.001s-25.333 -23.834 -36 -30.501c6 24.667 10.333 42 13 52
s8.16699 28.667 16.5 56s15.833 48.166 22.5 62.499s16.334 32.333 29.001 54s25.5 38.167 38.5 49.5s28.833 21.333 47.5 30s38.334 13 59.001 13c70.667 0 123.667 -24 159 -72s53 -108 53 -180c0 -25.333 -2.66699 -52.333 -8 -81c-6 -30 -15.5 -66 -28.5 -108
s-23.167 -80 -30.5 -114s-11 -70.667 -11 -110c0 -26 8.5 -49.5 25.5 -70.5s36.5 -32.833 58.5 -35.5c28 0 62.5 8.83301 103.5 26.5s73.167 26.5 96.5 26.5c6.66699 0 12 -0.333008 16 -1c-32 -66 -80 -116.833 -144 -152.5s-136.667 -53.5 -218 -53.5
c-56 0 -100.667 18.5 -134 55.5s-50 84.5 -50 142.5c0 44.667 11.333 106.334 34 185.001s34 127.667 34 147z" />
    <glyph glyph-name="j" unicode="j" horiz-adv-x="839" 
d="M259 1232c34.667 46.667 68 85.165 100 115.498s66.667 51.833 104 64.5l196 -184c-45.333 -19.333 -84 -42.166 -116 -68.499s-58.667 -62.166 -80 -107.499zM115 683.998c27.333 20.667 61.1689 49.3359 101.502 86.0029s71.666 64 93.999 82s52.5 34.667 90.5 50
s78.667 23 122 23c26 0 47.5 -5.83301 64.5 -17.5s29.667 -28.5 38 -50.5s14 -45 17 -69s4.5 -52.333 4.5 -85c0 -18.667 -0.666992 -45.834 -2 -81.501s-2 -61.5 -2 -77.5c0 -75.333 -1.33301 -172 -4 -290s-4 -214.667 -4 -290c0 -44 -6.5 -86 -19.5 -126
s-32.167 -76.333 -57.5 -109s-52.333 -62.5 -81 -89.5s-62.667 -52.667 -102 -77s-75.5 -44.833 -108.5 -61.5s-70.167 -34.334 -111.5 -53.001c13.333 20 32.833 46.167 58.5 78.5s46.667 60.666 63 84.999s33.666 53.833 51.999 88.5s32 74 41 118s13.5 92.667 13.5 146
v468c0 45.333 -27.167 92 -81.5 140s-116.5 85.333 -186.5 112z" />
    <glyph glyph-name="k" unicode="k" horiz-adv-x="1448" 
d="M1416 156c-68 -65.333 -126.169 -107.667 -174.502 -127s-113.166 -29 -194.499 -29c-37.333 -0 -71.333 6.33301 -102 19s-58 30.334 -82 53.001s-46.333 46 -67 70s-45.167 50.833 -73.5 80.5s-56.166 54.5 -83.499 74.5c-2 0.666992 -5.33301 1 -10 1l-68 -28
c0 -24.667 -1.83301 -47.834 -5.5 -69.501s-8 -40.834 -13 -57.501s-12.833 -33 -23.5 -49s-20 -29.333 -28 -40s-19.833 -21.834 -35.5 -33.501l-37 -27c-9 -6.33301 -23.333 -14.166 -43 -23.499s-33.667 -15.666 -42 -18.999l-44.5 -18l-42 -17
c29.333 61.333 47.5 111.333 54.5 150s10.5 89.334 10.5 152.001v663c0 40.667 -2.16699 76 -6.5 106s-11.666 54.833 -21.999 74.5s-21.5 35.5 -33.5 47.5s-28 21 -48 27s-39.5 10 -58.5 12s-42.833 3 -71.5 3c9.33301 8.66699 26.666 25.834 51.999 51.501l57.5 57.5
c13 12.667 32.167 29.167 57.5 49.5s48 35.5 68 45.5s43.833 19 71.5 27s55.5 12 83.5 12c42.667 0 70.667 -17 84 -51s20 -89 20 -165c0 -14.667 -0.166992 -40.334 -0.5 -77.001s-0.5 -65.667 -0.5 -87v-634l358 264c-5.33301 7.33301 -13 17.166 -23 29.499
s-16.833 21.5 -20.5 27.5s-7.33398 15.667 -11.001 29s-5.5 28.666 -5.5 45.999c0 40.667 14 75.667 42 105s62 44 102 44c42.667 0 78.667 -16 108 -48s44 -69.667 44 -113c0 -30 -6.33301 -56.167 -19 -78.5s-30.167 -41.5 -52.5 -57.5s-45.5 -30.5 -69.5 -43.5
s-50.833 -28.333 -80.5 -46s-54.5 -36.167 -74.5 -55.5l355 -321c14.667 -12 44.334 -18 89.001 -18c16 0 32.833 0.833008 50.5 2.5s31.667 3.33398 42 5.00098s15.833 3.16699 16.5 4.5z" />
    <glyph glyph-name="l" unicode="l" horiz-adv-x="1210" 
d="M62 1307c32.667 26.667 64.166 56.667 94.499 90l68 75.5c15 17 36.833 31.833 65.5 44.5s64.667 19 108 19c87.333 0 131 -57.333 131 -172c0 -21.333 -1.33301 -53.166 -4 -95.499s-4 -72.5 -4 -90.5v-682c0 -102.667 19.833 -175.5 59.5 -218.5
s96.834 -64.5 171.501 -64.5c36 0 80.167 5.33301 132.5 16s95.333 21 129 31l159.5 48c-72.667 -81.333 -115 -128 -127 -140c-66 -66.667 -137 -112 -213 -136c-66 -21.333 -147.333 -32 -244 -32c-204.667 0 -307 125.333 -307 376v787
c0 41.333 -21.5 75.666 -64.5 102.999s-94.833 41 -155.5 41z" />
    <glyph glyph-name="m" unicode="m" horiz-adv-x="2587" 
d="M51 448c112 181.333 196.17 306.167 252.503 374.5s106.833 102.5 151.5 102.5c14.667 0 28.334 -2 41.001 -6s23.667 -9.16699 33 -15.5s18.666 -14.666 27.999 -24.999s17 -20.333 23 -30s12.5 -21.667 19.5 -36s12.5 -26.666 16.5 -36.999l15.5 -39
c6.33301 -15.667 11.5 -27.834 15.5 -36.501c8 5.33301 19.667 13.666 35 24.999l101 71.5c22.667 15.667 53.167 34.667 91.5 57s72 38.333 101 48s63.333 18.5 103 26.5s81.167 12 124.5 12c35.333 0 67.333 -4.33301 96 -13s52.334 -18.667 71.001 -30
s37.667 -28.666 57 -51.999s33.833 -43 43.5 -59l40.5 -70c120.667 85.333 226.5 144 317.5 176s202.5 48 334.5 48c50.667 0 96.667 -12.5 138 -37.5s75 -58.333 101 -100s46 -87.834 60 -138.501s21 -102.667 21 -156c0 -54 -11 -105.333 -33 -154
s-50.167 -90.167 -84.5 -124.5s-74 -65.666 -119 -93.999s-88.5 -50.833 -130.5 -67.5s-83.667 -30 -125 -40c53.333 52 96 102.833 128 152.5s48 102.834 48 159.501c0 117.333 -30.833 211.5 -92.5 282.5s-145.5 106.5 -251.5 106.5c-90.667 0 -188 -27 -292 -81
c28.667 -98 43 -186.333 43 -265c0 -120.667 -33.833 -214.667 -101.5 -282s-170.834 -101 -309.501 -101c44.667 116.667 67 224.667 67 324c0 194.667 -85.333 335.667 -256 423c-130 0 -229 -50 -297 -150c32 -102 48 -190 48 -264c0 -222 -132.667 -333 -398 -333
c38 103.333 57 207.333 57 312c0 126 -31 215.333 -93 268c-8.66699 3.33301 -16.334 5 -23.001 5c-18.667 0 -39.834 -7.83301 -63.501 -23.5s-50.334 -35.834 -80.001 -60.501s-54.167 -42.334 -73.5 -53.001z" />
    <glyph glyph-name="n" unicode="n" horiz-adv-x="1683" 
d="M1531 653c28.667 -66.667 43.0059 -154.999 43.0059 -264.999c0 -120.667 -33.833 -214.667 -101.5 -282s-170.834 -101 -309.501 -101c44.667 116.667 67 224.667 67 324c0 194.667 -85.333 335.667 -256 423c-130 0 -229 -50 -297 -150c32 -102 48 -190 48 -264
c0 -222 -132.667 -333 -398 -333c38 103.333 57 207.333 57 312c0 126 -31 215.333 -93 268c-8.66699 3.33301 -16.334 5 -23.001 5c-18.667 0 -39.834 -7.83301 -63.501 -23.5s-50.334 -35.834 -80.001 -60.501s-54.167 -42.334 -73.5 -53.001
c112 181.333 196.167 306.166 252.5 374.499s106.833 102.5 151.5 102.5c14.667 0 28.334 -2 41.001 -6s23.667 -9.16699 33 -15.5s18.666 -14.666 27.999 -24.999s17 -20.333 23 -30s12.5 -21.667 19.5 -36s12.5 -26.666 16.5 -36.999l15.5 -39
c6.33301 -15.667 11.5 -27.834 15.5 -36.501c82.667 78.667 175.334 138.334 278.001 179.001s195.334 61 278.001 61c43.333 0 83.666 -8.16699 120.999 -24.5s69.166 -38.833 95.499 -67.5s48.666 -59.5 66.999 -92.5s33.166 -68.833 44.499 -107.5z" />
    <glyph glyph-name="o" unicode="o" horiz-adv-x="1540" 
d="M758 804c-79.333 0 -144.998 -31.1689 -196.998 -93.502s-78 -135.5 -78 -219.5c0 -42 8.5 -81.167 25.5 -117.5s40.167 -67.166 69.5 -92.499s63.166 -47.166 101.499 -65.499s78.833 -31.833 121.5 -40.5s86 -13 130 -13c21.333 0 46.166 17.5 74.499 52.5
s52.333 74.667 72 119s29.5 80.166 29.5 107.499c0 98.667 -33.833 183.834 -101.5 255.501s-150.167 107.5 -247.5 107.5zM128.002 367.998c0 52.667 12.668 104.333 38.001 155s59.666 96.667 102.999 138s94.333 79.666 153 114.999s121.167 64.833 187.5 88.5
s135.5 42.167 207.5 55.5s142.333 20 211 20c71.333 0 139 -14.333 203 -43s116.5 -69.667 157.5 -123s61.5 -112.666 61.5 -177.999c0 -64 -25.667 -132.833 -77 -206.5s-117 -140.667 -197 -201s-172.833 -110.5 -278.5 -150.5s-208.167 -60 -307.5 -60
c-79.333 0 -154 15.833 -224 47.5s-127.167 77.667 -171.5 138s-66.5 128.5 -66.5 204.5z" />
    <glyph glyph-name="p" unicode="p" horiz-adv-x="1690" 
d="M577 303c0 -32 17.3301 -59.6689 51.9971 -83.002s75.334 -40.166 122.001 -50.499s94.334 -15.5 143.001 -15.5c38.667 0 75.667 3.33301 111 10s69 16.834 101 30.501s57.5 33.5 76.5 59.5s28.5 56 28.5 90c0 69.333 -13 134.833 -39 196.5s-64.667 112.5 -116 152.5
s-109.666 60 -174.999 60c-59.333 0 -112.833 -10.667 -160.5 -32s-95.5 -52 -143.5 -92v-326zM84.9971 673.998c13.333 32 44.3301 68 92.9971 108s101.167 73.833 157.5 101.5s101.5 41.5 135.5 41.5c40 0 70.333 -14.167 91 -42.5s31 -62.5 31 -102.5
c43.333 11.333 91 26.666 143 45.999l129.5 48.5c34.333 13 76 24.667 125 35s99.167 15.5 150.5 15.5c48 0 92.5 -3.16699 133.5 -9.5s81.667 -17.666 122 -33.999s74.5 -37.333 102.5 -63s50.667 -59.5 68 -101.5s26 -90.333 26 -145c0 -64 -12.833 -123.167 -38.5 -177.5
s-59.667 -100.833 -102 -139.5s-92.666 -73.167 -150.999 -103.5s-118.333 -54.666 -180 -72.999s-126.667 -33.666 -195 -45.999s-131.5 -20.833 -189.5 -25.5s-114.667 -7 -170 -7v-170c0 -98.667 8 -181.667 24 -249s40 -135 72 -203l-73.5 45
c-19 12 -41.667 27.5 -68 46.5s-47.833 36.667 -64.5 53s-34.167 36.166 -52.5 59.499s-32.666 47 -42.999 71s-19 51.5 -26 82.5s-10.5 63.833 -10.5 98.5v636c0 47.333 -25.167 93.166 -75.5 137.499s-105.166 66.5 -164.499 66.5z" />
    <glyph glyph-name="q" unicode="q" horiz-adv-x="1362" 
d="M922 379v296c-72 60 -147.333 90 -226 90c-75.333 0 -140.333 -28.333 -195 -85c-23.333 -34 -35 -80.333 -35 -139c0 -48.667 11 -91.667 33 -129c64.667 -105.333 136 -158 214 -158c59.333 0 109 14.167 149 42.5s60 55.833 60 82.5zM967 -159
c-24 109.333 -35.998 237 -35.998 383c-41.333 -13.333 -90.333 -33.833 -147 -61.5s-108.5 -49.167 -155.5 -64.5s-98.167 -23 -153.5 -23c-98 0 -179 39.667 -243 119s-96 171.666 -96 276.999c0 71.333 17.667 136.333 53 195s82 106.5 140 143.5s122.5 65.5 193.5 85.5
s144.167 30 219.5 30c43.333 0 83.833 -4.33301 121.5 -13s79.5 -20.834 125.5 -36.501s85.667 -27.5 119 -35.5l87 16c0 -79.333 -2 -199.666 -6 -360.999s-6 -282 -6 -362c0 -229.333 13 -418.666 39 -567.999c-28.667 -44.667 -69.667 -92.667 -123 -144l-109 85.5
c-26.667 20.333 -61.834 45.5 -105.501 75.5s-82.334 53.333 -116.001 70s-72 32.5 -115 47.5s-85.5 25.167 -127.5 30.5l180 240c125.333 -37.333 212.333 -80.333 261 -129z" />
    <glyph glyph-name="r" unicode="r" horiz-adv-x="1453" 
d="M568 766c31.333 12 68.6689 29.998 112.002 53.998s82.833 42.667 118.5 56s74.834 20 117.501 20c35.333 0 70.333 -8 105 -24l104 -48c34.667 -16 69.667 -24 105 -24c28 0 52.833 6 74.5 18s45.167 28.667 70.5 50s47.666 37.333 66.999 48
c-15.333 -29.333 -29 -54 -41 -74s-27.833 -43.667 -47.5 -71s-40 -50 -61 -68s-45 -35.5 -72 -52.5s-57.833 -29.667 -92.5 -38s-72 -12.5 -112 -12.5c-50.667 0 -98.834 5.66699 -144.501 17s-81.667 24 -108 38s-52 26.667 -77 38s-44.5 17 -58.5 17
c-20 0 -36.333 -6.33301 -49 -19s-19 -27 -19 -43v-366c0 -64 -28.333 -129.167 -85 -195.5s-135 -123.833 -235 -172.5c16 42.667 29 109 39 199s15 180.333 15 271c0 42 -2.33301 78.333 -7 109s-13.5 61.5 -26.5 92.5s-33 56.833 -60 77.5s-61.167 36.334 -102.5 47.001
l91.5 86.5c21.667 19.667 49.334 42.667 83.001 69s64.667 45.333 93 57s55.833 17.5 82.5 17.5c19.333 0 36.166 -5 50.499 -15s26 -25 35 -45s15.667 -37.667 20 -53s9.16602 -35.666 14.499 -60.999z" />
    <glyph glyph-name="s" unicode="s" horiz-adv-x="1137" 
d="M299 721l-0.00292969 283.002c0 102 37.833 186.167 113.5 252.5s182.167 99.5 319.5 99.5c107.333 0 187 -20.333 239 -61s78 -103.667 78 -189c0 -40 -10 -68 -30 -84s-48 -24 -84 -24c-66 0 -99 30.333 -99 91c0 15.333 3 36.333 9 63c-26 40 -69.667 60 -131 60
c-75.333 0 -125.666 -34 -150.999 -102c-12.667 -26.667 -19 -64 -19 -112c0 -6.66699 0.166992 -17 0.5 -31s0.5 -24.333 0.5 -31c3.33301 -22.667 12.833 -78.834 28.5 -168.501s26.167 -153.834 31.5 -192.501s11.333 -94.167 18 -166.5s10 -141.166 10 -206.499
c-4 -32.667 -13.167 -62.667 -27.5 -90s-29.666 -49.833 -45.999 -67.5s-39.166 -35.667 -68.499 -54s-54 -32.333 -74 -42s-48.5 -22.5 -85.5 -38.5s-63.833 -28 -80.5 -36c64 89.333 105.333 177.333 124 264c7.33301 49.333 11 102.666 11 159.999
c0 144 -27.667 239 -83 285c-10 6.66699 -23.167 12.167 -39.5 16.5s-30.666 7.16602 -42.999 8.49902s-30.166 2.83301 -53.499 4.5s-40 3.16699 -50 4.5c-0.666992 3.33301 -1 6.33301 -1 9s0.166992 5.33398 0.5 8.00098s0.833008 5 1.5 7s1.66699 4.5 3 7.5
s2.5 5.33301 3.5 7l5 8.5c2.33301 4 4.16602 7 5.49902 9c37.333 34 81.666 51 132.999 51c10.667 0 21 -1 31 -3z" />
    <glyph glyph-name="t" unicode="t" horiz-adv-x="1487" 
d="M744 707c-45.333 -49.333 -75.666 -101.664 -90.999 -156.997s-23 -124.333 -23 -207c0 -72.667 23.167 -135.667 69.5 -189s103.833 -80 172.5 -80c34.667 0 67 4.16699 97 12.5s53.333 17 70 26s44 25.5 82 49.5s69 42.667 93 56
c-17.333 -32 -31.833 -57.333 -43.5 -76s-29.667 -41.834 -54 -69.501s-49.333 -49 -75 -64s-59.334 -28.333 -101.001 -40s-87.834 -17.5 -138.501 -17.5c-82 0 -159.5 15.833 -232.5 47.5s-132.833 77.5 -179.5 137.5s-70 127.333 -70 202c0 142 75.333 271 226 387
c8.66699 6.66699 13 12.334 13 17.001c0 11.333 -23.667 17 -71 17c-45.333 0 -103.166 -4.33301 -173.499 -13s-129.166 -17.334 -176.499 -26.001l-72 -13c34 24.667 54.667 39.5 62 44.5l57.5 39c31 21 52.667 34.5 65 40.5s33 16.667 62 32s53.667 25.666 74 30.999
l74.5 20c29.333 8 58.833 13.333 88.5 16s61.167 4 94.5 4c78.667 0 163 -8.83301 253 -26.5s163.333 -26.5 220 -26.5c92.667 0 209.667 14.667 351 44c-22 -14.667 -49.5 -34.834 -82.5 -60.501s-59.833 -45.5 -80.5 -59.5s-47.334 -29.333 -80.001 -46
s-69.5 -30.167 -110.5 -40.5s-88.5 -18.5 -142.5 -24.5c-16.667 -5.33301 -38 -8 -64 -8c-27.333 0 -60.5 3.5 -99.5 10.5s-59.167 10.5 -60.5 10.5h-4z" />
    <glyph glyph-name="u" unicode="u" horiz-adv-x="1752" 
d="M94 646c26.667 53.333 66.8301 108.001 120.497 164.001s99.5 84 137.5 84c54.667 0 94 -17.667 118 -53s36 -89 36 -161v-292c10 -71.333 32.333 -124.833 67 -160.5s84.667 -53.5 150 -53.5c20 0 39 1.33301 57 4c125.333 36 233.666 92.667 324.999 170v259
c0 26 -9 39 -27 39c-9.33301 0 -26.833 -5.16699 -52.5 -15.5s-43.834 -15.5 -54.501 -15.5c20.667 44 39.834 81.5 57.501 112.5s38.834 62.5 63.501 94.5s51.834 56.333 81.501 73s60.834 25 93.501 25c23.333 0 42.833 -6.83301 58.5 -20.5
s27.334 -33.834 35.001 -60.501s13 -54.5 16 -83.5s4.5 -63.833 4.5 -104.5v-331c0 -50.667 13.333 -87.667 40 -111s62 -35 106 -35c54 0 119 16.667 195 50c-140 -149.333 -282 -224 -426 -224c-122.667 0 -184 62.667 -184 188l-452 -174
c-34.667 -9.33301 -84 -14 -148 -14c-56.667 -0 -109.5 22.833 -158.5 68.5s-73.5 89.5 -73.5 131.5v438c0 24.667 -27.667 37 -83 37c-30 0 -64.333 -9.66699 -103 -29z" />
    <glyph glyph-name="v" unicode="v" horiz-adv-x="1336" 
d="M103 348c-0.666992 10.667 -0.996094 25 -0.996094 43c0 28 0.833008 56.833 2.5 86.5s4.66699 66.334 9 110.001s11.666 84 21.999 121s23 72.5 38 106.5s35 60.833 60 80.5s53.5 29.5 85.5 29.5c35.333 0 70.666 -11.5 105.999 -34.5s66.666 -51.167 93.999 -84.5
s55.833 -75 85.5 -125s54 -95 73 -135l65 -138c24.333 -52 42.5 -89.333 54.5 -112c68.667 48 137.5 109.5 206.5 184.5s103.5 126.833 103.5 155.5c0 50.667 -19.333 76 -58 76c-36.667 0 -93.334 -24 -170.001 -72c7.33301 25.333 18.333 53 33 83s32.5 60.667 53.5 92
s45.833 57.5 74.5 78.5s57.667 31.5 87 31.5c37.333 0 69 -14.167 95 -42.5s39 -62.833 39 -103.5c0 -20.667 -1.66699 -38.167 -5 -52.5s-11 -35.833 -23 -64.5c-54 -124 -134 -250.833 -240 -380.5s-221.333 -243.5 -346 -341.5
c-56 225.333 -163.333 436.666 -322 633.999c-6 3.33301 -13.333 5 -22 5c-22 0 -42 -11.667 -60 -35z" />
    <glyph glyph-name="w" unicode="w" horiz-adv-x="1998" 
d="M1049 925c35.333 0 69.002 -10.3301 101.002 -30.9971s59.667 -46.667 83 -78s46.666 -69.5 69.999 -114.5s43 -87.167 59 -126.5l53 -129.5c19.333 -47 36 -83.5 50 -109.5c68.667 48 137.5 109.5 206.5 184.5s103.5 126.833 103.5 155.5c0 50.667 -19.333 76 -58 76
c-36.667 0 -93.334 -24 -170.001 -72c7.33301 25.333 18.333 53 33 83s32.5 60.667 53.5 92s45.833 57.5 74.5 78.5s57.667 31.5 87 31.5c37.333 0 69 -14.167 95 -42.5s39 -62.833 39 -103.5c0 -20.667 -1.66699 -38.167 -5 -52.5s-11 -35.833 -23 -64.5
c-54 -124 -134 -250.833 -240 -380.5s-221.333 -243.5 -346 -341.5c-11.333 46 -20.666 82.333 -27.999 109s-18.166 56.5 -32.499 89.5s-24.333 55.167 -30 66.5s-22.667 43.166 -51 95.499l-64.5 119.5c-61.333 -92 -132.333 -181.833 -213 -269.5
s-165 -165.834 -253 -234.501c-56 225.333 -163.333 436.666 -322 633.999c-6 3.33301 -13.333 5 -22 5c-22 0 -42 -11.667 -60 -35l-140 -196c-0.666992 10.667 -1 25 -1 43c0 28 0.833008 56.833 2.5 86.5s4.66699 66.334 9 110.001s11.666 84 21.999 121
s23 72.5 38 106.5s35 60.833 60 80.5s53.5 29.5 85.5 29.5c35.333 0 70.666 -11.5 105.999 -34.5s66.666 -51.167 93.999 -84.5s55.833 -75 85.5 -125s54 -95 73 -135l65 -138c24.333 -52 42.5 -89.333 54.5 -112c46.667 32.667 95.667 73.834 147 123.501
s92 95.167 122 136.5c-40.667 62.667 -84.167 111 -130.5 145s-99.166 51 -158.499 51l25.5 37.5c10.333 15.667 18.333 27.167 24 34.5s13.667 16.666 24 27.999s20.833 19.666 31.5 24.999s24 10.833 40 16.5s34.833 9.66699 56.5 12s46.5 3.5 74.5 3.5z" />
    <glyph glyph-name="x" unicode="x" horiz-adv-x="2020" 
d="M376 639c48 84 82.0029 138.666 102.003 163.999c58.667 78 127.667 118.667 207 122h12c32 0 64.833 -11.5 98.5 -34.5s63.334 -49.667 89.001 -80l96 -110c38.333 -43 72.833 -77.5 103.5 -103.5l309 255c24 26.667 47.667 45.5 71 56.5s51.666 16.5 84.999 16.5
c34.667 0 63.334 -13.5 86.001 -40.5s34 -58.833 34 -95.5c0 -34.667 -11.667 -64.334 -35 -89.001s-51.666 -37 -84.999 -37c-16.667 0 -31.667 3.33301 -45 10s-27.833 16.167 -43.5 28.5s-29.167 21.5 -40.5 27.5l-255 -219l264 -258c53.333 -46 126.333 -69 219 -69
c98.667 0 212.667 28 342 84c-55.333 -46 -105.833 -84.667 -151.5 -116s-95.834 -60.333 -150.501 -87s-112.334 -46.5 -173.001 -59.5s-125.334 -19.5 -194.001 -19.5c-32 0 -61.333 3.5 -88 10.5s-49.167 15 -67.5 24s-38.833 24.167 -61.5 45.5s-41 40.166 -55 56.499
l-63.5 75.5l-72.5 85l-663 -627c-44.667 -38 -83.5 -65 -116.5 -81s-73.167 -24 -120.5 -24c-56.667 0 -106.334 15.333 -149.001 46s-64 71.334 -64 122.001c0 46.667 17.167 86.334 51.5 119.001s75.166 49 122.499 49c26.667 0 51.167 -6.16699 73.5 -18.5
s46.833 -29.666 73.5 -51.999s49.667 -38.833 69 -49.5l648 600l-276 285c-20 17.333 -43 26 -69 26s-65 -12.667 -117 -38z" />
    <glyph glyph-name="y" unicode="y" horiz-adv-x="1693" 
d="M603 229c0 47.333 -3.99902 85.1689 -11.999 113.502s-25 65.166 -51 110.499c-20.667 31.333 -47.334 54.666 -80.001 69.999s-80 23 -142 23c-19.333 -2.66699 -40.166 -11.334 -62.499 -26.001s-42.333 -31.5 -60 -50.5s-33.834 -37.667 -48.501 -56
s-26.334 -33.833 -35.001 -46.5l-12 -19c0 78.667 3 149 9 211s16.5 122.333 31.5 181s37.667 104.167 68 136.5s67.833 48.5 112.5 48.5c102.667 0 197.167 -22.667 283.5 -68s153.666 -105.5 201.999 -180.5s72.5 -155.5 72.5 -241.5l89 108.5l88.5 110
c22.333 27.667 51 59 86 94s67.5 62.167 97.5 81.5s65.333 36 106 50s83 21 127 21c45.333 0 81.166 -13 107.499 -39s39.5 -60 39.5 -102c0 -36.667 -10.833 -72.334 -32.5 -107.001s-53.834 -52 -96.501 -52c-6 -2 -14 -3 -24 -3c-26 0 -50 6.66699 -72 20
s-33 34.666 -33 63.999c-92.667 0 -182.834 -44.833 -270.501 -134.5s-155.5 -201.834 -203.5 -336.501c-8 -57.333 -12 -111.333 -12 -162c0 -48 4 -93 12 -135c14.667 -125.333 28.334 -220.666 41.001 -285.999s31 -127 55 -185
c-29.333 5.33301 -59.666 17.333 -90.999 36s-64.666 48.334 -99.999 89.001s-66.666 89.334 -93.999 146.001s-50.166 129.834 -68.499 219.501s-27.5 188.5 -27.5 296.5z" />
    <glyph glyph-name="z" unicode="z" horiz-adv-x="1848" 
d="M88 584l68.5039 79.4951c17.667 19.667 40.834 43.167 69.501 70.5s55.5 49 80.5 65s55.833 33 92.5 51s74.667 31.833 114 41.5s85.166 17.667 137.499 24s108.833 9.5 169.5 9.5c77.333 0 161.666 -6.83301 252.999 -20.5s167 -20.5 227 -20.5
c42.667 0 82.334 3.5 119.001 10.5s78 16.833 124 29.5s85 22 117 28l-1052 -728c41.333 -5.33301 96.333 -13.166 165 -23.499s126.5 -18.333 173.5 -24s87.5 -8.5 121.5 -8.5c271.333 0 516.666 58.667 735.999 176l-80 -71l-78 -72
c-20.667 -19.333 -46.334 -41.333 -77.001 -66s-58.667 -45.167 -84 -61.5s-55.666 -33 -90.999 -50s-70.833 -30.667 -106.5 -41s-76.334 -18.666 -122.001 -24.999s-94.167 -9.5 -145.5 -9.5c-58.667 0 -154.334 12.667 -287.001 38s-241 38 -325 38
c-38.667 0 -88.167 -4 -148.5 -12s-109.5 -12 -147.5 -12l892 680l-22.5 16.5c-10.333 7.66699 -17.5 12.834 -21.5 15.501s-12.167 6.33398 -24.5 11.001s-25 7.83398 -38 9.50098s-30.833 3.33398 -53.5 5.00098s-49.334 2.5 -80.001 2.5c-50 0 -90.333 -0.333008 -121 -1
s-74 -3.83398 -130 -9.50098s-104.833 -13.5 -146.5 -23.5s-88 -25.5 -139 -46.5s-97.5 -46.167 -139.5 -75.5z" />
    <glyph glyph-name="braceleft" unicode="{" horiz-adv-x="920" 
d="M524 1608l296 -0.000976562l-184 -212h-128v-344l-152 -176l148 -180v-540h256l-164 -220c-7.33301 0 -31 1.16699 -71 3.5s-63.667 3.5 -71 3.5c-30.667 0 -56.667 1.66699 -78 5c-33.333 38 -60 76.333 -80 115s-39.667 84.334 -59 137.001v292l-137 196l137 152v448z
" />
    <glyph glyph-name="bar" unicode="|" horiz-adv-x="397" 
d="M297 4h-197v1532h197v-1532z" />
    <glyph glyph-name="braceright" unicode="}" horiz-adv-x="920" 
d="M396 1608l287 -319.999v-448l137 -152l-137 -196v-292c-19.333 -52.667 -39 -98.334 -59 -137.001s-46.667 -77 -80 -115c-21.333 -3.33301 -47.333 -5 -78 -5c-7.33301 0 -31 -1.16699 -71 -3.5s-63.667 -3.5 -71 -3.5l-164 220h256v540l148 180l-152 176v344h-128
l-184 212h296z" />
    <glyph glyph-name="asciitilde" unicode="~" horiz-adv-x="1146" 
d="M1046 1138c-20 -36.667 -39.502 -66.668 -58.502 -90.001s-45.5 -43.5 -79.5 -60.5s-73.333 -25.5 -118 -25.5c-27.333 0 -52.166 2.16699 -74.499 6.5s-39.333 8.66602 -51 12.999s-31 13 -58 26s-48.833 22.833 -65.5 29.5c-19.333 8 -38.5 17 -57.5 27l-41 21.5
c-8.33301 4.33301 -20 8 -35 11s-32.833 4.5 -53.5 4.5c-15.333 0 -29.833 -2.33301 -43.5 -7s-25 -9.5 -34 -14.5s-19 -13.667 -30 -26s-19 -22 -24 -29s-13.167 -19.167 -24.5 -36.5l-24 -36l-74 170c14.667 27.333 29 50.333 43 69s31.167 36.834 51.5 54.501
s43.833 30.834 70.5 39.501s57 13 91 13c28 0 53.167 -2.16699 75.5 -6.5s39 -8.5 50 -12.5s30.5 -12.667 58.5 -26s49.667 -23.333 65 -30c18.667 -8 37.667 -17 57 -27l42 -21.5c8.66699 -4.33301 20.5 -8 35.5 -11s32.833 -4.5 53.5 -4.5
c15.333 0 29.833 2.16699 43.5 6.5s25 9.33301 34 15s18.833 14.5 29.5 26.5s18.834 22 24.501 30l24.5 36c10.667 16 18.667 27.667 24 35z" />
    <glyph glyph-name="dotnosp" unicode="&#x307;" 
d="M0 1308c-26.667 0 -49.167 10.1689 -67.5 30.502s-27.5 46.166 -27.5 77.499s9.16699 57.333 27.5 78s40.833 31 67.5 31c27.333 0 50 -10.333 68 -31s27 -46.334 27 -77.001c0 -31.333 -9.16699 -57.333 -27.5 -78s-40.833 -31 -67.5 -31z" />
    <glyph glyph-name="dieresisnosp" unicode="&#x308;" 
d="M-220 1310c-27.333 0 -49.833 10.333 -67.5 31s-26.5 46 -26.5 76c0 30.667 9 56 27 76s40.333 30 67 30c27.333 0 49.833 -10.167 67.5 -30.5s26.5 -45.5 26.5 -75.5c0 -30.667 -9.16699 -56.167 -27.5 -76.5s-40.5 -30.5 -66.5 -30.5zM220 1310
c-27.333 0 -49.833 10.333 -67.5 31s-26.5 46 -26.5 76c0 30.667 9 56 27 76s40.333 30 67 30c27.333 0 49.833 -10.167 67.5 -30.5s26.5 -45.5 26.5 -75.5c0 -30.667 -9.16699 -56.167 -27.5 -76.5s-40.5 -30.5 -66.5 -30.5z" />
    <glyph glyph-name="ringnosp" unicode="&#x30a;" 
d="M0 1234c-49.333 0 -88.833 17.833 -118.5 53.5s-44.5 78.5 -44.5 128.5c0 50.667 15 93.834 45 129.501s69.333 53.5 118 53.5c46.667 0 85.5 -17.333 116.5 -52s46.5 -78.334 46.5 -131.001c0 -50 -15.167 -92.833 -45.5 -128.5s-69.5 -53.5 -117.5 -53.5zM0 1533
c-32 0 -56.833 -11.333 -74.5 -34s-26.5 -50.334 -26.5 -83.001c0 -31.333 8.66699 -58.5 26 -81.5s42.333 -34.5 75 -34.5s57.5 11.5 74.5 34.5s25.5 50.167 25.5 81.5c0 32.667 -8.66699 60.334 -26 83.001s-42 34 -74 34z" />
    <glyph glyph-name="cgj" unicode="&#x34f;" 
 />
    <glyph glyph-name="Alpha" unicode="&#x391;" horiz-adv-x="1929" 
d="M1863 66c-60 0 -114.171 8.33203 -162.504 24.999s-99.833 47.334 -154.5 92.001s-111 101.5 -169 170.5s-128 160.167 -210 273.5l-723 -318c-56.667 -69.333 -105 -125 -145 -167s-75.167 -73.167 -105.5 -93.5s-55.666 -33.5 -75.999 -39.5s-44.166 -9 -71.499 -9
c-7.33301 0 -19.666 1 -36.999 3s-31.333 3 -42 3c408 484 650 884 726 1200l-32 50l-24 37.5l-16 26.5c-6.66699 11.333 -12 22.333 -16 33l-15 38.5l-23 60.5c0 14 4.83301 25.5 14.5 34.5s24.5 15.333 44.5 19s38.833 6 56.5 7s40.5 1.5 68.5 1.5h33
c44.667 0 75.334 1.33301 92.001 4c-16 -13.333 -24 -33.333 -24 -60c0 -41.333 26 -97.333 78 -168zM830.996 1039l-246 -514l486 216z" />
    <glyph glyph-name="Beta" unicode="&#x392;" horiz-adv-x="1331" 
d="M1270 127c0 -29.333 -42.665 -52.5 -127.998 -69.5s-170.666 -26.833 -255.999 -29.5l-129 -3c-215.333 0 -445.333 31 -690 93v1134c0 55.333 -24 99.333 -72 132c54.667 38 108.667 62 162 72s128.333 15 225 15v-72l220 83c28 5.33301 56.333 8 85 8
c45.333 0 91.166 -5.33301 137.499 -16s89.166 -25.834 128.499 -45.501s71.5 -45.667 96.5 -78s37.5 -68.166 37.5 -107.499c0 -47.333 -16.333 -91.833 -49 -133.5s-77.334 -76.167 -134.001 -103.5l-426 -201l759 -621c22 -18.667 33 -37.667 33 -57zM853.002 1260
c0 34 -19.332 68.167 -57.999 102.5s-79.334 51.5 -122.001 51.5c-48 0 -143 -17 -285 -51v-501c202 68.667 330.667 139 386 211c18 24 33.5 51.5 46.5 82.5s21.667 55.167 26 72.5s6.5 28 6.5 32zM814.003 88h69.001c78 0 137 4 177 12l12 56l-682 566v-583
c145.333 -34 286.666 -51 423.999 -51z" />
    <glyph glyph-name="Gamma" unicode="&#x393;" horiz-adv-x="1240" 
d="M1163 1530c7.33301 -12.667 10.999 -26 10.999 -40s-4.33301 -33.333 -13 -58h-721c-26 0 -39 -15.333 -39 -46v-1326c-41.333 -37.333 -90.666 -56 -147.999 -56c-71.333 0 -140 26 -206 78v1368c0 53.333 24 80 72 80h1044z" />
    <glyph glyph-name="Delta" unicode="&#x394;" horiz-adv-x="1911" 
d="M833 1567c21.333 -82 41.333 -131.334 60 -148.001l952 -1224c5.33301 -19.333 8 -35 8 -47c0 -23.333 -7 -43.666 -21 -60.999s-37.667 -39.333 -71 -66h-1794c42 67.333 100 145.333 174 234l420 486l28 36c6.66699 8.66699 23.667 33 51 73s49.333 75.833 66 107.5
s32.667 69 48 112s23 81.167 23 114.5c0 34.667 -6 69 -18 103l-156 261c12 9.33301 29.833 17 53.5 23s46.167 9 67.5 9c18 0 37.5 -2.16699 58.5 -6.5s37.833 -6.5 50.5 -6.5zM1444 188.999c0.666992 0.666992 8.16797 6.5 22.501 17.5s26.666 22 36.999 33
s15.5 20.167 15.5 27.5l-560 648c-40 -56 -82.667 -110.833 -128 -164.5s-87.5 -101.167 -126.5 -142.5s-87 -88.5 -144 -141.5l-145.5 -132.5l-166 -145h1195z" />
    <glyph glyph-name="Epsilon" unicode="&#x395;" horiz-adv-x="1931" 
d="M1527 627c0 -24.667 -11.666 -52.3369 -34.999 -83.0039s-47 -46 -71 -46c-15.333 0 -46 16.833 -92 50.5s-70 50.834 -72 51.501c-124.667 48.667 -230.334 85.5 -317.001 110.5s-195 47.167 -325 66.5l-226 39c-20.667 -21.333 -38.834 -63 -54.501 -125
s-23.5 -123.667 -23.5 -185c0 -95.333 19.333 -156 58 -182c56 -100 143.667 -173.333 263 -220s260.333 -70 423 -70c27.333 0 72.166 -3.33301 134.499 -10s110.5 -10 144.5 -10c68.667 0 153 -16.667 253 -50c-402 0 -688 12 -858 36
c-92.667 12.667 -176.5 30.5 -251.5 53.5s-138.5 48.667 -190.5 77s-97.5 60.833 -136.5 97.5s-70 73.334 -93 110.001s-41.5 76.834 -55.5 120.501s-23.333 84.667 -28 123s-7 79.5 -7 123.5c0 4 1 19.667 3 47s3 52.666 3 75.999c0 90 13 172.333 39 247
s63.333 138.834 112 192.501s105.667 100.334 171 140.001s139.166 71.334 221.499 95.001s168.166 41.167 257.499 52.5s184.333 17 285 17c128.667 0 247.334 -15.333 356.001 -46s202.834 -77.334 282.501 -140.001s135.5 -137.667 167.5 -225
c-59.333 -89.333 -124.666 -134 -195.999 -134c-26 0 -53.333 5.66699 -82 17c-23.333 124.667 -68.166 218.334 -134.499 281.001s-163.5 94 -291.5 94c-123.333 0 -232 -16.833 -326 -50.5s-175.333 -88.167 -244 -163.5c-90.667 -90.667 -136 -165.334 -136 -224.001
c0 -10 3.33301 -20 10 -30c288 0 598.667 -67 932 -201c86.667 -32 130 -73 130 -123z" />
    <glyph glyph-name="Zeta" unicode="&#x396;" horiz-adv-x="1943" 
d="M1068 452c144 0 313.666 -22.666 508.999 -67.999c57.333 -13.333 104.5 -26.5 141.5 -39.5s74.333 -27.833 112 -44.5s72.834 -30.667 105.501 -42c-10 -31.333 -18.833 -56.666 -26.5 -75.999s-18.334 -41.666 -32.001 -66.999s-30.167 -47.333 -49.5 -66
s-42 -35 -68 -49l-183 80c-43.333 17.333 -81.333 31.166 -114 41.499s-78.334 22.166 -137.001 35.499s-128 23.333 -208 30s-170.667 10 -272 10c-156 0 -289.167 -11.5 -399.5 -34.5s-270.166 -69.5 -479.499 -139.5c280 228.667 754 638.667 1422 1230
c-181.333 36.667 -377 55 -587 55c-191.333 0 -379.666 15.667 -564.999 47c95.333 109.333 152.333 171.666 171 186.999c24.667 19.333 71.667 29 141 29l916 -95c142 0 259.667 31.667 353 95l-1230 -1171c283.333 34.667 443.333 52 480 52z" />
    <glyph glyph-name="Eta" unicode="&#x397;" horiz-adv-x="1659" 
d="M391 99c-100.667 -52 -185.336 -78 -254.003 -78c-37.333 0 -68.666 8 -93.999 24v1398h5c16 0 56.333 11.5 121 34.5s106.334 34.5 125.001 34.5h7c35.333 0 65.333 -11 90 -33v-486c50.667 0 181.667 -16 393 -48s342.333 -48 393 -48c7.33301 0 24.333 1 51 3
s49.667 3 69 3c0 12 -2.33301 48 -7 108s-7 114 -7 162c0 47.333 -2.33301 100.666 -7 159.999s-7 95 -7 107v75h92c10.667 2.66699 25.834 6.83398 45.501 12.501l44 12.5c9.66699 2.66699 23 5.16699 40 7.5s34.5 3.5 52.5 3.5c21.333 0 38 -1 50 -3v-1347
c-13.333 -8.66699 -30.5 -26.5 -51.5 -53.5s-43.333 -49.833 -67 -68.5s-50.167 -28 -79.5 -28c-8 0 -26 2 -54 6c0 286 -12 538 -36 756c-44 -6 -90.667 -9 -140 -9c-48.667 0 -177.5 16 -386.5 48s-338.167 48 -387.5 48v-801z" />
    <glyph glyph-name="Theta" unicode="&#x398;" horiz-adv-x="1917" 
d="M-33 817c0 90.667 18 177.003 54 259.003s84.667 153.333 146 214s131.833 113.5 211.5 158.5s164.667 78.833 255 101.5s180.833 34 271.5 34c91.333 0 182.166 -10.833 272.499 -32.5s175.833 -53.834 256.5 -96.501s152.167 -93.334 214.5 -152.001
s111.666 -127.667 147.999 -207s54.5 -163.333 54.5 -252c0 -82 -13.333 -160.667 -40 -236s-63.5 -142.833 -110.5 -202.5s-102.333 -114 -166 -163s-132.5 -89.667 -206.5 -122s-151.833 -57.333 -233.5 -75s-163.167 -26.5 -244.5 -26.5
c-123.333 0 -240.166 21.667 -350.499 65s-204.166 101.333 -281.499 174s-138.5 157.667 -183.5 255s-67.5 198.666 -67.5 303.999zM869 133.003c62.667 0 122.668 10.502 180.001 31.502s107.5 49 150.5 84s82.167 74.667 117.5 119s64.166 90.333 86.499 138
s39.5 94 51.5 139s18 86.5 18 124.5v33h-1140c0 -98.667 14.833 -190.334 44.5 -275.001s69.167 -155.334 118.5 -212.001s106.333 -101.167 171 -133.5s132 -48.5 202 -48.5zM898.001 1476c-57.333 0 -115.334 -13.333 -174.001 -40s-110.834 -60.5 -156.501 -101.5
s-86.667 -84.833 -123 -131.5s-64.333 -91.167 -84 -133.5s-29.5 -76.833 -29.5 -103.5c0 -12.667 0.666992 -22.334 2 -29.001h1146c0 104 -54 217.667 -162 341c-43.333 52.667 -103.666 98.834 -180.999 138.501s-156.666 59.5 -237.999 59.5z" />
    <glyph glyph-name="Iota" unicode="&#x399;" horiz-adv-x="484" 
d="M418 331c0 -54.667 -4.83008 -102.833 -14.4971 -144.5s-21.834 -74.5 -36.501 -98.5s-32 -43.5 -52 -58.5s-39 -25 -57 -30s-36.667 -7.5 -56 -7.5c-14.667 0 -24.667 4 -30 12c-50 0 -75 214 -75 642c0 67.333 1 179 3 335s3 278.333 3 367
c-0.666992 3.33301 -23.5 24.333 -68.5 63s-67.5 64.667 -67.5 78c0 0.666992 0.333008 1.66699 1 3c0 9.33301 5 17.333 15 24c17.333 22.667 46.666 40.167 87.999 52.5s88.666 18.5 141.999 18.5c15.333 0 33 -1.16699 53 -3.5s41 -5.33301 63 -9
s37.667 -6.16699 47 -7.5c16 0 30 -4 42 -12v-1224z" />
    <glyph glyph-name="Kappa" unicode="&#x39a;" horiz-adv-x="1557" 
d="M1197 1536c28 18.667 71.6699 27.999 131.003 27.999c44.667 0 83 -7.5 115 -22.5s48 -36.833 48 -65.5c0 -21.333 -15.333 -54.666 -46 -99.999s-64.667 -88 -102 -128l-36.5 -40l-39.5 -43c-10 -10.667 -22.833 -22.334 -38.5 -35.001s-30.834 -22.667 -45.501 -30
l-553 -280c62 -19.333 135.167 -51.5 219.5 -96.5s139.833 -82.167 166.5 -111.5l393 -435c28 20.667 48 31 60 31c15.333 0 28.666 -9.33301 39.999 -28c-12.667 -64 -41.167 -113.333 -85.5 -148s-101.166 -52 -170.499 -52l-386 491c-38.667 42 -93.334 90 -164.001 144
s-143.334 96.333 -218.001 127c-27.333 -8 -71.333 -28 -132 -60c0 -17.333 -2.66699 -59.666 -8 -126.999s-8 -126.333 -8 -177s-2.66699 -109.667 -8 -177s-8 -109 -8 -125c-26 -27.333 -64.5 -52.833 -115.5 -76.5s-98.5 -35.5 -142.5 -35.5l-22 4
c0 20.667 3.66699 75.667 11 165s11 168.333 11 237c0 68 3.33301 148.167 10 240.5s10 150.833 10 175.5c0 17.333 -2.33301 61.333 -7 132s-7 132.667 -7 186s-2.66699 116.333 -8 189s-8 119 -8 139c0 6.66699 -5 25.667 -15 57s-15 49 -15 53
c47.333 26.667 95.333 40 144 40c58.667 0 108 -18 148 -54c29.333 -232 44 -417.333 44 -556c0 -2 -0.166992 -7.66699 -0.5 -17s-0.5 -17.666 -0.5 -24.999c0 -6.66699 -0.833008 -13.167 -2.5 -19.5s-2.5 -10.833 -2.5 -13.5l480 242
c70.667 36.667 137.5 80.834 200.5 132.501s110 96.167 141 133.5s46.5 62.666 46.5 75.999c0 15.333 -8 33.666 -24 54.999z" />
    <glyph glyph-name="Lambda" unicode="&#x39b;" horiz-adv-x="1766" 
d="M1727 145c-26 -49.333 -55.3291 -85.832 -87.9961 -109.499s-74.667 -35.5 -126 -35.5c-28 0 -58.333 3.33301 -91 10l-684 762c-24.667 -86.667 -57.834 -166.834 -99.501 -240.501s-86.5 -137.5 -134.5 -191.5s-102.833 -104 -164.5 -150
s-121.834 -84.5 -180.501 -115.5s-122.667 -60.5 -192 -88.5l306 370c9.33301 13.333 21 31 35 53s33.667 56.667 59 104s48.666 96 69.999 146s41.666 108.5 60.999 175.5s32.333 132.167 39 195.5c-37.333 39.333 -72.333 96.666 -105 171.999
c-79.333 126.667 -134.333 225.334 -165 296.001c46.667 38.667 111.667 58 195 58c69.333 0 131.333 -12 186 -36c-2.66699 -4.66699 -4 -12 -4 -22c0 -6 0.666992 -15.833 2 -29.5s2 -23.167 2 -28.5l45 -230l31 -104c60.667 -71.333 164 -181.5 310 -330.5
s242.667 -243.833 290 -284.5z" />
    <glyph glyph-name="Mu" unicode="&#x39c;" horiz-adv-x="2340" 
d="M60 1336c0 54 -13.999 116.673 -41.999 188.006c60.667 24 124 36 190 36c63.333 0 134 -12 212 -36v-164c0 -76.667 13.5 -150.834 40.5 -222.501s60.833 -131.834 101.5 -180.501c6.66699 -8.66699 18.667 -25.334 36 -50.001s33.666 -45.334 48.999 -62.001
s32.333 -30.667 51 -42l407 -239c66 59.333 128.5 119.666 187.5 180.999s110.833 117.666 155.5 168.999s95.167 114.333 151.5 189l142.5 193l160 228c44 16 92.667 24 146 24c50.667 0 106 -8 166 -24c0 -59.333 10 -191.833 30 -397.5s30 -337.834 30 -396.501
c0 -246.667 -16 -464.667 -48 -654c-113.333 -60 -223.333 -90 -330 -90v1212l-372 -434c-54 -61.333 -119.167 -124.166 -195.5 -188.499s-147.166 -112.166 -212.499 -143.499c-234.667 93.333 -482.667 244.666 -744 453.999c24 -182.667 36 -390 36 -622v-86
c-60.667 -54 -101.334 -88 -122.001 -102c-64 -44 -138.333 -66 -223 -66c0 29.333 -0.5 233.333 -1.5 612s-1.5 616.667 -1.5 714z" />
    <glyph glyph-name="Nu" unicode="&#x39d;" horiz-adv-x="2103" 
d="M339 109c-4 -24 -12.498 -44.002 -25.498 -60.002s-30.333 -27.833 -52 -35.5s-43.834 -12.834 -66.501 -15.501s-49.667 -4 -81 -4c-18.667 0 -45.667 -2.66699 -81 -8c0 11.333 -0.5 38.833 -1.5 82.5s-1.5 81.834 -1.5 114.501v196c0 375.333 17 722.333 51 1041
c43.333 21.333 90.333 32 141 32c51.333 0 103.333 -10.667 156 -32c60 -80.667 133.5 -163.167 220.5 -247.5s160.333 -150.5 220 -198.5s115.834 -90.333 168.501 -127l339 -245c128.667 -95.333 233.667 -180.666 315 -255.999c28 122 42 224.667 42 308v405
c0 64 -1.5 132.833 -4.5 206.5s-4.5 115.167 -4.5 124.5l-66 146c62 30 129.667 45 203 45c70.667 0 138 -13 202 -39c0 -40 3.33301 -137.833 10 -293.5s10 -291.167 10 -406.5c0 -116 3.16699 -250 9.5 -402s9.5 -246.333 9.5 -283v-27
c-4 -4.66699 -10.833 -9.33398 -20.5 -14.001s-16.167 -9 -19.5 -13c-4 -6 -11.333 -15 -22 -27l-26 -27c-17.333 -17.333 -40 -35.333 -68 -54c-96.667 54 -217.834 127.167 -363.501 219.5s-243.834 159.833 -294.501 202.5l-812 684
c-22 -5.33301 -42 -19.166 -60 -41.499s-27 -46.166 -27 -71.499v-879z" />
    <glyph glyph-name="Xi" unicode="&#x39e;" horiz-adv-x="1887" 
d="M20 1576c2 0 18.3311 -1.99805 48.998 -5.99805s75.334 -9 134.001 -15s128.167 -11.833 208.5 -17.5s183.5 -10.5 309.5 -14.5s259.667 -6 401 -6h498c11.333 0 20.5 -3.83301 27.5 -11.5s10.5 -16.167 10.5 -25.5c0 -14.667 -6.66699 -25.334 -20 -32.001
c-52.667 -27.333 -131.667 -63 -237 -107s-202.333 -87.333 -291 -130s-161.667 -85.667 -219 -129c200 -78 368 -158 504 -240c52 -30.667 78 -71.667 78 -123c0 -50 -26 -90 -78 -120c-24.667 -17.333 -85.167 -51.833 -181.5 -103.5l-279.5 -155.5
c-90 -52 -148.333 -91.667 -175 -119c26 0 94.333 -3 205 -9s208 -9 292 -9c83.333 0 181.5 -3 294.5 -9s184.167 -9 213.5 -9c20 0 34.5 -9.66699 43.5 -29s13.5 -40.666 13.5 -63.999c0 -12 -4 -25.833 -12 -41.5s-12 -28.834 -12 -39.501h-1587
c-11.333 0 -20.5 3.83301 -27.5 11.5s-10.5 16.5 -10.5 26.5c0 11.333 4.66699 20.666 14 27.999c286 224 583 425 891 603c6 10 9 19.667 9 29c-2 0.666992 -3 2 -3 4c-6 4.66699 -17.667 14.667 -35 30s-33.333 27.833 -48 37.5s-30 17.167 -46 22.5l-485 147
c-5.33301 25.333 -8 46 -8 62c0 32 12.333 59.333 37 82c100 86 270 176 510 270c-164.667 -21.333 -307.667 -32 -429 -32c-146 0 -329 19.667 -549 59c-19.333 3.33301 -34.666 15.333 -45.999 36s-17 42.667 -17 66c0 14.667 5.33301 32.167 16 52.5s23 30.5 37 30.5z
" />
    <glyph glyph-name="Omicron" unicode="&#x39f;" horiz-adv-x="1917" 
d="M-33 817c0 90.667 18 177.003 54 259.003s84.667 153.333 146 214s131.833 113.5 211.5 158.5s164.667 78.833 255 101.5s180.833 34 271.5 34c91.333 0 182.166 -10.833 272.499 -32.5s175.833 -53.834 256.5 -96.501s152.167 -93.334 214.5 -152.001
s111.666 -127.667 147.999 -207s54.5 -163.333 54.5 -252c0 -82 -13.333 -160.667 -40 -236s-63.5 -142.833 -110.5 -202.5s-102.333 -114 -166 -163s-132.5 -89.667 -206.5 -122s-151.833 -57.333 -233.5 -75s-163.167 -26.5 -244.5 -26.5
c-123.333 0 -240.166 21.667 -350.499 65s-204.166 101.333 -281.499 174s-138.5 157.667 -183.5 255s-67.5 198.666 -67.5 303.999zM902 1477c-50 0 -100.332 -11.498 -150.999 -34.498s-96.334 -53.167 -137.001 -90.5s-78.834 -79.333 -114.501 -126
s-65.5 -93.834 -89.5 -141.501s-42.833 -93.167 -56.5 -136.5s-20.5 -80.333 -20.5 -111c0 -22.667 4.5 -54 13.5 -94s23.5 -86.833 43.5 -140.5s44 -106.5 72 -158.5s63.333 -102.667 106 -152s88.667 -88.333 138 -117c49.333 -28 107.666 -42 174.999 -42
c31.333 0 63.333 2.83301 96 8.5s69.334 16.5 110.001 32.5s79 36.667 115 62s71.667 59.833 107 103.5s65.666 93.5 90.999 149.5c54.667 144 82 260.333 82 349c0 91.333 -27.667 186.666 -83 285.999s-128.666 183 -219.999 251s-183.666 102 -276.999 102z" />
    <glyph glyph-name="Pi" unicode="&#x3a0;" horiz-adv-x="1915" 
d="M1777 1552c3.33301 -4.66699 11.667 -12.501 25 -23.501s24.5 -22.5 33.5 -34.5s13.5 -24.667 13.5 -38c0 -22 -14 -50 -42 -84h-114v-1266c-4 -2 -23.667 -12.5 -59 -31.5s-66 -32.667 -92 -41s-53 -12.5 -81 -12.5c-19.333 0 -38 2.33301 -56 7v1344h-942v-1248
l-66 -51c-54 -38 -108 -57 -162 -57c-24 0 -50 4 -78 12v1374h-150c-26.667 23.333 -40 49.333 -40 78c0 14.667 4.16699 30.334 12.5 47.001s17.5 25 27.5 25h1770z" />
    <glyph glyph-name="Rho" unicode="&#x3a1;" horiz-adv-x="1531" 
d="M77 1718c59.333 29.333 113 43.9971 161 43.9971c44.667 0 103 -12 175 -36v-126c94 20.667 180.667 31 260 31c60.667 0 179 -10.333 355 -31c126.667 -44 231.834 -96 315.501 -156s125.5 -122 125.5 -186c0 -36 -13 -72.667 -39 -110
c-196.667 -278 -538.667 -513.333 -1026 -706c11.333 -59.333 17 -145.333 17 -258c0 -56.667 -1.83301 -140.667 -5.5 -252s-5.5 -188.666 -5.5 -231.999c0 -39.333 -1.33301 -74.166 -4 -104.499s-6 -53 -10 -68s-8.33301 -22.5 -13 -22.5
c-0.666992 0 -1.66699 0.333008 -3 1c-20 -39.333 -40.5 -73 -61.5 -101s-46.667 -53.833 -77 -77.5s-58.333 -43.167 -84 -58.5s-63.5 -36.333 -113.5 -63c0 34 6.16699 121.167 18.5 261.5s18.5 263.833 18.5 370.5c0 105.333 6.33301 230.333 19 375
s19 236.334 19 275.001c0 273.333 -14 516 -42 728c0 108 -9.33301 192.167 -28 252.5s-42.334 90.5 -71.001 90.5zM422 1502v-839.997c88.667 38 159.834 70.667 213.501 98s110.167 61.333 169.5 102c164.667 106 247 246 247 420c0 27.333 -3.5 51.166 -10.5 71.499
s-18.333 38.666 -34 54.999s-30.834 30.166 -45.501 41.499s-35.334 25.333 -62.001 42c-7.33301 4 -12.666 7.33301 -15.999 10c-29.333 3.33301 -75.666 5 -138.999 5c-38.667 0 -95.834 -0.833008 -171.501 -2.5s-126.167 -2.5 -151.5 -2.5z" />
    <glyph glyph-name="Sigma" unicode="&#x3a3;" horiz-adv-x="1730" 
d="M1635 1316c12 -12.667 19.834 -22.3311 23.501 -28.998s5.5 -15 5.5 -25c0 -2.66699 -0.333008 -9.83398 -1 -21.501s-1 -22.5 -1 -32.5c0 -23.333 -15.667 -53.333 -47 -90s-65.666 -65.334 -102.999 -86.001c-8 -13.333 -19 -20 -33 -20
c-12 0 -21.833 3.66699 -29.5 11s-14.834 17.5 -21.501 30.5s-21.5 33.667 -44.5 62s-51.167 58.5 -84.5 90.5c-2 4 -14.667 16.667 -38 38l-71 60c-33.333 28.667 -78.166 55.5 -134.499 80.5s-121.166 37.5 -194.499 37.5c-136 0 -267 -61.333 -393 -184
c-68.667 -64 -116.334 -135.333 -143.001 -214s-40 -188 -40 -328c0 -22 2.66699 -46 8 -72s15 -57.5 29 -94.5s37.167 -75.5 69.5 -115.5s71.833 -77.333 118.5 -112c106 -56 253 -84 441 -84c224 0 447 34 669 102c-41.333 -35.333 -79 -65.666 -113 -90.999
s-74.833 -52 -122.5 -80s-94.5 -50.833 -140.5 -68.5s-98.833 -32.167 -158.5 -43.5s-121.5 -17 -185.5 -17c-148 0 -292.833 18.5 -434.5 55.5s-231.834 78.5 -270.501 124.5c-66 65.333 -120.5 142.666 -163.5 231.999s-64.5 186 -64.5 290c0 124 25.833 240.667 77.5 350
s111.834 194 180.501 254c60.667 60 156.667 126 288 198c75.333 45.333 199 68 371 68c62 0 174 -21.333 336 -64h64c7.33301 0 18.166 -3.83301 32.499 -11.5s39.166 -22.167 74.499 -43.5l87 -51c104.667 -58.667 157 -94 157 -106z" />
    <glyph glyph-name="Tau" unicode="&#x3a4;" horiz-adv-x="2121" 
d="M45 1292c-0.666992 2 -7.66797 16.832 -21.001 44.499s-26.333 56.5 -39 86.5s-19 50.667 -19 62c0 2.66699 0.333008 4.33398 1 5.00098c0 30.667 22 46 66 46h1980c28 -64 42 -108.333 42 -133c0 -42 -28 -63 -84 -63c-16 0 -54.5 2 -115.5 6s-113.833 6 -158.5 6
c-51.333 0 -108.666 1.33301 -171.999 4s-107.333 4 -132 4c-42 0 -85.333 -2.66699 -130 -8v-1206c-25.333 -46 -68 -83.5 -128 -112.5s-125.333 -43.5 -196 -43.5v1362h-231c-293.333 0 -514.333 -20 -663 -60z" />
    <glyph glyph-name="Upsilon" unicode="&#x3a5;" horiz-adv-x="2726" 
d="M-33 1241c0 92 29.999 169.332 89.999 231.999s136 94 228 94c84.667 0 169.667 -18 255 -54c6 -2.66699 22.5 -9.33398 49.5 -20.001s45.833 -18.5 56.5 -23.5l47 -23c20.667 -10.333 38.334 -21 53.001 -32s28.667 -22.833 42 -35.5l596 -593l812 893
c57.333 22 112.333 33 165 33c43.333 0 81.166 -6.16699 113.5 -18.5c32.333 -12.333 68.833 -32.833 109.5 -61.5s66.334 -46 77 -52c-78.667 -37.333 -167.667 -89.666 -267 -156.999l-120 -80c-88 -62 -163 -117.167 -225 -165.5s-124.833 -102.166 -188.5 -161.499
s-121 -121.333 -172 -186s-97.833 -134.667 -140.5 -210c-36 -66.667 -54 -153.667 -54 -261c0 -119.333 -26.667 -307.166 -80 -563.499s-100.666 -449.5 -141.999 -579.5c-18.667 88.667 -30.834 179.667 -36.501 273s-8.5 204 -8.5 332v184v444c0 80 -13 146 -39 198
c-42 89.333 -113.5 176.166 -214.5 260.499s-213.5 155.5 -337.5 213.5s-246 98 -366 120h-303z" />
    <glyph glyph-name="Phi" unicode="&#x3a6;" horiz-adv-x="2411" 
d="M2303 856c28 -22.667 42.0029 -52.667 42.0029 -90c0 -38.667 -14 -82.667 -42 -132c-332.667 -190.667 -671.334 -347.667 -1016 -471v-420c-30 -37.333 -65.333 -66.166 -106 -86.499s-93.334 -37.5 -158.001 -51.5v546l-421 182c-244 126 -441 256.333 -591 391
c-29.333 27.333 -44 57 -44 89c0 26.667 11 49 33 67c138 100 283.333 185.167 436 255.5s348.334 149.166 587.001 236.499v645c13.333 4 26 6 38 6c18.667 0 37.667 -3.83301 57 -11.5s38.666 -19 57.999 -34s34.166 -27.167 44.499 -36.5s23.5 -22 39.5 -38l53 -54v-483
c350 -108 680 -278 990 -510zM1023 325v926.999c-29.333 -10 -75.333 -24.833 -138 -44.5s-114.667 -36.667 -156 -51s-88.166 -32.166 -140.499 -53.499s-99.333 -45.333 -141 -72s-77.834 -55.667 -108.501 -87c-42.667 -46 -64 -87.333 -64 -124
c0 -93.333 47.333 -172 142 -236l33 -24l39.5 -28c9.66699 -6.66699 22.5 -14.5 38.5 -23.5s31.333 -16.167 46 -21.5zM1802 477.999c18 8 39.999 20.165 65.999 36.498s54.167 36.333 84.5 60s56 50.5 77 80.5s31.5 58.333 31.5 85c0 37.333 -17.333 75.333 -52 114
c-12.667 14.667 -26.167 28.834 -40.5 42.501s-31.166 27.334 -50.499 41.001l-51.5 36c-15 10.333 -35.167 22.166 -60.5 35.499l-58.5 31.5c-13.667 7.66699 -35.167 18.334 -64.5 32.001l-60 27.5l-64 28.5c-32 14.333 -51.333 22.833 -58 25.5l-202 80v-924z" />
    <glyph glyph-name="Chi" unicode="&#x3a7;" horiz-adv-x="2194" 
d="M1978 -36c-75.333 0 -159 20.6689 -251 62.002s-185.333 98.333 -280 171s-186.5 151.334 -275.5 236.001s-178.167 177.334 -267.5 278.001c-136 -236.667 -291 -397.334 -465 -482.001l-422 -204l480 443c100.667 118 191 249 271 393l-161 229
c-8 8 -20.833 17.667 -38.5 29s-28.5 18.666 -32.5 21.999c-46 40 -102.667 72.833 -170 98.5s-136 38.5 -206 38.5c-68 0 -131.333 -13 -190 -39c0 160.667 67.333 276.667 202 348c20 -6.66699 59 -12.334 117 -17.001s97.333 -10.667 118 -18
c39.333 -10.667 79.166 -31.334 119.499 -62.001s78.333 -67.334 114 -110.001s68.334 -84.5 98.001 -125.5l93 -130.5c32.333 -46 58.5 -80.667 78.5 -104c24 26 52.833 62 86.5 108l88 121.5c25 35 56.5 71 94.5 108s76.333 65.5 115 85.5
c41.333 24.667 72.666 42.834 93.999 54.501s49.833 25.5 85.5 41.5s70.167 27.333 103.5 34s68 10 104 10c25.333 0 97 8.33301 215 25v-69c0 -20 -1.16699 -38.667 -3.5 -56s-4.33301 -29.666 -6 -36.999s-5.16699 -19.666 -10.5 -36.999s-8.66602 -28 -9.99902 -32h-57
c-50.667 0 -90.167 -2.33301 -118.5 -7s-62.166 -16.334 -101.499 -35.001c-29.333 -14 -56.5 -28.667 -81.5 -44s-51.333 -34 -79 -56l-65.5 -53.5l-78.5 -70l-80.5 -72.5l-142 -130c88.667 -164.667 206.667 -308.334 354 -431.001c13.333 -11.333 34.333 -30.5 63 -57.5
s55.167 -50.5 79.5 -70.5s49.166 -37.667 74.499 -53l495 -297c-46 -24 -96 -36 -150 -36z" />
    <glyph glyph-name="Psi" unicode="&#x3a8;" horiz-adv-x="2386" 
d="M1096 1230c0 110.667 -5.33398 210.835 -16.001 300.502s-22.667 156 -36 199l-36 113.5c-10.667 32.667 -16 54.334 -16 65.001c0 50 20.167 98 60.5 144s83.833 69 130.5 69c2 0 4.33301 -0.166992 7 -0.5s4.66699 -0.5 6 -0.5c72 0 146 -34.667 222 -104
c0 -2 4 -20.5 12 -55.5s12 -57.833 12 -68.5c0 -43.333 -10 -86 -30 -128c-48.667 -63.333 -73 -148.666 -73 -255.999c0 -36 -2.83301 -105 -8.5 -207s-8.5 -185.667 -8.5 -251v-282c146.667 100 322.667 188 528 264c90.667 32 200.667 48 330.001 48h108
c21.333 -44.667 32 -87.334 32 -128.001c0 -42.667 -11.167 -76.834 -33.5 -102.501s-49.833 -42.834 -82.5 -51.501c-94.667 56 -194 84 -298 84c-183.333 0 -376 -76 -578 -228v-1308c-72 -128 -170 -192 -294 -192c0 31.333 5 126.666 15 285.999s15 302.666 15 429.999
c0 124 5.33301 273.667 16 449s16 289 16 341c-204 132 -400 198 -588 198c-52 0 -104.167 -4.66699 -156.5 -14s-94.833 -19.166 -127.5 -29.499s-76.667 -25.833 -132 -46.5c-84 41.333 -126 96.333 -126 165c0 42 16 91 48 147c2.66699 0.666992 7.66699 1 15 1
c34.667 0 111 -10.167 229 -30.5s182.667 -30.5 194 -30.5c80 0 171.5 -20.5 274.5 -61.5s226.167 -100.5 369.5 -178.5v450z" />
    <glyph glyph-name="Omega" unicode="&#x3a9;" horiz-adv-x="2204" 
d="M488 1416c0 -18 -6.16992 -36.998 -18.5029 -56.998s-27.666 -39.5 -45.999 -58.5s-38.333 -44.167 -60 -75.5s-41.667 -65.5 -60 -102.5s-33.666 -85.5 -45.999 -145.5s-18.5 -126.333 -18.5 -199c0 -168.667 17.833 -306 53.5 -412s98.834 -182 189.501 -228
c48 -24 104 -36 168 -36c84.667 0 152.334 33.5 203.001 100.5s76 148.833 76 245.5c0 0.666992 -0.333008 6.33398 -1 17.001s-1.33398 25.667 -2.00098 45s-1.33398 42.166 -2.00098 68.499s-1.33398 59 -2.00098 98s-1 79.833 -1 122.5c0 39.333 -0.166992 74 -0.5 104
s-0.5 55.667 -0.5 77s-0.666992 41.833 -2 61.5s-2.16602 34.167 -2.49902 43.5s-1.66602 22.333 -3.99902 39s-3.83301 26.834 -4.5 30.501l-6.5 36c-3.66699 20.333 -6.16699 33.5 -7.5 39.5v156c0 112 51 168 153 168h27c14.667 0 23.667 -2.66699 27 -8
c4 -5.33301 13.333 -10.5 28 -15.5s22.334 -7.83301 23.001 -8.5c34 -31.333 51 -76.666 51 -135.999c0 -52 -6 -114 -18 -186c-8 -48 -12 -298.667 -12 -752c0 -94 27 -175.167 81 -243.5s123 -102.5 207 -102.5c66.667 0 124.667 12.5 174 37.5s88.666 57.5 117.999 97.5
s53 90.333 71 151s30 121.667 36 183s9 130.333 9 207c0 101.333 -14.833 195.666 -44.5 282.999s-69.834 159.666 -120.501 216.999c-22 44 -33 77.333 -33 100c0 33.333 16 50 48 50c50.667 0 115.667 -38 195 -114c70 -61.333 125 -140.166 165 -236.499
s60 -203.5 60 -321.5c0 -102.667 -12.667 -196.334 -38 -281.001s-59.333 -155.667 -102 -213s-93.167 -105.666 -151.5 -144.999s-119.833 -68 -184.5 -86s-132 -27 -202 -27c-169.333 0 -305.333 82.667 -408 248c-96.667 -165.333 -230.667 -248 -402 -248
c-92 0 -176.167 14.167 -252.5 42.5s-140.833 66.5 -193.5 114.5s-97.167 104.333 -133.5 169s-62.833 132.667 -79.5 204s-25 144.666 -25 219.999c0 63.333 6.33301 124.166 19 182.499s27.5 107 44.5 146s37.167 75.833 60.5 110.5s42.333 60.167 57 76.5
s29.334 31.166 44.001 44.499c100.667 96 183.667 144 249 144c32 0 48 -14 48 -42z" />
    <glyph glyph-name="alpha" unicode="&#x3b1;" horiz-adv-x="1929" 
d="M1863 66c-60 0 -114.171 8.33203 -162.504 24.999s-99.833 47.334 -154.5 92.001s-111 101.5 -169 170.5s-128 160.167 -210 273.5l-723 -318c-56.667 -69.333 -105 -125 -145 -167s-75.167 -73.167 -105.5 -93.5s-55.666 -33.5 -75.999 -39.5s-44.166 -9 -71.499 -9
c-7.33301 0 -19.666 1 -36.999 3s-31.333 3 -42 3c408 484 650 884 726 1200l-32 50l-24 37.5l-16 26.5c-6.66699 11.333 -12 22.333 -16 33l-15 38.5l-23 60.5c0 14 4.83301 25.5 14.5 34.5s24.5 15.333 44.5 19s38.833 6 56.5 7s40.5 1.5 68.5 1.5h33
c44.667 0 75.334 1.33301 92.001 4c-16 -13.333 -24 -33.333 -24 -60c0 -41.333 26 -97.333 78 -168zM830.996 1039l-246 -514l486 216z" />
    <glyph glyph-name="beta" unicode="&#x3b2;" horiz-adv-x="1331" 
d="M1270 127c0 -29.333 -42.665 -52.5 -127.998 -69.5s-170.666 -26.833 -255.999 -29.5l-129 -3c-215.333 0 -445.333 31 -690 93v1134c0 55.333 -24 99.333 -72 132c54.667 38 108.667 62 162 72s128.333 15 225 15v-72l220 83c28 5.33301 56.333 8 85 8
c45.333 0 91.166 -5.33301 137.499 -16s89.166 -25.834 128.499 -45.501s71.5 -45.667 96.5 -78s37.5 -68.166 37.5 -107.499c0 -47.333 -16.333 -91.833 -49 -133.5s-77.334 -76.167 -134.001 -103.5l-426 -201l759 -621c22 -18.667 33 -37.667 33 -57zM853.002 1260
c0 34 -19.332 68.167 -57.999 102.5s-79.334 51.5 -122.001 51.5c-48 0 -143 -17 -285 -51v-501c202 68.667 330.667 139 386 211c18 24 33.5 51.5 46.5 82.5s21.667 55.167 26 72.5s6.5 28 6.5 32zM814.003 88h69.001c78 0 137 4 177 12l12 56l-682 566v-583
c145.333 -34 286.666 -51 423.999 -51z" />
    <glyph glyph-name="gamma" unicode="&#x3b3;" horiz-adv-x="1240" 
d="M1163 1530c7.33301 -12.667 10.999 -26 10.999 -40s-4.33301 -33.333 -13 -58h-721c-26 0 -39 -15.333 -39 -46v-1326c-41.333 -37.333 -90.666 -56 -147.999 -56c-71.333 0 -140 26 -206 78v1368c0 53.333 24 80 72 80h1044z" />
    <glyph glyph-name="delta" unicode="&#x3b4;" horiz-adv-x="1911" 
d="M833 1567c21.333 -82 41.333 -131.334 60 -148.001l952 -1224c5.33301 -19.333 8 -35 8 -47c0 -23.333 -7 -43.666 -21 -60.999s-37.667 -39.333 -71 -66h-1794c42 67.333 100 145.333 174 234l420 486l28 36c6.66699 8.66699 23.667 33 51 73s49.333 75.833 66 107.5
s32.667 69 48 112s23 81.167 23 114.5c0 34.667 -6 69 -18 103l-156 261c12 9.33301 29.833 17 53.5 23s46.167 9 67.5 9c18 0 37.5 -2.16699 58.5 -6.5s37.833 -6.5 50.5 -6.5zM1444 188.999c0.666992 0.666992 8.16797 6.5 22.501 17.5s26.666 22 36.999 33
s15.5 20.167 15.5 27.5l-560 648c-40 -56 -82.667 -110.833 -128 -164.5s-87.5 -101.167 -126.5 -142.5s-87 -88.5 -144 -141.5l-145.5 -132.5l-166 -145h1195z" />
    <glyph glyph-name="epsilon" unicode="&#x3b5;" horiz-adv-x="1931" 
d="M1527 627c0 -24.667 -11.666 -52.3369 -34.999 -83.0039s-47 -46 -71 -46c-15.333 0 -46 16.833 -92 50.5s-70 50.834 -72 51.501c-124.667 48.667 -230.334 85.5 -317.001 110.5s-195 47.167 -325 66.5l-226 39c-20.667 -21.333 -38.834 -63 -54.501 -125
s-23.5 -123.667 -23.5 -185c0 -95.333 19.333 -156 58 -182c56 -100 143.667 -173.333 263 -220s260.333 -70 423 -70c27.333 0 72.166 -3.33301 134.499 -10s110.5 -10 144.5 -10c68.667 0 153 -16.667 253 -50c-402 0 -688 12 -858 36
c-92.667 12.667 -176.5 30.5 -251.5 53.5s-138.5 48.667 -190.5 77s-97.5 60.833 -136.5 97.5s-70 73.334 -93 110.001s-41.5 76.834 -55.5 120.501s-23.333 84.667 -28 123s-7 79.5 -7 123.5c0 4 1 19.667 3 47s3 52.666 3 75.999c0 90 13 172.333 39 247
s63.333 138.834 112 192.501s105.667 100.334 171 140.001s139.166 71.334 221.499 95.001s168.166 41.167 257.499 52.5s184.333 17 285 17c128.667 0 247.334 -15.333 356.001 -46s202.834 -77.334 282.501 -140.001s135.5 -137.667 167.5 -225
c-59.333 -89.333 -124.666 -134 -195.999 -134c-26 0 -53.333 5.66699 -82 17c-23.333 124.667 -68.166 218.334 -134.499 281.001s-163.5 94 -291.5 94c-123.333 0 -232 -16.833 -326 -50.5s-175.333 -88.167 -244 -163.5c-90.667 -90.667 -136 -165.334 -136 -224.001
c0 -10 3.33301 -20 10 -30c288 0 598.667 -67 932 -201c86.667 -32 130 -73 130 -123z" />
    <glyph glyph-name="zeta" unicode="&#x3b6;" horiz-adv-x="1943" 
d="M1068 452c144 0 313.666 -22.666 508.999 -67.999c57.333 -13.333 104.5 -26.5 141.5 -39.5s74.333 -27.833 112 -44.5s72.834 -30.667 105.501 -42c-10 -31.333 -18.833 -56.666 -26.5 -75.999s-18.334 -41.666 -32.001 -66.999s-30.167 -47.333 -49.5 -66
s-42 -35 -68 -49l-183 80c-43.333 17.333 -81.333 31.166 -114 41.499s-78.334 22.166 -137.001 35.499s-128 23.333 -208 30s-170.667 10 -272 10c-156 0 -289.167 -11.5 -399.5 -34.5s-270.166 -69.5 -479.499 -139.5c280 228.667 754 638.667 1422 1230
c-181.333 36.667 -377 55 -587 55c-191.333 0 -379.666 15.667 -564.999 47c95.333 109.333 152.333 171.666 171 186.999c24.667 19.333 71.667 29 141 29l916 -95c142 0 259.667 31.667 353 95l-1230 -1171c283.333 34.667 443.333 52 480 52z" />
    <glyph glyph-name="eta" unicode="&#x3b7;" horiz-adv-x="1659" 
d="M391 99c-100.667 -52 -185.336 -78 -254.003 -78c-37.333 0 -68.666 8 -93.999 24v1398h5c16 0 56.333 11.5 121 34.5s106.334 34.5 125.001 34.5h7c35.333 0 65.333 -11 90 -33v-486c50.667 0 181.667 -16 393 -48s342.333 -48 393 -48c7.33301 0 24.333 1 51 3
s49.667 3 69 3c0 12 -2.33301 48 -7 108s-7 114 -7 162c0 47.333 -2.33301 100.666 -7 159.999s-7 95 -7 107v75h92c10.667 2.66699 25.834 6.83398 45.501 12.501l44 12.5c9.66699 2.66699 23 5.16699 40 7.5s34.5 3.5 52.5 3.5c21.333 0 38 -1 50 -3v-1347
c-13.333 -8.66699 -30.5 -26.5 -51.5 -53.5s-43.333 -49.833 -67 -68.5s-50.167 -28 -79.5 -28c-8 0 -26 2 -54 6c0 286 -12 538 -36 756c-44 -6 -90.667 -9 -140 -9c-48.667 0 -177.5 16 -386.5 48s-338.167 48 -387.5 48v-801z" />
    <glyph glyph-name="theta" unicode="&#x3b8;" horiz-adv-x="1917" 
d="M-33 817c0 90.667 18 177.003 54 259.003s84.667 153.333 146 214s131.833 113.5 211.5 158.5s164.667 78.833 255 101.5s180.833 34 271.5 34c91.333 0 182.166 -10.833 272.499 -32.5s175.833 -53.834 256.5 -96.501s152.167 -93.334 214.5 -152.001
s111.666 -127.667 147.999 -207s54.5 -163.333 54.5 -252c0 -82 -13.333 -160.667 -40 -236s-63.5 -142.833 -110.5 -202.5s-102.333 -114 -166 -163s-132.5 -89.667 -206.5 -122s-151.833 -57.333 -233.5 -75s-163.167 -26.5 -244.5 -26.5
c-123.333 0 -240.166 21.667 -350.499 65s-204.166 101.333 -281.499 174s-138.5 157.667 -183.5 255s-67.5 198.666 -67.5 303.999zM869 133.003c62.667 0 122.668 10.502 180.001 31.502s107.5 49 150.5 84s82.167 74.667 117.5 119s64.166 90.333 86.499 138
s39.5 94 51.5 139s18 86.5 18 124.5v33h-1140c0 -98.667 14.833 -190.334 44.5 -275.001s69.167 -155.334 118.5 -212.001s106.333 -101.167 171 -133.5s132 -48.5 202 -48.5zM898.001 1476c-57.333 0 -115.334 -13.333 -174.001 -40s-110.834 -60.5 -156.501 -101.5
s-86.667 -84.833 -123 -131.5s-64.333 -91.167 -84 -133.5s-29.5 -76.833 -29.5 -103.5c0 -12.667 0.666992 -22.334 2 -29.001h1146c0 104 -54 217.667 -162 341c-43.333 52.667 -103.666 98.834 -180.999 138.501s-156.666 59.5 -237.999 59.5z" />
    <glyph glyph-name="iota" unicode="&#x3b9;" horiz-adv-x="484" 
d="M418 331c0 -54.667 -4.83008 -102.833 -14.4971 -144.5s-21.834 -74.5 -36.501 -98.5s-32 -43.5 -52 -58.5s-39 -25 -57 -30s-36.667 -7.5 -56 -7.5c-14.667 0 -24.667 4 -30 12c-50 0 -75 214 -75 642c0 67.333 1 179 3 335s3 278.333 3 367
c-0.666992 3.33301 -23.5 24.333 -68.5 63s-67.5 64.667 -67.5 78c0 0.666992 0.333008 1.66699 1 3c0 9.33301 5 17.333 15 24c17.333 22.667 46.666 40.167 87.999 52.5s88.666 18.5 141.999 18.5c15.333 0 33 -1.16699 53 -3.5s41 -5.33301 63 -9
s37.667 -6.16699 47 -7.5c16 0 30 -4 42 -12v-1224z" />
    <glyph glyph-name="kappa" unicode="&#x3ba;" horiz-adv-x="1557" 
d="M1197 1536c28 18.667 71.6699 27.999 131.003 27.999c44.667 0 83 -7.5 115 -22.5s48 -36.833 48 -65.5c0 -21.333 -15.333 -54.666 -46 -99.999s-64.667 -88 -102 -128l-36.5 -40l-39.5 -43c-10 -10.667 -22.833 -22.334 -38.5 -35.001s-30.834 -22.667 -45.501 -30
l-553 -280c62 -19.333 135.167 -51.5 219.5 -96.5s139.833 -82.167 166.5 -111.5l393 -435c28 20.667 48 31 60 31c15.333 0 28.666 -9.33301 39.999 -28c-12.667 -64 -41.167 -113.333 -85.5 -148s-101.166 -52 -170.499 -52l-386 491c-38.667 42 -93.334 90 -164.001 144
s-143.334 96.333 -218.001 127c-27.333 -8 -71.333 -28 -132 -60c0 -17.333 -2.66699 -59.666 -8 -126.999s-8 -126.333 -8 -177s-2.66699 -109.667 -8 -177s-8 -109 -8 -125c-26 -27.333 -64.5 -52.833 -115.5 -76.5s-98.5 -35.5 -142.5 -35.5l-22 4
c0 20.667 3.66699 75.667 11 165s11 168.333 11 237c0 68 3.33301 148.167 10 240.5s10 150.833 10 175.5c0 17.333 -2.33301 61.333 -7 132s-7 132.667 -7 186s-2.66699 116.333 -8 189s-8 119 -8 139c0 6.66699 -5 25.667 -15 57s-15 49 -15 53
c47.333 26.667 95.333 40 144 40c58.667 0 108 -18 148 -54c29.333 -232 44 -417.333 44 -556c0 -2 -0.166992 -7.66699 -0.5 -17s-0.5 -17.666 -0.5 -24.999c0 -6.66699 -0.833008 -13.167 -2.5 -19.5s-2.5 -10.833 -2.5 -13.5l480 242
c70.667 36.667 137.5 80.834 200.5 132.501s110 96.167 141 133.5s46.5 62.666 46.5 75.999c0 15.333 -8 33.666 -24 54.999z" />
    <glyph glyph-name="lambda" unicode="&#x3bb;" horiz-adv-x="1766" 
d="M1727 145c-26 -49.333 -55.3291 -85.832 -87.9961 -109.499s-74.667 -35.5 -126 -35.5c-28 0 -58.333 3.33301 -91 10l-684 762c-24.667 -86.667 -57.834 -166.834 -99.501 -240.501s-86.5 -137.5 -134.5 -191.5s-102.833 -104 -164.5 -150
s-121.834 -84.5 -180.501 -115.5s-122.667 -60.5 -192 -88.5l306 370c9.33301 13.333 21 31 35 53s33.667 56.667 59 104s48.666 96 69.999 146s41.666 108.5 60.999 175.5s32.333 132.167 39 195.5c-37.333 39.333 -72.333 96.666 -105 171.999
c-79.333 126.667 -134.333 225.334 -165 296.001c46.667 38.667 111.667 58 195 58c69.333 0 131.333 -12 186 -36c-2.66699 -4.66699 -4 -12 -4 -22c0 -6 0.666992 -15.833 2 -29.5s2 -23.167 2 -28.5l45 -230l31 -104c60.667 -71.333 164 -181.5 310 -330.5
s242.667 -243.833 290 -284.5z" />
    <glyph glyph-name="mu" unicode="&#x3bc;" horiz-adv-x="2340" 
d="M60 1336c0 54 -13.999 116.673 -41.999 188.006c60.667 24 124 36 190 36c63.333 0 134 -12 212 -36v-164c0 -76.667 13.5 -150.834 40.5 -222.501s60.833 -131.834 101.5 -180.501c6.66699 -8.66699 18.667 -25.334 36 -50.001s33.666 -45.334 48.999 -62.001
s32.333 -30.667 51 -42l407 -239c66 59.333 128.5 119.666 187.5 180.999s110.833 117.666 155.5 168.999s95.167 114.333 151.5 189l142.5 193l160 228c44 16 92.667 24 146 24c50.667 0 106 -8 166 -24c0 -59.333 10 -191.833 30 -397.5s30 -337.834 30 -396.501
c0 -246.667 -16 -464.667 -48 -654c-113.333 -60 -223.333 -90 -330 -90v1212l-372 -434c-54 -61.333 -119.167 -124.166 -195.5 -188.499s-147.166 -112.166 -212.499 -143.499c-234.667 93.333 -482.667 244.666 -744 453.999c24 -182.667 36 -390 36 -622v-86
c-60.667 -54 -101.334 -88 -122.001 -102c-64 -44 -138.333 -66 -223 -66c0 29.333 -0.5 233.333 -1.5 612s-1.5 616.667 -1.5 714z" />
    <glyph glyph-name="nu" unicode="&#x3bd;" horiz-adv-x="2103" 
d="M339 109c-4 -24 -12.498 -44.002 -25.498 -60.002s-30.333 -27.833 -52 -35.5s-43.834 -12.834 -66.501 -15.501s-49.667 -4 -81 -4c-18.667 0 -45.667 -2.66699 -81 -8c0 11.333 -0.5 38.833 -1.5 82.5s-1.5 81.834 -1.5 114.501v196c0 375.333 17 722.333 51 1041
c43.333 21.333 90.333 32 141 32c51.333 0 103.333 -10.667 156 -32c60 -80.667 133.5 -163.167 220.5 -247.5s160.333 -150.5 220 -198.5s115.834 -90.333 168.501 -127l339 -245c128.667 -95.333 233.667 -180.666 315 -255.999c28 122 42 224.667 42 308v405
c0 64 -1.5 132.833 -4.5 206.5s-4.5 115.167 -4.5 124.5l-66 146c62 30 129.667 45 203 45c70.667 0 138 -13 202 -39c0 -40 3.33301 -137.833 10 -293.5s10 -291.167 10 -406.5c0 -116 3.16699 -250 9.5 -402s9.5 -246.333 9.5 -283v-27
c-4 -4.66699 -10.833 -9.33398 -20.5 -14.001s-16.167 -9 -19.5 -13c-4 -6 -11.333 -15 -22 -27l-26 -27c-17.333 -17.333 -40 -35.333 -68 -54c-96.667 54 -217.834 127.167 -363.501 219.5s-243.834 159.833 -294.501 202.5l-812 684
c-22 -5.33301 -42 -19.166 -60 -41.499s-27 -46.166 -27 -71.499v-879z" />
    <glyph glyph-name="xi" unicode="&#x3be;" horiz-adv-x="1887" 
d="M20 1576c2 0 18.3311 -1.99805 48.998 -5.99805s75.334 -9 134.001 -15s128.167 -11.833 208.5 -17.5s183.5 -10.5 309.5 -14.5s259.667 -6 401 -6h498c11.333 0 20.5 -3.83301 27.5 -11.5s10.5 -16.167 10.5 -25.5c0 -14.667 -6.66699 -25.334 -20 -32.001
c-52.667 -27.333 -131.667 -63 -237 -107s-202.333 -87.333 -291 -130s-161.667 -85.667 -219 -129c200 -78 368 -158 504 -240c52 -30.667 78 -71.667 78 -123c0 -50 -26 -90 -78 -120c-24.667 -17.333 -85.167 -51.833 -181.5 -103.5l-279.5 -155.5
c-90 -52 -148.333 -91.667 -175 -119c26 0 94.333 -3 205 -9s208 -9 292 -9c83.333 0 181.5 -3 294.5 -9s184.167 -9 213.5 -9c20 0 34.5 -9.66699 43.5 -29s13.5 -40.666 13.5 -63.999c0 -12 -4 -25.833 -12 -41.5s-12 -28.834 -12 -39.501h-1587
c-11.333 0 -20.5 3.83301 -27.5 11.5s-10.5 16.5 -10.5 26.5c0 11.333 4.66699 20.666 14 27.999c286 224 583 425 891 603c6 10 9 19.667 9 29c-2 0.666992 -3 2 -3 4c-6 4.66699 -17.667 14.667 -35 30s-33.333 27.833 -48 37.5s-30 17.167 -46 22.5l-485 147
c-5.33301 25.333 -8 46 -8 62c0 32 12.333 59.333 37 82c100 86 270 176 510 270c-164.667 -21.333 -307.667 -32 -429 -32c-146 0 -329 19.667 -549 59c-19.333 3.33301 -34.666 15.333 -45.999 36s-17 42.667 -17 66c0 14.667 5.33301 32.167 16 52.5s23 30.5 37 30.5z
" />
    <glyph glyph-name="omicron" unicode="&#x3bf;" horiz-adv-x="1917" 
d="M-33 817c0 90.667 18 177.003 54 259.003s84.667 153.333 146 214s131.833 113.5 211.5 158.5s164.667 78.833 255 101.5s180.833 34 271.5 34c91.333 0 182.166 -10.833 272.499 -32.5s175.833 -53.834 256.5 -96.501s152.167 -93.334 214.5 -152.001
s111.666 -127.667 147.999 -207s54.5 -163.333 54.5 -252c0 -82 -13.333 -160.667 -40 -236s-63.5 -142.833 -110.5 -202.5s-102.333 -114 -166 -163s-132.5 -89.667 -206.5 -122s-151.833 -57.333 -233.5 -75s-163.167 -26.5 -244.5 -26.5
c-123.333 0 -240.166 21.667 -350.499 65s-204.166 101.333 -281.499 174s-138.5 157.667 -183.5 255s-67.5 198.666 -67.5 303.999zM902 1477c-50 0 -100.332 -11.498 -150.999 -34.498s-96.334 -53.167 -137.001 -90.5s-78.834 -79.333 -114.501 -126
s-65.5 -93.834 -89.5 -141.501s-42.833 -93.167 -56.5 -136.5s-20.5 -80.333 -20.5 -111c0 -22.667 4.5 -54 13.5 -94s23.5 -86.833 43.5 -140.5s44 -106.5 72 -158.5s63.333 -102.667 106 -152s88.667 -88.333 138 -117c49.333 -28 107.666 -42 174.999 -42
c31.333 0 63.333 2.83301 96 8.5s69.334 16.5 110.001 32.5s79 36.667 115 62s71.667 59.833 107 103.5s65.666 93.5 90.999 149.5c54.667 144 82 260.333 82 349c0 91.333 -27.667 186.666 -83 285.999s-128.666 183 -219.999 251s-183.666 102 -276.999 102z" />
    <glyph glyph-name="pi" unicode="&#x3c0;" horiz-adv-x="1915" 
d="M1777 1552c3.33301 -4.66699 11.667 -12.501 25 -23.501s24.5 -22.5 33.5 -34.5s13.5 -24.667 13.5 -38c0 -22 -14 -50 -42 -84h-114v-1266c-4 -2 -23.667 -12.5 -59 -31.5s-66 -32.667 -92 -41s-53 -12.5 -81 -12.5c-19.333 0 -38 2.33301 -56 7v1344h-942v-1248
l-66 -51c-54 -38 -108 -57 -162 -57c-24 0 -50 4 -78 12v1374h-150c-26.667 23.333 -40 49.333 -40 78c0 14.667 4.16699 30.334 12.5 47.001s17.5 25 27.5 25h1770z" />
    <glyph glyph-name="rho" unicode="&#x3c1;" horiz-adv-x="1531" 
d="M77 1718c59.333 29.333 113 43.9971 161 43.9971c44.667 0 103 -12 175 -36v-126c94 20.667 180.667 31 260 31c60.667 0 179 -10.333 355 -31c126.667 -44 231.834 -96 315.501 -156s125.5 -122 125.5 -186c0 -36 -13 -72.667 -39 -110
c-196.667 -278 -538.667 -513.333 -1026 -706c11.333 -59.333 17 -145.333 17 -258c0 -56.667 -1.83301 -140.667 -5.5 -252s-5.5 -188.666 -5.5 -231.999c0 -39.333 -1.33301 -74.166 -4 -104.499s-6 -53 -10 -68s-8.33301 -22.5 -13 -22.5
c-0.666992 0 -1.66699 0.333008 -3 1c-20 -39.333 -40.5 -73 -61.5 -101s-46.667 -53.833 -77 -77.5s-58.333 -43.167 -84 -58.5s-63.5 -36.333 -113.5 -63c0 34 6.16699 121.167 18.5 261.5s18.5 263.833 18.5 370.5c0 105.333 6.33301 230.333 19 375
s19 236.334 19 275.001c0 273.333 -14 516 -42 728c0 108 -9.33301 192.167 -28 252.5s-42.334 90.5 -71.001 90.5zM422 1502v-839.997c88.667 38 159.834 70.667 213.501 98s110.167 61.333 169.5 102c164.667 106 247 246 247 420c0 27.333 -3.5 51.166 -10.5 71.499
s-18.333 38.666 -34 54.999s-30.834 30.166 -45.501 41.499s-35.334 25.333 -62.001 42c-7.33301 4 -12.666 7.33301 -15.999 10c-29.333 3.33301 -75.666 5 -138.999 5c-38.667 0 -95.834 -0.833008 -171.501 -2.5s-126.167 -2.5 -151.5 -2.5z" />
    <glyph glyph-name="sigma1" unicode="&#x3c2;" horiz-adv-x="1730" 
d="M1635 1316c12 -12.667 19.834 -22.3311 23.501 -28.998s5.5 -15 5.5 -25c0 -2.66699 -0.333008 -9.83398 -1 -21.501s-1 -22.5 -1 -32.5c0 -23.333 -15.667 -53.333 -47 -90s-65.666 -65.334 -102.999 -86.001c-8 -13.333 -19 -20 -33 -20
c-12 0 -21.833 3.66699 -29.5 11s-14.834 17.5 -21.501 30.5s-21.5 33.667 -44.5 62s-51.167 58.5 -84.5 90.5c-2 4 -14.667 16.667 -38 38l-71 60c-33.333 28.667 -78.166 55.5 -134.499 80.5s-121.166 37.5 -194.499 37.5c-136 0 -267 -61.333 -393 -184
c-68.667 -64 -116.334 -135.333 -143.001 -214s-40 -188 -40 -328c0 -22 2.66699 -46 8 -72s15 -57.5 29 -94.5s37.167 -75.5 69.5 -115.5s71.833 -77.333 118.5 -112c106 -56 253 -84 441 -84c224 0 447 34 669 102c-41.333 -35.333 -79 -65.666 -113 -90.999
s-74.833 -52 -122.5 -80s-94.5 -50.833 -140.5 -68.5s-98.833 -32.167 -158.5 -43.5s-121.5 -17 -185.5 -17c-148 0 -292.833 18.5 -434.5 55.5s-231.834 78.5 -270.501 124.5c-66 65.333 -120.5 142.666 -163.5 231.999s-64.5 186 -64.5 290c0 124 25.833 240.667 77.5 350
s111.834 194 180.501 254c60.667 60 156.667 126 288 198c75.333 45.333 199 68 371 68c62 0 174 -21.333 336 -64h64c7.33301 0 18.166 -3.83301 32.499 -11.5s39.166 -22.167 74.499 -43.5l87 -51c104.667 -58.667 157 -94 157 -106z" />
    <glyph glyph-name="sigma" unicode="&#x3c3;" horiz-adv-x="1730" 
d="M1635 1316c12 -12.667 19.834 -22.3311 23.501 -28.998s5.5 -15 5.5 -25c0 -2.66699 -0.333008 -9.83398 -1 -21.501s-1 -22.5 -1 -32.5c0 -23.333 -15.667 -53.333 -47 -90s-65.666 -65.334 -102.999 -86.001c-8 -13.333 -19 -20 -33 -20
c-12 0 -21.833 3.66699 -29.5 11s-14.834 17.5 -21.501 30.5s-21.5 33.667 -44.5 62s-51.167 58.5 -84.5 90.5c-2 4 -14.667 16.667 -38 38l-71 60c-33.333 28.667 -78.166 55.5 -134.499 80.5s-121.166 37.5 -194.499 37.5c-136 0 -267 -61.333 -393 -184
c-68.667 -64 -116.334 -135.333 -143.001 -214s-40 -188 -40 -328c0 -22 2.66699 -46 8 -72s15 -57.5 29 -94.5s37.167 -75.5 69.5 -115.5s71.833 -77.333 118.5 -112c106 -56 253 -84 441 -84c224 0 447 34 669 102c-41.333 -35.333 -79 -65.666 -113 -90.999
s-74.833 -52 -122.5 -80s-94.5 -50.833 -140.5 -68.5s-98.833 -32.167 -158.5 -43.5s-121.5 -17 -185.5 -17c-148 0 -292.833 18.5 -434.5 55.5s-231.834 78.5 -270.501 124.5c-66 65.333 -120.5 142.666 -163.5 231.999s-64.5 186 -64.5 290c0 124 25.833 240.667 77.5 350
s111.834 194 180.501 254c60.667 60 156.667 126 288 198c75.333 45.333 199 68 371 68c62 0 174 -21.333 336 -64h64c7.33301 0 18.166 -3.83301 32.499 -11.5s39.166 -22.167 74.499 -43.5l87 -51c104.667 -58.667 157 -94 157 -106z" />
    <glyph glyph-name="tau" unicode="&#x3c4;" horiz-adv-x="2121" 
d="M45 1292c-0.666992 2 -7.66797 16.832 -21.001 44.499s-26.333 56.5 -39 86.5s-19 50.667 -19 62c0 2.66699 0.333008 4.33398 1 5.00098c0 30.667 22 46 66 46h1980c28 -64 42 -108.333 42 -133c0 -42 -28 -63 -84 -63c-16 0 -54.5 2 -115.5 6s-113.833 6 -158.5 6
c-51.333 0 -108.666 1.33301 -171.999 4s-107.333 4 -132 4c-42 0 -85.333 -2.66699 -130 -8v-1206c-25.333 -46 -68 -83.5 -128 -112.5s-125.333 -43.5 -196 -43.5v1362h-231c-293.333 0 -514.333 -20 -663 -60z" />
    <glyph glyph-name="upsilon" unicode="&#x3c5;" horiz-adv-x="2726" 
d="M-33 1241c0 92 29.999 169.332 89.999 231.999s136 94 228 94c84.667 0 169.667 -18 255 -54c6 -2.66699 22.5 -9.33398 49.5 -20.001s45.833 -18.5 56.5 -23.5l47 -23c20.667 -10.333 38.334 -21 53.001 -32s28.667 -22.833 42 -35.5l596 -593l812 893
c57.333 22 112.333 33 165 33c43.333 0 81.166 -6.16699 113.5 -18.5c32.333 -12.333 68.833 -32.833 109.5 -61.5s66.334 -46 77 -52c-78.667 -37.333 -167.667 -89.666 -267 -156.999l-120 -80c-88 -62 -163 -117.167 -225 -165.5s-124.833 -102.166 -188.5 -161.499
s-121 -121.333 -172 -186s-97.833 -134.667 -140.5 -210c-36 -66.667 -54 -153.667 -54 -261c0 -119.333 -26.667 -307.166 -80 -563.499s-100.666 -449.5 -141.999 -579.5c-18.667 88.667 -30.834 179.667 -36.501 273s-8.5 204 -8.5 332v184v444c0 80 -13 146 -39 198
c-42 89.333 -113.5 176.166 -214.5 260.499s-213.5 155.5 -337.5 213.5s-246 98 -366 120h-303z" />
    <glyph glyph-name="phi" unicode="&#x3c6;" horiz-adv-x="2411" 
d="M2303 856c28 -22.667 42.0029 -52.667 42.0029 -90c0 -38.667 -14 -82.667 -42 -132c-332.667 -190.667 -671.334 -347.667 -1016 -471v-420c-30 -37.333 -65.333 -66.166 -106 -86.499s-93.334 -37.5 -158.001 -51.5v546l-421 182c-244 126 -441 256.333 -591 391
c-29.333 27.333 -44 57 -44 89c0 26.667 11 49 33 67c138 100 283.333 185.167 436 255.5s348.334 149.166 587.001 236.499v645c13.333 4 26 6 38 6c18.667 0 37.667 -3.83301 57 -11.5s38.666 -19 57.999 -34s34.166 -27.167 44.499 -36.5s23.5 -22 39.5 -38l53 -54v-483
c350 -108 680 -278 990 -510zM1023 325v926.999c-29.333 -10 -75.333 -24.833 -138 -44.5s-114.667 -36.667 -156 -51s-88.166 -32.166 -140.499 -53.499s-99.333 -45.333 -141 -72s-77.834 -55.667 -108.501 -87c-42.667 -46 -64 -87.333 -64 -124
c0 -93.333 47.333 -172 142 -236l33 -24l39.5 -28c9.66699 -6.66699 22.5 -14.5 38.5 -23.5s31.333 -16.167 46 -21.5zM1802 477.999c18 8 39.999 20.165 65.999 36.498s54.167 36.333 84.5 60s56 50.5 77 80.5s31.5 58.333 31.5 85c0 37.333 -17.333 75.333 -52 114
c-12.667 14.667 -26.167 28.834 -40.5 42.501s-31.166 27.334 -50.499 41.001l-51.5 36c-15 10.333 -35.167 22.166 -60.5 35.499l-58.5 31.5c-13.667 7.66699 -35.167 18.334 -64.5 32.001l-60 27.5l-64 28.5c-32 14.333 -51.333 22.833 -58 25.5l-202 80v-924z" />
    <glyph glyph-name="chi" unicode="&#x3c7;" horiz-adv-x="2194" 
d="M1978 -36c-75.333 0 -159 20.6689 -251 62.002s-185.333 98.333 -280 171s-186.5 151.334 -275.5 236.001s-178.167 177.334 -267.5 278.001c-136 -236.667 -291 -397.334 -465 -482.001l-422 -204l480 443c100.667 118 191 249 271 393l-161 229
c-8 8 -20.833 17.667 -38.5 29s-28.5 18.666 -32.5 21.999c-46 40 -102.667 72.833 -170 98.5s-136 38.5 -206 38.5c-68 0 -131.333 -13 -190 -39c0 160.667 67.333 276.667 202 348c20 -6.66699 59 -12.334 117 -17.001s97.333 -10.667 118 -18
c39.333 -10.667 79.166 -31.334 119.499 -62.001s78.333 -67.334 114 -110.001s68.334 -84.5 98.001 -125.5l93 -130.5c32.333 -46 58.5 -80.667 78.5 -104c24 26 52.833 62 86.5 108l88 121.5c25 35 56.5 71 94.5 108s76.333 65.5 115 85.5
c41.333 24.667 72.666 42.834 93.999 54.501s49.833 25.5 85.5 41.5s70.167 27.333 103.5 34s68 10 104 10c25.333 0 97 8.33301 215 25v-69c0 -20 -1.16699 -38.667 -3.5 -56s-4.33301 -29.666 -6 -36.999s-5.16699 -19.666 -10.5 -36.999s-8.66602 -28 -9.99902 -32h-57
c-50.667 0 -90.167 -2.33301 -118.5 -7s-62.166 -16.334 -101.499 -35.001c-29.333 -14 -56.5 -28.667 -81.5 -44s-51.333 -34 -79 -56l-65.5 -53.5l-78.5 -70l-80.5 -72.5l-142 -130c88.667 -164.667 206.667 -308.334 354 -431.001c13.333 -11.333 34.333 -30.5 63 -57.5
s55.167 -50.5 79.5 -70.5s49.166 -37.667 74.499 -53l495 -297c-46 -24 -96 -36 -150 -36z" />
    <glyph glyph-name="psi" unicode="&#x3c8;" horiz-adv-x="2386" 
d="M1096 1230c0 110.667 -5.33398 210.835 -16.001 300.502s-22.667 156 -36 199l-36 113.5c-10.667 32.667 -16 54.334 -16 65.001c0 50 20.167 98 60.5 144s83.833 69 130.5 69c2 0 4.33301 -0.166992 7 -0.5s4.66699 -0.5 6 -0.5c72 0 146 -34.667 222 -104
c0 -2 4 -20.5 12 -55.5s12 -57.833 12 -68.5c0 -43.333 -10 -86 -30 -128c-48.667 -63.333 -73 -148.666 -73 -255.999c0 -36 -2.83301 -105 -8.5 -207s-8.5 -185.667 -8.5 -251v-282c146.667 100 322.667 188 528 264c90.667 32 200.667 48 330.001 48h108
c21.333 -44.667 32 -87.334 32 -128.001c0 -42.667 -11.167 -76.834 -33.5 -102.501s-49.833 -42.834 -82.5 -51.501c-94.667 56 -194 84 -298 84c-183.333 0 -376 -76 -578 -228v-1308c-72 -128 -170 -192 -294 -192c0 31.333 5 126.666 15 285.999s15 302.666 15 429.999
c0 124 5.33301 273.667 16 449s16 289 16 341c-204 132 -400 198 -588 198c-52 0 -104.167 -4.66699 -156.5 -14s-94.833 -19.166 -127.5 -29.499s-76.667 -25.833 -132 -46.5c-84 41.333 -126 96.333 -126 165c0 42 16 91 48 147c2.66699 0.666992 7.66699 1 15 1
c34.667 0 111 -10.167 229 -30.5s182.667 -30.5 194 -30.5c80 0 171.5 -20.5 274.5 -61.5s226.167 -100.5 369.5 -178.5v450z" />
    <glyph glyph-name="omega" unicode="&#x3c9;" horiz-adv-x="2204" 
d="M488 1416c0 -18 -6.16992 -36.998 -18.5029 -56.998s-27.666 -39.5 -45.999 -58.5s-38.333 -44.167 -60 -75.5s-41.667 -65.5 -60 -102.5s-33.666 -85.5 -45.999 -145.5s-18.5 -126.333 -18.5 -199c0 -168.667 17.833 -306 53.5 -412s98.834 -182 189.501 -228
c48 -24 104 -36 168 -36c84.667 0 152.334 33.5 203.001 100.5s76 148.833 76 245.5c0 0.666992 -0.333008 6.33398 -1 17.001s-1.33398 25.667 -2.00098 45s-1.33398 42.166 -2.00098 68.499s-1.33398 59 -2.00098 98s-1 79.833 -1 122.5c0 39.333 -0.166992 74 -0.5 104
s-0.5 55.667 -0.5 77s-0.666992 41.833 -2 61.5s-2.16602 34.167 -2.49902 43.5s-1.66602 22.333 -3.99902 39s-3.83301 26.834 -4.5 30.501l-6.5 36c-3.66699 20.333 -6.16699 33.5 -7.5 39.5v156c0 112 51 168 153 168h27c14.667 0 23.667 -2.66699 27 -8
c4 -5.33301 13.333 -10.5 28 -15.5s22.334 -7.83301 23.001 -8.5c34 -31.333 51 -76.666 51 -135.999c0 -52 -6 -114 -18 -186c-8 -48 -12 -298.667 -12 -752c0 -94 27 -175.167 81 -243.5s123 -102.5 207 -102.5c66.667 0 124.667 12.5 174 37.5s88.666 57.5 117.999 97.5
s53 90.333 71 151s30 121.667 36 183s9 130.333 9 207c0 101.333 -14.833 195.666 -44.5 282.999s-69.834 159.666 -120.501 216.999c-22 44 -33 77.333 -33 100c0 33.333 16 50 48 50c50.667 0 115.667 -38 195 -114c70 -61.333 125 -140.166 165 -236.499
s60 -203.5 60 -321.5c0 -102.667 -12.667 -196.334 -38 -281.001s-59.333 -155.667 -102 -213s-93.167 -105.666 -151.5 -144.999s-119.833 -68 -184.5 -86s-132 -27 -202 -27c-169.333 0 -305.333 82.667 -408 248c-96.667 -165.333 -230.667 -248 -402 -248
c-92 0 -176.167 14.167 -252.5 42.5s-140.833 66.5 -193.5 114.5s-97.167 104.333 -133.5 169s-62.833 132.667 -79.5 204s-25 144.666 -25 219.999c0 63.333 6.33301 124.166 19 182.499s27.5 107 44.5 146s37.167 75.833 60.5 110.5s42.333 60.167 57 76.5
s29.334 31.166 44.001 44.499c100.667 96 183.667 144 249 144c32 0 48 -14 48 -42z" />
    <glyph glyph-name="atnah" unicode="&#x591;" 
d="M42 -166v-132.999c80.667 -39.333 121 -109.333 121 -210c0 -44 -2 -88 -6 -132h-109c4 28.667 6 61 6 97c0 80 -18 120 -54 120c-35.333 0 -53 -41.333 -53 -124c0 -38.667 1.66699 -69.667 5 -93h-109c-4 31.333 -6 74.666 -6 129.999c0 100.667 40.333 171 121 211
v134h84z" />
    <glyph glyph-name="segolta" unicode="&#x592;" 
d="M-111 1231c-24.667 0 -45.167 10.167 -61.5 30.5s-24.5 45.833 -24.5 76.5s8.16699 56.167 24.5 76.5s36.833 30.5 61.5 30.5s45 -10.167 61 -30.5s24 -45.833 24 -76.5s-8 -56.167 -24 -76.5s-36.333 -30.5 -61 -30.5zM0 1483c-24.667 0 -43.834 9.00098 -57.501 27.001
s-20.5 42.333 -20.5 73c0 31.333 6.83301 55.666 20.5 72.999s32.834 26 57.501 26c25.333 0 44.833 -8.16699 58.5 -24.5s20.5 -39.833 20.5 -70.5c0 -31.333 -7.16699 -56.5 -21.5 -75.5s-33.5 -28.5 -57.5 -28.5zM111 1231c-24.667 0 -45 10.167 -61 30.5
s-24 45.833 -24 76.5s8 56.167 24 76.5s36.333 30.5 61 30.5s45.167 -10.167 61.5 -30.5s24.5 -45.833 24.5 -76.5s-8.16699 -56.167 -24.5 -76.5s-36.833 -30.5 -61.5 -30.5z" />
    <glyph glyph-name="shalshelet" unicode="&#x593;" 
d="M146 1526l-127 -87l130 -86l-167 -120h-160l165 118l-133 88l128 87l-129 86l166 120h159l-164 -120z" />
    <glyph glyph-name="zaqefqatan" unicode="&#x594;" 
d="M0 1232c-24.667 0 -45.167 10.167 -61.5 30.5s-24.5 45.833 -24.5 76.5s8.16699 56.167 24.5 76.5s36.833 30.5 61.5 30.5s45.167 -10.167 61.5 -30.5s24.5 -45.833 24.5 -76.5s-8.16699 -56.167 -24.5 -76.5s-36.833 -30.5 -61.5 -30.5zM0 1486
c-24.667 0 -45.167 10.167 -61.5 30.5s-24.5 45.833 -24.5 76.5s8.16699 56.167 24.5 76.5s36.833 30.5 61.5 30.5s45.167 -10.167 61.5 -30.5s24.5 -45.833 24.5 -76.5s-8.16699 -56.167 -24.5 -76.5s-36.833 -30.5 -61.5 -30.5z" />
    <glyph glyph-name="zaqefgadol" unicode="&#x595;" 
d="M66 1231c-24.667 0 -45 10.167 -61 30.5s-24 45.833 -24 76.5s8.16699 56.167 24.5 76.5s36.5 30.5 60.5 30.5c24.667 0 45.167 -10.167 61.5 -30.5s24.5 -45.833 24.5 -76.5s-8.16699 -56.167 -24.5 -76.5s-36.833 -30.5 -61.5 -30.5zM66 1485
c-24.667 0 -45 10.167 -61 30.5s-24 45.833 -24 76.5s8.16699 56.167 24.5 76.5s36.5 30.5 60.5 30.5c24.667 0 45.167 -10.167 61.5 -30.5s24.5 -45.833 24.5 -76.5s-8.16699 -56.167 -24.5 -76.5s-36.833 -30.5 -61.5 -30.5zM-43 1246h-109v448h109v-448z" />
    <glyph glyph-name="tipeha" unicode="&#x596;" 
d="M0 -127l19 -27c-7.33301 -102.667 -11 -160.667 -11 -174c0 -40.667 7 -69 21 -85s38.333 -30.667 73 -44v-136l-24 7c-56 14 -100 42.5 -132 85.5s-48 101.5 -48 175.5c0 9.33301 3 68 9 176l3 22h90z" />
    <glyph glyph-name="revia" unicode="&#x597;" 
d="M-5 1597l128 -187l-118 -178l-128 180z" />
    <glyph glyph-name="zarqa" unicode="&#x598;" 
d="M-125 1388c0 -8.66699 2.66992 -16.3301 8.00293 -22.9971s10 -11 14 -13l21 -10v-138l-25 9c-36.667 13.333 -66.667 35.833 -90 67.5s-35 67.167 -35 106.5c0 49.333 13 90 39 122s57.667 48 95 48c32 0 58.833 -10.667 80.5 -32s41.834 -52 60.501 -92l15 -31
c9.33301 -16.667 16.666 -27.667 21.999 -33s10.666 -8 15.999 -8c8 0 14.833 3.66699 20.5 11s8.5 17 8.5 29c0 8.66699 -2.33301 16.334 -7 23.001s-8.83398 11 -12.501 13s-10.167 5.33301 -19.5 10v140l25 -10c29.333 -10.667 56.833 -31.334 82.5 -62.001
s38.5 -68.334 38.5 -113.001c0 -50.667 -13.333 -91.834 -40 -123.501s-57.667 -47.5 -93 -47.5c-19.333 0 -36.833 3.83301 -52.5 11.5s-29.334 19 -41.001 34s-20.5 27.667 -26.5 38s-13 24.166 -21 41.499l-15 30c-13.333 28.667 -26.333 43 -39 43
c-8 0 -14.833 -3.83301 -20.5 -11.5s-8.5 -17.5 -8.5 -29.5z" />
    <glyph glyph-name="pashta" unicode="&#x599;" 
d="M-8 1383c0 40 -7 68.167 -21 84.5s-38.333 31.166 -73 44.499v136l24 -7c56 -14 100 -42.5 132 -85.5s48 -101.5 48 -175.5c0 -48.667 -2 -91 -6 -127l-3 -22h-90h-21l2 27c5.33301 74.667 8 116.334 8 125.001z" />
    <glyph glyph-name="yetiv" unicode="&#x59a;" 
d="M161 -485l-72 -112l-250 243l250 243l72 -112l-147 -128z" />
    <glyph glyph-name="tevir" unicode="&#x59b;" 
d="M-53 -457c35.333 13.333 60 28 74 44s21 44.333 21 85c0 4 -4 62 -12 174l21 27h88l3 -22c6.66699 -60 10 -118.667 10 -176c0 -143.333 -60.333 -230.333 -181 -261l-24 -7v136zM-70 -411c-23.333 0 -42.8311 9.99805 -58.498 29.998s-23.5 44 -23.5 72
s7.83301 52 23.5 72s35.167 30 58.5 30s42.666 -10.167 57.999 -30.5s23 -44.166 23 -71.499c0 -29.333 -7.83301 -53.666 -23.5 -72.999s-34.834 -29 -57.501 -29z" />
    <glyph glyph-name="gereshaccent" unicode="&#x59c;" 
d="M102 1513c-34.667 -13.333 -59 -27.999 -73 -43.999s-21 -44.333 -21 -85c0 -8.66699 2.66699 -50.334 8 -125.001l-19 -27h-90l-3 22c-4 36 -6 78.333 -6 127c0 74 16 132.5 48 175.5s76 71.5 132 85.5l24 7v-136z" />
    <glyph glyph-name="gereshmuqdam" unicode="&#x59d;" 
d="M102 1511c-34.667 -13.333 -59 -28.001 -73 -44.001s-21 -44.333 -21 -85c0 -4.66699 0.5 -12 1.5 -22l4.5 -43.5c2 -19 3.66699 -38.167 5 -57.5l-19 -27h-90l-3 22c0 2.66699 -0.833008 10.167 -2.5 22.5s-3.16699 27.333 -4.5 45s-2 36.834 -2 57.501
c0 74 16 132.5 48 175.5s76 71.5 132 85.5l24 7v-136z" />
    <glyph glyph-name="gershayimaccent" unicode="&#x59e;" 
d="M4 1510c-33.333 -12 -56.333 -26.0029 -69 -42.0029s-19 -44.667 -19 -86c0 -4.66699 0.5 -12.667 1.5 -24s2.5 -27.166 4.5 -47.499s3.66699 -40.166 5 -59.499l-20 -27h-89l-3 22c0 2.66699 -0.833008 10.834 -2.5 24.501s-3.16699 30 -4.5 49s-2 38.833 -2 59.5
c0 71.333 15.5 126.5 46.5 165.5s75.5 70.833 133.5 95.5l18 8v-138zM194 1510c-22.667 -8.66699 -39.667 -16.334 -51 -23.001s-21.333 -18.667 -30 -36s-13 -40 -13 -68c0 -4.66699 0.5 -12.667 1.5 -24s2.5 -27.166 4.5 -47.499s3.66699 -40.166 5 -59.499l-20 -28h-91
v23c-6.66699 56.667 -10 100.667 -10 132c0 143.333 60 230.666 180 261.999l24 7v-138z" />
    <glyph glyph-name="qarneypara" unicode="&#x59f;" 
d="M385 1519c0 -60 -16.502 -111.167 -49.502 -153.5s-74.833 -63.5 -125.5 -63.5c-33.333 0 -61.666 9.66699 -84.999 29l-125 -151l-125 151c-23.333 -19.333 -51.666 -29 -84.999 -29c-50.667 0 -92.5 21.167 -125.5 63.5s-49.5 93.5 -49.5 153.5
c0 59.333 16.333 110.5 49 153.5s74.667 64.5 126 64.5c50.667 0 92.167 -21.333 124.5 -64s48.5 -94 48.5 -154c0 -38.667 -7 -73.334 -21 -104.001l58 -70l59 70c-14.667 30.667 -22 65.334 -22 104.001c0 60 16.167 111.333 48.5 154s73.833 64 124.5 64
c51.333 0 93.333 -21.5 126 -64.5s49 -94.167 49 -153.5zM-210.002 1420c23.333 0 41.833 9.66699 55.5 29s20.5 42.666 20.5 69.999s-6.83301 50.666 -20.5 69.999s-32.167 29 -55.5 29s-41.833 -9.66699 -55.5 -29s-20.5 -42.666 -20.5 -69.999
s6.83301 -50.666 20.5 -69.999s32.167 -29 55.5 -29zM209.998 1618c-23.333 0 -41.833 -9.66699 -55.5 -29s-20.5 -42.666 -20.5 -69.999s6.83301 -50.666 20.5 -69.999s32.167 -29 55.5 -29s41.833 9.66699 55.5 29s20.5 42.666 20.5 69.999s-6.83301 50.666 -20.5 69.999
s-32.167 29 -55.5 29z" />
    <glyph glyph-name="telishagedola" unicode="&#x5a0;" 
d="M11 1639c-23.333 0 -41.666 -9.66699 -54.999 -29s-20 -42.666 -20 -69.999s6.66699 -50.666 20 -69.999s31.666 -29 54.999 -29s42 9.66699 56 29s21 42.666 21 69.999s-7 50.666 -21 69.999s-32.667 29 -56 29zM-114 1391c-32 44.667 -48 94.333 -48 149
c0 60 16.167 111.333 48.5 154s73.833 64 124.5 64c51.333 0 93.333 -21.5 126 -64.5s49 -94.167 49 -153.5c0 -60 -16.5 -111.167 -49.5 -153.5s-74.833 -63.5 -125.5 -63.5c-11.333 0 -25 3 -41 9l-66 -152l-90 65z" />
    <glyph glyph-name="pazer" unicode="&#x5a1;" 
d="M139 1571c0 -67.333 -11.8311 -123.5 -35.498 -168.5s-60.834 -67.5 -111.501 -67.5h-22v-103h-109v448h109v-217h9c17.333 0 30.166 8 38.499 24s12.5 43.667 12.5 83c0 24.667 -1.33301 51.334 -4 80.001l-2 28h107l3 -21c3.33301 -22.667 5 -51.334 5 -86.001z" />
    <glyph glyph-name="atnahhafukh" unicode="&#x5a2;" 
d="M-42 -596v132.999c-80.667 39.333 -121 109.333 -121 210c0 44 2 88 6 132h109c-4 -28.667 -6 -61 -6 -97c0 -80 18 -120 54 -120c35.333 0 53 41.333 53 124c0 38.667 -1.66699 69.667 -5 93h109c4 -31.333 6 -74.666 6 -129.999c0 -100.667 -40.333 -171 -121 -211
v-134h-84z" />
    <glyph glyph-name="munah" unicode="&#x5a3;" 
d="M134 -572h-268v135h160v304h108v-439z" />
    <glyph glyph-name="mahapakh" unicode="&#x5a4;" 
d="M161 -485l-72 -112l-250 243l250 243l72 -112l-147 -128z" />
    <glyph glyph-name="merkha" unicode="&#x5a5;" 
d="M-102 -455c16.667 6.66699 28.832 11.999 36.499 15.999s16.834 10.833 27.501 20.5s18.167 22 22.5 37s6.5 33.833 6.5 56.5c0 11.333 -3 69.333 -9 174l18 27h90l2 -22c6.66699 -60 10 -119 10 -177c0 -73.333 -16 -131.666 -48 -174.999s-76 -72 -132 -86l-24 -5v134z
" />
    <glyph glyph-name="merkhakefula" unicode="&#x5a6;" 
d="M-194 -458c16.667 6.66699 28.832 11.999 36.499 15.999s16.834 10.833 27.501 20.5s18.167 22 22.5 37s6.5 33.833 6.5 56.5c0 10.667 -3 68.667 -9 174l19 27h88l3 -22c6.66699 -60 10 -119 10 -177c0 -73.333 -16 -131.666 -48 -174.999s-76 -72 -132 -86l-24 -5v134z
M-10.002 -459.001c16.667 6.66699 28.832 12 36.499 16s16.834 10.833 27.501 20.5s18.167 22 22.5 37s6.5 33.833 6.5 56.5c0 11.333 -3 69.333 -9 174l20 27h88l2 -22c6.66699 -60 10 -119 10 -177c0 -143.333 -60 -230 -180 -260l-24 -5v133z" />
    <glyph glyph-name="darga" unicode="&#x5a7;" 
d="M56 -247c-37.333 -8 -59.0039 -17.6631 -65.0039 -28.9961c52 -19.333 86.167 -36.833 102.5 -52.5s24.5 -41.834 24.5 -78.501c0 -60 -15.5 -103 -46.5 -129s-83.167 -45 -156.5 -57l-22 -3v129l16 5l31.5 6.5c11.667 2.33301 20.834 4.33301 27.501 6
s13.334 3.5 20.001 5.5s11.834 4.5 15.501 7.5s5.83398 6.5 6.50098 10.5l-28 10.5c-13.333 5 -22 8.33301 -26 10s-11 4.83398 -21 9.50098s-16.5 8.66699 -19.5 12l-13.5 14.5c-6 6.33301 -10 12.666 -12 18.999s-3.83301 14.166 -5.5 23.499s-2.5 19.666 -2.5 30.999
c0 34 4.5 62.333 13.5 85s23.333 40.5 43 53.5s39.167 22.5 58.5 28.5s45 11.667 77 17l23 3v-130c-4 -1.33301 -11.333 -2.83301 -22 -4.5s-17 -2.83398 -19 -3.50098z" />
    <glyph glyph-name="qadma" unicode="&#x5a8;" 
d="M3 1230l-19 27.001c5.33301 74.667 8 116 8 124c0 40 -7 68.167 -21 84.5s-38.333 31.166 -73 44.499v136l24 -7c56 -14 100 -42.5 132 -85.5s48 -101.5 48 -175.5c0 -48 -2 -90 -6 -126l-3 -22h-90z" />
    <glyph glyph-name="telishaqetana" unicode="&#x5a9;" 
d="M-11 1441c23.333 0 41.666 9.66699 54.999 29s20 42.666 20 69.999s-6.66699 50.666 -20 69.999s-31.666 29 -54.999 29s-42 -9.66699 -56 -29s-21 -42.666 -21 -69.999s7 -50.666 21 -69.999s32.667 -29 56 -29zM-11 1758c50.667 0 92.167 -21.332 124.5 -63.999
s48.5 -94 48.5 -154c0 -56.667 -16 -106.334 -48 -149.001l72 -146l-90 -65l-66 152c-16 -6 -29.667 -9 -41 -9c-50.667 0 -92.5 21.167 -125.5 63.5s-49.5 93.5 -49.5 153.5c0 59.333 16.333 110.5 49 153.5s74.667 64.5 126 64.5z" />
    <glyph glyph-name="yerahbenyomo" unicode="&#x5aa;" 
d="M-42 -596v132.999c-80.667 39.333 -121 109.333 -121 210c0 44 2 88 6 132h109c-4 -28.667 -6 -61 -6 -97c0 -80 18 -120 54 -120c35.333 0 53 41.333 53 124c0 38.667 -1.66699 69.667 -5 93h109c4 -31.333 6 -74.666 6 -129.999c0 -100.667 -40.333 -171 -121 -211
v-134h-84z" />
    <glyph glyph-name="ole" unicode="&#x5ab;" 
d="M161 1343l-72 -112l-250 243l250 243l72 -113l-147 -127z" />
    <glyph glyph-name="iluy" unicode="&#x5ac;" 
d="M138 1225h-276v135h168v304h108v-439z" />
    <glyph glyph-name="dehi" unicode="&#x5ad;" 
d="M0 -130c8 -10.667 14.333 -19.667 19 -27c-7.33301 -102.667 -11 -160.667 -11 -174c0 -40.667 7 -69 21 -85s38.333 -30.667 73 -44v-136l-24 7c-56 14 -100 42.5 -132 85.5s-48 101.5 -48 175.5c0 9.33301 3 68 9 176l3 22h90z" />
    <glyph glyph-name="tsinor" unicode="&#x5ae;" 
d="M-125 1388c0 -8.66699 2.66992 -16.3301 8.00293 -22.9971s10 -11 14 -13l21 -10v-138l-25 9c-36.667 13.333 -66.667 35.833 -90 67.5s-35 67.167 -35 106.5c0 49.333 13 90 39 122s57.667 48 95 48c32 0 58.833 -10.667 80.5 -32s41.834 -52 60.501 -92l15 -31
c9.33301 -16.667 16.666 -27.667 21.999 -33s10.666 -8 15.999 -8c8 0 14.833 3.66699 20.5 11s8.5 17 8.5 29c0 8.66699 -2.33301 16.334 -7 23.001s-8.83398 11 -12.501 13s-10.167 5.33301 -19.5 10v140l25 -10c29.333 -10.667 56.833 -31.334 82.5 -62.001
s38.5 -68.334 38.5 -113.001c0 -50.667 -13.333 -91.834 -40 -123.501s-57.667 -47.5 -93 -47.5c-19.333 0 -36.833 3.83301 -52.5 11.5s-29.334 19 -41.001 34s-20.5 27.667 -26.5 38s-13 24.166 -21 41.499l-15 30c-13.333 28.667 -26.333 43 -39 43
c-8 0 -14.833 -3.83301 -20.5 -11.5s-8.5 -17.5 -8.5 -29.5z" />
    <glyph glyph-name="masoracircle" unicode="&#x5af;" 
d="M0 1276c-48.667 0 -90.167 21.5 -124.5 64.5s-51.5 94.833 -51.5 155.5c0 58.667 16.833 110 50.5 154s75.5 66 125.5 66c48 0 89.333 -21.333 124 -64s52 -94.667 52 -156s-17.167 -113.333 -51.5 -156s-75.833 -64 -124.5 -64zM0 1613
c-24.667 0 -45.833 -11.001 -63.5 -33.001s-26.5 -50 -26.5 -84c0 -33.333 9 -61.166 27 -83.499s39 -33.5 63 -33.5s45 11 63 33s27 50 27 84s-9 62 -27 84s-39 33 -63 33z" />
    <glyph glyph-name="sheva" unicode="&#x5b0;" 
d="M0 -587c-24.667 0 -45.167 10.167 -61.5 30.5s-24.5 45.833 -24.5 76.5s8.16699 56.167 24.5 76.5s36.833 30.5 61.5 30.5s45.167 -10.167 61.5 -30.5s24.5 -45.833 24.5 -76.5s-8.16699 -56.167 -24.5 -76.5s-36.833 -30.5 -61.5 -30.5zM0 -333
c-24.667 0 -45.167 10.167 -61.5 30.5s-24.5 45.833 -24.5 76.5s8.16699 56.167 24.5 76.5s36.833 30.5 61.5 30.5s45.167 -10.167 61.5 -30.5s24.5 -45.833 24.5 -76.5s-8.16699 -56.167 -24.5 -76.5s-36.833 -30.5 -61.5 -30.5z" />
    <glyph glyph-name="hatafsegol" unicode="&#x5b1;" 
d="M221 -587c-24.667 0 -45.332 10.167 -61.999 30.5s-25 45.833 -25 76.5s8.16699 56.167 24.5 76.5s37.166 30.5 62.499 30.5c24.667 0 45 -10.167 61 -30.5s24 -45.833 24 -76.5s-8.16699 -56.167 -24.5 -76.5s-36.5 -30.5 -60.5 -30.5zM221.002 -333
c-24.667 0 -45.332 10.167 -61.999 30.5s-25 45.833 -25 76.5s8.16699 56.167 24.5 76.5s37.166 30.5 62.499 30.5c24.667 0 45 -10.167 61 -30.5s24 -45.833 24 -76.5s-8.16699 -56.167 -24.5 -76.5s-36.5 -30.5 -60.5 -30.5zM0.00390625 -119
c25.333 0 46.333 -10.167 63 -30.5s25 -45.833 25 -76.5s-8.33301 -56.167 -25 -76.5s-37.667 -30.5 -63 -30.5c-24.667 0 -44.667 10.167 -60 30.5s-23 45.833 -23 76.5s7.83301 56.167 23.5 76.5s35.5 30.5 59.5 30.5zM-108.996 -373c24.667 0 45 -10.167 61 -30.5
s24 -45.833 24 -76.5s-8.16699 -56.167 -24.5 -76.5s-36.5 -30.5 -60.5 -30.5c-24.667 0 -45.167 10.167 -61.5 30.5s-24.5 45.833 -24.5 76.5s8.16699 56.167 24.5 76.5s36.833 30.5 61.5 30.5zM-220.996 -119c24.667 0 45.332 -10.167 61.999 -30.5s25 -45.833 25 -76.5
s-8.16699 -56.167 -24.5 -76.5s-37.166 -30.5 -62.499 -30.5c-24.667 0 -45 10.167 -61 30.5s-24 45.833 -24 76.5s8.16699 56.167 24.5 76.5s36.5 30.5 60.5 30.5z" />
    <glyph glyph-name="hatafpatah" unicode="&#x5b2;" 
d="M44 -286h-350v144h350v-144zM221 -587c-24.667 0 -45.167 10.167 -61.5 30.5s-24.5 45.833 -24.5 76.5s8.16699 56.167 24.5 76.5s36.833 30.5 61.5 30.5s45 -10.167 61 -30.5s24 -45.833 24 -76.5s-8 -56.167 -24 -76.5s-36.333 -30.5 -61 -30.5zM221 -333
c-24.667 0 -45.167 10.167 -61.5 30.5s-24.5 45.833 -24.5 76.5s8.16699 56.167 24.5 76.5s36.833 30.5 61.5 30.5s45 -10.167 61 -30.5s24 -45.833 24 -76.5s-8 -56.167 -24 -76.5s-36.333 -30.5 -61 -30.5z" />
    <glyph glyph-name="hatafqamats" unicode="&#x5b3;" 
d="M-75 -288l0.00195312 -10.998c0 -28.667 3.66699 -54 11 -76l38 -100c-19.333 -49.333 -39.333 -85 -60 -107c-18.667 -4.66699 -28.667 -7 -30 -7c-4.66699 0 -14 2.33301 -28 7c-14.667 13.333 -25.834 27.666 -33.501 42.999s-15.834 37 -24.501 65l38 100
c6 13.333 9 37.666 9 72.999v13h-151v146l372 -2v-144h-141zM221.002 -588.998c-24.667 0 -45.167 10.167 -61.5 30.5s-24.5 45.833 -24.5 76.5s8.16699 56.167 24.5 76.5s36.833 30.5 61.5 30.5s45 -10.167 61 -30.5s24 -45.833 24 -76.5s-8 -56.167 -24 -76.5
s-36.333 -30.5 -61 -30.5zM221.002 -334.998c-24.667 0 -45.167 10.167 -61.5 30.5s-24.5 45.833 -24.5 76.5s8.16699 56.167 24.5 76.5s36.833 30.5 61.5 30.5s45 -10.167 61 -30.5s24 -45.833 24 -76.5s-8 -56.167 -24 -76.5s-36.333 -30.5 -61 -30.5z" />
    <glyph glyph-name="hiriq" unicode="&#x5b4;" 
d="M0 -333c-24.667 0 -45.167 10.167 -61.5 30.5s-24.5 45.833 -24.5 76.5s8.16699 56.167 24.5 76.5s36.833 30.5 61.5 30.5s45.167 -10.167 61.5 -30.5s24.5 -45.833 24.5 -76.5s-8.16699 -56.167 -24.5 -76.5s-36.833 -30.5 -61.5 -30.5z" />
    <glyph glyph-name="tsere" unicode="&#x5b5;" 
d="M187 -226c0 -30.667 -8.16699 -56.167 -24.5 -76.5s-36.5 -30.5 -60.5 -30.5c-24.667 0 -45.167 10.167 -61.5 30.5s-24.5 45.833 -24.5 76.5s8.16699 56.167 24.5 76.5s36.833 30.5 61.5 30.5s45 -10.167 61 -30.5s24 -45.833 24 -76.5zM-16 -226
c0 -30.667 -8.16699 -56.167 -24.5 -76.5s-36.833 -30.5 -61.5 -30.5s-45 10.167 -61 30.5s-24 45.833 -24 76.5s8.16699 56.167 24.5 76.5s36.5 30.5 60.5 30.5c24.667 0 45.167 -10.167 61.5 -30.5s24.5 -45.833 24.5 -76.5z" />
    <glyph glyph-name="segol" unicode="&#x5b6;" 
d="M111 -119c24.667 0 45.167 -10.167 61.5 -30.5s24.5 -45.833 24.5 -76.5s-8.16699 -56.167 -24.5 -76.5s-36.833 -30.5 -61.5 -30.5s-45 10.167 -61 30.5s-24 45.833 -24 76.5s8 56.167 24 76.5s36.333 30.5 61 30.5zM0 -367c24.667 0 44.5 -9.33301 59.5 -28
s22.5 -43.334 22.5 -74.001s-7.5 -55.167 -22.5 -73.5s-34.833 -27.5 -59.5 -27.5s-44 9.33301 -58 28s-21 43.334 -21 74.001c0 31.333 7 56 21 74s33.333 27 58 27zM-111 -119c24.667 0 45 -10.167 61 -30.5s24 -45.833 24 -76.5s-8 -56.167 -24 -76.5
s-36.333 -30.5 -61 -30.5s-45.167 10.167 -61.5 30.5s-24.5 45.833 -24.5 76.5s8.16699 56.167 24.5 76.5s36.833 30.5 61.5 30.5z" />
    <glyph glyph-name="patah" unicode="&#x5b7;" 
d="M155 -288h-310v144h310v-144z" />
    <glyph glyph-name="qamats" unicode="&#x5b8;" 
d="M40 -288l0.000976562 -11.999c0 -30.667 3.33301 -55.667 10 -75l37 -100c-9.33301 -28 -17.833 -49 -25.5 -63s-18.834 -29 -33.501 -45c-10.667 -2.66699 -20 -4 -28 -4c-9.33301 0 -19 1.66699 -29 5c-14.667 13.333 -26 27.666 -34 42.999s-15.667 37 -23 65l36 101
c6.66699 12 10 36 10 72v13h-112v144h304v-144h-112z" />
    <glyph glyph-name="holam" unicode="&#x5b9;" 
d="M0 1172c-24.667 0 -45.167 10.167 -61.5 30.5s-24.5 45.833 -24.5 76.5s8.16699 56.167 24.5 76.5s36.833 30.5 61.5 30.5s45.167 -10.167 61.5 -30.5s24.5 -45.833 24.5 -76.5s-8.16699 -56.167 -24.5 -76.5s-36.833 -30.5 -61.5 -30.5z" />
    <glyph glyph-name="holamhaser" unicode="&#x5ba;" 
d="M0 1172c-24.667 0 -45.167 10.167 -61.5 30.5s-24.5 45.833 -24.5 76.5s8.16699 56.167 24.5 76.5s36.833 30.5 61.5 30.5s45.167 -10.167 61.5 -30.5s24.5 -45.833 24.5 -76.5s-8.16699 -56.167 -24.5 -76.5s-36.833 -30.5 -61.5 -30.5z" />
    <glyph glyph-name="qubuts" unicode="&#x5bb;" 
d="M-149 -323c-24 0 -43.834 9.99902 -59.501 29.999s-23.5 44.667 -23.5 74c0 30 7.83301 55 23.5 75s35.5 30 59.5 30s44 -10.167 60 -30.5s24 -45.166 24 -74.499c0 -30 -8.16699 -54.833 -24.5 -74.5s-36.166 -29.5 -59.499 -29.5zM147.999 -591.001
c-24 0 -43.834 9.99902 -59.501 29.999s-23.5 44.667 -23.5 74c0 30 7.83301 55 23.5 75s35.5 30 59.5 30s44 -10.167 60 -30.5s24 -45.166 24 -74.499c0 -30.667 -8.16699 -55.667 -24.5 -75s-36.166 -29 -59.499 -29zM-0.00195312 -457.002
c-24 0 -43.834 9.99902 -59.501 29.999s-23.5 44.667 -23.5 74c0 30 7.83301 55 23.5 75s35.5 30 59.5 30s44 -10.167 60 -30.5s24 -45.166 24 -74.499c0 -30 -8.16699 -54.833 -24.5 -74.5s-36.166 -29.5 -59.499 -29.5z" />
    <glyph glyph-name="dagesh" unicode="&#x5bc;" 
d="M0 412c-24.667 0 -45.167 10.167 -61.5 30.5s-24.5 45.833 -24.5 76.5s8.16699 56.167 24.5 76.5s36.833 30.5 61.5 30.5s45.167 -10.167 61.5 -30.5s24.5 -45.833 24.5 -76.5s-8.16699 -56.167 -24.5 -76.5s-36.833 -30.5 -61.5 -30.5z" />
    <glyph glyph-name="meteg" unicode="&#x5bd;" 
d="M54 -572h-108v440h108v-440z" />
    <glyph glyph-name="makaf" unicode="&#x5be;" horiz-adv-x="690" 
d="M202 1086h400c18 0 31.833 -8.16699 41.5 -24.5s14.5 -33.166 14.5 -50.499v-2c0 -26.667 -11.5 -66.5 -34.5 -119.5s-42.167 -79.5 -57.5 -79.5h-400c-18 0 -32 7.33301 -42 22s-15 30.667 -15 48v2c0 27.333 11.5 68.166 34.5 122.499s42.5 81.5 58.5 81.5z" />
    <glyph glyph-name="rafe" unicode="&#x5bf;" 
d="M172 1174h-344v122h346z" />
    <glyph glyph-name="paseq" unicode="&#x5c0;" horiz-adv-x="309" 
d="M50 658c34 21.333 70.001 32 108.001 32c35.333 0 69 -10.667 101 -32v-630c-30.667 -18.667 -64.334 -28 -101.001 -28c-32 0 -68 9 -108 27v631z" />
    <glyph glyph-name="shindot" unicode="&#x5c1;" 
d="M0 1172c-24.667 0 -45.167 10.167 -61.5 30.5s-24.5 45.833 -24.5 76.5s8.16699 56.167 24.5 76.5s36.833 30.5 61.5 30.5s45.167 -10.167 61.5 -30.5s24.5 -45.833 24.5 -76.5s-8.16699 -56.167 -24.5 -76.5s-36.833 -30.5 -61.5 -30.5z" />
    <glyph glyph-name="sindot" unicode="&#x5c2;" 
d="M0 1172c-24.667 0 -45.167 10.167 -61.5 30.5s-24.5 45.833 -24.5 76.5s8.16699 56.167 24.5 76.5s36.833 30.5 61.5 30.5s45.167 -10.167 61.5 -30.5s24.5 -45.833 24.5 -76.5s-8.16699 -56.167 -24.5 -76.5s-36.833 -30.5 -61.5 -30.5z" />
    <glyph glyph-name="sofpasuq" unicode="&#x5c3;" horiz-adv-x="509" 
d="M283 316c18.667 -20.667 36.667 -39.1631 54 -55.4961s31.333 -28.333 42 -36l28 -20c8 -5.66699 13.667 -9.83398 17 -12.501s5 -5.33398 5 -8.00098c0 -18 -2.33301 -31.667 -7 -41l-45 -63l-44 -83c-6.66699 -13.333 -18 -18.333 -34 -15
c-19.333 5.33301 -45.5 22.666 -78.5 51.999s-58.167 54 -75.5 74c-5.33301 7.33301 -8 16.333 -8 27c43.333 83.333 76.333 142.666 99 177.999c7.33301 4 16 6 26 6c8.66699 0 15 -1.33301 19 -4zM283 973.004c18.667 -20.667 36.667 -39.1631 54 -55.4961
s31.333 -28.333 42 -36l28 -20c8 -5.66699 13.667 -9.83398 17 -12.501s5 -5.33398 5 -8.00098c0 -18 -2.33301 -31.667 -7 -41l-45 -63l-44 -83c-6.66699 -13.333 -18 -18.333 -34 -15c-19.333 5.33301 -45.5 22.666 -78.5 51.999s-58.167 54 -75.5 74
c-5.33301 7.33301 -8 16.333 -8 27c43.333 83.333 76.333 142.666 99 177.999c7.33301 4 16 6 26 6c8.66699 0 15 -1.33301 19 -4z" />
    <glyph glyph-name="upperdot" unicode="&#x5c4;" 
d="M153 1709l-150 -193l-156 196l150 199z" />
    <glyph glyph-name="lowerdot" unicode="&#x5c5;" 
d="M153 -718l-150 -193l-156 197l150 198z" />
    <glyph glyph-name="nunhapukha" unicode="&#x5c6;" horiz-adv-x="653" 
d="M409 1161c5.33301 -3.33301 11.333 -9.33105 18 -17.998s15.167 -21.834 25.5 -39.501s20.166 -43.334 29.499 -77.001s16.666 -72.167 21.999 -115.5l5 -37l-37 -51c-20 -28.667 -39 -49.667 -57 -63c-14 -13.333 -31.333 -20 -52 -20v-19c0 -109.333 -12 -223 -36 -341
l-7 -41l10 -12c12.667 -4.66699 51 -12 115 -22l51 -8l19 -18c28.667 -36.667 48.167 -74 58.5 -112s15.5 -80.667 15.5 -128v-23c0 -20.667 -1.16699 -35.334 -3.5 -44.001s-8.16602 -13 -17.499 -13h-2c-5.33301 1.33301 -43.666 8.16602 -114.999 20.499
s-126 25.5 -164 39.5c-50.667 21.333 -89.334 50 -116.001 86c-34.667 48 -52 108 -52 180v34l31 102v31c0 52 9.66699 113.333 29 184l27 130c-3.33301 28.667 -8.83301 55.167 -16.5 79.5s-11.5 41.833 -11.5 52.5c0 11.333 5 39.333 15 84
c0.666992 0.666992 1.83398 2.16699 3.50098 4.5s2.83398 3.83301 3.50098 4.5s1.66699 1.83398 3 3.50098s2.33301 2.83398 3 3.50098s1.66699 1.33398 3 2.00098s2.5 1.16699 3.5 1.5s2.16699 0.666016 3.5 0.999023s2.66602 0.5 3.99902 0.5l33 22
c4 4 11.333 9.66699 22 17s16.667 11.333 18 12l47 44l26 32c2 4 5.33301 9 10 15s7.66699 10 9 12z" />
    <glyph glyph-name="qamatsqatan" unicode="&#x5c7;" 
d="M-42 -301l0.000976562 23h-117v144h318v-144h-117v-21c0 -67.333 3 -109.333 9 -126l37 -100c-10 -28.667 -18.667 -50 -26 -64s-18.333 -29.333 -33 -46c-10.667 -1.33301 -20.334 -2 -29.001 -2c-10 0 -20 1.66699 -30 5c-14.667 12.667 -25.5 26.167 -32.5 40.5
s-14.833 36.833 -23.5 67.5l37 101c4.66699 7.33301 7 48 7 122z" />
    <glyph glyph-name="alef" unicode="&#x5d0;" horiz-adv-x="1154" 
d="M55 7l-0.000976562 14.9951c0 41.333 13.333 84.333 40 129c-3.33301 32.667 -5 69.334 -5 110.001c0 149.333 51.667 366.333 155 651v2c0 10.667 5 37.5 15 80.5s15 67.833 15 74.5h55c30 -64 79.333 -118.333 148 -163c23.333 -19.333 46.166 -47.333 68.499 -84
s46.333 -73.834 72 -111.501s55.5 -69.167 89.5 -94.5l64 176c-9.33301 4 -17 7.5 -23 10.5s-12.667 7.33301 -20 13s-12.666 12.5 -15.999 20.5s-5 17.333 -5 28c0 54.667 7.66699 114 23 178s41.666 109.667 78.999 137c28 -10.667 59.5 -36.667 94.5 -78
s61.167 -68.333 78.5 -81c4.66699 0 10.334 -0.666992 17.001 -2s16 -5.16602 28 -11.499s18.667 -14.833 20 -25.5c0 -3.33301 0.166992 -8.66602 0.5 -15.999s0.5 -13 0.5 -17c0 -136 -35.667 -214 -107 -234c-64.667 -71.333 -105 -140 -121 -206l33 -34.5l35.5 -37.5
c6.33301 -6.66699 17 -18.667 32 -36s25.833 -30.833 32.5 -40.5l27.5 -40c11.667 -17 20 -32.167 25 -45.5l17.5 -46c6.66699 -17.333 11.167 -34.666 13.5 -51.999s3.5 -35.333 3.5 -54c0 -22 -3 -52.167 -9 -90.5s-15 -57.5 -27 -57.5c-9.33301 0 -22.333 8.66699 -39 26
l-552 570c-34.667 33.333 -67.334 50 -98.001 50c-44.667 0 -67 -38.333 -67 -115c0 -38.667 5 -79 15 -121c0 -4.66699 4.5 -7.66699 13.5 -9s19.333 -2.33301 31 -3s23.334 -6 35.001 -16s19.5 -25 23.5 -45c6.66699 -26.667 10 -57 10 -91
c0 -62.667 -14.333 -125.334 -43 -188.001c-10 -1.33301 -19.5 -3.16602 -28.5 -5.49902s-18.167 -5.16602 -27.5 -8.49902l-24 -8.5c-6.66699 -2.33301 -14.834 -6 -24.501 -11l-21.5 -11c-4.66699 -2.33301 -12.167 -6.83301 -22.5 -13.5s-17.166 -11 -20.499 -13
s-10.666 -6.66699 -21.999 -14s-18.333 -11.666 -21 -12.999l-36 -2c-20.667 8 -31 33 -31 75z" />
    <glyph glyph-name="bet" unicode="&#x5d1;" horiz-adv-x="973" 
d="M284 696c-38 0 -70.833 12.1729 -98.5 36.5059s-41.5 65.166 -41.5 122.499c0 24.667 0.833008 52.167 2.5 82.5s7.33398 68.666 17.001 114.999s23.167 76.166 40.5 89.499c10 0 28 -11.333 54 -34l55 -39c5.33301 -1.33301 12 -2 20 -2c15.333 0 41 2.16699 77 6.5
s58 6.5 66 6.5c29.333 0 58 -0.333008 86 -1s52 -1 72 -1c41.333 0 73 -14 95 -42c1.33301 -3.33301 7.16602 -15.833 17.499 -37.5s18.666 -40.167 24.999 -55.5s14 -35.5 23 -60.5s16.333 -51.167 22 -78.5s9.5 -55.333 11.5 -84c0 -19.333 0.833008 -56.5 2.5 -111.5
s2.5 -89.167 2.5 -102.5c0 -24.667 0.333008 -42 1 -52l58 46l38 -20c22 -56 33 -102 33 -138c0 -16.667 -6.66699 -29.334 -20 -38.001c-44.667 -63.333 -97.667 -118.333 -159 -165s-127.666 -83.334 -198.999 -110.001s-144.5 -46.334 -219.5 -59.001
s-153.5 -19 -235.5 -19h-45c-10.667 -2 -16.667 2.33301 -18 13s0 22.667 4 36c0 2.66699 0.833008 17.834 2.5 45.501s4 50.167 7 67.5s10.833 42.166 23.5 74.499s30 63.5 52 93.5c7.33301 6 17.5 11 30.5 15s24.167 6.33301 33.5 7l13 1c36 -1.33301 63 -2 81 -2
c134.667 0 249 26 343 78c-2.66699 0.666992 -5 13.167 -7 37.5s-5.33301 53.333 -10 87s-11.667 67.667 -21 102s-24.833 64.5 -46.5 90.5s-48.167 41 -79.5 45c-26.667 -2 -62.667 -10.167 -108 -24.5s-79 -21.5 -101 -21.5z" />
    <glyph glyph-name="gimel" unicode="&#x5d2;" horiz-adv-x="723" 
d="M377 597c0 16 0.999023 30.834 2.99902 44.501s3 21.834 3 24.501c0 12 -2.5 27.167 -7.5 45.5s-9.83301 31.833 -14.5 40.5c-12 8 -30.5 16.167 -55.5 24.5s-48 18.833 -69 31.5s-38.167 31.334 -51.5 56.001c11.333 20 22.833 49.5 34.5 88.5s25.667 74.833 42 107.5
s38.833 61.334 67.5 86.001h43c10 -30 23 -55.333 39 -76s30.667 -35.334 44 -44.001s31.333 -19.334 54 -32.001s40 -23.334 52 -32.001c11.333 -20 17 -45 17 -75c0 -51.333 -12.333 -101.666 -37 -150.999c2.66699 -74.667 11 -144.334 25 -209.001s28.667 -115 44 -151
s29.166 -73 41.499 -111s18.5 -71 18.5 -99c0 -48 -9.16699 -88 -27.5 -120s-44.5 -63.667 -78.5 -95h-34l-53 206c-38 -1.33301 -70 -3.83301 -96 -7.5s-55.667 -11.5 -89 -23.5s-64.666 -30.833 -93.999 -56.5s-57.666 -58.834 -84.999 -99.501l-59 -3l-6 13
c0.666992 78 10 144.833 28 200.5s43.833 99.5 77.5 131.5s70.5 56.167 110.5 72.5s86.667 27.5 140 33.5c-2.66699 18.667 -6.5 40 -11.5 64s-8.83301 44.833 -11.5 62.5s-4 35.167 -4 52.5z" />
    <glyph glyph-name="dalet" unicode="&#x5d3;" horiz-adv-x="953" 
d="M195 1186l13.001 -18.999c8 -12.667 14.833 -22.667 20.5 -30s14.834 -17.333 27.501 -30s25.167 -22.667 37.5 -30s27.666 -14 45.999 -20s37.5 -9 57.5 -9h29c39.333 1.33301 73.333 3.16602 102 5.49902s60.167 6.5 94.5 12.5s62.666 15.167 84.999 27.5
s37.5 27.5 45.5 45.5c0.666992 1.33301 1.66699 3.5 3 6.5s2.5 5.33301 3.5 7s2.33301 3.66699 4 6s3.16699 4 4.5 5s3.16602 2 5.49902 3s4.83301 1.33301 7.5 1s5.66699 -0.833008 9 -1.5l17 -50c4.66699 -32 16 -73.5 34 -124.5s27 -99.833 27 -146.5
c0 -20 -0.666992 -35.667 -2 -47c-78 -48.667 -117 -102 -117 -160c0 -10 1 -20 3 -30l2 -24c0 -30 10 -92.333 30 -187s30 -162.334 30 -203.001c0 -32 -12.5 -78.667 -37.5 -140s-43.167 -96 -54.5 -104c-7.33301 -5.33301 -23.333 -10.666 -48 -15.999h-17l-27 80v90
c-79.333 222.667 -119.666 425.667 -120.999 609c-46.667 -9.33301 -137 -14 -271 -14c-10.667 0 -24.667 -7.33301 -42 -22s-32.333 -22 -45 -22l-3 1h-3h-2c-2.66699 0 -5.66699 1.66699 -9 5s-6.83301 10.666 -10.5 21.999s-5.5 25.666 -5.5 42.999v10
c0 12.667 2 24 6 34c0 29.333 -7.83301 61.333 -23.5 96s-23.5 71.667 -23.5 111c0 21.333 3.16699 43 9.5 65s13.333 40.667 21 56s16.5 30.333 26.5 45s17.5 24.834 22.5 30.501s8.83301 9.83398 11.5 12.501h27z" />
    <glyph glyph-name="he" unicode="&#x5d4;" horiz-adv-x="990" 
d="M917 433c-0.666992 -74.667 -9.99707 -160.663 -27.9971 -257.996s-39.333 -146 -64 -146h-20v25v2c-9.33301 14 -19.833 35.167 -31.5 63.5s-25 67.166 -40 116.499s-27.5 112.833 -37.5 190.5s-15 160.5 -15 248.5c0 26 -3 42.333 -9 49
c-4.66699 5.33301 -27.667 8 -69 8h-174c0 -2 -4.66699 -23.667 -14 -65s-14 -62.333 -14 -63c-13.333 -61.333 -20 -112.333 -20 -153c0 -22 3.33301 -58.833 10 -110.5s10 -85.834 10 -102.501v-6c0 -72.667 -23.333 -152.667 -70 -240l-18 -25h-31
c-4.66699 16 -11.334 37.167 -20.001 63.5s-14.334 45 -17.001 56s-6 29 -10 54s-6.5 53.167 -7.5 84.5s-1.5 71.666 -1.5 120.999c0 52 3.5 97.5 10.5 136.5s17.167 71 30.5 96s26.166 45.333 38.499 61s27.333 32.167 45 49.5s30.5 31.666 38.5 42.999l-172 4l-70 20
c-24 16.667 -41 37.334 -51 62.001s-15 47 -15 67c0 31.333 6.5 66.166 19.5 104.499s27.667 73.833 44 106.5s24.833 50 25.5 52c0 9.33301 4 16.5 12 21.5s15.833 5.66699 23.5 2s11.5 -11.834 11.5 -24.501c0 -31.333 16.667 -56.666 50 -75.999
c98.667 -13.333 176.667 -20 234 -20c91.333 0 184 16.333 278 49c7.33301 -4 15.333 -10.167 24 -18.5s19.334 -21.5 32.001 -39.5s23.167 -43.333 31.5 -76s12.5 -69.667 12.5 -111c0 -24 -1.83301 -47.667 -5.5 -71s-5.5 -39.333 -5.5 -48
c0 -10 2.16699 -22.167 6.5 -36.5l19 -66c8.33301 -29.667 16.166 -63.5 23.499 -101.5v-99z" />
    <glyph glyph-name="vav" unicode="&#x5d5;" horiz-adv-x="598" 
d="M265 1154c24.667 -35.333 51.498 -67.001 80.498 -95.001s51.667 -48.167 68 -60.5s30.166 -29.333 41.499 -51s17 -48.5 17 -80.5c0 -10 -0.5 -27 -1.5 -51s-1.5 -43 -1.5 -57c0 -32.667 1.33301 -57.667 4 -75c0 -34.667 8.33301 -106.334 25 -215.001
s25 -177.667 25 -207c0 -4.66699 -0.166992 -9.16699 -0.5 -13.5s-0.666016 -7.66602 -0.999023 -9.99902s-0.5 -3.83301 -0.5 -4.5c0 -76 -3.66699 -132.5 -11 -169.5s-25.666 -64.167 -54.999 -81.5l-37 -47l-9 27c-28 107.333 -51.333 252.333 -70 435v77
c0 49.333 -6.16699 93.833 -18.5 133.5s-34.5 82.834 -66.5 129.501c-19.333 22 -50.666 36.333 -93.999 43c-11.333 -0.666992 -22 -3 -32 -7l-45 46v9c0 30.667 20.333 89.5 61 176.5s72 135.833 94 146.5z" />
    <glyph glyph-name="zain" unicode="&#x5d6;" horiz-adv-x="642" 
d="M392 649c24.667 -212 37 -324.997 37 -338.997v-14c0 -18.667 -4.16699 -44.667 -12.5 -78s-19.666 -67.833 -33.999 -103.5s-32.833 -66.334 -55.5 -92.001s-46.334 -38.5 -71.001 -38.5h-15l-7 10c5.33301 12 10.5 27.167 15.5 45.5s8.66699 33.5 11 45.5
s3.5 18.667 3.5 20c0 327.333 -12 523 -36 587c-7.33301 33.333 -25.333 61.666 -54 84.999s-57.334 39.666 -86.001 48.999l-5 55c0.666992 47.333 7.66699 90.5 21 129.5s29 68.833 47 89.5s34.833 36.334 50.5 47.001s27.834 16 36.501 16h7l51 -47
c22 -22.667 56 -53.334 102 -92.001l120 -99.5c34 -27.667 51 -42.5 51 -44.5c0 -20.667 -10.833 -58.167 -32.5 -112.5s-42.5 -95.5 -62.5 -123.5c-2.66699 -2.66699 -12 -4 -28 -4c-28 0 -46 3 -54 9z" />
    <glyph glyph-name="het" unicode="&#x5d7;" horiz-adv-x="1021" 
d="M560 768c-14 0 -30.3359 -0.831055 -49.0029 -2.49805s-40 -4.66699 -64 -9s-44 -11.333 -60 -21s-24 -21.5 -24 -35.5c0 -3.33301 0.333008 -6 1 -8c-0.666992 -11.333 -1 -28 -1 -50c0 -66.667 7.66699 -148.667 23 -246s23 -174.333 23 -231
c0 -11.333 -0.666992 -31 -2 -59c-9.33301 -38.667 -24.833 -75.167 -46.5 -109.5s-43.5 -54.5 -65.5 -60.5l-43 20c-4 44 -11.5 107.5 -22.5 190.5s-19.833 159.667 -26.5 230s-10 137.833 -10 202.5c0 35.333 1.66699 76.333 5 123c-76 43.333 -114 96.666 -114 159.999
c0 28 6.33301 57.667 19 89s31.334 69.166 56.001 113.499s41.334 75.5 50.001 93.5l66 2c4.66699 -32.667 19.5 -56.5 44.5 -71.5s63.167 -22.5 114.5 -22.5c33.333 0 75 3.16699 125 9.5s93.333 12.666 130 18.999s56 9.5 58 9.5c11.333 0 22.333 -4 33 -12
c8 -8.66699 17.833 -20.834 29.5 -36.501s29.334 -45.167 53.001 -88.5s39.5 -83.666 47.5 -120.999l-22 -64c-4 -12 -8.16699 -29 -12.5 -51s-6.5 -43 -6.5 -63c0 -26.667 4.83301 -61.667 14.5 -105s19.167 -95.166 28.5 -155.499s14 -124.166 14 -191.499
c0 -48.667 -2.83301 -86.167 -8.5 -112.5s-12.167 -43.333 -19.5 -51s-19.166 -18.334 -35.499 -32.001s-30.5 -29.167 -42.5 -46.5l-32 26l-133 722c-10.667 30.667 -42.334 46 -95.001 46z" />
    <glyph glyph-name="tet" unicode="&#x5d8;" horiz-adv-x="1060" 
d="M162 1050c1.33301 26.667 3.00098 43.4971 5.00098 50.4971s9.66699 20.167 23 39.5l33 32c11.333 -33.333 25.166 -61.166 41.499 -83.499s31.333 -38 45 -47l50 -32c19.667 -12.333 35.5 -24.166 47.5 -35.499c8 -30 12 -59.333 12 -88
c0 -59.333 -18.333 -116 -55 -170c-4 -25.333 -6 -50 -6 -74c0 -41.333 6 -84.833 18 -130.5s24.5 -83.334 37.5 -113.001s31.5 -69.167 55.5 -118.5l105 31c22 6.66699 52.5 18.167 91.5 34.5s73.833 33.833 104.5 52.5c6.66699 11.333 14.167 28.833 22.5 52.5
s15.166 44.5 20.499 62.5l8 27v10c0 60.667 -12.833 113.167 -38.5 157.5s-60.167 67.833 -103.5 70.5h-2c-35.333 0 -66.833 -23 -94.5 -69s-41.5 -84.333 -41.5 -115l-35 14c-17.333 25.333 -26 67.333 -26 126c0 62 10.5 120.333 31.5 175s51 99.167 90 133.5
s82.5 51.5 130.5 51.5c69.333 0 127.5 -28.667 174.5 -86s71.833 -132.666 74.5 -225.999c0 -6 0.166992 -15.5 0.5 -28.5s0.5 -22.833 0.5 -29.5c0 -53.333 -1.83301 -101.666 -5.5 -144.999s-10.5 -90.5 -20.5 -141.5s-25.833 -100.833 -47.5 -149.5
s-48.5 -94.667 -80.5 -138l-135.5 -78c-32.333 -18 -75 -38.333 -128 -61s-103.5 -39.667 -151.5 -51h-7c-28 0 -56.333 10.333 -85 31c-42 114 -74.333 217.333 -97 310s-34 184.667 -34 276c0 62 6 124.333 18 187c-14 34.667 -31.333 52 -52 52c-14 0 -29.667 -6 -47 -18
l-23 14v23c0 13.333 0.833008 26.333 2.5 39s3.33398 23.667 5.00098 33s4.66699 19.833 9 31.5l10 26.5c2.33301 6 6.5 14.333 12.5 25l12 21c2 3.33301 6.5 10.333 13.5 21s10.833 16.667 11.5 18z" />
    <glyph glyph-name="yod" unicode="&#x5d9;" horiz-adv-x="560" 
d="M369 1044c39.333 -42.667 69.0039 -91.167 89.0039 -145.5s30 -121.5 30 -201.5v-9c-0.666992 -66 -7.33398 -127.5 -20.001 -184.5s-24.334 -96.667 -35.001 -119s-20.334 -39.833 -29.001 -52.5v-9c-23.333 18 -35 28 -35 30v37c0 36.667 -1.16699 70.334 -3.5 101.001
s-5 55.167 -8 73.5s-7.33301 36 -13 53s-10 28.5 -13 34.5s-7.5 14.167 -13.5 24.5s-9.33301 15.833 -10 16.5c-29.333 52 -63.333 78 -102 78c-24 0 -51.667 -9.66699 -83 -29l-39 57c0.666992 46 6.33398 88.333 17.001 127s22.167 68 34.5 88s24 38 35 54
s16.833 26.667 17.5 32c28.667 63.333 52 95 70 95c2 -0.666992 5.16699 -1.66699 9.5 -3s7.16602 -3 8.49902 -5s3.33301 -5.33301 6 -10c3.33301 -6.66699 6.66602 -16.334 9.99902 -29.001s6.33301 -23.5 9 -32.5s5 -14.167 7 -15.5c8.66699 -4 29 -22.667 61 -56z" />
    <glyph glyph-name="finalkaf" unicode="&#x5da;" horiz-adv-x="845" 
d="M226 802c-40 0 -70.3291 6.16895 -90.9961 18.502s-31 36.5 -31 72.5c0 6.66699 1.33301 20 4 40c-25.333 18.667 -38 47 -38 85c0 44 19 104.667 57 182l34 3c20 -98.667 84.667 -148 194 -148c31.333 0 65.166 3.83301 101.499 11.5s69.166 16.167 98.499 25.5
s46 14.333 50 15l36 -37c16 0 32.5 -13 49.5 -39s26.167 -50.667 27.5 -74c-1.33301 -14 -7.83301 -37.333 -19.5 -70s-17.5 -57 -17.5 -73c0 -5.33301 0.333008 -9.33301 1 -12c-4 -50 -6 -95.333 -6 -136c0 -60 5 -133.833 15 -221.5s15.667 -143.834 17 -168.501
c4.66699 -37.333 16.334 -93.5 35.001 -168.5s28 -136.5 28 -184.5c0 -12 -0.333008 -21.333 -1 -28l-16 -144c-11.333 -32 -35.333 -75 -72 -129l-60 39c-4.66699 103.333 -14.834 208 -30.501 314s-31.834 204.167 -48.501 294.5s-27.334 156.5 -32.001 198.5
c-2 18.667 -5.83301 48.167 -11.5 88.5s-10.5 80.166 -14.5 119.499s-6 77 -6 113v36c-21.333 8.66699 -41.666 13 -60.999 13c-18.667 0 -48.334 -6 -89.001 -18s-75 -18 -103 -18z" />
    <glyph glyph-name="kaf" unicode="&#x5db;" horiz-adv-x="934" 
d="M218 1190c28 -38 55.166 -67.6738 81.499 -89.0068s54.5 -32 84.5 -32h2l196 1h7c124.667 0 200 -79.667 226 -239c7.33301 -49.333 12.833 -99.166 16.5 -149.499s7.16699 -114.666 10.5 -192.999s5.66602 -128.166 6.99902 -149.499c3.33301 -33.333 5 -60 5 -80
c0 -21.333 -1.5 -41.166 -4.5 -59.499s-6.33301 -33.833 -10 -46.5s-9.83398 -25.167 -18.501 -37.5l-20.5 -28.5c-5 -6.66699 -14 -14.334 -27 -23.001s-22 -14.5 -27 -17.5s-15.333 -8.5 -31 -16.5l-29.5 -15c-58 -17.333 -117.333 -30.5 -178 -39.5
s-134.5 -16.667 -221.5 -23s-146.5 -11.166 -178.5 -14.499l-18 62c8.66699 54.667 20.834 106.834 36.501 156.501s32.834 78.834 51.501 87.501l61 26c46.667 -1.33301 81.667 -2 105 -2c90 0 168 6.66699 234 20c42.667 4 72.167 17 88.5 39s24.5 51.667 24.5 89
c0 20 -1.66699 43.333 -5 70l-52 236c-22 60.667 -70 91 -144 91c-58.667 0 -147.667 -22.333 -267 -67l-62 -50l-27 24c-0.666992 6 -2.16699 13 -4.5 21s-4.16602 15.667 -5.49902 23s-2 15 -2 23c0 9.33301 1.66699 23 5 41v15.5c0 7.66699 -0.166992 13 -0.5 16
s-1 8 -2 15s-2.33301 13 -4 18s-4 10.833 -7 17.5s-6.83301 13.334 -11.5 20.001c23.333 107.333 62 194 116 260z" />
    <glyph glyph-name="lamed" unicode="&#x5dc;" horiz-adv-x="858" 
d="M164 1780c23.333 -20 41.665 -47.0029 54.998 -81.0029s25 -76.333 35 -127c-38.667 -110.667 -58 -205 -58 -283c0 -48.667 6.33301 -90.667 19 -126s31 -74 55 -116h29c113.333 0 235.666 15 366.999 45l106 -69c8 -38 12 -75.333 12 -112c0 -39.333 -5 -78 -15 -116
l-120 -144c-18 -29.333 -34.333 -60.333 -49 -93s-27.834 -68.167 -39.501 -106.5s-21.167 -71.166 -28.5 -98.499s-16.666 -64.5 -27.999 -111.5l-25 -103.5l-29 -15l-9.5 58l-10 63c-2.33301 15.333 -4.5 34.5 -6.5 57.5s-3 44.833 -3 65.5c0 117.333 34.333 243 103 377
l-9 48l-379 -27c-24.667 71.333 -43.5 137.833 -56.5 199.5s-19.5 129.834 -19.5 204.501c0 30 9.33301 82.333 28 157s29.334 119.334 32.001 134.001c0 32.667 -11.333 49 -34 49c-5.33301 0 -13.666 -1 -24.999 -3s-18.666 -3.33301 -21.999 -4
c-24 0.666992 -38.333 16.667 -43 48c21.333 69.333 43 120.5 65 153.5s56.333 58.5 103 76.5z" />
    <glyph glyph-name="finalmem" unicode="&#x5dd;" horiz-adv-x="914" 
d="M561 831c-8.66699 -0.666992 -20.8311 -1 -36.498 -1s-26.167 -0.333008 -31.5 -1s-14 -2 -26 -4s-22.833 -5.33301 -32.5 -10l-37.5 -18.5c-15.333 -7.66699 -33.333 -17.5 -54 -29.5l-9 -9c-4.66699 -4.66699 -7.83398 -8.33398 -9.50098 -11.001l-7.5 -12
c-3.33301 -5.33301 -5.83301 -11.5 -7.5 -18.5s-3.16699 -14.833 -4.5 -23.5c3.33301 -38 8.66602 -75.833 15.999 -113.5s17.666 -82.667 30.999 -135l27 -107.5c7.33301 -27.333 19.333 -41 36 -41c3.33301 0 6 0.333008 8 1c45.333 8 80.833 17.333 106.5 28
s63.834 31.334 114.501 62.001c2.66699 18 4 43.667 4 77c0 78 -7.5 155.167 -22.5 231.5s-36.5 121.5 -64.5 135.5zM207.003 828c-6.66699 7.33301 -22.332 19.8359 -46.999 37.5029s-44.5 35.667 -59.5 54s-22.5 39.166 -22.5 62.499c0 14.667 7.83301 32.667 23.5 54
s25.5 37 29.5 47c12 38 32 72.333 60 103l31 -2c6.66699 -15.333 15 -28.833 25 -40.5s24.167 -25.167 42.5 -40.5s29.5 -25 33.5 -29h28c48 0 103.667 10 167 30s100.666 30 111.999 30c39.333 0 76.666 -38.833 111.999 -116.5s62.5 -170.5 81.5 -278.5
s28.5 -211.333 28.5 -310v-7c0 -2.66699 -1.33301 -17 -4 -43s-4.66699 -43 -6 -51s-4.16602 -21.5 -8.49902 -40.5s-10 -34.667 -17 -47s-15.5 -23.833 -25.5 -34.5c-106 -114.667 -248.667 -197.334 -428 -248.001c-26.667 3.33301 -40 17.333 -40 42
c0 6.66699 0.333008 11.334 1 14.001c-10.667 32 -26 69.667 -46 113l-52.5 112c-15 31.333 -28.333 72.666 -40 123.999s-17.5 105.666 -17.5 162.999c0 88 13 188.667 39 302z" />
    <glyph glyph-name="mem" unicode="&#x5de;" horiz-adv-x="1056" 
d="M487 984c54 36 104.166 63.9951 150.499 83.9951s93.833 31 142.5 33c41.333 -39.333 75.166 -86.166 101.499 -140.499s44.833 -110.666 55.5 -168.999s18.5 -114.5 23.5 -168.5s10.5 -109.667 16.5 -167s14 -103.333 24 -138
c-3.33301 -108 -66.166 -191.5 -188.499 -250.5s-297.833 -91.5 -526.5 -97.5c-4.66699 14 -7 27.333 -7 40c0 16.667 3.16699 36.5 9.5 59.5s12.666 42.333 18.999 58l30.5 72l29 67.5c187.333 20.667 334.666 57.667 441.999 111v16c0 46.667 -6.66699 98.834 -20 156.501
s-32.666 109.167 -57.999 154.5s-52.333 68.333 -81 69c-30 -1.33301 -65.167 -19.166 -105.5 -53.499s-85.166 -84 -134.499 -149s-97.833 -133.5 -145.5 -205.5l-162.5 -256l-14 44c64.667 238.667 130.667 420.334 198 545.001c4 18 6 34 6 48
c0 22 -5.83301 40.667 -17.5 56s-25.5 27 -41.5 35s-34.333 19.833 -55 35.5s-37.667 33.5 -51 53.5l34 84c5.33301 32.667 11.5 58.5 18.5 77.5s18 39.333 33 61s23.5 34.5 25.5 38.5h64c46.667 -91.333 108.334 -159.333 185.001 -204z" />
    <glyph glyph-name="finalnun" unicode="&#x5df;" horiz-adv-x="586" 
d="M371 591c0 -68.667 7.33203 -135.997 21.999 -201.997l44 -205.5c14.667 -71 22 -146.833 22 -227.5c0 -110 -14.333 -207.333 -43 -292l-53 -42c-46.667 110 -86 239.333 -118 388s-48 299.334 -48 452.001c0 82 6.33301 169 19 261l-124 99
c-5.33301 24.667 -8 50.667 -8 78c0 35.333 5.83301 70 17.5 104s24 60.667 37 80s29.667 42.166 50 68.499s33.5 44.166 39.5 53.499l39 -12c6 -38 16.333 -69.333 31 -94s29.334 -41.667 44.001 -51l53 -33c20.667 -12.667 37 -25.334 49 -38.001
c30 -34.667 45 -67.667 45 -99c0 -24 -7.83301 -48.333 -23.5 -73s-33.667 -49.667 -54 -75s-33.5 -47 -39.5 -65c0 -10 -0.166992 -23.333 -0.5 -40s-0.5 -28.334 -0.5 -35.001z" />
    <glyph glyph-name="nun" unicode="&#x5e0;" horiz-adv-x="692" 
d="M314 1198l34.998 -15.9961c0 -1.33301 -0.166992 -2.66602 -0.5 -3.99902s-0.5 -2.66602 -0.5 -3.99902c0 -12.667 3.33301 -24.834 10 -36.501s16.834 -22.834 30.501 -33.501s26.5 -19.834 38.5 -27.501s28 -17.334 48 -29.001s35 -20.834 45 -27.501
c35.333 -16 53 -43 53 -81c-0.666992 -19.333 -6.83398 -48.833 -18.501 -88.5s-18.167 -62.5 -19.5 -68.5c2.66699 -64 11.5 -134.833 26.5 -212.5s29.5 -139.5 43.5 -185.5l21 -68v-13c0 -50.667 -9.66699 -93.834 -29 -129.501s-43.833 -62.667 -73.5 -81
s-65 -33.666 -106 -45.999s-80.167 -20.833 -117.5 -25.5s-76.5 -11 -117.5 -19s-73.167 -17 -96.5 -27l-38 82c0.666992 36 4.5 68.5 11.5 97.5s13.5 49.5 19.5 61.5s16.833 29.333 32.5 52s25.167 37 28.5 43l228 55c10.667 10.667 17.834 19.167 21.501 25.5
s10.5 21.833 20.5 46.5c-1.33301 42.667 -4 82 -8 118s-8.16699 66.833 -12.5 92.5s-11.333 50.5 -21 74.5s-17.667 42.833 -24 56.5s-16.666 29.5 -30.999 47.5s-24.833 30.833 -31.5 38.5s-19 20.167 -37 37.5l-38 37c2.66699 73.333 12 127.166 28 161.499
s42.333 66.5 79 96.5z" />
    <glyph glyph-name="samekh" unicode="&#x5e1;" horiz-adv-x="951" 
d="M309 598c8.66699 -48.667 19.8311 -93.002 33.498 -133.002s26.834 -72.167 39.501 -96.5s28 -47.166 46 -68.499s32.333 -36.5 43 -45.5s24.334 -19.833 41.001 -32.5l48 26c28.667 22.667 60 54.667 94 96s58.333 78.666 73 111.999v18v22.5v19.5
c0 32.667 -1.83301 64.5 -5.5 95.5s-9.16699 60.833 -16.5 89.5s-17.833 51.834 -31.5 69.501s-29.5 26.834 -47.5 27.501l-236 -34c-21.333 -6.66699 -40.333 -25 -57 -55s-25 -61 -25 -93c0 -8 0.333008 -14 1 -18zM174.997 1200l35.001 -17.9971
c0.666992 -76 54.334 -114 161.001 -114c6 0 14.333 0.166992 25 0.5s18 0.5 22 0.5l361 1c63.333 -72 95 -185.333 95 -340c0 -32.667 -1.5 -66.667 -4.5 -102s-6.5 -66.5 -10.5 -93.5s-8 -51.667 -12 -74s-7.66699 -39.833 -11 -52.5l-4 -20
c-22.667 -57.333 -46.667 -108.833 -72 -154.5s-48.166 -81.834 -68.499 -108.501s-42.833 -51.167 -67.5 -73.5s-44.834 -38.5 -60.501 -48.5s-34.334 -21.167 -56.001 -33.5s-37.167 -21.833 -46.5 -28.5l-85 8c-134 156 -201 317.667 -201 485
c0 81.333 19.333 173.333 58 276c2 5.33301 3.33301 9.33301 4 12c-2.66699 4.66699 -7.83398 14.5 -15.501 29.5s-14 26.167 -19 33.5s-12.333 17.166 -22 29.499s-21.5 23.5 -35.5 33.5s-30.333 20 -49 30c-11.333 42.667 -17 73.667 -17 93c0 24 5 45 15 63
c15.333 83.333 42.333 138.666 81 165.999z" />
    <glyph glyph-name="ayin" unicode="&#x5e2;" horiz-adv-x="1107" 
d="M866 1137c2.66699 -12.667 6.16699 -24.666 10.5 -35.999s8.16602 -20.833 11.499 -28.5s8.5 -15.667 15.5 -24l15 -18c3 -3.66699 9.16699 -8.83398 18.5 -15.501s15 -10.667 17 -12s8.33301 -5.16602 19 -11.499s16.667 -9.83301 18 -10.5
c28 -33.333 42 -69.333 42 -108c0 -14 -2.16699 -29.833 -6.5 -47.5s-8.33301 -31.334 -12 -41.001s-10.667 -26.834 -21 -51.501l-19.5 -46l-55 -36c-51.333 -132.667 -87.666 -221.334 -108.999 -266.001c-90.667 -191.333 -206.334 -330.333 -347.001 -417
c-111.333 -68.667 -241.666 -109 -390.999 -121l-22 30l43 291l219 48c0 9.33301 0.5 24.833 1.5 46.5s1.66699 43 2 64s0.5 41.167 0.5 60.5c0 314 -47 471 -141 471c-2.66699 0 -5.16699 1 -7.5 3s-4.33301 4.83301 -6 8.5s-3.16699 7.33398 -4.5 11.001
s-2.66602 8.66699 -3.99902 15s-2.33301 11.5 -3 15.5l-3 17.5c-1.33301 7.66699 -2.33301 13.167 -3 16.5c4.66699 37.333 11.167 66.166 19.5 86.499s17.166 34 26.499 41s21.666 20.833 36.999 41.5s30 47.334 44 80.001h41v-2c0 -6.66699 0.5 -12.834 1.5 -18.501
s2.66699 -11.834 5 -18.501s4.33301 -12 6 -16s4.83398 -9.66699 9.50098 -17s8 -12.333 10 -15l12 -16.5c6 -8.33301 9.66699 -13.5 11 -15.5l127 -82c0.666992 -8 1 -19.667 1 -35c0 -114.667 -30 -200 -90 -256c10 -34 18.833 -72.167 26.5 -114.5
s13.167 -78.166 16.5 -107.499s7.5 -70 12.5 -122s8.83301 -89.333 11.5 -112c25.333 18 51.5 41 78.5 69s50.667 54.833 71 80.5s44.5 59.834 72.5 102.501s49.667 76.667 65 102l66 111c-7.33301 11.333 -17.833 24.5 -31.5 39.5l-35.5 39c-10 11 -19 25.333 -27 43
s-12 36.5 -12 56.5c0 30.667 8.33301 65.334 25 104.001l108 192z" />
    <glyph glyph-name="finalpe" unicode="&#x5e3;" horiz-adv-x="845" 
d="M123 272c-24 9.33301 -35.9961 33.6729 -35.9961 73.0059v9c0 20.667 3.83301 41.667 11.5 63s14.834 37.166 21.501 47.499s16.334 24.166 29.001 41.499c2 3.33301 3.66699 5.66602 5 6.99902c-16.667 45.333 -25 98 -25 158c0 67.333 11.667 130.5 35 189.5
s48.333 105.167 75 138.5l17 20l6 38l2 17c2 10.667 4.83301 23.667 8.5 39s8.16699 30.666 13.5 45.999s12.333 28.5 21 39.5s18 16.5 28 16.5h14l14 -29c2.66699 -10 10.5 -24 23.5 -42s26.5 -30 40.5 -36l112 -46c43.333 -23.333 72.666 -42.333 87.999 -57
c48 -45.333 72 -117.333 72 -216c0 -110.667 8.66699 -234.5 26 -371.5s34.666 -257.667 51.999 -362s26 -172.166 26 -203.499c-3.33301 -36.667 -8.66602 -70.334 -15.999 -101.001s-13.833 -52.834 -19.5 -66.501s-12.834 -28.834 -21.501 -45.501
s-13 -25.334 -13 -26.001l-14 -29l-59 75c-16.667 52 -27.834 102.167 -33.501 150.5s-8.33398 95.333 -8.00098 141s-4.33398 123.667 -14.001 234s-25.167 237.5 -46.5 381.5c-16.667 95.333 -37.834 164 -63.501 206s-63.167 63 -112.5 63
c-16 0 -33.333 -8.16699 -52 -24.5s-28 -39.166 -28 -68.499v-13c0 -24.667 4.5 -43.5 13.5 -56.5s18.833 -20.5 29.5 -22.5s20.5 -5.5 29.5 -10.5s13.5 -12.833 13.5 -23.5v-20c0.666992 -7.33301 3.33398 -25 8.00098 -53s7 -48 7 -60c0 -29.333 -5.33301 -55.333 -16 -78
s-28 -47 -52 -73h-24c-4 1.33301 -14.667 2 -32 2c-33.333 -0.666992 -60.333 -5.5 -81 -14.5s-36.834 -18.833 -48.501 -29.5s-20.5 -16.667 -26.5 -18z" />
    <glyph glyph-name="pe" unicode="&#x5e4;" horiz-adv-x="879" 
d="M174 527c0 29.333 -6.16211 56.5039 -18.4951 81.5039s-18.5 45.5 -18.5 61.5c0 17.333 1.83301 33.5 5.5 48.5s8.5 31.333 14.5 49s10.333 33.167 13 46.5c12.667 77.333 48 150 106 218c7.33301 20.667 22.666 49.167 45.999 85.5s40 65.833 50 88.5l27 -16
c9.33301 -51.333 21.666 -86 36.999 -104c41.333 -8 79.166 -21.5 113.499 -40.5s63.166 -40.333 86.499 -64s44.666 -52.334 63.999 -86.001s34.333 -65.334 45 -95.001s20.667 -64.167 30 -103.5s16 -72.166 20 -98.499l13.5 -92.5c5 -35.333 8.83301 -60 11.5 -74
c7.33301 -32.667 11 -64.334 11 -95.001c0 -82.667 -26.667 -163 -80 -241c-67.333 -42.667 -152 -74.5 -254 -95.5s-204.333 -31.5 -307 -31.5c-46.667 0 -88.334 2 -125.001 6v5c0 104 24 211 72 321c72 -2.66699 126 -4 162 -4c25.333 -1.33301 43.666 -2 54.999 -2
c122.667 0 229.334 26.333 320.001 79v22c0 108 -27.667 202 -83 282s-123 120 -203 120h-5c-4 -0.666992 -10.5 -1 -19.5 -1s-15.667 -0.333008 -20 -1s-10 -2.66699 -17 -6s-12.167 -7.83301 -15.5 -13.5s-6.33301 -14.167 -9 -25.5s-4 -25.333 -4 -42v-5l28.5 -10
c17 -6 28.667 -10.5 35 -13.5s16.5 -8.33301 30.5 -16s24.167 -15.334 30.5 -23.001s12.333 -17.5 18 -29.5s8.5 -25.333 8.5 -40c0 -52 -14.667 -94.833 -44 -128.5s-67.666 -50.834 -114.999 -51.501c-22 0.666992 -40.833 4.16699 -56.5 10.5s-27.167 13 -34.5 20
s-17 18.167 -29 33.5c0 10 0.666992 22.5 2 37.5s2 26.167 2 33.5z" />
    <glyph glyph-name="finaltsadi" unicode="&#x5e5;" horiz-adv-x="866" 
d="M331 1107c19.333 -9.33301 34.3359 -22 45.0029 -38v-27c0 -116 -23 -194.333 -69 -235c4 -81.333 25.667 -157.333 65 -228c24.667 80.667 67 163.667 127 249v19c0 38.667 3 73.5 9 104.5s13.167 55.833 21.5 74.5s19 35.334 32 50.001s24.5 25.334 34.5 32.001
s21.667 13.334 35 20.001c38.667 -85.333 93.667 -140.333 165 -165c-17.333 -104 -46.666 -187 -87.999 -249c-19.333 8.66699 -38 13 -56 13c-44.667 0 -86.834 -25.333 -126.501 -76s-79.834 -121.667 -120.501 -213c73.333 -190 110 -370 110 -540
c0 -86 -10.333 -172 -31 -258l-38 12c-10 80.667 -25.833 158 -47.5 232s-43.834 138.667 -66.501 194l-66.5 169c-21.667 57.333 -39.334 122.166 -53.001 194.499s-20.5 150.166 -20.5 233.499v72c-50.667 30.667 -83.667 63.667 -99 99c-8.66699 45.333 -13 81 -13 107
c0 37.333 8.5 78.166 25.5 122.499s36.833 67.833 59.5 70.5c6 -22 15 -40.333 27 -55s25.333 -22 40 -22h16c20 0 36 2.16699 48 6.5s23.667 14.833 35 31.5z" />
    <glyph glyph-name="tsadi" unicode="&#x5e6;" horiz-adv-x="1012" 
d="M607 839c-6.66699 32.667 -10 66.3379 -10 101.005c0 27.333 3 51 9 71c12.667 22.667 19.667 36.334 21 41.001l101 120l12 -37c10.667 -31.333 27.5 -57.5 50.5 -78.5s45.167 -35.333 66.5 -43s40.333 -16.834 57 -27.501s25 -23.334 25 -38.001v-37
c-22.667 -94.667 -60.334 -162.667 -113.001 -204l-61 38h-14c-18.667 0 -35.834 -4.33301 -51.501 -13s-29 -20.5 -40 -35.5s-20.833 -30.833 -29.5 -47.5s-15.834 -34.667 -21.501 -54s-10.167 -35.833 -13.5 -49.5s-6 -26.834 -8 -39.501l-3 -19l10 -35
c10.667 -24 24.334 -45 41.001 -63s32.667 -32.333 48 -43l45 -31.5c14.667 -10.333 26.834 -22 36.501 -35s15.5 -28.167 17.5 -45.5v-2c0 -18.667 -4.16699 -42 -12.5 -70s-21.166 -49.667 -38.499 -65c-58.667 -46.667 -143.334 -81.5 -254.001 -104.5
s-222.334 -34.5 -335.001 -34.5h-96l10 33c8 27.333 18.167 55.166 30.5 83.499s25.5 56.333 39.5 84s22.667 45.167 26 52.5c4 15.333 10 27.666 18 36.999s14 14.666 18 15.999l18 6h3c82 0 141.833 3.66699 179.5 11s65.167 19 82.5 35c-1.33301 1.33301 -7 6 -17 14
s-17.167 14.167 -21.5 18.5l-17.5 18c-7.33301 7.66699 -13 14.834 -17 21.501l-64 94c-22 37.333 -38.333 79 -49 125s-16 87.333 -16 124v18c-35.333 13.333 -65 32.666 -89 57.999s-38.667 50 -44 74v12c0 14 2 26.667 6 38l20 63c16.667 51.333 33.667 96 51 134l19 37
h10c0.666992 -0.666992 2.16699 -1 4.5 -1s4.83301 -0.666992 7.5 -2s5.33398 -4.33301 8.00098 -9l25 -38c10 -15.333 17 -25.833 21 -31.5s9.5 -13 16.5 -22s13.667 -15.667 20 -20l23.5 -15.5c9.33301 -6 20.666 -12.333 33.999 -19c12.667 -6 20.834 -16.667 24.501 -32
s5.5 -39 5.5 -71v-26c0 -33.333 -1.33301 -58.666 -4 -75.999s-4 -27 -4 -29c2 -52 19.333 -107.333 52 -166c12.667 75.333 56.334 152.666 131.001 231.999z" />
    <glyph glyph-name="kof" unicode="&#x5e7;" horiz-adv-x="868" 
d="M644 748v16.9941c0 9.33301 -0.5 16.5 -1.5 21.5s-5 9.83301 -12 14.5s-17.167 7 -30.5 7c-90.667 0 -156.334 -5.33301 -197.001 -16l-50 -14l-8 -27l-21 -82c-2 -11.333 -3 -28.666 -3 -51.999c0 -8 -0.5 -18.167 -1.5 -30.5s-1.5 -21.166 -1.5 -26.499
c0 -56 14.167 -137.5 42.5 -244.5s42.5 -192.167 42.5 -255.5c0 -24 0.833008 -48.167 2.5 -72.5s2.5 -47.166 2.5 -68.499v-47c0 -88 -11 -165.333 -33 -232l-12 -39l-81 93c4 26 6 48 6 66c0 51.333 -8 109.666 -24 174.999s-33.333 124.5 -52 177.5s-36 112.667 -52 179
s-24 125.833 -24 178.5c0 26 1.5 51.833 4.5 77.5s6.16699 47.334 9.5 65.001s8.16602 36.834 14.499 57.501s11.333 35.667 15 45l15 37.5c6.33301 15.667 9.83301 24.167 10.5 25.5c-0.666992 8.66699 -1.83398 16.5 -3.50098 23.5s-4.16699 12.833 -7.5 17.5l-8.5 11.5
c-2.33301 3 -6.16602 5.5 -11.499 7.5s-9 3.33301 -11 4s-6 1.5 -12 2.5s-9.66699 1.5 -11 1.5h-40c-6.66699 7.33301 -10.667 15.333 -12 24s-2 28.334 -2 59.001v34c0 55.333 3.83301 96 11.5 122s26.167 58 55.5 96l27 35h9c2 -0.666992 4.16699 -1.5 6.5 -2.5
s4 -1.66699 5 -2s2.33301 -1.33301 4 -3s3.5 -4.16699 5.5 -7.5c4.66699 -6.66699 14.5 -27.667 29.5 -63s24.833 -55.666 29.5 -60.999l19 -16c7.33301 -3.33301 24.666 -5 51.999 -5c55.333 0 116.833 3.16699 184.5 9.5s110.5 12.166 128.5 17.499l50 18l21.5 -33.5
c11 -17 19.333 -31.333 25 -43s12.334 -27.834 20.001 -48.501s13.334 -44.667 17.001 -72s5.5 -58 5.5 -92c-1.33301 -61.333 -4.66602 -97.333 -9.99902 -108l-11 -31l-26 -55c-3.33301 -6 -7.5 -14 -12.5 -24s-8.83301 -17.333 -11.5 -22s-7.16699 -10.5 -13.5 -17.5
s-13.833 -13.5 -22.5 -19.5c-10.667 -2.66699 -21 -5.83398 -31 -9.50098s-21 -9 -33 -16l-31.5 -18.5c-9 -5.33301 -21.5 -14.166 -37.5 -26.499l-37.5 -29l-45.5 -36l-49 -39.5h-7c-18.667 0 -28 11.333 -28 34c0 0.666992 -0.166992 2.83398 -0.5 6.50098
s-0.5 6.5 -0.5 8.5c0 24.667 12 53.5 36 86.5s50.5 62.833 79.5 89.5l86.5 81.5c28.667 27.667 46 47.834 52 60.501z" />
    <glyph glyph-name="resh" unicode="&#x5e8;" horiz-adv-x="932" 
d="M120 745c-0.666992 0.666992 -3.33203 3.83496 -7.99902 9.50195s-7.66699 9.66699 -9 12s-3.66602 6.66602 -6.99902 12.999s-5.5 12.166 -6.5 17.499s-2.16699 12.666 -3.5 21.999s-2 19.666 -2 30.999c0 16.667 2 33.334 6 50.001s6 32 6 46c-2 16 -3 31.333 -3 46
c0 31.333 3.33301 60.166 10 86.499s14.667 47.5 24 63.5s19.5 29.667 30.5 41s20.833 19.166 29.5 23.499s15.334 6.5 20.001 6.5c0.666992 0 2.66699 -2.16699 6 -6.5s6.66602 -9.16602 9.99902 -14.499s5 -9 5 -11v4c3.33301 -10 15.166 -26.833 35.499 -50.5
s45.166 -45.167 74.499 -64.5h299c39.333 -5.33301 71.833 -17.833 97.5 -37.5s43.834 -53.5 54.501 -101.5l11 -49c37.333 -178.667 56 -347 56 -505c-0.666992 -14 -1.33398 -32.833 -2.00098 -56.5s-1.33398 -42.667 -2.00098 -57s-1 -23.5 -1 -27.5
c-0.666992 -38 -4.16699 -71.833 -10.5 -101.5s-13.666 -52.667 -21.999 -69s-18 -29.666 -29 -39.999s-20.667 -17.166 -29 -20.499s-16.166 -5 -23.499 -5h-27v27c0 7.33301 -9.33301 96 -28 266s-29.667 262.333 -33 277c-2.66699 9.33301 -6 23.833 -10 43.5
s-7.83301 36.667 -11.5 51s-7.5 23.833 -11.5 28.5l-9 27c-12.667 26.667 -27.334 44 -44.001 52s-40.667 12 -72 12h-27c-72.667 0 -131 -6.5 -175 -19.5s-84.667 -19.5 -122 -19.5h-47z" />
    </font>
</defs>
</svg>
