<?xml version="1.0" standalone="no"?>
<!DOCTYPE svg PUBLIC "-//W3C//DTD SVG 1.1//EN" "http://www.w3.org/Graphics/SVG/1.1/DTD/svg11.dtd" >
<svg xmlns="http://www.w3.org/2000/svg" xmlns:xlink="http://www.w3.org/1999/xlink" version="1.1">
<metadata>
Created by FontForge 20170910 at Fri Oct 13 04:39:27 2017
 By Jimmy Wärting
Copyright .51 2002-2004 by Maxim Iorsh (iorsh@math.technion.ac.il). Distributed under the terms of GNU General Public License version 2(http://www.gnu.org/licenses/gpl.html). 
All rights reserved.
</metadata>
<defs>
<font id="KtavYadCLM-MediumItalic" horiz-adv-x="701" >
  <font-face 
    font-family="Ktav Yad CLM"
    font-weight="500"
    font-style="italic"
    font-stretch="normal"
    units-per-em="1000"
    panose-1="2 0 6 3 0 0 0 0 0 0"
    ascent="800"
    descent="-200"
    bbox="-405.032 -609.444 1124.38 1059.81"
    underline-thickness="50"
    underline-position="-150"
    slope="-22"
    unicode-range="U+0020-05F4"
  />
<missing-glyph horiz-adv-x="1000" 
 />
    <glyph glyph-name=".notdef" horiz-adv-x="1000" 
 />
    <glyph glyph-name=".null" horiz-adv-x="0" 
 />
    <glyph glyph-name="nonmarkingreturn" horiz-adv-x="333" 
 />
    <glyph glyph-name="space" unicode=" " 
 />
    <glyph glyph-name="exclam" unicode="!" horiz-adv-x="223" 
d="M169 110q16 -10 18 -41.5t-8 -45.5q-23 -38 -60 -18q-18 10 -23.5 29t4.5 46q11 28 31 35t38 -5zM191 294q23 109 72 241q10 28 19.5 52t19.5 46t19 41t22 47.5t24 53.5q28 62 65 49q11 -4 14.5 -17t0.5 -28t-10 -29q-60 -130 -98 -229q-14 -37 -27 -75t-25.5 -77
t-22.5 -66q-8 -22 -18 -42t-23.5 -34t-24.5 -11q-11 2 -12 29t5 49z" />
    <glyph glyph-name="quotedbl" unicode="&#x22;" horiz-adv-x="325" 
d="M349 452q51 120 102 197q11 16 17.5 24t18.5 15t24 2q18 -7 19 -31t-11 -42q-11 -18 -25.5 -43.5t-25 -43t-23 -40t-22.5 -41.5q-28 -53 -58 -46q-14 3 -18.5 19t2.5 30zM185 452q27 96 110 218q39 57 61 40q16 -11 18.5 -30.5t-8.5 -35.5q-30 -49 -44 -72.5t-31.5 -57.5
t-33.5 -72q-23 -55 -54 -46q-15 4 -19.5 22t1.5 34z" />
    <glyph glyph-name="quotesingle" unicode="'" horiz-adv-x="193" 
d="M185 523q50 58 162 169q32 31 54 10q12 -14 8.5 -30.5t-17.5 -30.5q-20 -19 -51 -53.5t-58 -60.5t-58 -49q-20 -15 -41 3q-6 7 -5.5 21t6.5 21z" />
    <glyph glyph-name="parenleft" unicode="(" horiz-adv-x="295" 
d="M126 -82q-16 85 -3 202t53 218q39 100 98 176.5t138 145.5q53 46 78 20q10 -10 8 -23t-9 -25t-19 -22q-157 -140 -216 -283q-73 -177 -70 -387q1 -53 -2 -78.5t-14 -29.5q-13 -5 -24.5 22.5t-17.5 63.5z" />
    <glyph glyph-name="parenright" unicode=")" horiz-adv-x="239" 
d="M316 594q22 -227 -50 -420q-37 -101 -94.5 -175.5t-141.5 -146.5q-57 -49 -78 -20q-4 5 -4 11t2.5 10.5t8 9.5t10.5 9t12 9.5t11 9.5q69 65 122 147.5t79 152.5q35 94 45 182.5t4 209.5q-2 32 -1 52t6.5 30t15.5 12q18 4 34 -24t19 -59z" />
    <glyph glyph-name="comma" unicode="," horiz-adv-x="189" 
d="M-62 -109q34 25 51 41t33 39q14 20 30.5 49.5t21.5 37.5q8 14 22 19.5t28 -0.5q11 -4 18 -16t5 -25q-9 -48 -59 -106q-46 -53 -115 -86q-46 -22 -56 4q-4 9 2.5 21.5t18.5 21.5z" />
    <glyph glyph-name="hyphen" unicode="-" horiz-adv-x="430" 
d="M107 241q-2 14 10 24.5t28 12.5q140 13 291 11q20 -1 34.5 -12t14.5 -28q0 -18 -13 -26t-31 -8q-113 3 -290 -1q-39 -1 -44 27z" />
    <glyph glyph-name="period" unicode="." horiz-adv-x="188" 
d="M134 110q16 -10 18 -41.5t-8 -45.5q-23 -38 -60 -18q-18 10 -23.5 29t4.5 46q11 28 31 35t38 -5z" />
    <glyph glyph-name="slash" unicode="/" horiz-adv-x="602" 
d="M750 838q13 18 29 26.5t31 -0.5q15 -11 14.5 -29t-11.5 -35q-168 -232 -432 -573.5t-414 -518.5q-44 -52 -69 -29q-6 6 -7.5 13t3 15.5t8.5 14.5t13 17q3 3 4 5q162 201 423.5 544t407.5 550z" />
    <glyph glyph-name="zero" unicode="0" horiz-adv-x="588" 
d="M268 361q-35 -46 -60.5 -121.5t-11.5 -133.5q6 -25 24.5 -35t44 -6.5t49.5 11.5t49 21q193 98 264 280q10 24 13.5 50.5t-3 55t-23.5 45.5q-34 32 -112 -8q-46 -23 -127 -96q-9 -7 -24.5 -23.5t-24 -24t-24.5 -13t-34 -2.5zM576 616q58 1 90.5 -39t38.5 -99
q13 -128 -95 -268q-64 -83 -154 -144q-113 -77 -208 -74q-48 1 -82 33.5t-40 82.5q-13 97 40 218q48 110 129 184q15 14 36.5 15t34.5 -12q51 53 107.5 77.5t102.5 25.5z" />
    <glyph glyph-name="one" unicode="1" horiz-adv-x="428" 
d="M76 182q-9 15 -5.5 32.5t18.5 24.5q49 23 177 77q88 37 152 91q25 22 74 102q24 39 59 91q7 10 20.5 9.5t22.5 -9.5q19 -19 -2 -58q-29 -54 -98.5 -151.5t-101.5 -148.5q-76 -124 -130 -229q-19 -38 -46 -31q-13 3 -19.5 15.5t-1.5 24.5q39 88 137 243q-128 -63 -218 -95
q-26 -9 -38 12z" />
    <glyph glyph-name="two" unicode="2" horiz-adv-x="601" 
d="M276 487q43 66 120 102q50 23 101 29.5t84 -6.5q46 -19 56 -69t-18 -103q-31 -62 -74 -97.5t-116 -67.5q-112 -50 -176 -97q-5 -3 -21.5 -14.5t-21.5 -16t-16 -14t-18.5 -18t-15.5 -19.5q-6 -6 -2 -13t19 -7q57 0 155.5 -1.5t171.5 -0.5q23 0 40 -9t17 -27t-17 -28
t-39 -10q-36 0 -98 -0.5t-95 -0.5t-83.5 1.5t-99.5 4.5q-62 4 -58 61q1 23 11 43.5t22.5 35t34.5 33.5q41 36 105.5 79t133.5 73q68 30 111.5 61t66.5 81q19 45 11 63.5t-35 16.5q-77 -7 -138 -48q-40 -27 -79 -90q-12 -17 -28 -11.5t-23 24.5q-9 27 12 60z" />
    <glyph glyph-name="three" unicode="3" horiz-adv-x="666" 
d="M189 436q6 24 21.5 47t27 34.5t30.5 27.5q39 34 94.5 48t99.5 14q24 0 42.5 -2.5t36.5 -8.5t33 -18.5t26 -30.5q12 -20 14 -43.5t-12.5 -55.5t-47.5 -62q-15 -13 4 -24q8 -5 21.5 -12.5t22 -12t20 -13t20 -17t17.5 -21t16 -28.5q25 -53 13 -107t-57 -89q-92 -72 -233 -72
q-154 0 -250 52q-20 11 -30.5 29t0.5 35q6 8 16 10.5t23 -1t23 -7.5t24.5 -10.5t19.5 -8.5q81 -32 170 -30q125 3 192 57q38 35 31.5 79t-44.5 71q-20 14 -43 23.5t-35.5 12t-42.5 6t-38 4.5q-26 4 -30 28q-5 30 20 40q69 26 112.5 71t3.5 70q-61 38 -187 -21
q-67 -31 -98 -93q-19 -38 -36 -16q-16 20 -10 45z" />
    <glyph glyph-name="four" unicode="4" horiz-adv-x="529" 
d="M443 590q13 16 31.5 21t34.5 -7q11 -11 9.5 -26t-12.5 -28q-25 -29 -131.5 -138.5t-142.5 -143.5q-21 -19 -18.5 -30.5t25.5 -10.5q96 3 183 23q49 11 94 29q24 46 52 113q7 16 22.5 22.5t30.5 -2.5q27 -17 13 -49q-93 -216 -189 -356q-1 -1 -6.5 -9.5t-7.5 -11t-7 -7
t-9.5 -5.5t-10.5 0q-17 4 -27 21t-1 31q68 109 101 175q-113 -32 -193 -39q-83 -7 -146 4q-25 4 -37 31.5t4 45.5q33 37 171.5 175t166.5 172z" />
    <glyph glyph-name="five" unicode="5" 
d="M60 88q8 12 22.5 15t27.5 -5q79 -50 171 -54q111 -5 169 60q23 26 31.5 60t-1.5 65t-38 47q-23 13 -54 17t-59 2t-63 0q-23 1 -32.5 11t-8.5 21t7 23q47 91 123 185q10 12 20 21t21 15t23.5 10t28.5 6q29 5 99 11.5t156 11.5t129 2q12 -1 21.5 -5.5t16 -13t6.5 -19.5
q0 -16 -13.5 -27t-30.5 -10q-159 6 -376 -23q-38 -5 -55 -28q-48 -66 -58 -84q-7 -11 -4.5 -23t18.5 -13q152 -10 192 -107q23 -57 2.5 -119.5t-73.5 -101.5q-68 -50 -158 -54q-81 -3 -162 21q-40 12 -90 47q-9 6 -11.5 16.5t3.5 19.5z" />
    <glyph glyph-name="six" unicode="6" horiz-adv-x="598" 
d="M212 140q22 -45 62 -67t83 -19.5t89 14.5q34 11 62.5 36t37.5 56q10 32 -0.5 62t-38.5 43q-32 15 -60 16t-74 -11q-90 -25 -161 -130zM550 612q16 4 30 -3.5t18 -22.5q2 -7 1 -14.5t-5 -13.5t-10 -10.5t-13 -6.5q-86 -25 -168 -67q-68 -35 -134 -111q-13 -15 -26.5 -36.5
t-25 -51t-13.5 -53.5q63 86 152 113q67 22 132 9t103 -57q31 -36 31.5 -94t-33.5 -110q-72 -105 -243 -103q-107 2 -166 72q-61 72 -50 174q11 108 118 226q56 61 167 112q75 34 135 48z" />
    <glyph glyph-name="seven" unicode="7" horiz-adv-x="547" 
d="M198 540q-1 15 9.5 25t25.5 12q40 5 117.5 6.5t124.5 6.5q34 3 65 7.5t68 10.5t65 10q29 4 46 -14t-2 -42q-19 -22 -48.5 -54.5t-49.5 -56t-44 -53.5q-45 -57 -124 -174q-86 -128 -137 -216q-8 -16 -24.5 -20.5t-31.5 4.5q-19 13 -3 44q31 59 113 183q-15 -1 -44.5 -4.5
t-39.5 -4t-40.5 -2t-47.5 -0.5q-10 1 -18.5 6t-13 14t-4.5 19q1 15 11.5 26t24.5 11q7 0 19 -1q52 0 76.5 1t59 5t69.5 13q34 45 154 194q10 14 5.5 20.5t-19.5 5.5q-35 -1 -88 -5.5t-84 -6.5q-74 -4 -152 -7q-16 -1 -27 10.5t-11 26.5z" />
    <glyph glyph-name="eight" unicode="8" horiz-adv-x="521" 
d="M394 334q90 17 142 60q29 24 42.5 52t5.5 52q-17 50 -100 50q-45 0 -90 -41q-30 -26 -55 -12q-1 -36 14 -79q16 -46 41 -82zM362 250q-55 -17 -104.5 -44.5t-77.5 -57.5q-22 -24 -12.5 -55.5t45.5 -40.5q39 -10 82 -2.5t75 32.5q61 47 -8 168zM321 525q1 24 49 54.5
t95 32.5q152 7 180 -87q16 -53 -2.5 -104.5t-66.5 -88.5q-8 -6 -16 -11t-15 -9t-17 -8t-16.5 -6.5t-19 -6.5t-19.5 -6t-22.5 -6.5t-23.5 -6.5q18 -28 29 -58.5t10.5 -71t-19.5 -75.5q-14 -26 -45.5 -45t-69.5 -27.5t-81 -8.5q-35 0 -65 8t-56.5 31.5t-34.5 59.5
q-4 23 1.5 44.5t20.5 41t28 32t34 29.5q68 55 147 80q-16 24 -26.5 43t-18 40t-13.5 47q-21 85 33 90q13 1 20 -7z" />
    <glyph glyph-name="nine" unicode="9" horiz-adv-x="554" 
d="M576 415q19 80 -10 109q-24 24 -55.5 26t-62.5 -12q-57 -20 -90 -86q-21 -39 -14.5 -63.5t26 -35.5t50.5 -11q66 -2 134 46q19 14 22 27zM98 158q13 7 27 1.5t19 -18.5q39 -92 143 -89q85 2 177 88q16 15 29 32.5t23.5 38.5t19 43t16.5 51q-67 -39 -153 -37
q-50 1 -81.5 25.5t-40 60t-1 77t30.5 78.5q33 54 90.5 81.5t122.5 26.5q107 -1 130 -104q5 -17 3 -68.5t-11 -93.5q-23 -102 -63 -173q-104 -184 -285 -192q-164 -8 -212 124q-6 14 -1.5 28t17.5 20z" />
    <glyph glyph-name="colon" unicode=":" horiz-adv-x="200" 
d="M145 110q16 -10 18 -41.5t-8 -45.5q-23 -38 -60 -18q-18 10 -23 29t5 46q11 28 30.5 35t37.5 -5zM267 446q16 -10 18.5 -41.5t-7.5 -45.5q-23 -38 -61 -17q-17 9 -22.5 28.5t4.5 46.5q11 27 30.5 34.5t37.5 -5.5z" />
    <glyph glyph-name="semicolon" unicode=";" horiz-adv-x="194" 
d="M-57 -109q34 25 51 41t33 39q14 20 30.5 49.5t21.5 37.5q8 14 22 19.5t28 -0.5q11 -4 18 -16t5 -25q-9 -48 -59 -106q-46 -53 -115 -86q-46 -22 -56 4q-4 9 2.5 21.5t18.5 21.5zM269 446q16 -10 18.5 -41.5t-7.5 -45.5q-23 -38 -61 -17q-17 9 -22.5 28.5t4.5 46.5
q11 27 30.5 34.5t37.5 -5.5z" />
    <glyph glyph-name="question" unicode="?" horiz-adv-x="529" 
d="M330 110q16 -10 18.5 -41.5t-7.5 -45.5q-24 -38 -61 -18q-17 10 -22.5 29t4.5 46q11 28 30.5 35t37.5 -5zM257 704q20 40 49.5 73.5t59.5 53.5q90 59 187 55q136 -7 176 -119q15 -48 7 -101t-36 -100q-40 -67 -151 -146q-94 -66 -127 -125q-5 -9 -14 -35t-19 -36.5
t-27 -7.5q-34 6 -21 73q9 45 47 87.5t98 86.5q37 28 51.5 39t41.5 34t42 43t24 41q48 110 -14 165q-29 25 -85.5 25.5t-107.5 -24.5q-50 -24 -113 -117q-10 -15 -24.5 -21.5t-30.5 0.5q-14 8 -17.5 24.5t4.5 31.5z" />
    <glyph glyph-name="afii57645" unicode="&#x5be;" horiz-adv-x="407" 
d="M158 434q-2 11 5 21.5t19 12.5q94 14 303 22q20 1 35 -9.5t16 -28.5q1 -16 -9 -21t-28 -6q-261 -8 -295 -10q-7 -1 -14.5 -0.5t-13.5 1.5t-11 5.5t-7 12.5z" />
    <glyph glyph-name="afii57658" unicode="&#x5c3;" horiz-adv-x="200" 
d="M145 110q16 -10 18 -41.5t-8 -45.5q-23 -38 -60 -18q-18 10 -23 29t5 46q11 28 30.5 35t37.5 -5zM267 446q16 -10 18.5 -41.5t-7.5 -45.5q-23 -38 -61 -17q-17 9 -22.5 28.5t4.5 46.5q11 27 30.5 34.5t37.5 -5.5z" />
    <glyph glyph-name="afii57664" unicode="&#x5d0;" horiz-adv-x="704" 
d="M684 425q12 -9 18 -23.5t2 -24.5q-7 -15 -21.5 -19t-30.5 4q-84 38 -156 -4q-53 -30 -80.5 -78t-21.5 -107q2 -28 13.5 -51t25.5 -37t32 -24.5t30.5 -14.5t23.5 -6q13 -2 23.5 -3t23.5 -1t17.5 0.5t22.5 2t22 1.5q11 1 20.5 -5.5t7.5 -21.5q-3 -20 -68 -29q-34 -5 -86 4
t-91 34q-92 58 -93 160q0 65 33.5 129.5t108.5 109.5q49 29 115.5 31t108.5 -27zM510 983q8 11 23 11.5t25 -9.5q7 -7 8.5 -18t-1.5 -22t-6 -18t-5 -10q-33 -56 -98 -194.5t-117 -266.5q-136 -332 -223 -443q-16 -20 -23 -24.5t-21 1.5q-17 13 0 44q83 156 217 488
q139 345 221 461z" />
    <glyph glyph-name="afii57665" unicode="&#x5d1;" horiz-adv-x="770" 
d="M179 446q43 34 121.5 50.5t162.5 13.5q191 -8 286 -136q35 -48 42 -119.5t-21 -145.5q-22 -52 -62 -87.5t-81 -36.5q-89 -1 -163 93q-23 29 -49 41q-9 6 -18.5 3.5t-23.5 -16.5q-12 -14 -32.5 -44.5t-36.5 -47.5q-11 -11 -27 -12.5t-28 10.5q-21 20 4 55q31 47 79 105
q23 28 57 31.5t65 -21.5q20 -17 50 -49.5t61 -53.5q18 -13 32 -19t32 -6.5t35 9.5q12 7 25.5 26.5t23.5 43.5q18 43 14.5 92.5t-28.5 92.5q-31 53 -87.5 82.5t-116.5 36.5q-127 15 -255 -37q-9 -3 -21 -10.5t-21 -13.5t-18.5 -10.5t-17 -4t-11.5 8.5q-9 17 -0.5 39t28.5 37z
" />
    <glyph glyph-name="afii57666" unicode="&#x5d2;" horiz-adv-x="543" 
d="M408 740q29 -6 31 -50v-8t0.5 -8t0.5 -7t0.5 -7t1.5 -6.5t2 -7t2.5 -7t3.5 -8t4.5 -8t5.5 -9.5q15 -21 50.5 -46.5t68.5 -34.5q25 -7 28 -7q30 -1 40 -6t23 -24q8 -12 9 -22.5t-11.5 -21t-41.5 -13.5q-21 -3 -48 -4.5t-48.5 -3.5t-41.5 -7q-69 -16 -129 -48
q-110 -58 -145 -128q-17 -35 -17.5 -71.5t19.5 -68.5t58 -48t68 -20t82 -5q8 0 12 -8.5t2 -17.5q-3 -13 -28 -19q-20 -5 -34 -5t-35 2q-114 7 -160 53q-40 40 -52.5 87.5t-3.5 88.5q21 94 118 170q109 85 242 110q-36 22 -68 57.5t-46 73.5q-17 48 -7 81q5 16 17 25.5
t27 6.5z" />
    <glyph glyph-name="afii57667" unicode="&#x5d3;" horiz-adv-x="638" 
d="M152 384q34 49 91.5 81.5t109 43.5t98.5 11q37 -1 71 -14t58 -36.5t30 -51.5q12 -65 -41 -118q-17 -17 8 -27q43 -16 66 -59.5t3 -91.5q-16 -39 -30 -56t-57 -51q-25 -20 -52.5 -29t-42.5 1q-9 11 -5.5 22.5t13.5 22.5q9 10 50.5 43.5t51.5 55.5q11 26 -4 56t-39 36
q-6 1 -11 2t-10 1t-8.5 0.5t-8.5 -0.5t-8 -1.5t-9.5 -2.5t-10.5 -3.5t-13 -4t-15 -4.5l-16.5 -5.5t-15 -4.5t-13 -2.5t-18.5 -1.5q-24 0 -35.5 11t-7.5 28q3 11 16.5 19t35.5 14.5t28 8.5q26 12 43 21t38.5 23t32 30.5t10.5 34.5q-1 29 -25.5 45t-57.5 17q-20 1 -49.5 -3.5
t-64 -15.5t-54.5 -26q-5 -4 -19 -14t-20.5 -15.5t-16.5 -16t-18 -21.5q-9 -14 -29.5 -22t-34.5 1q-10 7 -11.5 20t3.5 25t14 24z" />
    <glyph glyph-name="afii57668" unicode="&#x5d4;" horiz-adv-x="765" 
d="M280 168q16 21 50 18q45 -3 68 -28q32 -35 11 -90q-15 -37 -59 -68q-11 -8 -27 -8.5t-24.5 8t-0.5 24.5q2 4 23.5 31t18.5 41q-5 26 -46 34q-13 3 -17.5 16t3.5 22zM168 408q65 45 145.5 71.5t165.5 25.5q142 -2 221 -78q97 -93 89 -221q-6 -92 -79 -182q-28 -35 -54 -39
q-18 -4 -24 5.5t2 17.5q58 76 77 154q18 73 -12.5 142.5t-105.5 103.5q-43 20 -101.5 21t-95.5 -6.5t-66 -17.5q-76 -26 -130 -61q-18 -10 -34 -5t-20 16q-10 31 22 53z" />
    <glyph glyph-name="afii57669" unicode="&#x5d5;" horiz-adv-x="260" 
d="M379 613q14 -8 18.5 -23.5t-1.5 -31.5q-40 -112 -78 -207q-42 -102 -83 -188l-55 -111q-13 -26 -38.5 -51t-44.5 -13q-20 12 -1 52l91 196q13 27 26.5 58.5t29 70t23.5 57.5l72 178q4 12 17 15.5t24 -2.5z" />
    <glyph glyph-name="afii57670" unicode="&#x5d6;" horiz-adv-x="579" 
d="M396 631q8 14 23.5 23t28.5 1q33 -19 5 -80q-35 -77 -85 -132q49 2 103 -13t91 -54q89 -93 38 -219q-20 -49 -62 -84t-86 -54q-77 -33 -180 -31q-70 1 -111.5 11.5t-87.5 46.5q-12 9 -15.5 26t4.5 24q4 4 9 5t11 -1t9.5 -3.5t11 -6t10.5 -6.5q98 -54 252 -20
q97 22 153 96q13 17 19 46t0 62.5t-28 53.5q-53 48 -169 48q-11 0 -34.5 -5t-37.5 -2.5t-21 16.5q-5 8 -1.5 27t15.5 29q38 32 71 79q13 19 24 38t23 44t17 35z" />
    <glyph glyph-name="afii57671" unicode="&#x5d7;" horiz-adv-x="642" 
d="M80 24q6 41 27 105q39 120 62 177q19 46 42 124q4 14 13 24t21 8q6 -1 10.5 -2.5t10.5 -5t10 -5.5q2 -1 4 -1.5t4.5 0t4.5 0.5t5 1.5t4 2.5t4.5 3t4 2.5t4.5 3.5l4 3q40 30 95 44q43 11 89 6q83 -9 139 -63q47 -46 57 -121q11 -86 -38 -182q-23 -45 -78 -111
q-21 -25 -45 -43t-33 -8q-17 18 26 72q57 71 84 147q13 35 13 78.5t-15 76.5q-11 23 -30.5 41t-47 28.5t-58.5 11.5q-74 3 -147 -63q-9 -8 -15 -19t-12 -21.5t-15 -18.5q-6 -5 -20 -8.5t-18 -10.5q-11 -21 -37 -91q-14 -37 -66 -160q-26 -61 -47 -61q-11 0 -14.5 11.5
t-1.5 24.5z" />
    <glyph glyph-name="afii57672" unicode="&#x5d8;" horiz-adv-x="688" 
d="M647 711q23 3 41 -1.5t16 -20.5q-1 -6 -6 -11t-15.5 -9t-18 -6.5t-23 -6t-20.5 -4.5q-90 -23 -152 -58q-43 -24 -88.5 -64.5t-80.5 -87.5q-75 -100 -80 -225q-4 -103 65 -139q50 -25 120 -13.5t132 53.5q31 21 63.5 54.5t52 59.5t25.5 39q24 51 58 39q10 -4 13 -18
t0.5 -28t-7.5 -23q-51 -93 -131 -159q-56 -47 -123.5 -72.5t-134.5 -24.5q-60 1 -109.5 29.5t-76.5 83.5q-42 85 -6 218q32 120 116 204q95 95 202 142q91 40 168 49z" />
    <glyph glyph-name="afii57673" unicode="&#x5d9;" horiz-adv-x="239" 
d="M269 488q7 14 21 20t27 1q16 -7 22 -23t-1 -32q-20 -47 -80 -151q-10 -18 -28 -27t-32 -2q-10 5 -13 16t-0.5 22.5t8.5 23.5q15 27 76 152z" />
    <glyph glyph-name="afii57674" unicode="&#x5da;" horiz-adv-x="661" 
d="M163 428q52 46 119.5 67t137.5 18q42 -2 80 -11.5t73.5 -29.5t59.5 -48q70 -81 66 -188q-5 -124 -125 -192q-72 -41 -187 -26q-56 6 -128 32q-32 11 -44 -28q-7 -23 -15.5 -51.5t-15.5 -51.5t-16 -49q-54 -166 -127 -321q120 61 185 110q15 13 23.5 1t-8.5 -35
q-40 -53 -143 -126q-33 -23 -60 -36t-61 -14q-18 -1 -28.5 18t-5.5 35q11 34 44.5 106t46.5 106q53 135 72 201q31 110 47 158q9 25 33.5 36t52.5 4q13 -3 29 -7.5t28.5 -7.5t28 -7t27.5 -6.5t26.5 -4.5t27.5 -3t27.5 -1t27.5 2q57 7 100 38.5t58 85.5q14 43 0.5 95.5
t-53.5 88.5q-79 71 -211 52q-76 -11 -141 -65q-13 -11 -27.5 -13t-25.5 9q-10 12 -9 31.5t11 27.5z" />
    <glyph glyph-name="afii57675" unicode="&#x5db;" horiz-adv-x="631" 
d="M254 476q29 18 81 28.5t94 9.5q34 -1 66.5 -9t61.5 -24t51 -39q75 -80 66 -200q-3 -47 -26.5 -92.5t-65.5 -78.5q-47 -37 -97 -55t-113 -26q-58 -8 -128 2t-144 41q-54 23 -40 45q8 12 30 12.5t43 -7.5q93 -32 175 -34q121 -3 206 62q48 37 70 91.5t12 109.5
q-9 47 -47.5 82.5t-90.5 42.5q-45 6 -95 -5t-78 -24q-14 -8 -30.5 -5.5t-23.5 16.5q-7 17 0 32t23 25z" />
    <glyph glyph-name="afii57676" unicode="&#x5dc;" horiz-adv-x="414" 
d="M326 278q-11 10 -41 -4t-54 -37.5t-47.5 -57.5t-35.5 -66q-13 -34 -5 -51q4 -8 12 -4q33 12 63 42q61 64 92 118q1 1 2 4q26 45 14 56zM354 307l120 291q67 158 114 225q91 131 212 174q67 24 130.5 18.5t112.5 -42.5q20 -15 34 -36t4 -30q-7 -7 -14 -8.5t-14.5 2.5
t-13.5 8.5t-14.5 11.5t-14.5 11q-36 21 -84.5 25t-95.5 -13q-71 -27 -142 -106q-17 -19 -34.5 -45t-35.5 -60t-32 -62.5t-32.5 -71.5t-29 -67.5t-29 -70.5t-24.5 -61q-2 -4 -12.5 -30t-13.5 -34t-13.5 -32t-16 -35.5t-15.5 -32.5t-17.5 -35t-17.5 -30.5t-20 -30.5
q-68 -97 -124 -135q-29 -19 -62.5 -25t-53.5 5q-10 6 -18.5 19t-12.5 29t-5 33q-3 69 37 134q41 67 101 113q34 27 77 42.5t64 1.5q3 -2 4 -9.5t1 -20t1 -20.5z" />
    <glyph glyph-name="afii57677" unicode="&#x5dd;" horiz-adv-x="684" 
d="M260 287q-1 -3 -6 -12t-6 -12.5t-4 -11t-3 -12t0.5 -11.5t3.5 -13q23 -56 76 -95q36 -27 84.5 -37t90.5 -1q58 11 100 52t56 90q15 56 -3 106t-62 79q-40 27 -91 31t-101 -16q-47 -19 -78.5 -52.5t-56.5 -84.5zM143 302q2 9 26.5 14.5t31.5 17.5q59 100 129 142
q67 40 149 39q92 -1 162 -53q55 -41 78.5 -111.5t4.5 -139.5q-21 -79 -85.5 -134t-155.5 -63q-112 -10 -195 50q-23 17 -38.5 31t-29.5 33t-28 46q-23 -78 -42 -134.5t-44 -110.5q-21 -46 -48 -33q-3 2 -5.5 4t-4.5 4.5t-2.5 6t-1 6.5t0 7t0.5 7t1.5 8t2 7.5t2 8t2.5 7.5
q5 17 21.5 69.5t24.5 80.5q8 27 18 71t14 57q3 12 7 34.5t5 27.5z" />
    <glyph glyph-name="afii57678" unicode="&#x5de;" horiz-adv-x="662" 
d="M80 54q12 27 20.5 45.5t18.5 38.5t18 37t18.5 40t17 37.5t15.5 33.5t16.5 32.5t17.5 28.5t20 29q14 18 34 23.5t34 -8.5q30 -36 93 -154t80 -146q8 -13 17.5 -15.5t17.5 4t14.5 14.5t11.5 18q16 32 115.5 249.5t111.5 241.5q12 25 30 38.5t37 3.5q29 -16 2 -70l-116 -244
q-5 -11 -49 -109.5t-63 -137.5q-25 -53 -45 -76.5t-49 -24.5q-17 -1 -30 4t-24.5 17.5t-18 22t-18.5 28.5q-3 5 -4 7q-12 20 -58.5 109.5t-58.5 108.5q-7 10 -22 6t-21 -16q-14 -29 -36.5 -78t-41.5 -87.5t-40 -77.5q-12 -23 -32 -35t-38 0q-4 3 -6.5 6.5t-2.5 8.5v9t2 10
t3.5 9.5t4.5 10t4 8.5z" />
    <glyph glyph-name="afii57679" unicode="&#x5df;" horiz-adv-x="196" 
d="M240 478q4 13 11 23t17.5 16t22.5 2q17 -5 21.5 -24.5t-2.5 -36.5q-68 -217 -196 -514q-50 -116 -123 -265t-121 -220q-10 -14 -23 -20t-27 1q-26 19 4 72q54 93 121.5 236.5t101.5 228.5q156 387 193 501z" />
    <glyph glyph-name="afii57680" unicode="&#x5e0;" horiz-adv-x="262" 
d="M-342 -348q-14 11 -27 28t-22 35.5t-13 35.5q-4 14 7.5 18t19.5 -6q53 -58 104 -81q42 -19 87 -16q81 5 169 89q61 57 121 200q41 97 94 247q1 1 10 26.5t10.5 30t10 27.5t11.5 30.5t11 28.5t12.5 30.5t12.5 27t14 28.5t14 24t15 24q30 45 58 28q14 -8 15.5 -27.5
t-8.5 -34.5q-46 -81 -100 -222l-96 -255q-47 -123 -118 -219q-70 -95 -176 -131q-63 -20 -126.5 -10t-109.5 44z" />
    <glyph glyph-name="afii57681" unicode="&#x5e1;" horiz-adv-x="645" 
d="M190 201q-9 -95 67 -130q48 -23 116 -12t137 52q31 18 57 44t44 58t23 63q10 58 -21 105t-87 57q-53 9 -107 -17.5t-81 -53.5q-14 -13 -36.5 -16.5t-34.5 0.5q-31 -23 -52 -65.5t-25 -84.5zM200 386q54 58 109 88q32 17 63 8q21 13 56.5 24t67.5 9q68 -5 109 -31t68 -72
q23 -39 29 -86.5t-6 -87.5q-13 -50 -48.5 -98t-81.5 -80q-110 -77 -224 -76q-124 2 -186 71q-58 65 -27 197q8 33 29.5 72.5t41.5 61.5z" />
    <glyph glyph-name="afii57682" unicode="&#x5e2;" horiz-adv-x="535" 
d="M457 417q-131 -125 -197 -256q-25 -50 -28.5 -74.5t4 -26.5t24.5 0q85 13 153 61q47 34 70 64t33 65q13 44 -3 98t-56 69zM521 579q44 33 65 5q19 -24 -7 -52l-18 -18t-16 -15.5t-18 -16.5t-20 -18q29 -17 55.5 -65.5t27.5 -98.5q2 -107 -66 -178q-54 -56 -112 -86
q-38 -19 -76.5 -31.5t-85.5 -18.5q-63 -7 -90 41q-23 40 18 126q31 65 90 152t111 137q-44 8 -159 14q-13 1 -32.5 1.5t-30 1t-23 1.5t-20 3t-10.5 5q-13 11 -13.5 19.5t9.5 13.5t19.5 8t20.5 4q93 13 150 10q48 -2 142 -23q15 13 32.5 29.5t31 28.5t25.5 21z" />
    <glyph glyph-name="afii57683" unicode="&#x5e3;" horiz-adv-x="627" 
d="M706 415q-99 -253 -156 -356q-22 -39 -50.5 -61.5t-57.5 -11.5q-47 18 -41 118q2 35 19 75t43 71q22 26 48.5 41t44.5 9q3 -1 5 -2t3.5 -3t2 -3.5t1 -4t1 -4.5t0.5 -6v-6q4 8 10 22t14.5 36t13.5 35q18 44 39 97t34.5 87t35.5 86t49 110q-169 -31 -248 -60
q-165 -61 -233 -128q-23 -22 -24.5 -48t25.5 -53q41 -36 127 -49q14 -2 23.5 -10.5t6.5 -19.5q-6 -21 -54 -15q-71 9 -116 34q-40 23 -61.5 46t-25.5 59q-4 39 31 83.5t80 74.5q99 65 217 102q115 36 280 65q42 86 78 132.5t89 74.5q100 53 146 5q25 -33 16 -74t-41 -81
q-47 -59 -139 -94q-14 -5 -86 -24q-126 -287 -150 -349zM561 252q-25 -3 -54.5 -43.5t-43.5 -88.5q-9 -30 -3 -34t15 2.5t14 14.5q8 11 18 31.5t17.5 37t20 43.5t16.5 37zM889 845q74 18 125 67q49 46 39 64q-8 13 -51 -6q-35 -15 -66 -52.5t-47 -72.5z" />
    <glyph glyph-name="afii57684" unicode="&#x5e4;" horiz-adv-x="607" 
d="M227 362q-34 -34 -52 -24q-9 5 -12 26t6 38q29 51 108 84q41 17 68 23t65 7q121 4 189 -66q39 -40 52.5 -101t-3.5 -132q-26 -105 -119 -172q-85 -61 -203 -61q-40 0 -79.5 13.5t-64.5 46.5q-43 55 -18 122q11 29 40.5 52t65.5 32q33 7 61.5 2.5t46 -20t10.5 -33.5
q-6 -14 -20 -15.5t-32 3t-43 -3.5q-47 -14 -66 -39q-12 -16 -10.5 -33.5t15.5 -30.5q30 -28 79 -33t100 13q49 17 91.5 53.5t65.5 86.5q18 40 18 84.5t-14 72.5q-8 17 -19.5 31t-27 25t-35 18t-40.5 9q-38 5 -71 0.5t-68 -21.5q-52 -25 -84 -57z" />
    <glyph glyph-name="afii57685" unicode="&#x5e5;" horiz-adv-x="822" 
d="M527 252q-25 -3 -54.5 -43.5t-43.5 -88.5q-9 -30 -3 -34t15 2.5t14 14.5q13 19 72 149zM716 495q56 27 87 48q78 52 120 94q80 80 108 155q16 41 13.5 84.5t-24.5 55.5q-26 14 -96 -65q-27 -31 -68 -97q-23 -37 -78 -146q-42 -82 -62 -129zM572 762q12 -2 20 -11t6 -20
q-3 -17 -30 -17q-85 1 -146 -19q-74 -25 -120 -80q-48 -59 -47 -116q1 -31 16 -56t39 -32q44 -10 74 -9t82 9q17 3 38 8t34 9.5t39 12.5t35 11q22 36 45.5 89.5t31.5 69.5q10 20 26.5 55t29 59.5t29.5 52.5q58 95 106 149q55 62 115 63q27 1 50.5 -11.5t34.5 -37.5
q38 -84 -13 -201q-21 -47 -59.5 -95.5t-81.5 -87.5q-49 -44 -120 -89q-47 -30 -131 -68q-1 -2 -41 -91.5t-68.5 -151t-49.5 -98.5q-22 -39 -50.5 -61.5t-57.5 -11.5q-47 18 -41 118q1 23 9.5 49t22 51t30.5 46q22 26 48.5 41t44.5 9q3 -1 5.5 -3t4 -3t2 -4.5t0.5 -5
t0.5 -6.5t0.5 -7q4 7 11 26t14.5 39t12.5 28q-88 -31 -144 -36q-42 -5 -82.5 -2.5t-70.5 16.5q-28 13 -48.5 35.5t-29.5 48.5q-12 35 -9.5 75.5t17.5 77.5q16 38 49.5 74t72.5 59q53 31 120 44.5t124 5.5z" />
    <glyph glyph-name="afii57686" unicode="&#x5e6;" horiz-adv-x="699" 
d="M364 639q7 21 22.5 42.5t31 37.5t30.5 26q104 72 191 71q63 -1 94 -35.5t30 -84.5q-1 -42 -21.5 -88.5t-43.5 -76t-46 -49.5q-9 -8 -12 -16.5t3 -15.5q111 -83 99 -208q-12 -118 -123 -188q-53 -33 -121.5 -51t-133.5 -17q-180 1 -313 82q-5 4 -6 13t6 15t18 2
q106 -43 222 -49q156 -8 237 31q137 66 141 184q2 45 -21.5 77.5t-70.5 63.5q-16 11 -36 7q-4 -1 -13 -3.5t-14 -3t-12 0.5t-13 6t-12 14q-20 31 27 53q10 5 21 6.5t21.5 7t28.5 21.5q86 78 108 139q6 14 4.5 29.5t-6.5 28.5t-16 21.5t-25 8.5q-38 1 -69 -11t-69 -39
q-40 -28 -93 -84q-11 -12 -25 -12.5t-20.5 10t0.5 34.5z" />
    <glyph glyph-name="afii57687" unicode="&#x5e7;" horiz-adv-x="635" 
d="M340 282q17 -5 22 -24.5t-2 -37.5q-67 -220 -135 -369q-39 -85 -59 -127.5t-56 -109t-75 -126.5q-23 -35 -40 -54t-47 -38q-10 -7 -23 -5t-15 13q0 3 7.5 15.5t20.5 31.5t20 31q69 124 109.5 204t88.5 192q95 220 132 364q5 20 20 32.5t32 7.5zM159 331q-24 26 8 63
q49 58 132 88q82 30 155 30q31 0 62 -7t58.5 -20t47.5 -31q86 -75 75 -170q-6 -55 -30.5 -90t-61.5 -62q-30 -22 -65 -29q-39 -8 -42 15q-2 12 6.5 18t25 11.5t24.5 10.5q58 40 68 106q4 26 -1 52.5t-19 48.5t-35 36q-83 55 -199 25q-86 -23 -144 -72q-48 -41 -65 -23z" />
    <glyph glyph-name="afii57688" unicode="&#x5e8;" horiz-adv-x="640" 
d="M132 327q18 64 65 107q44 40 108.5 63t132.5 19q81 -5 136 -49t79 -112q27 -71 14 -156.5t-68 -156.5q-25 -32 -57 -52q-15 -9 -20.5 -10.5t-15.5 4.5q-9 10 9 36q106 148 78 285q-12 60 -58.5 99t-113.5 39q-135 0 -232 -125q-26 -33 -42 -29q-11 3 -15 14.5t0 23.5z
" />
    <glyph glyph-name="afii57689" unicode="&#x5e9;" horiz-adv-x="647" 
d="M210 191q106 29 190 89q54 38 80 94q6 11 2.5 31.5t-15.5 28.5q-22 13 -45 15t-45.5 -7t-42 -21.5t-42.5 -31.5q-97 -80 -82 -198zM712 176q11 -8 10 -21t-12 -26q-35 -39 -90 -73q-59 -36 -143.5 -55.5t-154.5 -8.5q-89 15 -141 80q-23 29 -35.5 74.5t-10.5 90.5
q5 91 61 160q13 16 31 33t46 37.5t57.5 32.5t65.5 18.5t70 -4.5q62 -17 82 -65q11 -28 5.5 -66t-22.5 -64q-38 -57 -91 -92q-98 -64 -211 -94q14 -31 47.5 -51.5t78.5 -24.5q134 -12 295 96q5 3 13.5 9.5t13 10t11 6.5t12.5 2t12 -5z" />
    <glyph glyph-name="afii57690" unicode="&#x5ea;" horiz-adv-x="786" 
d="M323 358q0 17 7 25.5t16 12t11 5.5q34 44 62 63q58 40 135 47t146 -20q39 -15 72 -50t45 -79q19 -70 9 -134t-51 -136q-38 -67 -79 -103q-1 -1 -3 -2q-23 -21 -36 -13q-15 10 -2 33q23 40 47 88q25 51 39.5 99t11 102.5t-33.5 90.5q-33 39 -99.5 48.5t-121.5 -14.5
q-56 -24 -84 -69q-2 -3 -5.5 -8t-5 -8l-3.5 -7t-2.5 -8.5t-0.5 -9.5q6 -86 -15 -154q-13 -41 -37.5 -78.5t-58.5 -67t-73 -46.5q-96 -42 -221 -15q-4 1 -17 6t-31 15t-24.5 22t2.5 25q10 12 30 -2q33 -23 127 -23q76 0 142 49q76 56 98 170q5 24 5.5 47.5t-0.5 52t-1 46.5z
" />
    <glyph glyph-name="uni05F3" unicode="&#x5f3;" horiz-adv-x="193" 
d="M185 523q50 58 162 169q32 31 54 10q12 -14 8.5 -30.5t-17.5 -30.5q-20 -19 -51 -53.5t-58 -60.5t-58 -49q-20 -15 -41 3q-6 7 -5.5 21t6.5 21z" />
    <glyph glyph-name="uni05F4" unicode="&#x5f4;" horiz-adv-x="0" 
d="M47 668q13 12 32.5 31.5t35 34.5t30.5 28q27 24 59 8q13 -6 17.5 -14t7.5 -30q43 21 57 24q26 5 36 -19q4 -9 1.5 -19.5t-10.5 -13.5q-51 -23 -84 -56q-20 -20 -37 -14q-18 7 -15 28q1 9 7 25.5t7 21.5q-21 -9 -36 -18t-36 -24.5t-31 -22.5q-1 -1 -4.5 -3.5t-5 -3
t-4.5 -2.5t-5 -3t-5 -2t-4.5 -1h-4t-5 1t-4.5 3q-9 8 -8.5 20t9.5 21z" />
  </font>
</defs>
</svg>
