<?xml version="1.0" standalone="no"?>
<!DOCTYPE svg PUBLIC "-//W3C//DTD SVG 1.1//EN" "http://www.w3.org/Graphics/SVG/1.1/DTD/svg11.dtd" >
<svg xmlns="http://www.w3.org/2000/svg" xmlns:xlink="http://www.w3.org/1999/xlink" version="1.1">
<metadata>
Created by FontForge 20170515 at Fri Oct 13 02:21:26 2017
 By fw_worker
Digitized data copyright (c) 2010 Google Corporation. 
Copyright (c) 2012 Red Hat, Inc.
</metadata>
<defs>
<font id="LiberationSans" horiz-adv-x="1139" >
  <font-face 
    font-family="Liberation Sans"
    font-weight="400"
    font-stretch="normal"
    units-per-em="2048"
    panose-1="2 11 6 4 2 2 2 2 2 4"
    ascent="1638"
    descent="-410"
    x-height="1082"
    cap-height="1409"
    bbox="-1114 -621 2666 2007"
    underline-thickness="150"
    underline-position="-292"
    unicode-range="U+0020-FFFC"
  />
<missing-glyph horiz-adv-x="1536" 
d="M205 1409h1125v-1409h-1125v1409zM281 1333v-1257h973v1257h-973z" />
    <glyph glyph-name=".notdef" horiz-adv-x="1536" 
d="M205 1409h1125v-1409h-1125v1409zM281 1333v-1257h973v1257h-973z" />
    <glyph glyph-name=".null" horiz-adv-x="0" 
 />
    <glyph glyph-name="nonmarkingreturn" horiz-adv-x="569" 
 />
    <glyph glyph-name="space" unicode=" " horiz-adv-x="569" 
 />
    <glyph glyph-name="exclam" unicode="!" horiz-adv-x="569" 
d="M359 397h-148l-24 1012h196zM185 0v201h194v-201h-194z" />
    <glyph glyph-name="quotedbl" unicode="&#x22;" horiz-adv-x="727" 
d="M618 966h-142l-20 443h184zM249 966h-141l-21 443h184z" />
    <glyph glyph-name="numbersign" unicode="#" 
d="M896 885l-78 -369h260v-108h-283l-88 -408h-110l86 408h-363l-84 -408h-110l84 408h-201v108h225l78 369h-252v108h274l89 408h110l-88 -408h363l88 408h110l-88 -408h211v-108h-233zM425 885l-80 -369h362l78 369h-360z" />
    <glyph glyph-name="dollar" unicode="$" 
d="M518 20q-426 18 -496 359l170 37q25 -119 104.5 -179t221.5 -69v496q-177 44 -244.5 79t-109 80.5t-60 97.5t-18.5 125q0 155 112.5 242.5t319.5 96.5v131h124v-131q187 -9 289 -84.5t144 -235.5l-174 -33q-20 94 -81 146.5t-178 63.5v-445q179 -42 254.5 -77t119.5 -79
t67 -104t23 -141q0 -165 -121 -265t-343 -111v-162h-124v162zM934 394q0 65 -26 107t-75 69.5t-191 64.5v-468q141 9 216.5 67t75.5 160zM258 1048q0 -59 25 -100t74.5 -69t160.5 -56v421q-260 -14 -260 -196z" />
    <glyph glyph-name="percent" unicode="%" horiz-adv-x="1821" 
d="M1748 434q0 -215 -81 -330.5t-239 -115.5q-156 0 -235.5 112.5t-79.5 333.5q0 228 76.5 339.5t242.5 111.5q164 0 240 -114.5t76 -336.5zM527 0h-155l922 1409h157zM394 1421q159 0 236 -112t77 -334q0 -217 -79.5 -334t-237.5 -117t-237.5 116t-79.5 335q0 223 77 334.5
t244 111.5zM1600 434q0 179 -38.5 259.5t-129.5 80.5t-131.5 -79t-40.5 -261q0 -171 39.5 -253.5t130.5 -82.5q88 0 129 83.5t41 252.5zM560 975q0 176 -38 257t-128 81q-94 0 -134 -79.5t-40 -258.5q0 -173 40 -255.5t132 -82.5q87 0 127.5 84t40.5 254z" />
    <glyph glyph-name="ampersand" unicode="&#x26;" horiz-adv-x="1366" 
d="M1193 -12q-177 0 -298 127q-75 -65 -171 -100t-201 -35q-215 0 -333 103.5t-118 287.5q0 278 343 429q-33 62 -57 147t-24 155q0 150 91.5 232.5t259.5 82.5q151 0 243.5 -76t92.5 -208q0 -118 -91.5 -210t-317.5 -182q111 -205 293 -412q113 166 171 410l145 -43
q-63 -249 -212 -469q96 -98 208 -98q71 0 117 16v-135q-56 -22 -141 -22zM869 1133q0 72 -50 117.5t-136 45.5q-96 0 -146 -51.5t-50 -142.5q0 -114 65 -244q131 53 192.5 92t93 84t31.5 99zM795 217q-198 234 -319 457q-236 -100 -236 -301q0 -121 77.5 -191.5t211.5 -70.5
q71 0 142 27.5t124 78.5z" />
    <glyph glyph-name="quotesingle" unicode="'" horiz-adv-x="391" 
d="M266 966h-141l-21 443h184z" />
    <glyph glyph-name="parenleft" unicode="(" horiz-adv-x="682" 
d="M127 532q0 289 90.5 519t278.5 433h174q-187 -208 -274.5 -442t-87.5 -512q0 -277 86.5 -510t275.5 -444h-174q-189 204 -279 434.5t-90 517.5v4z" />
    <glyph glyph-name="parenright" unicode=")" horiz-adv-x="682" 
d="M555 528q0 -289 -90.5 -519t-278.5 -433h-174q188 210 275 442.5t87 511.5t-87.5 512t-274.5 442h174q189 -204 279 -434.5t90 -517.5v-4z" />
    <glyph glyph-name="asterisk" unicode="*" horiz-adv-x="797" 
d="M456 1114l264 103l45 -132l-282 -73l185 -250l-119 -72l-150 258l-156 -256l-119 72l189 248l-280 73l45 134l267 -107l-12 297h136z" />
    <glyph glyph-name="plus" unicode="+" horiz-adv-x="1196" 
d="M671 608v-428h-147v428h-424v146h424v428h147v-428h424v-146h-424z" />
    <glyph glyph-name="comma" unicode="," horiz-adv-x="569" 
d="M385 219v-168q0 -106 -19 -177t-59 -136h-123q94 136 94 262h-88v219h195z" />
    <glyph glyph-name="hyphen" unicode="-" horiz-adv-x="682" 
d="M91 464v160h500v-160h-500z" />
    <glyph glyph-name="period" unicode="." horiz-adv-x="569" 
d="M187 0v219h195v-219h-195z" />
    <glyph glyph-name="slash" unicode="/" horiz-adv-x="569" 
d="M0 -20l411 1504h158l-407 -1504h-162z" />
    <glyph glyph-name="zero" unicode="0" 
d="M1059 705q0 -353 -124.5 -539t-367.5 -186t-365 185t-122 540q0 363 118.5 544t374.5 181q249 0 367.5 -183t118.5 -542zM876 705q0 305 -70.5 442t-232.5 137q-166 0 -238.5 -135t-72.5 -444q0 -300 73.5 -439t233.5 -139q159 0 233 142t74 436z" />
    <glyph glyph-name="one" unicode="1" 
d="M156 0v153h359v1084l-318 -227v170l333 229h166v-1256h343v-153h-883z" />
    <glyph glyph-name="two" unicode="2" 
d="M103 0v127q51 117 124.5 206.5t154.5 162t160.5 134.5t143.5 124t103.5 130t39.5 154q0 116 -68 180t-189 64q-115 0 -189.5 -62.5t-87.5 -175.5l-184 17q20 169 143.5 269t317.5 100q213 0 327.5 -100.5t114.5 -285.5q0 -82 -37.5 -163t-111.5 -162t-283 -251
q-115 -94 -183 -169.5t-98 -145.5h735v-153h-933z" />
    <glyph glyph-name="three" unicode="3" 
d="M1049 389q0 -195 -124 -302t-354 -107q-214 0 -341.5 96.5t-151.5 285.5l186 17q36 -250 307 -250q136 0 213.5 67t77.5 199q0 115 -88.5 179.5t-255.5 64.5h-102v156h98q148 0 229.5 64.5t81.5 178.5q0 113 -66.5 178.5t-197.5 65.5q-119 0 -192.5 -61t-85.5 -172
l-181 14q20 173 143.5 270t317.5 97q212 0 329.5 -98.5t117.5 -274.5q0 -135 -75.5 -219.5t-219.5 -114.5v-4q158 -17 246 -106t88 -224z" />
    <glyph glyph-name="four" unicode="4" 
d="M881 319v-319h-170v319h-664v140l645 950h189v-948h198v-142h-198zM711 1206q-2 -6 -28 -53t-39 -66l-361 -532l-54 -74l-16 -20h498v745z" />
    <glyph glyph-name="five" unicode="5" 
d="M1053 459q0 -223 -132.5 -351t-367.5 -128q-197 0 -318 86t-153 249l182 21q57 -209 293 -209q145 0 227 87.5t82 240.5q0 133 -82.5 215t-222.5 82q-73 0 -136 -23t-126 -78h-176l47 758h801v-153h-637l-27 -447q117 90 291 90q208 0 331.5 -122t123.5 -318z" />
    <glyph glyph-name="six" unicode="6" 
d="M1049 461q0 -223 -121 -352t-334 -129q-238 0 -364 177t-126 515q0 366 131 562t373 196q319 0 402 -287l-172 -31q-53 172 -232 172q-154 0 -238.5 -143.5t-84.5 -415.5q49 91 138 138.5t204 47.5q195 0 309.5 -122t114.5 -328zM866 453q0 153 -75 236t-209 83
q-126 0 -203.5 -73.5t-77.5 -202.5q0 -163 80.5 -267t206.5 -104q130 0 204 87.5t74 240.5z" />
    <glyph glyph-name="seven" unicode="7" 
d="M1036 1263q-216 -330 -305 -517t-133.5 -369t-44.5 -377h-188q0 270 114.5 568.5t382.5 687.5h-757v153h931v-146z" />
    <glyph glyph-name="eight" unicode="8" 
d="M1050 393q0 -195 -124 -304t-356 -109q-226 0 -353.5 107t-127.5 304q0 138 79 232t202 114v4q-115 27 -181.5 117t-66.5 211q0 161 120.5 261t323.5 100q208 0 328.5 -98t120.5 -265q0 -121 -67 -211t-183 -113v-4q135 -22 210 -114.5t75 -231.5zM828 1057
q0 239 -262 239q-127 0 -193.5 -60t-66.5 -179q0 -121 68.5 -184.5t193.5 -63.5q127 0 193.5 58.5t66.5 189.5zM863 410q0 131 -78 197.5t-219 66.5q-137 0 -214 -71.5t-77 -196.5q0 -291 297 -291q147 0 219 70.5t72 224.5z" />
    <glyph glyph-name="nine" unicode="9" 
d="M1042 733q0 -363 -132.5 -558t-377.5 -195q-165 0 -264.5 69.5t-142.5 224.5l172 27q54 -176 238 -176q155 0 240 144t89 411q-40 -90 -137 -144.5t-213 -54.5q-190 0 -304 130t-114 345q0 221 124 347.5t345 126.5q235 0 356 -174t121 -523zM846 907q0 170 -78 273.5
t-209 103.5q-130 0 -205 -88.5t-75 -239.5q0 -154 75 -243.5t203 -89.5q78 0 145 35.5t105.5 100.5t38.5 148z" />
    <glyph glyph-name="colon" unicode=":" horiz-adv-x="569" 
d="M187 875v207h195v-207h-195zM187 0v207h195v-207h-195z" />
    <glyph glyph-name="semicolon" unicode=";" horiz-adv-x="569" 
d="M385 207v-156q0 -106 -19 -177t-59 -136h-123q94 136 94 262h-88v207h195zM190 875v207h195v-207h-195z" />
    <glyph glyph-name="less" unicode="&#x3c;" horiz-adv-x="1196" 
d="M101 571v205l995 418v-154l-858 -366l858 -367v-153z" />
    <glyph glyph-name="equal" unicode="=" horiz-adv-x="1196" 
d="M100 856v148h995v-148h-995zM100 344v148h995v-148h-995z" />
    <glyph glyph-name="greater" unicode="&#x3e;" horiz-adv-x="1196" 
d="M101 154v153l858 367l-858 366v154l995 -418v-205z" />
    <glyph glyph-name="question" unicode="?" 
d="M1063 1032q0 -75 -22 -134t-63 -109t-134 -118l-80 -59q-72 -52 -107 -109.5t-36 -125.5h-175q2 69 21.5 121t50.5 92t70 71.5t79 60t78.5 57t68.5 63.5t48.5 79t18.5 103q0 114 -77.5 180t-217.5 66t-222 -70t-96 -192l-184 12q26 198 156 304t344 106q223 0 351 -105.5
t128 -292.5zM438 0v201h195v-201h-195z" />
    <glyph glyph-name="at" unicode="@" horiz-adv-x="2079" 
d="M1902 755q0 -186 -57.5 -336.5t-160 -232.5t-229.5 -82q-99 0 -153 44t-54 132l3 70h-6q-66 -123 -163.5 -184.5t-210.5 -61.5q-157 0 -243.5 102t-86.5 283q0 164 64.5 305t180.5 224t257 83q219 0 301 -182h6l39 160h156l-116 -506q-37 -164 -37 -253q0 -94 81 -94
q80 0 147.5 69t106.5 190t39 268q0 179 -77 317.5t-222 213t-339 74.5q-242 0 -428 -107t-292 -308.5t-106 -451.5q0 -193 78.5 -340.5t227 -226.5t346.5 -79q145 0 294 37.5t309 124.5l55 -112q-145 -87 -314.5 -132.5t-343.5 -45.5q-241 0 -421.5 95.5t-276 272
t-95.5 406.5q0 280 124.5 509t345.5 356.5t495 127.5q241 0 416 -90.5t267.5 -255.5t92.5 -383zM1296 747q0 102 -66 164.5t-176 62.5q-101 0 -179.5 -63.5t-123.5 -176t-45 -243.5q0 -120 47.5 -188t146.5 -68q125 0 229 105t144 262q23 92 23 145z" />
    <glyph glyph-name="A" unicode="A" horiz-adv-x="1366" 
d="M1167 0l-161 412h-642l-162 -412h-198l575 1409h217l566 -1409h-195zM685 1265l-9 -28q-25 -83 -74 -213l-180 -463h527l-181 465q-28 69 -56 156z" />
    <glyph glyph-name="B" unicode="B" horiz-adv-x="1366" 
d="M1258 397q0 -188 -137 -292.5t-381 -104.5h-572v1409h512q496 0 496 -342q0 -125 -70 -210t-198 -114q168 -20 259 -112.5t91 -233.5zM984 1044q0 114 -78 163t-226 49h-321v-446h321q153 0 228.5 57.5t75.5 176.5zM1065 412q0 249 -350 249h-356v-508h371q175 0 255 65
t80 194z" />
    <glyph glyph-name="C" unicode="C" horiz-adv-x="1479" 
d="M792 1274q-234 0 -364 -150.5t-130 -412.5q0 -259 135.5 -416.5t366.5 -157.5q296 0 445 293l156 -78q-87 -182 -244.5 -277t-365.5 -95q-213 0 -368.5 88.5t-237 253t-81.5 389.5q0 337 182 528t504 191q225 0 376 -88t222 -261l-181 -60q-49 123 -157.5 188t-257.5 65z
" />
    <glyph glyph-name="D" unicode="D" horiz-adv-x="1479" 
d="M1381 719q0 -218 -85 -381.5t-241 -250.5t-360 -87h-527v1409h466q358 0 552.5 -179.5t194.5 -510.5zM1189 719q0 262 -143.5 399.5t-415.5 137.5h-271v-1103h314q155 0 272.5 68t180.5 196t63 302z" />
    <glyph glyph-name="E" unicode="E" horiz-adv-x="1366" 
d="M168 0v1409h1069v-156h-878v-452h818v-154h-818v-491h919v-156h-1110z" />
    <glyph glyph-name="F" unicode="F" horiz-adv-x="1251" 
d="M359 1253v-524h786v-158h-786v-571h-191v1409h1001v-156h-810z" />
    <glyph glyph-name="G" unicode="G" horiz-adv-x="1593" 
d="M103 711q0 343 184 531t517 188q234 0 380 -79t225 -253l-182 -54q-60 120 -165.5 175t-262.5 55q-244 0 -373 -147.5t-129 -415.5q0 -267 137 -421.5t379 -154.5q138 0 257.5 42t193.5 114v254h-421v160h597v-486q-112 -114 -274.5 -176.5t-352.5 -62.5q-221 0 -381 88
t-244.5 253.5t-84.5 389.5z" />
    <glyph glyph-name="H" unicode="H" horiz-adv-x="1479" 
d="M1121 0v653h-762v-653h-191v1409h191v-596h762v596h191v-1409h-191z" />
    <glyph glyph-name="I" unicode="I" horiz-adv-x="569" 
d="M189 0v1409h191v-1409h-191z" />
    <glyph glyph-name="J" unicode="J" horiz-adv-x="1024" 
d="M457 -20q-358 0 -425 370l187 31q18 -116 81 -181t158 -65q104 0 164 71.5t60 209.5v837h-271v156h461v-989q0 -205 -111 -322.5t-304 -117.5z" />
    <glyph glyph-name="K" unicode="K" horiz-adv-x="1366" 
d="M1106 0l-563 680l-184 -140v-540h-191v1409h191v-706l679 706h225l-600 -612l680 -797h-237z" />
    <glyph glyph-name="L" unicode="L" 
d="M168 0v1409h191v-1253h712v-156h-903z" />
    <glyph glyph-name="M" unicode="M" horiz-adv-x="1706" 
d="M1366 0v940q0 156 9 300q-49 -179 -88 -280l-364 -960h-134l-369 960l-56 170l-33 110l3 -111l4 -189v-940h-170v1409h251l375 -977q20 -59 38.5 -126.5t24.5 -97.5q8 40 33.5 121.5t34.5 102.5l368 977h245v-1409h-172z" />
    <glyph glyph-name="N" unicode="N" horiz-adv-x="1479" 
d="M1082 0l-754 1200l5 -97l5 -167v-936h-170v1409h222l762 -1208q-12 196 -12 284v924h172v-1409h-230z" />
    <glyph glyph-name="O" unicode="O" horiz-adv-x="1593" 
d="M1495 711q0 -221 -84.5 -387t-242.5 -255t-373 -89q-217 0 -374.5 88t-240.5 254.5t-83 388.5q0 338 185 528.5t515 190.5q215 0 373 -85.5t241.5 -248.5t83.5 -385zM1300 711q0 263 -131.5 413t-371.5 150q-242 0 -374 -148t-132 -415q0 -265 133.5 -420.5t370.5 -155.5
q244 0 374.5 150.5t130.5 425.5z" />
    <glyph glyph-name="P" unicode="P" horiz-adv-x="1366" 
d="M1258 985q0 -200 -130.5 -318t-354.5 -118h-414v-549h-191v1409h593q237 0 367 -111t130 -313zM1066 983q0 273 -328 273h-379v-556h387q320 0 320 283z" />
    <glyph glyph-name="Q" unicode="Q" horiz-adv-x="1593" 
d="M1495 711q0 -298 -150 -490t-417 -227q41 -126 107.5 -182t168.5 -56q55 0 115 13v-134q-93 -22 -178 -22q-151 0 -248.5 85.5t-159.5 285.5q-198 10 -341.5 100.5t-219 252t-75.5 374.5q0 338 185 528.5t515 190.5q215 0 373 -85.5t241.5 -248.5t83.5 -385zM1300 711
q0 263 -131.5 413t-371.5 150q-242 0 -374 -148t-132 -415q0 -265 133.5 -420.5t370.5 -155.5q244 0 374.5 150.5t130.5 425.5z" />
    <glyph glyph-name="R" unicode="R" horiz-adv-x="1479" 
d="M1164 0l-366 585h-439v-585h-191v1409h663q238 0 367.5 -106.5t129.5 -296.5q0 -157 -91.5 -264t-252.5 -135l400 -607h-220zM1136 1004q0 123 -83.5 187.5t-240.5 64.5h-453v-520h461q151 0 233.5 70.5t82.5 197.5z" />
    <glyph glyph-name="S" unicode="S" horiz-adv-x="1366" 
d="M1272 389q0 -195 -152.5 -302t-429.5 -107q-515 0 -597 358l185 37q32 -127 136 -186.5t283 -59.5q185 0 285.5 63.5t100.5 186.5q0 69 -31.5 112t-88.5 71t-136 47t-175 41q-167 37 -253.5 74t-136.5 82.5t-76.5 106.5t-26.5 140q0 181 138.5 279t396.5 98
q240 0 367 -73.5t178 -250.5l-188 -33q-31 112 -118 162.5t-241 50.5q-169 0 -258 -56t-89 -167q0 -65 34.5 -107.5t99.5 -72t259 -72.5q65 -15 129.5 -30.5t123.5 -37t110.5 -50.5t89.5 -71t59.5 -99t21.5 -134z" />
    <glyph glyph-name="T" unicode="T" horiz-adv-x="1251" 
d="M720 1253v-1253h-190v1253h-484v156h1158v-156h-484z" />
    <glyph glyph-name="U" unicode="U" horiz-adv-x="1479" 
d="M731 -20q-173 0 -302 63t-200 183t-71 286v897h191v-881q0 -193 98 -293t283 -100q190 0 295.5 103.5t105.5 302.5v868h190v-879q0 -171 -72.5 -295t-205 -189.5t-312.5 -65.5z" />
    <glyph glyph-name="V" unicode="V" horiz-adv-x="1366" 
d="M782 0h-198l-575 1409h201l390 -992l84 -249l84 249l388 992h201z" />
    <glyph glyph-name="W" unicode="W" horiz-adv-x="1933" 
d="M1511 0h-228l-244 895q-24 84 -70 301q-26 -116 -44 -194t-273 -1002h-228l-415 1409h199l253 -895q45 -168 83 -346q24 110 55.5 240t277.5 1001h183l245 -877q56 -215 88 -364l9 35q27 115 44 187.5t281 1018.5h199z" />
    <glyph glyph-name="X" unicode="X" horiz-adv-x="1366" 
d="M1112 0l-423 616l-432 -616h-211l536 732l-495 677h211l392 -553l381 553h211l-482 -670l523 -739h-211z" />
    <glyph glyph-name="Y" unicode="Y" horiz-adv-x="1366" 
d="M777 584v-584h-190v584l-542 825h210l429 -671l427 671h210z" />
    <glyph glyph-name="Z" unicode="Z" horiz-adv-x="1251" 
d="M1187 0h-1122v143l858 1110h-785v156h1002v-139l-858 -1114h905v-156z" />
    <glyph glyph-name="bracketleft" unicode="[" horiz-adv-x="569" 
d="M146 -425v1909h407v-129h-233v-1651h233v-129h-407z" />
    <glyph glyph-name="backslash" unicode="\" horiz-adv-x="569" 
d="M407 -20l-407 1504h158l411 -1504h-162z" />
    <glyph glyph-name="bracketright" unicode="]" horiz-adv-x="569" 
d="M16 -425v129h233v1651h-233v129h407v-1909h-407z" />
    <glyph glyph-name="asciicircum" unicode="^" horiz-adv-x="961" 
d="M787 673l-309 633l-306 -633h-162l368 736h203l370 -736h-164z" />
    <glyph glyph-name="underscore" unicode="_" 
d="M-31 -407v130h1193v-130h-1193z" />
    <glyph glyph-name="grave" unicode="`" horiz-adv-x="682" 
d="M436 1201l-330 278v29h207l217 -287v-20h-94z" />
    <glyph glyph-name="a" unicode="a" 
d="M414 -20q-163 0 -245 86t-82 236q0 168 110.5 258t356.5 96l243 4v59q0 132 -56 189t-176 57q-121 0 -176 -41t-66 -131l-188 17q46 292 434 292q204 0 307 -93.5t103 -270.5v-466q0 -80 21 -120.5t80 -40.5q26 0 59 7v-112q-68 -16 -139 -16q-100 0 -145.5 52.5
t-51.5 164.5h-6q-69 -124 -160.5 -175.5t-222.5 -51.5zM455 115q99 0 176 45t121.5 123.5t44.5 161.5v89l-197 -4q-127 -2 -192.5 -26t-100.5 -74t-35 -131q0 -88 47.5 -136t135.5 -48z" />
    <glyph glyph-name="b" unicode="b" 
d="M1053 546q0 -566 -398 -566q-123 0 -204.5 44.5t-132.5 143.5h-2q0 -31 -4 -94.5t-6 -73.5h-174q6 54 6 223v1261h180v-423q0 -65 -4 -153h4q50 104 132.5 149t204.5 45q205 0 301.5 -138t96.5 -418zM864 540q0 227 -60 325t-195 98q-152 0 -221.5 -104t-69.5 -330
q0 -213 68 -314.5t221 -101.5q136 0 196.5 100.5t60.5 326.5z" />
    <glyph glyph-name="c" unicode="c" horiz-adv-x="1024" 
d="M275 546q0 -216 68 -320t205 -104q96 0 160.5 52t79.5 160l182 -12q-21 -156 -133 -249t-284 -93q-227 0 -346.5 143.5t-119.5 418.5q0 273 120 416.5t344 143.5q166 0 275.5 -86t137.5 -237l-185 -14q-14 90 -71 143t-162 53q-143 0 -207 -95t-64 -320z" />
    <glyph glyph-name="d" unicode="d" 
d="M821 174q-50 -104 -132.5 -149t-204.5 -45q-205 0 -301.5 138t-96.5 418q0 566 398 566q123 0 205 -45t132 -143h2l-2 121v449h180v-1261q0 -169 6 -223h-172q-3 16 -6.5 74t-3.5 100h-4zM275 542q0 -227 60 -325t195 -98q153 0 222 106t69 329q0 215 -69 315t-220 100
q-136 0 -196.5 -100.5t-60.5 -326.5z" />
    <glyph glyph-name="e" unicode="e" 
d="M276 503q0 -186 77 -287t225 -101q117 0 187.5 47t95.5 119l158 -45q-97 -256 -441 -256q-240 0 -365.5 143t-125.5 425q0 268 125.5 411t358.5 143q477 0 477 -575v-24h-772zM862 641q-15 171 -87 249.5t-207 78.5q-131 0 -207.5 -87.5t-82.5 -240.5h584z" />
    <glyph glyph-name="f" unicode="f" horiz-adv-x="569" 
d="M361 951v-951h-180v951h-152v131h152v122q0 148 65 213t199 65q75 0 127 -12v-137q-45 8 -80 8q-69 0 -100 -35t-31 -127v-97h211v-131h-211z" />
    <glyph glyph-name="g" unicode="g" 
d="M548 -425q-177 0 -282 69.5t-135 197.5l181 26q18 -75 79.5 -115.5t161.5 -40.5q269 0 269 315v174h-2q-51 -104 -140 -156.5t-208 -52.5q-199 0 -292.5 132t-93.5 415q0 287 100.5 423.5t305.5 136.5q115 0 199.5 -52.5t130.5 -149.5h2q0 30 4 104t8 81h171
q-6 -54 -6 -224v-827q0 -456 -453 -456zM822 541q0 132 -36 227.5t-101.5 146t-148.5 50.5q-138 0 -201 -100t-63 -324q0 -222 59 -319t202 -97q85 0 151 50t102 143.5t36 222.5z" />
    <glyph glyph-name="h" unicode="h" 
d="M317 897q58 106 139.5 155.5t206.5 49.5q176 0 259.5 -87.5t83.5 -293.5v-721h-181v686q0 114 -21 169.5t-69 81.5t-133 26q-127 0 -203.5 -88t-76.5 -237v-638h-180v1484h180v-386q0 -61 -3.5 -126t-4.5 -75h3z" />
    <glyph glyph-name="i" unicode="i" horiz-adv-x="455" 
d="M137 1312v172h180v-172h-180zM137 0v1082h180v-1082h-180z" />
    <glyph glyph-name="j" unicode="j" horiz-adv-x="455" 
d="M137 1312v172h180v-172h-180zM317 -134q0 -153 -60 -222t-180 -69q-77 0 -127 9v139l62 -6q69 0 97 36t28 140v1189h180v-1216z" />
    <glyph glyph-name="k" unicode="k" horiz-adv-x="1024" 
d="M816 0l-366 494l-132 -109v-385h-180v1484h180v-927l475 525h211l-439 -465l462 -617h-211z" />
    <glyph glyph-name="l" unicode="l" horiz-adv-x="455" 
d="M138 0v1484h180v-1484h-180z" />
    <glyph glyph-name="m" unicode="m" horiz-adv-x="1706" 
d="M768 0v686q0 157 -43 217t-155 60q-115 0 -182 -88t-67 -248v-627h-179v851q0 189 -6 231h170q1 -5 2 -27t2.5 -50.5t3.5 -107.5h3q58 115 133 160t183 45q123 0 194.5 -49t99.5 -156h3q56 109 135.5 157t192.5 48q164 0 238.5 -89t74.5 -292v-721h-178v686
q0 157 -43 217t-155 60q-118 0 -183.5 -87.5t-65.5 -248.5v-627h-178z" />
    <glyph glyph-name="n" unicode="n" 
d="M825 0v686q0 107 -21 166t-67 85t-135 26q-130 0 -205 -89t-75 -247v-627h-180v851q0 189 -6 231h170q1 -5 2 -27t2.5 -50.5t3.5 -107.5h3q62 112 143.5 158.5t202.5 46.5q178 0 260.5 -88.5t82.5 -292.5v-721h-181z" />
    <glyph glyph-name="o" unicode="o" 
d="M1053 542q0 -284 -125 -423t-363 -139q-237 0 -358 144.5t-121 417.5q0 560 485 560q248 0 365 -136.5t117 -423.5zM864 542q0 224 -66.5 325.5t-223.5 101.5q-158 0 -228.5 -103.5t-70.5 -323.5q0 -214 69.5 -321.5t218.5 -107.5q162 0 231.5 104t69.5 325z" />
    <glyph glyph-name="p" unicode="p" 
d="M1053 546q0 -566 -398 -566q-250 0 -336 188h-5q4 -8 4 -170v-423h-180v1286q0 167 -6 221h174q1 -4 3 -28.5t4.5 -75.5t2.5 -70h4q48 100 127 146.5t208 46.5q200 0 299 -134t99 -421zM864 542q0 226 -61 323t-194 97q-107 0 -167.5 -45t-92 -140.5t-31.5 -248.5
q0 -213 68 -314t221 -101q134 0 195.5 98.5t61.5 330.5z" />
    <glyph glyph-name="q" unicode="q" 
d="M484 -20q-206 0 -302 139t-96 417q0 566 398 566q123 0 203 -43.5t134 -144.5h2q0 30 4 103.5t8 78.5h173q-7 -59 -7 -295v-1226h-180v439l4 164h-2q-54 -107 -133 -152.5t-206 -45.5zM821 554q0 211 -69 313t-220 102q-137 0 -197 -102t-60 -325q0 -227 60.5 -325
t194.5 -98q153 0 222 109t69 326z" />
    <glyph glyph-name="r" unicode="r" horiz-adv-x="682" 
d="M142 0v830q0 114 -6 252h170q8 -184 8 -221h4q43 139 99 190t158 51q36 0 73 -10v-165q-36 10 -96 10q-112 0 -171 -96.5t-59 -276.5v-564h-180z" />
    <glyph glyph-name="s" unicode="s" horiz-adv-x="1024" 
d="M950 299q0 -153 -115.5 -236t-323.5 -83q-202 0 -311.5 66.5t-142.5 207.5l159 31q23 -87 95 -127.5t200 -40.5q137 0 200.5 42t63.5 126q0 64 -44 104t-142 66l-129 34q-155 40 -220.5 78.5t-102.5 93.5t-37 135q0 148 105.5 225.5t307.5 77.5q179 0 284.5 -63
t133.5 -202l-162 -20q-15 72 -80.5 110.5t-175.5 38.5q-122 0 -180 -37t-58 -112q0 -46 24 -76t71 -51t198 -58q143 -36 206 -66.5t99.5 -67.5t56.5 -85.5t20 -110.5z" />
    <glyph glyph-name="t" unicode="t" horiz-adv-x="569" 
d="M554 8q-89 -24 -182 -24q-216 0 -216 245v722h-125v131h132l53 242h120v-242h200v-131h-200v-683q0 -78 25.5 -109.5t88.5 -31.5q36 0 104 14v-133z" />
    <glyph glyph-name="u" unicode="u" 
d="M314 1082v-686q0 -107 21 -166t67 -85t135 -26q130 0 205 89t75 247v627h180v-851q0 -189 6 -231h-170q-1 5 -2 27t-2.5 50.5t-3.5 107.5h-3q-62 -112 -143.5 -158.5t-202.5 -46.5q-178 0 -260.5 88.5t-82.5 292.5v721h181z" />
    <glyph glyph-name="v" unicode="v" horiz-adv-x="1024" 
d="M613 0h-213l-393 1082h192l238 -704q13 -40 69 -237l35 117l39 118l246 706h191z" />
    <glyph glyph-name="w" unicode="w" horiz-adv-x="1479" 
d="M1174 0h-209l-189 765l-36 169q-9 -45 -28 -129.5t-204 -804.5h-208l-303 1082h178l183 -735q7 -24 43 -198l17 74l226 859h193l189 -743l46 -190l31 139l205 794h176z" />
    <glyph glyph-name="x" unicode="x" horiz-adv-x="1024" 
d="M801 0l-291 444l-293 -444h-194l385 556l-367 526h199l270 -421l268 421h201l-367 -524l390 -558h-201z" />
    <glyph glyph-name="y" unicode="y" horiz-adv-x="1024" 
d="M191 -425q-74 0 -124 11v135q38 -6 84 -6q168 0 266 247l17 43l-429 1077h192l228 -598q5 -14 12 -33.5t45 -130.5t41 -124l70 197l237 689h190l-416 -1082q-67 -173 -125 -257.5t-128.5 -126t-159.5 -41.5z" />
    <glyph glyph-name="z" unicode="z" horiz-adv-x="1024" 
d="M83 0v137l605 806h-571v139h784v-137l-606 -806h627v-139h-839z" />
    <glyph glyph-name="braceleft" unicode="{" horiz-adv-x="684" 
d="M513 -425q-127 0 -195.5 77t-68.5 216v361q0 117 -52.5 174.5t-162.5 62.5v127q109 4 162 61.5t53 174.5v362q0 141 66.5 217t197.5 76h135v-129h-63q-91 0 -129.5 -53.5t-38.5 -161.5v-356q0 -94 -53 -162.5t-141 -89.5v-2q89 -21 141.5 -89t52.5 -165v-357
q0 -106 38.5 -160.5t129.5 -54.5h63v-129h-135z" />
    <glyph glyph-name="bar" unicode="|" horiz-adv-x="532" 
d="M183 -434v1918h166v-1918h-166z" />
    <glyph glyph-name="braceright" unicode="}" horiz-adv-x="684" 
d="M94 -296q91 0 130.5 54.5t39.5 160.5v357q0 98 52 166t141 88v2q-86 20 -139.5 87.5t-53.5 164.5v356q0 108 -39.5 161.5t-130.5 53.5h-60v129h132q131 0 197.5 -76t66.5 -217v-362q0 -116 53 -174t164 -62v-127q-112 -4 -164.5 -62t-52.5 -175v-361q0 -138 -68.5 -215.5
t-195.5 -77.5h-132v129h60z" />
    <glyph glyph-name="asciitilde" unicode="~" horiz-adv-x="1196" 
d="M844 553q-69 0 -141.5 22t-145.5 48q-129 45 -217 45q-67 0 -125 -20.5t-123 -67.5v143q111 84 263 84q52 0 115.5 -13t193.5 -59q31 -12 91 -28.5t105 -16.5q130 0 244 92v-149q-58 -42 -116.5 -61t-143.5 -19z" />
    <glyph glyph-name="uni00A0" unicode="&#xa0;" horiz-adv-x="569" 
 />
    <glyph glyph-name="exclamdown" unicode="&#xa1;" horiz-adv-x="682" 
d="M266 685h148l24 -1012h-196zM440 1082v-201h-194v201h194z" />
    <glyph glyph-name="cent" unicode="&#xa2;" 
d="M596 277q96 0 160.5 52t79.5 160l182 -12q-19 -144 -114 -235t-242 -105v-168h-124v168q-199 18 -301 160.5t-102 399.5q0 253 102 396.5t301 160.5v155h124v-155q143 -15 233 -98t117 -222l-185 -14q-14 90 -71 143t-162 53q-143 0 -207 -95t-64 -320q0 -216 68 -320
t205 -104z" />
    <glyph glyph-name="sterling" unicode="&#xa3;" 
d="M1104 311q-17 -150 -105 -230.5t-232 -80.5h-698v154q89 46 132 126t43 201v144h-186v129h186v280q0 195 103 295.5t299 100.5q147 0 247 -60.5t134 -169.5l-174 -57q-21 64 -76.5 101.5t-126.5 37.5q-114 0 -170 -57.5t-56 -182.5v-288h408v-129h-408v-126
q0 -119 -46 -212t-123 -134h483q174 0 203 176z" />
    <glyph glyph-name="currency" unicode="&#xa4;" 
d="M137 684q0 138 78 252l-100 100l104 103l99 -101q114 82 254 82q137 0 251 -80l97 97l104 -105l-96 -96q80 -117 80 -252q0 -138 -82 -252l100 -100l-102 -105l-101 101q-114 -78 -251 -78q-143 0 -252 80l-105 -105l-102 105l102 102q-78 114 -78 252zM291 686
q0 -117 83 -198.5t198 -81.5q114 0 197 81t83 199q0 117 -83.5 199t-196.5 82t-197 -81.5t-84 -199.5z" />
    <glyph glyph-name="yen" unicode="&#xa5;" 
d="M720 709h321v-125h-383v-154h383v-127h-383v-303h-178v303h-381v127h381l2 154h-383v125h320l-421 700h199l371 -647l375 647h199z" />
    <glyph glyph-name="brokenbar" unicode="&#xa6;" horiz-adv-x="532" 
d="M183 706v778h166v-778h-166zM183 -434v779h166v-779h-166z" />
    <glyph glyph-name="section" unicode="&#xa7;" 
d="M588 1484q173 0 279.5 -66.5t133.5 -193.5l-161 -20q-27 150 -252 150q-125 0 -189.5 -39.5t-64.5 -110.5q0 -48 30 -83t85.5 -61t185.5 -57q147 -35 225 -76.5t121 -100.5t43 -140q0 -99 -59.5 -174t-159.5 -99q112 -48 162.5 -112.5t50.5 -155.5q0 -148 -115.5 -232.5
t-325.5 -84.5q-209 0 -318.5 66.5t-143.5 205.5l161 31q20 -90 88 -131t213 -41q136 0 208.5 44t72.5 126q0 57 -33 95.5t-94.5 67.5t-212.5 66q-194 45 -279.5 123t-85.5 190q0 89 61.5 163t166.5 104q-96 32 -151.5 99t-55.5 153q0 139 105.5 216.5t308.5 77.5zM866 663
q0 72 -69.5 124t-245.5 93q-109 -6 -173.5 -59t-64.5 -137q0 -49 29.5 -85.5t85 -63.5t184.5 -60q119 2 186.5 52.5t67.5 135.5z" />
    <glyph glyph-name="dieresis" unicode="&#xa8;" horiz-adv-x="682" 
d="M439 1219v184h163v-184h-163zM45 1219v184h165v-184h-165z" />
    <glyph glyph-name="copyright" unicode="&#xa9;" horiz-adv-x="1509" 
d="M1477 707q0 -193 -96.5 -361.5t-265 -265t-361.5 -96.5q-197 0 -366.5 100.5t-263 267t-93.5 355.5q0 193 97 361t265 265t361 97q194 0 362.5 -97.5t264.5 -264.5t96 -361zM1385 707q0 169 -84 313.5t-230.5 229.5t-316.5 85q-168 0 -314 -84.5t-230 -230.5t-84 -313
q0 -169 84.5 -315t229.5 -230t314 -84t316 84t231 230t84 315zM498 709q0 -155 71 -240.5t196 -85.5q158 0 233 156l115 -35q-62 -121 -146.5 -173t-201.5 -52q-188 0 -292 113t-104 317q0 203 100 313.5t289 110.5q244 0 340 -209l-114 -33q-32 69 -90 103t-134 34
q-127 0 -194.5 -80.5t-67.5 -238.5z" />
    <glyph glyph-name="ordfeminine" unicode="&#xaa;" horiz-adv-x="758" 
d="M260 651q-108 0 -171 58t-63 161q0 116 78.5 178t233.5 64l178 4v60q0 81 -35 118t-116 37q-67 0 -107.5 -29.5t-49.5 -105.5l-149 10q16 106 95.5 166t208.5 60q145 0 220.5 -62.5t75.5 -187.5v-308q0 -58 14 -83t49 -25q19 0 43 8v-104q-49 -13 -83 -13
q-73 0 -113.5 38t-44.5 103h-4q-73 -147 -260 -147zM299 762q90 0 153.5 59t63.5 138v65l-138 -4q-118 -6 -160 -39t-42 -98q0 -121 123 -121z" />
    <glyph glyph-name="guillemotleft" unicode="&#xab;" 
d="M886 141l-338 365v63l338 371h168v-31l-338 -372l340 -367v-29h-170zM419 141l-336 365v63l336 371h167v-31l-335 -372l337 -367v-29h-169z" />
    <glyph glyph-name="logicalnot" unicode="&#xac;" horiz-adv-x="1196" 
d="M950 180v428h-850v146h995v-574h-145z" />
    <glyph glyph-name="uni00AD" unicode="&#xad;" horiz-adv-x="682" 
d="M91 464v160h500v-160h-500z" />
    <glyph glyph-name="registered" unicode="&#xae;" horiz-adv-x="1509" 
d="M1477 707q0 -193 -96.5 -361.5t-265 -265t-361.5 -96.5q-197 0 -366.5 100.5t-263 267t-93.5 355.5q0 193 97 361t265 265t361 97q194 0 362.5 -97.5t264.5 -264.5t96 -361zM1385 707q0 169 -84 313.5t-230.5 229.5t-316.5 85q-168 0 -314 -84.5t-230 -230.5t-84 -313
q0 -169 84.5 -315t229.5 -230t314 -84t316 84t231 230t84 315zM955 289l-199 336h-161v-336h-127v831h307q142 0 217.5 -63t75.5 -174q0 -102 -52 -163.5t-137 -80.5l221 -350h-145zM941 881q0 69 -47.5 105t-128.5 36h-170v-301h182q80 0 122 42.5t42 117.5z" />
    <glyph glyph-name="overscore" unicode="&#xaf;" horiz-adv-x="1131" 
d="M1148 1452h-1165v94h1165v-94z" />
    <glyph glyph-name="degree" unicode="&#xb0;" horiz-adv-x="819" 
d="M696 1145q0 -119 -84.5 -202t-202.5 -83t-202.5 84t-84.5 201t83.5 201t203.5 84t203.5 -83t83.5 -202zM587 1145q0 76 -51.5 128t-126.5 52t-126.5 -53t-51.5 -127t52.5 -127t125.5 -53q74 0 126 52.5t52 127.5z" />
    <glyph glyph-name="plusminus" unicode="&#xb1;" horiz-adv-x="1124" 
d="M636 680v-395h-147v395h-424v145h424v394h147v-394h424v-145h-424zM65 0v145h995v-145h-995z" />
    <glyph glyph-name="twosuperior" unicode="&#xb2;" horiz-adv-x="682" 
d="M43 563l-2 103q31 69 95.5 134.5t171.5 139.5q97 68 141 124t44 114q0 62 -35.5 99.5t-109.5 37.5q-68 0 -112 -36.5t-52 -104.5l-133 8q13 107 93.5 173t209.5 66q127 0 201.5 -61.5t74.5 -171.5q0 -147 -188 -285q-122 -90 -172 -136t-70 -91h443v-113h-600z" />
    <glyph glyph-name="threesuperior" unicode="&#xb3;" horiz-adv-x="682" 
d="M642 795q0 -116 -77.5 -180t-219.5 -64q-286 0 -318 227l136 13q18 -136 182 -136q160 0 160 148q0 137 -189 137h-61v109h57q80 0 126 36t46 101q0 60 -37 94.5t-108 34.5q-68 0 -110 -35t-48 -100l-135 12q13 109 91.5 169t205.5 60q130 0 204 -59.5t74 -157.5
q0 -75 -43 -130t-133 -75v-2q91 -9 144 -61.5t53 -140.5z" />
    <glyph glyph-name="acute" unicode="&#xb4;" horiz-adv-x="682" 
d="M72 1201v20l217 287h207v-29l-330 -278h-94z" />
    <glyph glyph-name="mu1" unicode="&#xb5;" horiz-adv-x="1180" 
d="M140 -425v1507h181v-686q0 -138 53.5 -207.5t172.5 -69.5q128 0 201 87t73 249v627h180v-816q0 -76 18 -110.5t60 -34.5q25 0 54 8v-129q-65 -20 -113 -20q-91 0 -138.5 47t-52.5 147h-3q-106 -194 -299 -194q-67 0 -121.5 20.5t-85.5 58.5v-484h-180z" />
    <glyph glyph-name="paragraph" unicode="&#xb6;" horiz-adv-x="1100" 
d="M884 1307v-1571h-112v1571h-217v-1571h-113v958q-168 0 -265 92.5t-97 262.5q0 169 98.5 264.5t271.5 95.5h563v-102h-129z" />
    <glyph glyph-name="middot" unicode="&#xb7;" horiz-adv-x="682" 
d="M243 446v220h195v-220h-195z" />
    <glyph glyph-name="cedilla" unicode="&#xb8;" horiz-adv-x="682" 
d="M483 -253q0 -181 -274 -181q-57 0 -90 4v98q49 -6 86 -6q147 0 147 81q0 77 -133 77q-43 0 -57 -2l65 182h107l-39 -100q94 -3 141 -43.5t47 -109.5z" />
    <glyph glyph-name="onesuperior" unicode="&#xb9;" horiz-adv-x="682" 
d="M80 563v107h211v620l-202 -138v120l210 137h123v-739h215v-107h-557z" />
    <glyph glyph-name="ordmasculine" unicode="&#xba;" horiz-adv-x="748" 
d="M723 1042q0 -188 -88 -289.5t-263 -101.5q-168 0 -256.5 100.5t-88.5 290.5q0 189 89 289.5t260 100.5q347 0 347 -390zM574 1042q0 154 -45.5 219.5t-149.5 65.5q-108 0 -154 -67.5t-46 -217.5q0 -145 45.5 -215.5t146.5 -70.5q111 0 157 69t46 217z" />
    <glyph glyph-name="guillemotright" unicode="&#xbb;" 
d="M718 141h-168v29l338 367l-336 372v31h166l338 -371v-63zM253 141h-170v29l338 367l-336 372v31h168l335 -371v-63z" />
    <glyph glyph-name="onequarter" unicode="&#xbc;" horiz-adv-x="1708" 
d="M56 563v107h211v620l-202 -138v120l210 137h123v-739h215v-107h-557zM493 0h-148l881 1409h145zM1503 180v-178h-131v178h-406v111l386 557h151v-555h111v-113h-111zM1374 715q-21 -40 -82 -135l-199 -287h279v360z" />
    <glyph glyph-name="onehalf" unicode="&#xbd;" horiz-adv-x="1708" 
d="M56 563v107h211v620l-202 -138v120l210 137h123v-739h215v-107h-557zM493 0h-148l881 1409h145zM1053 2l-2 103q31 69 95.5 134.5t171.5 139.5q97 68 141 124t44 114q0 62 -35.5 99.5t-109.5 37.5q-68 0 -112 -36.5t-52 -104.5l-133 8q13 107 93.5 173t209.5 66
q127 0 201.5 -61.5t74.5 -171.5q0 -147 -188 -285q-122 -90 -172 -136t-70 -91h443v-113h-600z" />
    <glyph glyph-name="threequarters" unicode="&#xbe;" horiz-adv-x="1708" 
d="M513 0h-148l881 1409h145zM1503 180v-178h-131v178h-406v111l386 557h151v-555h111v-113h-111zM1374 715q-21 -40 -82 -135l-199 -287h279v360zM688 795q0 -116 -77.5 -180t-219.5 -64q-286 0 -318 227l136 13q18 -136 182 -136q160 0 160 148q0 137 -189 137h-61v109h57
q80 0 126 36t46 101q0 60 -37 94.5t-108 34.5q-68 0 -110 -35t-48 -100l-135 12q13 109 91.5 169t205.5 60q130 0 204 -59.5t74 -157.5q0 -75 -43 -130t-133 -75v-2q91 -9 144 -61.5t53 -140.5z" />
    <glyph glyph-name="questiondown" unicode="&#xbf;" horiz-adv-x="1251" 
d="M131 50q0 75 22 134t63 109t134 118l81 59q71 52 106 109.5t36 125.5h175q-2 -69 -21.5 -121t-50.5 -92t-70 -71.5t-79 -60t-78.5 -57t-68.5 -63.5t-48.5 -79t-18.5 -103q0 -114 77.5 -180t217.5 -66t222 70t96 192l184 -12q-26 -198 -156 -304t-344 -106
q-223 0 -351 105.5t-128 292.5zM756 1082v-201h-195v201h195z" />
    <glyph glyph-name="Agrave" unicode="&#xc0;" horiz-adv-x="1366" 
d="M1167 0l-161 412h-642l-162 -412h-198l575 1409h217l566 -1409h-195zM685 1265l-9 -28q-25 -83 -74 -213l-180 -463h527l-181 465q-28 69 -56 156zM750 1530l-310 217v29h207l217 -226v-20h-114z" />
    <glyph glyph-name="Aacute" unicode="&#xc1;" horiz-adv-x="1366" 
d="M1167 0l-161 412h-642l-162 -412h-198l575 1409h217l566 -1409h-195zM685 1265l-9 -28q-25 -83 -74 -213l-180 -463h527l-181 465q-28 69 -56 156zM547 1530v20l217 226h207v-29l-310 -217h-114z" />
    <glyph glyph-name="Acircumflex" unicode="&#xc2;" horiz-adv-x="1366" 
d="M1167 0l-161 412h-642l-162 -412h-198l575 1409h217l566 -1409h-195zM685 1265l-9 -28q-25 -83 -74 -213l-180 -463h527l-181 465q-28 69 -56 156zM1014 1550v-20h-105l-219 139h-2l-232 -139h-104v20l234 240h204z" />
    <glyph glyph-name="Atilde" unicode="&#xc3;" horiz-adv-x="1366" 
d="M1167 0l-161 412h-642l-162 -412h-198l575 1409h217l566 -1409h-195zM685 1265l-9 -28q-25 -83 -74 -213l-180 -463h527l-181 465q-28 69 -56 156zM842 1530q-42 0 -84 18.5t-81 41t-74.5 41t-66.5 18.5q-55 0 -82 -31t-36 -88h-91q11 102 35 154.5t64.5 83t103.5 30.5
q44 0 86 -18.5t81 -41t73.5 -41t64.5 -18.5q100 0 117 119h92q-17 -148 -67 -208t-135 -60z" />
    <glyph glyph-name="Adieresis" unicode="&#xc4;" horiz-adv-x="1366" 
d="M1167 0l-161 412h-642l-162 -412h-198l575 1409h217l566 -1409h-195zM685 1265l-9 -28q-25 -83 -74 -213l-180 -463h527l-181 465q-28 69 -56 156zM803 1530v184h163v-184h-163zM409 1530v184h165v-184h-165z" />
    <glyph glyph-name="Aring" unicode="&#xc5;" horiz-adv-x="1366" 
d="M1167 0l-161 412h-642l-162 -412h-198l575 1409h217l566 -1409h-195zM685 1265l-9 -28q-25 -83 -74 -213l-180 -463h527l-181 465q-28 69 -56 156zM928 1546q0 -100 -71 -171t-171 -71t-171 71t-71 171q0 101 71 171t171 70q99 0 170.5 -70.5t71.5 -170.5zM820 1546
q0 56 -39 95t-95 39q-57 0 -96 -39t-39 -95q0 -55 38 -96t97 -41q58 0 96 40.5t38 96.5z" />
    <glyph glyph-name="AE" unicode="&#xc6;" horiz-adv-x="2048" 
d="M969 0v412h-548l-198 -412h-199l686 1409h1209v-156h-759v-452h699v-154h-699v-491h800v-156h-991zM969 1262h-151l-28 -63l-299 -638h478v701z" />
    <glyph glyph-name="Ccedilla" unicode="&#xc7;" horiz-adv-x="1479" 
d="M792 1274q-234 0 -364 -150.5t-130 -412.5q0 -259 135.5 -416.5t366.5 -157.5q296 0 445 293l156 -78q-87 -182 -244.5 -277t-365.5 -95q-213 0 -368.5 88.5t-237 253t-81.5 389.5q0 337 182 528t504 191q225 0 376 -88t222 -261l-181 -60q-49 123 -157.5 188t-257.5 65z
M993 -253q0 -181 -274 -181q-57 0 -90 4v98q49 -6 86 -6q147 0 147 81q0 77 -133 77q-43 0 -57 -2l65 182h107l-39 -100q94 -3 141 -43.5t47 -109.5z" />
    <glyph glyph-name="Egrave" unicode="&#xc8;" horiz-adv-x="1366" 
d="M168 0v1409h1069v-156h-878v-452h818v-154h-818v-491h919v-156h-1110zM735 1530l-310 217v29h207l217 -226v-20h-114z" />
    <glyph glyph-name="Eacute" unicode="&#xc9;" horiz-adv-x="1366" 
d="M168 0v1409h1069v-156h-878v-452h818v-154h-818v-491h919v-156h-1110zM551 1530v20l217 226h207v-29l-310 -217h-114z" />
    <glyph glyph-name="Ecircumflex" unicode="&#xca;" horiz-adv-x="1366" 
d="M168 0v1409h1069v-156h-878v-452h818v-154h-818v-491h919v-156h-1110zM1037 1550v-20h-105l-219 139h-2l-232 -139h-104v20l234 240h204z" />
    <glyph glyph-name="Edieresis" unicode="&#xcb;" horiz-adv-x="1366" 
d="M168 0v1409h1069v-156h-878v-452h818v-154h-818v-491h919v-156h-1110zM816 1530v184h163v-184h-163zM422 1530v184h165v-184h-165z" />
    <glyph glyph-name="Igrave" unicode="&#xcc;" horiz-adv-x="569" 
d="M189 0v1409h191v-1409h-191zM319 1530l-310 217v29h207l217 -226v-20h-114z" />
    <glyph glyph-name="Iacute" unicode="&#xcd;" horiz-adv-x="569" 
d="M189 0v1409h191v-1409h-191zM142 1530v20l217 226h207v-29l-310 -217h-114z" />
    <glyph glyph-name="Icircumflex" unicode="&#xce;" horiz-adv-x="569" 
d="M189 0v1409h191v-1409h-191zM616 1550v-20h-105l-219 139h-2l-232 -139h-104v20l234 240h204z" />
    <glyph glyph-name="Idieresis" unicode="&#xcf;" horiz-adv-x="569" 
d="M189 0v1409h191v-1409h-191zM401 1530v184h163v-184h-163zM7 1530v184h165v-184h-165z" />
    <glyph glyph-name="Eth" unicode="&#xd0;" horiz-adv-x="1479" 
d="M14 801h154v608h466q358 0 552.5 -179.5t194.5 -510.5q0 -218 -85 -381.5t-241 -250.5t-360 -87h-527v647h-154v154zM1189 719q0 262 -143.5 399.5t-415.5 137.5h-271v-455h406v-154h-406v-494h314q155 0 272.5 68t180.5 196t63 302z" />
    <glyph glyph-name="Ntilde" unicode="&#xd1;" horiz-adv-x="1479" 
d="M1082 0l-754 1200l5 -97l5 -167v-936h-170v1409h222l762 -1208q-12 196 -12 284v924h172v-1409h-230zM909 1530q-42 0 -84 18.5t-81 41t-74.5 41t-66.5 18.5q-55 0 -82 -31t-36 -88h-91q11 102 35 154.5t64.5 83t103.5 30.5q44 0 86 -18.5t81 -41t73.5 -41t64.5 -18.5
q100 0 117 119h92q-17 -148 -67 -208t-135 -60z" />
    <glyph glyph-name="Ograve" unicode="&#xd2;" horiz-adv-x="1593" 
d="M1495 711q0 -221 -84.5 -387t-242.5 -255t-373 -89q-217 0 -374.5 88t-240.5 254.5t-83 388.5q0 338 185 528.5t515 190.5q215 0 373 -85.5t241.5 -248.5t83.5 -385zM1300 711q0 263 -131.5 413t-371.5 150q-242 0 -374 -148t-132 -415q0 -265 133.5 -420.5t370.5 -155.5
q244 0 374.5 150.5t130.5 425.5zM854 1530l-310 217v29h207l217 -226v-20h-114z" />
    <glyph glyph-name="Oacute" unicode="&#xd3;" horiz-adv-x="1593" 
d="M1495 711q0 -221 -84.5 -387t-242.5 -255t-373 -89q-217 0 -374.5 88t-240.5 254.5t-83 388.5q0 338 185 528.5t515 190.5q215 0 373 -85.5t241.5 -248.5t83.5 -385zM1300 711q0 263 -131.5 413t-371.5 150q-242 0 -374 -148t-132 -415q0 -265 133.5 -420.5t370.5 -155.5
q244 0 374.5 150.5t130.5 425.5zM621 1530v20l217 226h207v-29l-310 -217h-114z" />
    <glyph glyph-name="Ocircumflex" unicode="&#xd4;" horiz-adv-x="1593" 
d="M1495 711q0 -221 -84.5 -387t-242.5 -255t-373 -89q-217 0 -374.5 88t-240.5 254.5t-83 388.5q0 338 185 528.5t515 190.5q215 0 373 -85.5t241.5 -248.5t83.5 -385zM1300 711q0 263 -131.5 413t-371.5 150q-242 0 -374 -148t-132 -415q0 -265 133.5 -420.5t370.5 -155.5
q244 0 374.5 150.5t130.5 425.5zM1131 1550v-20h-105l-219 139h-2l-232 -139h-104v20l234 240h204z" />
    <glyph glyph-name="Otilde" unicode="&#xd5;" horiz-adv-x="1593" 
d="M1495 711q0 -221 -84.5 -387t-242.5 -255t-373 -89q-217 0 -374.5 88t-240.5 254.5t-83 388.5q0 338 185 528.5t515 190.5q215 0 373 -85.5t241.5 -248.5t83.5 -385zM1300 711q0 263 -131.5 413t-371.5 150q-242 0 -374 -148t-132 -415q0 -265 133.5 -420.5t370.5 -155.5
q244 0 374.5 150.5t130.5 425.5zM941 1530q-42 0 -84 18.5t-81 41t-74.5 41t-66.5 18.5q-55 0 -82 -31t-36 -88h-91q11 102 35 154.5t64.5 83t103.5 30.5q44 0 86 -18.5t81 -41t73.5 -41t64.5 -18.5q100 0 117 119h92q-17 -148 -67 -208t-135 -60z" />
    <glyph glyph-name="Odieresis" unicode="&#xd6;" horiz-adv-x="1593" 
d="M1495 711q0 -221 -84.5 -387t-242.5 -255t-373 -89q-217 0 -374.5 88t-240.5 254.5t-83 388.5q0 338 185 528.5t515 190.5q215 0 373 -85.5t241.5 -248.5t83.5 -385zM1300 711q0 263 -131.5 413t-371.5 150q-242 0 -374 -148t-132 -415q0 -265 133.5 -420.5t370.5 -155.5
q244 0 374.5 150.5t130.5 425.5zM910 1530v184h163v-184h-163zM516 1530v184h165v-184h-165z" />
    <glyph glyph-name="multiply" unicode="&#xd7;" horiz-adv-x="1196" 
d="M142 330l354 354l-352 352l104 103l350 -353l350 351l105 -105l-350 -348l352 -352l-102 -105l-353 353l-356 -355z" />
    <glyph glyph-name="Oslash" unicode="&#xd8;" horiz-adv-x="1593" 
d="M1495 711q0 -221 -84.5 -387t-242.5 -255t-373 -89q-246 0 -414 112l-120 -145h-190l200 241q-174 192 -174 523q0 338 185 528.5t515 190.5q247 0 414 -110l121 146h192l-201 -242q172 -190 172 -513zM1300 711q0 224 -98 368l-709 -853q122 -91 302 -91
q244 0 374.5 150.5t130.5 425.5zM291 711q0 -229 101 -378l707 853q-124 88 -302 88q-242 0 -374 -148t-132 -415z" />
    <glyph glyph-name="Ugrave" unicode="&#xd9;" horiz-adv-x="1479" 
d="M731 -20q-173 0 -302 63t-200 183t-71 286v897h191v-881q0 -193 98 -293t283 -100q190 0 295.5 103.5t105.5 302.5v868h190v-879q0 -171 -72.5 -295t-205 -189.5t-312.5 -65.5zM813 1530l-310 217v29h207l217 -226v-20h-114z" />
    <glyph glyph-name="Uacute" unicode="&#xda;" horiz-adv-x="1479" 
d="M731 -20q-173 0 -302 63t-200 183t-71 286v897h191v-881q0 -193 98 -293t283 -100q190 0 295.5 103.5t105.5 302.5v868h190v-879q0 -171 -72.5 -295t-205 -189.5t-312.5 -65.5zM565 1530v20l217 226h207v-29l-310 -217h-114z" />
    <glyph glyph-name="Ucircumflex" unicode="&#xdb;" horiz-adv-x="1479" 
d="M731 -20q-173 0 -302 63t-200 183t-71 286v897h191v-881q0 -193 98 -293t283 -100q190 0 295.5 103.5t105.5 302.5v868h190v-879q0 -171 -72.5 -295t-205 -189.5t-312.5 -65.5zM1070 1550v-20h-105l-219 139h-2l-232 -139h-104v20l234 240h204z" />
    <glyph glyph-name="Udieresis" unicode="&#xdc;" horiz-adv-x="1479" 
d="M731 -20q-173 0 -302 63t-200 183t-71 286v897h191v-881q0 -193 98 -293t283 -100q190 0 295.5 103.5t105.5 302.5v868h190v-879q0 -171 -72.5 -295t-205 -189.5t-312.5 -65.5zM853 1530v184h163v-184h-163zM459 1530v184h165v-184h-165z" />
    <glyph glyph-name="Yacute" unicode="&#xdd;" horiz-adv-x="1366" 
d="M777 584v-584h-190v584l-542 825h210l429 -671l427 671h210zM536 1530v20l217 226h207v-29l-310 -217h-114z" />
    <glyph glyph-name="Thorn" unicode="&#xde;" horiz-adv-x="1366" 
d="M1258 735q0 -128 -58 -227.5t-167.5 -155t-259.5 -55.5h-414v-297h-191v1409h191v-252h402q239 0 368 -111t129 -311zM1066 731q0 134 -82 208.5t-246 74.5h-379v-576h387q153 0 236.5 77.5t83.5 215.5z" />
    <glyph glyph-name="germandbls" unicode="&#xdf;" horiz-adv-x="1251" 
d="M1167 295q0 -150 -94 -232.5t-264 -82.5q-171 0 -283 49l-2 164q52 -29 132 -49t149 -20q92 0 141 43t49 122q0 64 -42.5 115t-139.5 109q-92 54 -137.5 120t-45.5 152q0 61 28.5 111t82.5 95q58 48 84.5 90t26.5 92q0 77 -67 123.5t-176 46.5q-148 0 -217.5 -80
t-69.5 -242v-1021h-180v1027q0 227 117.5 342t349.5 115q190 0 302.5 -80.5t112.5 -216.5q0 -143 -113 -246q-79 -72 -96 -96.5t-17 -53.5q0 -38 27.5 -67.5t68.5 -58t89 -60.5q184 -124 184 -310z" />
    <glyph glyph-name="agrave" unicode="&#xe0;" 
d="M414 -20q-163 0 -245 86t-82 236q0 168 110.5 258t356.5 96l243 4v59q0 132 -56 189t-176 57q-121 0 -176 -41t-66 -131l-188 17q46 292 434 292q204 0 307 -93.5t103 -270.5v-466q0 -80 21 -120.5t80 -40.5q26 0 59 7v-112q-68 -16 -139 -16q-100 0 -145.5 52.5
t-51.5 164.5h-6q-69 -124 -160.5 -175.5t-222.5 -51.5zM455 115q99 0 176 45t121.5 123.5t44.5 161.5v89l-197 -4q-127 -2 -192.5 -26t-100.5 -74t-35 -131q0 -88 47.5 -136t135.5 -48zM624 1201l-330 278v29h207l217 -287v-20h-94z" />
    <glyph glyph-name="aacute" unicode="&#xe1;" 
d="M414 -20q-163 0 -245 86t-82 236q0 168 110.5 258t356.5 96l243 4v59q0 132 -56 189t-176 57q-121 0 -176 -41t-66 -131l-188 17q46 292 434 292q204 0 307 -93.5t103 -270.5v-466q0 -80 21 -120.5t80 -40.5q26 0 59 7v-112q-68 -16 -139 -16q-100 0 -145.5 52.5
t-51.5 164.5h-6q-69 -124 -160.5 -175.5t-222.5 -51.5zM455 115q99 0 176 45t121.5 123.5t44.5 161.5v89l-197 -4q-127 -2 -192.5 -26t-100.5 -74t-35 -131q0 -88 47.5 -136t135.5 -48zM412 1201v20l217 287h207v-29l-330 -278h-94z" />
    <glyph glyph-name="acircumflex" unicode="&#xe2;" 
d="M414 -20q-163 0 -245 86t-82 236q0 168 110.5 258t356.5 96l243 4v59q0 132 -56 189t-176 57q-121 0 -176 -41t-66 -131l-188 17q46 292 434 292q204 0 307 -93.5t103 -270.5v-466q0 -80 21 -120.5t80 -40.5q26 0 59 7v-112q-68 -16 -139 -16q-100 0 -145.5 52.5
t-51.5 164.5h-6q-69 -124 -160.5 -175.5t-222.5 -51.5zM455 115q99 0 176 45t121.5 123.5t44.5 161.5v89l-197 -4q-127 -2 -192.5 -26t-100.5 -74t-35 -131q0 -88 47.5 -136t135.5 -48zM880 1221v-20h-105l-219 169h-2l-232 -169h-104v20l234 270h204z" />
    <glyph glyph-name="atilde" unicode="&#xe3;" 
d="M414 -20q-163 0 -245 86t-82 236q0 168 110.5 258t356.5 96l243 4v59q0 132 -56 189t-176 57q-121 0 -176 -41t-66 -131l-188 17q46 292 434 292q204 0 307 -93.5t103 -270.5v-466q0 -80 21 -120.5t80 -40.5q26 0 59 7v-112q-68 -16 -139 -16q-100 0 -145.5 52.5
t-51.5 164.5h-6q-69 -124 -160.5 -175.5t-222.5 -51.5zM455 115q99 0 176 45t121.5 123.5t44.5 161.5v89l-197 -4q-127 -2 -192.5 -26t-100.5 -74t-35 -131q0 -88 47.5 -136t135.5 -48zM737 1201q-42 0 -84 18.5t-81 41t-74.5 41t-66.5 18.5q-55 0 -82 -31t-36 -88h-91
q11 102 35 154.5t64.5 83t103.5 30.5q44 0 86 -18.5t81 -41t73.5 -41t64.5 -18.5q100 0 117 119h92q-17 -148 -67 -208t-135 -60z" />
    <glyph glyph-name="adieresis" unicode="&#xe4;" 
d="M414 -20q-163 0 -245 86t-82 236q0 168 110.5 258t356.5 96l243 4v59q0 132 -56 189t-176 57q-121 0 -176 -41t-66 -131l-188 17q46 292 434 292q204 0 307 -93.5t103 -270.5v-466q0 -80 21 -120.5t80 -40.5q26 0 59 7v-112q-68 -16 -139 -16q-100 0 -145.5 52.5
t-51.5 164.5h-6q-69 -124 -160.5 -175.5t-222.5 -51.5zM455 115q99 0 176 45t121.5 123.5t44.5 161.5v89l-197 -4q-127 -2 -192.5 -26t-100.5 -74t-35 -131q0 -88 47.5 -136t135.5 -48zM674 1219v184h163v-184h-163zM280 1219v184h165v-184h-165z" />
    <glyph glyph-name="aring" unicode="&#xe5;" 
d="M414 -20q-163 0 -245 86t-82 236q0 168 110.5 258t356.5 96l243 4v59q0 132 -56 189t-176 57q-121 0 -176 -41t-66 -131l-188 17q46 292 434 292q204 0 307 -93.5t103 -270.5v-466q0 -80 21 -120.5t80 -40.5q26 0 59 7v-112q-68 -16 -139 -16q-100 0 -145.5 52.5
t-51.5 164.5h-6q-69 -124 -160.5 -175.5t-222.5 -51.5zM455 115q99 0 176 45t121.5 123.5t44.5 161.5v89l-197 -4q-127 -2 -192.5 -26t-100.5 -74t-35 -131q0 -88 47.5 -136t135.5 -48zM799 1410q0 -100 -71 -171t-171 -71t-171 71t-71 171q0 101 71 171t171 70
q99 0 170.5 -70.5t71.5 -170.5zM691 1410q0 56 -39 95t-95 39q-57 0 -96 -39t-39 -95q0 -55 38 -96t97 -41q58 0 96 40.5t38 96.5z" />
    <glyph glyph-name="ae" unicode="&#xe6;" horiz-adv-x="1821" 
d="M968 503v-17q2 -181 77 -276t215 -95q117 0 187.5 47t95.5 119l158 -45q-97 -256 -441 -256q-321 0 -423 257q-79 -140 -184 -198.5t-251 -58.5q-167 0 -251.5 86t-84.5 236q0 174 119 262t361 92l240 4v59q0 135 -55.5 190.5t-176.5 55.5q-126 0 -182.5 -40t-69.5 -132
l-188 17q46 292 444 292q250 0 349 -139q118 139 346 139q477 0 477 -575v-24h-762zM786 534l-195 -4q-133 -3 -203.5 -29.5t-103.5 -77t-33 -124.5q0 -87 50 -135.5t143 -48.5q102 0 178.5 44.5t120 122t43.5 163.5v89zM1544 641q-15 171 -87 249.5t-207 78.5
q-127 0 -200.5 -85.5t-79.5 -242.5h574z" />
    <glyph glyph-name="ccedilla" unicode="&#xe7;" horiz-adv-x="1024" 
d="M275 546q0 -216 68 -320t205 -104q96 0 160.5 52t79.5 160l182 -12q-21 -156 -133 -249t-284 -93q-227 0 -346.5 143.5t-119.5 418.5q0 273 120 416.5t344 143.5q166 0 275.5 -86t137.5 -237l-185 -14q-14 90 -71 143t-162 53q-143 0 -207 -95t-64 -320zM751 -253
q0 -181 -274 -181q-57 0 -90 4v98q49 -6 86 -6q147 0 147 81q0 77 -133 77q-43 0 -57 -2l65 182h107l-39 -100q94 -3 141 -43.5t47 -109.5z" />
    <glyph glyph-name="egrave" unicode="&#xe8;" 
d="M276 503q0 -186 77 -287t225 -101q117 0 187.5 47t95.5 119l158 -45q-97 -256 -441 -256q-240 0 -365.5 143t-125.5 425q0 268 125.5 411t358.5 143q477 0 477 -575v-24h-772zM862 641q-15 171 -87 249.5t-207 78.5q-131 0 -207.5 -87.5t-82.5 -240.5h584zM657 1201
l-330 278v29h207l217 -287v-20h-94z" />
    <glyph glyph-name="eacute" unicode="&#xe9;" 
d="M276 503q0 -186 77 -287t225 -101q117 0 187.5 47t95.5 119l158 -45q-97 -256 -441 -256q-240 0 -365.5 143t-125.5 425q0 268 125.5 411t358.5 143q477 0 477 -575v-24h-772zM862 641q-15 171 -87 249.5t-207 78.5q-131 0 -207.5 -87.5t-82.5 -240.5h584zM440 1201v20
l217 287h207v-29l-330 -278h-94z" />
    <glyph glyph-name="ecircumflex" unicode="&#xea;" 
d="M276 503q0 -186 77 -287t225 -101q117 0 187.5 47t95.5 119l158 -45q-97 -256 -441 -256q-240 0 -365.5 143t-125.5 425q0 268 125.5 411t358.5 143q477 0 477 -575v-24h-772zM862 641q-15 171 -87 249.5t-207 78.5q-131 0 -207.5 -87.5t-82.5 -240.5h584zM907 1221v-20
h-105l-219 169h-2l-232 -169h-104v20l234 270h204z" />
    <glyph glyph-name="edieresis" unicode="&#xeb;" 
d="M276 503q0 -186 77 -287t225 -101q117 0 187.5 47t95.5 119l158 -45q-97 -256 -441 -256q-240 0 -365.5 143t-125.5 425q0 268 125.5 411t358.5 143q477 0 477 -575v-24h-772zM862 641q-15 171 -87 249.5t-207 78.5q-131 0 -207.5 -87.5t-82.5 -240.5h584zM687 1219v184
h163v-184h-163zM293 1219v184h165v-184h-165z" />
    <glyph glyph-name="igrave" unicode="&#xec;" horiz-adv-x="569" 
d="M194 0v1082h180v-1082h-180zM340 1201l-330 278v29h207l217 -287v-20h-94z" />
    <glyph glyph-name="iacute" unicode="&#xed;" horiz-adv-x="569" 
d="M194 0v1082h180v-1082h-180zM135 1201v20l217 287h207v-29l-330 -278h-94z" />
    <glyph glyph-name="icircumflex" unicode="&#xee;" horiz-adv-x="569" 
d="M194 0v1082h180v-1082h-180zM617 1221v-20h-105l-219 169h-2l-232 -169h-104v20l234 270h204z" />
    <glyph glyph-name="idieresis" unicode="&#xef;" horiz-adv-x="569" 
d="M194 0v1082h180v-1082h-180zM402 1219v184h163v-184h-163zM8 1219v184h165v-184h-165z" />
    <glyph glyph-name="eth" unicode="&#xf0;" 
d="M566 -20q-232 0 -356 129t-124 372q0 244 124 371t363 127q137 0 231 -59q-109 217 -234 331l-301 -133v114l218 94q-109 87 -242 158h209q80 -36 170 -102l306 132l-1 -112l-211 -92q171 -156 258 -359t87 -435v-6q0 -261 -124.5 -395.5t-372.5 -134.5zM874 481
q0 192 -70.5 278.5t-226.5 86.5q-157 0 -229.5 -87t-72.5 -278q0 -190 72 -279t217 -89q161 0 235.5 87.5t74.5 280.5z" />
    <glyph glyph-name="ntilde" unicode="&#xf1;" 
d="M829 0v686q0 107 -21 166t-67 85t-135 26q-130 0 -205 -89t-75 -247v-627h-180v851q0 189 -6 231h170q1 -5 2 -27t2.5 -50.5t3.5 -107.5h3q62 112 143.5 158.5t202.5 46.5q178 0 260.5 -88.5t82.5 -292.5v-721h-181zM737 1201q-42 0 -84 18.5t-81 41t-74.5 41t-66.5 18.5
q-55 0 -82 -31t-36 -88h-91q11 102 35 154.5t64.5 83t103.5 30.5q44 0 86 -18.5t81 -41t73.5 -41t64.5 -18.5q100 0 117 119h92q-17 -148 -67 -208t-135 -60z" />
    <glyph glyph-name="ograve" unicode="&#xf2;" 
d="M1053 542q0 -284 -125 -423t-363 -139q-237 0 -358 144.5t-121 417.5q0 560 485 560q248 0 365 -136.5t117 -423.5zM864 542q0 224 -66.5 325.5t-223.5 101.5q-158 0 -228.5 -103.5t-70.5 -323.5q0 -214 69.5 -321.5t218.5 -107.5q162 0 231.5 104t69.5 325zM659 1201
l-330 278v29h207l217 -287v-20h-94z" />
    <glyph glyph-name="oacute" unicode="&#xf3;" 
d="M1053 542q0 -284 -125 -423t-363 -139q-237 0 -358 144.5t-121 417.5q0 560 485 560q248 0 365 -136.5t117 -423.5zM864 542q0 224 -66.5 325.5t-223.5 101.5q-158 0 -228.5 -103.5t-70.5 -323.5q0 -214 69.5 -321.5t218.5 -107.5q162 0 231.5 104t69.5 325zM431 1201v20
l217 287h207v-29l-330 -278h-94z" />
    <glyph glyph-name="ocircumflex" unicode="&#xf4;" 
d="M1053 542q0 -284 -125 -423t-363 -139q-237 0 -358 144.5t-121 417.5q0 560 485 560q248 0 365 -136.5t117 -423.5zM864 542q0 224 -66.5 325.5t-223.5 101.5q-158 0 -228.5 -103.5t-70.5 -323.5q0 -214 69.5 -321.5t218.5 -107.5q162 0 231.5 104t69.5 325zM902 1221
v-20h-105l-219 169h-2l-232 -169h-104v20l234 270h204z" />
    <glyph glyph-name="otilde" unicode="&#xf5;" 
d="M1053 542q0 -284 -125 -423t-363 -139q-237 0 -358 144.5t-121 417.5q0 560 485 560q248 0 365 -136.5t117 -423.5zM864 542q0 224 -66.5 325.5t-223.5 101.5q-158 0 -228.5 -103.5t-70.5 -323.5q0 -214 69.5 -321.5t218.5 -107.5q162 0 231.5 104t69.5 325zM739 1201
q-42 0 -84 18.5t-81 41t-74.5 41t-66.5 18.5q-55 0 -82 -31t-36 -88h-91q11 102 35 154.5t64.5 83t103.5 30.5q44 0 86 -18.5t81 -41t73.5 -41t64.5 -18.5q100 0 117 119h92q-17 -148 -67 -208t-135 -60z" />
    <glyph glyph-name="odieresis" unicode="&#xf6;" 
d="M1053 542q0 -284 -125 -423t-363 -139q-237 0 -358 144.5t-121 417.5q0 560 485 560q248 0 365 -136.5t117 -423.5zM864 542q0 224 -66.5 325.5t-223.5 101.5q-158 0 -228.5 -103.5t-70.5 -323.5q0 -214 69.5 -321.5t218.5 -107.5q162 0 231.5 104t69.5 325zM689 1219
v184h163v-184h-163zM295 1219v184h165v-184h-165z" />
    <glyph glyph-name="divide" unicode="&#xf7;" horiz-adv-x="1124" 
d="M478 958v183h168v-183h-168zM65 608v146h995v-146h-995zM478 223v183h168v-183h-168z" />
    <glyph glyph-name="oslash" unicode="&#xf8;" horiz-adv-x="1251" 
d="M1112 542q0 -284 -125 -423t-363 -139q-195 0 -313 98l-100 -116h-167l184 214q-83 138 -83 366q0 560 485 560q201 0 316 -91l91 105h167l-173 -201q81 -133 81 -373zM923 542q0 129 -23 221l-483 -562q68 -88 205 -88q162 0 231.5 104t69.5 325zM334 542
q0 -130 24 -215l482 561q-67 81 -207 81q-158 0 -228.5 -103.5t-70.5 -323.5z" />
    <glyph glyph-name="ugrave" unicode="&#xf9;" 
d="M320 1082v-686q0 -107 21 -166t67 -85t135 -26q130 0 205 89t75 247v627h180v-851q0 -189 6 -231h-170q-1 5 -2 27t-2.5 50.5t-3.5 107.5h-3q-62 -112 -143.5 -158.5t-202.5 -46.5q-178 0 -260.5 88.5t-82.5 292.5v721h181zM672 1201l-330 278v29h207l217 -287v-20h-94z
" />
    <glyph glyph-name="uacute" unicode="&#xfa;" 
d="M320 1082v-686q0 -107 21 -166t67 -85t135 -26q130 0 205 89t75 247v627h180v-851q0 -189 6 -231h-170q-1 5 -2 27t-2.5 50.5t-3.5 107.5h-3q-62 -112 -143.5 -158.5t-202.5 -46.5q-178 0 -260.5 88.5t-82.5 292.5v721h181zM415 1201v20l217 287h207v-29l-330 -278h-94z
" />
    <glyph glyph-name="ucircumflex" unicode="&#xfb;" 
d="M320 1082v-686q0 -107 21 -166t67 -85t135 -26q130 0 205 89t75 247v627h180v-851q0 -189 6 -231h-170q-1 5 -2 27t-2.5 50.5t-3.5 107.5h-3q-62 -112 -143.5 -158.5t-202.5 -46.5q-178 0 -260.5 88.5t-82.5 292.5v721h181zM901 1221v-20h-105l-219 169h-2l-232 -169
h-104v20l234 270h204z" />
    <glyph glyph-name="udieresis" unicode="&#xfc;" 
d="M320 1082v-686q0 -107 21 -166t67 -85t135 -26q130 0 205 89t75 247v627h180v-851q0 -189 6 -231h-170q-1 5 -2 27t-2.5 50.5t-3.5 107.5h-3q-62 -112 -143.5 -158.5t-202.5 -46.5q-178 0 -260.5 88.5t-82.5 292.5v721h181zM676 1219v184h163v-184h-163zM282 1219v184
h165v-184h-165z" />
    <glyph glyph-name="yacute" unicode="&#xfd;" horiz-adv-x="1024" 
d="M191 -425q-74 0 -124 11v135q38 -6 84 -6q168 0 266 247l17 43l-429 1077h192l228 -598q5 -14 12 -33.5t45 -130.5t41 -124l70 197l237 689h190l-416 -1082q-67 -173 -125 -257.5t-128.5 -126t-159.5 -41.5zM355 1201v20l217 287h207v-29l-330 -278h-94z" />
    <glyph glyph-name="thorn" unicode="&#xfe;" 
d="M138 1484h180v-423q0 -65 -4 -153h6q48 100 127 146.5t208 46.5q200 0 299 -134t99 -421q0 -566 -398 -566q-250 0 -336 188h-5q4 -8 4 -170v-423h-180v1909zM864 542q0 226 -61 323t-194 97q-107 0 -167.5 -45t-92 -140.5t-31.5 -248.5q0 -213 68 -314t221 -101
q134 0 195.5 98.5t61.5 330.5z" />
    <glyph glyph-name="ydieresis" unicode="&#xff;" horiz-adv-x="1024" 
d="M191 -425q-74 0 -124 11v135q38 -6 84 -6q168 0 266 247l17 43l-429 1077h192l228 -598q5 -14 12 -33.5t45 -130.5t41 -124l70 197l237 689h190l-416 -1082q-67 -173 -125 -257.5t-128.5 -126t-159.5 -41.5zM626 1219v184h163v-184h-163zM232 1219v184h165v-184h-165z
" />
    <glyph glyph-name="Amacron" unicode="&#x100;" horiz-adv-x="1366" 
d="M1167 0l-161 412h-642l-162 -412h-198l575 1409h217l566 -1409h-195zM685 1265l-9 -28q-25 -83 -74 -213l-180 -463h527l-181 465q-28 69 -56 156zM960 1565h-549v127h549v-127z" />
    <glyph glyph-name="amacron" unicode="&#x101;" 
d="M414 -20q-163 0 -245 86t-82 236q0 168 110.5 258t356.5 96l243 4v59q0 132 -56 189t-176 57q-121 0 -176 -41t-66 -131l-188 17q46 292 434 292q204 0 307 -93.5t103 -270.5v-466q0 -80 21 -120.5t80 -40.5q26 0 59 7v-112q-68 -16 -139 -16q-100 0 -145.5 52.5
t-51.5 164.5h-6q-69 -124 -160.5 -175.5t-222.5 -51.5zM455 115q99 0 176 45t121.5 123.5t44.5 161.5v89l-197 -4q-127 -2 -192.5 -26t-100.5 -74t-35 -131q0 -88 47.5 -136t135.5 -48zM833 1236h-549v127h549v-127z" />
    <glyph glyph-name="Abreve" unicode="&#x102;" horiz-adv-x="1366" 
d="M1167 0l-161 412h-642l-162 -412h-198l575 1409h217l566 -1409h-195zM685 1265l-9 -28q-25 -83 -74 -213l-180 -463h527l-181 465q-28 69 -56 156zM685 1530q-133 0 -223.5 69t-108.5 180h117q17 -53 71.5 -83t145.5 -30t144.5 30.5t70.5 82.5h117q-21 -114 -111 -181.5
t-223 -67.5z" />
    <glyph glyph-name="abreve" unicode="&#x103;" 
d="M414 -20q-163 0 -245 86t-82 236q0 168 110.5 258t356.5 96l243 4v59q0 132 -56 189t-176 57q-121 0 -176 -41t-66 -131l-188 17q46 292 434 292q204 0 307 -93.5t103 -270.5v-466q0 -80 21 -120.5t80 -40.5q26 0 59 7v-112q-68 -16 -139 -16q-100 0 -145.5 52.5
t-51.5 164.5h-6q-69 -124 -160.5 -175.5t-222.5 -51.5zM455 115q99 0 176 45t121.5 123.5t44.5 161.5v89l-197 -4q-127 -2 -192.5 -26t-100.5 -74t-35 -131q0 -88 47.5 -136t135.5 -48zM560 1201q-132 0 -223 85t-109 224h117q28 -153 217 -153q186 0 215 153h117
q-21 -142 -110.5 -225.5t-223.5 -83.5z" />
    <glyph glyph-name="Aogonek" unicode="&#x104;" horiz-adv-x="1366" 
d="M1167 0l-161 412h-642l-162 -412h-198l575 1409h217l566 -1409h-195zM685 1265l-9 -28q-25 -83 -74 -213l-180 -463h527l-181 465q-28 69 -56 156zM1379 -389q-63 -27 -139 -27q-105 0 -158 51t-53 136q0 70 43.5 136t111.5 104h133q-25 -14 -51 -36.5t-47.5 -52
t-35 -64.5t-13.5 -74q0 -42 24.5 -66t69.5 -24q54 0 115 24v-107z" />
    <glyph glyph-name="aogonek" unicode="&#x105;" 
d="M414 -20q-163 0 -245 86t-82 236q0 168 110.5 258t356.5 96l243 4v59q0 132 -56 189t-176 57q-121 0 -176 -41t-66 -131l-188 17q46 292 434 292q204 0 307 -93.5t103 -270.5v-466q0 -80 21 -120.5t80 -40.5q26 0 59 7v-112q-68 -16 -139 -16q-100 0 -145.5 52.5
t-51.5 164.5h-6q-69 -124 -160.5 -175.5t-222.5 -51.5zM455 115q99 0 176 45t121.5 123.5t44.5 161.5v89l-197 -4q-127 -2 -192.5 -26t-100.5 -74t-35 -131q0 -88 47.5 -136t135.5 -48zM1139 -400q-63 -27 -139 -27q-105 0 -158 51t-53 136q0 70 43.5 136t111.5 104h133
q-25 -14 -51 -36.5t-47.5 -52t-35 -64.5t-13.5 -74q0 -42 24.5 -66t69.5 -24q54 0 115 24v-107z" />
    <glyph glyph-name="Cacute" unicode="&#x106;" horiz-adv-x="1479" 
d="M792 1274q-234 0 -364 -150.5t-130 -412.5q0 -259 135.5 -416.5t366.5 -157.5q296 0 445 293l156 -78q-87 -182 -244.5 -277t-365.5 -95q-213 0 -368.5 88.5t-237 253t-81.5 389.5q0 337 182 528t504 191q225 0 376 -88t222 -261l-181 -60q-49 123 -157.5 188t-257.5 65z
M667 1530v20l217 226h207v-29l-310 -217h-114z" />
    <glyph glyph-name="cacute" unicode="&#x107;" horiz-adv-x="1024" 
d="M275 546q0 -216 68 -320t205 -104q96 0 160.5 52t79.5 160l182 -12q-21 -156 -133 -249t-284 -93q-227 0 -346.5 143.5t-119.5 418.5q0 273 120 416.5t344 143.5q166 0 275.5 -86t137.5 -237l-185 -14q-14 90 -71 143t-162 53q-143 0 -207 -95t-64 -320zM431 1201v20
l217 287h207v-29l-330 -278h-94z" />
    <glyph glyph-name="Ccircumflex" unicode="&#x108;" horiz-adv-x="1479" 
d="M792 1274q-234 0 -364 -150.5t-130 -412.5q0 -259 135.5 -416.5t366.5 -157.5q296 0 445 293l156 -78q-87 -182 -244.5 -277t-365.5 -95q-213 0 -368.5 88.5t-237 253t-81.5 389.5q0 337 182 528t504 191q225 0 376 -88t222 -261l-181 -60q-49 123 -157.5 188t-257.5 65z
M1122 1550v-20h-105l-219 139h-2l-232 -139h-104v20l234 240h204z" />
    <glyph glyph-name="ccircumflex" unicode="&#x109;" horiz-adv-x="1024" 
d="M275 546q0 -216 68 -320t205 -104q96 0 160.5 52t79.5 160l182 -12q-21 -156 -133 -249t-284 -93q-227 0 -346.5 143.5t-119.5 418.5q0 273 120 416.5t344 143.5q166 0 275.5 -86t137.5 -237l-185 -14q-14 90 -71 143t-162 53q-143 0 -207 -95t-64 -320zM870 1221v-20
h-105l-219 169h-2l-232 -169h-104v20l234 270h204z" />
    <glyph glyph-name="Cdotaccent" unicode="&#x10a;" horiz-adv-x="1479" 
d="M792 1274q-234 0 -364 -150.5t-130 -412.5q0 -259 135.5 -416.5t366.5 -157.5q296 0 445 293l156 -78q-87 -182 -244.5 -277t-365.5 -95q-213 0 -368.5 88.5t-237 253t-81.5 389.5q0 337 182 528t504 191q225 0 376 -88t222 -261l-181 -60q-49 123 -157.5 188t-257.5 65z
M702 1605v172h180v-172h-180z" />
    <glyph glyph-name="cdotaccent" unicode="&#x10b;" horiz-adv-x="1024" 
d="M275 546q0 -216 68 -320t205 -104q96 0 160.5 52t79.5 160l182 -12q-21 -156 -133 -249t-284 -93q-227 0 -346.5 143.5t-119.5 418.5q0 273 120 416.5t344 143.5q166 0 275.5 -86t137.5 -237l-185 -14q-14 90 -71 143t-162 53q-143 0 -207 -95t-64 -320zM456 1312v172
h180v-172h-180z" />
    <glyph glyph-name="Ccaron" unicode="&#x10c;" horiz-adv-x="1479" 
d="M792 1274q-234 0 -364 -150.5t-130 -412.5q0 -259 135.5 -416.5t366.5 -157.5q296 0 445 293l156 -78q-87 -182 -244.5 -277t-365.5 -95q-213 0 -368.5 88.5t-237 253t-81.5 389.5q0 337 182 528t504 191q225 0 376 -88t222 -261l-181 -60q-49 123 -157.5 188t-257.5 65z
M898 1530h-204l-234 239v21h104l232 -139h2l219 139h105v-21z" />
    <glyph glyph-name="ccaron" unicode="&#x10d;" horiz-adv-x="1024" 
d="M275 546q0 -216 68 -320t205 -104q96 0 160.5 52t79.5 160l182 -12q-21 -156 -133 -249t-284 -93q-227 0 -346.5 143.5t-119.5 418.5q0 273 120 416.5t344 143.5q166 0 275.5 -86t137.5 -237l-185 -14q-14 90 -71 143t-162 53q-143 0 -207 -95t-64 -320zM652 1201h-204
l-234 270v20h104l232 -169h2l219 169h105v-20z" />
    <glyph glyph-name="Dcaron" unicode="&#x10e;" horiz-adv-x="1479" 
d="M1381 719q0 -218 -85 -381.5t-241 -250.5t-360 -87h-527v1409h466q358 0 552.5 -179.5t194.5 -510.5zM1189 719q0 262 -143.5 399.5t-415.5 137.5h-271v-1103h314q155 0 272.5 68t180.5 196t63 302zM796 1530h-204l-234 239v21h104l232 -139h2l219 139h105v-21z" />
    <glyph glyph-name="dcaron" unicode="&#x10f;" horiz-adv-x="1259" 
d="M821 174q-50 -104 -132.5 -149t-204.5 -45q-205 0 -301.5 138t-96.5 418q0 566 398 566q123 0 205 -45t132 -143h2l-2 121v449h180v-1261q0 -169 6 -223h-172q-3 16 -6.5 74t-3.5 100h-4zM275 542q0 -227 60 -325t195 -98q153 0 222 106t69 329q0 215 -69 315t-220 100
q-136 0 -196.5 -100.5t-60.5 -326.5zM1279 1378q0 -87 -22 -145.5t-62 -105.5h-117q94 100 94 190h-88v167h195v-106z" />
    <glyph glyph-name="Dcroat" unicode="&#x110;" horiz-adv-x="1479" 
d="M14 801h154v608h466q358 0 552.5 -179.5t194.5 -510.5q0 -218 -85 -381.5t-241 -250.5t-360 -87h-527v647h-154v154zM1189 719q0 262 -143.5 399.5t-415.5 137.5h-271v-455h406v-154h-406v-494h314q155 0 272.5 68t180.5 196t63 302z" />
    <glyph glyph-name="dcroat" unicode="&#x111;" 
d="M821 174q-50 -104 -132.5 -149t-204.5 -45q-205 0 -301.5 138t-96.5 418q0 566 398 566q123 0 205 -45t132 -143h2l-2 121v171h-300v131h300v147h180v-147h132v-131h-132v-983q0 -169 6 -223h-172q-3 16 -6.5 74t-3.5 100h-4zM275 542q0 -227 60 -325t195 -98
q153 0 222 106t69 329q0 215 -69 315t-220 100q-136 0 -196.5 -100.5t-60.5 -326.5z" />
    <glyph glyph-name="Emacron" unicode="&#x112;" horiz-adv-x="1366" 
d="M168 0v1409h1069v-156h-878v-452h818v-154h-818v-491h919v-156h-1110zM978 1565h-549v127h549v-127z" />
    <glyph glyph-name="emacron" unicode="&#x113;" 
d="M276 503q0 -186 77 -287t225 -101q117 0 187.5 47t95.5 119l158 -45q-97 -256 -441 -256q-240 0 -365.5 143t-125.5 425q0 268 125.5 411t358.5 143q477 0 477 -575v-24h-772zM862 641q-15 171 -87 249.5t-207 78.5q-131 0 -207.5 -87.5t-82.5 -240.5h584zM845 1236h-549
v127h549v-127z" />
    <glyph glyph-name="Ebreve" unicode="&#x114;" horiz-adv-x="1366" 
d="M168 0v1409h1069v-156h-878v-452h818v-154h-818v-491h919v-156h-1110zM701 1530q-133 0 -223.5 69t-108.5 180h117q17 -53 71.5 -83t145.5 -30t144.5 30.5t70.5 82.5h117q-21 -114 -111 -181.5t-223 -67.5z" />
    <glyph glyph-name="ebreve" unicode="&#x115;" 
d="M276 503q0 -186 77 -287t225 -101q117 0 187.5 47t95.5 119l158 -45q-97 -256 -441 -256q-240 0 -365.5 143t-125.5 425q0 268 125.5 411t358.5 143q477 0 477 -575v-24h-772zM862 641q-15 171 -87 249.5t-207 78.5q-131 0 -207.5 -87.5t-82.5 -240.5h584zM569 1201
q-132 0 -223 85t-109 224h117q28 -153 217 -153q186 0 215 153h117q-21 -142 -110.5 -225.5t-223.5 -83.5z" />
    <glyph glyph-name="Edotaccent" unicode="&#x116;" horiz-adv-x="1366" 
d="M168 0v1409h1069v-156h-878v-452h818v-154h-818v-491h919v-156h-1110zM613 1605v172h180v-172h-180z" />
    <glyph glyph-name="edotaccent" unicode="&#x117;" 
d="M276 503q0 -186 77 -287t225 -101q117 0 187.5 47t95.5 119l158 -45q-97 -256 -441 -256q-240 0 -365.5 143t-125.5 425q0 268 125.5 411t358.5 143q477 0 477 -575v-24h-772zM862 641q-15 171 -87 249.5t-207 78.5q-131 0 -207.5 -87.5t-82.5 -240.5h584zM480 1312v172
h180v-172h-180z" />
    <glyph glyph-name="Eogonek" unicode="&#x118;" horiz-adv-x="1366" 
d="M168 0v1409h1069v-156h-878v-452h818v-154h-818v-491h919v-156h-1110zM1278 -400q-63 -27 -139 -27q-105 0 -158 51t-53 136q0 70 43.5 136t111.5 104h133q-25 -14 -51 -36.5t-47.5 -52t-35 -64.5t-13.5 -74q0 -42 24.5 -66t69.5 -24q54 0 115 24v-107z" />
    <glyph glyph-name="eogonek" unicode="&#x119;" 
d="M276 503q0 -186 77 -287t225 -101q117 0 187.5 47t95.5 119l158 -45q-97 -256 -441 -256q-240 0 -365.5 143t-125.5 425q0 268 125.5 411t358.5 143q477 0 477 -575v-24h-772zM862 641q-15 171 -87 249.5t-207 78.5q-131 0 -207.5 -87.5t-82.5 -240.5h584zM811 -400
q-63 -27 -139 -27q-105 0 -158 51t-53 136q0 70 43.5 136t111.5 104h133q-25 -14 -51 -36.5t-47.5 -52t-35 -64.5t-13.5 -74q0 -42 24.5 -66t69.5 -24q54 0 115 24v-107z" />
    <glyph glyph-name="Ecaron" unicode="&#x11a;" horiz-adv-x="1366" 
d="M168 0v1409h1069v-156h-878v-452h818v-154h-818v-491h919v-156h-1110zM805 1530h-204l-234 239v21h104l232 -139h2l219 139h105v-21z" />
    <glyph glyph-name="ecaron" unicode="&#x11b;" 
d="M276 503q0 -186 77 -287t225 -101q117 0 187.5 47t95.5 119l158 -45q-97 -256 -441 -256q-240 0 -365.5 143t-125.5 425q0 268 125.5 411t358.5 143q477 0 477 -575v-24h-772zM862 641q-15 171 -87 249.5t-207 78.5q-131 0 -207.5 -87.5t-82.5 -240.5h584zM672 1201h-204
l-234 270v20h104l232 -169h2l219 169h105v-20z" />
    <glyph glyph-name="Gcircumflex" unicode="&#x11c;" horiz-adv-x="1593" 
d="M103 711q0 343 184 531t517 188q234 0 380 -79t225 -253l-182 -54q-60 120 -165.5 175t-262.5 55q-244 0 -373 -147.5t-129 -415.5q0 -267 137 -421.5t379 -154.5q138 0 257.5 42t193.5 114v254h-421v160h597v-486q-112 -114 -274.5 -176.5t-352.5 -62.5q-221 0 -381 88
t-244.5 253.5t-84.5 389.5zM1137 1550v-20h-105l-219 139h-2l-232 -139h-104v20l234 240h204z" />
    <glyph glyph-name="gcircumflex" unicode="&#x11d;" 
d="M548 -425q-177 0 -282 69.5t-135 197.5l181 26q18 -75 79.5 -115.5t161.5 -40.5q269 0 269 315v174h-2q-51 -104 -140 -156.5t-208 -52.5q-199 0 -292.5 132t-93.5 415q0 287 100.5 423.5t305.5 136.5q115 0 199.5 -52.5t130.5 -149.5h2q0 30 4 104t8 81h171
q-6 -54 -6 -224v-827q0 -456 -453 -456zM822 541q0 132 -36 227.5t-101.5 146t-148.5 50.5q-138 0 -201 -100t-63 -324q0 -222 59 -319t202 -97q85 0 151 50t102 143.5t36 222.5zM878 1221v-20h-105l-219 169h-2l-232 -169h-104v20l234 270h204z" />
    <glyph glyph-name="Gbreve" unicode="&#x11e;" horiz-adv-x="1593" 
d="M103 711q0 343 184 531t517 188q234 0 380 -79t225 -253l-182 -54q-60 120 -165.5 175t-262.5 55q-244 0 -373 -147.5t-129 -415.5q0 -267 137 -421.5t379 -154.5q138 0 257.5 42t193.5 114v254h-421v160h597v-486q-112 -114 -274.5 -176.5t-352.5 -62.5q-221 0 -381 88
t-244.5 253.5t-84.5 389.5zM810 1530q-133 0 -223.5 69t-108.5 180h117q17 -53 71.5 -83t145.5 -30t144.5 30.5t70.5 82.5h117q-21 -114 -111 -181.5t-223 -67.5z" />
    <glyph glyph-name="gbreve" unicode="&#x11f;" 
d="M548 -425q-177 0 -282 69.5t-135 197.5l181 26q18 -75 79.5 -115.5t161.5 -40.5q269 0 269 315v174h-2q-51 -104 -140 -156.5t-208 -52.5q-199 0 -292.5 132t-93.5 415q0 287 100.5 423.5t305.5 136.5q115 0 199.5 -52.5t130.5 -149.5h2q0 30 4 104t8 81h171
q-6 -54 -6 -224v-827q0 -456 -453 -456zM822 541q0 132 -36 227.5t-101.5 146t-148.5 50.5q-138 0 -201 -100t-63 -324q0 -222 59 -319t202 -97q85 0 151 50t102 143.5t36 222.5zM546 1201q-132 0 -223 85t-109 224h117q28 -153 217 -153q186 0 215 153h117
q-21 -142 -110.5 -225.5t-223.5 -83.5z" />
    <glyph glyph-name="Gdotaccent" unicode="&#x120;" horiz-adv-x="1593" 
d="M103 711q0 343 184 531t517 188q234 0 380 -79t225 -253l-182 -54q-60 120 -165.5 175t-262.5 55q-244 0 -373 -147.5t-129 -415.5q0 -267 137 -421.5t379 -154.5q138 0 257.5 42t193.5 114v254h-421v160h597v-486q-112 -114 -274.5 -176.5t-352.5 -62.5q-221 0 -381 88
t-244.5 253.5t-84.5 389.5zM721 1605v172h180v-172h-180z" />
    <glyph glyph-name="gdotaccent" unicode="&#x121;" 
d="M548 -425q-177 0 -282 69.5t-135 197.5l181 26q18 -75 79.5 -115.5t161.5 -40.5q269 0 269 315v174h-2q-51 -104 -140 -156.5t-208 -52.5q-199 0 -292.5 132t-93.5 415q0 287 100.5 423.5t305.5 136.5q115 0 199.5 -52.5t130.5 -149.5h2q0 30 4 104t8 81h171
q-6 -54 -6 -224v-827q0 -456 -453 -456zM822 541q0 132 -36 227.5t-101.5 146t-148.5 50.5q-138 0 -201 -100t-63 -324q0 -222 59 -319t202 -97q85 0 151 50t102 143.5t36 222.5zM457 1312v172h180v-172h-180z" />
    <glyph glyph-name="Gcommaaccent" unicode="&#x122;" horiz-adv-x="1593" 
d="M103 711q0 343 184 531t517 188q234 0 380 -79t225 -253l-182 -54q-60 120 -165.5 175t-262.5 55q-244 0 -373 -147.5t-129 -415.5q0 -267 137 -421.5t379 -154.5q138 0 257.5 42t193.5 114v254h-421v160h597v-486q-112 -114 -274.5 -176.5t-352.5 -62.5q-221 0 -381 88
t-244.5 253.5t-84.5 389.5zM918 -193q0 -87 -22 -140.5t-62 -100.5h-117q45 48 69.5 91t24.5 89h-88v156h195v-95z" />
    <glyph glyph-name="gcommaaccent" unicode="&#x123;" 
d="M548 -425q-177 0 -282 69.5t-135 197.5l181 26q18 -75 79.5 -115.5t161.5 -40.5q269 0 269 315v174h-2q-51 -104 -140 -156.5t-208 -52.5q-199 0 -292.5 132t-93.5 415q0 287 100.5 423.5t305.5 136.5q115 0 199.5 -52.5t130.5 -149.5h2q0 30 4 104t8 81h171
q-6 -54 -6 -224v-827q0 -456 -453 -456zM822 541q0 132 -36 227.5t-101.5 146t-148.5 50.5q-138 0 -201 -100t-63 -324q0 -222 59 -319t202 -97q85 0 151 50t102 143.5t36 222.5zM442 1317q0 87 22 145.5t62 105.5h117q-94 -100 -94 -190h88v-167h-195v106z" />
    <glyph glyph-name="Hcircumflex" unicode="&#x124;" horiz-adv-x="1479" 
d="M1121 0v653h-762v-653h-191v1409h191v-596h762v596h191v-1409h-191zM1071 1550v-20h-105l-219 139h-2l-232 -139h-104v20l234 240h204z" />
    <glyph glyph-name="hcircumflex" unicode="&#x125;" 
d="M317 897q58 106 139.5 155.5t206.5 49.5q176 0 259.5 -87.5t83.5 -293.5v-721h-181v686q0 114 -21 169.5t-69 81.5t-133 26q-127 0 -203.5 -88t-76.5 -237v-638h-180v1484h180v-386q0 -61 -3.5 -126t-4.5 -75h3zM904 1614v-20h-105l-219 139h-2l-232 -139h-104v20
l234 240h204z" />
    <glyph glyph-name="Hbar" unicode="&#x126;" horiz-adv-x="1479" 
d="M1126 0v653h-767v-653h-191v1025h-154v154h154v230h191v-230h767v230h186v-230h153v-154h-153v-1025h-186zM1126 813v212h-767v-212h767z" />
    <glyph glyph-name="hbar" unicode="&#x127;" 
d="M317 857q58 106 139.5 155.5t206.5 49.5q176 0 259.5 -87.5t83.5 -293.5v-681h-181v646q0 114 -21 169.5t-69 81.5t-133 26q-127 0 -203.5 -88t-76.5 -237v-598h-180v1206h-132v131h132v147h180v-147h300v-131h-300v-148q0 -61 -3.5 -126t-4.5 -75h3z" />
    <glyph glyph-name="Itilde" unicode="&#x128;" horiz-adv-x="569" 
d="M189 0v1409h191v-1409h-191zM443 1530q-42 0 -84 18.5t-81 41t-74.5 41t-66.5 18.5q-55 0 -82 -31t-36 -88h-91q11 102 35 154.5t64.5 83t103.5 30.5q44 0 86 -18.5t81 -41t73.5 -41t64.5 -18.5q100 0 117 119h92q-17 -148 -67 -208t-135 -60z" />
    <glyph glyph-name="itilde" unicode="&#x129;" horiz-adv-x="569" 
d="M194 0v1082h180v-1082h-180zM443 1201q-42 0 -84 18.5t-81 41t-74.5 41t-66.5 18.5q-55 0 -82 -31t-36 -88h-91q11 102 35 154.5t64.5 83t103.5 30.5q44 0 86 -18.5t81 -41t73.5 -41t64.5 -18.5q100 0 117 119h92q-17 -148 -67 -208t-135 -60z" />
    <glyph glyph-name="Imacron" unicode="&#x12a;" horiz-adv-x="569" 
d="M189 0v1409h191v-1409h-191zM561 1565h-549v127h549v-127z" />
    <glyph glyph-name="imacron" unicode="&#x12b;" horiz-adv-x="569" 
d="M194 0v1082h180v-1082h-180zM561 1236h-549v127h549v-127z" />
    <glyph glyph-name="Ibreve" unicode="&#x12c;" horiz-adv-x="569" 
d="M189 0v1409h191v-1409h-191zM286 1530q-133 0 -223.5 69t-108.5 180h117q17 -53 71.5 -83t145.5 -30t144.5 30.5t70.5 82.5h117q-21 -114 -111 -181.5t-223 -67.5z" />
    <glyph glyph-name="ibreve" unicode="&#x12d;" horiz-adv-x="569" 
d="M194 0v1082h180v-1082h-180zM286 1201q-132 0 -223 85t-109 224h117q28 -153 217 -153q186 0 215 153h117q-21 -142 -110.5 -225.5t-223.5 -83.5z" />
    <glyph glyph-name="Iogonek" unicode="&#x12e;" horiz-adv-x="569" 
d="M189 0v1409h191v-1409h-191zM442 -400q-63 -27 -139 -27q-105 0 -158 51t-53 136q0 70 43.5 136t111.5 104h133q-25 -14 -51 -36.5t-47.5 -52t-35 -64.5t-13.5 -74q0 -42 24.5 -66t69.5 -24q54 0 115 24v-107z" />
    <glyph glyph-name="iogonek" unicode="&#x12f;" horiz-adv-x="455" 
d="M137 1312v172h180v-172h-180zM137 0v1082h180v-1082h-180zM381 -400q-63 -27 -139 -27q-105 0 -158 51t-53 136q0 70 43.5 136t111.5 104h133q-25 -14 -51 -36.5t-47.5 -52t-35 -64.5t-13.5 -74q0 -42 24.5 -66t69.5 -24q54 0 115 24v-107z" />
    <glyph glyph-name="Idotaccent" unicode="&#x130;" horiz-adv-x="569" 
d="M189 0v1409h191v-1409h-191zM195 1605v172h180v-172h-180z" />
    <glyph glyph-name="dotlessi" unicode="&#x131;" horiz-adv-x="569" 
d="M194 0v1082h180v-1082h-180z" />
    <glyph glyph-name="IJ" unicode="&#x132;" horiz-adv-x="1505" 
d="M170 0v1409h191v-1409h-191zM938 -20q-358 0 -425 370l187 31q18 -116 81 -181t158 -65q104 0 164 71.5t60 209.5v837h-271v156h461v-989q0 -205 -111 -322.5t-304 -117.5z" />
    <glyph glyph-name="ij" unicode="&#x133;" horiz-adv-x="909" 
d="M137 1312v172h180v-172h-180zM137 0v1082h180v-1082h-180zM591 1312v172h180v-172h-180zM771 -134q0 -153 -60 -222t-180 -69q-77 0 -127 9v139l62 -6q69 0 97 36t28 140v1189h180v-1216z" />
    <glyph glyph-name="Jcircumflex" unicode="&#x134;" horiz-adv-x="1024" 
d="M457 -20q-358 0 -425 370l187 31q18 -116 81 -181t158 -65q104 0 164 71.5t60 209.5v837h-271v156h461v-989q0 -205 -111 -322.5t-304 -117.5zM973 1550v-20h-105l-219 139h-2l-232 -139h-104v20l234 240h204z" />
    <glyph glyph-name="jcircumflex" unicode="&#x135;" horiz-adv-x="455" 
d="M77 -425q-77 0 -127 9v139l62 -6q69 0 97 36t28 140v1189h180v-1216q0 -153 -60 -222t-180 -69zM559 1221v-20h-105l-219 169h-2l-232 -169h-104v20l234 270h204z" />
    <glyph glyph-name="Kcommaaccent" unicode="&#x136;" horiz-adv-x="1366" 
d="M1106 0l-563 680l-184 -140v-540h-191v1409h191v-706l679 706h225l-600 -612l680 -797h-237zM805 -193q0 -87 -22 -140.5t-62 -100.5h-117q45 48 69.5 91t24.5 89h-88v156h195v-95z" />
    <glyph glyph-name="kcommaaccent" unicode="&#x137;" horiz-adv-x="1024" 
d="M816 0l-366 494l-132 -109v-385h-180v1484h180v-927l475 525h211l-439 -465l462 -617h-211zM662 -193q0 -87 -22 -140.5t-62 -100.5h-117q45 48 69.5 91t24.5 89h-88v156h195v-95z" />
    <glyph glyph-name="kgreenlandic" unicode="&#x138;" horiz-adv-x="1024" 
d="M816 0l-366 494l-132 -108v-386h-180v1082h180v-525l475 525h211l-439 -465l462 -617h-211z" />
    <glyph glyph-name="Lacute" unicode="&#x139;" 
d="M168 0v1409h191v-1253h712v-156h-903zM245 1530v20l217 226h207v-29l-310 -217h-114z" />
    <glyph glyph-name="lacute" unicode="&#x13a;" horiz-adv-x="455" 
d="M138 0v1484h180v-1484h-180zM91 1608v20l217 226h207v-29l-310 -217h-114z" />
    <glyph glyph-name="Lcommaaccent" unicode="&#x13b;" 
d="M168 0v1409h191v-1253h712v-156h-903zM717 -193q0 -87 -22 -140.5t-62 -100.5h-117q45 48 69.5 91t24.5 89h-88v156h195v-95z" />
    <glyph glyph-name="lcommaaccent" unicode="&#x13c;" horiz-adv-x="455" 
d="M138 0v1484h180v-1484h-180zM327 -193q0 -87 -22 -140.5t-62 -100.5h-117q45 48 69.5 91t24.5 89h-88v156h195v-95z" />
    <glyph glyph-name="Lcaron" unicode="&#x13d;" 
d="M168 0v1409h191v-1253h712v-156h-903zM858 1303q0 -87 -22 -145.5t-62 -105.5h-117q94 100 94 190h-88v167h195v-106z" />
    <glyph glyph-name="lcaron" unicode="&#x13e;" horiz-adv-x="597" 
d="M138 0v1484h180v-1484h-180zM617 1378q0 -87 -22 -145.5t-62 -105.5h-117q94 100 94 190h-88v167h195v-106z" />
    <glyph glyph-name="Ldot" unicode="&#x13f;" 
d="M168 0v1409h191v-1253h712v-156h-903zM625 687v172h180v-172h-180z" />
    <glyph glyph-name="ldot" unicode="&#x140;" horiz-adv-x="684" 
d="M138 0v1484h180v-1484h-180zM478 687v172h180v-172h-180z" />
    <glyph glyph-name="Lslash" unicode="&#x141;" 
d="M616 797l-257 -149v-492h712v-156h-903v538l-148 -85v158l148 85v713h191v-603l257 148v-157z" />
    <glyph glyph-name="lslash" unicode="&#x142;" horiz-adv-x="455" 
d="M138 0v542l-122 -68v158l122 68v784h180v-680l124 72v-159l-124 -71v-646h-180z" />
    <glyph glyph-name="Nacute" unicode="&#x143;" horiz-adv-x="1479" 
d="M1082 0l-754 1200l5 -97l5 -167v-936h-170v1409h222l762 -1208q-12 196 -12 284v924h172v-1409h-230zM601 1530v20l217 226h207v-29l-310 -217h-114z" />
    <glyph glyph-name="nacute" unicode="&#x144;" 
d="M829 0v686q0 107 -21 166t-67 85t-135 26q-130 0 -205 -89t-75 -247v-627h-180v851q0 189 -6 231h170q1 -5 2 -27t2.5 -50.5t3.5 -107.5h3q62 112 143.5 158.5t202.5 46.5q178 0 260.5 -88.5t82.5 -292.5v-721h-181zM460 1201v20l217 287h207v-29l-330 -278h-94z" />
    <glyph glyph-name="Ncommaaccent" unicode="&#x145;" horiz-adv-x="1479" 
d="M1082 0l-754 1200l5 -97l5 -167v-936h-170v1409h222l762 -1208q-12 196 -12 284v924h172v-1409h-230zM836 -193q0 -87 -22 -140.5t-62 -100.5h-117q45 48 69.5 91t24.5 89h-88v156h195v-95z" />
    <glyph glyph-name="ncommaaccent" unicode="&#x146;" 
d="M829 0v686q0 107 -21 166t-67 85t-135 26q-130 0 -205 -89t-75 -247v-627h-180v851q0 189 -6 231h170q1 -5 2 -27t2.5 -50.5t3.5 -107.5h3q62 112 143.5 158.5t202.5 46.5q178 0 260.5 -88.5t82.5 -292.5v-721h-181zM675 -193q0 -87 -22 -140.5t-62 -100.5h-117
q45 48 69.5 91t24.5 89h-88v156h195v-95z" />
    <glyph glyph-name="Ncaron" unicode="&#x147;" horiz-adv-x="1479" 
d="M1082 0l-754 1200l5 -97l5 -167v-936h-170v1409h222l762 -1208q-12 196 -12 284v924h172v-1409h-230zM841 1530h-204l-234 239v21h104l232 -139h2l219 139h105v-21z" />
    <glyph glyph-name="ncaron" unicode="&#x148;" 
d="M829 0v686q0 107 -21 166t-67 85t-135 26q-130 0 -205 -89t-75 -247v-627h-180v851q0 189 -6 231h170q1 -5 2 -27t2.5 -50.5t3.5 -107.5h3q62 112 143.5 158.5t202.5 46.5q178 0 260.5 -88.5t82.5 -292.5v-721h-181zM680 1201h-204l-234 270v20h104l232 -169h2l219 169
h105v-20z" />
    <glyph glyph-name="napostrophe" unicode="&#x149;" horiz-adv-x="1237" 
d="M923 0v686q0 107 -21 166t-67 85t-135 26q-130 0 -205 -89t-75 -247v-627h-180v851q0 189 -6 231h170q1 -5 2 -27t2.5 -50.5t3.5 -107.5h3q62 112 143.5 158.5t202.5 46.5q178 0 260.5 -88.5t82.5 -292.5v-721h-181zM199 1264q0 -105 -19 -176.5t-59 -135.5h-123
q94 136 94 260h-88v197h195v-145z" />
    <glyph glyph-name="Eng" unicode="&#x14a;" horiz-adv-x="1481" 
d="M941 -20q-95 0 -177 37t-141 111l127 115q90 -110 196 -110q73 0 115.5 39.5t61.5 120.5t19 253v322q0 213 -78.5 309.5t-255.5 96.5q-119 0 -223 -52t-164.5 -141t-60.5 -190v-891h-191v1092l-4 317h184q7 -154 7 -251h4q72 129 207.5 200t298.5 71q246 0 356 -129
t110 -411v-347q0 -222 -38.5 -335.5t-123.5 -170t-229 -56.5z" />
    <glyph glyph-name="eng" unicode="&#x14b;" 
d="M769 -425q-77 0 -127 9v139l62 -6q69 0 97 36t28 140v793q0 107 -21 166t-67 85t-135 26q-130 0 -205 -89t-75 -247v-627h-180v851q0 189 -6 231h170q1 -5 2 -27t2.5 -50.5t3.5 -107.5h3q62 112 143.5 158.5t202.5 46.5q178 0 260.5 -88.5t82.5 -292.5v-855
q0 -151 -60 -221t-181 -70z" />
    <glyph glyph-name="Omacron" unicode="&#x14c;" horiz-adv-x="1593" 
d="M1495 711q0 -221 -84.5 -387t-242.5 -255t-373 -89q-217 0 -374.5 88t-240.5 254.5t-83 388.5q0 338 185 528.5t515 190.5q215 0 373 -85.5t241.5 -248.5t83.5 -385zM1300 711q0 263 -131.5 413t-371.5 150q-242 0 -374 -148t-132 -415q0 -265 133.5 -420.5t370.5 -155.5
q244 0 374.5 150.5t130.5 425.5zM1070 1565h-549v127h549v-127z" />
    <glyph glyph-name="omacron" unicode="&#x14d;" 
d="M1053 542q0 -284 -125 -423t-363 -139q-237 0 -358 144.5t-121 417.5q0 560 485 560q248 0 365 -136.5t117 -423.5zM864 542q0 224 -66.5 325.5t-223.5 101.5q-158 0 -228.5 -103.5t-70.5 -323.5q0 -214 69.5 -321.5t218.5 -107.5q162 0 231.5 104t69.5 325zM844 1236
h-549v127h549v-127z" />
    <glyph glyph-name="Obreve" unicode="&#x14e;" horiz-adv-x="1593" 
d="M1495 711q0 -221 -84.5 -387t-242.5 -255t-373 -89q-217 0 -374.5 88t-240.5 254.5t-83 388.5q0 338 185 528.5t515 190.5q215 0 373 -85.5t241.5 -248.5t83.5 -385zM1300 711q0 263 -131.5 413t-371.5 150q-242 0 -374 -148t-132 -415q0 -265 133.5 -420.5t370.5 -155.5
q244 0 374.5 150.5t130.5 425.5zM795 1530q-133 0 -223.5 69t-108.5 180h117q17 -53 71.5 -83t145.5 -30t144.5 30.5t70.5 82.5h117q-21 -114 -111 -181.5t-223 -67.5z" />
    <glyph glyph-name="obreve" unicode="&#x14f;" 
d="M1053 542q0 -284 -125 -423t-363 -139q-237 0 -358 144.5t-121 417.5q0 560 485 560q248 0 365 -136.5t117 -423.5zM864 542q0 224 -66.5 325.5t-223.5 101.5q-158 0 -228.5 -103.5t-70.5 -323.5q0 -214 69.5 -321.5t218.5 -107.5q162 0 231.5 104t69.5 325zM569 1201
q-132 0 -223 85t-109 224h117q28 -153 217 -153q186 0 215 153h117q-21 -142 -110.5 -225.5t-223.5 -83.5z" />
    <glyph glyph-name="Ohungarumlaut" unicode="&#x150;" horiz-adv-x="1593" 
d="M1495 711q0 -221 -84.5 -387t-242.5 -255t-373 -89q-217 0 -374.5 88t-240.5 254.5t-83 388.5q0 338 185 528.5t515 190.5q215 0 373 -85.5t241.5 -248.5t83.5 -385zM1300 711q0 263 -131.5 413t-371.5 150q-242 0 -374 -148t-132 -415q0 -265 133.5 -420.5t370.5 -155.5
q244 0 374.5 150.5t130.5 425.5zM514 1530v20l197 227h207v-29l-310 -218h-94zM861 1530v20l197 227h207v-29l-310 -218h-94z" />
    <glyph glyph-name="ohungarumlaut" unicode="&#x151;" 
d="M1053 542q0 -284 -125 -423t-363 -139q-237 0 -358 144.5t-121 417.5q0 560 485 560q248 0 365 -136.5t117 -423.5zM864 542q0 224 -66.5 325.5t-223.5 101.5q-158 0 -228.5 -103.5t-70.5 -323.5q0 -214 69.5 -321.5t218.5 -107.5q162 0 231.5 104t69.5 325zM287 1201v20
l217 287h207v-29l-330 -278h-94zM634 1201v20l217 287h207v-29l-330 -278h-94z" />
    <glyph glyph-name="OE" unicode="&#x152;" horiz-adv-x="2048" 
d="M999 0q-67 -10 -210 -10q-323 0 -507.5 193t-184.5 528q0 332 184 520.5t510 188.5q107 0 212 -11h914v-156h-803v-452h743v-154h-743v-491h844v-156h-959zM789 145q82 0 134 4v1111q-44 4 -80.5 4h-51.5q-245 0 -372.5 -143t-127.5 -410q0 -268 131.5 -417t366.5 -149z
" />
    <glyph glyph-name="oe" unicode="&#x153;" horiz-adv-x="1933" 
d="M1070 503q0 -186 77 -287t225 -101q117 0 187.5 47t95.5 119l158 -45q-97 -256 -441 -256q-275 0 -396 183q-124 -183 -401 -183q-238 0 -363.5 144.5t-125.5 417.5q0 279 126.5 419.5t368.5 140.5q281 0 398 -177q126 177 386 177q477 0 477 -575v-24h-772zM881 542
q0 219 -69 323t-228 104q-162 0 -235.5 -106.5t-73.5 -320.5q0 -429 298 -429q164 0 236 104t72 325zM1656 641q-15 171 -87 249.5t-207 78.5q-131 0 -207.5 -87.5t-82.5 -240.5h584z" />
    <glyph glyph-name="Racute" unicode="&#x154;" horiz-adv-x="1479" 
d="M1164 0l-366 585h-439v-585h-191v1409h663q238 0 367.5 -106.5t129.5 -296.5q0 -157 -91.5 -264t-252.5 -135l400 -607h-220zM1136 1004q0 123 -83.5 187.5t-240.5 64.5h-453v-520h461q151 0 233.5 70.5t82.5 197.5zM553 1530v20l217 226h207v-29l-310 -217h-114z" />
    <glyph glyph-name="racute" unicode="&#x155;" horiz-adv-x="682" 
d="M142 0v830q0 114 -6 252h170q8 -184 8 -221h4q43 139 99 190t158 51q36 0 73 -10v-165q-36 10 -96 10q-112 0 -171 -96.5t-59 -276.5v-564h-180zM254 1201v20l217 287h207v-29l-330 -278h-94z" />
    <glyph glyph-name="Rcommaaccent" unicode="&#x156;" horiz-adv-x="1479" 
d="M1164 0l-366 585h-439v-585h-191v1409h663q238 0 367.5 -106.5t129.5 -296.5q0 -157 -91.5 -264t-252.5 -135l400 -607h-220zM1136 1004q0 123 -83.5 187.5t-240.5 64.5h-453v-520h461q151 0 233.5 70.5t82.5 197.5zM845 -193q0 -87 -22 -140.5t-62 -100.5h-117
q45 48 69.5 91t24.5 89h-88v156h195v-95z" />
    <glyph glyph-name="rcommaaccent" unicode="&#x157;" horiz-adv-x="682" 
d="M142 0v830q0 114 -6 252h170q8 -184 8 -221h4q43 139 99 190t158 51q36 0 73 -10v-165q-36 10 -96 10q-112 0 -171 -96.5t-59 -276.5v-564h-180zM330 -193q0 -87 -22 -140.5t-62 -100.5h-117q45 48 69.5 91t24.5 89h-88v156h195v-95z" />
    <glyph glyph-name="Rcaron" unicode="&#x158;" horiz-adv-x="1479" 
d="M1164 0l-366 585h-439v-585h-191v1409h663q238 0 367.5 -106.5t129.5 -296.5q0 -157 -91.5 -264t-252.5 -135l400 -607h-220zM1136 1004q0 123 -83.5 187.5t-240.5 64.5h-453v-520h461q151 0 233.5 70.5t82.5 197.5zM796 1530h-204l-234 239v21h104l232 -139h2l219 139
h105v-21z" />
    <glyph glyph-name="rcaron" unicode="&#x159;" horiz-adv-x="682" 
d="M142 0v830q0 114 -6 252h170q8 -184 8 -221h4q43 139 99 190t158 51q36 0 73 -10v-165q-36 10 -96 10q-112 0 -171 -96.5t-59 -276.5v-564h-180zM494 1201h-204l-234 270v20h104l232 -169h2l219 169h105v-20z" />
    <glyph glyph-name="Sacute" unicode="&#x15a;" horiz-adv-x="1366" 
d="M1272 389q0 -195 -152.5 -302t-429.5 -107q-515 0 -597 358l185 37q32 -127 136 -186.5t283 -59.5q185 0 285.5 63.5t100.5 186.5q0 69 -31.5 112t-88.5 71t-136 47t-175 41q-167 37 -253.5 74t-136.5 82.5t-76.5 106.5t-26.5 140q0 181 138.5 279t396.5 98
q240 0 367 -73.5t178 -250.5l-188 -33q-31 112 -118 162.5t-241 50.5q-169 0 -258 -56t-89 -167q0 -65 34.5 -107.5t99.5 -72t259 -72.5q65 -15 129.5 -30.5t123.5 -37t110.5 -50.5t89.5 -71t59.5 -99t21.5 -134zM562 1530v20l217 287h207v-29l-330 -278h-94z" />
    <glyph glyph-name="sacute" unicode="&#x15b;" horiz-adv-x="1024" 
d="M950 299q0 -153 -115.5 -236t-323.5 -83q-202 0 -311.5 66.5t-142.5 207.5l159 31q23 -87 95 -127.5t200 -40.5q137 0 200.5 42t63.5 126q0 64 -44 104t-142 66l-129 34q-155 40 -220.5 78.5t-102.5 93.5t-37 135q0 148 105.5 225.5t307.5 77.5q179 0 284.5 -63
t133.5 -202l-162 -20q-15 72 -80.5 110.5t-175.5 38.5q-122 0 -180 -37t-58 -112q0 -46 24 -76t71 -51t198 -58q143 -36 206 -66.5t99.5 -67.5t56.5 -85.5t20 -110.5zM385 1201v20l217 287h207v-29l-330 -278h-94z" />
    <glyph glyph-name="Scircumflex" unicode="&#x15c;" horiz-adv-x="1366" 
d="M1272 389q0 -195 -152.5 -302t-429.5 -107q-515 0 -597 358l185 37q32 -127 136 -186.5t283 -59.5q185 0 285.5 63.5t100.5 186.5q0 69 -31.5 112t-88.5 71t-136 47t-175 41q-167 37 -253.5 74t-136.5 82.5t-76.5 106.5t-26.5 140q0 181 138.5 279t396.5 98
q240 0 367 -73.5t178 -250.5l-188 -33q-31 112 -118 162.5t-241 50.5q-169 0 -258 -56t-89 -167q0 -65 34.5 -107.5t99.5 -72t259 -72.5q65 -15 129.5 -30.5t123.5 -37t110.5 -50.5t89.5 -71t59.5 -99t21.5 -134zM1032 1550v-20h-105l-219 139h-2l-232 -139h-104v20l234 240
h204z" />
    <glyph glyph-name="scircumflex" unicode="&#x15d;" horiz-adv-x="1024" 
d="M950 299q0 -153 -115.5 -236t-323.5 -83q-202 0 -311.5 66.5t-142.5 207.5l159 31q23 -87 95 -127.5t200 -40.5q137 0 200.5 42t63.5 126q0 64 -44 104t-142 66l-129 34q-155 40 -220.5 78.5t-102.5 93.5t-37 135q0 148 105.5 225.5t307.5 77.5q179 0 284.5 -63
t133.5 -202l-162 -20q-15 72 -80.5 110.5t-175.5 38.5q-122 0 -180 -37t-58 -112q0 -46 24 -76t71 -51t198 -58q143 -36 206 -66.5t99.5 -67.5t56.5 -85.5t20 -110.5zM834 1221v-20h-105l-219 169h-2l-232 -169h-104v20l234 270h204z" />
    <glyph glyph-name="Scedilla" unicode="&#x15e;" horiz-adv-x="1366" 
d="M1272 389q0 -195 -152.5 -302t-429.5 -107q-515 0 -597 358l185 37q32 -127 136 -186.5t283 -59.5q185 0 285.5 63.5t100.5 186.5q0 69 -31.5 112t-88.5 71t-136 47t-175 41q-167 37 -253.5 74t-136.5 82.5t-76.5 106.5t-26.5 140q0 181 138.5 279t396.5 98
q240 0 367 -73.5t178 -250.5l-188 -33q-31 112 -118 162.5t-241 50.5q-169 0 -258 -56t-89 -167q0 -65 34.5 -107.5t99.5 -72t259 -72.5q65 -15 129.5 -30.5t123.5 -37t110.5 -50.5t89.5 -71t59.5 -99t21.5 -134zM905 -253q0 -181 -274 -181q-57 0 -90 4v98q49 -6 86 -6
q147 0 147 81q0 77 -133 77q-43 0 -57 -2l65 182h107l-39 -100q94 -3 141 -43.5t47 -109.5z" />
    <glyph glyph-name="scedilla" unicode="&#x15f;" horiz-adv-x="1024" 
d="M950 299q0 -153 -115.5 -236t-323.5 -83q-202 0 -311.5 66.5t-142.5 207.5l159 31q23 -87 95 -127.5t200 -40.5q137 0 200.5 42t63.5 126q0 64 -44 104t-142 66l-129 34q-155 40 -220.5 78.5t-102.5 93.5t-37 135q0 148 105.5 225.5t307.5 77.5q179 0 284.5 -63
t133.5 -202l-162 -20q-15 72 -80.5 110.5t-175.5 38.5q-122 0 -180 -37t-58 -112q0 -46 24 -76t71 -51t198 -58q143 -36 206 -66.5t99.5 -67.5t56.5 -85.5t20 -110.5zM701 -253q0 -181 -274 -181q-57 0 -90 4v98q49 -6 86 -6q147 0 147 81q0 77 -133 77q-43 0 -57 -2l65 182
h107l-39 -100q94 -3 141 -43.5t47 -109.5z" />
    <glyph glyph-name="Scaron" unicode="&#x160;" horiz-adv-x="1366" 
d="M1272 389q0 -195 -152.5 -302t-429.5 -107q-515 0 -597 358l185 37q32 -127 136 -186.5t283 -59.5q185 0 285.5 63.5t100.5 186.5q0 69 -31.5 112t-88.5 71t-136 47t-175 41q-167 37 -253.5 74t-136.5 82.5t-76.5 106.5t-26.5 140q0 181 138.5 279t396.5 98
q240 0 367 -73.5t178 -250.5l-188 -33q-31 112 -118 162.5t-241 50.5q-169 0 -258 -56t-89 -167q0 -65 34.5 -107.5t99.5 -72t259 -72.5q65 -15 129.5 -30.5t123.5 -37t110.5 -50.5t89.5 -71t59.5 -99t21.5 -134zM809 1530h-204l-234 239v21h104l232 -139h2l219 139h105v-21
z" />
    <glyph glyph-name="scaron" unicode="&#x161;" horiz-adv-x="1024" 
d="M950 299q0 -153 -115.5 -236t-323.5 -83q-202 0 -311.5 66.5t-142.5 207.5l159 31q23 -87 95 -127.5t200 -40.5q137 0 200.5 42t63.5 126q0 64 -44 104t-142 66l-129 34q-155 40 -220.5 78.5t-102.5 93.5t-37 135q0 148 105.5 225.5t307.5 77.5q179 0 284.5 -63
t133.5 -202l-162 -20q-15 72 -80.5 110.5t-175.5 38.5q-122 0 -180 -37t-58 -112q0 -46 24 -76t71 -51t198 -58q143 -36 206 -66.5t99.5 -67.5t56.5 -85.5t20 -110.5zM611 1201h-204l-234 270v20h104l232 -169h2l219 169h105v-20z" />
    <glyph glyph-name="Tcommaaccent" unicode="&#x162;" horiz-adv-x="1251" 
d="M720 1253v-1253h-190v1253h-484v156h1158v-156h-484zM833 -253q0 -181 -274 -181q-57 0 -90 4v98q49 -6 86 -6q147 0 147 81q0 77 -133 77q-43 0 -57 -2l65 182h107l-39 -100q94 -3 141 -43.5t47 -109.5z" />
    <glyph glyph-name="tcommaaccent" unicode="&#x163;" horiz-adv-x="569" 
d="M554 8q-89 -24 -182 -24q-216 0 -216 245v722h-125v131h132l53 242h120v-242h200v-131h-200v-683q0 -78 25.5 -109.5t88.5 -31.5q36 0 104 14v-133zM563 -253q0 -181 -274 -181q-57 0 -90 4v98q49 -6 86 -6q147 0 147 81q0 77 -133 77q-43 0 -57 -2l65 182h107l-39 -100
q94 -3 141 -43.5t47 -109.5z" />
    <glyph glyph-name="Tcaron" unicode="&#x164;" horiz-adv-x="1251" 
d="M720 1253v-1253h-190v1253h-484v156h1158v-156h-484zM727 1530h-204l-234 239v21h104l232 -139h2l219 139h105v-21z" />
    <glyph glyph-name="tcaron" unicode="&#x165;" horiz-adv-x="768" 
d="M554 8q-89 -24 -182 -24q-216 0 -216 245v722h-125v131h132l53 242h120v-242h200v-131h-200v-683q0 -78 25.5 -109.5t88.5 -31.5q36 0 104 14v-133zM785 1378q0 -87 -22 -145.5t-62 -105.5h-117q94 100 94 190h-88v167h195v-106z" />
    <glyph glyph-name="Tbar" unicode="&#x166;" horiz-adv-x="1251" 
d="M720 1253v-452h281v-154h-281v-647h-190v647h-279v154h279v452h-484v156h1158v-156h-484z" />
    <glyph glyph-name="tbar" unicode="&#x167;" horiz-adv-x="569" 
d="M336 516v-248q0 -78 25.5 -109.5t88.5 -31.5q36 0 104 14v-133q-89 -24 -182 -24q-216 0 -216 245v287h-125v131h125v304h-125v131h132l53 242h120v-242h200v-131h-200v-304h200v-131h-200z" />
    <glyph glyph-name="Utilde" unicode="&#x168;" horiz-adv-x="1479" 
d="M731 -20q-173 0 -302 63t-200 183t-71 286v897h191v-881q0 -193 98 -293t283 -100q190 0 295.5 103.5t105.5 302.5v868h190v-879q0 -171 -72.5 -295t-205 -189.5t-312.5 -65.5zM896 1530q-42 0 -84 18.5t-81 41t-74.5 41t-66.5 18.5q-55 0 -82 -31t-36 -88h-91
q11 102 35 154.5t64.5 83t103.5 30.5q44 0 86 -18.5t81 -41t73.5 -41t64.5 -18.5q100 0 117 119h92q-17 -148 -67 -208t-135 -60z" />
    <glyph glyph-name="utilde" unicode="&#x169;" 
d="M314 1082v-686q0 -107 21 -166t67 -85t135 -26q130 0 205 89t75 247v627h180v-851q0 -189 6 -231h-170q-1 5 -2 27t-2.5 50.5t-3.5 107.5h-3q-62 -112 -143.5 -158.5t-202.5 -46.5q-178 0 -260.5 88.5t-82.5 292.5v721h181zM738 1201q-42 0 -84 18.5t-81 41t-74.5 41
t-66.5 18.5q-55 0 -82 -31t-36 -88h-91q11 102 35 154.5t64.5 83t103.5 30.5q44 0 86 -18.5t81 -41t73.5 -41t64.5 -18.5q100 0 117 119h92q-17 -148 -67 -208t-135 -60z" />
    <glyph glyph-name="Umacron" unicode="&#x16a;" horiz-adv-x="1479" 
d="M731 -20q-173 0 -302 63t-200 183t-71 286v897h191v-881q0 -193 98 -293t283 -100q190 0 295.5 103.5t105.5 302.5v868h190v-879q0 -171 -72.5 -295t-205 -189.5t-312.5 -65.5zM1015 1565h-549v127h549v-127z" />
    <glyph glyph-name="umacron" unicode="&#x16b;" 
d="M314 1082v-686q0 -107 21 -166t67 -85t135 -26q130 0 205 89t75 247v627h180v-851q0 -189 6 -231h-170q-1 5 -2 27t-2.5 50.5t-3.5 107.5h-3q-62 -112 -143.5 -158.5t-202.5 -46.5q-178 0 -260.5 88.5t-82.5 292.5v721h181zM840 1236h-549v127h549v-127z" />
    <glyph glyph-name="Ubreve" unicode="&#x16c;" horiz-adv-x="1479" 
d="M731 -20q-173 0 -302 63t-200 183t-71 286v897h191v-881q0 -193 98 -293t283 -100q190 0 295.5 103.5t105.5 302.5v868h190v-879q0 -171 -72.5 -295t-205 -189.5t-312.5 -65.5zM738 1530q-133 0 -223.5 69t-108.5 180h117q17 -53 71.5 -83t145.5 -30t144.5 30.5
t70.5 82.5h117q-21 -114 -111 -181.5t-223 -67.5z" />
    <glyph glyph-name="ubreve" unicode="&#x16d;" 
d="M314 1082v-686q0 -107 21 -166t67 -85t135 -26q130 0 205 89t75 247v627h180v-851q0 -189 6 -231h-170q-1 5 -2 27t-2.5 50.5t-3.5 107.5h-3q-62 -112 -143.5 -158.5t-202.5 -46.5q-178 0 -260.5 88.5t-82.5 292.5v721h181zM564 1201q-132 0 -223 85t-109 224h117
q28 -153 217 -153q186 0 215 153h117q-21 -142 -110.5 -225.5t-223.5 -83.5z" />
    <glyph glyph-name="Uring" unicode="&#x16e;" horiz-adv-x="1479" 
d="M731 -20q-173 0 -302 63t-200 183t-71 286v897h191v-881q0 -193 98 -293t283 -100q190 0 295.5 103.5t105.5 302.5v868h190v-879q0 -171 -72.5 -295t-205 -189.5t-312.5 -65.5zM982 1613q0 -100 -71 -171t-171 -71t-171 71t-71 171q0 101 71 171t171 70q99 0 170.5 -70.5
t71.5 -170.5zM874 1613q0 56 -39 95t-95 39q-57 0 -96 -39t-39 -95q0 -55 38 -96t97 -41q58 0 96 40.5t38 96.5z" />
    <glyph glyph-name="uring" unicode="&#x16f;" 
d="M314 1082v-686q0 -107 21 -166t67 -85t135 -26q130 0 205 89t75 247v627h180v-851q0 -189 6 -231h-170q-1 5 -2 27t-2.5 50.5t-3.5 107.5h-3q-62 -112 -143.5 -158.5t-202.5 -46.5q-178 0 -260.5 88.5t-82.5 292.5v721h181zM811 1410q0 -100 -71 -171t-171 -71t-171 71
t-71 171q0 101 71 171t171 70q99 0 170.5 -70.5t71.5 -170.5zM703 1410q0 56 -39 95t-95 39q-57 0 -96 -39t-39 -95q0 -55 38 -96t97 -41q58 0 96 40.5t38 96.5z" />
    <glyph glyph-name="Uhungarumlaut" unicode="&#x170;" horiz-adv-x="1479" 
d="M731 -20q-173 0 -302 63t-200 183t-71 286v897h191v-881q0 -193 98 -293t283 -100q190 0 295.5 103.5t105.5 302.5v868h190v-879q0 -171 -72.5 -295t-205 -189.5t-312.5 -65.5zM445 1530v20l197 227h207v-29l-310 -218h-94zM792 1530v20l197 227h207v-29l-310 -218h-94z
" />
    <glyph glyph-name="uhungarumlaut" unicode="&#x171;" 
d="M314 1082v-686q0 -107 21 -166t67 -85t135 -26q130 0 205 89t75 247v627h180v-851q0 -189 6 -231h-170q-1 5 -2 27t-2.5 50.5t-3.5 107.5h-3q-62 -112 -143.5 -158.5t-202.5 -46.5q-178 0 -260.5 88.5t-82.5 292.5v721h181zM283 1201v20l217 287h207v-29l-330 -278h-94z
M630 1201v20l217 287h207v-29l-330 -278h-94z" />
    <glyph glyph-name="Uogonek" unicode="&#x172;" horiz-adv-x="1479" 
d="M731 -20q-173 0 -302 63t-200 183t-71 286v897h191v-881q0 -193 98 -293t283 -100q190 0 295.5 103.5t105.5 302.5v868h190v-879q0 -171 -72.5 -295t-205 -189.5t-312.5 -65.5zM974 -400q-63 -27 -139 -27q-105 0 -158 51t-53 136q0 70 43.5 136t111.5 104h133
q-25 -14 -51 -36.5t-47.5 -52t-35 -64.5t-13.5 -74q0 -42 24.5 -66t69.5 -24q54 0 115 24v-107z" />
    <glyph glyph-name="uogonek" unicode="&#x173;" 
d="M314 1082v-686q0 -107 21 -166t67 -85t135 -26q130 0 205 89t75 247v627h180v-851q0 -189 6 -231h-170q-1 5 -2 27t-2.5 50.5t-3.5 107.5h-3q-62 -112 -143.5 -158.5t-202.5 -46.5q-178 0 -260.5 88.5t-82.5 292.5v721h181zM1029 -400q-63 -27 -139 -27q-105 0 -158 51
t-53 136q0 70 43.5 136t111.5 104h133q-25 -14 -51 -36.5t-47.5 -52t-35 -64.5t-13.5 -74q0 -42 24.5 -66t69.5 -24q54 0 115 24v-107z" />
    <glyph glyph-name="Wcircumflex" unicode="&#x174;" horiz-adv-x="1933" 
d="M1511 0h-228l-244 895q-24 84 -70 301q-26 -116 -44 -194t-273 -1002h-228l-415 1409h199l253 -895q45 -168 83 -346q24 110 55.5 240t277.5 1001h183l245 -877q56 -215 88 -364l9 35q27 115 44 187.5t281 1018.5h199zM1295 1550v-20h-105l-219 139h-2l-232 -139h-104v20
l234 240h204z" />
    <glyph glyph-name="wcircumflex" unicode="&#x175;" horiz-adv-x="1479" 
d="M1174 0h-209l-189 765l-36 169q-9 -45 -28 -129.5t-204 -804.5h-208l-303 1082h178l183 -735q7 -24 43 -198l17 74l226 859h193l189 -743l46 -190l31 139l205 794h176zM1066 1221v-20h-105l-219 169h-2l-232 -169h-104v20l234 270h204z" />
    <glyph glyph-name="Ycircumflex" unicode="&#x176;" horiz-adv-x="1366" 
d="M777 584v-584h-190v584l-542 825h210l429 -671l427 671h210zM1009 1550v-20h-105l-219 139h-2l-232 -139h-104v20l234 240h204z" />
    <glyph glyph-name="ycircumflex" unicode="&#x177;" horiz-adv-x="1024" 
d="M191 -425q-74 0 -124 11v135q38 -6 84 -6q168 0 266 247l17 43l-429 1077h192l228 -598q5 -14 12 -33.5t45 -130.5t41 -124l70 197l237 689h190l-416 -1082q-67 -173 -125 -257.5t-128.5 -126t-159.5 -41.5zM844 1221v-20h-105l-219 169h-2l-232 -169h-104v20l234 270
h204z" />
    <glyph glyph-name="Ydieresis" unicode="&#x178;" horiz-adv-x="1366" 
d="M777 584v-584h-190v584l-542 825h210l429 -671l427 671h210zM799 1530v184h163v-184h-163zM405 1530v184h165v-184h-165z" />
    <glyph glyph-name="Zacute" unicode="&#x179;" horiz-adv-x="1251" 
d="M1187 0h-1122v143l858 1110h-785v156h1002v-139l-858 -1114h905v-156zM488 1530v20l217 226h207v-29l-310 -217h-114z" />
    <glyph glyph-name="zacute" unicode="&#x17a;" horiz-adv-x="1024" 
d="M83 0v137l605 806h-571v139h784v-137l-606 -806h627v-139h-839zM381 1201v20l217 287h207v-29l-330 -278h-94z" />
    <glyph glyph-name="Zdotaccent" unicode="&#x17b;" horiz-adv-x="1251" 
d="M1187 0h-1122v143l858 1110h-785v156h1002v-139l-858 -1114h905v-156zM536 1605v172h180v-172h-180z" />
    <glyph glyph-name="zdotaccent" unicode="&#x17c;" horiz-adv-x="1024" 
d="M83 0v137l605 806h-571v139h784v-137l-606 -806h627v-139h-839zM409 1312v172h180v-172h-180z" />
    <glyph glyph-name="Zcaron" unicode="&#x17d;" horiz-adv-x="1251" 
d="M1187 0h-1122v143l858 1110h-785v156h1002v-139l-858 -1114h905v-156zM750 1530h-204l-234 239v21h104l232 -139h2l219 139h105v-21z" />
    <glyph glyph-name="zcaron" unicode="&#x17e;" horiz-adv-x="1024" 
d="M83 0v137l605 806h-571v139h784v-137l-606 -806h627v-139h-839zM594 1201h-204l-234 270v20h104l232 -169h2l219 169h105v-20z" />
    <glyph glyph-name="longs" unicode="&#x17f;" horiz-adv-x="455" 
d="M318 0h-180v1204q0 148 65 213t199 65q75 0 127 -12v-137q-45 8 -80 8q-69 0 -100 -35t-31 -127v-1179z" />
    <glyph glyph-name="uni0180" unicode="&#x180;" 
d="M11 1337h127v147h180v-147h305v-131h-305v-145q0 -65 -4 -153h4q50 104 132.5 149t204.5 45q205 0 301.5 -138t96.5 -418q0 -566 -398 -566q-123 0 -204.5 44.5t-132.5 143.5h-2q0 -31 -4 -94.5t-6 -73.5h-174q6 54 6 223v983h-127v131zM864 540q0 227 -60 325t-195 98
q-152 0 -221.5 -104t-69.5 -330q0 -213 68 -314.5t221 -101.5q136 0 196.5 100.5t60.5 326.5z" />
    <glyph glyph-name="uni0181" unicode="&#x181;" horiz-adv-x="1553" 
d="M1436 397q0 -188 -137 -292.5t-381 -104.5h-572v1261h-29q-77 0 -110 -34t-33 -105q0 -49 18 -105l-155 -17q-17 74 -17 135q0 130 86 202t240 72h512q496 0 496 -342q0 -125 -70 -210t-198 -114q168 -20 259 -112.5t91 -233.5zM1243 412q0 249 -350 249h-356v-508h371
q175 0 255 65t80 194zM1162 1044q0 114 -78 163t-226 49h-321v-446h321q153 0 228.5 57.5t75.5 176.5z" />
    <glyph glyph-name="uni0182" unicode="&#x182;" horiz-adv-x="1344" 
d="M1263 413q0 -187 -129 -300t-356 -113h-610v1409h951v-156h-760v-440h407q236 0 366.5 -105t130.5 -295zM1071 411q0 121 -82 185.5t-246 64.5h-384v-510h392q164 0 242 68t78 192z" />
    <glyph glyph-name="uni0183" unicode="&#x183;" 
d="M1053 546q0 -566 -398 -566q-123 0 -204.5 44.5t-132.5 143.5h-2q0 -31 -4 -94.5t-6 -73.5h-174q6 54 6 223v1261h744v-159h-564v-264q0 -65 -4 -153h4q50 104 132.5 149t204.5 45q205 0 301.5 -138t96.5 -418zM864 540q0 227 -60 325t-195 98q-152 0 -221.5 -104
t-69.5 -330q0 -213 68 -314.5t221 -101.5q136 0 196.5 100.5t60.5 326.5z" />
    <glyph glyph-name="uni0184" unicode="&#x184;" horiz-adv-x="1344" 
d="M1263 418q0 -123 -58.5 -218t-168 -147.5t-258.5 -52.5h-610v1011l-158 165v33l293 200h56v-586h407q237 0 367 -107.5t130 -297.5zM1071 416q0 120 -82.5 187.5t-245.5 67.5h-384v-520h392q164 0 242 70.5t78 194.5z" />
    <glyph glyph-name="uni0185" unicode="&#x185;" 
d="M10 1266v33l257 185h51v-423q0 -65 -4 -153h4q50 104 132.5 149t204.5 45q205 0 301.5 -138t96.5 -418q0 -566 -398 -566q-123 0 -204.5 44.5t-132.5 143.5h-2q0 -31 -4 -94.5t-6 -73.5h-174q6 54 6 223v863zM864 540q0 227 -60 325t-195 98q-152 0 -221.5 -104
t-69.5 -330q0 -213 68 -314.5t221 -101.5q136 0 196.5 100.5t60.5 326.5z" />
    <glyph glyph-name="uni0186" unicode="&#x186;" horiz-adv-x="1479" 
d="M697 136q233 0 362 149t129 414q0 260 -134.5 417t-364.5 157q-291 0 -442 -293l-156 78q88 182 243.5 277t363.5 95q322 0 503 -196t181 -535q0 -338 -181 -528.5t-502 -190.5q-452 0 -595 349l181 60q45 -120 153 -186.5t259 -66.5z" />
    <glyph glyph-name="uni0187" unicode="&#x187;" horiz-adv-x="1479" 
d="M792 1274q-234 0 -364 -150.5t-130 -412.5q0 -259 135.5 -416.5t366.5 -157.5q296 0 445 293l156 -78q-87 -182 -244.5 -277t-365.5 -95q-213 0 -368.5 88.5t-237 253t-81.5 389.5q0 337 182 528t504 191q275 0 440 -133v23q0 138 68.5 217t190.5 79q54 0 120 -15v-157
q-56 18 -88 18q-71 0 -102 -35.5t-31 -112.5v-233l-181 -60q-49 123 -157.5 188t-257.5 65z" />
    <glyph glyph-name="uni0188" unicode="&#x188;" horiz-adv-x="1024" 
d="M275 546q0 -216 68 -320t205 -104q96 0 160.5 52t79.5 160l182 -12q-21 -156 -133 -249t-284 -93q-227 0 -346.5 143.5t-119.5 418.5q0 273 120 416.5t344 143.5q150 0 256 -72q9 121 74.5 187t183.5 66q47 0 99 -12v-150q-36 16 -79 16q-66 0 -93.5 -35.5t-27.5 -112.5
v-210l-185 -14q-14 90 -71 143t-162 53q-143 0 -207 -95t-64 -320z" />
    <glyph glyph-name="uni0189" unicode="&#x189;" horiz-adv-x="1479" 
d="M14 801h154v608h466q358 0 552.5 -179.5t194.5 -510.5q0 -218 -85 -381.5t-241 -250.5t-360 -87h-527v647h-154v154zM1189 719q0 262 -143.5 399.5t-415.5 137.5h-271v-455h406v-154h-406v-494h314q155 0 272.5 68t180.5 196t63 302z" />
    <glyph glyph-name="uni018A" unicode="&#x18a;" horiz-adv-x="1658" 
d="M1559 719q0 -218 -85 -381.5t-241 -250.5t-360 -87h-527v1261h-29q-77 0 -110 -34t-33 -105q0 -49 18 -105l-155 -17q-17 74 -17 135q0 130 86 202t240 72h466q358 0 552.5 -179.5t194.5 -510.5zM1367 719q0 262 -143.5 399.5t-415.5 137.5h-271v-1103h314
q155 0 272.5 68t180.5 196t63 302z" />
    <glyph glyph-name="uni018B" unicode="&#x18b;" horiz-adv-x="1344" 
d="M81 413q0 190 130.5 295t366.5 105h407v440h-760v156h951v-1409h-610q-226 0 -355.5 113t-129.5 300zM273 411q0 -124 78 -192t242 -68h392v510h-384q-164 0 -246 -64.5t-82 -185.5z" />
    <glyph glyph-name="uni018C" unicode="&#x18c;" 
d="M82 546q0 280 96.5 418t301.5 138q122 0 204.5 -45t132.5 -149h4q-4 88 -4 153v264h-564v159h744v-1261q0 -169 6 -223h-174q-2 9 -6 73t-4 95h-2q-51 -99 -132.5 -143.5t-204.5 -44.5q-398 0 -398 566zM271 540q0 -225 60.5 -326t196.5 -101q151 0 220 101t69 315
q0 224 -69 329t-222 105q-135 0 -195 -98.5t-60 -324.5z" />
    <glyph glyph-name="uni018D" unicode="&#x18d;" horiz-adv-x="1140" 
d="M189 -280h519q-100 89 -210 176l-217 175q-105 88 -150 203t-45 283q0 279 121.5 412t363.5 133q251 0 366.5 -131t115.5 -414q0 -527 -444 -552l356 -298v-132h-776v145zM864 557q0 220 -65 316t-225 96q-161 0 -230 -98t-69 -314q0 -212 68.5 -316t219.5 -104
q113 0 175.5 42.5t94 135t31.5 242.5z" />
    <glyph glyph-name="uni018E" unicode="&#x18e;" horiz-adv-x="1366" 
d="M89 0v156h919v491h-818v154h818v452h-878v156h1069v-1409h-1110z" />
    <glyph glyph-name="uni018F" unicode="&#x18f;" horiz-adv-x="1541" 
d="M772 126q227 0 352.5 137.5t136.5 388.5h-985q17 -247 147 -386.5t349 -139.5zM1254 810q-25 218 -153 341t-327 123q-155 0 -261.5 -66.5t-163.5 -187.5l-182 57q78 168 231.5 260.5t375.5 92.5q208 0 360 -87t232.5 -250.5t80.5 -381.5q0 -219 -82 -385.5t-235 -256
t-358 -89.5q-209 0 -362.5 89t-234.5 255.5t-81 386.5q0 37 5 99h1155z" />
    <glyph glyph-name="uni0190" unicode="&#x190;" horiz-adv-x="1237" 
d="M608 -20q-153 0 -271.5 51.5t-183.5 146t-65 213.5q0 142 82 231.5t240 113.5q-280 55 -280 315q0 170 129.5 274t339.5 104q199 0 331.5 -84t202.5 -257l-178 -61q-50 129 -136.5 188t-212.5 59q-130 0 -207.5 -58t-77.5 -159q0 -255 354 -255h71v-148h-71
q-202 0 -298 -59t-96 -192q0 -128 89.5 -199t244.5 -71q263 0 382 272l165 -77q-85 -186 -218 -267t-336 -81z" />
    <glyph glyph-name="uni0191" unicode="&#x191;" horiz-adv-x="1251" 
d="M359 1253v-524h786v-158h-786v-701q0 -143 -71.5 -219t-202.5 -76q-61 0 -143 20l35 156q51 -17 87 -17q104 0 104 157v1518h1001v-156h-810z" />
    <glyph glyph-name="florin" unicode="&#x192;" 
d="M932 1312q-51 15 -110 15q-60 0 -92 -37t-51 -131l-26 -137h211l-25 -131h-213l-254 -1325h-180l254 1325h-152l27 131h151l29 152q31 153 105.5 216.5t207.5 63.5q79 0 149 -20z" />
    <glyph glyph-name="uni0193" unicode="&#x193;" horiz-adv-x="1593" 
d="M1227 1044q-60 120 -165.5 175t-262.5 55q-244 0 -373 -147.5t-129 -415.5q0 -267 137 -421.5t379 -154.5q138 0 257.5 42t193.5 114v254h-421v160h597v-486q-112 -114 -274.5 -176.5t-352.5 -62.5q-221 0 -381 88t-244.5 253.5t-84.5 389.5q0 343 184 531t517 188
q289 0 447 -123v30q0 138 68.5 217t190.5 79q54 0 120 -15v-157q-56 18 -88 18q-71 0 -102 -35.5t-31 -112.5v-233z" />
    <glyph glyph-name="uni0194" unicode="&#x194;" horiz-adv-x="1278" 
d="M641 -425q-115 0 -182 71.5t-67 193.5q0 45 13.5 97.5t34.5 105t100 204.5l-530 1162h201l429 -1001l427 1001h201l-530 -1162q89 -162 120.5 -252t31.5 -155q0 -121 -66.5 -193t-182.5 -72zM727 -163q0 57 -26 139.5t-60 153.5q-34 -71 -60 -153t-26 -140
q0 -53 23 -82.5t63 -29.5t63 29t23 83z" />
    <glyph glyph-name="uni0195" unicode="&#x195;" horiz-adv-x="1804" 
d="M1256 -20q-199 0 -305 100.5t-106 280.5v325q0 153 -57.5 215t-185.5 62q-127 0 -203.5 -88t-76.5 -237v-638h-180v1484h180v-386q0 -61 -3.5 -126t-4.5 -75h3q99 205 346 205q183 0 273 -93t90 -288v-327q0 -156 55 -216.5t176 -60.5q122 0 176 60.5t54 216.5v688h181
v-717q0 -180 -106.5 -282.5t-305.5 -102.5z" />
    <glyph glyph-name="uni0196" unicode="&#x196;" horiz-adv-x="455" 
d="M138 0v1484h180v-1484h-180z" />
    <glyph glyph-name="uni0197" unicode="&#x197;" horiz-adv-x="569" 
d="M196 0v672h-166v141h166v671h180v-671h169v-141h-169v-672h-180z" />
    <glyph glyph-name="uni0198" unicode="&#x198;" horiz-adv-x="1366" 
d="M1106 0l-563 680l-184 -140v-540h-191v1129q0 143 76 219.5t216 76.5q66 0 132 -15v-165q-50 18 -107 18q-126 0 -126 -148v-412l679 706h225l-600 -612l680 -797h-237z" />
    <glyph glyph-name="uni0199" unicode="&#x199;" horiz-adv-x="1024" 
d="M793 1082h211l-439 -465l462 -617h-211l-366 494l-132 -109v-385h-180v1202q0 143 76 219.5t216 76.5q66 0 132 -15v-165q-50 18 -116 18q-128 0 -128 -148v-631z" />
    <glyph glyph-name="uni019A" unicode="&#x19a;" horiz-adv-x="455" 
d="M132 0v672h-112v141h112v671h180v-671h109v-141h-109v-672h-180z" />
    <glyph glyph-name="uni019B" unicode="&#x19b;" horiz-adv-x="1024" 
d="M714 1275l-159 -58l451 -1217h-190l-207 577q-41 112 -65 214q-15 -46 -36.5 -99.5t-306.5 -691.5h-187l449 970l-68 189l-184 -67l-46 118l188 69l-73 205h177l54 -147l157 57z" />
    <glyph glyph-name="uni019C" unicode="&#x19c;" horiz-adv-x="1824" 
d="M1195 -20q-208 0 -300 167q-120 -167 -324 -167q-413 0 -413 492v937h188v-921q0 -128 24 -205t73.5 -112.5t137.5 -35.5q119 0 174.5 77t55.5 228v969h189v-953q0 -163 50 -242t169 -79q247 0 247 323v951h189v-1178q0 -146 10 -231h-170l-7 146q-50 -81 -125 -123.5
t-168 -42.5z" />
    <glyph glyph-name="uni019D" unicode="&#x19d;" horiz-adv-x="1479" 
d="M168 1409h222l762 -1208q-12 196 -12 284v924h172v-1409h-230l-754 1200l5 -97l5 -167v-1066q0 -144 -67.5 -219.5t-197.5 -75.5q-72 0 -121 11v162q44 -14 100 -14q115 0 115 157z" />
    <glyph glyph-name="uni019E" unicode="&#x19e;" 
d="M825 -426v1112q0 107 -21 166t-67 85t-135 26q-130 0 -205 -89t-75 -247v-627h-180v851q0 189 -6 231h170q1 -5 2 -27t2.5 -50.5t3.5 -107.5h3q62 112 143.5 158.5t202.5 46.5q178 0 260.5 -88.5t82.5 -292.5v-1147h-181z" />
    <glyph glyph-name="uni019F" unicode="&#x19f;" horiz-adv-x="1593" 
d="M1495 711q0 -221 -84.5 -387t-242.5 -255t-373 -89q-217 0 -374.5 88t-240.5 254.5t-83 388.5q0 338 185 528.5t515 190.5q215 0 373 -85.5t241.5 -248.5t83.5 -385zM795 135q231 0 360.5 135t142.5 382h-1005q15 -239 146.5 -378t355.5 -139zM797 1274
q-217 0 -346.5 -120t-154.5 -341h998q-25 219 -155 340t-342 121z" />
    <glyph glyph-name="Ohorn" unicode="&#x1a0;" horiz-adv-x="1756" 
d="M1495 711q0 -221 -84.5 -387t-242.5 -255t-373 -89q-217 0 -374.5 88t-240.5 254.5t-83 388.5q0 338 185 528.5t515 190.5q244 0 410 -107.5t238 -303.5q88 44 122.5 97t34.5 126h-88v167h195v-106q0 -123 -57.5 -214.5t-182.5 -152.5q26 -106 26 -225zM1300 711
q0 263 -131.5 413t-371.5 150q-242 0 -374 -148t-132 -415q0 -265 133.5 -420.5t370.5 -155.5q244 0 374.5 150.5t130.5 425.5z" />
    <glyph glyph-name="ohorn" unicode="&#x1a1;" horiz-adv-x="1343" 
d="M1053 542q0 -284 -125 -423t-363 -139q-237 0 -358 144.5t-121 417.5q0 560 485 560q213 0 327.5 -100t143.5 -300q134 65 134 219h-88v167h195v-106q0 -129 -60 -225t-172 -144zM864 542q0 224 -66.5 325.5t-223.5 101.5q-158 0 -228.5 -103.5t-70.5 -323.5
q0 -214 69.5 -321.5t218.5 -107.5q162 0 231.5 104t69.5 325z" />
    <glyph glyph-name="uni01A2" unicode="&#x1a2;" horiz-adv-x="1778" 
d="M1206 85q-109 -52 -204.5 -78.5t-214.5 -26.5q-213 0 -369 89t-238.5 255t-82.5 387q0 220 83 383.5t240 249.5t369 86q163 0 366 -71l414 64h43v-1847h-180v1645l-226 2v-1138zM1026 1228q-100 46 -237 46q-236 0 -367 -150t-131 -413q0 -264 132.5 -420t363.5 -156
q138 0 239 46v1047z" />
    <glyph glyph-name="uni01A3" unicode="&#x1a3;" horiz-adv-x="1367" 
d="M1045 -425v1343h-189v-855q-57 -39 -133.5 -61t-157.5 -22q-237 0 -358 144.5t-121 417.5q0 560 485 560q82 0 156.5 -21.5t125.5 -52.5l324 65h43v-1518h-175zM574 969q-158 0 -228.5 -103.5t-70.5 -323.5q0 -214 69.5 -321.5t218.5 -107.5q64 0 120 22l-1 814
q-52 20 -108 20z" />
    <glyph glyph-name="uni01A4" unicode="&#x1a4;" horiz-adv-x="1545" 
d="M932 1409q237 0 367 -111t130 -313q0 -200 -130.5 -318t-354.5 -118h-414v-549h-191v1261h-22q-77 0 -110 -34t-33 -105q0 -49 18 -105l-155 -17q-17 74 -17 135q0 130 86 202t240 72h586zM1237 983q0 273 -328 273h-379v-556h387q320 0 320 283z" />
    <glyph glyph-name="uni01A5" unicode="&#x1a5;" 
d="M1053 546q0 -566 -398 -566q-250 0 -336 188h-5q4 -8 4 -170v-423h-180v1627q0 145 73 220.5t216 75.5q54 0 93 -8l37 -8v-166q-56 20 -116 20q-125 0 -125 -148v-280h4q48 100 127 146.5t208 46.5q200 0 299 -134t99 -421zM864 542q0 226 -61 323t-194 97
q-107 0 -167.5 -45t-92 -140.5t-31.5 -248.5q0 -213 68 -314t221 -101q134 0 195.5 98.5t61.5 330.5z" />
    <glyph glyph-name="uni01A6" unicode="&#x1a6;" horiz-adv-x="1366" 
d="M1127 -319l-387 750h-381v-431h-191v1409h187v-154h418q238 0 367.5 -106.5t129.5 -296.5q0 -157 -91.5 -264t-252.5 -135l421 -772h-220zM1078 850q0 123 -83.5 187.5t-240.5 64.5h-395v-520h403q151 0 233.5 70.5t82.5 197.5z" />
    <glyph glyph-name="uni01A7" unicode="&#x1a7;" horiz-adv-x="1366" 
d="M98 382q0 90 31 159.5t91 121t155 89t251 66.5q159 30 236 61t117 75.5t40 108.5q0 223 -340 223q-155 0 -244.5 -59.5t-120.5 -188.5l-188 33q51 191 177.5 275t373.5 84q258 0 393 -98t135 -279q0 -77 -25 -135.5t-72 -101t-128.5 -76.5t-267.5 -74
q-189 -41 -269.5 -77.5t-118 -88t-37.5 -128.5q0 -243 374 -243q128 0 213 33t136 98t81 191l185 -37q-52 -226 -202 -330t-406 -104q-277 0 -423.5 103.5t-146.5 298.5z" />
    <glyph glyph-name="uni01A8" unicode="&#x1a8;" horiz-adv-x="1024" 
d="M79 299q0 91 40.5 152.5t113.5 102t226 75.5q152 35 198 56.5t70.5 52t24.5 76.5q0 149 -214 149q-111 0 -176 -43t-85 -139l-162 20q31 151 136 224.5t288 73.5t285.5 -78t102.5 -225q0 -82 -38 -138.5t-107.5 -95.5t-214.5 -73q-162 -39 -212 -62.5t-75.5 -57
t-25.5 -84.5q0 -168 244 -168q248 0 306 208l159 -31q-76 -314 -465 -314q-194 0 -306.5 83.5t-112.5 235.5z" />
    <glyph glyph-name="uni01A9" unicode="&#x1a9;" horiz-adv-x="1266" 
d="M108 0v162l538 579l-521 507v161h999v-156h-784l458 -445v-124l-490 -528h877v-156h-1077z" />
    <glyph glyph-name="uni01AA" unicode="&#x1aa;" horiz-adv-x="779" 
d="M67 1302q0 90 55.5 140.5t149.5 50.5q134 0 200 -76t66 -213v-1328q0 -68 29.5 -105.5t87.5 -37.5q54 0 106 13v-158q-69 -13 -134 -13q-128 0 -198.5 76.5t-70.5 219.5v1277q-15 -11 -45.5 -20t-57.5 -9q-84 0 -136 51.5t-52 131.5zM144 1307q0 -49 30 -79t78 -30
q49 0 79 30t30 79q0 48 -29.5 78t-79.5 30q-48 0 -78 -30t-30 -78z" />
    <glyph glyph-name="uni01AB" unicode="&#x1ab;" horiz-adv-x="569" 
d="M554 -143q0 -282 -253 -282q-67 0 -135 17v160q56 -18 106 -18q60 0 87 33t27 104v113h-14q-216 0 -216 245v722h-125v131h132l53 242h120v-242h200v-131h-200v-683q0 -78 25.5 -109.5t88.5 -31.5q36 0 104 14v-284z" />
    <glyph glyph-name="uni01AC" unicode="&#x1ac;" horiz-adv-x="1251" 
d="M720 1253v-1253h-190v1253h-213q-77 0 -110 -30t-33 -101q0 -49 18 -105l-155 -17q-17 74 -17 135q0 134 77.5 204t228.5 70h878v-156h-484z" />
    <glyph glyph-name="uni01AD" unicode="&#x1ad;" horiz-adv-x="569" 
d="M554 8q-89 -24 -182 -24q-216 0 -216 245v722h-125v131h132v110q0 152 70 229t204 77q66 0 120 -14v-168q-56 20 -102 20q-63 0 -91 -36.5t-28 -111.5v-106h200v-131h-200v-683q0 -78 25.5 -109.5t88.5 -31.5q36 0 104 14v-133z" />
    <glyph glyph-name="uni01AE" unicode="&#x1ae;" horiz-adv-x="1251" 
d="M46 1253v156h1158v-156h-484v-1362q0 -81 24 -119t76 -38q60 0 110 16v-158q-70 -17 -132 -17q-129 0 -198.5 74t-69.5 210v1394h-484z" />
    <glyph glyph-name="Uhorn" unicode="&#x1af;" horiz-adv-x="1749" 
d="M731 -20q-173 0 -302 63t-200 183t-71 286v897h191v-881q0 -193 98 -293t283 -100q190 0 295.5 103.5t105.5 302.5v868h190v-403q121 25 178.5 83t57.5 153h-88v167h195v-106q0 -162 -84.5 -262t-258.5 -126v-385q0 -171 -72.5 -295t-205 -189.5t-312.5 -65.5z" />
    <glyph glyph-name="uhorn" unicode="&#x1b0;" horiz-adv-x="1371" 
d="M314 1082v-686q0 -107 21 -166t67 -85t135 -26q130 0 205 89t75 247v627h180v-414q115 35 159.5 90.5t44.5 156.5h-88v167h195v-106q0 -159 -72 -255.5t-239 -143.5v-346q0 -189 6 -231h-170q-1 5 -2 27t-2.5 50.5t-3.5 107.5h-3q-62 -112 -143.5 -158.5t-202.5 -46.5
q-178 0 -260.5 88.5t-82.5 292.5v721h181z" />
    <glyph glyph-name="uni01B1" unicode="&#x1b1;" horiz-adv-x="1531" 
d="M765 -21q-303 0 -476.5 167.5t-173.5 461.5q0 201 107.5 371t316.5 285q-154 -11 -208 -11h-244v156h589v-224q-179 -95 -272.5 -237.5t-93.5 -326.5q0 -232 119 -359t335 -127q218 0 337 127t119 359q0 183 -93 325.5t-273 238.5v224h589v-156h-244q-54 0 -208 11
q208 -113 316 -283.5t108 -372.5q0 -294 -173.5 -461.5t-476.5 -167.5z" />
    <glyph glyph-name="uni01B2" unicode="&#x1b2;" horiz-adv-x="1479" 
d="M703 -20q-165 0 -287.5 65.5t-190 191t-67.5 305.5v867h191v-851q0 -200 96.5 -311.5t273.5 -111.5q200 0 304.5 202t104.5 612q0 169 -39 241t-130 72q-58 0 -108 -10l-7 157q67 12 145 12q161 0 245 -112t84 -329q0 -375 -67.5 -584.5t-204.5 -312.5t-343 -103z" />
    <glyph glyph-name="uni01B3" unicode="&#x1b3;" horiz-adv-x="1582" 
d="M1281 1421q60 0 126.5 -22.5t125.5 -73.5l-84 -136q-26 24 -73 46.5t-84 22.5q-36 0 -60.5 -14.5t-56.5 -62.5l-398 -597v-584h-190v584l-542 825h214l428 -671l340 526q55 86 115 121.5t139 35.5z" />
    <glyph glyph-name="uni01B4" unicode="&#x1b4;" horiz-adv-x="1024" 
d="M191 -425q-74 0 -124 11v135q38 -6 84 -6q168 0 266 247l17 43l-429 1077h192l228 -598q5 -14 12 -33.5t45 -130.5t41 -124l70 197l298 856q32 89 70.5 142t88 77t130.5 24q130 0 238 -93l-82 -128q-68 62 -140 62q-97 0 -148 -137l-444 -1196q-93 -239 -186.5 -332
t-226.5 -93z" />
    <glyph glyph-name="uni01B5" unicode="&#x1b5;" horiz-adv-x="1251" 
d="M62 814h522l339 439h-785v156h1002v-139l-351 -456h399v-133h-502l-404 -525h905v-156h-1122v143l416 538h-419v133z" />
    <glyph glyph-name="uni01B6" unicode="&#x1b6;" horiz-adv-x="1024" 
d="M47 617h395l268 326h-621v139h824v-137l-270 -328h308v-133h-417l-283 -345h699v-139h-901v137l284 347h-286v133z" />
    <glyph glyph-name="uni01B7" unicode="&#x1b7;" horiz-adv-x="1251" 
d="M418 759l500 494h-805v156h1018v-161l-505 -490q270 -18 412.5 -167.5t142.5 -419.5q0 -174 -71.5 -310.5t-202.5 -211.5t-294 -75q-208 0 -346.5 83t-221.5 265l162 72q118 -271 399 -271q181 0 284 117.5t103 330.5q0 215 -129.5 331t-374.5 116h-71v141z" />
    <glyph glyph-name="uni01B8" unicode="&#x1b8;" horiz-adv-x="1251" 
d="M833 618h-71q-244 0 -374 -115.5t-130 -331.5q0 -139 49.5 -239.5t137 -154.5t200.5 -54q281 0 399 271l162 -72q-83 -182 -222 -265t-346 -83q-257 0 -412.5 160.5t-155.5 436.5q0 251 146.5 404.5t408.5 182.5l-505 490v161h1018v-156h-805l500 -494v-141z" />
    <glyph glyph-name="uni01B9" unicode="&#x1b9;" horiz-adv-x="1116" 
d="M1012 942h-693l383 -387v-144h-82q-156 0 -251 -92t-95 -244q0 -92 40.5 -177.5t109 -134.5t149.5 -49q139 0 215 60t94 190l178 -12q-23 -187 -150.5 -283t-342.5 -96q-141 0 -249 64.5t-166.5 178.5t-58.5 253q0 193 108 319.5t297 151.5l-369 365v178h883v-141z" />
    <glyph glyph-name="uni01BA" unicode="&#x1ba;" horiz-adv-x="1116" 
d="M1055 -101q-40 -155 -174.5 -240t-344.5 -85q-138 0 -245.5 38t-160 106.5t-52.5 160.5q0 79 42.5 134t117 94t243.5 82q171 42 228 82.5t57 98.5q0 74 -97.5 104.5t-290.5 30.5v139l356 298h-626v140h868v-119l-396 -322q178 -13 269 -82.5t91 -188.5q0 -82 -39.5 -136
t-108.5 -90t-245 -79q-137 -34 -185.5 -57t-74.5 -55.5t-26 -80.5q0 -73 70 -114t206 -41q274 0 340 201z" />
    <glyph glyph-name="uni01BB" unicode="&#x1bb;" 
d="M90 750h592q74 69 110.5 139t36.5 149q0 116 -68 180t-189 64q-115 0 -189.5 -62.5t-87.5 -175.5l-184 17q20 169 143.5 269t317.5 100q213 0 327.5 -100.5t114.5 -285.5q0 -146 -123 -294h141v-136h-276q-65 -58 -134.5 -114t-132 -112t-112.5 -114t-76 -121h735v-153
h-933v127q37 87 91 162t120.5 143t207.5 182h-432v136z" />
    <glyph glyph-name="uni01BC" unicode="&#x1bc;" 
d="M1062 479q0 -236 -132.5 -367.5t-367.5 -131.5q-191 0 -315 97t-158 268l179 21q35 -126 109.5 -184.5t187.5 -58.5q148 0 229 90t81 262q0 160 -86.5 240t-249.5 80h-229v458h-172v156h842v-156h-486v-303h78q231 0 360.5 -126t129.5 -345z" />
    <glyph glyph-name="uni01BD" unicode="&#x1bd;" horiz-adv-x="939" 
d="M682 341q0 209 -293 209h-167v392h-172v140h780v-140h-446v-254h54q203 0 314 -91.5t111 -253.5q0 -173 -104.5 -268t-292.5 -95q-177 0 -281.5 80.5t-138.5 250.5l174 12q13 -93 77.5 -151.5t156.5 -58.5q228 0 228 228z" />
    <glyph glyph-name="uni01BE" unicode="&#x1be;" horiz-adv-x="997" 
d="M347 951v-107q0 -84 16.5 -118t57.5 -56.5t117 -40.5q131 -34 182 -55t87 -46t61 -58.5t38.5 -74.5t13.5 -96q0 -152 -100 -235.5t-309 -83.5q-202 0 -311.5 66.5t-142.5 207.5l159 31q23 -87 95 -127.5t200 -40.5t181 40t53 128q0 49 -18 80.5t-54 52.5t-89.5 36.5
t-123.5 34.5q-165 43 -229 121.5t-64 215.5v125h-131v131h132v347l179 78v-425h185v-131h-185z" />
    <glyph glyph-name="uni01BF" unicode="&#x1bf;" 
d="M1051 624q0 -164 -74.5 -300t-229.5 -243.5t-429 -207.5v-299h-180v1508h168q10 -105 10 -174h4q44 97 127.5 145t195.5 48q197 0 302.5 -122.5t105.5 -354.5zM861 624q0 338 -256 338q-143 0 -215 -102.5t-72 -314.5v-525q200 75 315.5 164t171.5 197.5t56 242.5z" />
    <glyph glyph-name="uni01C0" unicode="&#x1c0;" horiz-adv-x="532" 
d="M176 0v1484h180v-1484h-180z" />
    <glyph glyph-name="uni01C1" unicode="&#x1c1;" horiz-adv-x="846" 
d="M179 0v1484h165v-1484h-165zM502 0v1484h165v-1484h-165z" />
    <glyph glyph-name="uni01C2" unicode="&#x1c2;" horiz-adv-x="1196" 
d="M114 1030h396v454h174v-454h398v-153h-398v-308h398v-153h-398v-416h-174v416h-396v153h396v308h-396v153z" />
    <glyph glyph-name="uni01C3" unicode="&#x1c3;" horiz-adv-x="569" 
d="M359 397h-148l-24 1012h196zM185 0v201h194v-201h-194z" />
    <glyph glyph-name="uni01C4" unicode="&#x1c4;" horiz-adv-x="2730" 
d="M1381 719q0 -218 -85 -381.5t-241 -250.5t-360 -87h-527v1409h466q358 0 552.5 -179.5t194.5 -510.5zM1189 719q0 262 -143.5 399.5t-415.5 137.5h-271v-1103h314q155 0 272.5 68t180.5 196t63 302zM2666 0h-1122v143l858 1110h-785v156h1002v-139l-858 -1114h905v-156z
M2217 1557h-204l-234 270v20h104l232 -169h2l219 169h105v-20z" />
    <glyph glyph-name="uni01C5" unicode="&#x1c5;" horiz-adv-x="2503" 
d="M1381 719q0 -218 -85 -381.5t-241 -250.5t-360 -87h-527v1409h466q358 0 552.5 -179.5t194.5 -510.5zM1189 719q0 262 -143.5 399.5t-415.5 137.5h-271v-1103h314q155 0 272.5 68t180.5 196t63 302zM1562 0v137l605 806h-571v139h784v-137l-606 -806h627v-139h-839z
M2046 1201h-204l-234 270v20h104l232 -169h2l219 169h105v-20z" />
    <glyph glyph-name="uni01C6" unicode="&#x1c6;" horiz-adv-x="2148" 
d="M821 174q-50 -104 -132.5 -149t-204.5 -45q-205 0 -301.5 138t-96.5 418q0 566 398 566q123 0 205 -45t132 -143h2l-2 121v449h180v-1261q0 -169 6 -223h-172q-3 16 -6.5 74t-3.5 100h-4zM275 542q0 -227 60 -325t195 -98q153 0 222 106t69 329q0 215 -69 315t-220 100
q-136 0 -196.5 -100.5t-60.5 -326.5zM1207 0v137l605 806h-571v139h784v-137l-606 -806h627v-139h-839zM1691 1201h-204l-234 270v20h104l232 -169h2l219 169h105v-20z" />
    <glyph glyph-name="uni01C7" unicode="&#x1c7;" horiz-adv-x="2175" 
d="M168 0v1409h191v-1253h712v-156h-903zM1608 -20q-358 0 -425 370l187 31q18 -116 81 -181t158 -65q104 0 164 71.5t60 209.5v837h-271v156h461v-989q0 -205 -111 -322.5t-304 -117.5z" />
    <glyph glyph-name="uni01C8" unicode="&#x1c8;" horiz-adv-x="1706" 
d="M168 0v1409h191v-1253h712v-156h-903zM1388 1312v172h180v-172h-180zM1568 -134q0 -153 -60 -222t-180 -69q-77 0 -127 9v139l62 -6q69 0 97 36t28 140v1189h180v-1216z" />
    <glyph glyph-name="uni01C9" unicode="&#x1c9;" horiz-adv-x="924" 
d="M138 0v1484h180v-1484h-180zM606 1312v172h180v-172h-180zM786 -134q0 -153 -60 -222t-180 -69q-77 0 -127 9v139l62 -6q69 0 97 36t28 140v1189h180v-1216z" />
    <glyph glyph-name="uni01CA" unicode="&#x1ca;" horiz-adv-x="2503" 
d="M1082 0l-754 1200l5 -97l5 -167v-936h-170v1409h222l762 -1208q-12 196 -12 284v924h172v-1409h-230zM1936 -20q-358 0 -425 370l187 31q18 -116 81 -181t158 -65q104 0 164 71.5t60 209.5v837h-271v156h461v-989q0 -205 -111 -322.5t-304 -117.5z" />
    <glyph glyph-name="uni01CB" unicode="&#x1cb;" horiz-adv-x="1934" 
d="M1082 0l-754 1200l5 -97l5 -167v-936h-170v1409h222l762 -1208q-12 196 -12 284v924h172v-1409h-230zM1616 1312v172h180v-172h-180zM1796 -134q0 -153 -60 -222t-180 -69q-77 0 -127 9v139l62 -6q69 0 97 36t28 140v1189h180v-1216z" />
    <glyph glyph-name="uni01CC" unicode="&#x1cc;" horiz-adv-x="1579" 
d="M825 0v686q0 107 -21 166t-67 85t-135 26q-130 0 -205 -89t-75 -247v-627h-180v851q0 189 -6 231h170q1 -5 2 -27t2.5 -50.5t3.5 -107.5h3q62 112 143.5 158.5t202.5 46.5q178 0 260.5 -88.5t82.5 -292.5v-721h-181zM1261 1312v172h180v-172h-180zM1441 -134
q0 -153 -60 -222t-180 -69q-77 0 -127 9v139l62 -6q69 0 97 36t28 140v1189h180v-1216z" />
    <glyph glyph-name="uni01CD" unicode="&#x1cd;" horiz-adv-x="1366" 
d="M1167 0l-161 412h-642l-162 -412h-198l575 1409h217l566 -1409h-195zM685 1265l-9 -28q-25 -83 -74 -213l-180 -463h527l-181 465q-28 69 -56 156zM793 1530h-204l-234 239v21h104l232 -139h2l219 139h105v-21z" />
    <glyph glyph-name="uni01CE" unicode="&#x1ce;" 
d="M414 -20q-163 0 -245 86t-82 236q0 168 110.5 258t356.5 96l243 4v59q0 132 -56 189t-176 57q-121 0 -176 -41t-66 -131l-188 17q46 292 434 292q204 0 307 -93.5t103 -270.5v-466q0 -80 21 -120.5t80 -40.5q26 0 59 7v-112q-68 -16 -139 -16q-100 0 -145.5 52.5
t-51.5 164.5h-6q-69 -124 -160.5 -175.5t-222.5 -51.5zM455 115q99 0 176 45t121.5 123.5t44.5 161.5v89l-197 -4q-127 -2 -192.5 -26t-100.5 -74t-35 -131q0 -88 47.5 -136t135.5 -48zM683 1201h-204l-234 270v20h104l232 -169h2l219 169h105v-20z" />
    <glyph glyph-name="uni01CF" unicode="&#x1cf;" horiz-adv-x="569" 
d="M189 0v1409h191v-1409h-191zM396 1530h-204l-234 239v21h104l232 -139h2l219 139h105v-21z" />
    <glyph glyph-name="uni01D0" unicode="&#x1d0;" horiz-adv-x="455" 
d="M136 0v1062h180v-1062h-180zM319 1201h-204l-234 270v20h104l232 -169h2l219 169h105v-20z" />
    <glyph glyph-name="uni01D1" unicode="&#x1d1;" horiz-adv-x="1593" 
d="M1495 711q0 -221 -84.5 -387t-242.5 -255t-373 -89q-217 0 -374.5 88t-240.5 254.5t-83 388.5q0 338 185 528.5t515 190.5q215 0 373 -85.5t241.5 -248.5t83.5 -385zM1300 711q0 263 -131.5 413t-371.5 150q-242 0 -374 -148t-132 -415q0 -265 133.5 -420.5t370.5 -155.5
q244 0 374.5 150.5t130.5 425.5zM895 1530h-204l-234 239v21h104l232 -139h2l219 139h105v-21z" />
    <glyph glyph-name="uni01D2" unicode="&#x1d2;" 
d="M1053 542q0 -284 -125 -423t-363 -139q-237 0 -358 144.5t-121 417.5q0 560 485 560q248 0 365 -136.5t117 -423.5zM864 542q0 224 -66.5 325.5t-223.5 101.5q-158 0 -228.5 -103.5t-70.5 -323.5q0 -214 69.5 -321.5t218.5 -107.5q162 0 231.5 104t69.5 325zM682 1201
h-204l-234 270v20h104l232 -169h2l219 169h105v-20z" />
    <glyph glyph-name="uni01D3" unicode="&#x1d3;" horiz-adv-x="1479" 
d="M731 -20q-173 0 -302 63t-200 183t-71 286v897h191v-881q0 -193 98 -293t283 -100q190 0 295.5 103.5t105.5 302.5v868h190v-879q0 -171 -72.5 -295t-205 -189.5t-312.5 -65.5zM840 1530h-204l-234 239v21h104l232 -139h2l219 139h105v-21z" />
    <glyph glyph-name="uni01D4" unicode="&#x1d4;" 
d="M314 1082v-686q0 -107 21 -166t67 -85t135 -26q130 0 205 89t75 247v627h180v-851q0 -189 6 -231h-170q-1 5 -2 27t-2.5 50.5t-3.5 107.5h-3q-62 -112 -143.5 -158.5t-202.5 -46.5q-178 0 -260.5 88.5t-82.5 292.5v721h181zM661 1201h-204l-234 270v20h104l232 -169h2
l219 169h105v-20z" />
    <glyph glyph-name="uni01D5" unicode="&#x1d5;" horiz-adv-x="1479" 
d="M731 -20q-173 0 -302 63t-200 183t-71 286v897h191v-881q0 -193 98 -293t283 -100q190 0 295.5 103.5t105.5 302.5v868h190v-879q0 -171 -72.5 -295t-205 -189.5t-312.5 -65.5zM886 1458v184h163v-184h-163zM452 1458v184h163v-184h-163zM1025 1708h-549v127h549v-127z
" />
    <glyph glyph-name="uni01D6" unicode="&#x1d6;" 
d="M314 1082v-686q0 -107 21 -166t67 -85t135 -26q130 0 205 89t75 247v627h180v-851q0 -189 6 -231h-170q-1 5 -2 27t-2.5 50.5t-3.5 107.5h-3q-62 -112 -143.5 -158.5t-202.5 -46.5q-178 0 -260.5 88.5t-82.5 292.5v721h181zM684 1219v184h163v-184h-163zM290 1219v184
h165v-184h-165zM845 1516h-549v127h549v-127z" />
    <glyph glyph-name="uni01D7" unicode="&#x1d7;" horiz-adv-x="1479" 
d="M731 -20q-173 0 -302 63t-200 183t-71 286v897h191v-881q0 -193 98 -293t283 -100q190 0 295.5 103.5t105.5 302.5v868h190v-879q0 -171 -72.5 -295t-205 -189.5t-312.5 -65.5zM812 1835h226v-12l-261 -171h-130v10zM886 1448v184h163v-184h-163zM452 1448v184h163v-184
h-163z" />
    <glyph glyph-name="uni01D8" unicode="&#x1d8;" 
d="M314 1082v-686q0 -107 21 -166t67 -85t135 -26q130 0 205 89t75 247v627h180v-851q0 -189 6 -231h-170q-1 5 -2 27t-2.5 50.5t-3.5 107.5h-3q-62 -112 -143.5 -158.5t-202.5 -46.5q-178 0 -260.5 88.5t-82.5 292.5v721h181zM684 1219v184h163v-184h-163zM290 1219v184
h165v-184h-165zM496 1481v20l217 287h207v-29l-330 -278h-94z" />
    <glyph glyph-name="uni01D9" unicode="&#x1d9;" horiz-adv-x="1479" 
d="M731 -20q-173 0 -302 63t-200 183t-71 286v897h191v-881q0 -193 98 -293t283 -100q190 0 295.5 103.5t105.5 302.5v868h190v-879q0 -171 -72.5 -295t-205 -189.5t-312.5 -65.5zM902 1835h155v-10l-208 -173h-195l-209 171v12h155l151 -97zM886 1448v184h163v-184h-163z
M452 1448v184h163v-184h-163z" />
    <glyph glyph-name="uni01DA" unicode="&#x1da;" 
d="M314 1082v-686q0 -107 21 -166t67 -85t135 -26q130 0 205 89t75 247v627h180v-851q0 -189 6 -231h-170q-1 5 -2 27t-2.5 50.5t-3.5 107.5h-3q-62 -112 -143.5 -158.5t-202.5 -46.5q-178 0 -260.5 88.5t-82.5 292.5v721h181zM684 1219v184h163v-184h-163zM290 1219v184
h165v-184h-165zM671 1481h-204l-234 270v20h104l232 -169h2l219 169h105v-20z" />
    <glyph glyph-name="uni01DB" unicode="&#x1db;" horiz-adv-x="1479" 
d="M731 -20q-173 0 -302 63t-200 183t-71 286v897h191v-881q0 -193 98 -293t283 -100q190 0 295.5 103.5t105.5 302.5v868h190v-879q0 -171 -72.5 -295t-205 -189.5t-312.5 -65.5zM854 1662v-10h-130l-261 171v12h226zM452 1448v184h163v-184h-163zM886 1448v184h163v-184
h-163z" />
    <glyph glyph-name="uni01DC" unicode="&#x1dc;" 
d="M314 1082v-686q0 -107 21 -166t67 -85t135 -26q130 0 205 89t75 247v627h180v-851q0 -189 6 -231h-170q-1 5 -2 27t-2.5 50.5t-3.5 107.5h-3q-62 -112 -143.5 -158.5t-202.5 -46.5q-178 0 -260.5 88.5t-82.5 292.5v721h181zM684 1219v184h163v-184h-163zM290 1219v184
h165v-184h-165zM548 1481l-330 278v29h207l217 -287v-20h-94z" />
    <glyph glyph-name="uni01DD" unicode="&#x1dd;" 
d="M858 579q0 186 -77 287t-225 101q-117 0 -187.5 -47t-95.5 -119l-158 45q97 256 441 256q240 0 365.5 -143t125.5 -425q0 -268 -125.5 -411t-358.5 -143q-477 0 -477 575v24h772zM272 441q15 -171 87 -249.5t207 -78.5q131 0 207.5 87.5t82.5 240.5h-584z" />
    <glyph glyph-name="uni01DE" unicode="&#x1de;" horiz-adv-x="1366" 
d="M1167 0l-161 412h-642l-162 -412h-198l575 1409h217l566 -1409h-195zM685 1265l-9 -28q-25 -83 -74 -213l-180 -463h527l-181 465q-28 69 -56 156zM824 1458v184h163v-184h-163zM390 1458v184h163v-184h-163zM963 1708h-549v127h549v-127z" />
    <glyph glyph-name="uni01DF" unicode="&#x1df;" 
d="M414 -20q-163 0 -245 86t-82 236q0 168 110.5 258t356.5 96l243 4v59q0 132 -56 189t-176 57q-121 0 -176 -41t-66 -131l-188 17q46 292 434 292q204 0 307 -93.5t103 -270.5v-466q0 -80 21 -120.5t80 -40.5q26 0 59 7v-112q-68 -16 -139 -16q-100 0 -145.5 52.5
t-51.5 164.5h-6q-69 -124 -160.5 -175.5t-222.5 -51.5zM455 115q99 0 176 45t121.5 123.5t44.5 161.5v89l-197 -4q-127 -2 -192.5 -26t-100.5 -74t-35 -131q0 -88 47.5 -136t135.5 -48zM681 1219v184h163v-184h-163zM287 1219v184h165v-184h-165zM840 1516h-549v127h549
v-127z" />
    <glyph glyph-name="uni01E0" unicode="&#x1e0;" horiz-adv-x="1366" 
d="M1167 0l-161 412h-642l-162 -412h-198l575 1409h217l566 -1409h-195zM685 1265l-9 -28q-25 -83 -74 -213l-180 -463h527l-181 465q-28 69 -56 156zM602 1468v184h163v-184h-163zM964 1708h-549v127h549v-127z" />
    <glyph glyph-name="uni01E1" unicode="&#x1e1;" 
d="M414 -20q-163 0 -245 86t-82 236q0 168 110.5 258t356.5 96l243 4v59q0 132 -56 189t-176 57q-121 0 -176 -41t-66 -131l-188 17q46 292 434 292q204 0 307 -93.5t103 -270.5v-466q0 -80 21 -120.5t80 -40.5q26 0 59 7v-112q-68 -16 -139 -16q-100 0 -145.5 52.5
t-51.5 164.5h-6q-69 -124 -160.5 -175.5t-222.5 -51.5zM455 115q99 0 176 45t121.5 123.5t44.5 161.5v89l-197 -4q-127 -2 -192.5 -26t-100.5 -74t-35 -131q0 -88 47.5 -136t135.5 -48zM458 1232v172h180v-172h-180zM820 1516h-549v127h549v-127z" />
    <glyph glyph-name="uni01E2" unicode="&#x1e2;" horiz-adv-x="2048" 
d="M969 0v412h-548l-198 -412h-199l686 1409h1209v-156h-759v-452h699v-154h-699v-491h800v-156h-991zM969 1262h-151l-28 -63l-299 -638h478v701zM1590 1565h-549v127h549v-127z" />
    <glyph glyph-name="uni01E3" unicode="&#x1e3;" horiz-adv-x="1821" 
d="M968 503v-17q2 -181 77 -276t215 -95q117 0 187.5 47t95.5 119l158 -45q-97 -256 -441 -256q-321 0 -423 257q-79 -140 -184 -198.5t-251 -58.5q-167 0 -251.5 86t-84.5 236q0 174 119 262t361 92l240 4v59q0 135 -55.5 190.5t-176.5 55.5q-126 0 -182.5 -40t-69.5 -132
l-188 17q46 292 444 292q250 0 349 -139q118 139 346 139q477 0 477 -575v-24h-762zM786 534l-195 -4q-133 -3 -203.5 -29.5t-103.5 -77t-33 -124.5q0 -87 50 -135.5t143 -48.5q102 0 178.5 44.5t120 122t43.5 163.5v89zM1544 641q-15 171 -87 249.5t-207 78.5
q-127 0 -200.5 -85.5t-79.5 -242.5h574zM1200 1236h-549v127h549v-127z" />
    <glyph glyph-name="uni01E4" unicode="&#x1e4;" horiz-adv-x="1593" 
d="M844 438h420v107h-421v160h597v-267h128v-130h-128v-89q-112 -114 -274.5 -176.5t-352.5 -62.5q-221 0 -381 88t-244.5 253.5t-84.5 389.5q0 343 184 531t517 188q234 0 380 -79t225 -253l-182 -54q-60 120 -165.5 175t-262.5 55q-244 0 -373 -147.5t-129 -415.5
q0 -267 137 -421.5t379 -154.5q138 0 257.5 42t193.5 114v17h-420v130z" />
    <glyph glyph-name="uni01E5" unicode="&#x1e5;" 
d="M548 -425q-177 0 -282 69.5t-135 197.5l181 26q18 -75 79.5 -115.5t161.5 -40.5q105 0 165 44t84 136h-398v130h416l2 53v216h-2q-51 -104 -140 -156.5t-208 -52.5q-198 0 -292 120.5t-94 382.5q0 264 101.5 389t304.5 125q115 0 199.5 -52.5t130.5 -149.5h2q0 30 4 104
t8 81h171q-6 -54 -6 -224v-836h127v-130h-140q-31 -158 -139 -237.5t-301 -79.5zM822 586q0 118 -36 203t-101 130.5t-149 45.5q-138 0 -201 -90t-63 -289t59.5 -285t201.5 -86q130 0 209.5 99t79.5 272z" />
    <glyph glyph-name="uni01E6" unicode="&#x1e6;" horiz-adv-x="1593" 
d="M103 711q0 343 184 531t517 188q234 0 380 -79t225 -253l-182 -54q-60 120 -165.5 175t-262.5 55q-244 0 -373 -147.5t-129 -415.5q0 -267 137 -421.5t379 -154.5q138 0 257.5 42t193.5 114v254h-421v160h597v-486q-112 -114 -274.5 -176.5t-352.5 -62.5q-221 0 -381 88
t-244.5 253.5t-84.5 389.5zM909 1530h-204l-234 239v21h104l232 -139h2l219 139h105v-21z" />
    <glyph glyph-name="uni01E7" unicode="&#x1e7;" 
d="M548 -425q-177 0 -282 69.5t-135 197.5l181 26q18 -75 79.5 -115.5t161.5 -40.5q269 0 269 315v174h-2q-51 -104 -140 -156.5t-208 -52.5q-199 0 -292.5 132t-93.5 415q0 287 100.5 423.5t305.5 136.5q115 0 199.5 -52.5t130.5 -149.5h2q0 30 4 104t8 81h171
q-6 -54 -6 -224v-827q0 -456 -453 -456zM822 541q0 132 -36 227.5t-101.5 146t-148.5 50.5q-138 0 -201 -100t-63 -324q0 -222 59 -319t202 -97q85 0 151 50t102 143.5t36 222.5zM626 1201h-204l-234 270v20h104l232 -169h2l219 169h105v-20z" />
    <glyph glyph-name="uni01E8" unicode="&#x1e8;" horiz-adv-x="1366" 
d="M1106 0l-563 680l-184 -140v-540h-191v1409h191v-706l679 706h225l-600 -612l680 -797h-237zM758 1530h-204l-234 239v21h104l232 -139h2l219 139h105v-21z" />
    <glyph glyph-name="uni01E9" unicode="&#x1e9;" horiz-adv-x="1024" 
d="M816 0l-366 494l-132 -109v-385h-180v1484h180v-927l475 525h211l-439 -465l462 -617h-211zM638 1550h-204l-234 239v21h104l232 -139h2l219 139h105v-21z" />
    <glyph glyph-name="uni01EA" unicode="&#x1ea;" horiz-adv-x="1593" 
d="M1495 711q0 -221 -84.5 -387t-242.5 -255t-373 -89q-217 0 -374.5 88t-240.5 254.5t-83 388.5q0 338 185 528.5t515 190.5q215 0 373 -85.5t241.5 -248.5t83.5 -385zM1300 711q0 263 -131.5 413t-371.5 150q-242 0 -374 -148t-132 -415q0 -265 133.5 -420.5t370.5 -155.5
q244 0 374.5 150.5t130.5 425.5zM1050 -400q-63 -27 -139 -27q-105 0 -158 51t-53 136q0 70 43.5 136t111.5 104h133q-25 -14 -51 -36.5t-47.5 -52t-35 -64.5t-13.5 -74q0 -42 24.5 -66t69.5 -24q54 0 115 24v-107z" />
    <glyph glyph-name="uni01EB" unicode="&#x1eb;" 
d="M1053 542q0 -284 -125 -423t-363 -139q-237 0 -358 144.5t-121 417.5q0 560 485 560q248 0 365 -136.5t117 -423.5zM864 542q0 224 -66.5 325.5t-223.5 101.5q-158 0 -228.5 -103.5t-70.5 -323.5q0 -214 69.5 -321.5t218.5 -107.5q162 0 231.5 104t69.5 325zM800 -400
q-63 -27 -139 -27q-105 0 -158 51t-53 136q0 70 43.5 136t111.5 104h133q-25 -14 -51 -36.5t-47.5 -52t-35 -64.5t-13.5 -74q0 -42 24.5 -66t69.5 -24q54 0 115 24v-107z" />
    <glyph glyph-name="uni01EC" unicode="&#x1ec;" horiz-adv-x="1593" 
d="M1495 711q0 -221 -84.5 -387t-242.5 -255t-373 -89q-217 0 -374.5 88t-240.5 254.5t-83 388.5q0 338 185 528.5t515 190.5q215 0 373 -85.5t241.5 -248.5t83.5 -385zM1300 711q0 263 -131.5 413t-371.5 150q-242 0 -374 -148t-132 -415q0 -265 133.5 -420.5t370.5 -155.5
q244 0 374.5 150.5t130.5 425.5zM1050 -400q-63 -27 -139 -27q-105 0 -158 51t-53 136q0 70 43.5 136t111.5 104h133q-25 -14 -51 -36.5t-47.5 -52t-35 -64.5t-13.5 -74q0 -42 24.5 -66t69.5 -24q54 0 115 24v-107zM1065 1565h-549v127h549v-127z" />
    <glyph glyph-name="uni01ED" unicode="&#x1ed;" 
d="M1053 542q0 -284 -125 -423t-363 -139q-237 0 -358 144.5t-121 417.5q0 560 485 560q248 0 365 -136.5t117 -423.5zM864 542q0 224 -66.5 325.5t-223.5 101.5q-158 0 -228.5 -103.5t-70.5 -323.5q0 -214 69.5 -321.5t218.5 -107.5q162 0 231.5 104t69.5 325zM800 -400
q-63 -27 -139 -27q-105 0 -158 51t-53 136q0 70 43.5 136t111.5 104h133q-25 -14 -51 -36.5t-47.5 -52t-35 -64.5t-13.5 -74q0 -42 24.5 -66t69.5 -24q54 0 115 24v-107zM843 1236h-549v127h549v-127z" />
    <glyph glyph-name="uni01EE" unicode="&#x1ee;" horiz-adv-x="1251" 
d="M418 759l500 494h-805v156h1018v-161l-505 -490q270 -18 412.5 -167.5t142.5 -419.5q0 -174 -71.5 -310.5t-202.5 -211.5t-294 -75q-208 0 -346.5 83t-221.5 265l162 72q118 -271 399 -271q181 0 284 117.5t103 330.5q0 215 -129.5 331t-374.5 116h-71v141zM727 1530
h-204l-234 239v21h104l232 -139h2l219 139h105v-21z" />
    <glyph glyph-name="uni01EF" unicode="&#x1ef;" horiz-adv-x="1116" 
d="M116 1082h883v-178l-383 -360q196 -25 307.5 -150.5t111.5 -324.5q0 -139 -59 -253t-167 -177.5t-248 -63.5q-216 0 -343 95t-150 282l178 12q19 -133 96 -192.5t213 -59.5q137 0 218 99.5t81 263.5q0 156 -91.5 246t-254.5 90h-82v144l393 386h-703v141zM672 1201h-204
l-234 270v20h104l232 -169h2l219 169h105v-20z" />
    <glyph glyph-name="uni01F0" unicode="&#x1f0;" horiz-adv-x="455" 
d="M317 -134q0 -153 -60 -222t-180 -69q-77 0 -127 9v139l62 -6q69 0 97 36t28 140v1189h180v-1216zM328 1201h-204l-234 270v20h104l232 -169h2l219 169h105v-20z" />
    <glyph glyph-name="uni01F1" unicode="&#x1f1;" horiz-adv-x="2730" 
d="M1381 719q0 -218 -85 -381.5t-241 -250.5t-360 -87h-527v1409h466q358 0 552.5 -179.5t194.5 -510.5zM1189 719q0 262 -143.5 399.5t-415.5 137.5h-271v-1103h314q155 0 272.5 68t180.5 196t63 302zM2666 0h-1122v143l858 1110h-785v156h1002v-139l-858 -1114h905v-156z
" />
    <glyph glyph-name="uni01F2" unicode="&#x1f2;" horiz-adv-x="2503" 
d="M1381 719q0 -218 -85 -381.5t-241 -250.5t-360 -87h-527v1409h466q358 0 552.5 -179.5t194.5 -510.5zM1189 719q0 262 -143.5 399.5t-415.5 137.5h-271v-1103h314q155 0 272.5 68t180.5 196t63 302zM1562 0v137l605 806h-571v139h784v-137l-606 -806h627v-139h-839z" />
    <glyph glyph-name="uni01F3" unicode="&#x1f3;" horiz-adv-x="2148" 
d="M821 174q-50 -104 -132.5 -149t-204.5 -45q-205 0 -301.5 138t-96.5 418q0 566 398 566q123 0 205 -45t132 -143h2l-2 121v449h180v-1261q0 -169 6 -223h-172q-3 16 -6.5 74t-3.5 100h-4zM275 542q0 -227 60 -325t195 -98q153 0 222 106t69 329q0 215 -69 315t-220 100
q-136 0 -196.5 -100.5t-60.5 -326.5zM1207 0v137l605 806h-571v139h784v-137l-606 -806h627v-139h-839z" />
    <glyph glyph-name="uni01F4" unicode="&#x1f4;" horiz-adv-x="1593" 
d="M103 711q0 343 184 531t517 188q234 0 380 -79t225 -253l-182 -54q-60 120 -165.5 175t-262.5 55q-244 0 -373 -147.5t-129 -415.5q0 -267 137 -421.5t379 -154.5q138 0 257.5 42t193.5 114v254h-421v160h597v-486q-112 -114 -274.5 -176.5t-352.5 -62.5q-221 0 -381 88
t-244.5 253.5t-84.5 389.5zM655 1530v20l217 226h207v-29l-310 -217h-114z" />
    <glyph glyph-name="uni01F5" unicode="&#x1f5;" 
d="M548 -425q-177 0 -282 69.5t-135 197.5l181 26q18 -75 79.5 -115.5t161.5 -40.5q269 0 269 315v174h-2q-51 -104 -140 -156.5t-208 -52.5q-199 0 -292.5 132t-93.5 415q0 287 100.5 423.5t305.5 136.5q115 0 199.5 -52.5t130.5 -149.5h2q0 30 4 104t8 81h171
q-6 -54 -6 -224v-827q0 -456 -453 -456zM822 541q0 132 -36 227.5t-101.5 146t-148.5 50.5q-138 0 -201 -100t-63 -324q0 -222 59 -319t202 -97q85 0 151 50t102 143.5t36 222.5zM435 1201v20l217 287h207v-29l-330 -278h-94z" />
    <glyph glyph-name="uni01F6" unicode="&#x1f6;" horiz-adv-x="2118" 
d="M1312 394q0 -147 59 -212t187 -65t186.5 64.5t58.5 212.5v688h181v-717q0 -177 -113 -281t-314 -104q-204 0 -320 102t-116 280v291h-762v-653h-191v1409h191v-596h762v596h191v-1015z" />
    <glyph glyph-name="uni01F7" unicode="&#x1f7;" horiz-adv-x="1266" 
d="M1177 931q0 -217 -112.5 -443.5t-303 -401t-402.5 -246.5v-265h-191v1834h184v-164q63 88 158 136.5t206 48.5q223 0 342 -124.5t119 -374.5zM982 932q0 166 -72 254.5t-217 88.5q-95 0 -171.5 -49t-119.5 -134t-43 -183v-907q162 58 307.5 208.5t230.5 345.5t85 376z
" />
    <glyph glyph-name="uni01F8" unicode="&#x1f8;" horiz-adv-x="1479" 
d="M1082 0l-754 1200l5 -97l5 -167v-936h-170v1409h222l762 -1208q-12 196 -12 284v924h172v-1409h-230zM759 1530l-310 217v29h207l217 -226v-20h-114z" />
    <glyph glyph-name="uni01F9" unicode="&#x1f9;" 
d="M825 0v686q0 107 -21 166t-67 85t-135 26q-130 0 -205 -89t-75 -247v-627h-180v851q0 189 -6 231h170q1 -5 2 -27t2.5 -50.5t3.5 -107.5h3q62 112 143.5 158.5t202.5 46.5q178 0 260.5 -88.5t82.5 -292.5v-721h-181zM613 1201l-330 278v29h207l217 -287v-20h-94z" />
    <glyph glyph-name="Aringacute" unicode="&#x1fa;" horiz-adv-x="1366" 
d="M926 1392q0 -55 -29.5 -103.5t-75.5 -76.5l541 -1212h-195l-161 371h-642l-162 -371h-198l548 1209q-49 28 -79.5 77.5t-30.5 105.5q0 90 71 153.5t171 63.5t171 -64t71 -153zM685 1138l-9 -24q-16 -49 -42.5 -115.5t-211.5 -493.5h527l-181 418q-27 60 -56 140z
M818 1392q0 50 -39 85.5t-95 35.5q-57 0 -96 -35.5t-39 -85.5q0 -47 36 -84t90 -40h9q58 0 96 37.5t38 86.5zM571 1657v16l217 181h207v-23l-310 -174h-114z" />
    <glyph glyph-name="aringacute" unicode="&#x1fb;" 
d="M414 -20q-163 0 -245 86t-82 236q0 168 110.5 258t356.5 96l243 4v59q0 132 -56 189t-176 57q-121 0 -176 -41t-66 -131l-188 17q46 292 434 292q204 0 307 -93.5t103 -270.5v-466q0 -80 21 -120.5t80 -40.5q26 0 59 7v-112q-68 -16 -139 -16q-100 0 -145.5 52.5
t-51.5 164.5h-6q-69 -124 -160.5 -175.5t-222.5 -51.5zM455 115q99 0 176 45t121.5 123.5t44.5 161.5v89l-197 -4q-127 -2 -192.5 -26t-100.5 -74t-35 -131q0 -88 47.5 -136t135.5 -48zM811 1239q0 -100 -71 -171t-171 -71t-171 71t-71 171q0 101 71 171t171 70
q99 0 170.5 -70.5t71.5 -170.5zM703 1239q0 56 -39 95t-95 39q-57 0 -96 -39t-39 -95q0 -55 38 -96t97 -41q58 0 96 40.5t38 96.5zM427 1547v20l217 287h207v-29l-330 -278h-94z" />
    <glyph glyph-name="AEacute" unicode="&#x1fc;" horiz-adv-x="2048" 
d="M969 0v412h-548l-198 -412h-199l686 1409h1209v-156h-759v-452h699v-154h-699v-491h800v-156h-991zM969 1262h-151l-28 -63l-299 -638h478v701zM1068 1530v20l217 226h207v-29l-310 -217h-114z" />
    <glyph glyph-name="aeacute" unicode="&#x1fd;" horiz-adv-x="1821" 
d="M968 503v-17q2 -181 77 -276t215 -95q117 0 187.5 47t95.5 119l158 -45q-97 -256 -441 -256q-321 0 -423 257q-79 -140 -184 -198.5t-251 -58.5q-167 0 -251.5 86t-84.5 236q0 174 119 262t361 92l240 4v59q0 135 -55.5 190.5t-176.5 55.5q-126 0 -182.5 -40t-69.5 -132
l-188 17q46 292 444 292q250 0 349 -139q118 139 346 139q477 0 477 -575v-24h-762zM786 534l-195 -4q-133 -3 -203.5 -29.5t-103.5 -77t-33 -124.5q0 -87 50 -135.5t143 -48.5q102 0 178.5 44.5t120 122t43.5 163.5v89zM1544 641q-15 171 -87 249.5t-207 78.5
q-127 0 -200.5 -85.5t-79.5 -242.5h574zM759 1201v20l217 287h207v-29l-330 -278h-94z" />
    <glyph glyph-name="Oslashacute" unicode="&#x1fe;" horiz-adv-x="1593" 
d="M1495 711q0 -221 -84.5 -387t-242.5 -255t-373 -89q-246 0 -414 112l-120 -145h-190l200 241q-174 192 -174 523q0 338 185 528.5t515 190.5q247 0 414 -110l121 146h192l-201 -242q172 -190 172 -513zM1300 711q0 224 -98 368l-709 -853q122 -91 302 -91
q244 0 374.5 150.5t130.5 425.5zM291 711q0 -229 101 -378l707 853q-124 88 -302 88q-242 0 -374 -148t-132 -415zM659 1530v20l217 226h207v-29l-310 -217h-114z" />
    <glyph glyph-name="oslashacute" unicode="&#x1ff;" horiz-adv-x="1251" 
d="M1112 542q0 -284 -125 -423t-363 -139q-195 0 -313 98l-100 -116h-167l184 214q-83 138 -83 366q0 560 485 560q201 0 316 -91l91 105h167l-173 -201q81 -133 81 -373zM923 542q0 129 -23 221l-483 -562q68 -88 205 -88q162 0 231.5 104t69.5 325zM334 542
q0 -130 24 -215l482 561q-67 81 -207 81q-158 0 -228.5 -103.5t-70.5 -323.5zM506 1201v20l217 287h207v-29l-330 -278h-94z" />
    <glyph glyph-name="uni0200" unicode="&#x200;" horiz-adv-x="1366" 
d="M1167 0l-161 412h-642l-162 -412h-198l575 1409h217l566 -1409h-195zM685 1265l-9 -28q-25 -83 -74 -213l-180 -463h527l-181 465q-28 69 -56 156zM902 1563l-330 278v29h207l217 -287v-20h-94zM555 1563l-330 278v29h207l217 -287v-20h-94z" />
    <glyph glyph-name="uni0201" unicode="&#x201;" 
d="M414 -20q-163 0 -245 86t-82 236q0 168 110.5 258t356.5 96l243 4v59q0 132 -56 189t-176 57q-121 0 -176 -41t-66 -131l-188 17q46 292 434 292q204 0 307 -93.5t103 -270.5v-466q0 -80 21 -120.5t80 -40.5q26 0 59 7v-112q-68 -16 -139 -16q-100 0 -145.5 52.5
t-51.5 164.5h-6q-69 -124 -160.5 -175.5t-222.5 -51.5zM455 115q99 0 176 45t121.5 123.5t44.5 161.5v89l-197 -4q-127 -2 -192.5 -26t-100.5 -74t-35 -131q0 -88 47.5 -136t135.5 -48zM772 1201l-330 278v29h207l217 -287v-20h-94zM425 1201l-330 278v29h207l217 -287v-20
h-94z" />
    <glyph glyph-name="uni0202" unicode="&#x202;" horiz-adv-x="1366" 
d="M1167 0l-161 412h-642l-162 -412h-198l575 1409h217l566 -1409h-195zM685 1265l-9 -28q-25 -83 -74 -213l-180 -463h527l-181 465q-28 69 -56 156zM687 1828q119 0 196.5 -68.5t95.5 -191.5h-105q-15 62 -64 97t-123 35q-76 0 -125.5 -36.5t-61.5 -95.5h-105
q15 119 94 189.5t198 70.5z" />
    <glyph glyph-name="uni0203" unicode="&#x203;" 
d="M414 -20q-163 0 -245 86t-82 236q0 168 110.5 258t356.5 96l243 4v59q0 132 -56 189t-176 57q-121 0 -176 -41t-66 -131l-188 17q46 292 434 292q204 0 307 -93.5t103 -270.5v-466q0 -80 21 -120.5t80 -40.5q26 0 59 7v-112q-68 -16 -139 -16q-100 0 -145.5 52.5
t-51.5 164.5h-6q-69 -124 -160.5 -175.5t-222.5 -51.5zM455 115q99 0 176 45t121.5 123.5t44.5 161.5v89l-197 -4q-127 -2 -192.5 -26t-100.5 -74t-35 -131q0 -88 47.5 -136t135.5 -48zM574 1466q119 0 196.5 -68.5t95.5 -191.5h-105q-15 62 -64 97t-123 35
q-76 0 -125.5 -36.5t-61.5 -95.5h-105q15 119 94 189.5t198 70.5z" />
    <glyph glyph-name="uni0204" unicode="&#x204;" horiz-adv-x="1366" 
d="M168 0v1409h1069v-156h-878v-452h818v-154h-818v-491h919v-156h-1110zM920 1563l-330 278v29h207l217 -287v-20h-94zM573 1563l-330 278v29h207l217 -287v-20h-94z" />
    <glyph glyph-name="uni0205" unicode="&#x205;" 
d="M276 503q0 -186 77 -287t225 -101q117 0 187.5 47t95.5 119l158 -45q-97 -256 -441 -256q-240 0 -365.5 143t-125.5 425q0 268 125.5 411t358.5 143q477 0 477 -575v-24h-772zM862 641q-15 171 -87 249.5t-207 78.5q-131 0 -207.5 -87.5t-82.5 -240.5h584zM792 1201
l-330 278v29h207l217 -287v-20h-94zM445 1201l-330 278v29h207l217 -287v-20h-94z" />
    <glyph glyph-name="uni0206" unicode="&#x206;" horiz-adv-x="1366" 
d="M168 0v1409h1069v-156h-878v-452h818v-154h-818v-491h919v-156h-1110zM720 1828q119 0 196.5 -68.5t95.5 -191.5h-105q-15 62 -64 97t-123 35q-76 0 -125.5 -36.5t-61.5 -95.5h-105q15 119 94 189.5t198 70.5z" />
    <glyph glyph-name="uni0207" unicode="&#x207;" 
d="M276 503q0 -186 77 -287t225 -101q117 0 187.5 47t95.5 119l158 -45q-97 -256 -441 -256q-240 0 -365.5 143t-125.5 425q0 268 125.5 411t358.5 143q477 0 477 -575v-24h-772zM862 641q-15 171 -87 249.5t-207 78.5q-131 0 -207.5 -87.5t-82.5 -240.5h584zM570 1466
q119 0 196.5 -68.5t95.5 -191.5h-105q-15 62 -64 97t-123 35q-76 0 -125.5 -36.5t-61.5 -95.5h-105q15 119 94 189.5t198 70.5z" />
    <glyph glyph-name="uni0208" unicode="&#x208;" horiz-adv-x="569" 
d="M189 0v1409h191v-1409h-191zM526 1563l-330 278v29h207l217 -287v-20h-94zM179 1563l-330 278v29h207l217 -287v-20h-94z" />
    <glyph glyph-name="uni0209" unicode="&#x209;" horiz-adv-x="569" 
d="M194 0v1082h180v-1082h-180zM508 1201l-330 278v29h207l217 -287v-20h-94zM161 1201l-330 278v29h207l217 -287v-20h-94z" />
    <glyph glyph-name="uni020A" unicode="&#x20a;" horiz-adv-x="569" 
d="M189 0v1409h191v-1409h-191zM300 1828q119 0 196.5 -68.5t95.5 -191.5h-105q-15 62 -64 97t-123 35q-76 0 -125.5 -36.5t-61.5 -95.5h-105q15 119 94 189.5t198 70.5z" />
    <glyph glyph-name="uni020B" unicode="&#x20b;" horiz-adv-x="569" 
d="M194 0v1082h180v-1082h-180zM286 1466q119 0 196.5 -68.5t95.5 -191.5h-105q-15 62 -64 97t-123 35q-76 0 -125.5 -36.5t-61.5 -95.5h-105q15 119 94 189.5t198 70.5z" />
    <glyph glyph-name="uni020C" unicode="&#x20c;" horiz-adv-x="1593" 
d="M1495 711q0 -221 -84.5 -387t-242.5 -255t-373 -89q-217 0 -374.5 88t-240.5 254.5t-83 388.5q0 338 185 528.5t515 190.5q215 0 373 -85.5t241.5 -248.5t83.5 -385zM1300 711q0 263 -131.5 413t-371.5 150q-242 0 -374 -148t-132 -415q0 -265 133.5 -420.5t370.5 -155.5
q244 0 374.5 150.5t130.5 425.5zM1002 1563l-330 278v29h207l217 -287v-20h-94zM655 1563l-330 278v29h207l217 -287v-20h-94z" />
    <glyph glyph-name="uni020D" unicode="&#x20d;" 
d="M1053 542q0 -284 -125 -423t-363 -139q-237 0 -358 144.5t-121 417.5q0 560 485 560q248 0 365 -136.5t117 -423.5zM864 542q0 224 -66.5 325.5t-223.5 101.5q-158 0 -228.5 -103.5t-70.5 -323.5q0 -214 69.5 -321.5t218.5 -107.5q162 0 231.5 104t69.5 325zM792 1201
l-330 278v29h207l217 -287v-20h-94zM445 1201l-330 278v29h207l217 -287v-20h-94z" />
    <glyph glyph-name="uni020E" unicode="&#x20e;" horiz-adv-x="1593" 
d="M1495 711q0 -221 -84.5 -387t-242.5 -255t-373 -89q-217 0 -374.5 88t-240.5 254.5t-83 388.5q0 338 185 528.5t515 190.5q215 0 373 -85.5t241.5 -248.5t83.5 -385zM1300 711q0 263 -131.5 413t-371.5 150q-242 0 -374 -148t-132 -415q0 -265 133.5 -420.5t370.5 -155.5
q244 0 374.5 150.5t130.5 425.5zM800 1828q119 0 196.5 -68.5t95.5 -191.5h-105q-15 62 -64 97t-123 35q-76 0 -125.5 -36.5t-61.5 -95.5h-105q15 119 94 189.5t198 70.5z" />
    <glyph glyph-name="uni020F" unicode="&#x20f;" 
d="M1053 542q0 -284 -125 -423t-363 -139q-237 0 -358 144.5t-121 417.5q0 560 485 560q248 0 365 -136.5t117 -423.5zM864 542q0 224 -66.5 325.5t-223.5 101.5q-158 0 -228.5 -103.5t-70.5 -323.5q0 -214 69.5 -321.5t218.5 -107.5q162 0 231.5 104t69.5 325zM580 1466
q119 0 196.5 -68.5t95.5 -191.5h-105q-15 62 -64 97t-123 35q-76 0 -125.5 -36.5t-61.5 -95.5h-105q15 119 94 189.5t198 70.5z" />
    <glyph glyph-name="uni0210" unicode="&#x210;" horiz-adv-x="1479" 
d="M1164 0l-366 585h-439v-585h-191v1409h663q238 0 367.5 -106.5t129.5 -296.5q0 -157 -91.5 -264t-252.5 -135l400 -607h-220zM1136 1004q0 123 -83.5 187.5t-240.5 64.5h-453v-520h461q151 0 233.5 70.5t82.5 197.5zM912 1563l-330 278v29h207l217 -287v-20h-94z
M565 1563l-330 278v29h207l217 -287v-20h-94z" />
    <glyph glyph-name="uni0211" unicode="&#x211;" horiz-adv-x="682" 
d="M142 0v830q0 114 -6 252h170q8 -184 8 -221h4q43 139 99 190t158 51q36 0 73 -10v-165q-36 10 -96 10q-112 0 -171 -96.5t-59 -276.5v-564h-180zM612 1201l-330 278v29h207l217 -287v-20h-94zM265 1201l-330 278v29h207l217 -287v-20h-94z" />
    <glyph glyph-name="uni0212" unicode="&#x212;" horiz-adv-x="1479" 
d="M1164 0l-366 585h-439v-585h-191v1409h663q238 0 367.5 -106.5t129.5 -296.5q0 -157 -91.5 -264t-252.5 -135l400 -607h-220zM1136 1004q0 123 -83.5 187.5t-240.5 64.5h-453v-520h461q151 0 233.5 70.5t82.5 197.5zM710 1828q119 0 196.5 -68.5t95.5 -191.5h-105
q-15 62 -64 97t-123 35q-76 0 -125.5 -36.5t-61.5 -95.5h-105q15 119 94 189.5t198 70.5z" />
    <glyph glyph-name="uni0213" unicode="&#x213;" horiz-adv-x="682" 
d="M142 0v830q0 114 -6 252h170q8 -184 8 -221h4q43 139 99 190t158 51q36 0 73 -10v-165q-36 10 -96 10q-112 0 -171 -96.5t-59 -276.5v-564h-180zM400 1466q119 0 196.5 -68.5t95.5 -191.5h-105q-15 62 -64 97t-123 35q-76 0 -125.5 -36.5t-61.5 -95.5h-105
q15 119 94 189.5t198 70.5z" />
    <glyph glyph-name="uni0214" unicode="&#x214;" horiz-adv-x="1479" 
d="M731 -20q-173 0 -302 63t-200 183t-71 286v897h191v-881q0 -193 98 -293t283 -100q190 0 295.5 103.5t105.5 302.5v868h190v-879q0 -171 -72.5 -295t-205 -189.5t-312.5 -65.5zM982 1563l-330 278v29h207l217 -287v-20h-94zM635 1563l-330 278v29h207l217 -287v-20h-94z
" />
    <glyph glyph-name="uni0215" unicode="&#x215;" 
d="M314 1082v-686q0 -107 21 -166t67 -85t135 -26q130 0 205 89t75 247v627h180v-851q0 -189 6 -231h-170q-1 5 -2 27t-2.5 50.5t-3.5 107.5h-3q-62 -112 -143.5 -158.5t-202.5 -46.5q-178 0 -260.5 88.5t-82.5 292.5v721h181zM782 1201l-330 278v29h207l217 -287v-20h-94z
M435 1201l-330 278v29h207l217 -287v-20h-94z" />
    <glyph glyph-name="uni0216" unicode="&#x216;" horiz-adv-x="1479" 
d="M731 -20q-173 0 -302 63t-200 183t-71 286v897h191v-881q0 -193 98 -293t283 -100q190 0 295.5 103.5t105.5 302.5v868h190v-879q0 -171 -72.5 -295t-205 -189.5t-312.5 -65.5zM755 1828q119 0 196.5 -68.5t95.5 -191.5h-105q-15 62 -64 97t-123 35q-76 0 -125.5 -36.5
t-61.5 -95.5h-105q15 119 94 189.5t198 70.5z" />
    <glyph glyph-name="uni0217" unicode="&#x217;" 
d="M314 1082v-686q0 -107 21 -166t67 -85t135 -26q130 0 205 89t75 247v627h180v-851q0 -189 6 -231h-170q-1 5 -2 27t-2.5 50.5t-3.5 107.5h-3q-62 -112 -143.5 -158.5t-202.5 -46.5q-178 0 -260.5 88.5t-82.5 292.5v721h181zM562 1466q119 0 196.5 -68.5t95.5 -191.5h-105
q-15 62 -64 97t-123 35q-76 0 -125.5 -36.5t-61.5 -95.5h-105q15 119 94 189.5t198 70.5z" />
    <glyph glyph-name="Scommaaccent" unicode="&#x218;" horiz-adv-x="1366" 
d="M1272 389q0 -195 -152.5 -302t-429.5 -107q-515 0 -597 358l185 37q32 -127 136 -186.5t283 -59.5q185 0 285.5 63.5t100.5 186.5q0 69 -31.5 112t-88.5 71t-136 47t-175 41q-167 37 -253.5 74t-136.5 82.5t-76.5 106.5t-26.5 140q0 181 138.5 279t396.5 98
q240 0 367 -73.5t178 -250.5l-188 -33q-31 112 -118 162.5t-241 50.5q-169 0 -258 -56t-89 -167q0 -65 34.5 -107.5t99.5 -72t259 -72.5q65 -15 129.5 -30.5t123.5 -37t110.5 -50.5t89.5 -71t59.5 -99t21.5 -134zM808 -193q0 -87 -22 -140.5t-62 -100.5h-117q45 48 69.5 91
t24.5 89h-88v156h195v-95z" />
    <glyph glyph-name="scommaaccent" unicode="&#x219;" horiz-adv-x="1024" 
d="M950 299q0 -153 -115.5 -236t-323.5 -83q-202 0 -311.5 66.5t-142.5 207.5l159 31q23 -87 95 -127.5t200 -40.5q137 0 200.5 42t63.5 126q0 64 -44 104t-142 66l-129 34q-155 40 -220.5 78.5t-102.5 93.5t-37 135q0 148 105.5 225.5t307.5 77.5q179 0 284.5 -63
t133.5 -202l-162 -20q-15 72 -80.5 110.5t-175.5 38.5q-122 0 -180 -37t-58 -112q0 -46 24 -76t71 -51t198 -58q143 -36 206 -66.5t99.5 -67.5t56.5 -85.5t20 -110.5zM608 -193q0 -87 -22 -140.5t-62 -100.5h-117q45 48 69.5 91t24.5 89h-88v156h195v-95z" />
    <glyph glyph-name="uni021A" unicode="&#x21a;" horiz-adv-x="1251" 
d="M720 1253v-1253h-190v1253h-484v156h1158v-156h-484zM725 -193q0 -87 -22 -140.5t-62 -100.5h-117q45 48 69.5 91t24.5 89h-88v156h195v-95z" />
    <glyph glyph-name="uni021B" unicode="&#x21b;" horiz-adv-x="569" 
d="M554 8q-89 -24 -182 -24q-216 0 -216 245v722h-125v131h132l53 242h120v-242h200v-131h-200v-683q0 -78 25.5 -109.5t88.5 -31.5q36 0 104 14v-133zM462 -193q0 -87 -22 -140.5t-62 -100.5h-117q45 48 69.5 91t24.5 89h-88v156h195v-95z" />
    <glyph glyph-name="uni021C" unicode="&#x21c;" horiz-adv-x="1116" 
d="M1017 360q0 -530 -881 -787v166q343 97 518 250t175 350q0 73 -21 139t-58 106q-176 -135 -615 -280v173q373 114 533.5 234t160.5 287q0 134 -70.5 202.5t-207.5 68.5q-115 0 -193.5 -42t-140.5 -150l-153 79q85 144 206 209.5t289 65.5q135 0 238.5 -51t160 -144
t56.5 -209q0 -89 -28 -158t-113 -161q64 -60 104 -149.5t40 -198.5z" />
    <glyph glyph-name="uni021D" unicode="&#x21d;" horiz-adv-x="894" 
d="M814 170q0 -207 -175.5 -356t-549.5 -240v155q179 48 274.5 92t151.5 91.5t88 106.5t32 130t-20.5 129.5t-53.5 87.5q-180 -104 -472 -169v148q277 60 411.5 164.5t134.5 249.5q0 109 -48 159.5t-149 50.5t-152 -43t-79 -134l-174 33q27 98 79.5 159.5t127.5 89.5t196 28
q191 0 284.5 -84t93.5 -265q0 -158 -114 -285q50 -41 82 -120.5t32 -177.5z" />
    <glyph glyph-name="uni021E" unicode="&#x21e;" horiz-adv-x="1479" 
d="M1121 0v653h-762v-653h-191v1409h191v-596h762v596h191v-1409h-191zM843 1530h-204l-234 239v21h104l232 -139h2l219 139h105v-21z" />
    <glyph glyph-name="uni021F" unicode="&#x21f;" 
d="M317 897q58 106 139.5 155.5t206.5 49.5q176 0 259.5 -87.5t83.5 -293.5v-721h-181v686q0 114 -21 169.5t-69 81.5t-133 26q-127 0 -203.5 -88t-76.5 -237v-638h-180v1484h180v-386q0 -61 -3.5 -126t-4.5 -75h3zM708 1550h-204l-234 239v21h104l232 -139h2l219 139h105
v-21z" />
    <glyph glyph-name="uni0220" unicode="&#x220;" horiz-adv-x="1446" 
d="M1093 -425v1364q0 125 -31.5 199t-97.5 108t-187 34q-111 0 -226.5 -49t-197.5 -131v-1100h-189v1409h187v-151q74 79 204.5 125t280.5 46q233 0 340 -118t107 -372v-1364h-190z" />
    <glyph glyph-name="uni0221" unicode="&#x221;" horiz-adv-x="1396" 
d="M821 174q-50 -104 -132.5 -149t-204.5 -45q-205 0 -301.5 138t-96.5 418q0 566 398 566q123 0 205 -45t132 -143h2l-2 121v449h180v-1261l2 -159q65 23 125 23q128 0 198 -67.5t70 -186.5q0 -83 -36 -139.5t-97.5 -87.5t-135.5 -31q-185 0 -264 189l-157 -190l-110 117
q121 169 229 265v218h-4zM275 542q0 -227 60 -325t195 -98q153 0 222 106t69 329q0 215 -69 315t-220 100q-136 0 -196.5 -100.5t-60.5 -326.5zM1241 -171q0 48 -28.5 80.5t-86.5 32.5q-38 0 -69 -14.5t-63 -34.5q0 -80 35.5 -127t96.5 -47q52 0 83.5 28.5t31.5 81.5z" />
    <glyph glyph-name="uni0222" unicode="&#x222;" horiz-adv-x="1238" 
d="M638 1430q219 -5 343 -103.5t124 -260.5q0 -124 -71 -212.5t-197 -111.5v-4q145 -22 225.5 -114t80.5 -233q0 -193 -139 -302t-385 -109q-253 0 -389.5 108t-136.5 301q0 139 85 233t217 114v4q-137 37 -201.5 99.5t-64.5 159.5q0 138 114.5 213.5t334.5 79.5v-130
q-137 -4 -202.5 -45.5t-65.5 -125.5q0 -89 82.5 -136t224.5 -47q146 0 225 63.5t79 184.5q0 108 -72.5 171.5t-210.5 68.5v134zM959 408q0 124 -92 194t-253 70q-156 0 -247 -76t-91 -206q0 -129 89 -199.5t256 -70.5q338 0 338 288z" />
    <glyph glyph-name="uni0223" unicode="&#x223;" horiz-adv-x="1158" 
d="M581 874q125 0 194 68t69 193q0 81 -40.5 144t-113.5 98l73 113q139 -68 200.5 -155t61.5 -199q0 -127 -63.5 -214t-175.5 -119v-4q130 -31 206 -131.5t76 -243.5q0 -213 -128.5 -328.5t-360.5 -115.5q-230 0 -357 116t-127 328q0 144 76 243.5t206 131.5v4
q-111 31 -175 118t-64 215q0 112 61.5 199t200.5 155l73 -113q-73 -35 -113.5 -98t-40.5 -144q0 -126 68.5 -193.5t193.5 -67.5zM581 743q-139 0 -222 -83.5t-83 -220.5q0 -157 77.5 -237.5t228.5 -80.5t228 81t77 237q0 87 -36.5 156.5t-106 108.5t-163.5 39z" />
    <glyph glyph-name="uni0224" unicode="&#x224;" horiz-adv-x="1251" 
d="M65 143l858 1110h-785v156h1002v-139l-858 -1114h636q132 0 206.5 -65.5t74.5 -191.5q0 -77 -17 -154l-155 34q18 56 18 88q0 71 -35.5 102t-112.5 31h-832v143z" />
    <glyph glyph-name="uni0225" unicode="&#x225;" horiz-adv-x="1024" 
d="M49 137l661 806h-621v139h824v-137l-662 -806h447q147 0 214 -56t67 -171q0 -71 -19 -157l-155 34q20 49 20 88q0 63 -35.5 93t-112.5 30h-628v137z" />
    <glyph glyph-name="uni0226" unicode="&#x226;" horiz-adv-x="1366" 
d="M1167 0l-161 412h-642l-162 -412h-198l575 1409h217l566 -1409h-195zM685 1265l-9 -28q-25 -83 -74 -213l-180 -463h527l-181 465q-28 69 -56 156zM599 1605v172h180v-172h-180z" />
    <glyph glyph-name="uni0227" unicode="&#x227;" 
d="M414 -20q-163 0 -245 86t-82 236q0 168 110.5 258t356.5 96l243 4v59q0 132 -56 189t-176 57q-121 0 -176 -41t-66 -131l-188 17q46 292 434 292q204 0 307 -93.5t103 -270.5v-466q0 -80 21 -120.5t80 -40.5q26 0 59 7v-112q-68 -16 -139 -16q-100 0 -145.5 52.5
t-51.5 164.5h-6q-69 -124 -160.5 -175.5t-222.5 -51.5zM455 115q99 0 176 45t121.5 123.5t44.5 161.5v89l-197 -4q-127 -2 -192.5 -26t-100.5 -74t-35 -131q0 -88 47.5 -136t135.5 -48zM486 1312v172h180v-172h-180z" />
    <glyph glyph-name="uni0228" unicode="&#x228;" horiz-adv-x="1366" 
d="M168 0v1409h1069v-156h-878v-452h818v-154h-818v-491h919v-156h-1110zM944 -253q0 -181 -274 -181q-57 0 -90 4v98q49 -6 86 -6q147 0 147 81q0 77 -133 77q-43 0 -57 -2l65 182h107l-39 -100q94 -3 141 -43.5t47 -109.5z" />
    <glyph glyph-name="uni0229" unicode="&#x229;" 
d="M276 503q0 -186 77 -287t225 -101q117 0 187.5 47t95.5 119l158 -45q-97 -256 -441 -256q-240 0 -365.5 143t-125.5 425q0 268 125.5 411t358.5 143q477 0 477 -575v-24h-772zM862 641q-15 171 -87 249.5t-207 78.5q-131 0 -207.5 -87.5t-82.5 -240.5h584zM789 -253
q0 -181 -274 -181q-57 0 -90 4v98q49 -6 86 -6q147 0 147 81q0 77 -133 77q-43 0 -57 -2l65 182h107l-39 -100q94 -3 141 -43.5t47 -109.5z" />
    <glyph glyph-name="uni022A" unicode="&#x22a;" horiz-adv-x="1593" 
d="M1495 711q0 -221 -84.5 -387t-242.5 -255t-373 -89q-217 0 -374.5 88t-240.5 254.5t-83 388.5q0 338 185 528.5t515 190.5q215 0 373 -85.5t241.5 -248.5t83.5 -385zM1300 711q0 263 -131.5 413t-371.5 150q-242 0 -374 -148t-132 -415q0 -265 133.5 -420.5t370.5 -155.5
q244 0 374.5 150.5t130.5 425.5zM936 1458v184h163v-184h-163zM502 1458v184h163v-184h-163zM1075 1708h-549v127h549v-127z" />
    <glyph glyph-name="uni022B" unicode="&#x22b;" 
d="M1053 542q0 -284 -125 -423t-363 -139q-237 0 -358 144.5t-121 417.5q0 560 485 560q248 0 365 -136.5t117 -423.5zM864 542q0 224 -66.5 325.5t-223.5 101.5q-158 0 -228.5 -103.5t-70.5 -323.5q0 -214 69.5 -321.5t218.5 -107.5q162 0 231.5 104t69.5 325zM681 1219
v184h163v-184h-163zM287 1219v184h165v-184h-165zM842 1516h-549v127h549v-127z" />
    <glyph glyph-name="uni022C" unicode="&#x22c;" horiz-adv-x="1593" 
d="M1495 711q0 -221 -84.5 -387t-242.5 -255t-373 -89q-217 0 -374.5 88t-240.5 254.5t-83 388.5q0 338 185 528.5t515 190.5q215 0 373 -85.5t241.5 -248.5t83.5 -385zM1300 711q0 263 -131.5 413t-371.5 150q-242 0 -374 -148t-132 -415q0 -265 133.5 -420.5t370.5 -155.5
q244 0 374.5 150.5t130.5 425.5zM1071 1708h-549v127h549v-127zM923 1475q-51 0 -135 38q-85 37 -121 37q-45 0 -67.5 -17.5t-30.5 -57.5h-91q11 82 32.5 118t59.5 56t101 20q55 0 138 -37q83 -38 117 -38q48 0 69.5 19t27.5 56h92q-12 -81 -33 -118t-58.5 -56.5
t-100.5 -19.5z" />
    <glyph glyph-name="uni022D" unicode="&#x22d;" 
d="M1053 542q0 -284 -125 -423t-363 -139q-237 0 -358 144.5t-121 417.5q0 560 485 560q248 0 365 -136.5t117 -423.5zM864 542q0 224 -66.5 325.5t-223.5 101.5q-158 0 -228.5 -103.5t-70.5 -323.5q0 -214 69.5 -321.5t218.5 -107.5q162 0 231.5 104t69.5 325zM734 1201
q-42 0 -84 18.5t-81 41t-74.5 41t-66.5 18.5q-55 0 -82 -31t-36 -88h-91q11 102 35 154.5t64.5 83t103.5 30.5q44 0 86 -18.5t81 -41t73.5 -41t64.5 -18.5q100 0 117 119h92q-17 -148 -67 -208t-135 -60zM842 1566h-549v127h549v-127z" />
    <glyph glyph-name="uni022E" unicode="&#x22e;" horiz-adv-x="1593" 
d="M1495 711q0 -221 -84.5 -387t-242.5 -255t-373 -89q-217 0 -374.5 88t-240.5 254.5t-83 388.5q0 338 185 528.5t515 190.5q215 0 373 -85.5t241.5 -248.5t83.5 -385zM1300 711q0 263 -131.5 413t-371.5 150q-242 0 -374 -148t-132 -415q0 -265 133.5 -420.5t370.5 -155.5
q244 0 374.5 150.5t130.5 425.5zM722 1605v172h180v-172h-180z" />
    <glyph glyph-name="uni022F" unicode="&#x22f;" 
d="M1053 542q0 -284 -125 -423t-363 -139q-237 0 -358 144.5t-121 417.5q0 560 485 560q248 0 365 -136.5t117 -423.5zM864 542q0 224 -66.5 325.5t-223.5 101.5q-158 0 -228.5 -103.5t-70.5 -323.5q0 -214 69.5 -321.5t218.5 -107.5q162 0 231.5 104t69.5 325zM481 1312
v172h180v-172h-180z" />
    <glyph glyph-name="uni0230" unicode="&#x230;" horiz-adv-x="1593" 
d="M1495 711q0 -221 -84.5 -387t-242.5 -255t-373 -89q-217 0 -374.5 88t-240.5 254.5t-83 388.5q0 338 185 528.5t515 190.5q215 0 373 -85.5t241.5 -248.5t83.5 -385zM1300 711q0 263 -131.5 413t-371.5 150q-242 0 -374 -148t-132 -415q0 -265 133.5 -420.5t370.5 -155.5
q244 0 374.5 150.5t130.5 425.5zM709 1468v184h163v-184h-163zM1071 1708h-549v127h549v-127z" />
    <glyph glyph-name="uni0231" unicode="&#x231;" 
d="M1053 542q0 -284 -125 -423t-363 -139q-237 0 -358 144.5t-121 417.5q0 560 485 560q248 0 365 -136.5t117 -423.5zM864 542q0 224 -66.5 325.5t-223.5 101.5q-158 0 -228.5 -103.5t-70.5 -323.5q0 -214 69.5 -321.5t218.5 -107.5q162 0 231.5 104t69.5 325zM487 1232
v172h180v-172h-180zM842 1516h-549v127h549v-127z" />
    <glyph glyph-name="uni0232" unicode="&#x232;" horiz-adv-x="1366" 
d="M777 584v-584h-190v584l-542 825h210l429 -671l427 671h210zM957 1565h-549v127h549v-127z" />
    <glyph glyph-name="uni0233" unicode="&#x233;" horiz-adv-x="1024" 
d="M191 -425q-74 0 -124 11v135q38 -6 84 -6q168 0 266 247l17 43l-429 1077h192l228 -598q5 -14 12 -33.5t45 -130.5t41 -124l70 197l237 689h190l-416 -1082q-67 -173 -125 -257.5t-128.5 -126t-159.5 -41.5zM802 1236h-549v127h549v-127z" />
    <glyph glyph-name="uni0234" unicode="&#x234;" horiz-adv-x="715" 
d="M318 1484v-1421q68 24 127 24q128 0 198 -67.5t70 -186.5q0 -83 -36 -139.5t-97.5 -87.5t-135.5 -31q-185 0 -264 189l-157 -190l-110 117q127 179 225 265v1528h180zM558 -171q0 48 -28.5 80.5t-86.5 32.5q-38 0 -69 -14.5t-63 -34.5q0 -80 35.5 -127t96.5 -47
q52 0 83.5 28.5t31.5 81.5z" />
    <glyph glyph-name="uni0235" unicode="&#x235;" horiz-adv-x="1402" 
d="M825 686q0 107 -21 166t-67 85t-135 26q-130 0 -205 -89t-75 -247v-627h-180v851q0 189 -6 231h170q1 -5 2 -27t2.5 -50.5t3.5 -107.5h3q62 112 143.5 158.5t202.5 46.5q178 0 260.5 -88.5t82.5 -292.5v-658q68 24 127 24q125 0 194 -66.5t69 -187.5q0 -83 -36 -139.5
t-97.5 -87.5t-135.5 -31q-185 0 -264 189l-157 -190l-110 117q121 169 229 265v730zM1241 -171q0 48 -28.5 80.5t-86.5 32.5q-38 0 -69 -14.5t-63 -34.5q0 -80 35.5 -127t96.5 -47q52 0 83.5 28.5t31.5 81.5z" />
    <glyph glyph-name="uni0236" unicode="&#x236;" horiz-adv-x="752" 
d="M31 951v131h132l53 242h120v-242h200v-131h-200v-483q68 24 127 24q127 0 195.5 -67.5t68.5 -186.5q0 -83 -36 -139.5t-97.5 -87.5t-135.5 -31q-185 0 -264 189l-157 -190l-110 117q121 169 229 265v590h-125zM572 234q0 48 -28.5 80.5t-86.5 32.5q-38 0 -67 -14.5
t-61 -34.5q0 -84 34 -129t94 -45q52 0 83.5 28.5t31.5 81.5z" />
    <glyph glyph-name="j.dotless" unicode="&#x237;" horiz-adv-x="455" 
d="M317 -134q0 -153 -60 -222t-180 -69q-77 0 -127 9v139l62 -6q69 0 97 36t28 140v1189h180v-1216z" />
    <glyph glyph-name="uni0238" unicode="&#x238;" horiz-adv-x="1816" 
d="M818 174q-50 -104 -132.5 -149t-204.5 -45q-205 0 -301.5 138t-96.5 418q0 566 398 566q123 0 205 -45t132 -143h2l-2 121v449h180v-423q0 -65 -4 -153h4q50 104 132.5 149t204.5 45q205 0 301.5 -138t96.5 -418q0 -566 -398 -566q-247 0 -347 195h-2v-175h-164v174h-4z
M272 542q0 -227 60 -325t195 -98q153 0 222 106t69 329q0 215 -69 315t-220 100q-136 0 -196.5 -100.5t-60.5 -326.5zM1544 540q0 227 -60 325t-195 98q-152 0 -221.5 -104t-69.5 -330q0 -213 68 -314.5t221 -101.5q136 0 196.5 100.5t60.5 326.5z" />
    <glyph glyph-name="uni0239" unicode="&#x239;" horiz-adv-x="1816" 
d="M1733 544q0 -564 -398 -564q-250 0 -336 188h-5q4 -8 4 -170v-423h-180v492l2 101h-4q-52 -103 -127.5 -145.5t-207.5 -42.5q-206 0 -302 138t-96 416q0 566 398 566q125 0 203.5 -44t131.5 -144h4v170h176v-176h4q48 100 127 146.5t208 46.5q200 0 299 -134t99 -421z
M1544 540q0 226 -61 323t-194 97q-107 0 -167.5 -45t-92 -140.5t-31.5 -248.5q0 -213 68.5 -313t220.5 -100q135 0 196 98.5t61 328.5zM818 552q0 211 -69 313t-220 102q-137 0 -197 -102t-60 -325q0 -225 60 -323t195 -98q155 0 223 108.5t68 324.5z" />
    <glyph glyph-name="uni023A" unicode="&#x23a;" horiz-adv-x="1366" 
d="M1167 0l-161 412h-399l-318 -519h-162l65 107h-188l575 1409h217l102 -255l221 360h162l-318 -520l399 -994h-195zM422 561h113l253 413q-54 140 -76 207.5t-27 83.5l-9 -28q-25 -83 -74 -213zM851 812l-153 -251h251zM219 43l225 369h-80z" />
    <glyph glyph-name="uni023B" unicode="&#x23b;" horiz-adv-x="1479" 
d="M342 123q-119 98 -178.5 249t-59.5 339q0 337 182 528t504 191q162 0 291 -49l78 133h162l-116 -198q122 -87 183 -235l-181 -60q-31 78 -94 139l-564 -961q112 -62 251 -62q296 0 445 293l156 -78q-87 -182 -244.5 -277t-365.5 -95q-187 0 -331 68l-91 -155h-162z
M792 1274q-234 0 -364 -150.5t-130 -412.5q0 -267 141 -422l557 947q-91 38 -204 38z" />
    <glyph glyph-name="uni023C" unicode="&#x23c;" horiz-adv-x="1024" 
d="M239 89q-152 144 -152 453q0 273 120 416.5t344 143.5q73 0 133 -16l178 398h142l-201 -451q129 -86 161 -254l-185 -14q-11 68 -45 114l-322 -722q55 -35 136 -35q96 0 160.5 52t79.5 160l182 -12q-21 -156 -133 -249t-284 -93q-116 0 -204 37l-197 -442h-142zM275 546
q0 -176 45 -277l304 682q-34 10 -78 10q-143 0 -207 -95t-64 -320z" />
    <glyph glyph-name="uni023D" unicode="&#x23d;" 
d="M26 810h142v599h191v-599h399v-156h-399v-498h712v-156h-903v654h-142v156z" />
    <glyph glyph-name="uni023E" unicode="&#x23e;" horiz-adv-x="1251" 
d="M1041 1253l-321 -525v-728h-190v417l-321 -524h-162l483 789v571h-484v156h928l65 105h162l-64 -105h67v-156h-163zM720 993l159 260h-159v-260z" />
    <glyph glyph-name="uni023F" unicode="&#x23f;" horiz-adv-x="1024" 
d="M950 299q0 -153 -115.5 -236t-323.5 -83q-33 0 -103 10l195 -210q27 -29 61.5 -41t61.5 -12q34 0 61 14t56 47l96 -113q-56 -59 -107.5 -80t-107.5 -21q-154 0 -280 154l-141 165q-73 82 -140 166q-77 97 -92 120l133 87q57 -88 123.5 -118.5t183.5 -30.5q137 0 200.5 42
t63.5 126q0 64 -44 104t-142 66l-129 34q-155 40 -220.5 78.5t-102.5 93.5t-37 135q0 148 105.5 225.5t307.5 77.5q179 0 284.5 -63t133.5 -202l-162 -20q-15 72 -80.5 110.5t-175.5 38.5q-122 0 -180 -37t-58 -112q0 -46 24 -76t71 -51t198 -58q143 -36 206 -66.5
t99.5 -67.5t56.5 -85.5t20 -110.5z" />
    <glyph glyph-name="uni0240" unicode="&#x240;" horiz-adv-x="1024" 
d="M251 139q62 0 102.5 -10.5t73.5 -34t101 -103.5l170 -201q29 -35 54 -49t57 -14q52 0 112 68l96 -113q-56 -59 -107.5 -83.5t-107.5 -24.5q-49 0 -88 15t-73.5 43t-92.5 99l-160 193q-37 44 -71 60t-112 16h-156v139l661 804h-621v139h824v-137z" />
    <glyph glyph-name="uni0241" unicode="&#x241;" horiz-adv-x="1189" 
d="M445 0v536q52 -14 127 -14q340 0 340 384q0 198 -86.5 290.5t-266.5 92.5q-132 0 -216.5 -58.5t-110.5 -176.5l-181 29q36 165 168.5 256t343.5 91q261 0 399 -133.5t138 -394.5q0 -234 -127.5 -374t-347.5 -148v-380h-180z" />
    <glyph glyph-name="uni0242" unicode="&#x242;" horiz-adv-x="928" 
d="M354 0v432q143 0 224.5 72t81.5 195q0 133 -54.5 197.5t-181.5 64.5q-191 0 -219 -196l-185 14q26 150 133.5 236.5t270.5 86.5q205 0 314.5 -105t109.5 -300q0 -143 -81.5 -244t-232.5 -139v-314h-180z" />
    <glyph glyph-name="uni0243" unicode="&#x243;" horiz-adv-x="1366" 
d="M33 474h135v935h512q496 0 496 -342q0 -125 -70 -210t-198 -114q168 -20 259 -112.5t91 -233.5q0 -188 -137 -292.5t-381 -104.5h-572v341h-135v133zM1065 412q0 249 -350 249h-356v-187h348v-133h-348v-188h371q175 0 255 65t80 194zM984 1044q0 114 -78 163t-226 49
h-321v-446h321q153 0 228.5 57.5t75.5 176.5z" />
    <glyph glyph-name="uni0244" unicode="&#x244;" horiz-adv-x="1479" 
d="M41 809h117v600h191v-600h782v600h190v-600h117v-153h-117v-126q0 -171 -72.5 -295t-205 -189.5t-312.5 -65.5q-173 0 -302 63t-200 183t-71 286v144h-117v153zM730 135q190 0 295.5 103.5t105.5 302.5v115h-782v-128q0 -193 98 -293t283 -100z" />
    <glyph glyph-name="uni0245" unicode="&#x245;" horiz-adv-x="1368" 
d="M584 1409h198l575 -1409h-201l-390 992l-84 249l-84 -249l-388 -992h-201z" />
    <glyph glyph-name="uni0246" unicode="&#x246;" horiz-adv-x="1366" 
d="M230 -224l107 224h-169v1409h844l70 145h142l-70 -145h83v-156h-157l-217 -452h314v-154h-388l-235 -491h724v-156h-798l-107 -224h-143zM359 801h362l217 452h-579v-452zM359 156h53l235 491h-288v-491z" />
    <glyph glyph-name="uni0247" unicode="&#x247;" 
d="M68 -424l216 483q-197 135 -197 489q0 268 125.5 411t358.5 143q94 0 168 -22l181 404h142l-205 -460q191 -136 191 -497v-24h-424l-164 -368q52 -20 118 -20q117 0 187.5 47t95.5 119l158 -45q-97 -256 -441 -256q-96 0 -176 23l-191 -427h-143zM543 641l139 310
q-51 18 -114 18q-131 0 -207.5 -87.5t-82.5 -240.5h265zM276 503q0 -188 77 -288l129 288h-206zM862 641q-13 151 -73 232l-103 -232h176z" />
    <glyph glyph-name="uni0248" unicode="&#x248;" horiz-adv-x="1024" 
d="M420 809h262v444h-271v156h461v-600h135v-152h-135v-237q0 -205 -111 -322.5t-304 -117.5q-358 0 -425 370l187 31q18 -116 81 -181t158 -65q104 0 164 71.5t60 209.5v241h-262v152z" />
    <glyph glyph-name="uni0249" unicode="&#x249;" horiz-adv-x="455" 
d="M317 617h111v-133h-111v-618q0 -153 -60 -222t-180 -69q-77 0 -127 9v139l62 -6q69 0 97 36t28 140v591h-112v133h112v465h180v-465zM137 1312v172h180v-172h-180z" />
    <glyph glyph-name="uni024A" unicode="&#x24a;" horiz-adv-x="1510" 
d="M1333 -115q0 -81 28 -114.5t83 -33.5q51 0 98 14v-162q-58 -14 -136 -14q-131 0 -197.5 75.5t-66.5 220.5v200q-182 -91 -352 -91q-327 0 -510 195t-183 536q0 338 185 528.5t515 190.5q195 0 355 -77l150 56h31v-1524zM790 133q234 0 352 103v941q-115 100 -345 100
q-241 0 -373.5 -148.5t-132.5 -417.5q0 -271 133.5 -424.5t365.5 -153.5z" />
    <glyph glyph-name="uni024B" unicode="&#x24b;" 
d="M821 49l4 129h-2q-54 -107 -133 -152.5t-206 -45.5q-206 0 -302 139t-96 417q0 566 398 566q123 0 203 -43.5t134 -144.5h2q0 30 4 103.5t8 78.5h173q-7 -59 -7 -295v-916q0 -81 28 -114.5t83 -33.5q38 0 86 12v-162q-50 -12 -124 -12q-124 0 -188.5 74.5t-64.5 221.5
v178zM821 554q0 211 -69 313t-220 102q-137 0 -197 -102t-60 -325q0 -227 60.5 -325t194.5 -98q153 0 222 109t69 326z" />
    <glyph glyph-name="uni024C" unicode="&#x24c;" horiz-adv-x="1479" 
d="M1164 0l-366 585h-439v-585h-191v585h-168v150h168v674h663q238 0 367.5 -106.5t129.5 -296.5q0 -157 -91.5 -264t-252.5 -135l400 -607h-220zM1136 1004q0 123 -83.5 187.5t-240.5 64.5h-453v-520h461q151 0 233.5 70.5t82.5 197.5z" />
    <glyph glyph-name="uni024D" unicode="&#x24d;" horiz-adv-x="682" 
d="M142 0v486h-122v146h122v198q0 114 -6 252h170q8 -184 8 -221h4q43 139 99 190t158 51q36 0 73 -10v-165q-36 10 -96 10q-206 0 -228 -305h181v-146h-183v-486h-180z" />
    <glyph glyph-name="uni024E" unicode="&#x24e;" horiz-adv-x="1366" 
d="M1169 1179h147v-146h-243l-296 -449v-584h-190v584l-295 449h-242v146h146l-151 230h210l147 -230h562l147 230h210zM684 738l187 295h-376z" />
    <glyph glyph-name="uni024F" unicode="&#x24f;" horiz-adv-x="1024" 
d="M889 741h111v-146h-167l-229 -595q-67 -173 -125 -257.5t-128.5 -126t-159.5 -41.5q-74 0 -124 11v135q38 -6 84 -6q168 0 266 247l17 43l-235 590h-162v146h104l-136 341h192l130 -341h386l117 341h190zM523 196l70 197l70 202h-281l43 -111q5 -14 12 -33.5t45 -130.5
t41 -124z" />
    <glyph glyph-name="uni0250" unicode="&#x250;" 
d="M726 1102q163 0 245 -86t82 -236q0 -173 -114.5 -261.5t-352.5 -92.5l-243 -4v-59q0 -132 56 -189t176 -57q123 0 177.5 42t64.5 130l188 -17q-46 -292 -434 -292q-204 0 -307 93.5t-103 270.5v466q0 80 -21 120.5t-80 40.5q-26 0 -59 -7v112q68 16 139 16
q100 0 145.5 -52.5t51.5 -164.5h6q64 120 156.5 173.5t226.5 53.5zM685 967q-99 0 -176 -45t-121.5 -123.5t-44.5 -161.5v-89l197 4q127 2 192.5 26t100.5 73.5t35 131.5q0 88 -47.5 136t-135.5 48z" />
    <glyph glyph-name="uni0251" unicode="&#x251;" 
d="M821 174q-50 -104 -132.5 -149t-204.5 -45q-205 0 -301.5 138t-96.5 418q0 566 398 566q123 0 205 -45t132 -143h2l-2 121v47h180v-859q0 -169 6 -223h-172q-3 16 -6.5 74t-3.5 100h-4zM275 542q0 -227 60 -325t195 -98q153 0 222 106t69 329q0 215 -69 315t-220 100
q-136 0 -196.5 -100.5t-60.5 -326.5z" />
    <glyph glyph-name="uni0252" unicode="&#x252;" 
d="M312 908q50 104 132.5 149t204.5 45q205 0 301.5 -138t96.5 -418q0 -566 -398 -566q-123 0 -205 45t-132 143h-2l2 -121v-47h-180v859q0 169 -6 223h172q3 -16 6.5 -74t3.5 -100h4zM858 540q0 227 -60 325t-195 98q-153 0 -222 -106t-69 -329q0 -214 68.5 -314.5
t220.5 -100.5q136 0 196.5 100.5t60.5 326.5z" />
    <glyph glyph-name="uni0253" unicode="&#x253;" 
d="M1053 546q0 -566 -398 -566q-123 0 -204.5 44.5t-132.5 143.5h-2q0 -31 -4 -94.5t-6 -73.5h-174q6 54 6 223v979q0 143 75 219.5t220 76.5q66 0 145 -17v-166q-58 21 -127 21q-63 0 -97.5 -38t-34.5 -110v-127l-5 -153h4q50 104 132.5 149t204.5 45q205 0 301.5 -138
t96.5 -418zM864 540q0 227 -60 325t-195 98q-152 0 -221.5 -104t-69.5 -330q0 -213 68 -314.5t221 -101.5q136 0 196.5 100.5t60.5 326.5z" />
    <glyph glyph-name="uni0254" unicode="&#x254;" horiz-adv-x="1024" 
d="M756 546q0 226 -64.5 320.5t-206.5 94.5q-105 0 -162 -53t-71 -143l-185 14q29 151 137.5 237t275.5 86q224 0 344 -143.5t120 -416.5q0 -275 -119.5 -418.5t-346.5 -143.5q-171 0 -283.5 93t-133.5 249l182 12q15 -108 79.5 -160t160.5 -52q138 0 205.5 104.5
t67.5 319.5z" />
    <glyph glyph-name="uni0255" unicode="&#x255;" horiz-adv-x="1024" 
d="M561 -20q-161 0 -273 79q-52 -78 -87 -151l-124 92q72 116 109 166q-99 144 -99 376q0 273 120 416.5t344 143.5q166 0 275.5 -86t137.5 -237l-185 -14q-14 90 -71 143t-162 53q-143 0 -207 -95t-64 -320q0 -130 34 -232q191 196 389 196q267 0 267 -229
q0 -88 -50.5 -159t-140 -106.5t-213.5 -35.5zM560 114q83 0 139.5 21t87 55t30.5 75q0 57 -32 82t-92 25q-83 0 -164.5 -51.5t-145.5 -134.5q68 -72 177 -72z" />
    <glyph glyph-name="uni0256" unicode="&#x256;" 
d="M1198 -413q-50 -12 -124 -12q-247 0 -247 296v303h-4q-50 -104 -133.5 -149t-205.5 -45q-205 0 -301.5 138t-96.5 418q0 566 398 566q123 0 205 -45t132 -143h2l-2 121v449h180v-1599q0 -81 28 -114.5t83 -33.5q38 0 86 12v-162zM275 542q0 -227 60 -325t195 -98
q153 0 222 106t69 329q0 215 -69 315t-220 100q-136 0 -196.5 -100.5t-60.5 -326.5z" />
    <glyph glyph-name="uni0257" unicode="&#x257;" 
d="M1001 223q0 -169 6 -223h-172q-3 16 -6.5 74t-3.5 100h-4q-50 -104 -132.5 -149t-204.5 -45q-205 0 -301.5 138t-96.5 418q0 566 398 566q123 0 205 -45t132 -143h2l-2 121v167q0 296 283 296q65 0 135 -15v-168q-58 21 -117 21q-121 0 -121 -148v-965zM275 542
q0 -227 60 -325t195 -98q153 0 222 106t69 329q0 215 -69 315t-220 100q-136 0 -196.5 -100.5t-60.5 -326.5z" />
    <glyph glyph-name="uni0258" unicode="&#x258;" 
d="M87 503v24q0 575 477 575q233 0 358.5 -143t125.5 -411q0 -282 -125.5 -425t-365.5 -143q-344 0 -441 256l158 45q25 -72 95.5 -119t187.5 -47q147 0 224.5 100.5t77.5 287.5h-772zM857 641q-6 154 -83 241t-207 87q-135 0 -207 -78.5t-87 -249.5h584z" />
    <glyph glyph-name="uni0259" unicode="&#x259;" 
d="M859 579q0 186 -77 287t-225 101q-117 0 -187.5 -47t-95.5 -119l-158 45q97 256 441 256q240 0 365.5 -143t125.5 -425q0 -268 -125.5 -411t-358.5 -143q-477 0 -477 575v24h772zM273 441q15 -171 87 -249.5t207 -78.5q131 0 207.5 87.5t82.5 240.5h-584z" />
    <glyph glyph-name="uni025A" unicode="&#x25a;" horiz-adv-x="1513" 
d="M844 723q-30 127 -103 185.5t-184 58.5q-117 0 -187.5 -47t-95.5 -119l-158 45q97 256 441 256q379 0 467 -348l148 26l28 -129q15 -68 40.5 -101.5t75.5 -33.5q52 0 132 40l59 -147q-126 -52 -211 -52q-99 0 -165.5 72t-86.5 198q4 -40 4 -93q0 -268 -125.5 -411
t-358.5 -143q-477 0 -477 575v24zM270 468q15 -184 86 -269.5t211 -85.5q139 0 218 99.5t79 287.5l-3 79z" />
    <glyph glyph-name="uni025B" unicode="&#x25b;" horiz-adv-x="939" 
d="M72 289q0 111 64 180t185 89q-220 67 -220 245q0 139 100.5 219t276.5 80q162 0 263 -84t122 -237l-179 -16q-31 204 -204 204q-93 0 -146 -45t-53 -130q0 -78 56.5 -124t148.5 -46h90v-141h-96q-117 0 -172.5 -48t-55.5 -135q0 -88 59.5 -137.5t164.5 -49.5
q213 0 233 223l177 -14q-16 -173 -122 -257t-288 -84q-193 0 -298.5 82.5t-105.5 225.5z" />
    <glyph glyph-name="uni025C" unicode="&#x25c;" horiz-adv-x="939" 
d="M867 289q0 -143 -106 -225.5t-298 -82.5q-183 0 -288.5 84t-121.5 257l177 14q20 -223 233 -223q108 0 166 47t58 140q0 87 -56 135t-172 48h-96v141h90q93 0 149 46t56 124q0 82 -52.5 128.5t-146.5 46.5q-173 0 -204 -204l-179 16q21 152 122 236.5t263 84.5
q177 0 277 -81t100 -218q0 -178 -220 -245q121 -20 185 -89t64 -180z" />
    <glyph glyph-name="uni025D" unicode="&#x25d;" horiz-adv-x="1293" 
d="M867 289q0 -143 -106 -225.5t-298 -82.5q-183 0 -288.5 84t-121.5 257l177 14q20 -223 233 -223q108 0 166 47t58 140q0 87 -56 135t-172 48h-96v141h90q93 0 149 46t56 124q0 82 -52.5 128.5t-146.5 46.5q-173 0 -204 -204l-179 16q21 152 122 236.5t263 84.5
q138 0 231 -50.5t127 -142.5l137 24l28 -129q15 -68 38.5 -101.5t73.5 -33.5q37 0 67.5 11.5t64.5 28.5l59 -147q-126 -52 -211 -52q-91 0 -155 60.5t-90 172.5q-33 -130 -213 -185q121 -20 185 -89t64 -180z" />
    <glyph glyph-name="uni025E" unicode="&#x25e;" horiz-adv-x="1039" 
d="M264 556q0 -159 33.5 -255.5t96.5 -142t177 -45.5q108 0 166 47t58 140q0 87 -56 135t-172 48h-96v141h90q93 0 149 46t56 124q0 82 -52.5 128.5t-146.5 46.5q-161 0 -232 -104.5t-71 -308.5zM75 556q0 261 123 403.5t350 142.5q188 0 293 -79.5t105 -219.5
q0 -178 -220 -245q121 -20 185 -89t64 -180q0 -143 -106 -225.5t-298 -82.5q-251 0 -373.5 144t-122.5 431z" />
    <glyph glyph-name="uni025F" unicode="&#x25f;" horiz-adv-x="569" 
d="M219 131v951h180v-951h152v-131h-152v-148q0 -148 -65 -213t-199 -65q-75 0 -127 12v137q45 -8 80 -8q69 0 100 35t31 127v123h-211v131h211z" />
    <glyph glyph-name="uni0260" unicode="&#x260;" 
d="M1001 31q0 -456 -453 -456q-177 0 -282 69.5t-135 197.5l181 26q18 -75 79.5 -115.5t161.5 -40.5q269 0 269 315v174h-2q-51 -104 -140 -156.5t-208 -52.5q-199 0 -292.5 132t-93.5 415q0 287 100.5 423.5t305.5 136.5q115 0 199 -52.5t130 -149.5h2v305q0 145 73 220.5
t216 75.5q32 0 51 -1.5t74 -12.5v-166q-50 18 -107 18q-64 0 -96.5 -39t-32.5 -109v-1157zM822 541q0 132 -36 227.5t-101.5 146t-148.5 50.5q-138 0 -201 -100t-63 -324q0 -222 59 -319t202 -97q85 0 151 50t102 143.5t36 222.5z" />
    <glyph glyph-name="uni0261" unicode="&#x261;" 
d="M548 -425q-177 0 -282 69.5t-135 197.5l181 26q18 -75 79.5 -115.5t161.5 -40.5q269 0 269 315v174h-2q-51 -104 -140 -156.5t-208 -52.5q-199 0 -292.5 132t-93.5 415q0 287 100.5 423.5t305.5 136.5q115 0 199.5 -52.5t130.5 -149.5h2q0 30 4 104t8 81h171
q-6 -54 -6 -224v-827q0 -456 -453 -456zM822 541q0 132 -36 227.5t-101.5 146t-148.5 50.5q-138 0 -201 -100t-63 -324q0 -222 59 -319t202 -97q85 0 151 50t102 143.5t36 222.5z" />
    <glyph glyph-name="uni0262" unicode="&#x262;" horiz-adv-x="1144" 
d="M576 541h431v-418q-75 -68 -182.5 -105.5t-229.5 -37.5q-245 0 -373 143t-128 419q0 270 125.5 415t354.5 145q166 0 275.5 -86t137.5 -237l-185 -14q-14 90 -71 143t-162 53q-153 0 -221 -102.5t-68 -312.5q0 -222 76 -325t235 -103q131 0 234 67v219h-249v137z" />
    <glyph glyph-name="uni0263" unicode="&#x263;" horiz-adv-x="1026" 
d="M400 150l-393 932h192l309 -735l318 735h191l-404 -931q127 -222 127 -339q0 -109 -62.5 -173t-169.5 -64q-106 0 -168.5 64t-62.5 173q0 40 11.5 85t30 91t81.5 162zM584 -182q0 83 -76 219q-75 -138 -75 -219q0 -46 19.5 -72t55.5 -26q37 0 56.5 25.5t19.5 72.5z" />
    <glyph glyph-name="uni0264" unicode="&#x264;" horiz-adv-x="1263" 
d="M703 214q0 21 -5 42t-15.5 46.5t-51.5 101.5q-12 -23 -25 -47t-23 -48t-16.5 -47.5t-6.5 -47.5q0 -93 71 -93q72 0 72 93zM961 1089q76 0 148 -48t128 -140l-114 -111l-33 50q-63 91 -126 91q-35 0 -57.5 -26.5t-45.5 -79.5l-131 -303l51 -94q82 -145 82 -226
q0 -106 -62.5 -166t-169.5 -60q-106 0 -168.5 60t-62.5 166q0 86 80 226l49 93l-131 304q-23 53 -45.5 79.5t-57.5 26.5q-63 0 -125 -91l-34 -50l-114 111q56 92 128 140t148 48q97 0 155.5 -43.5t99.5 -153.5l55 -151l22 -70l21 70l55 151q40 109 98.5 153t156.5 44z" />
    <glyph glyph-name="uni0265" unicode="&#x265;" 
d="M831 186q-59 -109 -141 -157t-205 -48q-176 0 -259.5 87.5t-83.5 293.5v721h181v-686q0 -114 21 -169.5t69 -81.5t133 -26q127 0 203.5 88t76.5 237v638h180v-1484h-180v386l4 127l4 74h-3z" />
    <glyph glyph-name="uni0266" unicode="&#x266;" 
d="M317 897q58 106 139.5 155.5t206.5 49.5q176 0 259.5 -87.5t83.5 -293.5v-721h-181v686q0 114 -21 169.5t-69 81.5t-133 26q-127 0 -203.5 -88t-76.5 -237v-638h-180v1202q0 296 284 296q69 0 142 -16v-165q-53 19 -119 19q-126 0 -126 -142v-96q0 -138 -9 -201h3z" />
    <glyph glyph-name="uni0267" unicode="&#x267;" 
d="M323 1098q0 -138 -9 -201h3q58 106 139.5 155.5t206.5 49.5q176 0 259.5 -87.5t83.5 -293.5v-850q0 -296 -281 -296q-51 0 -136 16v167q58 -21 119 -21q117 0 117 148v801q0 114 -21 169.5t-69 81.5t-133 26q-127 0 -203.5 -88t-76.5 -237v-638h-180v1202q0 296 284 296
q69 0 142 -16v-165q-53 19 -119 19q-126 0 -126 -142v-96z" />
    <glyph glyph-name="uni0268" unicode="&#x268;" horiz-adv-x="455" 
d="M24 617h113v465h180v-465h114v-133h-114v-484h-180v484h-113v133zM137 1312v172h180v-172h-180z" />
    <glyph glyph-name="uni0269" unicode="&#x269;" horiz-adv-x="455" 
d="M266 293q0 -81 28.5 -116t83.5 -35q33 0 77 11v-160q-50 -10 -95 -10q-274 0 -274 296v803h180v-789z" />
    <glyph glyph-name="uni026A" unicode="&#x26a;" horiz-adv-x="729" 
d="M455 140h207v-140h-594v140h206v803h-206v139h594v-139h-207v-803z" />
    <glyph glyph-name="uni026B" unicode="&#x26b;" horiz-adv-x="670" 
d="M248 0v715q-26 8 -52 8q-39 0 -52.5 -24t-13.5 -71h-130q2 104 55.5 166t137.5 62l55 -5v633h180v-702q16 -6 48 -6q31 0 44 23.5t19 71.5h130q0 -114 -45 -171t-141 -57q-35 0 -55 5v-648h-180z" />
    <glyph glyph-name="uni026C" unicode="&#x26c;" horiz-adv-x="622" 
d="M602 601h-169v-601h-180v601h-5q-100 0 -166.5 65.5t-66.5 172.5q0 99 64.5 160.5t166.5 61.5h7v405h180v-736h169v-129zM253 730v216h-7q-51 0 -80.5 -30t-29.5 -81q0 -105 110 -105h7z" />
    <glyph glyph-name="uni026D" unicode="&#x26d;" horiz-adv-x="455" 
d="M314 -115q1 -81 29.5 -114.5t83.5 -33.5t102 15v-162q-69 -15 -114 -15q-281 0 -281 296v1613h180v-1599z" />
    <glyph glyph-name="uni026E" unicode="&#x26e;" horiz-adv-x="1171" 
d="M131 0v1484h180v-402h756v-178l-369 -364q189 -24 297 -151t108 -320q0 -137 -63.5 -251t-179 -178.5t-261.5 -64.5q-188 0 -304.5 76t-155.5 226l177 21q55 -182 282 -182q97 0 171 47.5t113.5 131t39.5 180.5q0 152 -94.5 244t-251.5 92h-82v144l383 386h-566v-941
h-180z" />
    <glyph glyph-name="uni026F" unicode="&#x26f;" horiz-adv-x="1706" 
d="M940 1082v-686q0 -157 43 -217t155 -60q115 0 182 88t67 248v627h179v-851q0 -189 6 -231h-170q-1 5 -2 27t-2.5 50.5t-3.5 107.5h-3q-58 -115 -133 -160t-183 -45q-123 0 -194.5 49t-99.5 156h-3q-56 -109 -135.5 -157t-192.5 -48q-164 0 -238.5 89t-74.5 292v721h178
v-686q0 -157 43 -217t155 -60q118 0 183.5 87.5t65.5 248.5v627h178z" />
    <glyph glyph-name="uni0270" unicode="&#x270;" horiz-adv-x="1706" 
d="M940 1082v-686q0 -157 43 -217t155 -60q115 0 182 88t67 248v627h179v-1507h-177v600q-55 -107 -129.5 -151t-184.5 -44q-123 0 -194.5 49t-99.5 156h-3q-56 -109 -135.5 -157t-192.5 -48q-164 0 -238.5 89t-74.5 292v721h178v-686q0 -157 43 -217t155 -60
q118 0 183.5 87.5t65.5 248.5v627h178z" />
    <glyph glyph-name="uni0271" unicode="&#x271;" horiz-adv-x="1706" 
d="M1393 686q0 157 -43 217t-155 60q-118 0 -183.5 -87.5t-65.5 -248.5v-627h-178v686q0 157 -43 217t-155 60q-115 0 -182 -88t-67 -248v-627h-179v851q0 189 -6 231h170q1 -5 2 -27t2.5 -50.5t3.5 -107.5h3q58 115 133 160t183 45q123 0 194.5 -49t99.5 -156h3
q56 109 135.5 157t192.5 48q164 0 238.5 -89t74.5 -292v-850q0 -296 -281 -296q-51 0 -136 16v164q50 -18 119 -18q120 0 120 148v801z" />
    <glyph glyph-name="uni0272" unicode="&#x272;" 
d="M142 851q0 189 -6 231h170q1 -5 2 -27t2.5 -50.5t3.5 -107.5h3q62 112 143.5 158.5t202.5 46.5q178 0 260.5 -88.5t82.5 -292.5v-721h-181v686q0 107 -21 166t-67 85t-135 26q-130 0 -205 -89t-75 -247v-756q0 -296 -281 -296q-51 0 -136 16v163q47 -17 119 -17
q118 0 118 148v966z" />
    <glyph glyph-name="uni0273" unicode="&#x273;" 
d="M1006 -115q0 -148 117 -148q62 0 106 16v-164q-64 -14 -123 -14q-281 0 -281 296v815q0 107 -21 166t-67 85t-135 26q-130 0 -205 -89t-75 -247v-627h-180v851q0 189 -6 231h170q1 -5 2 -27t2.5 -50.5t3.5 -107.5h3q62 112 143.5 158.5t202.5 46.5q178 0 260.5 -88.5
t82.5 -292.5v-836z" />
    <glyph glyph-name="uni0274" unicode="&#x274;" horiz-adv-x="1132" 
d="M316 1082l465 -685q21 -30 58 -104l-4 125v664h170v-1082h-167l-461 699q-40 58 -73 129q7 -98 7 -163v-665h-169v1082h174z" />
    <glyph glyph-name="uni0275" unicode="&#x275;" 
d="M1053 542q0 -284 -125 -423t-363 -139q-237 0 -358 144.5t-121 417.5q0 560 485 560q248 0 365 -136.5t117 -423.5zM563 113q149 0 219 87t80 270h-585q10 -176 79.5 -266.5t206.5 -90.5zM574 969q-144 0 -215 -86t-82 -266h585q-10 180 -77 266t-211 86z" />
    <glyph glyph-name="uni0276" unicode="&#x276;" horiz-adv-x="1619" 
d="M1481 625v-130h-441v-362h510v-133h-681v93q-115 -113 -304 -113q-237 0 -358 144.5t-121 417.5q0 560 485 560q180 0 298 -113v93h658v-137h-487v-320h441zM864 542q0 224 -66.5 325.5t-223.5 101.5q-158 0 -228.5 -103.5t-70.5 -323.5q0 -214 69.5 -321.5t218.5 -107.5
q162 0 231.5 104t69.5 325z" />
    <glyph glyph-name="uni0277" unicode="&#x277;" horiz-adv-x="1599" 
d="M885 589v-96q0 -195 56 -288t170 -93q119 0 171.5 88t52.5 275q0 151 -65.5 265t-184.5 169.5t-286 55.5q-166 0 -285 -55.5t-184.5 -169.5t-65.5 -265q0 -187 52.5 -275t171.5 -88q114 0 170 93t56 288v96h171zM799 1102q333 0 523 -166.5t190 -460.5
q0 -236 -101 -365.5t-285 -129.5q-129 0 -214 63.5t-114 183.5q-27 -122 -111.5 -184.5t-213.5 -62.5q-183 0 -284.5 129t-101.5 366q0 293 189 460t523 167z" />
    <glyph glyph-name="uni0278" unicode="&#x278;" horiz-adv-x="1126" 
d="M482 -425v410q-189 23 -292.5 160.5t-103.5 396.5q0 505 396 555v387h164v-386q212 -20 309.5 -158.5t97.5 -397.5q0 -512 -407 -557v-410h-164zM864 542q0 199 -52 300t-166 121v-843q113 22 165.5 125.5t52.5 296.5zM275 542q0 -184 50.5 -288t156.5 -132v836
q-108 -26 -157.5 -128t-49.5 -288z" />
    <glyph glyph-name="uni0279" unicode="&#x279;" horiz-adv-x="682" 
d="M549 1082v-830q0 -120 6 -252h-170l-5 113l-3 108h-4q-34 -104 -65.5 -151t-77 -68.5t-114.5 -21.5q-36 0 -73 10v165q36 -10 96 -10q112 0 171 96.5t59 276.5v564h180z" />
    <glyph glyph-name="uni027A" unicode="&#x27a;" horiz-adv-x="682" 
d="M549 1483v-1231q0 -120 6 -252h-170l-5 113l-3 108h-4q-34 -104 -65.5 -151t-77 -68.5t-114.5 -21.5q-36 0 -73 10v165q36 -10 96 -10q112 0 171 96.5t59 276.5v965h180z" />
    <glyph glyph-name="uni027B" unicode="&#x27b;" horiz-adv-x="682" 
d="M549 1082v-1202q0 -81 28 -114.5t83 -33.5q51 0 98 14v-160q-59 -11 -130 -11q-254 0 -254 296v321q-38 -119 -97 -165.5t-161 -46.5q-36 0 -73 10v165q36 -10 96 -10q112 0 171 96.5t59 276.5v564h180z" />
    <glyph glyph-name="uni027C" unicode="&#x27c;" horiz-adv-x="682" 
d="M142 -425v1255q0 114 -6 252h170q8 -184 8 -221h4q43 139 99 190t158 51q36 0 73 -10v-165q-36 10 -96 10q-112 0 -171 -96.5t-59 -276.5v-989h-180z" />
    <glyph glyph-name="uni027D" unicode="&#x27d;" horiz-adv-x="682" 
d="M142 830q0 114 -6 252h170q8 -184 8 -221h4q43 139 99 190t158 51q36 0 73 -10v-165q-36 10 -96 10q-112 0 -171 -96.5t-59 -276.5v-679q0 -81 28 -114.5t83 -33.5q54 0 97 13v-164l-34 -5q-31 -6 -77 -6q-277 0 -277 296v959z" />
    <glyph glyph-name="uni027E" unicode="&#x27e;" horiz-adv-x="682" 
d="M142 0v686q0 128 46 221t141 144t223 51q59 0 96 -10v-165q-36 10 -96 10q-125 0 -179.5 -70.5t-54.5 -237.5v-629h-176z" />
    <glyph glyph-name="uni027F" unicode="&#x27f;" horiz-adv-x="682" 
d="M358 -425v1025q0 175 -55 256t-175 81q-60 0 -96 -10v165q37 10 96 10q128 0 223 -51t141 -144t46 -221v-1111h-180z" />
    <glyph glyph-name="uni0280" unicode="&#x280;" horiz-adv-x="1109" 
d="M322 0h-180v1082h462q184 0 292 -82t108 -227q0 -129 -74.5 -214t-212.5 -110l355 -449h-218l-332 439h-200v-439zM322 945v-370h274q219 0 219 187q0 92 -58 137.5t-165 45.5h-270z" />
    <glyph glyph-name="uni0281" unicode="&#x281;" horiz-adv-x="1109" 
d="M322 643h200l332 439h218l-355 -449q138 -25 212.5 -110.5t74.5 -213.5q0 -145 -108.5 -227t-291.5 -82h-462v1082h180v-439zM592 137q108 0 165.5 45.5t57.5 137.5q0 187 -219 187h-274v-370h270z" />
    <glyph glyph-name="uni0282" unicode="&#x282;" horiz-adv-x="1024" 
d="M216 285q23 -87 95 -127.5t200 -40.5q137 0 200.5 42t63.5 126q0 64 -44 104t-142 66l-129 34q-155 40 -220.5 78.5t-102.5 93.5t-37 135q0 148 105.5 225.5t307.5 77.5q179 0 284.5 -63t133.5 -202l-162 -20q-15 72 -80.5 110.5t-175.5 38.5q-122 0 -180 -37t-58 -112
q0 -46 24 -76t71 -51t198 -58q143 -36 206 -66.5t99.5 -67.5t56.5 -85.5t20 -110.5q0 -153 -115.5 -236t-323.5 -83q-173 0 -284 59v-159q0 -143 122 -143q57 0 99 12v-162l-34 -5q-36 -7 -79 -7q-278 0 -278 296v383z" />
    <glyph glyph-name="uni0283" unicode="&#x283;" horiz-adv-x="455" 
d="M16 -425q-79 0 -134 19v160q60 -24 117 -24q54 0 84.5 22t44 64.5t13.5 146.5v1167q0 173 75.5 263.5t222.5 90.5q107 0 151 -18v-167q-49 27 -115 27q-77 0 -114.5 -52.5t-37.5 -180.5v-1163q0 -180 -76 -267.5t-231 -87.5z" />
    <glyph glyph-name="uni0284" unicode="&#x284;" horiz-adv-x="532" 
d="M5 140h193v990q0 178 76 266t234 88q89 0 139 -18v-167q-49 27 -115 27q-77 0 -114.5 -52.5t-37.5 -180.5v-953h170v-140h-170v-70q0 -180 -76 -267.5t-231 -87.5q-79 0 -134 19v160q60 -24 117 -24q54 0 84.5 22t44 64.5t13.5 146.5v37h-193v140z" />
    <glyph glyph-name="uni0285" unicode="&#x285;" horiz-adv-x="455" 
d="M436 -425q-153 0 -225 86t-72 269v781q0 131 -37.5 182t-112.5 51q-66 0 -115 -27v167q44 18 131 18q162 0 239 -84.5t77 -258.5v-796q0 -102 12 -145.5t40 -65.5t80 -22q57 0 117 24v-160q-55 -19 -134 -19z" />
    <glyph glyph-name="uni0286" unicode="&#x286;" horiz-adv-x="715" 
d="M695 -426l-70 88l-84 101q-81 -188 -272 -188q-73 0 -134.5 30.5t-98 87t-36.5 140.5q0 118 69.5 186t198.5 68q64 0 132 -24v1067q0 354 292 354q107 0 151 -18v-167q-49 27 -115 27q-77 0 -114.5 -52.5t-37.5 -180.5v-1137q108 -96 229 -265zM155 -171q0 -56 32.5 -83
t79.5 -27q62 0 98.5 47.5t36.5 126.5q-78 49 -135 49q-58 0 -85 -32.5t-27 -80.5z" />
    <glyph glyph-name="uni0287" unicode="&#x287;" horiz-adv-x="569" 
d="M31 1405q89 24 182 24q216 0 216 -245v-812h125v-131h-132l-53 -242h-120v242h-200v131h200v773q0 78 -25.5 109.5t-88.5 31.5q-36 0 -104 -14v133z" />
    <glyph glyph-name="uni0288" unicode="&#x288;" horiz-adv-x="569" 
d="M554 -401q-89 -24 -182 -24q-216 0 -216 245v1131h-125v131h132l53 242h120v-242h200v-131h-200v-1087q0 -78 25.5 -109.5t88.5 -31.5q36 0 104 14v-138z" />
    <glyph glyph-name="uni0289" unicode="&#x289;" 
d="M314 1082v-465h503v465h180v-465h108v-133h-108v-253q0 -189 6 -231h-170q-1 5 -2 27t-2.5 50.5t-3.5 107.5h-3q-62 -112 -143.5 -158.5t-202.5 -46.5q-178 0 -260.5 88.5t-82.5 292.5v123h-107v133h107v465h181zM537 119q130 0 205 93t75 251v21h-503v-88
q0 -107 21 -166t67 -85t135 -26z" />
    <glyph glyph-name="uni028A" unicode="&#x28a;" horiz-adv-x="1164" 
d="M581 -20q-225 0 -361 128t-136 340q0 140 84 258q51 72 67.5 104t16.5 60q0 31 -21.5 52t-64.5 21h-82v139h124q89 0 143.5 -51.5t54.5 -138.5q0 -95 -67 -211q-68 -116 -68 -209q0 -159 83.5 -254t226.5 -95q142 0 226 95t84 254q0 93 -67 209q-68 116 -68 211
q0 88 55 139t143 51h124v-139h-82q-43 0 -64.5 -21t-21.5 -52q0 -29 16 -60t68 -104q84 -118 84 -258q0 -209 -135 -338.5t-362 -129.5z" />
    <glyph glyph-name="uni028B" unicode="&#x28b;" horiz-adv-x="1120" 
d="M997 571q0 -278 -117 -434.5t-335 -156.5q-215 0 -313.5 105t-98.5 334v663h181v-669q0 -146 56 -220t183 -74q259 0 259 448q0 139 -32.5 278.5t-81.5 236.5h188q53 -118 82 -256t29 -255z" />
    <glyph glyph-name="uni028C" unicode="&#x28c;" horiz-adv-x="1024" 
d="M411 1082h213l393 -1082h-192l-255 758l-52 183l-35 -117l-39 -118l-246 -706h-191z" />
    <glyph glyph-name="uni028D" unicode="&#x28d;" horiz-adv-x="1479" 
d="M304 1082h209l175 -691q26 -103 52 -243l19 93l35 154l176 687h208l295 -1082h-178l-175 714q-9 35 -24.5 111t-18.5 107l-47 -210l-194 -722h-193l-191 725q-43 173 -46 207l-7 -38l-38 -177l-179 -717h-176z" />
    <glyph glyph-name="uni028E" unicode="&#x28e;" horiz-adv-x="1024" 
d="M834 1507q74 0 124 -11v-135q-38 6 -84 6q-168 0 -266 -247l-17 -43l419 -1077h-192l-220 598q-20 54 -56 162t-40 126l-68 -197l-229 -689h-190l406 1082q64 169 121 254t128.5 128t163.5 43z" />
    <glyph glyph-name="uni028F" unicode="&#x28f;" horiz-adv-x="1064" 
d="M436 0v440l-409 642h202l300 -494l309 494h199l-421 -645v-437h-180z" />
    <glyph glyph-name="uni0290" unicode="&#x290;" horiz-adv-x="1024" 
d="M950 -115q0 -81 21.5 -114.5t76.5 -33.5q53 0 90 11v-161q-67 -12 -125 -12q-240 0 -240 296v129h-724v137l661 806h-621v139h824v-137l-662 -806h699v-254z" />
    <glyph glyph-name="uni0291" unicode="&#x291;" horiz-adv-x="1108" 
d="M424 139q101 170 195.5 249t191.5 79q118 0 186 -61.5t68 -164.5q0 -120 -70 -180.5t-222 -60.5h-253q-48 -94 -82 -178l-139 61l55 117h-305v137l661 806h-621v139h824v-137l-662 -806h173zM809 322q-47 0 -97 -40.5t-120 -142.5h172q77 0 112 22t35 77q0 39 -27 61.5
t-75 22.5z" />
    <glyph glyph-name="uni0292" unicode="&#x292;" horiz-adv-x="1116" 
d="M116 1082h883v-178l-383 -360q196 -25 307.5 -150.5t111.5 -324.5q0 -139 -59 -253t-167 -177.5t-248 -63.5q-216 0 -343 95t-150 282l178 12q19 -133 96 -192.5t213 -59.5q137 0 218 99.5t81 263.5q0 156 -91.5 246t-254.5 90h-82v144l393 386h-703v141z" />
    <glyph glyph-name="uni0293" unicode="&#x293;" horiz-adv-x="1116" 
d="M999 -426l-124 136q-148 -135 -365 -135q-127 0 -217 34.5t-137.5 95.5t-47.5 135q0 117 85 182t242 65q186 0 400 -149q19 68 19 137q0 155 -96 245.5t-249 90.5h-82v144l391 387h-701v141h883v-178l-379 -360q189 -24 301.5 -153.5t112.5 -322.5q0 -129 -65 -241
q62 -56 129 -129zM487 -295q181 0 278 105q-174 141 -338 141q-73 0 -114.5 -29t-41.5 -82q0 -61 60 -98t156 -37z" />
    <glyph glyph-name="uni0294" unicode="&#x294;" horiz-adv-x="1024" 
d="M364 0v542q46 -18 107 -18q145 0 215 99.5t70 314.5q0 219 -67.5 312t-213.5 93q-105 0 -162 -53t-71 -143l-185 14q29 151 137.5 237t275.5 86q228 0 351 -138.5t123 -411.5q0 -243 -103.5 -387.5t-296.5 -160.5v-386h-180z" />
    <glyph glyph-name="uni0295" unicode="&#x295;" horiz-adv-x="1024" 
d="M491 0v386q-194 17 -297 161t-103 387q0 273 119.5 411.5t344.5 138.5q166 0 275.5 -86t137.5 -237l-185 -14q-14 90 -71 143t-162 53q-144 0 -207.5 -90.5t-63.5 -314.5q0 -213 69.5 -313.5t215.5 -100.5q61 0 107 18v-542h-180z" />
    <glyph glyph-name="uni0296" unicode="&#x296;" horiz-adv-x="1024" 
d="M544 1484v-406q194 -17 297 -161t103 -387q0 -272 -122.5 -411t-351.5 -139q-166 0 -275.5 86t-137.5 237l185 14q14 -90 71 -143t162 -53q147 0 214 93.5t67 311.5q0 211 -69.5 309t-215.5 98q-61 0 -107 -18v569h180z" />
    <glyph glyph-name="uni0297" unicode="&#x297;" horiz-adv-x="1024" 
d="M87 542q0 273 120 416.5t344 143.5q166 0 275.5 -86t137.5 -237l-185 -14q-14 90 -71 143t-162 53q-145 0 -213 -96t-68 -319v-406q0 -211 71.5 -317.5t211.5 -106.5q96 0 160.5 52t79.5 160l182 -12q-21 -156 -133 -249t-284 -93q-227 0 -346.5 143.5t-119.5 418.5v406z
" />
    <glyph glyph-name="uni0298" unicode="&#x298;" horiz-adv-x="1593" 
d="M1495 711q0 -221 -84.5 -387t-242.5 -255t-373 -89q-217 0 -374.5 88t-240.5 254.5t-83 388.5q0 338 185 528.5t515 190.5q215 0 373 -85.5t241.5 -248.5t83.5 -385zM1300 711q0 263 -131.5 413t-371.5 150q-242 0 -374 -148t-132 -415q0 -265 133.5 -420.5t370.5 -155.5
q244 0 374.5 150.5t130.5 425.5zM700 606v219h195v-219h-195z" />
    <glyph glyph-name="uni0299" unicode="&#x299;" horiz-adv-x="1088" 
d="M564 1082q200 0 300 -70t100 -201q0 -93 -57 -155t-166 -83v-7q129 -17 193.5 -82t64.5 -172q0 -147 -109.5 -229.5t-302.5 -82.5h-445v1082h422zM322 133h236q138 0 194 42.5t56 135.5q0 101 -59.5 142.5t-202.5 41.5h-224v-362zM322 945v-320h216q128 0 182.5 36
t54.5 126q0 82 -51 120t-172 38h-230z" />
    <glyph glyph-name="uni029A" unicode="&#x29a;" horiz-adv-x="1039" 
d="M784 556q0 206 -71 309.5t-232 103.5q-93 0 -146 -45t-53 -130q0 -78 56.5 -124t148.5 -46h90v-141h-96q-117 0 -172.5 -48t-55.5 -135q0 -92 57.5 -139.5t166.5 -47.5q115 0 180 48t96 147t31 248zM973 556q0 -287 -122.5 -431t-373.5 -144q-188 0 -296 84.5t-108 231.5
q0 220 249 261q-111 34 -165.5 90.5t-54.5 144.5q0 142 105.5 225.5t292.5 83.5q227 0 350 -142.5t123 -403.5z" />
    <glyph glyph-name="uni029B" unicode="&#x29b;" horiz-adv-x="1144" 
d="M802 765q-14 90 -71 143t-162 53q-153 0 -221 -102.5t-68 -312.5q0 -222 76 -325t235 -103q131 0 234 67v219h-249v137h431v-418q-75 -68 -182.5 -105.5t-229.5 -37.5q-245 0 -373 143t-128 419q0 270 125.5 415t354.5 145q150 0 256 -72q9 121 74.5 187t183.5 66
q47 0 99 -12v-150q-36 16 -79 16q-66 0 -93.5 -35.5t-27.5 -112.5v-210z" />
    <glyph glyph-name="uni029C" unicode="&#x29c;" horiz-adv-x="1131" 
d="M314 1082v-458h503v458h180v-1082h-180v493h-503v-493h-180v1082h180z" />
    <glyph glyph-name="uni029D" unicode="&#x29d;" horiz-adv-x="814" 
d="M343 -425q-159 0 -250.5 69.5t-91.5 194.5q0 126 73 190.5t230 64.5h189v988h180v-988h136v-139h-136v-37q0 -98 -39.5 -176t-113.5 -122.5t-177 -44.5zM315 -283q86 0 132 53.5t46 160.5v24h-183q-77 0 -109.5 -30t-32.5 -87q0 -56 40.5 -88.5t106.5 -32.5zM493 1312
v172h180v-172h-180z" />
    <glyph glyph-name="uni029E" unicode="&#x29e;" horiz-adv-x="1024" 
d="M212 1082l366 -494l132 109v385h180v-1484h-180v927l-475 -525h-211l439 465l-462 617h211z" />
    <glyph glyph-name="uni029F" unicode="&#x29f;" horiz-adv-x="827" 
d="M765 0h-631v1082h177v-933h454v-149z" />
    <glyph glyph-name="uni02A0" unicode="&#x2a0;" 
d="M484 -20q-206 0 -302 139t-96 417q0 566 398 566q123 0 203 -43.5t134 -144.5h2v288q0 145 73 220.5t216 75.5q54 0 93 -8l37 -8v-166q-56 20 -116 20q-125 0 -125 -148v-1613h-180v439l4 164h-2q-54 -107 -133 -152.5t-206 -45.5zM821 554q0 211 -69 313t-220 102
q-137 0 -197 -102t-60 -325q0 -227 60.5 -325t194.5 -98q153 0 222 109t69 326z" />
    <glyph glyph-name="uni02A1" unicode="&#x2a1;" horiz-adv-x="1024" 
d="M47 276h317v266q46 -18 107 -18q145 0 215 99.5t70 314.5q0 219 -67.5 312t-213.5 93q-105 0 -162 -53t-71 -143l-185 14q29 151 137.5 237t275.5 86q228 0 351 -138.5t123 -411.5q0 -243 -103.5 -387.5t-296.5 -160.5v-110h331v-123h-331v-153h-180v153h-317v123z" />
    <glyph glyph-name="uni02A2" unicode="&#x2a2;" horiz-adv-x="1024" 
d="M976 153h-317v-153h-180v153h-331v123h331v110q-194 17 -297 161t-103 387q0 272 122.5 411t351.5 139q166 0 275.5 -86t137.5 -237l-185 -14q-14 90 -71 143t-162 53q-147 0 -214 -93.5t-67 -311.5q0 -213 69.5 -313.5t215.5 -100.5q61 0 107 18v-266h317v-123z" />
    <glyph glyph-name="uni02A3" unicode="&#x2a3;" horiz-adv-x="1975" 
d="M835 0q-3 16 -6.5 74t-3.5 100h-4q-50 -104 -132.5 -149t-204.5 -45q-205 0 -301.5 138t-96.5 418q0 566 398 566q123 0 205 -45t132 -143h2l-2 121v449h180v-402h882v-137l-682 -806h719v-139h-1085zM275 542q0 -227 60 -325t195 -98q153 0 222 106t69 329
q0 215 -69 315t-220 100q-136 0 -196.5 -100.5t-60.5 -326.5zM1001 139l679 804h-679v-804z" />
    <glyph glyph-name="uni02A4" unicode="&#x2a4;" horiz-adv-x="1856" 
d="M821 174q-50 -104 -132.5 -149t-204.5 -45q-205 0 -301.5 138t-96.5 418q0 566 398 566q123 0 205 -45t132 -143h2l-2 121v449h180v-402h763v-178l-379 -361q190 -25 302.5 -153t112.5 -321q0 -133 -61.5 -248t-171.5 -181t-249 -66q-368 0 -456 272l164 39
q35 -91 105 -131t181 -40q134 0 220.5 102.5t86.5 258.5t-92 246t-254 90h-82v144l389 386h-579v-718q0 -169 6 -223h-172q-3 16 -6.5 74t-3.5 100h-4zM275 542q0 -227 60 -325t195 -98q153 0 222 106t69 329q0 215 -69 315t-220 100q-136 0 -196.5 -100.5t-60.5 -326.5z
" />
    <glyph glyph-name="uni02A5" unicode="&#x2a5;" horiz-adv-x="2059" 
d="M821 174q-50 -104 -132.5 -149t-204.5 -45q-205 0 -301.5 138t-96.5 418q0 566 398 566q123 0 205 -45t132 -143h2l-2 121v449h180v-402h883v-137l-684 -806h173q101 170 195.5 249t191.5 79q118 0 186 -61.5t68 -164.5q0 -120 -70 -180.5t-222 -60.5h-253
q-48 -94 -82 -178l-139 61l55 117h-468q-3 16 -6.5 74t-3.5 100h-4zM275 542q0 -227 60 -325t195 -98q153 0 222 106t69 329q0 215 -69 315t-220 100q-136 0 -196.5 -100.5t-60.5 -326.5zM1001 943v-803l680 803h-680zM1758 322q-47 0 -97 -40.5t-120 -142.5h172
q77 0 112 22t35 77q0 39 -27 61.5t-75 22.5z" />
    <glyph glyph-name="uni02A6" unicode="&#x2a6;" horiz-adv-x="1459" 
d="M1380 299q0 -147 -111 -223t-328 -76h-559q-216 0 -216 245v706h-125v131h132l53 242h120v-242h431q74 17 166 17q179 0 284.5 -63t133.5 -202l-162 -20q-15 72 -80.5 110.5t-175.5 38.5q-122 0 -180 -37t-58 -112q0 -46 24 -76t71 -51t198 -58q143 -36 206 -66.5
t99.5 -67.5t56.5 -85.5t20 -110.5zM941 140q143 0 203.5 35t60.5 110q0 64 -44 104t-142 66l-129 34q-155 40 -220.5 78.5t-102.5 93.5t-37 135q0 89 40 155h-224v-667q0 -78 25.5 -111t88.5 -33h481z" />
    <glyph glyph-name="uni02A7" unicode="&#x2a7;" horiz-adv-x="879" 
d="M434 -425q-79 0 -134 19v160q60 -24 117 -24q54 0 84.5 22t44 64.5t13.5 146.5v43q-88 -22 -177 -22q-216 0 -216 245v722h-125v131h132l53 242h120v-242h213v48q0 173 75.5 263.5t222.5 90.5q107 0 151 -18v-167q-49 27 -115 27q-77 0 -114.5 -52.5t-37.5 -180.5v-1163
q0 -180 -76 -267.5t-231 -87.5zM460 141q38 0 99 13v797h-213v-669q0 -78 25.5 -109.5t88.5 -31.5z" />
    <glyph glyph-name="uni02A8" unicode="&#x2a8;" horiz-adv-x="1472" 
d="M1003 -20q-177 0 -296 100q-126 -100 -287 -100q-122 0 -193 67.5t-71 191.5v712h-125v131h132l53 242h120v-242h200v-131h-200v-661q0 -87 30 -121t104 -34q75 0 145 53q-86 141 -86 354q0 273 120 416.5t344 143.5q166 0 275.5 -86t137.5 -237l-185 -14q-14 90 -71 143
t-162 53q-143 0 -207 -95t-64 -320q0 -130 38 -244q111 111 205 159.5t180 48.5q267 0 267 -232q0 -86 -46 -152.5t-134.5 -106t-223.5 -39.5zM1002 114q83 0 139.5 21t87 55t30.5 75q0 57 -32 82t-92 25q-71 0 -145 -43.5t-162 -144.5q66 -70 174 -70z" />
    <glyph glyph-name="uni02A9" unicode="&#x2a9;" horiz-adv-x="1564" 
d="M736 1082l8 -174h3q60 108 138 151t198 43q178 0 260.5 -88.5t82.5 -292.5v-850q0 -296 -281 -296q-51 0 -136 16v164q50 -18 119 -18q117 0 117 148v801q0 107 -21 166t-67 85t-135 26q-128 0 -199 -87t-71 -249v-627h-180v851l-1 100h-210v-951h-180v951h-152v131h152
v122q0 148 65 213t199 65q75 0 127 -12v-137q-45 8 -80 8q-69 0 -100 -35t-31 -127v-97h375z" />
    <glyph glyph-name="uni02AA" unicode="&#x2aa;" horiz-adv-x="1354" 
d="M138 0v1484h180v-1198q78 -81 205.5 -125t270.5 -44q148 0 226.5 43.5t78.5 124.5q0 64 -44 104t-142 66l-129 34q-155 40 -220.5 78.5t-102.5 93.5t-37 135q0 148 105.5 225.5t307.5 77.5q179 0 284.5 -63t133.5 -202l-162 -20q-15 72 -80.5 110.5t-175.5 38.5
q-122 0 -180 -37t-58 -112q0 -46 24 -76t71 -51t198 -58q143 -36 206 -66.5t99.5 -67.5t56.5 -85.5t20 -110.5q0 -146 -131 -232.5t-349 -86.5q-138 0 -265.5 35.5t-210.5 95.5v-111h-180z" />
    <glyph glyph-name="uni02AB" unicode="&#x2ab;" horiz-adv-x="1295" 
d="M138 0v1484h180v-402h896v-137l-702 -806h739v-139h-1113zM318 943v-802l693 802h-693z" />
    <glyph glyph-name="uni02AC" unicode="&#x2ac;" horiz-adv-x="994" 
d="M773 777h-133l-143 547l-148 -547h-133l-191 707h124l134 -568l153 568h123l155 -568l133 568h122zM773 1h-133l-143 547l-148 -547h-133l-191 707h124l134 -568l153 568h123l155 -568l133 568h122z" />
    <glyph glyph-name="uni02AD" unicode="&#x2ad;" horiz-adv-x="1080" 
d="M981 997h-174v319h-533v-319h-175v487h882v-487zM981 0h-174v319h-533v-319h-175v487h882v-487z" />
    <glyph glyph-name="uni02AE" unicode="&#x2ae;" horiz-adv-x="1407" 
d="M1095 144h-3q-53 -80 -133.5 -122.5t-203.5 -42.5q-176 0 -259.5 87.5t-83.5 293.5v272q0 134 -17.5 190.5t-57 86t-109.5 29.5q-89 0 -147 -38l-42 159q80 41 211 41q167 0 255 -104t88 -318v-283q0 -114 21 -169.5t69 -81.5t133 -26q127 0 203.5 88t76.5 237v639h180
v-1508h-181v570z" />
    <glyph glyph-name="uni02AF" unicode="&#x2af;" horiz-adv-x="1407" 
d="M1095 144h-3q-53 -80 -133.5 -122.5t-203.5 -42.5q-176 0 -259.5 87.5t-83.5 293.5v272q0 134 -17.5 190.5t-57 86t-109.5 29.5q-89 0 -147 -38l-42 159q80 41 203 41q178 0 264.5 -98t86.5 -320v-287q0 -114 21 -169.5t69 -81.5t133 -26q127 0 203.5 88t76.5 237v639
h180v-1102q0 -243 190 -243q59 0 131 20l29 -159q-97 -23 -177 -23q-170 0 -262 103t-92 295v171z" />
    <glyph glyph-name="uni02B0" unicode="&#x2b0;" horiz-adv-x="785" 
d="M216 1122q41 77 96.5 111t139.5 34q118 0 175.5 -61.5t57.5 -207.5v-508h-123v484q0 113 -35 154t-117 41q-88 0 -139 -62.5t-51 -166.5v-450h-123v1046h123v-272q0 -112 -6 -142h2z" />
    <glyph glyph-name="uni02B1" unicode="&#x2b1;" horiz-adv-x="785" 
d="M216 1122q41 77 96.5 111t139.5 34q118 0 175.5 -61.5t57.5 -207.5v-508h-123v484q0 113 -35 154t-117 41q-88 0 -139 -62.5t-51 -166.5v-450h-123v847q0 209 193 209q49 0 97 -11v-117q-34 14 -81 14q-86 0 -86 -100v-68q0 -112 -6 -142h2z" />
    <glyph glyph-name="uni02B2" unicode="&#x2b2;" horiz-adv-x="326" 
d="M104 1415v121h122v-121h-122zM226 396q0 -107 -40 -156t-123 -49q-57 0 -86 6v98l42 -4q48 0 66.5 26t18.5 98v838h122v-857z" />
    <glyph glyph-name="uni02B3" unicode="&#x2b3;" horiz-adv-x="491" 
d="M107 490v586q0 113 -4 177h116l5 -155h3q30 98 67 133.5t107 35.5q22 0 50 -7v-116q-28 7 -65 7q-78 0 -117.5 -69t-39.5 -194v-398h-122z" />
    </font>
</defs>
</svg>
