<?xml version="1.0" standalone="no"?>
<!DOCTYPE svg PUBLIC "-//W3C//DTD SVG 1.1//EN" "http://www.w3.org/Graphics/SVG/1.1/DTD/svg11.dtd" >
<!--
2003-08-29: Created.
2004-07-25: v(1.0) release candidate
2005-12-28: v(1.1.0) stable
2006-01-01: v(2.0.0) stable
2006-09-05: v(2.2.0) stable
2006-12-04: v(2.3.0) stable
2007-03-11: v(2.4.0) stable
2007-12-00: v(2.7.0) stable
2008-06-00: v(2.8.14) stable

-->
<svg>
<metadata>
Created by FontForge 20120601 at Mon Jul  2 00:09:38 2012
 By Gillian Tiefenlicht
Linux Libertine by Philipp H. Poll,
Open Font under Terms of following Free Software Licenses:
GPL (General Public License) with font-exception and OFL (Open Font License).
Created with FontForge (http://fontforge.sf.net)
Sept 2003, 2004, 2005, 2006, 2007, 2008, 2009, 2010, 2011,2012
</metadata>
<defs>
<font id="LinBiolinumOKb" horiz-adv-x="1100" >
  <font-face 
    font-family="Linux Biolinum Keyboard O"
    font-weight="700"
    font-stretch="normal"
    units-per-em="1000"
    panose-1="2 0 5 3 0 0 0 0 0 0"
    ascent="754"
    descent="-246"
    x-height="754"
    cap-height="754"
    bbox="-395 -323 3740 792"
    underline-thickness="40"
    underline-position="-98"
    stemh="44"
    stemv="118"
    unicode-range="U+0020-FFFD"
  />
<missing-glyph horiz-adv-x="500" 
d="M100 540v-382l128 191zM122 125h256l-128 190zM272 349l128 -191v382zM250 383l128 189h-256zM62 87v524h376v-524h-376z" />
    <glyph glyph-name="T_u_x" unicode="Tux" horiz-adv-x="1470" 
d="M610 438c0 0 0 -2 -3 -2c0 0 -7 1 -7 9c0 1 0 2 1 2c2 0 9 -4 9 -9zM573 459c-1 2 -3 17 -11 17c-1 0 -2 -1 -4 -1c0 -1 1 -3 2 -5c1 1 3 0 4 0c3 -4 3 -4 4 -11h5zM648 470c4 0 5 -4 6 -11h5c-1 4 -2 17 -11 17c-1 0 -2 -1 -3 -1c0 0 1 -4 1 -5h2zM580 438c0 5 7 8 9 8
c1 0 1 -1 1 -2s-2 -4 -4 -8c-1 -1 -4 -1 -4 -1c-2 0 -2 1 -2 3zM559 438c-9 5 -12 15 -12 21c0 12 6 22 15 22s17 -12 17 -26c0 -1 -1 -3 -1 -4c2 1 2 1 3 1c0 0 2 0 2 14c0 9 -4 29 -22 29c-15 0 -21 -19 -21 -35c0 -8 4 -17 12 -26c2 1 5 2 7 4zM826 135c2 0 3 1 3 3
c0 6 -7 25 -39 28c-9 2 -4 1 -18 3c8 21 11 37 11 53c0 46 -27 67 -41 70c0 0 -2 0 -4 -4c26 -8 38 -45 38 -68c0 -11 -1 -21 -11 -54c-13 -4 -23 -19 -25 -23c0 -2 2 -3 2 -3c3 0 14 22 32 22c53 0 48 -27 52 -27zM630 446c-2 3 -2 7 -3 11c0 17 8 25 18 25
c12 0 19 -15 19 -24c0 -11 -6 -18 -14 -20c6 -3 5 -2 16 -6c4 12 5 22 5 32c0 26 -14 36 -28 36c-16 0 -26 -11 -26 -24c0 -6 1 -18 6 -27c1 0 6 -2 7 -3zM655 412c-23 -16 -44 -29 -66 -29c-19 0 -33 10 -43 19c2 -4 4 -8 7 -11l13 -12c13 -14 26 -14 30 -14
c10 0 28 5 52 23l19 14c6 4 9 10 9 15v5c-6 5 -60 29 -78 29c-11 0 -54 -19 -54 -38c0 -3 2 -4 5 -7c11 -12 23 -18 39 -18c12 0 31 6 64 30c2 -1 2 -4 3 -6zM705 -20c7 -13 20 -24 40 -24c21 0 31 10 36 14l38 32c39 32 67 26 69 48c-7 29 -37 12 -48 56l-2 12
c-2 5 -3 10 -4 12c-1 1 -2 1 -2 1c-12 0 -27 -34 -54 -34c-10 0 -24 3 -30 14c-4 6 -6 14 -8 23c-5 5 -8 6 -11 6c-14 0 -17 -16 -17 -34v-6v-26c1 -6 2 -12 2 -18c0 -16 -1 -11 -6 -52zM394 -9c55 -7 96 -32 116 -32c18 0 30 9 38 19c2 4 2 8 2 14c0 16 -7 40 -36 77
l-15 19c-17 25 -25 56 -55 64c-31 -6 -18 -25 -28 -32c-3 -2 -7 -2 -10 -3c-4 0 -8 -1 -12 -1c-9 0 -17 0 -23 -3c-6 -7 -8 -13 -8 -21c0 -10 5 -23 5 -36c0 -24 -16 -30 -16 -47c1 -6 8 -13 42 -18zM466 186c0 32 21 77 34 92c-1 2 -4 2 -5 3c-9 -10 -36 -63 -36 -93
c0 -16 1 -26 40 -55l23 -15c24 -20 37 -36 37 -44c0 -9 -14 -22 -24 -22c-1 0 -1 0 -1 -1s2 -3 7 -13c12 -16 37 -18 55 -18c20 0 73 2 110 57v29c0 29 8 41 20 41c4 0 8 -1 12 -5c3 15 4 29 4 44c0 105 -42 94 -45 146c-15 32 -16 37 -29 62l-20 -14
c-23 -17 -42 -22 -52 -22c-12 0 -26 4 -32 11l-11 11c-1 -10 -3 -15 -8 -24l-13 -25c-15 -38 -8 -32 -11 -39l-17 -32c-20 -39 -26 -69 -26 -87c0 -4 1 -9 2 -15c-8 6 -14 14 -14 28zM619 -16c-21 0 -47 -4 -65 -12v1c-10 -15 -24 -19 -39 -19c-29 0 -52 16 -109 29
c-15 3 -60 7 -60 25c0 5 0 8 2 12c7 12 13 20 13 32c0 6 -5 32 -5 40c0 22 14 31 21 31h25c4 0 6 1 10 4c6 15 3 15 9 22c-2 3 -2 5 -2 9v6c0 8 5 20 11 32l8 14c14 27 17 26 26 68c4 19 18 36 25 44l16 18c23 28 29 42 29 62s-7 47 -7 101c0 51 19 94 92 94
c26 0 91 -11 101 -94c11 -83 -2 -101 58 -174c30 -37 59 -79 59 -148c0 -15 -3 -29 -7 -43c8 0 13 -4 16 -24l3 -16c4 -22 45 -23 45 -46c0 -30 -28 -18 -78 -61l-20 -18c-17 -14 -30 -24 -49 -24l-15 2c-16 4 -28 12 -33 26c-16 2 -48 7 -80 7zM249 718
c-60 0 -93 -33 -93 -93v-678c0 -60 33 -83 93 -83h942c60 0 83 23 83 83v678c0 60 -23 93 -83 93h-942zM1370 -84c0 -90 -29 -128 -119 -128h-1002c-90 0 -129 38 -129 128v709c0 83 48 129 129 129h972c90 0 149 -39 149 -129v-709z" />
    <glyph glyph-name="S_t_r_g" unicode="Strg" horiz-adv-x="1950" 
d="M458 92c56 0 86 29 86 82c0 60 -21 83 -72 101c-75 26 -176 66 -176 150c0 79 81 129 175 129c100 0 148 -33 148 -33l1 -3c-8 -22 -14 -59 -17 -86h-7c-23 46 -73 86 -132 86c-45 0 -72 -27 -72 -73c0 -62 59 -85 93 -96c69 -23 165 -61 165 -149
c0 -76 -66 -146 -198 -146c-101 0 -168 33 -168 33l-2 3c7 22 14 60 18 87l8 1c23 -46 91 -86 150 -86zM249 718c-60 0 -93 -33 -93 -93v-678c0 -60 33 -83 93 -83h1422c60 0 83 23 83 83v678c0 60 -23 93 -83 93h-1422zM1850 -84c0 -90 -29 -128 -119 -128h-1482
c-90 0 -129 38 -129 128v709c0 83 48 129 129 129h1452c90 0 149 -39 149 -129v-709zM690 343c-6 0 -10 5 -10 11c0 10 8 29 16 29h41c0 43 0 51 -5 83l1 2c30 2 71 19 89 26c5 0 7 -2 7 -7c-3 -43 -4 -48 -4 -104h81c3 0 6 -2 6 -5v-25c0 -7 -11 -10 -18 -10h-69v-78
c0 -45 -2 -83 -2 -106c0 -31 5 -54 25 -54c19 0 31 2 51 14c8 -5 14 -15 14 -27c-29 -26 -74 -38 -106 -38c-48 0 -72 38 -72 73c0 23 2 85 2 130v86h-47zM1087 330c19 29 58 64 93 64c14 0 18 -2 31 -6l3 -2l-15 -70l-6 -2c-13 11 -29 11 -43 11c-12 0 -63 -5 -63 -63v-62
c0 -58 1 -93 7 -136l-1 -2s-29 2 -54 2c-27 0 -48 -2 -48 -2v2c6 41 7 79 7 136v41c0 56 -5 99 -11 132l1 2c31 2 73 11 92 19c4 0 7 -2 7 -8c-1 -22 -2 -56 -2 -56h2zM1543 287c0 -61 -48 -111 -135 -111c-25 0 -43 2 -58 11l-6 3c-8 -13 -12 -30 -12 -45
c0 -33 22 -33 43 -33c4 0 11 1 22 2c17 2 34 4 47 4c69 0 153 -22 153 -99c0 -81 -121 -127 -217 -127c-55 0 -130 20 -130 85c0 33 28 67 66 91c-22 6 -42 26 -42 58c0 25 11 59 31 77l-4 5c-17 13 -31 40 -31 78c0 64 58 114 139 114c16 0 31 -3 44 -7c56 3 98 11 134 14
l3 -2c-2 -7 -3 -17 -3 -24s1 -15 3 -22l-3 -2c-27.1 2.60001 -60.9 5.20001 -84.4 7.20001c23.7001 -17.4 40.4 -48.2 40.4 -77.2zM1463 280c0 56 -17 87 -62 87c-39 0 -50 -36 -50 -70c0 -48 10 -89 59 -89c27 0 53 18 53 72zM1366.7 55c-27 -21.5 -35.7 -38.4 -35.7 -63
c0 -51 44 -69 70 -69c64 0 119 33 119 79c0 52 -60 56 -102 56c-9.90002 0 -29.6 -2.9 -51.3 -3zM1367.4 55.5c1.59998 0.299999 3.09998 0.5 0.599976 0.5c-0.199951 -0.200001 -0.400024 -0.299999 -0.599976 -0.5z" />
    <glyph glyph-name="A_l_t" unicode="Alt" horiz-adv-x="1600" 
d="M785 191v211c0 57 -2 109 -8 141l2 3c30 2 76 11 95 18c5 0 7 -2 7 -7c-6 -46 -8 -85 -8 -141v-225c0 -57 1 -107 8 -150l-2 -2s-24 2 -50 2s-51 -2 -51 -2l-1 2c7 40 8 94 8 150zM970 325c-6 0 -10 5 -10 11c0 10 8 29 16 29h41c0 43 0 51 -5 83l1 2c30 2 71 19 89 26
c5 0 7 -2 7 -7c-3 -43 -4 -48 -4 -104h81c3 0 6 -2 6 -5v-25c0 -7 -11 -10 -18 -10h-69v-78c0 -45 -2 -83 -2 -106c0 -31 5 -54 25 -54c19 0 31 2 51 14c8 -5 14 -15 14 -27c-29 -26 -74 -38 -106 -38c-48 0 -72 38 -72 73c0 23 2 85 2 130v86h-47zM229 718
c-60 0 -93 -33 -93 -93v-678c0 -60 33 -83 93 -83h1092c60 0 83 23 83 83v678c0 60 -23 93 -83 93h-1092zM1500 -84c0 -90 -29 -128 -119 -128h-1152c-90 0 -129 38 -129 128v709c0 83 48 129 129 129h1122c90 0 149 -39 149 -129v-709zM472.5 414.7
c-22.4 -51.7 -47.8 -109.8 -71.6 -166.7c23.8 -0.300003 56.3 -2 78.1 -2c17.3 0 41 0.5 62.5 1.10001c-18.6 48 -41.4 103.9 -69 167.6zM383.2 205.1c-25.5 -62.9 -47.5 -121.8 -59.2 -166.1c-9 2 -26 2 -34 2s-33 0 -42 -2c76 165 149 329 221 495h53
c69 -164 168 -420 205 -495c-13 2 -48 2 -61 2c-12 0 -40 0 -53 -2c-4.29999 15.9 -20.5 72.1 -55.8 166.6c-24.6 0.699997 -50.6 1.39999 -74.2 1.39999c-27 0 -70.7 -0.899994 -99.8 -1.89999z" />
    <glyph glyph-name="A_l_t_G_r" unicode="AltGr" horiz-adv-x="2425" 
d="M775 191v211c0 57 -2 109 -8 141l2 3c30 2 76 11 95 18c5 0 7 -2 7 -7c-6 -46 -8 -85 -8 -141v-225c0 -57 1 -107 8 -150l-2 -2s-24 2 -50 2s-51 -2 -51 -2l-1 2c7 40 8 94 8 150zM960 325c-6 0 -10 5 -10 11c0 10 8 29 16 29h41c0 43 0 51 -5 83l1 2c30 2 71 19 89 26
c5 0 7 -2 7 -7c-3 -43 -4 -48 -4 -104h81c3 0 6 -2 6 -5v-25c0 -7 -11 -10 -18 -10h-69v-78c0 -45 -2 -83 -2 -106c0 -31 5 -54 25 -54c19 0 31 2 51 14c8 -5 14 -15 14 -27c-29 -26 -74 -38 -106 -38c-48 0 -72 38 -72 73c0 23 2 85 2 130v86h-47zM1950 312
c19 29 58 64 93 64c14 0 18 -2 31 -6l3 -2l-15 -70l-6 -2c-13 11 -29 11 -43 11c-12 0 -63 -5 -63 -63v-62c0 -58 1 -93 7 -136l-1 -2s-29 2 -54 2c-27 0 -48 -2 -48 -2v2c6 41 7 79 7 136v41c0 56 -5 99 -11 132l1 2c31 2 73 11 92 19c4 0 7 -2 7 -8c-1 -22 -2 -56 -2 -56
h2zM229 718c-60 0 -93 -33 -93 -93v-678c0 -60 33 -83 93 -83h1917c60 0 83 23 83 83v678c0 60 -23 93 -83 93h-1917zM2325 -84c0 -90 -29 -128 -119 -128h-1977c-90 0 -129 38 -129 128v709c0 83 48 129 129 129h1947c90 0 149 -39 149 -129v-709zM1639 129
c0 56 -1 99 -7 142l1 3s29 -3 54 -3c26 0 55 3 55 3v-3c-6 -39 -7 -71 -7 -127c0 -25 3 -35 7 -41v-2c-50 -42 -132 -67 -220 -67c-173.1 0 -253 118 -253 247c0 165 108 253 267 253c91 0 179 -33 179 -33l2 -3c-9 -36 -13 -59 -15 -97l-19 -1c-31 62 -90 93 -158 93
c-92 0 -148 -75 -148 -207c0 -99 29 -211 162 -211c41 0 75 4 100 28v26zM462.5 414.7c-22.4 -51.7 -47.8 -109.8 -71.6 -166.7c23.8 -0.300003 56.3 -2 78.1 -2c17.3 0 41 0.5 62.5 1.10001c-18.6 48 -41.4 103.9 -69 167.6zM373.2 205.1
c-25.5 -62.9 -47.5 -121.8 -59.2 -166.1c-9 2 -26 2 -34 2s-33 0 -42 -2c76 165 149 329 221 495h53c69 -164 168 -420 205 -495c-13 2 -48 2 -61 2c-12 0 -40 0 -53 -2c-4.29999 15.9 -20.5 72.1 -55.8 166.6c-24.6 0.699997 -50.6 1.39999 -74.2 1.39999
c-27 0 -70.7 -0.899994 -99.8 -1.89999z" />
    <glyph glyph-name="F_1" unicode="F&#x31;" horiz-adv-x="1340" 
d="M249 718c-60 0 -93 -33 -93 -93v-678c0 -60 33 -83 93 -83h812c60 0 83 23 83 83v678c0 60 -23 93 -83 93h-812zM1240 -84c0 -90 -29 -128 -119 -128h-872c-90 0 -129 38 -129 128v709c0 83 48 129 129 129h842c90 0 149 -39 149 -129v-709zM597 524c18 0 35 1 47 3l2 -3
c-1 -10 -2 -20 -2 -26c0 -7 1 -17 2 -23l-2 -3s-94 9 -194 9c-5 -18 -6 -94 -6 -107v-58c88 0 113 4 157 7l3 -2c-2 -7 -3 -17 -3 -24s1 -18 3 -25l-3 -2c-51 5 -121 8 -157 8v-87c0 -57 2 -108 8 -150l-2 -3s-28 3 -54 3s-55 -3 -55 -3l-1 3c6 40 8 93 8 150v183
c0 57 -2 108 -8 150l2 3s28 -3 54 -3h201zM908 182c0 -59 2 -96 9 -141l-2 -2s-25 2 -52 2c-28 0 -51 -2 -51 -2v2c7 42 8 83 8 141v182c0 27 -1 49 -14 49c-15 0 -48 -1 -81 -5l-1 32c69 16 138 40 187 56c3 0 5 1 5 -3c-1 -10 -8 -41 -8 -122v-189z" />
    <glyph glyph-name="F_2" unicode="F&#x32;" horiz-adv-x="1340" 
d="M249 718c-60 0 -93 -33 -93 -93v-678c0 -60 33 -83 93 -83h812c60 0 83 23 83 83v678c0 60 -23 93 -83 93h-812zM1240 -84c0 -90 -29 -128 -119 -128h-872c-90 0 -129 38 -129 128v709c0 83 48 129 129 129h842c90 0 149 -39 149 -129v-709zM597 524c18 0 35 1 47 3l2 -3
c-1 -10 -2 -20 -2 -26c0 -7 1 -17 2 -23l-2 -3s-94 9 -194 9c-5 -18 -6 -94 -6 -107v-58c88 0 113 4 157 7l3 -2c-2 -7 -3 -17 -3 -24s1 -18 3 -25l-3 -2c-51 5 -121 8 -157 8v-87c0 -57 2 -108 8 -150l-2 -3s-28 3 -54 3s-55 -3 -55 -3l-1 3c6 40 8 93 8 150v183
c0 57 -2 108 -8 150l2 3s28 -3 54 -3h201zM819 456c-37 0 -69 -19 -94 -63h-18l-16 59l2 3c19 16 78 41 132 41c89 0 159 -36 159 -117c0 -57 -29 -86 -72 -127l-75 -72c-16 -15 -50 -52 -50 -64h62c75 0 95 3 138 6c-2 -10 -4 -39 -4 -49s2 -25 4 -35c-56 2 -73 3 -129 3
c-57 0 -110 -2 -179 -3l-1 3c0 44 30 78 103 153l56 55c44 45 46 83 46 131c0 46 -37 76 -64 76z" />
    <glyph glyph-name="F_3" unicode="F&#x33;" horiz-adv-x="1340" 
d="M249 718c-60 0 -93 -33 -93 -93v-678c0 -60 33 -83 93 -83h812c60 0 83 23 83 83v678c0 60 -23 93 -83 93h-812zM1240 -84c0 -90 -29 -128 -119 -128h-872c-90 0 -129 38 -129 128v709c0 83 48 129 129 129h842c90 0 149 -39 149 -129v-709zM597 524c18 0 35 1 47 3l2 -3
c-1 -10 -2 -20 -2 -26c0 -7 1 -17 2 -23l-2 -3s-94 9 -194 9c-5 -18 -6 -94 -6 -107v-58c88 0 113 4 157 7l3 -2c-2 -7 -3 -17 -3 -24s1 -18 3 -25l-3 -2c-51 5 -121 8 -157 8v-87c0 -57 2 -108 8 -150l-2 -3s-28 3 -54 3s-55 -3 -55 -3l-1 3c6 40 8 93 8 150v183
c0 57 -2 108 -8 150l2 3s28 -3 54 -3h201zM819 72c26 0 81 14 81 101c0 71 -39 87 -82 87c-7 0 -20 0 -29 -1v34c72 4 103 34 103 96c0 40 -25 69 -54 69c-53 0 -69 -22 -94 -66l-18 1l-15 59l2 3c19 16 75 41 132 41c69 0 135 -25 135 -95c0 -63 -35 -100 -89 -114v-3
c55 -5 110 -37 110 -109c0 -104 -93 -142 -183 -142c-57 0 -102 26 -121 42l-3 3l17 59l18 1c25 -44 34 -66 90 -66z" />
    <glyph glyph-name="F_4" unicode="F&#x34;" horiz-adv-x="1340" 
d="M249 718c-60 0 -93 -33 -93 -93v-678c0 -60 33 -83 93 -83h812c60 0 83 23 83 83v678c0 60 -23 93 -83 93h-812zM1240 -84c0 -90 -29 -128 -119 -128h-872c-90 0 -129 38 -129 128v709c0 83 48 129 129 129h842c90 0 149 -39 149 -129v-709zM597 524c18 0 35 1 47 3l2 -3
c-1 -10 -2 -20 -2 -26c0 -7 1 -17 2 -23l-2 -3s-94 9 -194 9c-5 -18 -6 -94 -6 -107v-58c88 0 113 4 157 7l3 -2c-2 -7 -3 -17 -3 -24s1 -18 3 -25l-3 -2c-51 5 -121 8 -157 8v-87c0 -57 2 -108 8 -150l-2 -3s-28 3 -54 3s-55 -3 -55 -3l-1 3c6 40 8 93 8 150v183
c0 57 -2 108 -8 150l2 3s28 -3 54 -3h201zM850 151h-153c-27 0 -40 -1 -41 10c0 1 -5 17 8 35c46 61 152 226 192 294v2s9 -2 37 -2c27 0 50 2 50 2l2 -2c-6 -45 -8 -53 -8 -112v-178h54c8 0 10 -8 10 -15c0 -9 -11 -34 -21 -34h-43c0 -58 2 -65 8 -110l-2 -2s-23 2 -50 2
c-28 0 -51 -2 -51 -2l-1 2c6 43 9 53 9 110zM850 415l-136 -215h136v215z" />
    <glyph glyph-name="F_5" unicode="F&#x35;" horiz-adv-x="1340" 
d="M249 718c-60 0 -93 -33 -93 -93v-678c0 -60 33 -83 93 -83h812c60 0 83 23 83 83v678c0 60 -23 93 -83 93h-812zM1240 -84c0 -90 -29 -128 -119 -128h-872c-90 0 -129 38 -129 128v709c0 83 48 129 129 129h842c90 0 149 -39 149 -129v-709zM597 524c18 0 35 1 47 3l2 -3
c-1 -10 -2 -20 -2 -26c0 -7 1 -17 2 -23l-2 -3s-94 9 -194 9c-5 -18 -6 -94 -6 -107v-58c88 0 113 4 157 7l3 -2c-2 -7 -3 -17 -3 -24s1 -18 3 -25l-3 -2c-51 5 -121 8 -157 8v-87c0 -57 2 -108 8 -150l-2 -3s-28 3 -54 3s-55 -3 -55 -3l-1 3c6 40 8 93 8 150v183
c0 57 -2 108 -8 150l2 3s28 -3 54 -3h201zM826 33c-57 0 -102 26 -121 42l-2 3l15 59l18 1c25 -44 47 -68 91 -68c34 0 71 31 71 104c0 66 -26 107 -72 107c-37 0 -50 -5 -81 -18l-16 5l24 225c26 -2 56 -5 84 -5c40 0 95 4 138 8l5 -2l-12 -74c-31 -3 -71 -4 -93 -4
c-34 0 -62 3 -87 6l-11 -109c16 6 38 12 69 12c84 0 143 -66 143 -138c0 -97 -73 -154 -163 -154z" />
    <glyph glyph-name="F_6" unicode="F&#x36;" horiz-adv-x="1340" 
d="M249 718c-60 0 -93 -33 -93 -93v-678c0 -60 33 -83 93 -83h812c60 0 83 23 83 83v678c0 60 -23 93 -83 93h-812zM1240 -84c0 -90 -29 -128 -119 -128h-872c-90 0 -129 38 -129 128v709c0 83 48 129 129 129h842c90 0 149 -39 149 -129v-709zM597 524c18 0 35 1 47 3l2 -3
c-1 -10 -2 -20 -2 -26c0 -7 1 -17 2 -23l-2 -3s-94 9 -194 9c-5 -18 -6 -94 -6 -107v-58c88 0 113 4 157 7l3 -2c-2 -7 -3 -17 -3 -24s1 -18 3 -25l-3 -2c-51 5 -121 8 -157 8v-87c0 -57 2 -108 8 -150l-2 -3s-28 3 -54 3s-55 -3 -55 -3l-1 3c6 40 8 93 8 150v183
c0 57 -2 108 -8 150l2 3s28 -3 54 -3h201zM796 290c21 14 48 20 70 20c116 0 149 -74 149 -135c0 -62 -43 -141 -152 -141c-25 0 -63 3 -94 23c-40 25 -71 76 -71 165c0 113 95 274 294 274l2 -27c-47 -4 -168 -15 -198 -179zM791 254c-1 -9 -2 -27 -2 -34
c0 -132 37 -153 77 -153c26 0 56 30 56 103c0 37 -1 105 -71 105c-13 0 -35 -1 -60 -21z" />
    <glyph glyph-name="F_7" unicode="F&#x37;" horiz-adv-x="1340" 
d="M249 718c-60 0 -93 -33 -93 -93v-678c0 -60 33 -83 93 -83h812c60 0 83 23 83 83v678c0 60 -23 93 -83 93h-812zM1240 -84c0 -90 -29 -128 -119 -128h-872c-90 0 -129 38 -129 128v709c0 83 48 129 129 129h842c90 0 149 -39 149 -129v-709zM597 524c18 0 35 1 47 3l2 -3
c-1 -10 -2 -20 -2 -26c0 -7 1 -17 2 -23l-2 -3s-94 9 -194 9c-5 -18 -6 -94 -6 -107v-58c88 0 113 4 157 7l3 -2c-2 -7 -3 -17 -3 -24s1 -18 3 -25l-3 -2c-51 5 -121 8 -157 8v-87c0 -57 2 -108 8 -150l-2 -3s-28 3 -54 3s-55 -3 -55 -3l-1 3c6 40 8 93 8 150v183
c0 57 -2 108 -8 150l2 3s28 -3 54 -3h201zM935 422c-44 0 -110 -2 -206 -7c1 11 4 29 4 40s-3 27 -4 38c31 -4 113 -5 224 -5c23 0 37 3 48 6l10 -15c-84 -203 -126 -318 -169 -445l-65 -3l-2 6c48 108 104 246 160 385z" />
    <glyph glyph-name="F_8" unicode="F&#x38;" horiz-adv-x="1340" 
d="M249 718c-60 0 -93 -33 -93 -93v-678c0 -60 33 -83 93 -83h812c60 0 83 23 83 83v678c0 60 -23 93 -83 93h-812zM1240 -84c0 -90 -29 -128 -119 -128h-872c-90 0 -129 38 -129 128v709c0 83 48 129 129 129h842c90 0 149 -39 149 -129v-709zM597 524c18 0 35 1 47 3l2 -3
c-1 -10 -2 -20 -2 -26c0 -7 1 -17 2 -23l-2 -3s-94 9 -194 9c-5 -18 -6 -94 -6 -107v-58c88 0 113 4 157 7l3 -2c-2 -7 -3 -17 -3 -24s1 -18 3 -25l-3 -2c-51 5 -121 8 -157 8v-87c0 -57 2 -108 8 -150l-2 -3s-28 3 -54 3s-55 -3 -55 -3l-1 3c6 40 8 93 8 150v183
c0 57 -2 108 -8 150l2 3s28 -3 54 -3h201zM860 467c-41 0 -55 -28 -55 -62c0 -23 14 -51 46 -71l23 -14c20 15 42 36 42 76c0 34 -11 71 -56 71zM995 402c0 -48 -33 -76 -94 -100l47 -30c39 -25 70 -68 70 -111c0 -42 -18 -78 -60 -104c-27 -16 -65 -23 -104 -23
c-82 0 -153 40 -153 116c0 57 42 93 109 127l-13 7c-46 28 -72 64 -72 106c0 63 44 106 140 106c84 0 130 -37 130 -94zM855 63c40 0 77 12 77 83c0 43 -14 64 -60 92l-35 21c-48 -34 -52 -73 -52 -109c0 -54 36 -87 70 -87z" />
    <glyph glyph-name="F_9" unicode="F&#x39;" horiz-adv-x="1340" 
d="M249 718c-60 0 -93 -33 -93 -93v-678c0 -60 33 -83 93 -83h812c60 0 83 23 83 83v678c0 60 -23 93 -83 93h-812zM1240 -84c0 -90 -29 -128 -119 -128h-872c-90 0 -129 38 -129 128v709c0 83 48 129 129 129h842c90 0 149 -39 149 -129v-709zM597 524c18 0 35 1 47 3l2 -3
c-1 -10 -2 -20 -2 -26c0 -7 1 -17 2 -23l-2 -3s-94 9 -194 9c-5 -18 -6 -94 -6 -107v-58c88 0 113 4 157 7l3 -2c-2 -7 -3 -17 -3 -24s1 -18 3 -25l-3 -2c-51 5 -121 8 -157 8v-87c0 -57 2 -108 8 -150l-2 -3s-28 3 -54 3s-55 -3 -55 -3l-1 3c6 40 8 93 8 150v183
c0 57 -2 108 -8 150l2 3s28 -3 54 -3h201zM916.2 239.2c-21 -14 -48 -20 -70 -20c-116 0 -149 74 -149 135c0 62 43 141 152 141c25 0 63 -3 94 -23c40 -25 71 -76 71 -165c0 -113 -95 -274 -294 -274l-2 27c47 4 168 15 198 179zM921.2 275.2c1 9 2 27 2 34
c0 132 -37 153 -77 153c-26 0 -56 -30 -56 -103c0 -37 1 -105 71 -105c13 0 35 1 60 21z" />
    <glyph glyph-name="F_1_0" unicode="F&#x31;&#x30;" horiz-adv-x="1600" 
d="M249 718c-60 0 -93 -33 -93 -93v-678c0 -60 33 -83 93 -83h1072c60 0 83 23 83 83v678c0 60 -23 93 -83 93h-1072zM1500 -84c0 -90 -29 -128 -119 -128h-1132c-90 0 -129 38 -129 128v709c0 83 48 129 129 129h1102c90 0 149 -39 149 -129v-709zM597 524c18 0 35 1 47 3
l2 -3c-1 -10 -2 -20 -2 -26c0 -7 1 -17 2 -23l-2 -3s-94 9 -194 9c-5 -18 -6 -94 -6 -107v-58c88 0 113 4 157 7l3 -2c-2 -7 -3 -17 -3 -24s1 -18 3 -25l-3 -2c-51 5 -121 8 -157 8v-87c0 -57 2 -108 8 -150l-2 -3s-28 3 -54 3s-55 -3 -55 -3l-1 3c6 40 8 93 8 150v183
c0 57 -2 108 -8 150l2 3s28 -3 54 -3h201zM908 182c0 -59 2 -96 9 -141l-2 -2s-25 2 -52 2c-28 0 -51 -2 -51 -2v2c7 42 8 83 8 141v182c0 27 -1 49 -14 49c-15 0 -48 -1 -81 -5l-1 32c69 16 138 40 187 56c3 0 5 1 5 -3c-1 -10 -8 -41 -8 -122v-189zM1128 464
c-34 0 -71 -28 -71 -212c0 -65 8 -186 69 -186c63 0 70 139 70 215c0 81 -5 183 -68 183zM1125 34c-106 0 -156 106 -156 226c0 147 79 236 159 236s156 -83 156 -229c0 -175 -84 -233 -159 -233z" />
    <glyph glyph-name="F_1_1" unicode="F&#x31;&#x31;" horiz-adv-x="1600" 
d="M249 718c-60 0 -93 -33 -93 -93v-678c0 -60 33 -83 93 -83h1072c60 0 83 23 83 83v678c0 60 -23 93 -83 93h-1072zM1500 -84c0 -90 -29 -128 -119 -128h-1132c-90 0 -129 38 -129 128v709c0 83 48 129 129 129h1102c90 0 149 -39 149 -129v-709zM597 524c18 0 35 1 47 3
l2 -3c-1 -10 -2 -20 -2 -26c0 -7 1 -17 2 -23l-2 -3s-94 9 -194 9c-5 -18 -6 -94 -6 -107v-58c88 0 113 4 157 7l3 -2c-2 -7 -3 -17 -3 -24s1 -18 3 -25l-3 -2c-51 5 -121 8 -157 8v-87c0 -57 2 -108 8 -150l-2 -3s-28 3 -54 3s-55 -3 -55 -3l-1 3c6 40 8 93 8 150v183
c0 57 -2 108 -8 150l2 3s28 -3 54 -3h201zM908 182c0 -59 2 -96 9 -141l-2 -2s-25 2 -52 2c-28 0 -51 -2 -51 -2v2c7 42 8 83 8 141v182c0 27 -1 49 -14 49c-15 0 -48 -1 -81 -5l-1 32c69 16 138 40 187 56c3 0 5 1 5 -3c-1 -10 -8 -41 -8 -122v-189zM1196 182
c0 -59 2 -96 9 -141l-2 -2s-25 2 -52 2c-28 0 -51 -2 -51 -2v2c7 42 8 83 8 141v182c0 27 -1 49 -14 49c-15 0 -48 -1 -81 -5l-1 32c69 16 138 40 187 56c3 0 5 1 5 -3c-1 -10 -8 -41 -8 -122v-189z" />
    <glyph glyph-name="F_1_2" unicode="F&#x31;&#x32;" horiz-adv-x="1600" 
d="M249 718c-60 0 -93 -33 -93 -93v-678c0 -60 33 -83 93 -83h1072c60 0 83 23 83 83v678c0 60 -23 93 -83 93h-1072zM1500 -84c0 -90 -29 -128 -119 -128h-1132c-90 0 -129 38 -129 128v709c0 83 48 129 129 129h1102c90 0 149 -39 149 -129v-709zM597 524c18 0 35 1 47 3
l2 -3c-1 -10 -2 -20 -2 -26c0 -7 1 -17 2 -23l-2 -3s-94 9 -194 9c-5 -18 -6 -94 -6 -107v-58c88 0 113 4 157 7l3 -2c-2 -7 -3 -17 -3 -24s1 -18 3 -25l-3 -2c-51 5 -121 8 -157 8v-87c0 -57 2 -108 8 -150l-2 -3s-28 3 -54 3s-55 -3 -55 -3l-1 3c6 40 8 93 8 150v183
c0 57 -2 108 -8 150l2 3s28 -3 54 -3h201zM908 182c0 -59 2 -96 9 -141l-2 -2s-25 2 -52 2c-28 0 -51 -2 -51 -2v2c7 42 8 83 8 141v182c0 27 -1 49 -14 49c-15 0 -48 -1 -81 -5l-1 32c69 16 138 40 187 56c3 0 5 1 5 -3c-1 -10 -8 -41 -8 -122v-189zM1129 456
c-37 0 -69 -19 -94 -63h-18l-16 59l2 3c19 16 78 41 132 41c89 0 159 -36 159 -117c0 -57 -29 -86 -72 -127l-75 -72c-16 -15 -50 -52 -50 -64h62c75 0 95 3 138 6c-2 -10 -4 -39 -4 -49s2 -25 4 -35c-56 2 -73 3 -129 3c-57 0 -110 -2 -179 -3l-1 3c0 44 30 78 103 153
l56 55c44 45 46 83 46 131c0 46 -37 76 -64 76z" />
    <glyph glyph-name="F_1_3" unicode="F&#x31;&#x33;" horiz-adv-x="1600" 
d="M249 718c-60 0 -93 -33 -93 -93v-678c0 -60 33 -83 93 -83h1072c60 0 83 23 83 83v678c0 60 -23 93 -83 93h-1072zM1500 -84c0 -90 -29 -128 -119 -128h-1132c-90 0 -129 38 -129 128v709c0 83 48 129 129 129h1102c90 0 149 -39 149 -129v-709zM597 524c18 0 35 1 47 3
l2 -3c-1 -10 -2 -20 -2 -26c0 -7 1 -17 2 -23l-2 -3s-94 9 -194 9c-5 -18 -6 -94 -6 -107v-58c88 0 113 4 157 7l3 -2c-2 -7 -3 -17 -3 -24s1 -18 3 -25l-3 -2c-51 5 -121 8 -157 8v-87c0 -57 2 -108 8 -150l-2 -3s-28 3 -54 3s-55 -3 -55 -3l-1 3c6 40 8 93 8 150v183
c0 57 -2 108 -8 150l2 3s28 -3 54 -3h201zM908 182c0 -59 2 -96 9 -141l-2 -2s-25 2 -52 2c-28 0 -51 -2 -51 -2v2c7 42 8 83 8 141v182c0 27 -1 49 -14 49c-15 0 -48 -1 -81 -5l-1 32c69 16 138 40 187 56c3 0 5 1 5 -3c-1 -10 -8 -41 -8 -122v-189zM1093 72
c26 0 81 14 81 101c0 71 -39 87 -82 87c-7 0 -20 0 -29 -1v34c72 4 103 34 103 96c0 40 -25 69 -54 69c-53 0 -69 -22 -94 -66l-18 1l-15 59l2 3c19 16 75 41 132 41c69 0 135 -25 135 -95c0 -63 -35 -100 -89 -114v-3c55 -5 110 -37 110 -109c0 -104 -93 -142 -183 -142
c-57 0 -102 26 -121 42l-3 3l17 59l18 1c25 -44 34 -66 90 -66z" />
    <glyph glyph-name="F_1_4" unicode="F&#x31;&#x34;" horiz-adv-x="1600" 
d="M249 718c-60 0 -93 -33 -93 -93v-678c0 -60 33 -83 93 -83h1072c60 0 83 23 83 83v678c0 60 -23 93 -83 93h-1072zM1500 -84c0 -90 -29 -128 -119 -128h-1132c-90 0 -129 38 -129 128v709c0 83 48 129 129 129h1102c90 0 149 -39 149 -129v-709zM597 524c18 0 35 1 47 3
l2 -3c-1 -10 -2 -20 -2 -26c0 -7 1 -17 2 -23l-2 -3s-94 9 -194 9c-5 -18 -6 -94 -6 -107v-58c88 0 113 4 157 7l3 -2c-2 -7 -3 -17 -3 -24s1 -18 3 -25l-3 -2c-51 5 -121 8 -157 8v-87c0 -57 2 -108 8 -150l-2 -3s-28 3 -54 3s-55 -3 -55 -3l-1 3c6 40 8 93 8 150v183
c0 57 -2 108 -8 150l2 3s28 -3 54 -3h201zM908 182c0 -59 2 -96 9 -141l-2 -2s-25 2 -52 2c-28 0 -51 -2 -51 -2v2c7 42 8 83 8 141v182c0 27 -1 49 -14 49c-15 0 -48 -1 -81 -5l-1 32c69 16 138 40 187 56c3 0 5 1 5 -3c-1 -10 -8 -41 -8 -122v-189zM1149 151h-153
c-27 0 -40 -1 -41 10c0 1 -5 17 8 35c46 61 152 226 192 294v2s9 -2 37 -2c27 0 50 2 50 2l2 -2c-6 -45 -8 -53 -8 -112v-178h54c8 0 10 -8 10 -15c0 -9 -11 -34 -21 -34h-43c0 -58 2 -65 8 -110l-2 -2s-23 2 -50 2c-28 0 -51 -2 -51 -2l-1 2c6 43 9 53 9 110zM1149 415
l-136 -215h136v215z" />
    <glyph glyph-name="F_1_5" unicode="F&#x31;&#x35;" horiz-adv-x="1600" 
d="M249 718c-60 0 -93 -33 -93 -93v-678c0 -60 33 -83 93 -83h1072c60 0 83 23 83 83v678c0 60 -23 93 -83 93h-1072zM1500 -84c0 -90 -29 -128 -119 -128h-1132c-90 0 -129 38 -129 128v709c0 83 48 129 129 129h1102c90 0 149 -39 149 -129v-709zM597 524c18 0 35 1 47 3
l2 -3c-1 -10 -2 -20 -2 -26c0 -7 1 -17 2 -23l-2 -3s-94 9 -194 9c-5 -18 -6 -94 -6 -107v-58c88 0 113 4 157 7l3 -2c-2 -7 -3 -17 -3 -24s1 -18 3 -25l-3 -2c-51 5 -121 8 -157 8v-87c0 -57 2 -108 8 -150l-2 -3s-28 3 -54 3s-55 -3 -55 -3l-1 3c6 40 8 93 8 150v183
c0 57 -2 108 -8 150l2 3s28 -3 54 -3h201zM908 182c0 -59 2 -96 9 -141l-2 -2s-25 2 -52 2c-28 0 -51 -2 -51 -2v2c7 42 8 83 8 141v182c0 27 -1 49 -14 49c-15 0 -48 -1 -81 -5l-1 32c69 16 138 40 187 56c3 0 5 1 5 -3c-1 -10 -8 -41 -8 -122v-189zM1128 33
c-57 0 -102 26 -121 42l-2 3l15 59l18 1c25 -44 47 -68 91 -68c34 0 71 31 71 104c0 66 -26 107 -72 107c-37 0 -50 -5 -81 -18l-16 5l24 225c26 -2 56 -5 84 -5c40 0 95 4 138 8l5 -2l-12 -74c-31 -3 -71 -4 -93 -4c-34 0 -62 3 -87 6l-11 -109c16 6 38 12 69 12
c84 0 143 -66 143 -138c0 -97 -73 -154 -163 -154z" />
    <glyph glyph-name="F_1_6" unicode="F&#x31;&#x36;" horiz-adv-x="1600" 
d="M249 718c-60 0 -93 -33 -93 -93v-678c0 -60 33 -83 93 -83h1072c60 0 83 23 83 83v678c0 60 -23 93 -83 93h-1072zM1500 -84c0 -90 -29 -128 -119 -128h-1132c-90 0 -129 38 -129 128v709c0 83 48 129 129 129h1102c90 0 149 -39 149 -129v-709zM597 524c18 0 35 1 47 3
l2 -3c-1 -10 -2 -20 -2 -26c0 -7 1 -17 2 -23l-2 -3s-94 9 -194 9c-5 -18 -6 -94 -6 -107v-58c88 0 113 4 157 7l3 -2c-2 -7 -3 -17 -3 -24s1 -18 3 -25l-3 -2c-51 5 -121 8 -157 8v-87c0 -57 2 -108 8 -150l-2 -3s-28 3 -54 3s-55 -3 -55 -3l-1 3c6 40 8 93 8 150v183
c0 57 -2 108 -8 150l2 3s28 -3 54 -3h201zM1086 290c21 14 48 20 70 20c116 0 149 -74 149 -135c0 -62 -43 -141 -152 -141c-25 0 -63 3 -94 23c-40 25 -71 76 -71 165c0 113 95 274 294 274l2 -27c-47 -4 -168 -15 -198 -179zM1081 254c-1 -9 -2 -27 -2 -34
c0 -132 37 -153 77 -153c26 0 56 30 56 103c0 37 -1 105 -71 105c-13 0 -35 -1 -60 -21zM908 182c0 -59 2 -96 9 -141l-2 -2s-25 2 -52 2c-28 0 -51 -2 -51 -2v2c7 42 8 83 8 141v182c0 27 -1 49 -14 49c-15 0 -48 -1 -81 -5l-1 32c69 16 138 40 187 56c3 0 5 1 5 -3
c-1 -10 -8 -41 -8 -122v-189z" />
    <glyph glyph-name="C_t_r_l" unicode="Ctrl" horiz-adv-x="2400" 
d="M249 718c-60 0 -93 -33 -93 -93v-678c0 -60 33 -83 93 -83h1872c60 0 83 23 83 83v678c0 60 -23 93 -83 93h-1872zM2300 -84c0 -90 -29 -128 -119 -128h-1932c-90 0 -129 38 -129 128v709c0 83 48 129 129 129h1902c90 0 149 -39 149 -129v-709zM810 323
c-6 0 -10 5 -10 11c0 10 8 29 16 29h41c0 43 0 51 -5 83l1 2c30 2 71 19 89 26c5 0 7 -2 7 -7c-3 -43 -4 -48 -4 -104h81c3 0 6 -2 6 -5v-25c0 -7 -11 -10 -18 -10h-69v-78c0 -45 -2 -83 -2 -106c0 -31 5 -54 25 -54c19 0 31 2 51 14c8 -5 14 -15 14 -27
c-29 -26 -74 -38 -106 -38c-48 0 -72 38 -72 73c0 23 2 85 2 130v86h-47zM1247 310c19 29 58 64 93 64c14 0 18 -2 31 -6l3 -2l-15 -70l-6 -2c-13 11 -29 11 -43 11c-12 0 -63 -5 -63 -63v-65c0 -58 1 -93 7 -136l-1 -2s-29 2 -54 2c-27 0 -48 -2 -48 -2v2c6 41 7 79 7 136
v44c0 56 -5 99 -11 132l1 2c31 2 73 11 92 19c4 0 7 -2 7 -8c-1 -22 -2 -56 -2 -56h2zM1465 191v215c0 57 -2 109 -8 141l2 3c30 2 76 11 95 18c5 0 7 -2 7 -7c-6 -46 -8 -85 -8 -141v-229c0 -57 1 -107 8 -150l-2 -2s-24 2 -50 2s-51 -2 -51 -2l-1 2c7 40 8 94 8 150z
M551 534c91 0 171 -33 171 -33l2 -3c-9 -36 -13 -59 -15 -97l-18 -1c-31 62 -83 90 -151 90c-61 0 -139 -46 -139 -198c0 -110 42.9 -204 149 -204c70 0 121 16 174 75l17 -28c-51 -67 -133 -101 -205 -101c-162 0 -244 110 -244 252c0 153 117 248 259 248z" />
    <glyph glyph-name="S_h_i_f_t" unicode="Shift" horiz-adv-x="1470" 
d="M520 455l-171 -232h100v-145h142v145h101zM520 523l255 -340h-144v-145h-222v145h-144zM249 718c-60 0 -93 -33 -93 -93v-678c0 -60 33 -83 93 -83h942c60 0 83 23 83 83v678c0 60 -23 93 -83 93h-942zM1370 -84c0 -90 -29 -128 -119 -128h-1002c-90 0 -129 38 -129 128
v709c0 83 48 129 129 129h972c90 0 149 -39 149 -129v-709z" />
    <glyph glyph-name="T_a_b" unicode="Tab" horiz-adv-x="1470" 
d="M661 83h-331v40h331l-3 80l182 -90v90h40v-200h-40v90l-182 -90zM237 556h40v-91l182 91l-3 -81h331v-40h-331l3 -81l-182 91v-91h-40v202zM249 718c-60 0 -93 -33 -93 -93v-678c0 -60 33 -83 93 -83h942c60 0 83 23 83 83v678c0 60 -23 93 -83 93h-942zM1370 -84
c0 -90 -29 -128 -119 -128h-1002c-90 0 -129 38 -129 128v709c0 83 48 129 129 129h972c90 0 149 -39 149 -129v-709z" />
    <glyph glyph-name="E_n_t_e_r" unicode="Enter" horiz-adv-x="1470" 
d="M909 593h44v-259h-454l3 -96l-238 118l238 119l-3 -97h410v215zM156 176c0 -60 32 -92 93 -92h163c90 0 124 -39 124 -129v-8c0 -60 33 -83 93 -83h562c60 0 83 23 83 83v678c0 60 -23 93 -83 93h-942c-60 0 -93 -33 -93 -93v-449zM120 176v449c0 83 48 129 129 129h972
c90 0 149 -39 149 -129v-709c0 -90 -29 -128 -119 -128h-622c-90 0 -129 38 -129 128v39c0 45 -23 53 -83 53h-168c-83 0 -129 85 -129 168z" />
    <glyph glyph-name="G_N_U" unicode="GNU" horiz-adv-x="1470" 
d="M603 454c0 -6 2 -16 3 -22c2 -7 3 -13 9 -17c11 -8 18 -6 27 -11c4 -2 8 -5 10 -9s-1 -9 -4 -11c5 -1 11 5 9 11c-1 3 -7 5 -9 8s-1 6 0 9c2 6 12 11 16 15c6 7 8 13 5 22c-5 12 -24 22 -35 27c4 -3 7 -11 9 -16c3 -9 0 -12 0 -20c0 -4 6 -6 8 -8h-3c-3 2 -6 1 -8 6
c-3 7 3 13 -3 21c-4 6 -10 13 -18 13c-4 0 -6 -1 -10 -2l-6 6c-10 9 -16 17 -31 24s-22 7 -39 7s-33 -1 -52 -18s-70 -81 -82 -89s-14 -12 -29 -12s-39 23 -40 50s-2 36 17 68s52 42 77 45s40 -5 58 -5s37 2 42 17c-3 -2 -6 -2 -16 -2s-24 11 -39 19s-32 10 -54 10
s-50 -2 -77 -17s-46 -30 -62 -59s-18 -52 -15 -87s13 -61 34 -87s41 -37 78 -42l-6 14v23l-12 -16l-6 21l-10 -17l-5 25l-15 -13l5 20l-20 -2l9 13h-18l10 18l-15 3l12 17l-19 6l16 15l-16 13l12 10l-11 15l12 15l-4 18l10 10l3 22l12 6l10 17l19 2l10 15l19 -1l17 10l19 -4
l21 6l16 -3l10 -9l-15 -6l-13 6l-9 -6h-15h-14l-10 -12h-20l-7 -17l-19 -6l-1 -19l-13 -11l4 -17l-11 -19l9 -16l-9 -15l11 -7l-2 -23l15 -4l4 -18l17 2l10 -13l14 13c24 12 33 19 52 39c21 23 34 44 62 60c20 11 37 15 60 11c21 -4 29 -16 45 -30c-1 -2 0 -3 0 -5zM716 312
c-1 -1 -3 -3 -5 -4s-5 -1 -8 -2c4 -6 9 -13 13 -20c2 -3 9 -6 10 -9c0 4 -2 7 -4 13s-4 14 -6 22zM714 348l4 -2s4 -3 6 -6s2 -9 2 -11c-1 0 -3 0 -4 1s-3 4 -5 5s-3 2 -5 2c1 -3 1 -7 1 -10c-1 -6 -5 -7 -10 -8c-2 0 -6 1 -8 1l3 -6c5 1 9 0 11 1s5 4 8 5s6 1 9 2
c-3 -2 -4 -5 -7 -7c2 -6 5 -12 7 -18c4 -3 8 -4 13 -7s11 -10 18 -13s12 -5 19 -6s13 -7 20 -8s20 -1 26 0s14 3 15 10c-5 -1 -13 0 -17 10c-2 4 -1 12 -4 17s-6 8 -11 14s-12 16 -16 25s-5 18 -9 26s-9 13 -13 19c-9 13 -16 21 -31 28c-7 3 -15 4 -23 6c-3 -1 -8 -2 -9 -6
s1 -9 4 -12c4 -5 11 -9 14 -16c2 -5 1 -21 0 -25s-5 -8 -8 -11zM680 345c7 3 10 5 18 5h13c3 4 6 7 7 11c1 3 0 17 -1 20c-4 10 -8 10 -14 16c-4 4 -4 11 -5 18c0 3 -2 6 -3 9c-9 1 -15 1 -24 1c4 4 8 7 9 13s0 14 -3 19s-8 11 -13 15s-12 7 -17 11c6 2 12 5 18 6
c16 3 29 -1 44 -10c9 -5 16 -10 25 -20s21 -28 30 -38s16 -20 24 -26s15 -7 22 -11l11 -12l10 12l15 -2l3 17l13 4l-2 22l10 7l-8 14l8 16l-10 17l4 17l-11 10l-2 18l-16 6l-6 16h-18l-9 12l-12 -1l-13 1l-8 5l-11 -6l-13 6l9 8l13 4l19 -7l16 5l16 -10l17 1l7 -14l17 -2
l9 -16l10 -6l3 -21l10 -9l-5 -18l11 -14l-10 -15l11 -9l-14 -12l14 -16l-17 -4l11 -17l-14 -3l9 -16h-15l8 -13l-18 2l5 -19l-13 12l-5 -23l-9 17l-5 -21l-11 15v-21c1 -5 -6 -10 -3 -14c22 3 37 9 54 25c15 15 34 45 39 65c6 22 6 64 0 87c-5 22 -12 32 -25 50
c-12 13 -24 27 -39 36c-22 13 -52 16 -77 16c-14 0 -24 -3 -32 -6c-15 -5 -28 -16 -43 -22c-5 -2 -7 -2 -11 0c4 -8 8 -11 17 -14c7 -2 24 -1 35 0c12 1 18 5 34 5s29 -7 36 -11c14 -8 24 -17 33 -31c5 -8 9 -17 11 -26s4 -19 4 -28s-1 -17 -3 -25c-5 -19 -16 -36 -39 -33
c-14 2 -36 27 -43 37c-14 20 -28 41 -46 57c-11 10 -26 17 -41 18c-28 3 -36 -3 -57 -20c4 -1 8 -2 12 -4c10 -4 18 -11 26 -18c8 -8 12 -11 12 -22c0 -7 -6 -13 -11 -18c-3 -3 -7 -7 -10 -9c-4 -3 -9 -7 -5 -12c2 -2 6 -3 8 -5c4 -3 2 -14 -3 -17c-7 -4 -15 -3 -20 2
c7 1 11 1 11 7c0 3 -4 6 -8 8c-10 4 -17 4 -27 11s-9 11 -12 22c-5 0 -9 -1 -15 -3s-14 -7 -20 -8c-14 -3 -18 -2 -26 0c-14 4 -31 -3 -49 -9c-3 -1 -16 1 -24 -2c-13 -4 -30 -15 -40 -24c-16 -13 -36 -52 -48 -97c-1 -14 3 -23 -6 -30s-8 -23 -11 -28s-7 -3 -13 -10
s-9 -5 -9 -18c5 4 13 8 20 8c0 0 6 -8 22 8c8 8 25 8 36 12s31 11 51 34c14 15 27 31 33 50c-2 -10 -10 -21 -10 -33c-13 -21 -16 -25 -35 -40c-1 -9 0 -18 3 -27s-2 -20 0 -26s7 -2 9 -8s-1 -18 2 -24s10 -2 13 -4s3 -5 5 -7s0 -8 3 -10c4 -2 9 0 13 -2s4 -6 3 -10
s-4 -6 -6 -10s-2 -7 0 -11s7 -5 12 -7s11 0 16 -3s8 -7 10 -11s4 -6 4 -10s-2 -9 -4 -13s-7 -8 0 -15s6 -4 10 -9c0 8 -2 15 0 21s10 7 14 10s6 6 9 9v-11c-1 -6 -3 -12 6 -13c4 0 9 2 13 4c-2 -4 -5 -8 -6 -13s0 -11 3 -16s10 -8 14 -11s7 -3 10 -5v-15s1 -9 4 -13
s7 -5 11 -8c-2 5 -7 10 -7 15s2 10 7 15s18 8 24 13s8 7 10 12c0 1 5 2 5 3c1 -6 -3 -15 -5 -19c7 4 12 9 14 14c2 -1 1 -3 1 -8c3 3 5 5 8 7s7 5 8 8s1 7 0 11s-6 9 -8 13s0 9 0 14c-5 1 -11 3 -16 2s-11 -7 -17 -7s-7 6 -12 7c9 2 20 12 29 13c14 2 28 3 42 3
c6 0 14 -1 18 0s4 3 5 6c4 9 2 18 0 27c-12 1 -26 3 -39 2c-12 -1 -25 -7 -38 -7c-11 0 -28 2 -37 8c-12 7 -21 21 -24 26c-5 8 -11 24 -15 31s-5 9 -8 12c1 0 1 3 1 3c6 -4 13 -18 17 -24c0 -1 3 -3 3 -5c8 -13 20 -33 34 -39c5 -2 13 -3 19 -4c17 -2 34 4 51 8
c12 3 25 2 40 1c5 0 16 3 19 8c1 3 2 6 0 9s-7 4 -10 7s-4 6 -6 9c3 1 5 12 7 13c5 3 8 5 12 9s8 8 11 13s4 10 4 16s-1 15 -3 20s-5 6 -9 7s-7 -2 -11 -2s-6 -3 -11 0s-14 7 -19 15s-8 20 -14 30c-10 17 -22 33 -33 48c-1 4 -4 8 -4 13c-1 9 0 18 3 27c2 7 4 15 11 18
c3 1 7 1 10 0s4 -4 3 -7c-1 -4 -3 -4 -5 -6c-3 -3 -4 -5 -5 -9c3 0 7 1 10 0s6 -3 8 -8c-4 4 -6 5 -11 5h-7c-1 -3 -2 -8 -3 -10s-4 -1 -5 -4s0 -7 0 -11zM693 340c-5 0 -7 0 -11 -3c2 -3 4 -7 6 -10c0 7 2 8 5 13zM524 384v4c-7 2 -10 -2 -14 -11c-2 -3 0 -5 -2 -7
s-4 -2 -7 -4s-6 -6 -9 -8c-1 -1 -2 3 -3 2c1 2 1 8 3 10s3 3 6 3s2 4 3 7s2 4 4 7s5 7 9 8s9 -1 12 0s2 3 4 4s6 2 9 3c0 -4 9 -9 7 -14c-4 -10 -8 -16 -18 -22c-4 -2 -7 -2 -10 -3c2 2 5 3 6 7s0 11 0 14zM570 348h11c3 0 7 2 10 2c0 5 0 14 -5 18c-3 2 -17 1 -20 0
c-1 0 -1 3 -2 3c5 2 17 3 22 2c2 -1 4 -1 5 -3c5 -7 5 -14 6 -22c1 -2 3 -4 4 -6c0 -1 -2 -1 -2 -2c-4 1 -8 0 -13 0c4 -3 5 -5 5 -11c0 -7 -6 -12 -12 -12c-8 -1 -12 1 -15 8c-1 3 0 7 0 10c-10 -1 -10 0 -17 -6c4 -6 6 -9 12 -12c4 -2 8 -4 12 -5s9.79999 -1 14.8 0
c-1 -0.399994 -2.89996 -4 -3.79999 -4c-8 0 -17 1 -24 4c-6 2 -16 9 -18 15c-2 4 0 9 0 13c8 5 10 4 19 6c4 1 7 2 11 2zM591 400c4 -2 8 -5 12 -5s5 3 7 4c3 -11 6 -21 12 -31c2 -3.89999 3.90002 -3.10001 5.90002 -6.79999
c-0.900024 0.899994 -6.90002 1.89999 -6.90002 2.79999c-2 6 -8 13 -11 20h-7s0 3 -2 4s-5 1 -7 3s-3 5 -3 9zM544 215c1 1 3 -3 5 -3c0 -2 -1 -4 -2 -5s-2 -3 -4 -4c0 4 -2 9 1 12zM600 237c0 9 4 17 12 22c4 2 10 5 16 6s21 1 29 -3c7 -3 11 -8 17 -11s9 -6 14 -10
c3 -2 5 -10 7 -12c-5 4 -7 7 -13 10c-3 2 -9 5 -13 7s-10 7 -14 9c-5 2 -13 4 -18 4c-7 0 -17 -1 -23 -6c-3 -3 0 -6 -1 -9c4 4 10 4 15 3c2 0 4 -5 5 -6c-5 2 -8 1 -12 -1c-5 -3 -3 -7 -4 -11c0 -2 -2 -4 -2 -6c-2 0 -4 2 -5 3v-7c-1 1 -6 3 -7 4c-2 5 -3 9 -3 14zM645 230
c4 0 7 -1 10 -3s6 -4 8 -6c6 -6 10 -12 12 -20l-4 -1c-4 8 -11 15 -19 19c-3 1 -4 0 -5 0c1 -1 1 -1 1 -3s0 -6 -3 -7c-4 -2 -10 0 -13 3s-5 9 -3 13c3 7 11 5 16 5zM395 215c-5 0 -10 -3 -14 -10c-3 -6 -10 -6 -14 -5c-6 2 -14 3 -21 -2s-15 -2 -14 8s5 18 14 23
c20 11 6 19 17 31s9 14 9 30c-37 6 -59 18 -82 47s-33 52 -35 89s0 61 16 91s32 45 61 60s58 19 84 19s43 -3 58 -11s28 -19 37 -19s15 2 19 5c1 -28 -25 -30 -48 -31s-37 10 -58 6s-55 -14 -72 -43s-17 -40 -16 -65s22 -43 34 -43s15 4 25 11s64 72 82 87s37 20 56 20
s24 -1 40 -7s24 -18 37 -25c6 4 12 9 18 13c21 15 32 20 57 18c14 -1 32 -11 43 -20c19 -17 35 -40 48 -58c10 -14 22 -30 39 -35c18 -6 32 18 34 31c1 8 3 15 3 23s-1 17 -3 26s-7 18 -11 25c-7 12 -19 24 -31 30c-7 3 -24 10 -34 10c-12 0 -20 -4 -32 -5
c-14 -1 -40 -4 -51 7c-7 7 -9 11 -10 20c3 -3 9 -5 13 -5c9 -1 16 8 23 12c6 3 14 9 22 12c20 8 43 7 64 5c17 -2 38 -9 53 -17s29 -22 39 -35c13 -17 20 -31 25 -52c6 -26 7 -65 0 -91c-6 -21 -25 -53 -41 -68s-34 -23 -55 -27c1 -4 1 -8 2 -11c2 -5 4 -11 10 -9
c2 1 4 1 7 -2s2 -13 -7 -18c-5 -2 -10 -3 -17 -3s-19 0 -26 1c-8 1 -13 7 -22 8c-14 2 -23 12 -34 19c-5 3 -7 3 -10 4c1 -4 4 -9 5 -13s1 -8 1 -11c1 -3 2 -5 2 -8c2 -2 3 -5 7 -6s9 0 13 1s6 3 9 2s6 -3 8 -5s5 -2 7 -7s4 -15 4 -22s-1 -13 -3 -18s-4 -8 -9 -13
s-14 -13 -23 -18c2 -2 2 -4 5 -7c2 -3 9 -5 11 -8s3 -5 3 -8s-1 -8 -3 -11c-6 -8 -13 -9 -22 -13c2 -9 2 -17 0 -26c-1 -4 -2 -12 -7 -14s-14 -1 -20 -2s-9 -2 -13 -3c-3 -4 -7 -8 -8 -12s-1 -4 0 -8s4 -10 5 -14s1 -8 0 -12s-1 -7 -5 -11s-11 -7 -15 -10s-6 -3 -5 -8
c1 -7 11 -19 18 -22c4 -2 12 0 17 2c0 -6 -7 -10 -10 -14c9 3 18 7 24 14c-2 -6 -8 -14 -18 -22s-9 -7 -14 -10c2 0 3 -6 5 -6c-8 -1 -13 0 -20 2s-14 8 -23 13c1 -3 1 -8 5 -11c-2 0 -5 -6 -7 -5c-6 1 -9 2 -13 4s-7 6 -11 8c2 -3 1 -6 4 -9v-6c-4 1 -8 3 -12 6
s-8 7 -12 11s-9 8 -10 12s1 7 1 10c-3 -2 -4 -3 -6 -5s-5.90002 -5 -5 -8.9c-0.5 1 -7 1.9 -7 2.9c-2 8 3 15 7 21c2 3 4 5 6 8c-4 4 -8 7 -11 11s-5 10 -8 14s-7 6 -11 9c3 -7 9 -15 10 -21s-1 -9 -3 -12s-5 -4 -8 -6s-9 0 -11 -3s-2 -7 0 -10l8 -11c-3 1 -7 5 -9 8
s-6 5 -6 9s-1 8 1 10c2 3 9 5 12 7c3 3 5 5 5 8s-3 5 -6 7c-8 6 -20 11 -27 19c-4 4 -5 8 -6 11s0 5 2 9s8 8 9 12s-2 5 -5 6s-9 0 -12 2s1 7 -2 10s-12 1 -16 4s-5 7 -6 11s-1 10 0 13s3 3 5 5s3 3 1 5s-10 0 -14 3s-1 11 -4 14s-8 2 -11 3c0 0 -3 -4 -5 3
c-2 6 -2 22 -4 28s-7 1 -9 7s0 16 -1 25l-4 26c-15 -10 -24 -13 -40 -16c-1 -38 -5 -60 8 -103c13 -42 40 -68 75 -104c-47 35 -69 63 -83 100s-12 68 -11 103zM249 718c-60 0 -93 -33 -93 -93v-678c0 -60 33 -83 93 -83h942c60 0 83 23 83 83v678c0 60 -23 93 -83 93h-942z
M1370 -84c0 -90 -29 -128 -119 -128h-1002c-90 0 -129 38 -129 128v709c0 83 48 129 129 129h972c90 0 149 -39 149 -129v-709zM585.8 312h0.200012h-0.200012zM627.9 361.2c0 -0.100006 0.0999756 -0.100006 0.0999756 -0.200012
c0 0.100006 0 0.100006 -0.0999756 0.200012zM607 303.5c-0.200012 1 -0.5 2 -1 1.5c0 -0.5 0.5 -1 1 -1.5zM607 303.5c0.5 -0.5 1 -1 1 -1.5c-0.5 -0.5 -0.799988 0.5 -1 1.5zM586 -32.9v-0.0999985v0.0999985z" />
    <glyph glyph-name="P_o_s_1" unicode="Pos&#x31;" horiz-adv-x="1970" 
d="M249 718c-60 0 -93 -33 -93 -93v-678c0 -60 33 -83 93 -83h1442c60 0 83 23 83 83v678c0 60 -23 93 -83 93h-1442zM1870 -84c0 -90 -29 -128 -119 -128h-1502c-90 0 -129 38 -129 128v709c0 83 48 129 129 129h1472c90 0 149 -39 149 -129v-709zM403 465v-173
c10 -5 33 -7 52 -7c73 0 91 26 91 107c0 95 -31 106 -83 106c-54 0 -60 -11 -60 -33zM309 375c0 56 -2 107 -8 150l2 2s27 -2 52 -2c23 0 94 5 113 5c139 0 183 -80 183 -124c0 -64 -56 -153 -192 -153c-27 0 -39 2 -56 7v-69c0 -56 2 -107 8 -150l-2 -2s-28 2 -54 2
s-53 -2 -53 -2l-1 2c6 41 8 94 8 150v184zM653 197c0 103 65 176 173 176c126 0 169 -91 169 -169c0 -80 -56 -168 -171 -168c-112 0 -171 79 -171 161zM820 335c-64 0 -71 -55 -71 -120c0 -58 7 -141 85 -141c34 0 65 24 65 110c0 104 -15 151 -79 151zM1050 130l10 1
c17 -33 65 -60 98 -60c30 0 49 21 49 57c0 32 -14 45 -55 61c-37 14 -99 39 -99 92c0 69 55 92 138 92c36 0 72 -13 93 -24l1 -2l-14 -72l-10 -1c-10 21 -42 65 -79 65c-30 0 -48 -16 -48 -43c0 -35 23 -50 49 -59c51 -18 110 -43 110 -102c0 -41 -42 -99 -140 -99
c-27 0 -75 5 -115 20zM1568 182c0 -59 2 -96 9 -141l-2 -2s-25 2 -52 2c-28 0 -51 -2 -51 -2v2c7 42 8 83 8 141v182c0 27 -1 49 -14 49c-15 0 -48 -1 -81 -5l-1 32c69 16 138 40 187 56c3 0 5 1 5 -3c-1 -10 -8 -41 -8 -122v-189z" />
    <glyph glyph-name="E_n_t_f" unicode="Entf" horiz-adv-x="1970" 
d="M249 718c-60 0 -93 -33 -93 -93v-678c0 -60 33 -83 93 -83h1442c60 0 83 23 83 83v678c0 60 -23 93 -83 93h-1442zM1870 -84c0 -90 -29 -128 -119 -128h-1502c-90 0 -129 38 -129 128v709c0 83 48 129 129 129h1472c90 0 149 -39 149 -129v-709zM413 191
c0 -13 1 -85 6 -103c101 0 212 9 212 9l1 -3c0 -6 -1 -19 -1 -26c0 -8 1 -17 1 -27l-1 -3c-12 2 -29 3 -45 3h-221c-26 0 -55 -3 -55 -3v3c6 40 7 93 7 150v183c0 57 -1 108 -7 150l1 3s29 -3 54 -3h213c16 0 33 1 45 3l2 -3c-1 -10 -2 -20 -2 -26c0 -7 1 -17 2 -23l-2 -3
s-103 9 -204 9c-5 -18 -6 -94 -6 -107v-58c89 0 123 4 167 7l3 -2c-2 -7 -3 -17 -3 -24s1 -18 3 -25l-3 -2c-51 5 -131 8 -167 8v-87zM1003 180c0 -58 1 -93 7 -136l-1 -2s-25 2 -51 2s-50 -2 -50 -2l-1 2c7 41 7 79 7 136v66c0 53 -7 78 -47 78c-33 0 -45 -11 -83 -56v-88
c0 -58 1 -93 7 -136l-1 -2s-25 2 -50 2c-27 0 -52 -2 -52 -2v2c6 41 7 79 7 136v41c0 56 -1 100 -7 132l1 2c31 2 74 11 93 19c5 0 7 -2 7 -8c-4 -22 -7 -54 -7 -54h2c48 56 67 62 106 62c67 0 113 -52 113 -119v-75zM1060 323c-6 0 -10 5 -10 11c0 10 8 29 16 29h41
c0 43 0 51 -5 83l1 2c30 2 71 19 89 26c5 0 7 -2 7 -7c-3 -43 -4 -48 -4 -104h81c3 0 6 -2 6 -5v-25c0 -7 -11 -10 -18 -10h-69v-78c0 -45 -2 -83 -2 -106c0 -31 5 -54 25 -54c19 0 31 2 51 14c8 -5 14 -15 14 -27c-29 -26 -74 -38 -106 -38c-48 0 -72 38 -72 73
c0 23 2 85 2 130v86h-47zM1432 511c32 33 87 57 134 57c14 0 28 -3 34 -6v-3c-8 -14 -15 -55 -20 -75l-9 -1c-8 15 -21 34 -43 34c-41 0 -62 -29 -62 -71c0 -16 3 -53 3 -72v-7h81c4 0 6 -2 6 -5v-25c0 -7 -10 -10 -17 -10h-70v-132c0 -56 1 -107 8 -150l-2 -2s-24 2 -50 2
s-51 -2 -51 -2l-1 2c7 40 8 94 8 150v132h-50c-3 0 -3 1 -3 4v21c0 6 3 15 17 15h36v22c0 59 19 88 51 122z" />
    <glyph glyph-name="E_i_n_f" unicode="Einf" horiz-adv-x="1970" 
d="M249 718c-60 0 -93 -33 -93 -93v-678c0 -60 33 -83 93 -83h1442c60 0 83 23 83 83v678c0 60 -23 93 -83 93h-1442zM1870 -84c0 -90 -29 -128 -119 -128h-1502c-90 0 -129 38 -129 128v709c0 83 48 129 129 129h1472c90 0 149 -39 149 -129v-709zM413 191
c0 -13 1 -85 6 -103c101 0 212 9 212 9l1 -3c0 -6 -1 -19 -1 -26c0 -8 1 -17 1 -27l-1 -3c-12 2 -29 3 -45 3h-221c-26 0 -55 -3 -55 -3v3c6 40 7 93 7 150v183c0 57 -1 108 -7 150l1 3s29 -3 54 -3h213c16 0 33 1 45 3l2 -3c-1 -10 -2 -20 -2 -26c0 -7 1 -17 2 -23l-2 -3
s-103 9 -204 9c-5 -18 -6 -94 -6 -107v-58c89 0 123 4 167 7l3 -2c-2 -7 -3 -17 -3 -24s1 -18 3 -25l-3 -2c-51 5 -131 8 -167 8v-87zM1253 180c0 -58 1 -93 7 -136l-1 -2s-25 2 -51 2s-50 -2 -50 -2l-1 2c7 41 7 79 7 136v66c0 53 -7 78 -47 78c-33 0 -45 -11 -83 -56v-88
c0 -58 1 -93 7 -136l-1 -2s-25 2 -50 2c-27 0 -52 -2 -52 -2v2c6 41 7 79 7 136v41c0 56 -1 100 -7 132l1 2c31 2 74 11 93 19c5 0 7 -2 7 -8c-4 -22 -7 -54 -7 -54h2c48 56 67 62 106 62c67 0 113 -52 113 -119v-75zM1432 511c32 33 87 57 134 57c14 0 28 -3 34 -6v-3
c-8 -14 -15 -55 -20 -75l-9 -1c-8 15 -21 34 -43 34c-41 0 -62 -29 -62 -71c0 -16 3 -53 3 -72v-7h81c4 0 6 -2 6 -5v-25c0 -7 -10 -10 -17 -10h-70v-132c0 -56 1 -107 8 -150l-2 -2s-24 2 -50 2s-51 -2 -51 -2l-1 2c7 40 8 94 8 150v132h-50c-3 0 -3 1 -3 4v21
c0 6 3 15 17 15h36v22c0 59 19 88 51 122zM723 518c0 28 23 52 52 52s52 -24 52 -52s-23 -52 -52 -52s-52 24 -52 52zM729 221c0 56 -2 99 -8 132l2 2c30 2 76 11 95 19c4 0 7 -2 7 -8c-6 -46 -8 -77 -8 -133v-53c0 -58 2 -93 8 -136l-2 -2s-25 2 -50 2c-26 0 -51 -2 -51 -2
l-1 2c6 41 8 79 8 136v41z" />
    <glyph glyph-name="L_e_e_r" unicode="Leer" horiz-adv-x="3080" 
d="M249 718c-60 0 -93 -33 -93 -93v-678c0 -60 33 -83 93 -83h2552c60 0 83 23 83 83v678c0 60 -23 93 -83 93h-2552zM2980 -84c0 -90 -29 -128 -119 -128h-2612c-90 0 -129 38 -129 128v709c0 83 48 129 129 129h2582c90 0 149 -39 149 -129v-709zM760 191
c0 -13 1 -85 6 -103c101 0 212 9 212 9l1 -3c-1 -6 -1 -17 -1 -25c0 -7 0 -18 1 -28l-1 -3c-12 2 -30 3 -45 3h-221c-25 0 -55 -3 -55 -3v3c6 40 7 93 7 150v183c0 57 -2 108 -8 150l1 3s30 -3 55 -3c26 0 55 3 55 3l1 -3c-6 -39 -8 -93 -8 -150v-183zM1133 259h107
c8 0 11 4 11 10c0 54 -19 67 -47 67c-17 0 -60 -10 -71 -77zM1336 129c11 -6 16 -15 16 -26c-29 -39 -85 -67 -139 -67c-112 0 -177 71 -177 157c0 114 97 180 168 180c100 0 142 -71 142 -134c0 -9 -5 -13 -13 -13h-202c0 -106 54 -139 97 -139c41 0 82 14 108 42z
M1503 259h107c8 0 11 4 11 10c0 54 -19 67 -47 67c-17 0 -60 -10 -71 -77zM1706 129c11 -6 16 -15 16 -26c-29 -39 -85 -67 -139 -67c-112 0 -177 71 -177 157c0 114 97 180 168 180c100 0 142 -71 142 -134c0 -9 -5 -13 -13 -13h-202c0 -106 54 -139 97 -139
c41 0 82 14 108 42zM1887 310c19 29 58 64 93 64c14 0 18 -2 31 -6l3 -2l-15 -70l-6 -2c-13 11 -29 11 -43 11c-12 0 -63 -5 -63 -63v-62c0 -58 1 -93 7 -136l-1 -2s-29 2 -54 2c-27 0 -48 -2 -48 -2v2c6 41 7 79 7 136v41c0 56 -5 99 -11 132l1 2c31 2 73 11 92 19
c4 0 7 -2 7 -8c-1 -22 -2 -56 -2 -56h2zM2240 321c-85 -1 -167 -8 -167 -8l-1 3c1 6 1 19 1 26s0 14 -1 24l1 2c12 -1 27 -2 42 -2h182c22 0 57 5 60 5s4 -2 4 -5c-4 -5 -9 -13 -22 -32l-167 -246c89 1 183 9 183 9l1 -3c-1 -6 -1 -19 -1 -26s0 -14 1 -24l-1 -2
c-12 1 -27 2 -42 2h-170c-21 0 -89 -2 -89 -2l-2 3c6 7 10 14 16 23zM2458 79v3c9 23 22 37 48 47h2c25 -9 39 -22 48 -47v-3c-10 -28 -23 -41 -48 -47h-2c-28 6 -40 19 -48 47z" />
    <glyph glyph-name="E_s_c" unicode="Esc" horiz-adv-x="1650" 
d="M249 718c-60 0 -93 -33 -93 -93v-678c0 -60 33 -83 93 -83h1122c60 0 83 23 83 83v678c0 60 -23 93 -83 93h-1122zM1550 -84c0 -90 -29 -128 -119 -128h-1182c-90 0 -129 38 -129 128v709c0 83 48 129 129 129h1152c90 0 149 -39 149 -129v-709zM413 191
c0 -13 1 -85 6 -103c101 0 212 9 212 9l1 -3c0 -6 -1 -19 -1 -26c0 -8 1 -17 1 -27l-1 -3c-12 2 -29 3 -45 3h-221c-26 0 -55 -3 -55 -3v3c6 40 7 93 7 150v183c0 57 -1 108 -7 150l1 3s29 -3 54 -3h213c16 0 33 1 45 3l2 -3c-1 -10 -2 -20 -2 -26c0 -7 1 -17 2 -23l-2 -3
s-103 9 -204 9c-5 -18 -6 -94 -6 -107v-58c89 0 123 4 167 7l3 -2c-2 -7 -3 -17 -3 -24s1 -18 3 -25l-3 -2c-51 5 -131 8 -167 8v-87zM710 130l10 1c17 -33 65 -60 98 -60c30 0 49 21 49 57c0 32 -14 45 -55 61c-37 14 -99 39 -99 92c0 69 55 92 138 92c36 0 72 -13 93 -24
l1 -2l-14 -72l-10 -1c-10 21 -42 65 -79 65c-30 0 -48 -16 -48 -43c0 -35 23 -50 49 -59c51 -18 110 -43 110 -102c0 -41 -42 -99 -140 -99c-27 0 -75 5 -115 20zM1198 332c-50 0 -90 -36 -90 -113c0 -79 43 -134 100 -134c30 0 59 10 88 46h2c10 -6 15 -12 16 -19
c-19 -41 -67 -76 -124 -76c-110 0 -174 67 -174 164c0 106 82 173 183 173c37 0 85 -12 108 -24l1 -2l-17 -76l-13 -1c-20 34 -51 62 -80 62z" />
    <glyph glyph-name="E_n_d_e" unicode="Ende" horiz-adv-x="2110" 
d="M249 718c-60 0 -93 -33 -93 -93v-678c0 -60 33 -83 93 -83h1582c60 0 83 23 83 83v678c0 60 -23 93 -83 93h-1582zM2010 -84c0 -90 -29 -128 -119 -128h-1642c-90 0 -129 38 -129 128v709c0 83 48 129 129 129h1612c90 0 149 -39 149 -129v-709zM413 191
c0 -13 1 -85 6 -103c101 0 212 9 212 9l1 -3c0 -6 -1 -19 -1 -26c0 -8 1 -17 1 -27l-1 -3c-12 2 -29 3 -45 3h-221c-26 0 -55 -3 -55 -3v3c6 40 7 93 7 150v183c0 57 -1 108 -7 150l1 3s29 -3 54 -3h213c16 0 33 1 45 3l2 -3c-1 -10 -2 -20 -2 -26c0 -7 1 -17 2 -23l-2 -3
s-103 9 -204 9c-5 -18 -6 -94 -6 -107v-58c89 0 123 4 167 7l3 -2c-2 -7 -3 -17 -3 -24s1 -18 3 -25l-3 -2c-51 5 -131 8 -167 8v-87zM1003 180c0 -58 1 -93 7 -136l-1 -2s-25 2 -51 2s-50 -2 -50 -2l-1 2c7 41 7 79 7 136v66c0 53 -7 78 -47 78c-33 0 -45 -11 -83 -56v-88
c0 -58 1 -93 7 -136l-1 -2s-25 2 -50 2c-27 0 -52 -2 -52 -2v2c6 41 7 79 7 136v41c0 56 -1 100 -7 132l1 2c31 2 74 11 93 19c5 0 7 -2 7 -8c-4 -22 -7 -54 -7 -54h2c48 56 67 62 106 62c67 0 113 -52 113 -119v-75zM1316 131v156c-18 29 -29 45 -64 45
c-36 0 -92 -11 -92 -123c0 -94 35 -124 75 -124c31 0 53 12 81 46zM1316 91c-27 -35 -64 -56 -100 -56c-81 0 -148 68 -148 160c0 102 94 177 192 177c15 0 38 -7 56 -16v49c0 56 -2 108 -8 140l2 3c30 2 76 11 95 19c5 0 7 -3 7 -8c-6 -46 -8 -86 -8 -141v-231
c0 -56 7 -112 13 -144l-2 -2c-9 1 -38 2 -47 2c-11 0 -30 -1 -40 -2c-5 0 -7 0 -7 2l-4 48h-1zM1573 259h107c8 0 11 4 11 10c0 54 -19 67 -47 67c-17 0 -60 -10 -71 -77zM1776 129c11 -6 16 -15 16 -26c-29 -39 -85 -67 -139 -67c-112 0 -177 71 -177 157
c0 114 97 180 168 180c100 0 142 -71 142 -134c0 -9 -5 -13 -13 -13h-202c0 -106 54 -139 97 -139c41 0 82 14 108 42z" />
    <glyph glyph-name="C_a_p_s_l_o_c_k" unicode="Capslock" horiz-adv-x="1820" 
d="M249 718c-60 0 -93 -33 -93 -93v-678c0 -60 33 -83 93 -83h1292c60 0 83 23 83 83v678c0 60 -23 93 -83 93h-1292zM1720 -84c0 -90 -29 -128 -119 -128h-1352c-90 0 -129 38 -129 128v709c0 83 48 129 129 129h1322c90 0 149 -39 149 -129v-709zM520 106l171 232h-100
v145h-142v-145h-101zM520 38l-255 340h144v145h222v-145h144z" />
    <glyph glyph-name="B_a_c_k" unicode="Back" horiz-adv-x="1920" 
d="M249 718c-60 0 -93 -33 -93 -93v-678c0 -60 33 -83 93 -83h1392c60 0 83 23 83 83v678c0 60 -23 93 -83 93h-1392zM1820 -84c0 -90 -29 -128 -119 -128h-1452c-90 0 -129 38 -129 128v709c0 83 48 129 129 129h1422c90 0 149 -39 149 -129v-709zM1263 274h-764l3 -96
l-238 118l238 119l-3 -97h764v-44z" />
    <glyph glyph-name="H_o_m_e" unicode="Home" horiz-adv-x="2460" 
d="M249 718c-60 0 -93 -33 -93 -93v-678c0 -60 33 -83 93 -83h1932c60 0 83 23 83 83v678c0 60 -23 93 -83 93h-1932zM2360 -84c0 -90 -29 -128 -119 -128h-1992c-90 0 -129 38 -129 128v709c0 83 48 129 129 129h1962c90 0 149 -39 149 -129v-709zM634 374
c0 57 -2 108 -8 150l2 3s28 -3 54 -3s55 3 55 3l1 -3c-6 -39 -8 -93 -8 -150v-183c0 -57 2 -108 8 -150l-2 -3s-28 3 -54 3s-55 -3 -55 -3l-1 3c6 40 8 93 8 150v83h-210v-83c0 -57 2 -108 8 -150l-2 -3s-28 3 -54 3s-55 -3 -55 -3l-1 3c6 40 8 93 8 150v183
c0 57 -2 108 -8 150l2 3s28 -3 54 -3s55 3 55 3l1 -3c-6 -39 -8 -93 -8 -150v-61h210v61zM793 197c0 103 65 176 173 176c126 0 169 -91 169 -169c0 -80 -56 -168 -171 -168c-112 0 -171 79 -171 161zM960 335c-64 0 -71 -55 -71 -120c0 -58 7 -141 85 -141
c34 0 65 24 65 110c0 104 -15 151 -79 151zM1616 180v77c0 50 -8 67 -48 67c-30 0 -39 -13 -75 -53v-23v-68c0 -58 1 -96 8 -139l-2 -2s-24 2 -50 2s-51 -2 -51 -2l-1 2c7 41 8 82 8 139v75c0 51 -19 69 -47 69c-27 0 -39 -17 -75 -54v-90c0 -58 1 -96 8 -139l-2 -2
s-24 2 -50 2s-51 -2 -51 -2l-1 2c7 41 8 82 8 139v41c0 56 -2 100 -8 132l2 2c30 2 74 11 93 19c5 0 7 -2 7 -8c-4 -22 -7 -52 -7 -52h1c36 38 55 60 102 60c42 0 98 -26 103 -60c43 46 66 60 107 60c81 0 109 -53 109 -120v-74c0 -58 1 -96 8 -139l-2 -2s-24 2 -50 2
s-51 -2 -51 -2l-1 2c6 41 8 82 8 139zM1873 259h107c8 0 11 4 11 10c0 54 -19 67 -47 67c-17 0 -60 -10 -71 -77zM2076 129c11 -6 16 -15 16 -26c-29 -39 -85 -67 -139 -67c-112 0 -177 71 -177 157c0 114 97 180 168 180c100 0 142 -71 142 -134c0 -9 -5 -13 -13 -13h-202
c0 -106 54 -139 97 -139c41 0 82 14 108 42z" />
    <glyph glyph-name="D_e_l" unicode="Del" horiz-adv-x="1730" 
d="M249 718c-60 0 -93 -33 -93 -93v-678c0 -60 33 -83 93 -83h1202c60 0 83 23 83 83v678c0 60 -23 93 -83 93h-1202zM1630 -84c0 -90 -29 -128 -119 -128h-1262c-90 0 -129 38 -129 128v709c0 83 48 129 129 129h1232c90 0 149 -39 149 -129v-709zM413 109
c0 -24 8 -30 82 -30c105 0 176 23 176 175c0 115 -33 233 -195 233c-37 0 -63 -4 -63 -30v-348zM365 524c55 0 85 3 139 3c144 0 276 -116 276 -255c0 -185 -156 -233 -262 -233c-77 0 -93 2 -153 2c-26 0 -55 -3 -55 -3l-1 3c6 40 8 93 8 150v183c0 57 -2 108 -8 150l2 3
s28 -3 54 -3zM943 259h107c8 0 11 4 11 10c0 54 -19 67 -47 67c-17 0 -60 -10 -71 -77zM1146 129c11 -6 16 -15 16 -26c-29 -39 -85 -67 -139 -67c-112 0 -177 71 -177 157c0 114 97 180 168 180c100 0 142 -71 142 -134c0 -9 -5 -13 -13 -13h-202c0 -106 54 -139 97 -139
c41 0 82 14 108 42zM1235 191v215c0 57 -2 109 -8 141l2 3c30 2 76 11 95 18c5 0 7 -2 7 -7c-6 -46 -8 -85 -8 -141v-229c0 -57 1 -107 8 -150l-2 -2s-24 2 -50 2s-51 -2 -51 -2l-1 2c7 40 8 94 8 150z" />
    <glyph glyph-name="I_n_s" unicode="Ins" horiz-adv-x="1490" 
d="M249 718c-60 0 -93 -33 -93 -93v-678c0 -60 33 -83 93 -83h962c60 0 83 23 83 83v678c0 60 -23 93 -83 93h-962zM1390 -84c0 -90 -29 -128 -119 -128h-1022c-90 0 -129 38 -129 128v709c0 83 48 129 129 129h992c90 0 149 -39 149 -129v-709zM302 374c0 57 -2 108 -8 150
l2 3s28 -3 54 -3s55 3 55 3l1 -3c-6 -39 -8 -93 -8 -150v-183c0 -57 2 -108 8 -150l-2 -3s-28 3 -54 3s-55 -3 -55 -3l-1 3c6 40 8 93 8 150v183zM823 180c0 -58 1 -96 7 -139l-1 -2s-25 2 -51 2s-50 -2 -50 -2l-1 2c7 41 7 82 7 139v66c0 53 -7 78 -47 78
c-33 0 -45 -11 -83 -56v-88c0 -58 1 -96 7 -139l-1 -2s-25 2 -50 2c-27 0 -52 -2 -52 -2v2c6 41 7 82 7 139v41c0 56 -1 100 -7 132l1 2c31 2 74 11 93 19c5 0 7 -2 7 -8c-4 -22 -7 -54 -7 -54h2c48 56 67 62 106 62c67 0 113 -52 113 -119v-75zM920 130l10 1
c17 -33 65 -60 98 -60c30 0 49 21 49 57c0 32 -14 45 -55 61c-37 14 -99 39 -99 92c0 69 55 92 138 92c36 0 72 -13 93 -24l1 -2l-14 -72l-10 -1c-10 21 -42 65 -79 65c-30 0 -48 -16 -48 -43c0 -35 23 -50 49 -59c51 -18 110 -43 110 -102c0 -41 -42 -99 -140 -99
c-27 0 -75 5 -115 20z" />
    <glyph glyph-name="E_n_d" unicode="End" horiz-adv-x="1800" 
d="M249 718c-60 0 -93 -33 -93 -93v-678c0 -60 33 -83 93 -83h1272c60 0 83 23 83 83v678c0 60 -23 93 -83 93h-1272zM1700 -84c0 -90 -29 -128 -119 -128h-1332c-90 0 -129 38 -129 128v709c0 83 48 129 129 129h1302c90 0 149 -39 149 -129v-709zM413 191
c0 -13 1 -85 6 -103c101 0 212 9 212 9l1 -3c0 -6 -1 -19 -1 -26c0 -8 1 -17 1 -27l-1 -3c-12 2 -29 3 -45 3h-221c-26 0 -55 -3 -55 -3v3c6 40 7 93 7 150v183c0 57 -1 108 -7 150l1 3s29 -3 54 -3h213c16 0 33 1 45 3l2 -3c-1 -10 -2 -20 -2 -26c0 -7 1 -17 2 -23l-2 -3
s-103 9 -204 9c-5 -18 -6 -94 -6 -107v-58c89 0 123 4 167 7l3 -2c-2 -7 -3 -17 -3 -24s1 -18 3 -25l-3 -2c-51 5 -131 8 -167 8v-87zM1003 180c0 -58 1 -93 7 -136l-1 -2s-25 2 -51 2s-50 -2 -50 -2l-1 2c7 41 7 79 7 136v66c0 53 -7 78 -47 78c-33 0 -45 -11 -83 -56v-88
c0 -58 1 -93 7 -136l-1 -2s-25 2 -50 2c-27 0 -52 -2 -52 -2v2c6 41 7 79 7 136v41c0 56 -1 100 -7 132l1 2c31 2 74 11 93 19c5 0 7 -2 7 -8c-4 -22 -7 -54 -7 -54h2c48 56 67 62 106 62c67 0 113 -52 113 -119v-75zM1316 131v156c-18 29 -29 45 -64 45
c-36 0 -92 -11 -92 -123c0 -94 35 -124 75 -124c31 0 53 12 81 46zM1316 91c-27 -35 -64 -56 -100 -56c-81 0 -148 68 -148 160c0 102 94 177 192 177c15 0 38 -7 56 -16v49c0 56 -2 108 -8 140l2 3c30 2 76 11 95 19c5 0 7 -3 7 -8c-6 -46 -8 -86 -8 -141v-231
c0 -56 7 -112 13 -144l-2 -2c-9 1 -38 2 -47 2c-11 0 -30 -1 -40 -2c-5 0 -7 0 -7 2l-4 48h-1z" />
    <glyph glyph-name="exclam" unicode="!" 
d="M542 534c22 0 46 -17 46 -54c0 -49 -13 -81 -21 -145c-11 -81 -12 -126 -13 -137c-1 -8 -4 -15 -12 -15c-9 0 -11 6 -11 10c-2 16 -6 83 -13 142c-8 66 -21 92 -21 145c0 40 27 54 45 54zM493 80v3c9 22 21 35 46 45h2c24 -9 37 -21 46 -45v-3c-10 -27 -22 -39 -46 -45
h-2c-27 6 -38 18 -46 45zM249 718c-60 0 -93 -33 -93 -93v-678c0 -60 33 -83 93 -83h572c60 0 83 23 83 83v678c0 60 -23 93 -83 93h-572zM1000 -84c0 -90 -29 -128 -119 -128h-632c-90 0 -129 38 -129 128v709c0 83 48 129 129 129h602c90 0 149 -39 149 -129v-709z" />
    <glyph glyph-name="quotedbl" unicode="&#x22;" 
d="M582 400l-11 3s-24 120 -24 124c0 18 16 41 49 41c31 0 33 -14 33 -28c0 -11 -27 -135 -27 -135zM468 399l-11 3s-24 120 -24 124c0 18 16 41 49 41c31 0 33 -14 33 -28c0 -11 -27 -135 -27 -135zM249 718c-60 0 -93 -33 -93 -93v-678c0 -60 33 -83 93 -83h572
c60 0 83 23 83 83v678c0 60 -23 93 -83 93h-572zM1000 -84c0 -90 -29 -128 -119 -128h-632c-90 0 -129 38 -129 128v709c0 83 48 129 129 129h602c90 0 149 -39 149 -129v-709z" />
    <glyph glyph-name="numbersign" unicode="#" 
d="M560 230l12 74h-53c-4 -26 -8 -48 -13 -74h54zM623 304l-12 -74h73l-6 -42h-73c-7 -42 -14 -86 -21 -126h-50l20 126h-54c-7 -42 -13 -86 -20 -126h-53l19 126h-66l6 42h67c5 26 9 48 12 74h-67l7 43h67c7 41 14 85 20 125h54l-22 -125h54c7 41 13 85 20 125h51l-19 -125
h72l-6 -43h-73zM249 718c-60 0 -93 -33 -93 -93v-678c0 -60 33 -83 93 -83h572c60 0 83 23 83 83v678c0 60 -23 93 -83 93h-572zM1000 -84c0 -90 -29 -128 -119 -128h-632c-90 0 -129 38 -129 128v709c0 83 48 129 129 129h602c90 0 149 -39 149 -129v-709z" />
    <glyph glyph-name="dollar" unicode="$" 
d="M249 718c-60 0 -93 -33 -93 -93v-678c0 -60 33 -83 93 -83h572c60 0 83 23 83 83v678c0 60 -23 93 -83 93h-572zM1000 -84c0 -90 -29 -128 -119 -128h-632c-90 0 -129 38 -129 128v709c0 83 48 129 129 129h602c90 0 149 -39 149 -129v-709zM530 83.1v162.8
c-58 23.1 -133 58.1 -133 126.1c0 68.3 69.5 104.3 133 110.9v42.1h32v-41.2c72.8 -2.5 110 -28.8 110 -28.8l2 -2c-6 -20 -11 -54 -13 -78h-7c-15.8 35.1 -51.7 67.2 -92 74.5v-147c55.2 -20.2 137 -52.6 137 -125.5c0 -67.7 -63.4 -115.1 -137 -126.4v-55.6h-32v53h-2
c-74 0 -134 30 -134 30l-1 2c5 19 11 55 13 79h6c18.4 -38.8 74.5 -73.8 118 -75.9zM530 315.1v134.9c-34.2 -4.70001 -55 -25.9 -55 -61c0 -40.1 28.7 -61.5 55 -73.9zM562 233v-147.1c31.5 7.1 53 27.9 53 67.1c0 49.4 -21.8 66.2 -53 80z" />
    <glyph glyph-name="percent" unicode="%" 
d="M636 106c0 -29 12 -47 26 -47c39 0 64 66 64 107c0 40 -19 43 -30 43c-32 0 -60 -60 -60 -103zM585 117c0 60 36 119 103 119c36 0 69 -14 69 -68c0 -74 -40 -134 -100 -134c-46 0 -72 34 -72 83zM577 438c32 0 82 4 113 38l35 -16l-308 -423l-41 9l275 376
c-30 -12 -59 -18 -81 -18c-18 0 -42 8 -56 16c2 -6 2 -10 2 -16c0 -63 -39 -132 -104 -132c-46 0 -68 31 -68 81c0 64 41 119 103 119c21 0 42 -6 50 -15c40 -19 67 -19 80 -19zM396 343c0 -29 11 -47 24 -47c35 0 64 64 64 108c0 36 -16 42 -29 42c-37 0 -59 -60 -59 -103z
M249 718c-60 0 -93 -33 -93 -93v-678c0 -60 33 -83 93 -83h572c60 0 83 23 83 83v678c0 60 -23 93 -83 93h-572zM1000 -84c0 -90 -29 -128 -119 -128h-632c-90 0 -129 38 -129 128v709c0 83 48 129 129 129h602c90 0 149 -39 149 -129v-709z" />
    <glyph glyph-name="parenleft" unicode="(" 
d="M437 252c0 127 84 265 173 341l24 -21c-24 -27 -106 -123 -106 -320s81 -293 106 -322l-24 -20c-143 123 -173 276 -173 342zM249 718c-60 0 -93 -33 -93 -93v-678c0 -60 33 -83 93 -83h572c60 0 83 23 83 83v678c0 60 -23 93 -83 93h-572zM1000 -84
c0 -90 -29 -128 -119 -128h-632c-90 0 -129 38 -129 128v709c0 83 48 129 129 129h602c90 0 149 -39 149 -129v-709z" />
    <glyph glyph-name="parenright" unicode=")" 
d="M663 252c0 -66 -30 -219 -173 -342l-24 20c25 29 106 125 106 322s-82 293 -106 320l24 21c89 -76 173 -214 173 -341zM249 718c-60 0 -93 -33 -93 -93v-678c0 -60 33 -83 93 -83h572c60 0 83 23 83 83v678c0 60 -23 93 -83 93h-572zM1000 -84c0 -90 -29 -128 -119 -128
h-632c-90 0 -129 38 -129 128v709c0 83 48 129 129 129h602c90 0 149 -39 149 -129v-709z" />
    <glyph glyph-name="asterisk" unicode="*" 
d="M521 441c-9 1 -19 5 -30 3c-34 -6 -61 -6 -61 28c0 11 7 24 25 24c25 0 38 -25 71 -39c-3 30 -23 49 -23 68c0 16 15 30 29 30c13 0 30 -9 30 -27c0 -20 -17 -48 -19 -71c34 14 42 41 67 41c23 0 29 -18 29 -26c0 -22 -25 -30 -52 -30c-14 0 -27 0 -40 -2
c25 -27 64 -26 64 -64c0 -13 -14 -22 -24 -22c-37 0 -35 47 -54 76c-18 -34 -8 -76 -52 -76c-13 0 -22 10 -22 21c0 41 38 37 62 66zM249 718c-60 0 -93 -33 -93 -93v-678c0 -60 33 -83 93 -83h572c60 0 83 23 83 83v678c0 60 -23 93 -83 93h-572zM1000 -84
c0 -90 -29 -128 -119 -128h-632c-90 0 -129 38 -129 128v709c0 83 48 129 129 129h602c90 0 149 -39 149 -129v-709z" />
    <glyph glyph-name="plus" unicode="+" 
d="M569 260h128v-56h-128v-122h-56v122h-128v56h128v123h56v-123zM249 718c-60 0 -93 -33 -93 -93v-678c0 -60 33 -83 93 -83h572c60 0 83 23 83 83v678c0 60 -23 93 -83 93h-572zM1000 -84c0 -90 -29 -128 -119 -128h-632c-90 0 -129 38 -129 128v709c0 83 48 129 129 129
h602c90 0 149 -39 149 -129v-709z" />
    <glyph glyph-name="slash" unicode="/" 
d="M645 558l-178 -529h-45l178 529h45zM249 718c-60 0 -93 -33 -93 -93v-678c0 -60 33 -83 93 -83h572c60 0 83 23 83 83v678c0 60 -23 93 -83 93h-572zM1000 -84c0 -90 -29 -128 -119 -128h-632c-90 0 -129 38 -129 128v709c0 83 48 129 129 129h602c90 0 149 -39 149 -129
v-709z" />
    <glyph glyph-name="one" unicode="1" 
d="M249 718c-60 0 -93 -33 -93 -93v-678c0 -60 33 -83 93 -83h572c60 0 83 23 83 83v678c0 60 -23 93 -83 93h-572zM1000 -84c0 -90 -29 -128 -119 -128h-632c-90 0 -129 38 -129 128v709c0 83 48 129 129 129h602c90 0 149 -39 149 -129v-709zM588 182c0 -59 2 -96 9 -141
l-2 -2s-25 2 -52 2c-28 0 -51 -2 -51 -2v2c7 42 8 83 8 141v182c0 27 -1 49 -14 49c-15 0 -48 -1 -81 -5l-1 32c69 16 138 40 187 56c3 0 5 1 5 -3c-1 -10 -8 -41 -8 -122v-189z" />
    <glyph glyph-name="two" unicode="2" 
d="M249 718c-60 0 -93 -33 -93 -93v-678c0 -60 33 -83 93 -83h572c60 0 83 23 83 83v678c0 60 -23 93 -83 93h-572zM1000 -84c0 -90 -29 -128 -119 -128h-632c-90 0 -129 38 -129 128v709c0 83 48 129 129 129h602c90 0 149 -39 149 -129v-709zM499 456
c-37 0 -69 -19 -94 -63h-18l-16 59l2 3c19 16 78 41 132 41c89 0 159 -36 159 -117c0 -57 -29 -86 -72 -127l-75 -72c-16 -15 -50 -52 -50 -64h62c75 0 95 3 138 6c-2 -10 -4 -39 -4 -49s2 -25 4 -35c-56 2 -73 3 -129 3c-57 0 -110 -2 -179 -3l-1 3c0 44 30 78 103 153
l56 55c44 45 46 83 46 131c0 46 -37 76 -64 76z" />
    <glyph glyph-name="three" unicode="3" 
d="M249 718c-60 0 -93 -33 -93 -93v-678c0 -60 33 -83 93 -83h572c60 0 83 23 83 83v678c0 60 -23 93 -83 93h-572zM1000 -84c0 -90 -29 -128 -119 -128h-632c-90 0 -129 38 -129 128v709c0 83 48 129 129 129h602c90 0 149 -39 149 -129v-709zM489 72c26 0 81 14 81 101
c0 71 -39 87 -82 87c-7 0 -20 0 -29 -1v34c72 4 103 34 103 96c0 40 -25 69 -54 69c-53 0 -69 -22 -94 -66l-18 1l-15 59l2 3c19 16 75 41 132 41c69 0 135 -25 135 -95c0 -63 -35 -100 -89 -114v-3c55 -5 110 -37 110 -109c0 -104 -93 -142 -183 -142
c-57 0 -102 26 -121 42l-3 3l17 59l18 1c25 -44 34 -66 90 -66z" />
    <glyph glyph-name="four" unicode="4" 
d="M249 718c-60 0 -93 -33 -93 -93v-678c0 -60 33 -83 93 -83h572c60 0 83 23 83 83v678c0 60 -23 93 -83 93h-572zM1000 -84c0 -90 -29 -128 -119 -128h-632c-90 0 -129 38 -129 128v709c0 83 48 129 129 129h602c90 0 149 -39 149 -129v-709zM520 151h-153
c-27 0 -40 -1 -41 10c0 1 -5 17 8 35c46 61 152 226 192 294v2s9 -2 37 -2c27 0 50 2 50 2l2 -2c-6 -45 -8 -53 -8 -112v-178h54c8 0 10 -8 10 -15c0 -9 -11 -34 -21 -34h-43c0 -58 2 -65 8 -110l-2 -2s-23 2 -50 2c-28 0 -51 -2 -51 -2l-1 2c6 43 9 53 9 110zM520 415
l-136 -215h136v215z" />
    <glyph glyph-name="five" unicode="5" 
d="M249 718c-60 0 -93 -33 -93 -93v-678c0 -60 33 -83 93 -83h572c60 0 83 23 83 83v678c0 60 -23 93 -83 93h-572zM1000 -84c0 -90 -29 -128 -119 -128h-632c-90 0 -129 38 -129 128v709c0 83 48 129 129 129h602c90 0 149 -39 149 -129v-709zM486 33
c-57 0 -102 26 -121 42l-2 3l15 59l18 1c25 -44 47 -68 91 -68c34 0 71 31 71 104c0 66 -26 107 -72 107c-37 0 -50 -5 -81 -18l-16 5l24 225c26 -2 56 -5 84 -5c40 0 95 4 138 8l5 -2l-12 -74c-31 -3 -71 -4 -93 -4c-34 0 -62 3 -87 6l-11 -109c16 6 38 12 69 12
c84 0 143 -66 143 -138c0 -97 -73 -154 -163 -154z" />
    <glyph glyph-name="six" unicode="6" 
d="M249 718c-60 0 -93 -33 -93 -93v-678c0 -60 33 -83 93 -83h572c60 0 83 23 83 83v678c0 60 -23 93 -83 93h-572zM1000 -84c0 -90 -29 -128 -119 -128h-632c-90 0 -129 38 -129 128v709c0 83 48 129 129 129h602c90 0 149 -39 149 -129v-709zM456 290c21 14 48 20 70 20
c116 0 149 -74 149 -135c0 -62 -43 -141 -152 -141c-25 0 -63 3 -94 23c-40 25 -71 76 -71 165c0 113 95 274 294 274l2 -27c-47 -4 -168 -15 -198 -179zM451 254c-1 -9 -2 -27 -2 -34c0 -132 37 -153 77 -153c26 0 56 30 56 103c0 37 -1 105 -71 105c-13 0 -35 -1 -60 -21z
" />
    <glyph glyph-name="seven" unicode="7" 
d="M249 718c-60 0 -93 -33 -93 -93v-678c0 -60 33 -83 93 -83h572c60 0 83 23 83 83v678c0 60 -23 93 -83 93h-572zM1000 -84c0 -90 -29 -128 -119 -128h-632c-90 0 -129 38 -129 128v709c0 83 48 129 129 129h602c90 0 149 -39 149 -129v-709zM585 422
c-44 0 -110 -2 -206 -7c1 11 4 29 4 40s-3 27 -4 38c31 -4 113 -5 224 -5c23 0 37 3 48 6l10 -15c-84 -203 -126 -318 -169 -445l-65 -3l-2 6c48 108 104 246 160 385z" />
    <glyph glyph-name="nine" unicode="9" 
d="M249 718c-60 0 -93 -33 -93 -93v-678c0 -60 33 -83 93 -83h572c60 0 83 23 83 83v678c0 60 -23 93 -83 93h-572zM1000 -84c0 -90 -29 -128 -119 -128h-632c-90 0 -129 38 -129 128v709c0 83 48 129 129 129h602c90 0 149 -39 149 -129v-709zM586.2 239.2
c-21 -14 -48 -20 -70 -20c-116 0 -149 74 -149 135c0 62 43 141 152 141c25 0 63 -3 94 -23c40 -25 71 -76 71 -165c0 -113 -95 -274 -294 -274l-2 27c47 4 168 15 198 179zM591.2 275.2c1 9 2 27 2 34c0 132 -37 153 -77 153c-26 0 -56 -30 -56 -103c0 -37 1 -105 71 -105
c13 0 35 1 60 21z" />
    <glyph glyph-name="colon" unicode=":" 
d="M487 293v3c9 23 22 37 48 47h2c25 -9 39 -22 48 -47v-3c-10 -28 -23 -41 -48 -47h-2c-28 6 -40 19 -48 47zM487 81v3c9 23 22 37 48 47h2c25 -9 39 -22 48 -47v-3c-10 -28 -23 -41 -48 -47h-2c-28 6 -40 19 -48 47zM249 718c-60 0 -93 -33 -93 -93v-678
c0 -60 33 -83 93 -83h572c60 0 83 23 83 83v678c0 60 -23 93 -83 93h-572zM1000 -84c0 -90 -29 -128 -119 -128h-632c-90 0 -129 38 -129 128v709c0 83 48 129 129 129h602c90 0 149 -39 149 -129v-709z" />
    <glyph glyph-name="less" unicode="&#x3c;" 
d="M439 240l238 -87v-47l-321 118v32l321 118v-47zM249 718c-60 0 -93 -33 -93 -93v-678c0 -60 33 -83 93 -83h572c60 0 83 23 83 83v678c0 60 -23 93 -83 93h-572zM1000 -84c0 -90 -29 -128 -119 -128h-632c-90 0 -129 38 -129 128v709c0 83 48 129 129 129h602
c90 0 149 -39 149 -129v-709z" />
    <glyph glyph-name="equal" unicode="=" 
d="M701 207v-42h-326v42h326zM701 300v-42h-326v42h326zM249 718c-60 0 -93 -33 -93 -93v-678c0 -60 33 -83 93 -83h572c60 0 83 23 83 83v678c0 60 -23 93 -83 93h-572zM1000 -84c0 -90 -29 -128 -119 -128h-632c-90 0 -129 38 -129 128v709c0 83 48 129 129 129h602
c90 0 149 -39 149 -129v-709z" />
    <glyph glyph-name="greater" unicode="&#x3e;" 
d="M633 238l-237 87v47l321 -118v-33l-321 -117v47zM249 718c-60 0 -93 -33 -93 -93v-678c0 -60 33 -83 93 -83h572c60 0 83 23 83 83v678c0 60 -23 93 -83 93h-572zM1000 -84c0 -90 -29 -128 -119 -128h-632c-90 0 -129 38 -129 128v709c0 83 48 129 129 129h602
c90 0 149 -39 149 -129v-709z" />
    <glyph glyph-name="question" unicode="?" 
d="M530 500c-42 0 -73 -36 -92 -70l-10 1l-12 57l2 3c19 15 64 46 119 46c76 0 138 -45 138 -113c0 -59 -59 -92 -94 -118c-22 -16 -45 -37 -45 -92v-29c0 -6 -11 -12 -17 -12s-17 6 -17 12v30c0 33 9 77 57 121c30 28 31 50 31 85c0 49 -17 79 -60 79zM477 81v3
c9 22 21 35 46 45h2c24 -9 37 -21 46 -45v-3c-10 -27 -22 -39 -46 -45h-2c-27 6 -38 18 -46 45zM249 718c-60 0 -93 -33 -93 -93v-678c0 -60 33 -83 93 -83h572c60 0 83 23 83 83v678c0 60 -23 93 -83 93h-572zM1000 -84c0 -90 -29 -128 -119 -128h-632
c-90 0 -129 38 -129 128v709c0 83 48 129 129 129h602c90 0 149 -39 149 -129v-709z" />
    <glyph glyph-name="at" unicode="@" 
d="M622 308c0 26 -18 46 -37 46c-10 0 -34 -1 -60 -29c-34 -36 -47 -87 -47 -134c0 -36 7 -69 42 -69c23 0 60 26 81 90c7 25 21 78 21 96zM648 124c0 -10 5 -11 13 -11c28 0 110 51 110 159c0 166 -138 234 -225 234c-117 0 -239 -94 -239 -267c0 -111 68 -262 252 -262
c57 0 110 18 157 56c9 -3 14 -12 16 -22c-48 -36 -95 -63 -188 -63c-177 0 -307 114 -307 285c0 156 126 300 316 300c169 0 282 -108 282 -250c0 -105 -88 -201 -189 -201c-52 0 -66 27 -66 43c-31 -29 -61 -35 -79 -35c-87 0 -96 65 -96 96c0 109 92 193 178 193
c36 0 58 -13 71 -29l27 25l21 -8l-45 -194c-4 -19 -9 -41 -9 -49zM249 718c-60 0 -93 -33 -93 -93v-678c0 -60 33 -83 93 -83h572c60 0 83 23 83 83v678c0 60 -23 93 -83 93h-572zM1000 -84c0 -90 -29 -128 -119 -128h-632c-90 0 -129 38 -129 128v709c0 83 48 129 129 129
h602c90 0 149 -39 149 -129v-709z" />
    <glyph glyph-name="A" unicode="A" 
d="M249 718c-60 0 -93 -33 -93 -93v-678c0 -60 33 -83 93 -83h572c60 0 83 23 83 83v678c0 60 -23 93 -83 93h-572zM1000 -84c0 -90 -29 -128 -119 -128h-632c-90 0 -129 38 -129 128v709c0 83 48 129 129 129h602c90 0 149 -39 149 -129v-709zM512.5 414.7
c-22.4 -51.7 -47.8 -109.8 -71.6 -166.7c23.8 -0.300003 56.3 -2 78.1 -2c17.3 0 41 0.5 62.5 1.10001c-18.6 48 -41.4 103.9 -69 167.6zM423.2 205.1c-25.5 -62.9 -47.5 -121.8 -59.2 -166.1c-9 2 -26 2 -34 2s-33 0 -42 -2c76 165 149 329 221 495h53
c69 -164 168 -420 205 -495c-13 2 -48 2 -61 2c-12 0 -40 0 -53 -2c-4.29999 15.9 -20.5 72.1 -55.8 166.6c-24.6 0.699997 -50.6 1.39999 -74.2 1.39999c-27 0 -70.7 -0.899994 -99.8 -1.89999z" />
    <glyph glyph-name="B" unicode="B" 
d="M450 453v-131h54c63 0 85 16 85 79c0 77 -33 86 -75 86c-61 0 -64 -9 -64 -34zM450 282v-169c0 -24 9 -35 61 -35c101 0 113 32 113 86c0 68 -21 118 -108 118h-66zM402 524c42 0 81 3 107 3c139 0 177 -66 177 -117c0 -41 -32 -81 -70 -99c65 -19 114 -60 114 -132
c0 -65 -55 -141 -205 -141c-66 0 -75 3 -123 3c-26 0 -54 -3 -54 -3l-1 3c6 40 7 93 7 150v183c0 57 -1 108 -7 150l1 3s29 -3 54 -3zM249 718c-60 0 -93 -33 -93 -93v-678c0 -60 33 -83 93 -83h572c60 0 83 23 83 83v678c0 60 -23 93 -83 93h-572zM1000 -84
c0 -90 -29 -128 -119 -128h-632c-90 0 -129 38 -129 128v709c0 83 48 129 129 129h602c90 0 149 -39 149 -129v-709z" />
    <glyph glyph-name="C" unicode="C" 
d="M551 534c91 0 171 -33 171 -33l2 -3c-9 -36 -13 -59 -15 -97l-18 -1c-31 62 -83 90 -151 90c-61 0 -139 -46 -139 -198c0 -110 42.9 -204 149 -204c70 0 121 16 174 75l17 -28c-51 -67 -133 -101 -205 -101c-162 0 -244 110 -244 252c0 153 117 248 259 248zM249 718
c-60 0 -93 -33 -93 -93v-678c0 -60 33 -83 93 -83h572c60 0 83 23 83 83v678c0 60 -23 93 -83 93h-572zM1000 -84c0 -90 -29 -128 -119 -128h-632c-90 0 -129 38 -129 128v709c0 83 48 129 129 129h602c90 0 149 -39 149 -129v-709z" />
    <glyph glyph-name="D" unicode="D" 
d="M413 109c0 -24 8 -30 82 -30c105 0 176 23 176 175c0 115 -33 233 -195 233c-37 0 -63 -4 -63 -30v-348zM365 524c55 0 85 3 139 3c144 0 276 -116 276 -255c0 -185 -156 -233 -262 -233c-77 0 -93 2 -153 2c-26 0 -55 -3 -55 -3l-1 3c6 40 8 93 8 150v183
c0 57 -2 108 -8 150l2 3s28 -3 54 -3zM249 718c-60 0 -93 -33 -93 -93v-678c0 -60 33 -83 93 -83h572c60 0 83 23 83 83v678c0 60 -23 93 -83 93h-572zM1000 -84c0 -90 -29 -128 -119 -128h-632c-90 0 -129 38 -129 128v709c0 83 48 129 129 129h602c90 0 149 -39 149 -129
v-709z" />
    <glyph glyph-name="E" unicode="E" 
d="M453 191c0 -13 1 -85 6 -103c101 0 212 9 212 9l1 -3c0 -6 -1 -19 -1 -26c0 -8 1 -17 1 -27l-1 -3c-12 2 -29 3 -45 3h-221c-26 0 -55 -3 -55 -3v3c6 40 7 93 7 150v183c0 57 -1 108 -7 150l1 3s29 -3 54 -3h213c16 0 33 1 45 3l2 -3c-1 -10 -2 -20 -2 -26
c0 -7 1 -17 2 -23l-2 -3s-103 9 -204 9c-5 -18 -6 -94 -6 -107v-58c89 0 123 4 167 7l3 -2c-2 -7 -3 -17 -3 -24s1 -18 3 -25l-3 -2c-51 5 -131 8 -167 8v-87zM249 718c-60 0 -93 -33 -93 -93v-678c0 -60 33 -83 93 -83h572c60 0 83 23 83 83v678c0 60 -23 93 -83 93h-572z
M1000 -84c0 -90 -29 -128 -119 -128h-632c-90 0 -129 38 -129 128v709c0 83 48 129 129 129h602c90 0 149 -39 149 -129v-709z" />
    <glyph glyph-name="F" unicode="F" 
d="M627 524c18 0 35 1 47 3l2 -3c-1 -10 -2 -20 -2 -26c0 -7 1 -17 2 -23l-2 -3s-104 9 -204 9c-5 -18 -6 -94 -6 -107v-58c88 0 123 4 167 7l3 -2c-2 -7 -3 -17 -3 -24s1 -18 3 -25l-3 -2c-51 5 -131 8 -167 8v-87c0 -57 2 -108 8 -150l-2 -3s-28 3 -54 3s-55 -3 -55 -3
l-1 3c6 40 8 93 8 150v183c0 57 -2 108 -8 150l2 3s28 -3 54 -3h211zM249 718c-60 0 -93 -33 -93 -93v-678c0 -60 33 -83 93 -83h572c60 0 83 23 83 83v678c0 60 -23 93 -83 93h-572zM1000 -84c0 -90 -29 -128 -119 -128h-632c-90 0 -129 38 -129 128v709
c0 83 48 129 129 129h602c90 0 149 -39 149 -129v-709z" />
    <glyph glyph-name="G" unicode="G" 
d="M664 129c0 56 -1 99 -7 142l1 3s29 -3 54 -3c26 0 55 3 55 3v-3c-6 -39 -7 -71 -7 -127c0 -25 3 -35 7 -41v-2c-50 -42 -132 -67 -220 -67c-173.1 0 -253 118 -253 247c0 165 108 253 267 253c91 0 179 -33 179 -33l2 -3c-9 -36 -13 -59 -15 -97l-19 -1
c-31 62 -90 93 -158 93c-92 0 -148 -75 -148 -207c0 -99 29 -211 162 -211c41 0 75 4 100 28v26zM249 718c-60 0 -93 -33 -93 -93v-678c0 -60 33 -83 93 -83h572c60 0 83 23 83 83v678c0 60 -23 93 -83 93h-572zM1000 -84c0 -90 -29 -128 -119 -128h-632
c-90 0 -129 38 -129 128v709c0 83 48 129 129 129h602c90 0 149 -39 149 -129v-709z" />
    <glyph glyph-name="grave" unicode="`" 
d="M532 513l52 -92c3 -6 6 -14 6 -20c0 -7 -6 -12 -12 -12s-14 4 -27 15l-90 79l1 8c6 7 28 24 55 24c4 0 12 -1 15 -2zM249 718c-60 0 -93 -33 -93 -93v-678c0 -60 33 -83 93 -83h572c60 0 83 23 83 83v678c0 60 -23 93 -83 93h-572zM1000 -84c0 -90 -29 -128 -119 -128
h-632c-90 0 -129 38 -129 128v709c0 83 48 129 129 129h602c90 0 149 -39 149 -129v-709z" />
    <glyph glyph-name="ograve" unicode="&#xf2;" 
d="M544.7 588.1l57.1 -101.2c3.29999 -6.60001 6.70001 -15.4 6.70001 -22c0 -7.69998 -6.70001 -13.2 -13.3 -13.2c-6.60004 0 -15.4 4.39999 -29.7 16.5l-99 86.9l1.20001 8.80005c6.59998 7.69995 30.8 26.4 60.5 26.4c4.39996 0 13.2 -1.09998 16.5 -2.20001zM363 197
c0 103 65 176 173 176c126 0 169 -91 169 -169c0 -80 -56 -168 -171 -168c-112 0 -171 79 -171 161zM530 335c-64 0 -71 -55 -71 -120c0 -58 7 -141 85 -141c34 0 65 24 65 110c0 104 -15 151 -79 151zM249 718c-60 0 -93 -33 -93 -93v-678c0 -60 33 -83 93 -83h572
c60 0 83 23 83 83v678c0 60 -23 93 -83 93h-572zM1000 -84c0 -90 -29 -128 -119 -128h-632c-90 0 -129 38 -129 128v709c0 83 48 129 129 129h602c90 0 149 -39 149 -129v-709z" />
    <glyph glyph-name="oacute" unicode="&#xf3;" 
d="M533.3 578.2c2.20001 1.09998 8.79999 2.29999 13.2 2.29999c25.3 0 40.7 -12.1 47.3 -19.8l7.70001 -19.9l-99 -89c-11 -9.89999 -23.1 -13.3 -30.8 -13.3c-6.60001 0 -13.2 6.70001 -13.2 12.2c0 4.39999 1.10001 12.1 6.60001 19.8zM363 197c0 103 65 176 173 176
c126 0 169 -91 169 -169c0 -80 -56 -168 -171 -168c-112 0 -171 79 -171 161zM530 335c-64 0 -71 -55 -71 -120c0 -58 7 -141 85 -141c34 0 65 24 65 110c0 104 -15 151 -79 151zM249 718c-60 0 -93 -33 -93 -93v-678c0 -60 33 -83 93 -83h572c60 0 83 23 83 83v678
c0 60 -23 93 -83 93h-572zM1000 -84c0 -90 -29 -128 -119 -128h-632c-90 0 -129 38 -129 128v709c0 83 48 129 129 129h602c90 0 149 -39 149 -129v-709z" />
    <glyph glyph-name="ocircumflex" unicode="&#xf4;" 
d="M548 548.8c25.3 -40.7 56 -77 86.8 -111.1l-20.8 -15.5c-35.2 22 -59.4 38.6 -88 68.3c-30.8 -31.9 -54 -46.3 -87 -68.3l-20.8 15.5c29.7 34.1 62.6 71.5 86.8 111.1h43zM363 197c0 103 65 176 173 176c126 0 169 -91 169 -169c0 -80 -56 -168 -171 -168
c-112 0 -171 79 -171 161zM530 335c-64 0 -71 -55 -71 -120c0 -58 7 -141 85 -141c34 0 65 24 65 110c0 104 -15 151 -79 151zM249 718c-60 0 -93 -33 -93 -93v-678c0 -60 33 -83 93 -83h572c60 0 83 23 83 83v678c0 60 -23 93 -83 93h-572zM1000 -84
c0 -90 -29 -128 -119 -128h-632c-90 0 -129 38 -129 128v709c0 83 48 129 129 129h602c90 0 149 -39 149 -129v-709z" />
    <glyph glyph-name="otilde" unicode="&#xf5;" 
d="M578 486.1c18.7 0 28.7 6.60001 40.8 47.3l23 -7.70001c-11 -56.1 -35.2 -89.1 -74.8 -89.1c-19.8 0 -37.3 12.1 -53.8 24.2c-16.5 11 -33 22 -48.4 22c-22 0 -30.8 -12.1 -39.6 -44l-22 6.60001c12.1 56.1 31.8 86.9 68.1 86.9c26.4 0 45.2 -13.2 61.7 -26.4
c14.3 -11 28.5 -19.8 45 -19.8zM363 197c0 103 65 176 173 176c126 0 169 -91 169 -169c0 -80 -56 -168 -171 -168c-112 0 -171 79 -171 161zM530 335c-64 0 -71 -55 -71 -120c0 -58 7 -141 85 -141c34 0 65 24 65 110c0 104 -15 151 -79 151zM249 718
c-60 0 -93 -33 -93 -93v-678c0 -60 33 -83 93 -83h572c60 0 83 23 83 83v678c0 60 -23 93 -83 93h-572zM1000 -84c0 -90 -29 -128 -119 -128h-632c-90 0 -129 38 -129 128v709c0 83 48 129 129 129h602c90 0 149 -39 149 -129v-709z" />
    <glyph glyph-name="odieresis" unicode="&#xf6;" 
d="M562.8 471c0 25.3 19.8 45.1 44 45.1s45.1 -19.8 45.1 -45.1c0 -24.2 -20.9 -44 -45.1 -44s-44 19.8 -44 44zM413.2 471c0 25.3 20.8 45.1 45 45.1c24.2 0 44.1 -19.8 44.1 -45.1c0 -24.2 -19.9 -44 -44.1 -44c-24.2 0 -45 19.8 -45 44zM363 197c0 103 65 176 173 176
c126 0 169 -91 169 -169c0 -80 -56 -168 -171 -168c-112 0 -171 79 -171 161zM530 335c-64 0 -71 -55 -71 -120c0 -58 7 -141 85 -141c34 0 65 24 65 110c0 104 -15 151 -79 151zM249 718c-60 0 -93 -33 -93 -93v-678c0 -60 33 -83 93 -83h572c60 0 83 23 83 83v678
c0 60 -23 93 -83 93h-572zM1000 -84c0 -90 -29 -128 -119 -128h-632c-90 0 -129 38 -129 128v709c0 83 48 129 129 129h602c90 0 149 -39 149 -129v-709z" />
    <glyph glyph-name="divide" unicode="&#xf7;" horiz-adv-x="527" 
d="M227 326v3c8 20 20 33 43 42h2c22 -8 34 -20 42 -42v-3c-9 -25 -20 -35 -42 -41h-2c-25 6 -36 16 -43 41zM227 102v3c8 20 20 32 43 41h2c22 -8 34 -19 42 -41v-3c-9 -25 -20 -36 -42 -42h-2c-25 6 -36 17 -43 42zM427 248v-57h-327v57h327zM9 718c-60 0 -93 -33 -93 -93
v-678c0 -60 33 -83 93 -83h572c60 0 83 23 83 83v678c0 60 -23 93 -83 93h-572zM760 -84c0 -90 -29 -128 -119 -128h-632c-90 0 -129 38 -129 128v709c0 83 48 129 129 129h602c90 0 149 -39 149 -129v-709z" />
    <glyph glyph-name="ugrave" unicode="&#xf9;" 
d="M510.7 588.1l57.1 -101.2c3.29999 -6.60001 6.70001 -15.4 6.70001 -22c0 -7.69998 -6.70001 -13.2 -13.3 -13.2c-6.60004 0 -15.4 4.39999 -29.7 16.5l-99 86.9l1.20001 8.80005c6.59998 7.69995 30.8 26.4 60.5 26.4c4.39999 0 13.2 -1.09998 16.5 -2.20001zM588 91
c-42 -45 -65 -56 -96 -56c-74 0 -117 51 -117 102v93c0 56 -1 92 -7 134l1 3s25 -3 50 -3c27 0 51 3 51 3l1 -3c-7 -39 -7 -78 -7 -134v-68c0 -67 25 -79 48 -79c33 0 57 33 76 56v91c0 56 -1 92 -7 134l1 3s25 -3 50 -3c27 0 51 3 51 3l1 -3c-7 -39 -7 -78 -7 -134v-43
c0 -57 6 -112 12 -144l-1 -3c-10 2 -38 3 -48 3c-11 0 -30 -1 -40 -3c-4 0 -7 1 -7 3l-3 48h-2zM249 718c-60 0 -93 -33 -93 -93v-678c0 -60 33 -83 93 -83h572c60 0 83 23 83 83v678c0 60 -23 93 -83 93h-572zM1000 -84c0 -90 -29 -128 -119 -128h-632
c-90 0 -129 38 -129 128v709c0 83 48 129 129 129h602c90 0 149 -39 149 -129v-709z" />
    <glyph glyph-name="uacute" unicode="&#xfa;" 
d="M543.3 578.2c2.20001 1.09998 8.79999 2.29999 13.2 2.29999c25.3 0 40.7 -12.1 47.3 -19.8l7.70001 -19.9l-99 -89c-11 -9.89999 -23.1 -13.3 -30.8 -13.3c-6.60001 0 -13.2 6.70001 -13.2 12.2c0 4.39999 1.10001 12.1 6.60001 19.8zM588 91c-42 -45 -65 -56 -96 -56
c-74 0 -117 51 -117 102v93c0 56 -1 92 -7 134l1 3s25 -3 50 -3c27 0 51 3 51 3l1 -3c-7 -39 -7 -78 -7 -134v-68c0 -67 25 -79 48 -79c33 0 57 33 76 56v91c0 56 -1 92 -7 134l1 3s25 -3 50 -3c27 0 51 3 51 3l1 -3c-7 -39 -7 -78 -7 -134v-43c0 -57 6 -112 12 -144l-1 -3
c-10 2 -38 3 -48 3c-11 0 -30 -1 -40 -3c-4 0 -7 1 -7 3l-3 48h-2zM249 718c-60 0 -93 -33 -93 -93v-678c0 -60 33 -83 93 -83h572c60 0 83 23 83 83v678c0 60 -23 93 -83 93h-572zM1000 -84c0 -90 -29 -128 -119 -128h-632c-90 0 -129 38 -129 128v709c0 83 48 129 129 129
h602c90 0 149 -39 149 -129v-709z" />
    <glyph glyph-name="ucircumflex" unicode="&#xfb;" 
d="M543 548.8c25.3 -40.7 56 -77 86.8 -111.1l-20.8 -15.5c-35.2 22 -59.4 38.6 -88 68.3c-30.8 -31.9 -54 -46.3 -87 -68.3l-20.8 15.5c29.7 34.1 62.6 71.5 86.8 111.1h43zM588 91c-42 -45 -65 -56 -96 -56c-74 0 -117 51 -117 102v93c0 56 -1 92 -7 134l1 3s25 -3 50 -3
c27 0 51 3 51 3l1 -3c-7 -39 -7 -78 -7 -134v-68c0 -67 25 -79 48 -79c33 0 57 33 76 56v91c0 56 -1 92 -7 134l1 3s25 -3 50 -3c27 0 51 3 51 3l1 -3c-7 -39 -7 -78 -7 -134v-43c0 -57 6 -112 12 -144l-1 -3c-10 2 -38 3 -48 3c-11 0 -30 -1 -40 -3c-4 0 -7 1 -7 3l-3 48
h-2zM249 718c-60 0 -93 -33 -93 -93v-678c0 -60 33 -83 93 -83h572c60 0 83 23 83 83v678c0 60 -23 93 -83 93h-572zM1000 -84c0 -90 -29 -128 -119 -128h-632c-90 0 -129 38 -129 128v709c0 83 48 129 129 129h602c90 0 149 -39 149 -129v-709z" />
    <glyph glyph-name="ebreve" unicode="&#x115;" 
d="M453 550c1 -40 33 -70 81 -70c35 0 78 22 80 70l24 -21c-8 -79 -66 -107 -104 -107c-61 0 -101 46 -106 107zM463 259h107c8 0 11 4 11 10c0 54 -19 67 -47 67c-17 0 -60 -10 -71 -77zM666 129c11 -6 16 -15 16 -26c-29 -39 -85 -67 -139 -67c-112 0 -177 71 -177 157
c0 114 97 180 168 180c100 0 142 -71 142 -134c0 -9 -5 -13 -13 -13h-202c0 -106 54 -139 97 -139c41 0 82 14 108 42zM249 718c-60 0 -93 -33 -93 -93v-678c0 -60 33 -83 93 -83h572c60 0 83 23 83 83v678c0 60 -23 93 -83 93h-572zM1000 -84c0 -90 -29 -128 -119 -128
h-632c-90 0 -129 38 -129 128v709c0 83 48 129 129 129h602c90 0 149 -39 149 -129v-709z" />
    <glyph glyph-name="Edotaccent" unicode="&#x116;" 
d="M461 626c0 28 23 52 52 52s52 -24 52 -52s-23 -52 -52 -52s-52 24 -52 52zM453 191c0 -13 1 -85 6 -103c101 0 212 9 212 9l1 -3c0 -6 -1 -19 -1 -26c0 -8 1 -17 1 -27l-1 -3c-12 2 -29 3 -45 3h-221c-26 0 -55 -3 -55 -3v3c6 40 7 93 7 150v183c0 57 -1 108 -7 150l1 3
s29 -3 54 -3h213c16 0 33 1 45 3l2 -3c-1 -10 -2 -20 -2 -26c0 -7 1 -17 2 -23l-2 -3s-103 9 -204 9c-5 -18 -6 -94 -6 -107v-58c89 0 123 4 167 7l3 -2c-2 -7 -3 -17 -3 -24s1 -18 3 -25l-3 -2c-51 5 -131 8 -167 8v-87zM249 718c-60 0 -93 -33 -93 -93v-678
c0 -60 33 -83 93 -83h572c60 0 83 23 83 83v678c0 60 -23 93 -83 93h-572zM1000 -84c0 -90 -29 -128 -119 -128h-632c-90 0 -129 38 -129 128v709c0 83 48 129 129 129h602c90 0 149 -39 149 -129v-709z" />
    <glyph glyph-name="edotaccent" unicode="&#x117;" 
d="M474 489c0 28 23 52 52 52s52 -24 52 -52s-23 -52 -52 -52s-52 24 -52 52zM463 259h107c8 0 11 4 11 10c0 54 -19 67 -47 67c-17 0 -60 -10 -71 -77zM666 129c11 -6 16 -15 16 -26c-29 -39 -85 -67 -139 -67c-112 0 -177 71 -177 157c0 114 97 180 168 180
c100 0 142 -71 142 -134c0 -9 -5 -13 -13 -13h-202c0 -106 54 -139 97 -139c41 0 82 14 108 42zM249 718c-60 0 -93 -33 -93 -93v-678c0 -60 33 -83 93 -83h572c60 0 83 23 83 83v678c0 60 -23 93 -83 93h-572zM1000 -84c0 -90 -29 -128 -119 -128h-632
c-90 0 -129 38 -129 128v709c0 83 48 129 129 129h602c90 0 149 -39 149 -129v-709z" />
    <glyph glyph-name="Eogonek" unicode="&#x118;" 
d="M543 -125c-39 0 -69 23 -69 64c0 34.2 28.4 76.5 71.5 102h-140.5c-26 0 -55 -3 -55 -3v3c6 40 7 93 7 150v183c0 57 -1 108 -7 150l1 3s29 -3 54 -3h213c16 0 33 1 45 3l2 -3c-1 -10 -2 -20 -2 -26c0 -7 1 -17 2 -23l-2 -3s-103 9 -204 9c-5 -18 -6 -94 -6 -107v-58
c89 0 123 4 167 7l3 -2c-2 -7 -3 -17 -3 -24s1 -18 3 -25l-3 -2c-51 5 -131 8 -167 8v-87c0 -13 1 -85 6 -103c101 0 212 9 212 9l1 -3c0 -6 -1 -19 -1 -26c0 -8 1 -17 1 -27l-1 -3c-12 2 -29 3 -45 3h-25.4c-49.4 -10.3 -82.6 -58.4 -82.6 -93c0 -24 17 -44 44 -44
c22 0 38 11 52 27l12 -6c-18 -35 -56 -50 -83 -50zM249 718c-60 0 -93 -33 -93 -93v-678c0 -60 33 -83 93 -83h572c60 0 83 23 83 83v678c0 60 -23 93 -83 93h-572zM1000 -84c0 -90 -29 -128 -119 -128h-632c-90 0 -129 38 -129 128v709c0 83 48 129 129 129h602
c90 0 149 -39 149 -129v-709z" />
    <glyph glyph-name="eogonek" unicode="&#x119;" 
d="M463 259h107c8 0 11 4 11 10c0 54 -19 67 -47 67c-17 0 -60 -10 -71 -77zM666 129c11 -6 16 -15 16 -26c-11.8 -15.9 -28.1 -29.9 -46.9 -41c-28.4 -29.9 -44.1 -54 -44.1 -87c0 -16 12 -32 31 -32c13 0 29 11 40 22l2 -1l11 -12c-20 -25 -49 -42 -74 -42
c-37 0 -60 22 -60 57c0 26 13 50.2 31.7 71.7c-9.90002 -1.8 -19.8 -2.7 -29.7 -2.7c-112 0 -177 71 -177 157c0 114 97 180 168 180c100 0 142 -71 142 -134c0 -9 -5 -13 -13 -13h-202c0 -106 54 -139 97 -139c41 0 82 14 108 42zM249 718c-60 0 -93 -33 -93 -93v-678
c0 -60 33 -83 93 -83h572c60 0 83 23 83 83v678c0 60 -23 93 -83 93h-572zM1000 -84c0 -90 -29 -128 -119 -128h-632c-90 0 -129 38 -129 128v709c0 83 48 129 129 129h602c90 0 149 -39 149 -129v-709z" />
    <glyph glyph-name="Ecaron" unicode="&#x11a;" 
d="M495 568c-22 28 -48 51 -76 72l12 15c30 -13 55 -27 80 -46c28 19 52 34 80 46l12 -15c-29 -22 -53 -46 -76 -72h-32zM453 191c0 -13 1 -85 6 -103c101 0 212 9 212 9l1 -3c0 -6 -1 -19 -1 -26c0 -8 1 -17 1 -27l-1 -3c-12 2 -29 3 -45 3h-221c-26 0 -55 -3 -55 -3v3
c6 40 7 93 7 150v183c0 57 -1 108 -7 150l1 3s29 -3 54 -3h213c16 0 33 1 45 3l2 -3c-1 -10 -2 -20 -2 -26c0 -7 1 -17 2 -23l-2 -3s-103 9 -204 9c-5 -18 -6 -94 -6 -107v-58c89 0 123 4 167 7l3 -2c-2 -7 -3 -17 -3 -24s1 -18 3 -25l-3 -2c-51 5 -131 8 -167 8v-87z
M249 718c-60 0 -93 -33 -93 -93v-678c0 -60 33 -83 93 -83h572c60 0 83 23 83 83v678c0 60 -23 93 -83 93h-572zM1000 -84c0 -90 -29 -128 -119 -128h-632c-90 0 -129 38 -129 128v709c0 83 48 129 129 129h602c90 0 149 -39 149 -129v-709z" />
    <glyph glyph-name="ecaron" unicode="&#x11b;" 
d="M545 431h-38c-22 35 -50 67 -76 97l18 14c29 -21 48 -35 76 -63c26 27 48 42 77 63l18 -14c-27 -30 -54 -61 -75 -97zM463 259h107c8 0 11 4 11 10c0 54 -19 67 -47 67c-17 0 -60 -10 -71 -77zM666 129c11 -6 16 -15 16 -26c-29 -39 -85 -67 -139 -67
c-112 0 -177 71 -177 157c0 114 97 180 168 180c100 0 142 -71 142 -134c0 -9 -5 -13 -13 -13h-202c0 -106 54 -139 97 -139c41 0 82 14 108 42zM249 718c-60 0 -93 -33 -93 -93v-678c0 -60 33 -83 93 -83h572c60 0 83 23 83 83v678c0 60 -23 93 -83 93h-572zM1000 -84
c0 -90 -29 -128 -119 -128h-632c-90 0 -129 38 -129 128v709c0 83 48 129 129 129h602c90 0 149 -39 149 -129v-709z" />
    <glyph glyph-name="Gcircumflex" unicode="&#x11c;" 
d="M557.5 663.3c24.2 -29.7 54 -56.1 83.7 -78.1l-13.2 -17.5c-33 15.4 -60.5 30.7 -88 51.6c-30.8 -22 -57.2 -37.3 -88 -51.6l-12.2 17.5c30.8 23.1 56.1 49.5 82.5 78.1h35.2zM664 129c0 56 -1 99 -7 142l1 3s29 -3 54 -3c26 0 55 3 55 3v-3c-6 -39 -7 -71 -7 -127
c0 -25 3 -35 7 -41v-2c-50 -42 -132 -67 -220 -67c-173.1 0 -253 118 -253 247c0 165 108 253 267 253c91 0 179 -33 179 -33l2 -3c-9 -36 -13 -59 -15 -97l-19 -1c-31 62 -90 93 -158 93c-92 0 -148 -75 -148 -207c0 -99 29 -211 162 -211c41 0 75 4 100 28v26zM249 718
c-60 0 -93 -33 -93 -93v-678c0 -60 33 -83 93 -83h572c60 0 83 23 83 83v678c0 60 -23 93 -83 93h-572zM1000 -84c0 -90 -29 -128 -119 -128h-632c-90 0 -129 38 -129 128v709c0 83 48 129 129 129h602c90 0 149 -39 149 -129v-709z" />
    <glyph glyph-name="gcircumflex" unicode="&#x11d;" 
d="M536 563.8c25.3 -40.7 56 -77 86.8 -111.1l-20.8 -15.5c-35.2 22 -59.4 38.6 -88 68.3c-30.8 -31.9 -54 -46.3 -87 -68.3l-20.8 15.5c29.7 34.1 62.6 71.5 86.8 111.1h43zM653 286c0 -61 -48 -111 -135 -111c-25 0 -43 2 -58 11l-6 3c-8 -13 -12 -30 -12 -45
c0 -33 22 -33 43 -33c4 0 11 1 22 2c17 2 34 4 47 4c69 0 153 -22 153 -99c0 -81 -121 -127 -217 -127c-55 0 -130 20 -130 85c0 33 28 67 66 91c-22 6 -42 26 -42 58c0 25 11 59 31 77l-4 5c-17 13 -31 40 -31 78c0 64 58 114 139 114c16 0 31 -3 44 -7c56 3 98 11 134 14
l3 -2c-2 -7 -3 -17 -3 -24s1 -15 3 -22l-3 -2c-27.1 2.60001 -60.9 5.20001 -84.4 7.20001c23.7 -17.4 40.4 -48.2 40.4 -77.2zM573 279c0 56 -17 87 -62 87c-39 0 -50 -36 -50 -70c0 -48 10 -89 59 -89c27 0 53 18 53 72zM249 718c-60 0 -93 -33 -93 -93v-678
c0 -60 33 -83 93 -83h572c60 0 83 23 83 83v678c0 60 -23 93 -83 93h-572zM1000 -84c0 -90 -29 -128 -119 -128h-632c-90 0 -129 38 -129 128v709c0 83 48 129 129 129h602c90 0 149 -39 149 -129v-709zM476.7 54c-27 -21.5 -35.7 -38.4 -35.7 -63c0 -51 44 -69 70 -69
c64 0 119 33 119 79c0 52 -60 56 -102 56c-9.90002 0 -29.6 -2.9 -51.3 -3zM477.4 54.5c1.60001 0.299999 3.10001 0.5 0.600006 0.5c-0.200012 -0.200001 -0.399994 -0.299999 -0.600006 -0.5z" />
    <glyph glyph-name="Gbreve" unicode="&#x11e;" 
d="M650 675c-11 -69 -52 -95 -101 -95c-55 0 -99 33 -102 95h25c6 -29 37 -46 77 -46c37 0 72 17 77 46h24zM664 129c0 56 -1 99 -7 142l1 3s29 -3 54 -3c26 0 55 3 55 3v-3c-6 -39 -7 -71 -7 -127c0 -25 3 -35 7 -41v-2c-50 -42 -132 -67 -220 -67
c-173.1 0 -253 118 -253 247c0 165 108 253 267 253c91 0 179 -33 179 -33l2 -3c-9 -36 -13 -59 -15 -97l-19 -1c-31 62 -90 93 -158 93c-92 0 -148 -75 -148 -207c0 -99 29 -211 162 -211c41 0 75 4 100 28v26zM249 718c-60 0 -93 -33 -93 -93v-678c0 -60 33 -83 93 -83
h572c60 0 83 23 83 83v678c0 60 -23 93 -83 93h-572zM1000 -84c0 -90 -29 -128 -119 -128h-632c-90 0 -129 38 -129 128v709c0 83 48 129 129 129h602c90 0 149 -39 149 -129v-709z" />
    <glyph glyph-name="gbreve" unicode="&#x11f;" 
d="M427 567c1 -40 33 -70 81 -70c35 0 78 22 80 70l24 -21c-8 -79 -66 -107 -104 -107c-61 0 -101 46 -106 107zM653 286c0 -61 -48 -111 -135 -111c-25 0 -43 2 -58 11l-6 3c-8 -13 -12 -30 -12 -45c0 -33 22 -33 43 -33c4 0 11 1 22 2c17 2 34 4 47 4
c69 0 153 -22 153 -99c0 -81 -121 -127 -217 -127c-55 0 -130 20 -130 85c0 33 28 67 66 91c-22 6 -42 26 -42 58c0 25 11 59 31 77l-4 5c-17 13 -31 40 -31 78c0 64 58 114 139 114c16 0 31 -3 44 -7c56 3 98 11 134 14l3 -2c-2 -7 -3 -17 -3 -24s1 -15 3 -22l-3 -2
c-27.1 2.60001 -60.9 5.20001 -84.4 7.20001c23.7 -17.4 40.4 -48.2 40.4 -77.2zM573 279c0 56 -17 87 -62 87c-39 0 -50 -36 -50 -70c0 -48 10 -89 59 -89c27 0 53 18 53 72zM249 718c-60 0 -93 -33 -93 -93v-678c0 -60 33 -83 93 -83h572c60 0 83 23 83 83v678
c0 60 -23 93 -83 93h-572zM1000 -84c0 -90 -29 -128 -119 -128h-632c-90 0 -129 38 -129 128v709c0 83 48 129 129 129h602c90 0 149 -39 149 -129v-709zM476.7 54c-27 -21.5 -35.7 -38.4 -35.7 -63c0 -51 44 -69 70 -69c64 0 119 33 119 79c0 52 -60 56 -102 56
c-9.90002 0 -29.6 -2.9 -51.3 -3zM477.4 54.5c1.60001 0.299999 3.10001 0.5 0.600006 0.5c-0.200012 -0.200001 -0.399994 -0.299999 -0.600006 -0.5z" />
    <glyph glyph-name="Gdotaccent" unicode="&#x120;" 
d="M493 626c0 28 23 52 52 52s52 -24 52 -52s-23 -52 -52 -52s-52 24 -52 52zM664 129c0 56 -1 99 -7 142l1 3s29 -3 54 -3c26 0 55 3 55 3v-3c-6 -39 -7 -71 -7 -127c0 -25 3 -35 7 -41v-2c-50 -42 -132 -67 -220 -67c-173.1 0 -253 118 -253 247c0 165 108 253 267 253
c91 0 179 -33 179 -33l2 -3c-9 -36 -13 -59 -15 -97l-19 -1c-31 62 -90 93 -158 93c-92 0 -148 -75 -148 -207c0 -99 29 -211 162 -211c41 0 75 4 100 28v26zM249 718c-60 0 -93 -33 -93 -93v-678c0 -60 33 -83 93 -83h572c60 0 83 23 83 83v678c0 60 -23 93 -83 93h-572z
M1000 -84c0 -90 -29 -128 -119 -128h-632c-90 0 -129 38 -129 128v709c0 83 48 129 129 129h602c90 0 149 -39 149 -129v-709z" />
    <glyph glyph-name="gdotaccent" unicode="&#x121;" 
d="M461 508c0 28 23 52 52 52s52 -24 52 -52s-23 -52 -52 -52s-52 24 -52 52zM653 286c0 -61 -48 -111 -135 -111c-25 0 -43 2 -58 11l-6 3c-8 -13 -12 -30 -12 -45c0 -33 22 -33 43 -33c4 0 11 1 22 2c17 2 34 4 47 4c69 0 153 -22 153 -99c0 -81 -121 -127 -217 -127
c-55 0 -130 20 -130 85c0 33 28 67 66 91c-22 6 -42 26 -42 58c0 25 11 59 31 77l-4 5c-17 13 -31 40 -31 78c0 64 58 114 139 114c16 0 31 -3 44 -7c56 3 98 11 134 14l3 -2c-2 -7 -3 -17 -3 -24s1 -15 3 -22l-3 -2c-27.1 2.60001 -60.9 5.20001 -84.4 7.20001
c23.7 -17.4 40.4 -48.2 40.4 -77.2zM573 279c0 56 -17 87 -62 87c-39 0 -50 -36 -50 -70c0 -48 10 -89 59 -89c27 0 53 18 53 72zM249 718c-60 0 -93 -33 -93 -93v-678c0 -60 33 -83 93 -83h572c60 0 83 23 83 83v678c0 60 -23 93 -83 93h-572zM1000 -84
c0 -90 -29 -128 -119 -128h-632c-90 0 -129 38 -129 128v709c0 83 48 129 129 129h602c90 0 149 -39 149 -129v-709zM476.7 54c-27 -21.5 -35.7 -38.4 -35.7 -63c0 -51 44 -69 70 -69c64 0 119 33 119 79c0 52 -60 56 -102 56c-9.90002 0 -29.6 -2.9 -51.3 -3zM477.4 54.5
c1.60001 0.299999 3.10001 0.5 0.600006 0.5c-0.200012 -0.200001 -0.399994 -0.299999 -0.600006 -0.5z" />
    <glyph glyph-name="Gcommaaccent" unicode="&#x122;" 
d="M550 10c30 0 47 -28 47 -54c0 -20 -13 -77 -80 -80l-3 13c57 11 59 55 59 59c0 3 -1 6 -2 8c-8 -5 -15 -7 -21 -7c-31 0 -38 19 -38 31s11 30 38 30zM664 129c0 56 -1 99 -7 142l1 3s29 -3 54 -3c26 0 55 3 55 3v-3c-6 -39 -7 -71 -7 -127c0 -25 3 -35 7 -41v-2
c-50 -42 -132 -67 -220 -67c-173.1 0 -253 118 -253 247c0 165 108 253 267 253c91 0 179 -33 179 -33l2 -3c-9 -36 -13 -59 -15 -97l-19 -1c-31 62 -90 93 -158 93c-92 0 -148 -75 -148 -207c0 -99 29 -211 162 -211c41 0 75 4 100 28v26zM249 718c-60 0 -93 -33 -93 -93
v-678c0 -60 33 -83 93 -83h572c60 0 83 23 83 83v678c0 60 -23 93 -83 93h-572zM1000 -84c0 -90 -29 -128 -119 -128h-632c-90 0 -129 38 -129 128v709c0 83 48 129 129 129h602c90 0 149 -39 149 -129v-709z" />
    <glyph glyph-name="gcommaaccent" unicode="&#x123;" 
d="M526 442c-30 0 -47 28 -47 55c0 20 13 77 80 80l3 -13c-57 -11 -59 -56 -59 -59s1 -6 1 -8c9 5 16 7 22 7c30 0 38 -19 38 -32c0 -12 -12 -30 -38 -30zM653 286c0 -61 -48 -111 -135 -111c-25 0 -43 2 -58 11l-6 3c-8 -13 -12 -30 -12 -45c0 -33 22 -33 43 -33
c4 0 11 1 22 2c17 2 34 4 47 4c69 0 153 -22 153 -99c0 -81 -121 -127 -217 -127c-55 0 -130 20 -130 85c0 33 28 67 66 91c-22 6 -42 26 -42 58c0 25 11 59 31 77l-4 5c-17 13 -31 40 -31 78c0 64 58 114 139 114c16 0 31 -3 44 -7c56 3 98 11 134 14l3 -2
c-2 -7 -3 -17 -3 -24s1 -15 3 -22l-3 -2c-27.1 2.60001 -60.9 5.20001 -84.4 7.20001c23.7 -17.4 40.4 -48.2 40.4 -77.2zM573 279c0 56 -17 87 -62 87c-39 0 -50 -36 -50 -70c0 -48 10 -89 59 -89c27 0 53 18 53 72zM249 718c-60 0 -93 -33 -93 -93v-678
c0 -60 33 -83 93 -83h572c60 0 83 23 83 83v678c0 60 -23 93 -83 93h-572zM1000 -84c0 -90 -29 -128 -119 -128h-632c-90 0 -129 38 -129 128v709c0 83 48 129 129 129h602c90 0 149 -39 149 -129v-709zM476.7 54c-27 -21.5 -35.7 -38.4 -35.7 -63c0 -51 44 -69 70 -69
c64 0 119 33 119 79c0 52 -60 56 -102 56c-9.90002 0 -29.6 -2.9 -51.3 -3zM477.4 54.5c1.60001 0.299999 3.10001 0.5 0.600006 0.5c-0.200012 -0.200001 -0.399994 -0.299999 -0.600006 -0.5z" />
    <glyph glyph-name="Hcircumflex" unicode="&#x124;" 
d="M634 374c0 57 -2 108 -8 150l2 3s28 -3 54 -3s55 3 55 3l1 -3c-6 -39 -8 -93 -8 -150v-183c0 -57 2 -108 8 -150l-2 -3s-28 3 -54 3s-55 -3 -55 -3l-1 3c6 40 8 93 8 150v83h-210v-83c0 -57 2 -108 8 -150l-2 -3s-28 3 -54 3s-55 -3 -55 -3l-1 3c6 40 8 93 8 150v183
c0 57 -2 108 -8 150l2 3s28 -3 54 -3s55 3 55 3l1 -3c-6 -39 -8 -93 -8 -150v-61h210v61zM249 718c-60 0 -93 -33 -93 -93v-678c0 -60 33 -83 93 -83h572c60 0 83 23 83 83v678c0 60 -23 93 -83 93h-572zM1000 -84c0 -90 -29 -128 -119 -128h-632c-90 0 -129 38 -129 128
v709c0 83 48 129 129 129h602c90 0 149 -39 149 -129v-709zM544.5 652.3c24.2 -29.7 54 -56.1 83.7 -78.1l-13.2 -17.5c-33 15.4 -60.5 30.7 -88 51.6c-30.8 -22 -57.2 -37.3 -88 -51.6l-12.2 17.5c30.8 23.1 56.1 49.5 82.5 78.1h35.2z" />
    <glyph glyph-name="hcircumflex" unicode="&#x125;" 
d="M553.5 704.3c24.2 -29.7 54 -56.1 83.7 -78.1l-13.2 -17.5c-33 15.4 -60.5 30.7 -88 51.6c-30.8 -22 -57.2 -37.3 -88 -51.6l-12.2 17.5c30.8 23.1 56.1 49.5 82.5 78.1h35.2zM594 180v72c0 61 -14 73 -56 73c-22 0 -39 -20 -75 -55v-90c0 -57 1 -96 7 -139l-1 -2
s-25 2 -50 2c-27 0 -51 -2 -51 -2l-1 2c6 40 7 83 7 139v226c0 57 -1 109 -7 141l1 3c31 2 77 11 96 18c4 0 6 -2 6 -7c-5 -46 -7 -85 -7 -140v-106c50 50 79 59 109 59c54 0 111 -39 111 -116v-78c0 -57 1 -96 7 -139l-1 -2s-25 2 -51 2s-51 -2 -51 -2v2c6 40 7 83 7 139z
M249 718c-60 0 -93 -33 -93 -93v-678c0 -60 33 -83 93 -83h572c60 0 83 23 83 83v678c0 60 -23 93 -83 93h-572zM1000 -84c0 -90 -29 -128 -119 -128h-632c-90 0 -129 38 -129 128v709c0 83 48 129 129 129h602c90 0 149 -39 149 -129v-709z" />
    <glyph glyph-name="Hbar" unicode="&#x126;" 
d="M249 718c-60 0 -93 -33 -93 -93v-678c0 -60 33 -83 93 -83h572c60 0 83 23 83 83v678c0 60 -23 93 -83 93h-572zM1000 -84c0 -90 -29 -128 -119 -128h-632c-90 0 -129 38 -129 128v709c0 83 48 129 129 129h602c90 0 149 -39 149 -129v-709zM634 274h-210v-83
c0 -57 2 -108 8 -150l-2 -3s-28 3 -54 3s-55 -3 -55 -3l-1 3c6 40 8 93 8 150v183c0 32.5 -0.600006 63 -2.29999 91h-27.7v25h25.9c-1 11.9 -2.39999 23.2 -3.89999 34l2 3s28 -3 54 -3s55 3 55 3l1 -3c-1.60001 -10.4 -2.89999 -21.8 -4 -34h201.9
c-1 11.9 -2.40002 23.2 -3.90002 34l2 3s28 -3 54 -3s55 3 55 3l1 -3c-1.59998 -10.4 -2.90002 -21.8 -4 -34h25v-25h-26.8c-1.60004 -28 -2.20001 -59 -2.20001 -91v-183c0 -57 2 -108 8 -150l-2 -3s-28 3 -54 3s-55 -3 -55 -3l-1 3c6 40 8 93 8 150v83zM634 313v61
c0 32.5 -0.599976 63 -2.29999 91h-205.5c-1.60001 -28 -2.20001 -59 -2.20001 -91v-61h210z" />
    <glyph glyph-name="hbar" unicode="&#x127;" 
d="M594 180v72c0 61 -14 73 -56 73c-22 0 -39 -20 -75 -55v-90c0 -57 1 -96 7 -139l-1 -2s-25 2 -50 2c-27 0 -51 -2 -51 -2l-1 2c6 40 7 83 7 139v226c0 27.8 -0.299988 54.3 -1.20001 78h-53.8v30h52.1c-1 12.5 -2.30002 23.6 -4.10001 33l1 3c31 2 77 11 96 18
c4 0 6 -2 6 -7c-1.79999 -16.2 -3.10001 -31.5 -4.20001 -47h89.2v-30h-90.8c-0.800018 -19.3 -1.20001 -39.7 -1.20001 -63v-106c50 50 79 59 109 59c54 0 111 -39 111 -116v-78c0 -57 1 -96 7 -139l-1 -2s-25 2 -51 2s-51 -2 -51 -2v2c6 40 7 83 7 139zM249 718
c-60 0 -93 -33 -93 -93v-678c0 -60 33 -83 93 -83h572c60 0 83 23 83 83v678c0 60 -23 93 -83 93h-572zM1000 -84c0 -90 -29 -128 -119 -128h-632c-90 0 -129 38 -129 128v709c0 83 48 129 129 129h602c90 0 149 -39 149 -129v-709z" />
    <glyph glyph-name="Itilde" unicode="&#x128;" 
d="M582 614.1c18.7 0 28.7 6.60004 40.8 47.3l23 -7.70001c-11 -56.1 -35.2 -89.1 -74.8 -89.1c-19.8 0 -37.3 12.1 -53.8 24.2c-16.5 11 -33 22 -48.4 22c-22 0 -30.8 -12.1 -39.6 -44l-22 6.60004c12.1 56.1 31.8 86.9 68.1 86.9c26.4 0 45.2 -13.2 61.7 -26.4
c14.3 -11 28.5 -19.8 45 -19.8zM482 374c0 57 -2 108 -8 150l2 3s28 -3 54 -3s55 3 55 3l1 -3c-6 -39 -8 -93 -8 -150v-183c0 -57 2 -108 8 -150l-2 -3s-28 3 -54 3s-55 -3 -55 -3l-1 3c6 40 8 93 8 150v183zM249 718c-60 0 -93 -33 -93 -93v-678c0 -60 33 -83 93 -83h572
c60 0 83 23 83 83v678c0 60 -23 93 -83 93h-572zM1000 -84c0 -90 -29 -128 -119 -128h-632c-90 0 -129 38 -129 128v709c0 83 48 129 129 129h602c90 0 149 -39 149 -129v-709z" />
    <glyph glyph-name="itilde" unicode="&#x129;" horiz-adv-x="1120" 
d="M591.1 486.1c16.8 0 25.8 6.60001 36.7 47.3l20.8 -7.70001c-9.89996 -56.1 -31.8 -89.1 -67.4 -89.1c-17.8 0 -33.7 12.1 -48.5 24.2c-14.8 11 -29.6 22 -43.5 22c-19.8 0 -27.8 -12.1 -35.7 -44l-19.8 6.60001c10.9 56.1 28.7 86.9 61.4 86.9
c23.8 0 40.7 -13.2 55.5 -26.4c12.9 -11 25.7 -19.8 40.5 -19.8zM489 214c0 56 -2 99 -8 132l2 2c30 2 76 11 95 19c4 0 7 -2 7 -8c-6 -46 -8 -77 -8 -133v-53c0 -58 2 -93 8 -136l-2 -2s-25 2 -50 2c-26 0 -51 -2 -51 -2l-1 2c6 41 8 79 8 136v41zM249 718
c-60 0 -93 -33 -93 -93v-678c0 -60 33 -83 93 -83h572c60 0 83 23 83 83v678c0 60 -23 93 -83 93h-572zM1000 -84c0 -90 -29 -128 -119 -128h-632c-90 0 -129 38 -129 128v709c0 83 48 129 129 129h602c90 0 149 -39 149 -129v-709z" />
    <glyph glyph-name="Imacron" unicode="&#x12a;" 
d="M659 619h-205c-9 0 -12 7 -12 14c0 9 9 24 19 24h207c8 0 11 -7 11 -13c0 -10 -9 -25 -20 -25zM482 374c0 57 -2 108 -8 150l2 3s28 -3 54 -3s55 3 55 3l1 -3c-6 -39 -8 -93 -8 -150v-183c0 -57 2 -108 8 -150l-2 -3s-28 3 -54 3s-55 -3 -55 -3l-1 3c6 40 8 93 8 150v183
zM249 718c-60 0 -93 -33 -93 -93v-678c0 -60 33 -83 93 -83h572c60 0 83 23 83 83v678c0 60 -23 93 -83 93h-572zM1000 -84c0 -90 -29 -128 -119 -128h-632c-90 0 -129 38 -129 128v709c0 83 48 129 129 129h602c90 0 149 -39 149 -129v-709z" />
    <glyph glyph-name="imacron" unicode="&#x12b;" horiz-adv-x="1120" 
d="M631.9 473h-184.5c-8.10001 0 -10.8 7 -10.8 14c0 9 8.10001 24 17.1 24h186.3c7.20001 0 9.90002 -7 9.90002 -13c0 -10 -8.10004 -25 -18 -25zM489 214c0 56 -2 99 -8 132l2 2c30 2 76 11 95 19c4 0 7 -2 7 -8c-6 -46 -8 -77 -8 -133v-53c0 -58 2 -93 8 -136l-2 -2
s-25 2 -50 2c-26 0 -51 -2 -51 -2l-1 2c6 41 8 79 8 136v41zM249 718c-60 0 -93 -33 -93 -93v-678c0 -60 33 -83 93 -83h572c60 0 83 23 83 83v678c0 60 -23 93 -83 93h-572zM1000 -84c0 -90 -29 -128 -119 -128h-632c-90 0 -129 38 -129 128v709c0 83 48 129 129 129h602
c90 0 149 -39 149 -129v-709z" />
    <glyph glyph-name="Ibreve" unicode="&#x12c;" 
d="M642 674c-11 -69 -52 -95 -101 -95c-55 0 -99 33 -102 95h25c6 -29 37 -46 77 -46c37 0 72 17 77 46h24zM482 374c0 57 -2 108 -8 150l2 3s28 -3 54 -3s55 3 55 3l1 -3c-6 -39 -8 -93 -8 -150v-183c0 -57 2 -108 8 -150l-2 -3s-28 3 -54 3s-55 -3 -55 -3l-1 3
c6 40 8 93 8 150v183zM249 718c-60 0 -93 -33 -93 -93v-678c0 -60 33 -83 93 -83h572c60 0 83 23 83 83v678c0 60 -23 93 -83 93h-572zM1000 -84c0 -90 -29 -128 -119 -128h-632c-90 0 -129 38 -129 128v709c0 83 48 129 129 129h602c90 0 149 -39 149 -129v-709z" />
    <glyph glyph-name="ibreve" unicode="&#x12d;" horiz-adv-x="1120" 
d="M475.1 571c0.899994 -40 29.7 -70 72.9 -70c31.5 0 70.2 22 72 70l21.6 -21c-7.19995 -79 -59.4 -107 -93.6 -107c-54.9 0 -90.9 46 -95.4 107zM489 214c0 56 -2 99 -8 132l2 2c30 2 76 11 95 19c4 0 7 -2 7 -8c-6 -46 -8 -77 -8 -133v-53c0 -58 2 -93 8 -136l-2 -2
s-25 2 -50 2c-26 0 -51 -2 -51 -2l-1 2c6 41 8 79 8 136v41zM249 718c-60 0 -93 -33 -93 -93v-678c0 -60 33 -83 93 -83h572c60 0 83 23 83 83v678c0 60 -23 93 -83 93h-572zM1000 -84c0 -90 -29 -128 -119 -128h-632c-90 0 -129 38 -129 128v709c0 83 48 129 129 129h602
c90 0 149 -39 149 -129v-709z" />
    <glyph glyph-name="Iogonek" unicode="&#x12e;" 
d="M477 -126c-40 0 -70 23 -70 64c0 33.4 27.5 74.4 69.2 100.1c-0.800018 -0.0999985 -1.20001 -0.0999985 -1.20001 -0.0999985l-1 3c6 40 8 93 8 150v183c0 57 -2 108 -8 150l2 3s28 -3 54 -3s55 3 55 3l1 -3c-6 -39 -8 -93 -8 -150v-183c0 -57 2 -108 8 -150l-2 -3
s-21.7 2.3 -44.6 2.9c-52.1 -8.1 -87.4 -58.1 -87.4 -92.9c0 -24 17 -45 44 -45c22 0 38 11 52 27l12 -6c-18 -35 -56 -50 -83 -50zM249 718c-60 0 -93 -33 -93 -93v-678c0 -60 33 -83 93 -83h572c60 0 83 23 83 83v678c0 60 -23 93 -83 93h-572zM1000 -84
c0 -90 -29 -128 -119 -128h-632c-90 0 -129 38 -129 128v709c0 83 48 129 129 129h602c90 0 149 -39 149 -129v-709z" />
    <glyph glyph-name="iogonek" unicode="&#x12f;" 
d="M467 -112c-40 0 -69 23 -69 64c0 35.1 29.5 78.9 74.7 104.1c4.69998 36.6 6.29999 72.5 6.29999 123.9v41c0 56 -2 99 -8 132l2 2c30 2 76 11 95 19c4 0 7 -2 7 -8c-6 -46 -8 -77 -8 -133v-53c0 -58 2 -93 8 -136l-2 -2s-25 2 -50 2
c-9.59998 0 -19 -0.299999 -27.1 -0.599998c-32.9 -18.8 -52.9 -54.8 -52.9 -82.4c0 -24 16 -44 43 -44c22 0 38 11 52 27l12 -6c-18 -35 -56 -50 -83 -50zM249 718c-60 0 -93 -33 -93 -93v-678c0 -60 33 -83 93 -83h572c60 0 83 23 83 83v678c0 60 -23 93 -83 93h-572z
M1000 -84c0 -90 -29 -128 -119 -128h-632c-90 0 -129 38 -129 128v709c0 83 48 129 129 129h602c90 0 149 -39 149 -129v-709zM473 518c0 28 23 52 52 52s52 -24 52 -52s-23 -52 -52 -52s-52 24 -52 52z" />
    <glyph glyph-name="Idotaccent" unicode="&#x130;" 
d="M481 623c0 28 23 52 52 52s52 -24 52 -52s-23 -52 -52 -52s-52 24 -52 52zM482 374c0 57 -2 108 -8 150l2 3s28 -3 54 -3s55 3 55 3l1 -3c-6 -39 -8 -93 -8 -150v-183c0 -57 2 -108 8 -150l-2 -3s-28 3 -54 3s-55 -3 -55 -3l-1 3c6 40 8 93 8 150v183zM249 718
c-60 0 -93 -33 -93 -93v-678c0 -60 33 -83 93 -83h572c60 0 83 23 83 83v678c0 60 -23 93 -83 93h-572zM1000 -84c0 -90 -29 -128 -119 -128h-632c-90 0 -129 38 -129 128v709c0 83 48 129 129 129h602c90 0 149 -39 149 -129v-709z" />
    <glyph glyph-name="space" unicode=" " horiz-adv-x="250" 
 />
    <glyph glyph-name="ampersand" unicode="&#x26;" 
d="M494 434c0 -16 11 -49 31 -77c32 25 64 50 64 80c0 40 -16 64 -45 64c-25 0 -50 -20 -50 -67zM588 133c-36 49 -90 123 -107 150c-56 -36 -72 -67 -72 -114c0 -66 36 -104 74 -104c41 0 70 18 105 68zM630 198c44 69 59 122 64 167c8 -2 33 -2 41 -2c7 0 35 0 42 2
c-29 -50 -101 -181 -117 -206c21 -34 44 -79 67 -79c21 0 35 7 53 43l24 -17c-35 -64 -63 -72 -96 -72c-36 0 -57 12 -93 66c-34 -37 -72 -66 -138 -66c-90 0 -156 34 -156 120c0 55 30 95 144 161c-30 46 -46 82 -46 117c0 45 47 100 133 100c69 0 107 -31 107 -88
c0 -38 -47 -87 -111 -123c12 -22 36 -59 82 -123zM249 718c-60 0 -93 -33 -93 -93v-678c0 -60 33 -83 93 -83h572c60 0 83 23 83 83v678c0 60 -23 93 -83 93h-572zM1000 -84c0 -90 -29 -128 -119 -128h-632c-90 0 -129 38 -129 128v709c0 83 48 129 129 129h602
c90 0 149 -39 149 -129v-709z" />
    <glyph glyph-name="quotesingle" unicode="'" 
d="M520 399l-11 3s-24 120 -24 124c0 18 16 41 49 41c31 0 33 -14 33 -28c0 -11 -27 -135 -27 -135zM249 718c-60 0 -93 -33 -93 -93v-678c0 -60 33 -83 93 -83h572c60 0 83 23 83 83v678c0 60 -23 93 -83 93h-572zM1000 -84c0 -90 -29 -128 -119 -128h-632
c-90 0 -129 38 -129 128v709c0 83 48 129 129 129h602c90 0 149 -39 149 -129v-709z" />
    <glyph glyph-name="comma" unicode="," 
d="M489 32v4c8 21 20 34 44 44h4c29 -11 53 -33 53 -86c0 -58 -50 -99 -99 -108c-6 5 -7 12 -4 20c43 12 70 48 70 66c0 20 -13 22 -24 22c-25 5 -37 11 -44 38zM249 718c-60 0 -93 -33 -93 -93v-678c0 -60 33 -83 93 -83h572c60 0 83 23 83 83v678c0 60 -23 93 -83 93h-572
zM1000 -84c0 -90 -29 -128 -119 -128h-632c-90 0 -129 38 -129 128v709c0 83 48 129 129 129h602c90 0 149 -39 149 -129v-709z" />
    <glyph glyph-name="hyphen" unicode="-" 
d="M627 232h-199c-7 0 -12 6 -12 13c0 12 10 41 19 41h202c7 0 11 -10 11 -16c0 -9 -11 -38 -21 -38zM249 718c-60 0 -93 -33 -93 -93v-678c0 -60 33 -83 93 -83h572c60 0 83 23 83 83v678c0 60 -23 93 -83 93h-572zM1000 -84c0 -90 -29 -128 -119 -128h-632
c-90 0 -129 38 -129 128v709c0 83 48 129 129 129h602c90 0 149 -39 149 -129v-709z" />
    <glyph glyph-name="period" unicode="." 
d="M460 79v3c9 22 21 35 46 45h2c24 -9 37 -21 46 -45v-3c-10 -27 -22 -39 -46 -45h-2c-27 6 -38 18 -46 45zM249 718c-60 0 -93 -33 -93 -93v-678c0 -60 33 -83 93 -83h572c60 0 83 23 83 83v678c0 60 -23 93 -83 93h-572zM1000 -84c0 -90 -29 -128 -119 -128h-632
c-90 0 -129 38 -129 128v709c0 83 48 129 129 129h602c90 0 149 -39 149 -129v-709z" />
    <glyph glyph-name="zero" unicode="0" 
d="M249 718c-60 0 -93 -33 -93 -93v-678c0 -60 33 -83 93 -83h572c60 0 83 23 83 83v678c0 60 -23 93 -83 93h-572zM1000 -84c0 -90 -29 -128 -119 -128h-632c-90 0 -129 38 -129 128v709c0 83 48 129 129 129h602c90 0 149 -39 149 -129v-709zM528 464
c-34 0 -71 -28 -71 -212c0 -65 8 -186 69 -186c63 0 70 139 70 215c0 81 -5 183 -68 183zM525 34c-106 0 -156 106 -156 226c0 147 79 236 159 236s156 -83 156 -229c0 -175 -84 -233 -159 -233z" />
    <glyph glyph-name="I" unicode="I" 
d="M482 374c0 57 -2 108 -8 150l2 3s28 -3 54 -3s55 3 55 3l1 -3c-6 -39 -8 -93 -8 -150v-183c0 -57 2 -108 8 -150l-2 -3s-28 3 -54 3s-55 -3 -55 -3l-1 3c6 40 8 93 8 150v183zM249 718c-60 0 -93 -33 -93 -93v-678c0 -60 33 -83 93 -83h572c60 0 83 23 83 83v678
c0 60 -23 93 -83 93h-572zM1000 -84c0 -90 -29 -128 -119 -128h-632c-90 0 -129 38 -129 128v709c0 83 48 129 129 129h602c90 0 149 -39 149 -129v-709z" />
    <glyph glyph-name="J" unicode="J" 
d="M513 221v153c0 56 -1 107 -7 150l1 2s29 -2 54 -2c27 0 55 2 55 2l1 -2c-6 -40 -8 -94 -8 -150v-137c0 -86 0 -118 -47 -166c-33 -33.7 -78 -37 -118 -37c-17.2 0 -58.9 5 -73 12l-1 3c8 14 12 49 15 69l22 1c8 -15 22 -34 43 -34c60 0 63 70 63 136zM249 718
c-60 0 -93 -33 -93 -93v-678c0 -60 33 -83 93 -83h572c60 0 83 23 83 83v678c0 60 -23 93 -83 93h-572zM1000 -84c0 -90 -29 -128 -119 -128h-632c-90 0 -129 38 -129 128v709c0 83 48 129 129 129h602c90 0 149 -39 149 -129v-709z" />
    <glyph glyph-name="K" unicode="K" 
d="M342 375c0 57 -2 108 -8 150l2 3s28 -3 54 -3s55 3 55 3l1 -3c-6 -39 -8 -93 -8 -150v-70.3c3.29999 1.09998 7 2.79999 10 5.29999c66 58 132 141 199 218c9 -3 49 -3 59 -3c11 0 41 0 53 3c-66 -58 -177 -162 -228 -221v-1l236 -267c-15 3 -48 3 -62 3
c-13 0 -56 0 -69 -3c-67 84 -160 210 -190 240c-2.10001 1.70001 -5.10001 3 -8 4v-91c0 -57 2 -108 8 -150l-2 -3s-28 3 -54 3s-55 -3 -55 -3l-1 3c6 40 8 93 8 150v183zM249 718c-60 0 -93 -33 -93 -93v-678c0 -60 33 -83 93 -83h572c60 0 83 23 83 83v678
c0 60 -23 93 -83 93h-572zM1000 -84c0 -90 -29 -128 -119 -128h-632c-90 0 -129 38 -129 128v709c0 83 48 129 129 129h602c90 0 149 -39 149 -129v-709z" />
    <glyph glyph-name="L" unicode="L" 
d="M490 191c0 -13 1 -85 6 -103c101 0 212 9 212 9l1 -3c-1 -6 -1 -17 -1 -25c0 -7 0 -18 1 -28l-1 -3c-12 2 -30 3 -45 3h-221c-25 0 -55 -3 -55 -3v3c6 40 7 93 7 150v183c0 57 -2 108 -8 150l1 3s30 -3 55 -3c26 0 55 3 55 3l1 -3c-6 -39 -8 -93 -8 -150v-183zM249 718
c-60 0 -93 -33 -93 -93v-678c0 -60 33 -83 93 -83h572c60 0 83 23 83 83v678c0 60 -23 93 -83 93h-572zM1000 -84c0 -90 -29 -128 -119 -128h-632c-90 0 -129 38 -129 128v709c0 83 48 129 129 129h602c90 0 149 -39 149 -129v-709z" />
    <glyph glyph-name="M" unicode="M" 
d="M309 538h52c58.3 -121.1 118.3 -237.1 183.1 -357.5l192.9 357.5h48c21 -182 35 -336 58 -499c-11 2 -34 2 -45 2s-33 0 -45 -2c-10 124 -19 239 -34 357c-63 -116 -126 -230 -181 -355h-30c-49.6 106.9 -108.3 218.4 -164.9 329.2c-13.5 -114 -29.2 -258.6 -30.1 -331.2
c-8 2 -28 2 -36 2c-9 0 -28 0 -36 -2c24 158 53 348 68 499zM249 718c-60 0 -93 -33 -93 -93v-678c0 -60 33 -83 93 -83h572c60 0 83 23 83 83v678c0 60 -23 93 -83 93h-572zM1000 -84c0 -90 -29 -128 -119 -128h-632c-90 0 -129 38 -129 128v709c0 83 48 129 129 129h602
c90 0 149 -39 149 -129v-709z" />
    <glyph glyph-name="N" unicode="N" 
d="M322 375c0 56 -2 107 -8 150l2 2s28 -2 53 -2c3 0 25 1 25 1l258 -333c32 -42 39 -60 39 -19v201c0 56 -2 107 -8 150l-13 2s30 -2 48 -2c17 0 20 2 20 2l16 -2c-6 -40 -8 -94 -8 -150v-318c0 -15 -20 -24 -30 -24c-37 0 -55 6 -91 52l-235 297c-28 36 -14 34 -14 -12
v-179c0 -56 2 -108 8 -150l-2 -2s-15 2 -33 2c-17 0 -34 -2 -34 -2l-1 2c6 40 8 94 8 150v184zM249 718c-60 0 -93 -33 -93 -93v-678c0 -60 33 -83 93 -83h572c60 0 83 23 83 83v678c0 60 -23 93 -83 93h-572zM1000 -84c0 -90 -29 -128 -119 -128h-632
c-90 0 -129 38 -129 128v709c0 83 48 129 129 129h602c90 0 149 -39 149 -129v-709z" />
    <glyph glyph-name="O" unicode="O" 
d="M528 494c-72 0 -136 -50 -136 -208c0 -144 71 -212 161 -212c86 0 134 65 134 200c0 156 -53 220 -159 220zM796 288c0 -150 -97 -254 -258 -254c-148 0 -255 98 -255 240c0 146 102 260 255 260c159 0 258 -98 258 -246zM249 718c-60 0 -93 -33 -93 -93v-678
c0 -60 33 -83 93 -83h572c60 0 83 23 83 83v678c0 60 -23 93 -83 93h-572zM1000 -84c0 -90 -29 -128 -119 -128h-632c-90 0 -129 38 -129 128v709c0 83 48 129 129 129h602c90 0 149 -39 149 -129v-709z" />
    <glyph glyph-name="P" unicode="P" 
d="M463 465v-173c10 -5 33 -7 52 -7c73 0 91 26 91 107c0 95 -31 106 -83 106c-54 0 -60 -11 -60 -33zM369 375c0 56 -2 107 -8 150l2 2s27 -2 52 -2c23 0 94 5 113 5c139 0 183 -80 183 -124c0 -64 -56 -153 -192 -153c-27 0 -39 2 -56 7v-69c0 -56 2 -107 8 -150l-2 -2
s-28 2 -54 2s-53 -2 -53 -2l-1 2c6 41 8 94 8 150v184zM249 718c-60 0 -93 -33 -93 -93v-678c0 -60 33 -83 93 -83h572c60 0 83 23 83 83v678c0 60 -23 93 -83 93h-572zM1000 -84c0 -90 -29 -128 -119 -128h-632c-90 0 -129 38 -129 128v709c0 83 48 129 129 129h602
c90 0 149 -39 149 -129v-709z" />
    <glyph glyph-name="Q" unicode="Q" 
d="M508 495c-72 0 -136 -51 -136 -209c0 -144 71 -213 161 -213c86 0 134 66 134 201c0 156 -53 221 -159 221zM249 718c-60 0 -93 -33 -93 -93v-678c0 -60 33 -83 93 -83h572c60 0 83 23 83 83v678c0 60 -23 93 -83 93h-572zM1000 -84c0 -90 -29 -128 -119 -128h-632
c-90 0 -129 38 -129 128v709c0 83 48 129 129 129h602c90 0 149 -39 149 -129v-709zM684.3 85.5c41.8 -24.8 98.5 -60.8 171.7 -85.5v-5c-27 -14 -56 -38 -71 -49c-79.3 45.3 -76.6 58.5 -162.7 105.3c-30.6 -11.3 -65.5 -17.3 -104.3 -17.3c-148 0 -252 98 -252 240
c0 146 99 260 252 260c159 0 255 -98 255 -246c0 -86.5 -31.3 -157.7 -88.7 -202.5z" />
    <glyph glyph-name="R" unicode="R" 
d="M516 494c-53 0 -62 -11 -62 -33v-166h36c73 0 107 11 107 105c0 88 -35 94 -81 94zM454 256v-65c0 -56 1 -107 7 -150l-1 -2s-29 2 -54 2c-26 0 -55 -2 -55 -2l-1 2c6 41 8 94 8 150v184c0 56 -2 107 -8 150l2 2s28 -2 54 -2c22 0 91 5 109 5c93 0 186 -26 186 -130
c0 -78.7 -50.4 -114.6 -112.9 -130.9c48 -62.9 128.6 -185 166.9 -228.1l-2 -2c-15 2 -40 2 -55 2c-14 0 -36 0 -51 -2c-8 25 -42 80 -80 134c-20.5 29.4 -42.5 59.5 -64.7 84.1c-16.6 -0.899994 -32.9 -1.10001 -48.3 -1.10001zM249 718c-60 0 -93 -33 -93 -93v-678
c0 -60 33 -83 93 -83h572c60 0 83 23 83 83v678c0 60 -23 93 -83 93h-572zM1000 -84c0 -90 -29 -128 -119 -128h-632c-90 0 -129 38 -129 128v709c0 83 48 129 129 129h602c90 0 149 -39 149 -129v-709z" />
    <glyph glyph-name="S" unicode="S" 
d="M511 72c56 0 86 29 86 82c0 60 -20 83 -71 101c-75 26 -176 66 -176 150c0 79 80 129 174 129c100 0 148 -33 148 -33l1 -3c-8 -22 -14 -59 -17 -86h-7c-23 46 -73 86 -132 86c-45 0 -72 -27 -72 -73c0 -62 59 -85 93 -96c69 -23 165 -61 165 -149
c0 -76 -66 -146 -198 -146c-101 0 -167 33 -167 33l-3 3c7 22 14 60 18 87l8 1c23 -46 91 -86 150 -86zM249 718c-60 0 -93 -33 -93 -93v-678c0 -60 33 -83 93 -83h572c60 0 83 23 83 83v678c0 60 -23 93 -83 93h-572zM1000 -84c0 -90 -29 -128 -119 -128h-632
c-90 0 -129 38 -129 128v709c0 83 48 129 129 129h602c90 0 149 -39 149 -129v-709z" />
    <glyph glyph-name="T" unicode="T" 
d="M473 368c0 12 -1 87 -6 105c-101 0 -151 -9 -151 -9l-2 3c2 12 2 36 0 57l2 3c12 -2 29 -3 44 -3h322c15 0 32 1 44 3l2 -3c-2 -21 -2 -45 0 -57l-2 -3s-50 9 -151 9c-5 -18 -6 -93 -6 -105v-177c0 -57 1 -108 7 -150l-1 -3s-29 3 -54 3c-26 0 -55 -3 -55 -3v3
c6 40 7 93 7 150v177zM249 718c-60 0 -93 -33 -93 -93v-678c0 -60 33 -83 93 -83h572c60 0 83 23 83 83v678c0 60 -23 93 -83 93h-572zM1000 -84c0 -90 -29 -128 -119 -128h-632c-90 0 -129 38 -129 128v709c0 83 48 129 129 129h602c90 0 149 -39 149 -129v-709z" />
    <glyph glyph-name="U" unicode="U" 
d="M666 376c0 56 -2 107 -8 150l2 2s20 -2 38 -2c17 0 38 2 38 2l1 -2c-6 -40 -7 -94 -7 -150v-113c0 -140 -57 -229 -206 -229c-78 0 -192 32 -192 185v157c0 56 -1 107 -7 150l1 2s29 -2 54 -2c26 0 55 2 55 2l1 -2c-6 -40 -8 -94 -8 -150v-132c0 -57 3 -165 112 -165
c115 0 126 87 126 171v126zM249 718c-60 0 -93 -33 -93 -93v-678c0 -60 33 -83 93 -83h572c60 0 83 23 83 83v678c0 60 -23 93 -83 93h-572zM1000 -84c0 -90 -29 -128 -119 -128h-632c-90 0 -129 38 -129 128v709c0 83 48 129 129 129h602c90 0 149 -39 149 -129v-709z" />
    <glyph glyph-name="V" unicode="V" 
d="M249 718c-60 0 -93 -33 -93 -93v-678c0 -60 33 -83 93 -83h572c60 0 83 23 83 83v678c0 60 -23 93 -83 93h-572zM1000 -84c0 -90 -29 -128 -119 -128h-632c-90 0 -129 38 -129 128v709c0 83 48 129 129 129h602c90 0 149 -39 149 -129v-709zM549.2 180.8
c51.7 118.8 114.2 264 137.8 352.2c9 -2 45 -2 53 -2c9 0 18 0 27 2c-76 -166 -149 -327 -221 -494h-37c-69 164 -168 418 -206 494c13 -2 48 -2 61 -2s44 0 57 2c6.60001 -24.6 41.2 -145.5 128.2 -352.2z" />
    <glyph glyph-name="W" unicode="W" 
d="M249 718c-60 0 -93 -33 -93 -93v-678c0 -60 33 -83 93 -83h572c60 0 83 23 83 83v678c0 60 -23 93 -83 93h-572zM1000 -84c0 -90 -29 -128 -119 -128h-632c-90 0 -129 38 -129 128v709c0 83 48 129 129 129h602c90 0 149 -39 149 -129v-709zM684.6 178.6
c38.9 112.4 80.5 259.8 101.4 354.4c9 -2 30 -2 38 -2s32 0 41 2c-63 -163 -124 -332 -181 -494h-32c-31 73.7 -68 165.6 -102.8 251.3l-117.2 -251.3h-36c-69 164 -168 418 -205 494c13 -2 43 -2 56 -2c12 0 40 0 53 2c6.79999 -25.4 44.1 -154.4 140.5 -376.8
c26.3 60.4 56.6 129.7 83.6 195.6c-32.5 79.7 -60.8 147.7 -77.1 181.2c12 -2 43 -2 55 -2c13 0 45 0 57 2c7.40002 -24.1 68.9 -213.7 125.6 -354.4z" />
    <glyph glyph-name="X" unicode="X" 
d="M1000 -84c0 -90 -29 -128 -119 -128h-632c-90 0 -129 38 -129 128v709c0 83 48 129 129 129h602c90 0 149 -39 149 -129v-709zM249 718c-60 0 -93 -33 -93 -93v-678c0 -60 33 -83 93 -83h572c60 0 83 23 83 83v678c0 60 -23 93 -83 93h-572zM775 38c-15 3 -47 3 -62 3
c-14 0 -50 0 -65 -3c-39 68 -89 125 -135 189c-42 -59 -95 -123 -135 -189c-9 3 -24 3 -34 3s-43 0 -53 -3l188 236l-197 253c13 -3 50 -3 63 -3c14 0 46 0 61 3c28 -45 72 -98 131 -172c35 39 93 111 133 172c9 -3 42 -3 51 -3s25 0 34 3l-185 -217z" />
    <glyph glyph-name="Y" unicode="Y" 
d="M249 718c-60 0 -93 -33 -93 -93v-678c0 -60 33 -83 93 -83h572c60 0 83 23 83 83v678c0 60 -23 93 -83 93h-572zM1000 -84c0 -90 -29 -128 -119 -128h-632c-90 0 -129 38 -129 128v709c0 83 48 129 129 129h602c90 0 149 -39 149 -129v-709zM580.2 254.3
c0.599976 -74.3 2.5 -180.4 5.79999 -216.3c-12 3 -44 3 -55 3s-42 0 -54 -3c4.20001 41.8 4.89999 136 5 209c-28 49.1 -142 235 -172 280c12 -3 46 -3 58 -3c13 0 46 0 59 3c37.8 -74.7 79 -141.7 123.6 -217.5c41.4 65.1 87.5 143.8 123.4 217.5c8 -3 37 -3 47 -3
c9 0 21 0 31 3c-89.8 -138.7 -141.8 -212.8 -171.8 -272.7z" />
    <glyph glyph-name="Z" unicode="Z" 
d="M609 476.8c-82 -1 -165.2 -5.09998 -269 -7.79999l-2 3c1 6 2 17 2 24c0 8 -1 18 -2 29l2 2c12 -1 29 -2 46 -2h258c24 0 83 3 95 4c3 0 5 -1 5 -4c0 -9 -8 -20 -23 -41l-281 -389s-4 -3 -4 -7c98 0 300 8 300 8l2 -2c-1 -6 -2 -17 -2 -24c0 -8 1 -18 2 -29l-2 -2
c-12 1 -26 2 -53 2h-287c-23 0 -97 -2 -97 -2l-3 3c9 10 16 22 20 28zM249 718c-60 0 -93 -33 -93 -93v-678c0 -60 33 -83 93 -83h572c60 0 83 23 83 83v678c0 60 -23 93 -83 93h-572zM1000 -84c0 -90 -29 -128 -119 -128h-632c-90 0 -129 38 -129 128v709
c0 83 48 129 129 129h602c90 0 149 -39 149 -129v-709z" />
    <glyph glyph-name="bracketleft" unicode="[" 
d="M442 -80v671h189v-29c-102 -8 -110 -19 -110 -84v-445c0 -65 7 -76 110 -85v-28h-189zM249 718c-60 0 -93 -33 -93 -93v-678c0 -60 33 -83 93 -83h572c60 0 83 23 83 83v678c0 60 -23 93 -83 93h-572zM1000 -84c0 -90 -29 -128 -119 -128h-632c-90 0 -129 38 -129 128
v709c0 83 48 129 129 129h602c90 0 149 -39 149 -129v-709z" />
    <glyph glyph-name="backslash" unicode="\" 
d="M491 565l173 -560h-53l-173 560h53zM249 718c-60 0 -93 -33 -93 -93v-678c0 -60 33 -83 93 -83h572c60 0 83 23 83 83v678c0 60 -23 93 -83 93h-572zM1000 -84c0 -90 -29 -128 -119 -128h-632c-90 0 -129 38 -129 128v709c0 83 48 129 129 129h602c90 0 149 -39 149 -129
v-709z" />
    <glyph glyph-name="bracketright" unicode="]" 
d="M658 -80h-189v28c103 9 110 20 110 85v445c0 65 -8 76 -110 84v29h189v-671zM249 718c-60 0 -93 -33 -93 -93v-678c0 -60 33 -83 93 -83h572c60 0 83 23 83 83v678c0 60 -23 93 -83 93h-572zM1000 -84c0 -90 -29 -128 -119 -128h-632c-90 0 -129 38 -129 128v709
c0 83 48 129 129 129h602c90 0 149 -39 149 -129v-709z" />
    <glyph glyph-name="uni02C4" unicode="&#x2c4;" horiz-adv-x="518" 
d="M319 362l-67 -167h-43l95 228h32l94 -228h-43z" />
    <glyph glyph-name="underscore" unicode="_" 
d="M732 21v-39h-357v39h357zM249 718c-60 0 -93 -33 -93 -93v-678c0 -60 33 -83 93 -83h572c60 0 83 23 83 83v678c0 60 -23 93 -83 93h-572zM1000 -84c0 -90 -29 -128 -119 -128h-632c-90 0 -129 38 -129 128v709c0 83 48 129 129 129h602c90 0 149 -39 149 -129v-709z" />
    <glyph glyph-name="a" unicode="a" 
d="M576 208l-60 -16c-42 -11 -52 -37 -52 -68c0 -20 12 -43 35 -43c21 0 45 17 64 32c6 5 13 10 13 20v75zM656 107c0 -15 9 -23 18 -23c10 0 20 11 27 16l2 -2c8 -4 12 -12 16 -20c-24 -30 -55 -42 -84 -42c-33 0 -54 20 -60 44h-1c-38 -34 -75 -44 -104 -44
c-53 0 -96 26 -96 81c0 51 60 95 132 112l66 16c2 0 4 3 4 9c0 57 -19 78 -59 78c-34 0 -65 -25 -85 -59l-17 1l-20 49l3 3c18 16 72 47 126 47c67 0 135 -25 135 -122c0 -8 -3 -122 -3 -144zM249 718c-60 0 -93 -33 -93 -93v-678c0 -60 33 -83 93 -83h572c60 0 83 23 83 83
v678c0 60 -23 93 -83 93h-572zM1000 -84c0 -90 -29 -128 -119 -128h-632c-90 0 -129 38 -129 128v709c0 83 48 129 129 129h602c90 0 149 -39 149 -129v-709z" />
    <glyph glyph-name="b" unicode="b" 
d="M468 113c14 -19 32 -35 56 -35c71 0 94 50 94 136c0 72 -26 113 -72 113c-8 0 -49 -1 -78 -31v-183zM468 421v-87c25 28 57 40 93 40c65 0 149 -55 149 -147c0 -119 -105 -189 -182 -189c-32 0 -54 9 -76 28c-11 -10 -29 -19 -36 -29c-7 0 -36 1 -41 3c3 17 4 30 4 59
v308c0 57 -2 109 -7 141l1 2c30 3 76 12 95 19c5 0 7 -2 7 -7c-6 -46 -7 -86 -7 -141zM249 718c-60 0 -93 -33 -93 -93v-678c0 -60 33 -83 93 -83h572c60 0 83 23 83 83v678c0 60 -23 93 -83 93h-572zM1000 -84c0 -90 -29 -128 -119 -128h-632c-90 0 -129 38 -129 128v709
c0 83 48 129 129 129h602c90 0 149 -39 149 -129v-709z" />
    <glyph glyph-name="c" unicode="c" 
d="M538 332c-50 0 -90 -36 -90 -113c0 -79 43 -134 100 -134c30 0 59 10 88 46h2c10 -6 15 -12 16 -19c-19 -41 -67 -76 -124 -76c-110 0 -174 67 -174 164c0 106 82 173 183 173c37 0 85 -12 108 -24l1 -2l-17 -76l-13 -1c-20 34 -51 62 -80 62zM249 718
c-60 0 -93 -33 -93 -93v-678c0 -60 33 -83 93 -83h572c60 0 83 23 83 83v678c0 60 -23 93 -83 93h-572zM1000 -84c0 -90 -29 -128 -119 -128h-632c-90 0 -129 38 -129 128v709c0 83 48 129 129 129h602c90 0 149 -39 149 -129v-709z" />
    <glyph glyph-name="d" unicode="d" 
d="M566 129v158c-18 29 -29 45 -64 45c-36 0 -92 -11 -92 -123c0 -94 35 -126 75 -126c31 0 53 12 81 46zM566 89c-27 -35 -64 -56 -100 -56c-81 0 -148 70 -148 162c0 102 94 177 192 177c15 0 38 -7 56 -16v49c0 56 -2 108 -8 140l2 3c30 2 76 11 95 19c5 0 7 -3 7 -8
c-6 -46 -8 -86 -8 -141v-231c0 -56 7 -114 13 -146l-2 -2c-9 1 -38 2 -47 2c-11 0 -30 -1 -40 -2c-5 0 -7 0 -7 2l-4 48h-1zM249 718c-60 0 -93 -33 -93 -93v-678c0 -60 33 -83 93 -83h572c60 0 83 23 83 83v678c0 60 -23 93 -83 93h-572zM1000 -84
c0 -90 -29 -128 -119 -128h-632c-90 0 -129 38 -129 128v709c0 83 48 129 129 129h602c90 0 149 -39 149 -129v-709z" />
    <glyph glyph-name="e" unicode="e" 
d="M463 259h107c8 0 11 4 11 10c0 54 -19 67 -47 67c-17 0 -60 -10 -71 -77zM666 129c11 -6 16 -15 16 -26c-29 -39 -85 -67 -139 -67c-112 0 -177 71 -177 157c0 114 97 180 168 180c100 0 142 -71 142 -134c0 -9 -5 -13 -13 -13h-202c0 -106 54 -139 97 -139
c41 0 82 14 108 42zM249 718c-60 0 -93 -33 -93 -93v-678c0 -60 33 -83 93 -83h572c60 0 83 23 83 83v678c0 60 -23 93 -83 93h-572zM1000 -84c0 -90 -29 -128 -119 -128h-632c-90 0 -129 38 -129 128v709c0 83 48 129 129 129h602c90 0 149 -39 149 -129v-709z" />
    <glyph glyph-name="f" unicode="f" 
d="M482 511c32 33 87 57 134 57c14 0 28 -3 34 -6v-3c-8 -14 -15 -55 -20 -75l-9 -1c-8 15 -21 34 -43 34c-41 0 -62 -29 -62 -71c0 -16 3 -53 3 -72v-7h81c4 0 6 -2 6 -5v-25c0 -7 -10 -10 -17 -10h-70v-136c0 -56 1 -107 8 -150l-2 -2s-24 2 -50 2s-51 -2 -51 -2l-1 2
c7 40 8 94 8 150v136h-50c-3 0 -3 1 -3 4v21c0 6 3 15 17 15h36v22c0 59 19 88 51 122zM249 718c-60 0 -93 -33 -93 -93v-678c0 -60 33 -83 93 -83h572c60 0 83 23 83 83v678c0 60 -23 93 -83 93h-572zM1000 -84c0 -90 -29 -128 -119 -128h-632c-90 0 -129 38 -129 128v709
c0 83 48 129 129 129h602c90 0 149 -39 149 -129v-709z" />
    <glyph glyph-name="g" unicode="g" 
d="M653 286c0 -61 -48 -111 -135 -111c-25 0 -43 2 -58 11l-6 3c-8 -13 -12 -30 -12 -45c0 -33 22 -33 43 -33c4 0 11 1 22 2c17 2 34 4 47 4c69 0 153 -22 153 -99c0 -81 -121 -127 -217 -127c-55 0 -130 20 -130 85c0 33 28 67 66 91c-22 6 -42 26 -42 58
c0 25 11 59 31 77l-4 5c-17 13 -31 40 -31 78c0 64 58 114 139 114c16 0 31 -3 44 -7c56 3 98 11 134 14l3 -2c-2 -7 -3 -17 -3 -24s1 -15 3 -22l-3 -2c-27.1 2.60001 -60.9 5.20001 -84.4 7.20001c23.7 -17.4 40.4 -48.2 40.4 -77.2zM573 279c0 56 -17 87 -62 87
c-39 0 -50 -36 -50 -70c0 -48 10 -89 59 -89c27 0 53 18 53 72zM249 718c-60 0 -93 -33 -93 -93v-678c0 -60 33 -83 93 -83h572c60 0 83 23 83 83v678c0 60 -23 93 -83 93h-572zM1000 -84c0 -90 -29 -128 -119 -128h-632c-90 0 -129 38 -129 128v709c0 83 48 129 129 129
h602c90 0 149 -39 149 -129v-709zM476.7 54c-27 -21.5 -35.7 -38.4 -35.7 -63c0 -51 44 -69 70 -69c64 0 119 33 119 79c0 52 -60 56 -102 56c-9.90002 0 -29.6 -2.9 -51.3 -3zM477.4 54.5c1.60001 0.299999 3.10001 0.5 0.600006 0.5
c-0.200012 -0.200001 -0.399994 -0.299999 -0.600006 -0.5z" />
    <glyph glyph-name="h" unicode="h" 
d="M594 180v72c0 61 -14 73 -56 73c-22 0 -39 -20 -75 -55v-90c0 -57 1 -96 7 -139l-1 -2s-25 2 -50 2c-27 0 -51 -2 -51 -2l-1 2c6 40 7 83 7 139v226c0 57 -1 109 -7 141l1 3c31 2 77 11 96 18c4 0 6 -2 6 -7c-5 -46 -7 -85 -7 -140v-106c50 50 79 59 109 59
c54 0 111 -39 111 -116v-78c0 -57 1 -96 7 -139l-1 -2s-25 2 -51 2s-51 -2 -51 -2v2c6 40 7 83 7 139zM249 718c-60 0 -93 -33 -93 -93v-678c0 -60 33 -83 93 -83h572c60 0 83 23 83 83v678c0 60 -23 93 -83 93h-572zM1000 -84c0 -90 -29 -128 -119 -128h-632
c-90 0 -129 38 -129 128v709c0 83 48 129 129 129h602c90 0 149 -39 149 -129v-709z" />
    <glyph glyph-name="i" unicode="i" 
d="M249 718c-60 0 -93 -33 -93 -93v-678c0 -60 33 -83 93 -83h572c60 0 83 23 83 83v678c0 60 -23 93 -83 93h-572zM1000 -84c0 -90 -29 -128 -119 -128h-632c-90 0 -129 38 -129 128v709c0 83 48 129 129 129h602c90 0 149 -39 149 -129v-709zM473 518c0 28 23 52 52 52
s52 -24 52 -52s-23 -52 -52 -52s-52 24 -52 52zM479 221c0 56 -2 99 -8 132l2 2c30 2 76 11 95 19c4 0 7 -2 7 -8c-6 -46 -8 -77 -8 -133v-53c0 -58 2 -93 8 -136l-2 -2s-25 2 -50 2c-26 0 -51 -2 -51 -2l-1 2c6 41 8 79 8 136v41z" />
    <glyph glyph-name="j" unicode="j" 
d="M249 718c-60 0 -93 -33 -93 -93v-678c0 -60 33 -83 93 -83h572c60 0 83 23 83 83v678c0 60 -23 93 -83 93h-572zM1000 -84c0 -90 -29 -128 -119 -128h-632c-90 0 -129 38 -129 128v709c0 83 48 129 129 129h602c90 0 149 -39 149 -129v-709zM494 528c0 28 23 52 52 52
s52 -24 52 -52s-23 -52 -52 -52s-52 24 -52 52zM502 18c0 12 -2 30 -2 112v104c0 57 -2 100 -8 132l2 3c30 2 76 11 95 19c4 0 7 -3 7 -8c-6 -46 -8 -77 -8 -134v-189c0 -54 -13 -75 -38 -111c-25 -35 -77 -48 -121 -48c-13 0 -34 4 -39 6l-1 3c8 13 7 58 12 77l15 1
c8 -14 13 -32 33 -32c40 0 53 26 53 65z" />
    <glyph glyph-name="k" unicode="k" 
d="M249 718c-60 0 -93 -33 -93 -93v-678c0 -60 33 -83 93 -83h572c60 0 83 23 83 83v678c0 60 -23 93 -83 93h-572zM1000 -84c0 -90 -29 -128 -119 -128h-632c-90 0 -129 38 -129 128v709c0 83 48 129 129 129h602c90 0 149 -39 149 -129v-709zM381 197v211
c0 57 -2 109 -8 141l2 3c30 2 76 11 95 18c5 0 7 -2 7 -7c-6 -46 -8 -85 -8 -141v-193.6c6.10001 1.10001 11.9 4.3 19 10.6c30 23 84 83 117 130c20 0 90 0 104 2l1 -2c-48 -42 -110 -113 -140 -144c72 -86 100 -119 156 -178l-1 -2c-7 1 -51 2 -63 2c-13 0 -49 -1 -60 -2
c-53 74 -68 99 -116 150c-5.10001 4.39999 -11.8 6.10001 -17 6.7v-4.7c0 -57 1 -107 8 -150l-2 -2s-24 2 -50 2s-51 -2 -51 -2l-1 2c7 40 8 94 8 150z" />
    <glyph glyph-name="l.superior" unicode="&#x2e1;" horiz-adv-x="161" 
d="M60 626c0 32 -4 37 -14 37l-16 1c-1 0 -3 0 -3 2l-1 13c20 2 54 8 66 13c5 0 6 -1 6 -5c0 0 -1 -20 -1 -51v-187c0 -15 6 -19 19 -20l6 -1c1 0 4 -1 4 -4v-13s-29 1 -48 1c-18 0 -46 -1 -46 -1v13c0 2 1 4 4 4l6 1c18 2 18 4 18 20v177z" />
    <glyph glyph-name="m" unicode="m" 
d="M706 180v77c0 50 -8 67 -48 67c-30 0 -39 -13 -75 -53v-23v-68c0 -58 1 -96 8 -139l-2 -2s-24 2 -50 2s-51 -2 -51 -2l-1 2c7 41 8 82 8 139v75c0 51 -19 69 -47 69c-27 0 -39 -17 -75 -54v-90c0 -58 1 -96 8 -139l-2 -2s-24 2 -50 2s-51 -2 -51 -2l-1 2c7 41 8 82 8 139
v41c0 56 -2 100 -8 132l2 2c30 2 74 11 93 19c5 0 7 -2 7 -8c-4 -22 -7 -52 -7 -52h1c36 38 55 60 102 60c42 0 98 -26 103 -60c43 46 66 60 107 60c81 0 109 -53 109 -120v-74c0 -58 1 -96 8 -139l-2 -2s-24 2 -50 2s-51 -2 -51 -2l-1 2c6 41 8 82 8 139zM249 718
c-60 0 -93 -33 -93 -93v-678c0 -60 33 -83 93 -83h572c60 0 83 23 83 83v678c0 60 -23 93 -83 93h-572zM1000 -84c0 -90 -29 -128 -119 -128h-632c-90 0 -129 38 -129 128v709c0 83 48 129 129 129h602c90 0 149 -39 149 -129v-709z" />
    <glyph glyph-name="n" unicode="n" 
d="M693 180c0 -58 1 -96 7 -139l-1 -2s-25 2 -51 2s-50 -2 -50 -2l-1 2c7 41 7 82 7 139v66c0 53 -7 78 -47 78c-33 0 -45 -11 -83 -56v-88c0 -58 1 -96 7 -139l-1 -2s-25 2 -50 2c-27 0 -52 -2 -52 -2v2c6 41 7 82 7 139v41c0 56 -1 100 -7 132l1 2c31 2 74 11 93 19
c5 0 7 -2 7 -8c-4 -22 -7 -54 -7 -54h2c48 56 67 62 106 62c67 0 113 -52 113 -119v-75zM249 718c-60 0 -93 -33 -93 -93v-678c0 -60 33 -83 93 -83h572c60 0 83 23 83 83v678c0 60 -23 93 -83 93h-572zM1000 -84c0 -90 -29 -128 -119 -128h-632c-90 0 -129 38 -129 128v709
c0 83 48 129 129 129h602c90 0 149 -39 149 -129v-709z" />
    <glyph glyph-name="o" unicode="o" 
d="M363 197c0 103 65 176 173 176c126 0 169 -91 169 -169c0 -80 -56 -168 -171 -168c-112 0 -171 79 -171 161zM530 335c-64 0 -71 -55 -71 -120c0 -58 7 -141 85 -141c34 0 65 24 65 110c0 104 -15 151 -79 151zM249 718c-60 0 -93 -33 -93 -93v-678c0 -60 33 -83 93 -83
h572c60 0 83 23 83 83v678c0 60 -23 93 -83 93h-572zM1000 -84c0 -90 -29 -128 -119 -128h-632c-90 0 -129 38 -129 128v709c0 83 48 129 129 129h602c90 0 149 -39 149 -129v-709z" />
    <glyph glyph-name="p" unicode="p" 
d="M458 274v-154c26 -31 50 -32 62 -32c81 0 85 62 85 124c0 84 -23 124 -69 124c-25 0 -61 -22 -78 -62zM370 32v200c0 56 -2 100 -8 132l2 2c30 2 75 11 94 19c4 0 6 -3 6 -8c-4 -23 -7 -51 -7 -51h2c35 52 73 59 97 59c73 0 150 -74 150 -153c0 -106 -84 -184 -181 -184
c-27 0 -47 6 -67 16v-32c0 -57 1 -108 8 -150l-2 -3s-24 3 -50 3s-51 -3 -51 -3l-1 3c7 40 8 94 8 150zM249 718c-60 0 -93 -33 -93 -93v-678c0 -60 33 -83 93 -83h572c60 0 83 23 83 83v678c0 60 -23 93 -83 93h-572zM1000 -84c0 -90 -29 -128 -119 -128h-632
c-90 0 -129 38 -129 128v709c0 83 48 129 129 129h602c90 0 149 -39 149 -129v-709z" />
    <glyph glyph-name="q" unicode="q" 
d="M592 294c-21 33 -44 51 -75 51c-60 0 -73 -41 -73 -119c0 -113 46 -130 90 -130c14 0 38 1 58 16v182zM592 32v41c-12 -10 -33 -25 -76 -25c-108 0 -173 93 -173 163c0 99 85 174 177 174c36 0 83 -8 108 -30l11 18c5 9 19 14 25 14c8 0 16 -8 16 -18v-337
c0 -57 1 -107 8 -150l-2 -2s-24 2 -50 2s-51 -2 -51 -2l-1 2c6 40 8 94 8 150zM249 718c-60 0 -93 -33 -93 -93v-678c0 -60 33 -83 93 -83h572c60 0 83 23 83 83v678c0 60 -23 93 -83 93h-572zM1000 -84c0 -90 -29 -128 -119 -128h-632c-90 0 -129 38 -129 128v709
c0 83 48 129 129 129h602c90 0 149 -39 149 -129v-709z" />
    <glyph glyph-name="r" unicode="r" 
d="M517 310c19 29 58 64 93 64c14 0 18 -2 31 -6l3 -2l-15 -70l-6 -2c-13 11 -29 11 -43 11c-12 0 -63 -5 -63 -63v-65c0 -58 1 -93 7 -136l-1 -2s-29 2 -54 2c-27 0 -48 -2 -48 -2v2c6 41 7 79 7 136v44c0 56 -5 99 -11 132l1 2c31 2 73 11 92 19c4 0 7 -2 7 -8
c-1 -22 -2 -56 -2 -56h2zM249 718c-60 0 -93 -33 -93 -93v-678c0 -60 33 -83 93 -83h572c60 0 83 23 83 83v678c0 60 -23 93 -83 93h-572zM1000 -84c0 -90 -29 -128 -119 -128h-632c-90 0 -129 38 -129 128v709c0 83 48 129 129 129h602c90 0 149 -39 149 -129v-709z" />
    <glyph glyph-name="s.superior" unicode="&#x2e2;" horiz-adv-x="253" 
d="M52 468h17c1 -11 5 -31 17 -43c6 -4 20 -13 37 -13c18 0 36 8 36 28c0 16 -6 31 -43 47c-35 14 -58 26 -58 60c0 31 34 55 70 55c24 0 53 -7 61 -13l7 -56l-18 -1c-10 44 -36 51 -50 51c-18 0 -34 -9 -34 -30c0 -18 7 -24 33 -35c38 -16 73 -30 73 -67
c0 -46 -50 -58 -76 -58c-22 0 -38 10 -54 10c-2 0 -9 0 -14 -1c0 18 -1 42 -4 66z" />
    <glyph glyph-name="t" unicode="t" 
d="M390 323c-6 0 -10 5 -10 11c0 10 8 29 16 29h41c0 43 0 51 -5 83l1 2c30 2 71 19 89 26c5 0 7 -2 7 -7c-3 -43 -4 -48 -4 -104h81c3 0 6 -2 6 -5v-25c0 -7 -11 -10 -18 -10h-69v-78c0 -45 -2 -83 -2 -106c0 -31 5 -54 25 -54c19 0 31 2 51 14c8 -5 14 -15 14 -27
c-29 -26 -74 -38 -106 -38c-48 0 -72 38 -72 73c0 23 2 85 2 130v86h-47zM249 718c-60 0 -93 -33 -93 -93v-678c0 -60 33 -83 93 -83h572c60 0 83 23 83 83v678c0 60 -23 93 -83 93h-572zM1000 -84c0 -90 -29 -128 -119 -128h-632c-90 0 -129 38 -129 128v709
c0 83 48 129 129 129h602c90 0 149 -39 149 -129v-709z" />
    <glyph glyph-name="u" unicode="u" 
d="M588 91c-42 -45 -65 -56 -96 -56c-74 0 -117 51 -117 102v93c0 56 -1 92 -7 134l1 3s25 -3 50 -3c27 0 51 3 51 3l1 -3c-7 -39 -7 -78 -7 -134v-68c0 -67 25 -79 48 -79c33 0 57 33 76 56v91c0 56 -1 92 -7 134l1 3s25 -3 50 -3c27 0 51 3 51 3l1 -3
c-7 -39 -7 -78 -7 -134v-43c0 -57 6 -112 12 -144l-1 -3c-10 2 -38 3 -48 3c-11 0 -30 -1 -40 -3c-4 0 -7 1 -7 3l-3 48h-2zM249 718c-60 0 -93 -33 -93 -93v-678c0 -60 33 -83 93 -83h572c60 0 83 23 83 83v678c0 60 -23 93 -83 93h-572zM1000 -84
c0 -90 -29 -128 -119 -128h-632c-90 0 -129 38 -129 128v709c0 83 48 129 129 129h602c90 0 149 -39 149 -129v-709z" />
    <glyph glyph-name="v" unicode="v" 
d="M454 38c-42 110 -86 219 -136 330c12 -3 38 -3 50 -3c11 0 46 0 56 3c27 -86 59 -174 96 -260h2c34 74 68 175 98 260c7 -3 32 -3 40 -3c7 0 28 0 35 3c-49 -111 -99 -220 -138 -330c-7 3 -39 3 -46 3c-8 0 -49 0 -57 -3zM249 718c-60 0 -93 -33 -93 -93v-678
c0 -60 33 -83 93 -83h572c60 0 83 23 83 83v678c0 60 -23 93 -83 93h-572zM1000 -84c0 -90 -29 -128 -119 -128h-632c-90 0 -129 38 -129 128v709c0 83 48 129 129 129h602c90 0 149 -39 149 -129v-709z" />
    <glyph glyph-name="w" unicode="w" 
d="M370 38c-42 110 -85 218 -135 329c12 -3 42 -3 54 -3c10 0 42 0 51 3c28 -86 57 -173 94 -259h5c20.5 45.8 42.9 101.4 63.7 156.8c-14.3 34.2 -29.1 68.6 -44.7 103.2c12 -3 42 -3 54 -3c11 0 42 0 52 3c27 -87 57 -173 94 -259h6c35 74 66 174 96 259c7 -3 34 -3 41 -3
s25 0 32 3c-49 -111 -101 -219 -140 -329c-7 3 -53 3 -60 3s-34 0 -41 -3c-20.3 53.3 -40.6 106.1 -61.9 159c-21.2 -53.3 -40.7 -108.9 -59.1 -160c-7 3 -54 3 -61 3c-8 0 -32 0 -40 -3zM249 718c-60 0 -93 -33 -93 -93v-678c0 -60 33 -83 93 -83h572c60 0 83 23 83 83v678
c0 60 -23 93 -83 93h-572zM1000 -84c0 -90 -29 -128 -119 -128h-632c-90 0 -129 38 -129 128v709c0 83 48 129 129 129h602c90 0 149 -39 149 -129v-709z" />
    <glyph glyph-name="x.superior" unicode="&#x2e3;" horiz-adv-x="307" 
d="M50 291c0 5 3 6 8 6c14 0 20 2 35 19c0 0 45 54 47 56l-53 76c-7 9 -15 15 -24 15s-11 2 -11 5v10l1 1h45h49l1 -2v-9c0 -3 -4 -5 -11 -5c-5 0 -7 -3 -7 -6c0 -4 2 -9 5 -14l28 -42c30 42 35 50 35 50c3 2 4 4 4 6c0 4 -4 6 -14 6c-4 0 -8 1 -8 5v10l1 1
c14 0 26 -1 39 -1c14 0 25 1 41 1l1 -2v-8c0 -4 0 -6 -10 -6c-15 0 -19 -4 -34 -23l-42 -58l47 -65c8 -10 17 -20 33 -20c9 0 10 -4 10 -6v-10l-1 -2c-14 1 -27 1 -42 1c-17 0 -43 -1 -53 -1l-1 1v7c0 5 2 10 9 10c5 0 10 0 10 4c0 2 -2 4 -4 8c0 0 -28 37 -31 43
c-12 -16 -33 -42 -33 -42c-3 -5 -5 -7 -5 -10s5 -3 13 -3c6 0 7 -3 7 -6v-10l-1 -2c-15 1 -27 1 -39 1c-17 0 -31 -1 -44 -1l-1 2v10z" />
    <glyph glyph-name="y" unicode="y" 
d="M356 388c10 -2 43 -2 53 -2s41 0 51 2c24.3 -74.8 55.2 -148.8 87.4 -226.4c30.9 71.4 60.5 153.3 84.6 226.4c7 -2 36 -2 43 -2c8 0 25 0 32 2c-24 -50 -189 -408 -217 -501c-8 2 -29 3 -37 3c-7 0 -33 -1 -40 -3c34 56 60 107 84 163l-3 5c-28 76 -109 268 -138 333z
M249 718c-60 0 -93 -33 -93 -93v-678c0 -60 33 -83 93 -83h572c60 0 83 23 83 83v678c0 60 -23 93 -83 93h-572zM1000 -84c0 -90 -29 -128 -119 -128h-632c-90 0 -129 38 -129 128v709c0 83 48 129 129 129h602c90 0 149 -39 149 -129v-709z" />
    <glyph glyph-name="z" unicode="z" 
d="M530 321c-85 -1 -167 -8 -167 -8l-1 3c1 6 1 19 1 26s0 14 -1 24l1 2c12 -1 27 -2 42 -2h182c22 0 57 5 60 5s4 -2 4 -5c-4 -5 -9 -13 -22 -32l-167 -249c89 1 183 9 183 9l1 -3c-1 -6 -1 -19 -1 -26s0 -14 1 -24l-1 -2c-12 1 -27 2 -42 2h-170c-21 0 -89 -2 -89 -2l-2 3
c6 7 10 14 16 23zM249 718c-60 0 -93 -33 -93 -93v-678c0 -60 33 -83 93 -83h572c60 0 83 23 83 83v678c0 60 -23 93 -83 93h-572zM1000 -84c0 -90 -29 -128 -119 -128h-632c-90 0 -129 38 -129 128v709c0 83 48 129 129 129h602c90 0 149 -39 149 -129v-709z" />
    <glyph glyph-name="braceleft" unicode="{" 
d="M553 507v-126c0 -68 -25 -88 -62 -104c44 -19 62 -50 62 -114v-112c0 -54 19 -95 52 -95v-23c-76 1 -135 25 -135 122v124c0 46 -14 79 -54 88v18c42 12 54 50 54 87v135c0 87 60 113 135 115v-23c-28 -8 -52 -24 -52 -92zM249 718c-60 0 -93 -33 -93 -93v-678
c0 -60 33 -83 93 -83h572c60 0 83 23 83 83v678c0 60 -23 93 -83 93h-572zM1000 -84c0 -90 -29 -128 -119 -128h-632c-90 0 -129 38 -129 128v709c0 83 48 129 129 129h602c90 0 149 -39 149 -129v-709z" />
    <glyph glyph-name="bar" unicode="|" 
d="M562 -106h-44v698h44v-698zM249 718c-60 0 -93 -33 -93 -93v-678c0 -60 33 -83 93 -83h572c60 0 83 23 83 83v678c0 60 -23 93 -83 93h-572zM1000 -84c0 -90 -29 -128 -119 -128h-632c-90 0 -129 38 -129 128v709c0 83 48 129 129 129h602c90 0 149 -39 149 -129v-709z
" />
    <glyph glyph-name="braceright" unicode="}" 
d="M537 487c0 68 -24 84 -52 92v23c75 -2 135 -28 135 -115v-135c0 -37 12 -75 54 -87v-18c-40 -9 -54 -42 -54 -88v-124c0 -97 -59 -121 -135 -122v23c33 0 52 41 52 95v112c0 64 18 95 62 114c-37 16 -62 36 -62 104v126zM249 718c-60 0 -93 -33 -93 -93v-678
c0 -60 33 -83 93 -83h572c60 0 83 23 83 83v678c0 60 -23 93 -83 93h-572zM1000 -84c0 -90 -29 -128 -119 -128h-632c-90 0 -129 38 -129 128v709c0 83 48 129 129 129h602c90 0 149 -39 149 -129v-709z" />
    <glyph glyph-name="asciitilde" unicode="~" 
d="M388 238c10 51 52 109 100 109c18 0 38 -13 58 -26s41 -26 58 -26c22 0 53 6 71 45l20 -11c-24 -84 -75 -94 -94 -94c-20 0 -40 12 -59 25c-20 14 -39 25 -59 25c-27 0 -60 -21 -79 -57zM249 718c-60 0 -93 -33 -93 -93v-678c0 -60 33 -83 93 -83h572c60 0 83 23 83 83
v678c0 60 -23 93 -83 93h-572zM1000 -84c0 -90 -29 -128 -119 -128h-632c-90 0 -129 38 -129 128v709c0 83 48 129 129 129h602c90 0 149 -39 149 -129v-709z" />
    <glyph glyph-name="exclamdown" unicode="&#xa1;" 
d="M519 -32c-22 0 -46 17 -46 54c0 49 13 81 21 145c11 81 12 126 13 137c1 8 4 15 12 15c9 0 11 -6 11 -10c2 -16 6 -83 13 -142c8 -66 21 -92 21 -145c0 -40 -27 -54 -45 -54zM568 422v-3c-9 -22 -21 -35 -46 -45h-2c-24 9 -37 21 -46 45v3c10 27 22 39 46 45h2
c27 -6 38 -18 46 -45zM249 718c-60 0 -93 -33 -93 -93v-678c0 -60 33 -83 93 -83h572c60 0 83 23 83 83v678c0 60 -23 93 -83 93h-572zM1000 -84c0 -90 -29 -128 -119 -128h-632c-90 0 -129 38 -129 128v709c0 83 48 129 129 129h602c90 0 149 -39 149 -129v-709z" />
    <glyph glyph-name="cent" unicode="&#xa2;" 
d="M530 484h25v-79.4c32.3 -1.10001 71.8 -11.3 91.3 -21.5l0.900024 -1.80002l-15.3 -68.4l-11.7 -0.899994c-16.4 28 -41.2 51.4 -65.2 55.2v-221.7h2.20001c27 0 53.1 9 79.2 41.4h1.79999c9 -5.39999 13.5 -10.8 14.4 -17.1c-15.5 -33.5 -52.5 -62.5 -97.6 -67.6v-60.2
h-25v59.7c-92.3 4.3 -145.6 63.3 -145.6 147.3c0 88.6 63.7 147 145.6 154.8v80.2zM249 718c-60 0 -93 -33 -93 -93v-678c0 -60 33 -83 93 -83h572c60 0 83 23 83 83v678c0 60 -23 93 -83 93h-572zM1000 -84c0 -90 -29 -128 -119 -128h-632c-90 0 -129 38 -129 128v709
c0 83 48 129 129 129h602c90 0 149 -39 149 -129v-709zM530 150.5v215.4c-36.1 -7.79999 -62.8 -40.1 -62.8 -99.8c0 -57.8 25.6 -101.4 62.8 -115.6z" />
    <glyph glyph-name="sterling" unicode="&#xa3;" 
d="M249 718c-60 0 -93 -33 -93 -93v-678c0 -60 33 -83 93 -83h572c60 0 83 23 83 83v678c0 60 -23 93 -83 93h-572zM1000 -84c0 -90 -29 -128 -119 -128h-632c-90 0 -129 38 -129 128v709c0 83 48 129 129 129h602c90 0 149 -39 149 -129v-709zM506 374l4 -51h97
c5 0 7 -2 7 -5v-24c0 -7 -12 -10 -22 -10h-82c-1 -97 -41 -134 -71 -160h4c102 0 91 -38 150 -38c26 0 69 4 93 33l16 -15c-22 -42 -67 -70 -125 -70c-81 0 -81 51 -159 51c-31 0 -34 -13 -34 -23c0 -21 -17 -32 -39 -32c-18 0 -32 11 -32 25c0 17 23 31 50 44
c49 36 52 97 52 171v14h-56c-5 0 -5 0 -5 4v18c0 7 5 17 21 17h40v10c0 69 23 104 70 146c48 42 101 51 154 51c16 0 31 -4 38 -7l1 -3c-10 -14 -13 -44 -17 -67l-18 -1c-10 14 -19 32 -43 32c-48 0 -99 -29 -94 -110z" />
    <glyph glyph-name="currency" unicode="&#xa4;" 
d="M433 300c0 -52 38 -92 87 -92c51 0 87 40 87 91c0 54 -42 93 -85 93c-49 0 -89 -40 -89 -92zM520 167c-28 0 -53 6 -75 18c-10 -13 -26 -33 -34 -43l-46 44l40 32c-21 27 -32 53 -32 81c0 30 11 57 33 83c-12 9 -28 21 -39 31l41 42l37 -41c23 12 48 19 77 19
c30 0 52 -8 74 -20c12 15 30 36 38 46l44 -46l-41 -33c21 -26 31 -52 31 -81c0 -27 -11 -53 -31 -79c12 -10 28 -23 39 -33l-40 -44l-38 44c-23 -13 -48 -20 -78 -20zM249 718c-60 0 -93 -33 -93 -93v-678c0 -60 33 -83 93 -83h572c60 0 83 23 83 83v678c0 60 -23 93 -83 93
h-572zM1000 -84c0 -90 -29 -128 -119 -128h-632c-90 0 -129 38 -129 128v709c0 83 48 129 129 129h602c90 0 149 -39 149 -129v-709z" />
    <glyph glyph-name="yen" unicode="&#xa5;" 
d="M360 243c-4 0 -4 1 -4 5v10c0 6 4 15 16 15h75.3c-32.3 59.5 -96.4 189.2 -120.3 230c11 -3 27 -3 39 -3c11 0 26 0 37 3c28.3 -74.1 52.7 -132.9 93.7 -205.3c38 60.2 61.8 125.5 94.3 205.3c8 -3 19 -3 28 -3c8 0 19 0 28 3c-63.9 -112.1 -97.8 -178.7 -124.7 -230
h96.7c3 0 5 -1 5 -4v-16c0 -7 -10 -10 -17 -10h-90.7c0.200012 -15 0.5 -31 0.799988 -47h101.9c3 0 5 -2 5 -4v-16c0 -6 -10 -9 -17 -9h-89.3c1 -41.5 2.39996 -79.6 4.29999 -98c-11 3 -25 3 -35 3s-23 0 -34 -3c2.39999 21.7 3.70001 58.4 4.29999 98h-97.3
c-4 0 -4 1 -4 4v10c0 6 4 15 16 15h85.7c0.199982 15.9 0.299988 31.8 0.299988 47h-98zM249 718c-60 0 -93 -33 -93 -93v-678c0 -60 33 -83 93 -83h572c60 0 83 23 83 83v678c0 60 -23 93 -83 93h-572zM1000 -84c0 -90 -29 -128 -119 -128h-632c-90 0 -129 38 -129 128v709
c0 83 48 129 129 129h602c90 0 149 -39 149 -129v-709z" />
    <glyph glyph-name="brokenbar" unicode="&#xa6;" 
d="M532 545v-267h-44v267h44zM532 195v-267h-44v267h44zM249 718c-60 0 -93 -33 -93 -93v-678c0 -60 33 -83 93 -83h572c60 0 83 23 83 83v678c0 60 -23 93 -83 93h-572zM1000 -84c0 -90 -29 -128 -119 -128h-632c-90 0 -129 38 -129 128v709c0 83 48 129 129 129h602
c90 0 149 -39 149 -129v-709z" />
    <glyph glyph-name="section" unicode="&#xa7;" 
d="M249 718c-60 0 -93 -33 -93 -93v-678c0 -60 33 -83 93 -83h572c60 0 83 23 83 83v678c0 60 -23 93 -83 93h-572zM1000 -84c0 -90 -29 -128 -119 -128h-632c-90 0 -129 38 -129 128v709c0 83 48 129 129 129h602c90 0 149 -39 149 -129v-709zM451.5 350.2
c-12.2 -15.4 -14.5 -38.2 -14.5 -60.2c0 -71 67 -106 124 -135c11.7 -6 22.6 -12.4 32.5 -19.2c12.2 15.4 14.5 38.2 14.5 60.2c0 71 -67 106 -124 135c-11.7 6 -22.6 12.4 -32.5 19.2zM424.9 371.7c-25 23.9 -38.9 50.5 -38.9 76.3c0 49 63 106 138 106
c52 0 100 -30 120 -47l3 -4l-13 -61l-11 -2c-21 38 -64 78 -105 78c-36 0 -56 -19 -56 -55c0 -35 14 -52 52 -68c61 -25 168 -78 168 -170c0 -44.5 -30.9 -87.2 -61.9 -110.7c25 -23.9 38.9 -50.5 38.9 -76.3c0 -49 -63 -106 -138 -106c-52 0 -100 30 -120 47l-3 4l13 61
l11 2c21 -38 64 -78 105 -78c36 0 56 19 56 55c0 35 -14 59 -52 75c-61 24 -168 71 -168 163c0 44.5 30.9 87.2 61.9 110.7z" />
    <glyph glyph-name="dieresis" unicode="&#xa8;" horiz-adv-x="399" 
d="M232.8 503c0 25.3 19.8 45.1 44 45.1c24.2 0 45.1 -19.8 45.1 -45.1c0 -24.2 -20.9 -44 -45.1 -44c-24.2 0 -44 19.8 -44 44zM83.2 503c0 25.3 20.8 45.1 45 45.1s44.1 -19.8 44.1 -45.1c0 -24.2 -19.9 -44 -44.1 -44s-45 19.8 -45 44z" />
    <glyph glyph-name="guillemotleft" unicode="&#xab;" 
d="M249 718c-60 0 -93 -33 -93 -93v-678c0 -60 33 -83 93 -83h572c60 0 83 23 83 83v678c0 60 -23 93 -83 93h-572zM1000 -84c0 -90 -29 -128 -119 -128h-632c-90 0 -129 38 -129 128v709c0 83 48 129 129 129h602c90 0 149 -39 149 -129v-709zM690 378l8 -41
c-38 -53 -81 -96 -126 -130c43 -30 84 -72 126 -130l-8 -41c-70 74 -142 126 -200 156v30c62 40 134 92 200 156zM516 378l8 -41c-40 -53 -75 -96 -120 -130c42 -30 78 -72 120 -130l-8 -41c-71 74 -136 126 -194 156v30c62 40 127 92 194 156z" />
    <glyph glyph-name="uni00AD" unicode="&#xad;" 
d="M627 232h-199c-7 0 -12 6 -12 13c0 12 10 41 19 41h202c7 0 11 -10 11 -16c0 -9 -11 -38 -21 -38zM249 718c-60 0 -93 -33 -93 -93v-678c0 -60 33 -83 93 -83h572c60 0 83 23 83 83v678c0 60 -23 93 -83 93h-572zM1000 -84c0 -90 -29 -128 -119 -128h-632
c-90 0 -129 38 -129 128v709c0 83 48 129 129 129h602c90 0 149 -39 149 -129v-709z" />
    <glyph glyph-name="degree" unicode="&#xb0;" 
d="M556 504c0 22.7 -12.9 48 -42 48c-27.3 0 -43 -23.8 -43 -48c0 -24.9 17.2 -45 43 -45c26.4 0 42 23 42 45zM514 587c44.9 0 81 -36.3 81 -82c0 -44.8 -36.2 -81 -81 -81s-82 36 -82 81c0 45.9 37.2 82 82 82zM249 718c-60 0 -93 -33 -93 -93v-678c0 -60 33 -83 93 -83
h572c60 0 83 23 83 83v678c0 60 -23 93 -83 93h-572zM1000 -84c0 -90 -29 -128 -119 -128h-632c-90 0 -129 38 -129 128v709c0 83 48 129 129 129h602c90 0 149 -39 149 -129v-709z" />
    <glyph glyph-name="plusminus" unicode="&#xb1;" 
d="M692 44v-56h-297v56h297zM569 260h128v-56h-128v-122h-56v122h-128v56h128v123h56v-123zM249 718c-60 0 -93 -33 -93 -93v-678c0 -60 33 -83 93 -83h572c60 0 83 23 83 83v678c0 60 -23 93 -83 93h-572zM1000 -84c0 -90 -29 -128 -119 -128h-632c-90 0 -129 38 -129 128
v709c0 83 48 129 129 129h602c90 0 149 -39 149 -129v-709z" />
    <glyph glyph-name="acute" unicode="&#xb4;" 
d="M249 718c-60 0 -93 -33 -93 -93v-678c0 -60 33 -83 93 -83h572c60 0 83 23 83 83v678c0 60 -23 93 -83 93h-572zM1000 -84c0 -90 -29 -128 -119 -128h-632c-90 0 -129 38 -129 128v709c0 83 48 129 129 129h602c90 0 149 -39 149 -129v-709zM534.3 592.2
c2.20001 1.09998 8.79999 2.29999 13.2 2.29999c25.3 0 40.7 -12.1 47.3 -19.8l7.70001 -19.9l-99 -89c-11 -9.89999 -23.1 -13.3 -30.8 -13.3c-6.60001 0 -13.2 6.70001 -13.2 12.2c0 4.39999 1.10001 12.1 6.60001 19.8z" />
    <glyph glyph-name="uni00B5" unicode="&#xb5;" 
d="M583 63c-31 -25 -59 -45 -100 -45c-12 0 -24 2 -34 7c1 -24 -1 -48 3 -70c5 -19 10 -41 10 -54c0 -16.7 -4.29999 -29 -11.9 -37h370.9c60 0 83 23 83 83v678c0 60 -23 93 -83 93h-572c-60 0 -93 -33 -93 -93v-678c0 -60 33 -83 93 -83h146.6
c-11.5 8.8 -21.6 22.8 -21.6 41c0 15 3 33 6 53s7 39 7 66c0 10 -1 22 -2 38c-2 19 -11 49 -11 68v139c0 19 -8 83 -8 83l89 10s2 -54 2 -78v-144c0 -48 13 -82 40 -82c31 0 69 20 85 42v252l83 11v-241c0 -35 1 -64 30 -64c18 0 19 12 23 12c3 0 10 -9 10 -14
c0 -4 -29 -36 -70 -36c-45 0 -64 14 -74 43h-1zM1000 -84c0 -90 -29 -128 -119 -128h-632c-90 0 -129 38 -129 128v709c0 83 48 129 129 129h602c90 0 149 -39 149 -129v-709z" />
    <glyph glyph-name="periodcentered" unicode="&#xb7;" 
d="M521 208c-31 0 -51 24 -51 50s23 51 51 51c25 0 51 -22 51 -51c0 -27 -22 -50 -51 -50zM249 718c-60 0 -93 -33 -93 -93v-678c0 -60 33 -83 93 -83h572c60 0 83 23 83 83v678c0 60 -23 93 -83 93h-572zM1000 -84c0 -90 -29 -128 -119 -128h-632c-90 0 -129 38 -129 128
v709c0 83 48 129 129 129h602c90 0 149 -39 149 -129v-709z" />
    <glyph glyph-name="cedilla" unicode="&#xb8;" 
d="M249 718c-60 0 -93 -33 -93 -93v-678c0 -60 33 -83 93 -83h572c60 0 83 23 83 83v678c0 60 -23 93 -83 93h-572zM1000 -84c0 -90 -29 -128 -119 -128h-632c-90 0 -129 38 -129 128v709c0 83 48 129 129 129h602c90 0 149 -39 149 -129v-709zM496.1 119l-10.4 10.4
l32.7 71.6h37l-17.2 -42.1c54.8 0 69.8 -31.7 69.8 -52.9c0 -36.6 -35.8 -63 -85 -63c-24.8 0 -36.7 2.2 -64.1 14.4l12.3 29.7c17.4 -7 29.5 -11.1 47.8 -11.1c20.4 0 36 11.6 36 26c0 11 -8.40002 21 -23 21c-13.2 0 -27 -1 -35.9 -4z" />
    <glyph glyph-name="guillemotright" unicode="&#xbb;" 
d="M249 718c-60 0 -93 -33 -93 -93v-678c0 -60 33 -83 93 -83h572c60 0 83 23 83 83v678c0 60 -23 93 -83 93h-572zM1000 -84c0 -90 -29 -128 -119 -128h-632c-90 0 -129 38 -129 128v709c0 83 48 129 129 129h602c90 0 149 -39 149 -129v-709zM360 36l-8 41
c38 53 81 96 126 130c-43 30 -84 72 -126 130l8 41c70 -74 142 -126 200 -156v-30c-62 -40 -134 -92 -200 -156zM534 36l-8 41c40 53 75 96 120 130c-42 30 -78 72 -120 130l8 41c71 -74 136 -126 194 -156v-30c-62 -40 -127 -92 -194 -156z" />
    <glyph glyph-name="Agrave" unicode="&#xc0;" 
d="M249 718c-60 0 -93 -33 -93 -93v-678c0 -60 33 -83 93 -83h572c60 0 83 23 83 83v678c0 60 -23 93 -83 93h-572zM1000 -84c0 -90 -29 -128 -119 -128h-632c-90 0 -129 38 -129 128v709c0 83 48 129 129 129h602c90 0 149 -39 149 -129v-709zM467 667l113 -79
c11 -7 12 -13 12 -19c0 -7 -6 -12 -12 -12s-14 2 -32 7l-121 35l-6 12c7 23 24 41 46 56zM512.5 414.7c-22.4 -51.7 -47.8 -109.8 -71.6 -166.7c23.8 -0.300003 56.3 -2 78.1 -2c17.3 0 41 0.5 62.5 1.10001c-18.6 48 -41.4 103.9 -69 167.6zM423.2 205.1
c-25.5 -62.9 -47.5 -121.8 -59.2 -166.1c-9 2 -26 2 -34 2s-33 0 -42 -2c76 165 149 329 221 495h53c69 -164 168 -420 205 -495c-13 2 -48 2 -61 2c-12 0 -40 0 -53 -2c-4.29999 15.9 -20.5 72.1 -55.8 166.6c-24.6 0.699997 -50.6 1.39999 -74.2 1.39999
c-27 0 -70.7 -0.899994 -99.8 -1.89999z" />
    <glyph glyph-name="Aacute" unicode="&#xc1;" 
d="M249 718c-60 0 -93 -33 -93 -93v-678c0 -60 33 -83 93 -83h572c60 0 83 23 83 83v678c0 60 -23 93 -83 93h-572zM1000 -84c0 -90 -29 -128 -119 -128h-632c-90 0 -129 38 -129 128v709c0 83 48 129 129 129h602c90 0 149 -39 149 -129v-709zM588 667
c22 -15 39 -33 46 -56l-6 -12l-121 -35c-18 -5 -25 -7 -31 -7s-13 5 -13 12c0 6 1 12 12 19zM512.5 414.7c-22.4 -51.7 -47.8 -109.8 -71.6 -166.7c23.8 -0.300003 56.3 -2 78.1 -2c17.3 0 41 0.5 62.5 1.10001c-18.6 48 -41.4 103.9 -69 167.6zM423.2 205.1
c-25.5 -62.9 -47.5 -121.8 -59.2 -166.1c-9 2 -26 2 -34 2s-33 0 -42 -2c76 165 149 329 221 495h53c69 -164 168 -420 205 -495c-13 2 -48 2 -61 2c-12 0 -40 0 -53 -2c-4.29999 15.9 -20.5 72.1 -55.8 166.6c-24.6 0.699997 -50.6 1.39999 -74.2 1.39999
c-27 0 -70.7 -0.899994 -99.8 -1.89999z" />
    <glyph glyph-name="Acircumflex" unicode="&#xc2;" 
d="M249 718c-60 0 -93 -33 -93 -93v-678c0 -60 33 -83 93 -83h572c60 0 83 23 83 83v678c0 60 -23 93 -83 93h-572zM1000 -84c0 -90 -29 -128 -119 -128h-632c-90 0 -129 38 -129 128v709c0 83 48 129 129 129h602c90 0 149 -39 149 -129v-709zM648 579l-13 -21
c-37 14 -71 33 -105 49c-34 -16 -68 -35 -105 -49l-13 21c36 29 75 67 106 98h24c31 -33 71 -68 106 -98zM512.5 414.7c-22.4 -51.7 -47.8 -109.8 -71.6 -166.7c23.8 -0.300003 56.3 -2 78.1 -2c17.3 0 41 0.5 62.5 1.10001c-18.6 48 -41.4 103.9 -69 167.6zM423.2 205.1
c-25.5 -62.9 -47.5 -121.8 -59.2 -166.1c-9 2 -26 2 -34 2s-33 0 -42 -2c76 165 149 329 221 495h53c69 -164 168 -420 205 -495c-13 2 -48 2 -61 2c-12 0 -40 0 -53 -2c-4.29999 15.9 -20.5 72.1 -55.8 166.6c-24.6 0.699997 -50.6 1.39999 -74.2 1.39999
c-27 0 -70.7 -0.899994 -99.8 -1.89999z" />
    <glyph glyph-name="Atilde" unicode="&#xc3;" 
d="M249 718c-60 0 -93 -33 -93 -93v-678c0 -60 33 -83 93 -83h572c60 0 83 23 83 83v678c0 60 -23 93 -83 93h-572zM1000 -84c0 -90 -29 -128 -119 -128h-632c-90 0 -129 38 -129 128v709c0 83 48 129 129 129h602c90 0 149 -39 149 -129v-709zM596 618.1
c18.7 0 28.7 6.60004 40.8 47.3l23 -7.70001c-11 -56.1 -35.2 -89.1 -74.8 -89.1c-19.8 0 -37.3 12.1 -53.8 24.2c-16.5 11 -33 22 -48.4 22c-22 0 -30.8 -12.1 -39.6 -44l-22 6.60004c12.1 56.1 31.8 86.9 68.1 86.9c26.4 0 45.2 -13.2 61.7 -26.4
c14.3 -11 28.5 -19.8 45 -19.8zM512.5 414.7c-22.4 -51.7 -47.8 -109.8 -71.6 -166.7c23.8 -0.300003 56.3 -2 78.1 -2c17.3 0 41 0.5 62.5 1.10001c-18.6 48 -41.4 103.9 -69 167.6zM423.2 205.1c-25.5 -62.9 -47.5 -121.8 -59.2 -166.1c-9 2 -26 2 -34 2s-33 0 -42 -2
c76 165 149 329 221 495h53c69 -164 168 -420 205 -495c-13 2 -48 2 -61 2c-12 0 -40 0 -53 -2c-4.29999 15.9 -20.5 72.1 -55.8 166.6c-24.6 0.699997 -50.6 1.39999 -74.2 1.39999c-27 0 -70.7 -0.899994 -99.8 -1.89999z" />
    <glyph glyph-name="Adieresis" unicode="&#xc4;" 
d="M606.5 591c0 24.2 19.8 44 45.1 44c23.1 0 44 -19.8 44 -44s-20.9 -44 -44 -44c-25.3 0 -45.1 19.8 -45.1 44zM374.4 591c0 24.2 20.9 44 45.1 44s44 -19.8 44 -44s-19.8 -44 -44 -44s-45.1 19.8 -45.1 44zM249 718c-60 0 -93 -33 -93 -93v-678c0 -60 33 -83 93 -83h572
c60 0 83 23 83 83v678c0 60 -23 93 -83 93h-572zM1000 -84c0 -90 -29 -128 -119 -128h-632c-90 0 -129 38 -129 128v709c0 83 48 129 129 129h602c90 0 149 -39 149 -129v-709zM512.5 414.7c-22.4 -51.7 -47.8 -109.8 -71.6 -166.7c23.8 -0.300003 56.3 -2 78.1 -2
c17.3 0 41 0.5 62.5 1.10001c-18.6 48 -41.4 103.9 -69 167.6zM423.2 205.1c-25.5 -62.9 -47.5 -121.8 -59.2 -166.1c-9 2 -26 2 -34 2s-33 0 -42 -2c76 165 149 329 221 495h53c69 -164 168 -420 205 -495c-13 2 -48 2 -61 2c-12 0 -40 0 -53 -2
c-4.29999 15.9 -20.5 72.1 -55.8 166.6c-24.6 0.699997 -50.6 1.39999 -74.2 1.39999c-27 0 -70.7 -0.899994 -99.8 -1.89999z" />
    <glyph glyph-name="Aring" unicode="&#xc5;" 
d="M533 622c-19 0 -34 -15.7 -34 -35c0 -17.6 15.2 -35 34 -35c18.5 0 33 17.6 33 35c0 19.4 -15.2 35 -33 35zM532 656c38.5 0 72 -29.8 72 -69c0 -26.5 -15.7 -49.6 -38.6 -61.1c68.8 -164.2 165.2 -413.1 201.6 -486.9c-13 2 -48 2 -61 2c-12 0 -40 0 -53 -2
c-4.29999 15.9 -20.5 72.1 -55.8 166.6c-24.6 0.699997 -50.6 1.39999 -74.2 1.39999c-27 0 -70.7 -0.899994 -99.8 -1.89999c-25.5 -62.9 -47.5 -121.8 -59.2 -166.1c-9 2 -26 2 -34 2s-33 0 -42 -2c74.4 161.5 145.9 322.1 216.4 484.5c-25 10.4 -43.4 34.3 -43.4 63.5
c0 39.2 33.3 69 71 69zM249 718c-60 0 -93 -33 -93 -93v-678c0 -60 33 -83 93 -83h572c60 0 83 23 83 83v678c0 60 -23 93 -83 93h-572zM1000 -84c0 -90 -29 -128 -119 -128h-632c-90 0 -129 38 -129 128v709c0 83 48 129 129 129h602c90 0 149 -39 149 -129v-709z
M512.5 414.7c-22.4 -51.7 -47.8 -109.8 -71.6 -166.7c23.8 -0.300003 56.3 -2 78.1 -2c17.3 0 41 0.5 62.5 1.10001c-18.6 48 -41.4 103.9 -69 167.6z" />
    <glyph glyph-name="Ccedilla" unicode="&#xc7;" 
d="M495.1 -44l-10.4 10.4l31.2 68.2c-148.7 8.8 -223.9 115.4 -223.9 251.4c0 153 117 248 259 248c91 0 171 -33 171 -33l2 -3c-9 -36 -13 -59 -15 -97l-18 -1c-31 62 -83 90 -151 90c-61 0 -139 -46 -139 -198c0 -110 42.9 -204 149 -204c70 0 121 16 174 75l17 -28
c-47 -61.8 -120.4 -95.5 -188 -100.4l-15.8 -38.7c54.8 0 69.8 -31.7 69.8 -52.9c0 -36.6 -35.8 -63 -85 -63c-24.8 0 -36.7 2.2 -64.1 14.4l12.3 29.7c17.4 -7 29.5 -11.1 47.8 -11.1c20.4 0 36 11.6 36 26c0 11 -8.40002 21 -23 21c-13.2 0 -27 -1 -35.9 -4zM249 718
c-60 0 -93 -33 -93 -93v-678c0 -60 33 -83 93 -83h572c60 0 83 23 83 83v678c0 60 -23 93 -83 93h-572zM1000 -84c0 -90 -29 -128 -119 -128h-632c-90 0 -129 38 -129 128v709c0 83 48 129 129 129h602c90 0 149 -39 149 -129v-709z" />
    <glyph glyph-name="Egrave" unicode="&#xc8;" 
d="M453 191c0 -13 1 -85 6 -103c101 0 212 9 212 9l1 -3c0 -6 -1 -19 -1 -26c0 -8 1 -17 1 -27l-1 -3c-12 2 -29 3 -45 3h-221c-26 0 -55 -3 -55 -3v3c6 40 7 93 7 150v183c0 57 -1 108 -7 150l1 3s29 -3 54 -3h213c16 0 33 1 45 3l2 -3c-1 -10 -2 -20 -2 -26
c0 -7 1 -17 2 -23l-2 -3s-103 9 -204 9c-5 -18 -6 -94 -6 -107v-58c89 0 123 4 167 7l3 -2c-2 -7 -3 -17 -3 -24s1 -18 3 -25l-3 -2c-51 5 -131 8 -167 8v-87zM249 718c-60 0 -93 -33 -93 -93v-678c0 -60 33 -83 93 -83h572c60 0 83 23 83 83v678c0 60 -23 93 -83 93h-572z
M1000 -84c0 -90 -29 -128 -119 -128h-632c-90 0 -129 38 -129 128v709c0 83 48 129 129 129h602c90 0 149 -39 149 -129v-709zM467 677l113 -79c11 -7 12 -13 12 -19c0 -7 -6 -12 -12 -12s-14 2 -32 7l-121 35l-6 12c7 23 24 41 46 56z" />
    <glyph glyph-name="Eacute" unicode="&#xc9;" 
d="M453 191c0 -13 1 -85 6 -103c101 0 212 9 212 9l1 -3c0 -6 -1 -19 -1 -26c0 -8 1 -17 1 -27l-1 -3c-12 2 -29 3 -45 3h-221c-26 0 -55 -3 -55 -3v3c6 40 7 93 7 150v183c0 57 -1 108 -7 150l1 3s29 -3 54 -3h213c16 0 33 1 45 3l2 -3c-1 -10 -2 -20 -2 -26
c0 -7 1 -17 2 -23l-2 -3s-103 9 -204 9c-5 -18 -6 -94 -6 -107v-58c89 0 123 4 167 7l3 -2c-2 -7 -3 -17 -3 -24s1 -18 3 -25l-3 -2c-51 5 -131 8 -167 8v-87zM249 718c-60 0 -93 -33 -93 -93v-678c0 -60 33 -83 93 -83h572c60 0 83 23 83 83v678c0 60 -23 93 -83 93h-572z
M1000 -84c0 -90 -29 -128 -119 -128h-632c-90 0 -129 38 -129 128v709c0 83 48 129 129 129h602c90 0 149 -39 149 -129v-709zM578 677c22 -15 39 -33 46 -56l-6 -12l-121 -35c-18 -5 -25 -7 -31 -7s-13 5 -13 12c0 6 1 12 12 19z" />
    <glyph glyph-name="Ecircumflex" unicode="&#xca;" 
d="M453 191c0 -13 1 -85 6 -103c101 0 212 9 212 9l1 -3c0 -6 -1 -19 -1 -26c0 -8 1 -17 1 -27l-1 -3c-12 2 -29 3 -45 3h-221c-26 0 -55 -3 -55 -3v3c6 40 7 93 7 150v183c0 57 -1 108 -7 150l1 3s29 -3 54 -3h213c16 0 33 1 45 3l2 -3c-1 -10 -2 -20 -2 -26
c0 -7 1 -17 2 -23l-2 -3s-103 9 -204 9c-5 -18 -6 -94 -6 -107v-58c89 0 123 4 167 7l3 -2c-2 -7 -3 -17 -3 -24s1 -18 3 -25l-3 -2c-51 5 -131 8 -167 8v-87zM249 718c-60 0 -93 -33 -93 -93v-678c0 -60 33 -83 93 -83h572c60 0 83 23 83 83v678c0 60 -23 93 -83 93h-572z
M1000 -84c0 -90 -29 -128 -119 -128h-632c-90 0 -129 38 -129 128v709c0 83 48 129 129 129h602c90 0 149 -39 149 -129v-709zM628 579l-13 -21c-37 14 -71 33 -105 49c-34 -16 -68 -35 -105 -49l-13 21c36 29 75 67 106 98h24c31 -33 71 -68 106 -98z" />
    <glyph glyph-name="Edieresis" unicode="&#xcb;" 
d="M587 664c22.9 0 42 -18.8 42 -41c0 -23 -19 -42 -42 -42c-22.3 0 -40 19.4 -40 42c0 21.8 17.7 41 40 41zM446 663c24 0 40 -19.4 40 -41s-16 -41 -40 -41c-22.8 0 -41 18.2 -41 41s18.2 41 41 41zM453 191c0 -13 1 -85 6 -103c101 0 212 9 212 9l1 -3
c0 -6 -1 -19 -1 -26c0 -8 1 -17 1 -27l-1 -3c-12 2 -29 3 -45 3h-221c-26 0 -55 -3 -55 -3v3c6 40 7 93 7 150v183c0 57 -1 108 -7 150l1 3s29 -3 54 -3h213c16 0 33 1 45 3l2 -3c-1 -10 -2 -20 -2 -26c0 -7 1 -17 2 -23l-2 -3s-103 9 -204 9c-5 -18 -6 -94 -6 -107v-58
c89 0 123 4 167 7l3 -2c-2 -7 -3 -17 -3 -24s1 -18 3 -25l-3 -2c-51 5 -131 8 -167 8v-87zM249 718c-60 0 -93 -33 -93 -93v-678c0 -60 33 -83 93 -83h572c60 0 83 23 83 83v678c0 60 -23 93 -83 93h-572zM1000 -84c0 -90 -29 -128 -119 -128h-632c-90 0 -129 38 -129 128
v709c0 83 48 129 129 129h602c90 0 149 -39 149 -129v-709z" />
    <glyph glyph-name="Igrave" unicode="&#xcc;" 
d="M482 374c0 57 -2 108 -8 150l2 3s28 -3 54 -3s55 3 55 3l1 -3c-6 -39 -8 -93 -8 -150v-183c0 -57 2 -108 8 -150l-2 -3s-28 3 -54 3s-55 -3 -55 -3l-1 3c6 40 8 93 8 150v183zM249 718c-60 0 -93 -33 -93 -93v-678c0 -60 33 -83 93 -83h572c60 0 83 23 83 83v678
c0 60 -23 93 -83 93h-572zM1000 -84c0 -90 -29 -128 -119 -128h-632c-90 0 -129 38 -129 128v709c0 83 48 129 129 129h602c90 0 149 -39 149 -129v-709zM497 677l113 -79c11 -7 12 -13 12 -19c0 -7 -6 -12 -12 -12s-14 2 -32 7l-121 35l-6 12c7 23 24 41 46 56z" />
    <glyph glyph-name="Iacute" unicode="&#xcd;" 
d="M482 374c0 57 -2 108 -8 150l2 3s28 -3 54 -3s55 3 55 3l1 -3c-6 -39 -8 -93 -8 -150v-183c0 -57 2 -108 8 -150l-2 -3s-28 3 -54 3s-55 -3 -55 -3l-1 3c6 40 8 93 8 150v183zM249 718c-60 0 -93 -33 -93 -93v-678c0 -60 33 -83 93 -83h572c60 0 83 23 83 83v678
c0 60 -23 93 -83 93h-572zM1000 -84c0 -90 -29 -128 -119 -128h-632c-90 0 -129 38 -129 128v709c0 83 48 129 129 129h602c90 0 149 -39 149 -129v-709zM578 707c22 -15 39 -33 46 -56l-6 -12l-121 -35c-18 -5 -25 -7 -31 -7s-13 5 -13 12c0 6 1 12 12 19z" />
    <glyph glyph-name="Icircumflex" unicode="&#xce;" 
d="M482 374c0 57 -2 108 -8 150l2 3s28 -3 54 -3s55 3 55 3l1 -3c-6 -39 -8 -93 -8 -150v-183c0 -57 2 -108 8 -150l-2 -3s-28 3 -54 3s-55 -3 -55 -3l-1 3c6 40 8 93 8 150v183zM249 718c-60 0 -93 -33 -93 -93v-678c0 -60 33 -83 93 -83h572c60 0 83 23 83 83v678
c0 60 -23 93 -83 93h-572zM1000 -84c0 -90 -29 -128 -119 -128h-632c-90 0 -129 38 -129 128v709c0 83 48 129 129 129h602c90 0 149 -39 149 -129v-709zM651 579l-13 -21c-37 14 -71 33 -105 49c-34 -16 -68 -35 -105 -49l-13 21c36 29 75 67 106 98h24
c31 -33 71 -68 106 -98z" />
    <glyph glyph-name="Idieresis" unicode="&#xcf;" 
d="M482 374c0 57 -2 108 -8 150l2 3s28 -3 54 -3s55 3 55 3l1 -3c-6 -39 -8 -93 -8 -150v-183c0 -57 2 -108 8 -150l-2 -3s-28 3 -54 3s-55 -3 -55 -3l-1 3c6 40 8 93 8 150v183zM249 718c-60 0 -93 -33 -93 -93v-678c0 -60 33 -83 93 -83h572c60 0 83 23 83 83v678
c0 60 -23 93 -83 93h-572zM1000 -84c0 -90 -29 -128 -119 -128h-632c-90 0 -129 38 -129 128v709c0 83 48 129 129 129h602c90 0 149 -39 149 -129v-709zM560 625c0 24 19 43 43 43c23 0 43 -19 43 -43c0 -23 -20 -43 -43 -43c-24 0 -43 20 -43 43zM409 625
c0 24 19 43 43 43s43 -19 43 -43c0 -23 -19 -43 -43 -43s-43 20 -43 43z" />
    <glyph glyph-name="Eth" unicode="&#xd0;" 
d="M413 109c0 -24 8 -30 82 -30c105 0 176 23 176 175c0 115 -33 233 -195 233c-37 0 -63 -4 -63 -30v-172h35v-29h-35v-147zM365 524c55 0 85 3 139 3c144 0 276 -116 276 -255c0 -185 -156 -233 -262 -233c-77 0 -93 2 -153 2c-26 0 -55 -3 -55 -3l-1 3c6 40 8 93 8 150
v65h-72v29h72v89c0 57 -2 108 -8 150l2 3s28 -3 54 -3zM249 718c-60 0 -93 -33 -93 -93v-678c0 -60 33 -83 93 -83h572c60 0 83 23 83 83v678c0 60 -23 93 -83 93h-572zM1000 -84c0 -90 -29 -128 -119 -128h-632c-90 0 -129 38 -129 128v709c0 83 48 129 129 129h602
c90 0 149 -39 149 -129v-709z" />
    <glyph glyph-name="Ntilde" unicode="&#xd1;" 
d="M595 615.1c18.7 0 28.7 6.60004 40.8 47.3l23 -7.70001c-11 -56.1 -35.2 -89.1 -74.8 -89.1c-19.8 0 -37.3 12.1 -53.8 24.2c-16.5 11 -33 22 -48.4 22c-22 0 -30.8 -12.1 -39.6 -44l-22 6.60004c12.1 56.1 31.8 86.9 68.1 86.9c26.4 0 45.2 -13.2 61.7 -26.4
c14.3 -11 28.5 -19.8 45 -19.8zM322 375c0 56 -2 107 -8 150l2 2s28 -2 53 -2c3 0 25 1 25 1l258 -333c32 -42 39 -60 39 -19v201c0 56 -2 107 -8 150l-13 2s30 -2 48 -2c17 0 20 2 20 2l16 -2c-6 -40 -8 -94 -8 -150v-318c0 -15 -20 -24 -30 -24c-37 0 -55 6 -91 52
l-235 297c-28 36 -14 34 -14 -12v-179c0 -56 2 -108 8 -150l-2 -2s-15 2 -33 2c-17 0 -34 -2 -34 -2l-1 2c6 40 8 94 8 150v184zM249 718c-60 0 -93 -33 -93 -93v-678c0 -60 33 -83 93 -83h572c60 0 83 23 83 83v678c0 60 -23 93 -83 93h-572zM1000 -84
c0 -90 -29 -128 -119 -128h-632c-90 0 -129 38 -129 128v709c0 83 48 129 129 129h602c90 0 149 -39 149 -129v-709z" />
    <glyph glyph-name="Ograve" unicode="&#xd2;" 
d="M528 494c-72 0 -136 -50 -136 -208c0 -144 71 -212 161 -212c86 0 134 65 134 200c0 156 -53 220 -159 220zM796 288c0 -150 -97 -254 -258 -254c-148 0 -255 98 -255 240c0 146 102 260 255 260c159 0 258 -98 258 -246zM249 718c-60 0 -93 -33 -93 -93v-678
c0 -60 33 -83 93 -83h572c60 0 83 23 83 83v678c0 60 -23 93 -83 93h-572zM1000 -84c0 -90 -29 -128 -119 -128h-632c-90 0 -129 38 -129 128v709c0 83 48 129 129 129h602c90 0 149 -39 149 -129v-709zM497 677l113 -79c11 -7 12 -13 12 -19c0 -7 -6 -12 -12 -12
s-14 2 -32 7l-121 35l-6 12c7 23 24 41 46 56z" />
    <glyph glyph-name="Oacute" unicode="&#xd3;" 
d="M528 494c-72 0 -136 -50 -136 -208c0 -144 71 -212 161 -212c86 0 134 65 134 200c0 156 -53 220 -159 220zM796 288c0 -150 -97 -254 -258 -254c-148 0 -255 98 -255 240c0 146 102 260 255 260c159 0 258 -98 258 -246zM249 718c-60 0 -93 -33 -93 -93v-678
c0 -60 33 -83 93 -83h572c60 0 83 23 83 83v678c0 60 -23 93 -83 93h-572zM1000 -84c0 -90 -29 -128 -119 -128h-632c-90 0 -129 38 -129 128v709c0 83 48 129 129 129h602c90 0 149 -39 149 -129v-709zM578 677c22 -15 39 -33 46 -56l-6 -12l-121 -35c-18 -5 -25 -7 -31 -7
s-13 5 -13 12c0 6 1 12 12 19z" />
    <glyph glyph-name="Ocircumflex" unicode="&#xd4;" 
d="M528 494c-72 0 -136 -50 -136 -208c0 -144 71 -212 161 -212c86 0 134 65 134 200c0 156 -53 220 -159 220zM796 288c0 -150 -97 -254 -258 -254c-148 0 -255 98 -255 240c0 146 102 260 255 260c159 0 258 -98 258 -246zM249 718c-60 0 -93 -33 -93 -93v-678
c0 -60 33 -83 93 -83h572c60 0 83 23 83 83v678c0 60 -23 93 -83 93h-572zM1000 -84c0 -90 -29 -128 -119 -128h-632c-90 0 -129 38 -129 128v709c0 83 48 129 129 129h602c90 0 149 -39 149 -129v-709zM658 579l-13 -21c-37 14 -71 33 -105 49c-34 -16 -68 -35 -105 -49
l-13 21c36 29 75 67 106 98h24c31 -33 71 -68 106 -98z" />
    <glyph glyph-name="Otilde" unicode="&#xd5;" 
d="M593 615.1c18.7 0 28.7 6.60004 40.8 47.3l23 -7.70001c-11 -56.1 -35.2 -89.1 -74.8 -89.1c-19.8 0 -37.3 12.1 -53.8 24.2c-16.5 11 -33 22 -48.4 22c-22 0 -30.8 -12.1 -39.6 -44l-22 6.60004c12.1 56.1 31.8 86.9 68.1 86.9c26.4 0 45.2 -13.2 61.7 -26.4
c14.3 -11 28.5 -19.8 45 -19.8zM528 494c-72 0 -136 -50 -136 -208c0 -144 71 -212 161 -212c86 0 134 65 134 200c0 156 -53 220 -159 220zM796 288c0 -150 -97 -254 -258 -254c-148 0 -255 98 -255 240c0 146 102 260 255 260c159 0 258 -98 258 -246zM249 718
c-60 0 -93 -33 -93 -93v-678c0 -60 33 -83 93 -83h572c60 0 83 23 83 83v678c0 60 -23 93 -83 93h-572zM1000 -84c0 -90 -29 -128 -119 -128h-632c-90 0 -129 38 -129 128v709c0 83 48 129 129 129h602c90 0 149 -39 149 -129v-709z" />
    <glyph glyph-name="Odieresis" unicode="&#xd6;" 
d="M661 594c0 23 18 41 41 41c22 0 40 -18 40 -41c0 -22 -18 -40 -40 -40c-23 0 -41 18 -41 40zM341 594c0 23 18 41 40 41c23 0 41 -18 41 -41c0 -22 -18 -40 -41 -40c-22 0 -40 18 -40 40zM528 494c-72 0 -136 -50 -136 -208c0 -144 71 -212 161 -212c86 0 134 65 134 200
c0 156 -53 220 -159 220zM796 288c0 -150 -97 -254 -258 -254c-148 0 -255 98 -255 240c0 146 102 260 255 260c159 0 258 -98 258 -246zM249 718c-60 0 -93 -33 -93 -93v-678c0 -60 33 -83 93 -83h572c60 0 83 23 83 83v678c0 60 -23 93 -83 93h-572zM1000 -84
c0 -90 -29 -128 -119 -128h-632c-90 0 -129 38 -129 128v709c0 83 48 129 129 129h602c90 0 149 -39 149 -129v-709z" />
    <glyph glyph-name="multiply" unicode="&#xd7;" 
d="M647.9 322l-92.9 -92l92.9 -90.9l-37 -37l-90.9 92l-92 -92l-37 37l93 90.9l-93 92l37 36.9l92 -92.9l90.9 92.9zM249 718c-60 0 -93 -33 -93 -93v-678c0 -60 33 -83 93 -83h572c60 0 83 23 83 83v678c0 60 -23 93 -83 93h-572zM1000 -84c0 -90 -29 -128 -119 -128h-632
c-90 0 -129 38 -129 128v709c0 83 48 129 129 129h602c90 0 149 -39 149 -129v-709z" />
    <glyph glyph-name="Oslash" unicode="&#xd8;" 
d="M364 19l-25 19l36.9 45.4c-57.8 42.3 -92.9 109.3 -92.9 190.6c0 146 102 260 255 260c66.5 0 122.5 -17.1 165.2 -47.9l52.8 64.9l25 -18l-54.1 -66.7c44.5 -43 69.1 -104.4 69.1 -178.3c0 -150 -97 -254 -258 -254c-50.9 0 -96.9 11.6 -135.4 32.6zM528 494
c-72 0 -136 -50 -136 -208c0 -60.3 12.4 -107.3 33.5 -141.5l230.9 284c-26.1 45.3 -68.9 65.5 -128.4 65.5zM249 718c-60 0 -93 -33 -93 -93v-678c0 -60 33 -83 93 -83h572c60 0 83 23 83 83v678c0 60 -23 93 -83 93h-572zM1000 -84c0 -90 -29 -128 -119 -128h-632
c-90 0 -129 38 -129 128v709c0 83 48 129 129 129h602c90 0 149 -39 149 -129v-709zM670.6 396.9l-225.6 -278c28.4 -30.2 66.2 -44.9 108 -44.9c86 0 134 65 134 200c0 50.2 -5.40002 90.8 -16.4 122.9z" />
    <glyph glyph-name="Ugrave" unicode="&#xd9;" 
d="M666 376c0 56 -2 107 -8 150l2 2s20 -2 38 -2c17 0 38 2 38 2l1 -2c-6 -40 -7 -94 -7 -150v-113c0 -140 -57 -229 -206 -229c-78 0 -192 32 -192 185v157c0 56 -1 107 -7 150l1 2s29 -2 54 -2c26 0 55 2 55 2l1 -2c-6 -40 -8 -94 -8 -150v-132c0 -57 3 -165 112 -165
c115 0 126 87 126 171v126zM249 718c-60 0 -93 -33 -93 -93v-678c0 -60 33 -83 93 -83h572c60 0 83 23 83 83v678c0 60 -23 93 -83 93h-572zM1000 -84c0 -90 -29 -128 -119 -128h-632c-90 0 -129 38 -129 128v709c0 83 48 129 129 129h602c90 0 149 -39 149 -129v-709z
M497 677l113 -79c11 -7 12 -13 12 -19c0 -7 -6 -12 -12 -12s-14 2 -32 7l-121 35l-6 12c7 23 24 41 46 56z" />
    <glyph glyph-name="Uacute" unicode="&#xda;" 
d="M666 376c0 56 -2 107 -8 150l2 2s20 -2 38 -2c17 0 38 2 38 2l1 -2c-6 -40 -7 -94 -7 -150v-113c0 -140 -57 -229 -206 -229c-78 0 -192 32 -192 185v157c0 56 -1 107 -7 150l1 2s29 -2 54 -2c26 0 55 2 55 2l1 -2c-6 -40 -8 -94 -8 -150v-132c0 -57 3 -165 112 -165
c115 0 126 87 126 171v126zM249 718c-60 0 -93 -33 -93 -93v-678c0 -60 33 -83 93 -83h572c60 0 83 23 83 83v678c0 60 -23 93 -83 93h-572zM1000 -84c0 -90 -29 -128 -119 -128h-632c-90 0 -129 38 -129 128v709c0 83 48 129 129 129h602c90 0 149 -39 149 -129v-709z
M618 677c22 -15 39 -33 46 -56l-6 -12l-121 -35c-18 -5 -25 -7 -31 -7s-13 5 -13 12c0 6 1 12 12 19z" />
    <glyph glyph-name="Ucircumflex" unicode="&#xdb;" 
d="M666 376c0 56 -2 107 -8 150l2 2s20 -2 38 -2c17 0 38 2 38 2l1 -2c-6 -40 -7 -94 -7 -150v-113c0 -140 -57 -229 -206 -229c-78 0 -192 32 -192 185v157c0 56 -1 107 -7 150l1 2s29 -2 54 -2c26 0 55 2 55 2l1 -2c-6 -40 -8 -94 -8 -150v-132c0 -57 3 -165 112 -165
c115 0 126 87 126 171v126zM249 718c-60 0 -93 -33 -93 -93v-678c0 -60 33 -83 93 -83h572c60 0 83 23 83 83v678c0 60 -23 93 -83 93h-572zM1000 -84c0 -90 -29 -128 -119 -128h-632c-90 0 -129 38 -129 128v709c0 83 48 129 129 129h602c90 0 149 -39 149 -129v-709z
M668 579l-13 -21c-37 14 -71 33 -105 49c-34 -16 -68 -35 -105 -49l-13 21c36 29 75 67 106 98h24c31 -33 71 -68 106 -98z" />
    <glyph glyph-name="Udieresis" unicode="&#xdc;" 
d="M571 595c0 22 18 40 41 40c21 0 40 -18 40 -40s-19 -40 -40 -40c-23 0 -41 18 -41 40zM441 595c0 22 19 40 41 40s40 -18 40 -40s-18 -40 -40 -40s-41 18 -41 40zM666 376c0 56 -2 107 -8 150l2 2s20 -2 38 -2c17 0 38 2 38 2l1 -2c-6 -40 -7 -94 -7 -150v-113
c0 -140 -57 -229 -206 -229c-78 0 -192 32 -192 185v157c0 56 -1 107 -7 150l1 2s29 -2 54 -2c26 0 55 2 55 2l1 -2c-6 -40 -8 -94 -8 -150v-132c0 -57 3 -165 112 -165c115 0 126 87 126 171v126zM249 718c-60 0 -93 -33 -93 -93v-678c0 -60 33 -83 93 -83h572
c60 0 83 23 83 83v678c0 60 -23 93 -83 93h-572zM1000 -84c0 -90 -29 -128 -119 -128h-632c-90 0 -129 38 -129 128v709c0 83 48 129 129 129h602c90 0 149 -39 149 -129v-709z" />
    <glyph glyph-name="Yacute" unicode="&#xdd;" 
d="M249 718c-60 0 -93 -33 -93 -93v-678c0 -60 33 -83 93 -83h572c60 0 83 23 83 83v678c0 60 -23 93 -83 93h-572zM1000 -84c0 -90 -29 -128 -119 -128h-632c-90 0 -129 38 -129 128v709c0 83 48 129 129 129h602c90 0 149 -39 149 -129v-709zM598 677
c22 -15 39 -33 46 -56l-6 -12l-121 -35c-18 -5 -25 -7 -31 -7s-13 5 -13 12c0 6 1 12 12 19zM580.2 254.3c0.599976 -74.3 2.5 -180.4 5.79999 -216.3c-12 3 -44 3 -55 3s-42 0 -54 -3c4.20001 41.8 4.89999 136 5 209c-28 49.1 -142 235 -172 280c12 -3 46 -3 58 -3
c13 0 46 0 59 3c37.8 -74.7 79 -141.7 123.6 -217.5c41.4 65.1 87.5 143.8 123.4 217.5c8 -3 37 -3 47 -3c9 0 21 0 31 3c-89.8 -138.7 -141.8 -212.8 -171.8 -272.7z" />
    <glyph glyph-name="Thorn" unicode="&#xde;" 
d="M382 374c0 57 -2 108 -8 150l2 3s28 -3 54 -3s55 3 55 3l1 -3c-3.79999 -24.9 -6 -55.9 -7.10001 -89.9c26.9 0.899994 51.6 0.899994 65.1 0.899994c139 0 184 -84 184 -137c0 -56 -61 -147 -194 -147c-25.3 0 -43.6 0.899994 -55.7 4.3
c0.700012 -42.7 3 -81.3 7.70001 -114.3l-2 -3s-28 3 -54 3s-55 -3 -55 -3l-1 3c6 40 8 93 8 150v183zM249 718c-60 0 -93 -33 -93 -93v-678c0 -60 33 -83 93 -83h572c60 0 83 23 83 83v678c0 60 -23 93 -83 93h-572zM1000 -84c0 -90 -29 -128 -119 -128h-632
c-90 0 -129 38 -129 128v709c0 83 48 129 129 129h602c90 0 149 -39 149 -129v-709zM478 191.5c8.10001 -1.8 25.4 -3.5 52 -3.5c54 0 94 13 94 110c0 90 -36 100 -81 100c-13.4 0 -48 -3.70001 -64.9 -8.39999c0 -5.20001 -0.100006 -10.4 -0.100006 -15.6v-182.5z" />
    <glyph glyph-name="germandbls" unicode="&#xdf;" 
d="M566 37c-38 0 -76 18 -82 22l-1 2c9 14 9 30 15 50l8 1c8 -15 38 -40 60 -40s35 14 35 90c0 70 -35 128 -98 176v17c50 39 64 66 64 120c0 41 -4 61 -44 61c-78 0 -85 -79 -85 -159v-182c0 -56 0 -107 7 -150l-1 -2s-25 2 -51 2s-51 -2 -51 -2v2c6 40 7 94 7 150v120
c0 9 -2 12 -9 12h-33c-4 0 -5 1 -5 4v21c0 6 5 15 18 15c23 0 29 16 29 36c0 124 121 166 181 166c78 0 125 -48 125 -84c0 -58 -33 -92 -85 -132v-1c59 -39 126 -90 126 -177c0 -79 -61 -138 -130 -138zM249 718c-60 0 -93 -33 -93 -93v-678c0 -60 33 -83 93 -83h572
c60 0 83 23 83 83v678c0 60 -23 93 -83 93h-572zM1000 -84c0 -90 -29 -128 -119 -128h-632c-90 0 -129 38 -129 128v709c0 83 48 129 129 129h602c90 0 149 -39 149 -129v-709z" />
    <glyph glyph-name="agrave" unicode="&#xe0;" 
d="M521.7 588.1l57.1 -101.2c3.29999 -6.60001 6.70001 -15.4 6.70001 -22c0 -7.69998 -6.70001 -13.2 -13.3 -13.2c-6.60004 0 -15.4 4.39999 -29.7 16.5l-99 86.9l1.20001 8.80005c6.59998 7.69995 30.8 26.4 60.5 26.4c4.39999 0 13.2 -1.09998 16.5 -2.20001zM576 208
l-60 -16c-42 -11 -52 -37 -52 -68c0 -20 12 -43 35 -43c21 0 45 17 64 32c6 5 13 10 13 20v75zM656 107c0 -15 9 -23 18 -23c10 0 20 11 27 16l2 -2c8 -4 12 -12 16 -20c-24 -30 -55 -42 -84 -42c-33 0 -54 20 -60 44h-1c-38 -34 -75 -44 -104 -44c-53 0 -96 26 -96 81
c0 51 60 95 132 112l66 16c2 0 4 3 4 9c0 57 -19 78 -59 78c-34 0 -65 -25 -85 -59l-17 1l-20 49l3 3c18 16 72 47 126 47c67 0 135 -25 135 -122c0 -8 -3 -122 -3 -144zM249 718c-60 0 -93 -33 -93 -93v-678c0 -60 33 -83 93 -83h572c60 0 83 23 83 83v678
c0 60 -23 93 -83 93h-572zM1000 -84c0 -90 -29 -128 -119 -128h-632c-90 0 -129 38 -129 128v709c0 83 48 129 129 129h602c90 0 149 -39 149 -129v-709z" />
    <glyph glyph-name="aacute" unicode="&#xe1;" 
d="M511.3 578.2c2.20001 1.09998 8.79999 2.29999 13.2 2.29999c25.3 0 40.7 -12.1 47.3 -19.8l7.70001 -19.9l-99 -89c-11 -9.89999 -23.1 -13.3 -30.8 -13.3c-6.60001 0 -13.2 6.70001 -13.2 12.2c0 4.39999 1.10001 12.1 6.60001 19.8zM576 208l-60 -16
c-42 -11 -52 -37 -52 -68c0 -20 12 -43 35 -43c21 0 45 17 64 32c6 5 13 10 13 20v75zM656 107c0 -15 9 -23 18 -23c10 0 20 11 27 16l2 -2c8 -4 12 -12 16 -20c-24 -30 -55 -42 -84 -42c-33 0 -54 20 -60 44h-1c-38 -34 -75 -44 -104 -44c-53 0 -96 26 -96 81
c0 51 60 95 132 112l66 16c2 0 4 3 4 9c0 57 -19 78 -59 78c-34 0 -65 -25 -85 -59l-17 1l-20 49l3 3c18 16 72 47 126 47c67 0 135 -25 135 -122c0 -8 -3 -122 -3 -144zM249 718c-60 0 -93 -33 -93 -93v-678c0 -60 33 -83 93 -83h572c60 0 83 23 83 83v678
c0 60 -23 93 -83 93h-572zM1000 -84c0 -90 -29 -128 -119 -128h-632c-90 0 -129 38 -129 128v709c0 83 48 129 129 129h602c90 0 149 -39 149 -129v-709z" />
    <glyph glyph-name="acircumflex" unicode="&#xe2;" 
d="M547 548.8c25.3 -40.7 56 -77 86.8 -111.1l-20.8 -15.5c-35.2 22 -59.4 38.6 -88 68.3c-30.8 -31.9 -54 -46.3 -87 -68.3l-20.8 15.5c29.7 34.1 62.6 71.5 86.8 111.1h43zM576 208l-60 -16c-42 -11 -52 -37 -52 -68c0 -20 12 -43 35 -43c21 0 45 17 64 32
c6 5 13 10 13 20v75zM656 107c0 -15 9 -23 18 -23c10 0 20 11 27 16l2 -2c8 -4 12 -12 16 -20c-24 -30 -55 -42 -84 -42c-33 0 -54 20 -60 44h-1c-38 -34 -75 -44 -104 -44c-53 0 -96 26 -96 81c0 51 60 95 132 112l66 16c2 0 4 3 4 9c0 57 -19 78 -59 78
c-34 0 -65 -25 -85 -59l-17 1l-20 49l3 3c18 16 72 47 126 47c67 0 135 -25 135 -122c0 -8 -3 -122 -3 -144zM249 718c-60 0 -93 -33 -93 -93v-678c0 -60 33 -83 93 -83h572c60 0 83 23 83 83v678c0 60 -23 93 -83 93h-572zM1000 -84c0 -90 -29 -128 -119 -128h-632
c-90 0 -129 38 -129 128v709c0 83 48 129 129 129h602c90 0 149 -39 149 -129v-709z" />
    <glyph glyph-name="atilde" unicode="&#xe3;" 
d="M574 486.1c18.7 0 28.7 6.60001 40.8 47.3l23 -7.70001c-11 -56.1 -35.2 -89.1 -74.8 -89.1c-19.8 0 -37.3 12.1 -53.8 24.2c-16.5 11 -33 22 -48.4 22c-22 0 -30.8 -12.1 -39.6 -44l-22 6.60001c12.1 56.1 31.8 86.9 68.1 86.9c26.4 0 45.2 -13.2 61.7 -26.4
c14.3 -11 28.5 -19.8 45 -19.8zM576 208l-60 -16c-42 -11 -52 -37 -52 -68c0 -20 12 -43 35 -43c21 0 45 17 64 32c6 5 13 10 13 20v75zM656 107c0 -15 9 -23 18 -23c10 0 20 11 27 16l2 -2c8 -4 12 -12 16 -20c-24 -30 -55 -42 -84 -42c-33 0 -54 20 -60 44h-1
c-38 -34 -75 -44 -104 -44c-53 0 -96 26 -96 81c0 51 60 95 132 112l66 16c2 0 4 3 4 9c0 57 -19 78 -59 78c-34 0 -65 -25 -85 -59l-17 1l-20 49l3 3c18 16 72 47 126 47c67 0 135 -25 135 -122c0 -8 -3 -122 -3 -144zM249 718c-60 0 -93 -33 -93 -93v-678
c0 -60 33 -83 93 -83h572c60 0 83 23 83 83v678c0 60 -23 93 -83 93h-572zM1000 -84c0 -90 -29 -128 -119 -128h-632c-90 0 -129 38 -129 128v709c0 83 48 129 129 129h602c90 0 149 -39 149 -129v-709z" />
    <glyph glyph-name="adieresis" unicode="&#xe4;" 
d="M547.8 501c0 25.3 19.8 45.1 44 45.1s45.1 -19.8 45.1 -45.1c0 -24.2 -20.9 -44 -45.1 -44s-44 19.8 -44 44zM398.2 501c0 25.3 20.8 45.1 45 45.1c24.2 0 44.1 -19.8 44.1 -45.1c0 -24.2 -19.9 -44 -44.1 -44c-24.2 0 -45 19.8 -45 44zM576 208l-60 -16
c-42 -11 -52 -37 -52 -68c0 -20 12 -43 35 -43c21 0 45 17 64 32c6 5 13 10 13 20v75zM656 107c0 -15 9 -23 18 -23c10 0 20 11 27 16l2 -2c8 -4 12 -12 16 -20c-24 -30 -55 -42 -84 -42c-33 0 -54 20 -60 44h-1c-38 -34 -75 -44 -104 -44c-53 0 -96 26 -96 81
c0 51 60 95 132 112l66 16c2 0 4 3 4 9c0 57 -19 78 -59 78c-34 0 -65 -25 -85 -59l-17 1l-20 49l3 3c18 16 72 47 126 47c67 0 135 -25 135 -122c0 -8 -3 -122 -3 -144zM249 718c-60 0 -93 -33 -93 -93v-678c0 -60 33 -83 93 -83h572c60 0 83 23 83 83v678
c0 60 -23 93 -83 93h-572zM1000 -84c0 -90 -29 -128 -119 -128h-632c-90 0 -129 38 -129 128v709c0 83 48 129 129 129h602c90 0 149 -39 149 -129v-709z" />
    <glyph glyph-name="aring" unicode="&#xe5;" 
d="M517 555c-19 0 -34 -15.7 -34 -35c0 -17.6 15.2 -35 34 -35c18.5 0 33 17.6 33 35c0 19.4 -15.2 35 -33 35zM516 589c38.5 0 72 -29.8 72 -69c0 -38.1 -32.4 -69 -72 -69c-37.7 0 -71 29.8 -71 69s33.3 69 71 69zM576 208l-60 -16c-42 -11 -52 -37 -52 -68
c0 -20 12 -43 35 -43c21 0 45 17 64 32c6 5 13 10 13 20v75zM656 107c0 -15 9 -23 18 -23c10 0 20 11 27 16l2 -2c8 -4 12 -12 16 -20c-24 -30 -55 -42 -84 -42c-33 0 -54 20 -60 44h-1c-38 -34 -75 -44 -104 -44c-53 0 -96 26 -96 81c0 51 60 95 132 112l66 16c2 0 4 3 4 9
c0 57 -19 78 -59 78c-34 0 -65 -25 -85 -59l-17 1l-20 49l3 3c18 16 72 47 126 47c67 0 135 -25 135 -122c0 -8 -3 -122 -3 -144zM249 718c-60 0 -93 -33 -93 -93v-678c0 -60 33 -83 93 -83h572c60 0 83 23 83 83v678c0 60 -23 93 -83 93h-572zM1000 -84
c0 -90 -29 -128 -119 -128h-632c-90 0 -129 38 -129 128v709c0 83 48 129 129 129h602c90 0 149 -39 149 -129v-709z" />
    <glyph glyph-name="ae" unicode="&#xe6;" 
d="M473.4 131.4c4.80002 13.8 8 50.3 8.5 75.9c-75.4 -7.60001 -126.4 -30.8 -126.4 -74.3c0 -31.1 17.4 -42 50.9 -42c26.7 0 57.6 14.4 67 40.4zM633 342c-40.7 0 -69.6 -31.3 -77.1 -87.5c101.6 5 125.1 -8.5 125.1 28.5c0 22.5 -18.2 59 -48 59zM414 342
c-30.5 0 -63.4 -28.7 -85.5 -63.5l-2.5 -4l-19.9 2.10001l-15 57.7l4.5 6.30002l0.799988 0.600006c19.9 16.3 63.6 48.8 125.1 48.8c20.9 0 76.3 -2.60001 107.1 -47.7c25.6 30.7 63.9 47.7 105.4 47.7c89.9 0 124 -75.1 124 -105c0 -23.6 -4.20001 -44.4 -21.4 -59.3
l-0.599976 -0.5l-0.799988 -0.399994c-28.1 -14.6 -77.3 -8.40001 -181.2 -14.1c1.79999 -71.9 35.8 -116.7 86 -116.7c34.6 0 61.9 18.1 86.6 48.4l5.80005 7.10001l22.8 -31.9l-2 -3.8c-22.3 -43.5 -71.3 -74.8 -123.2 -74.8c-65 0 -91.9 27.9 -108.8 48.8
c-34.2 -30.6 -72.6 -48.8 -117 -48.8c-112.4 0 -129.2 54 -129.2 90c0 67.8 73.4 111.7 206.9 121.8c-1.5 61.9 -14.5 91.2 -67.9 91.2zM249 718c-60 0 -93 -33 -93 -93v-678c0 -60 33 -83 93 -83h572c60 0 83 23 83 83v678c0 60 -23 93 -83 93h-572zM1000 -84
c0 -90 -29 -128 -119 -128h-632c-90 0 -129 38 -129 128v709c0 83 48 129 129 129h602c90 0 149 -39 149 -129v-709z" />
    <glyph glyph-name="ccedilla" unicode="&#xe7;" 
d="M484.1 -39l-10.4 10.4l30.1 65.9c-93.9 9.9 -147.8 73.7 -147.8 162.7c0 106 82 173 183 173c37 0 85 -12 108 -24l1 -2l-17 -76l-13 -1c-20 34 -51 62 -80 62c-50 0 -90 -36 -90 -113c0 -79 43 -134 100 -134c30 0 59 10 88 46h2c10 -6 15 -12 16 -19
c-17.8 -38.4 -61.1 -71.6 -113.3 -75.6l-14.5 -35.5c54.8 0 69.8 -31.7 69.8 -52.9c0 -36.6 -35.8 -63 -85 -63c-24.8 0 -36.7 2.2 -64.1 14.4l12.3 29.7c17.4 -7 29.5 -11.1 47.8 -11.1c20.4 0 36 11.6 36 26c0 11 -8.40002 21 -23 21c-13.2 0 -27 -1 -35.9 -4zM249 718
c-60 0 -93 -33 -93 -93v-678c0 -60 33 -83 93 -83h572c60 0 83 23 83 83v678c0 60 -23 93 -83 93h-572zM1000 -84c0 -90 -29 -128 -119 -128h-632c-90 0 -129 38 -129 128v709c0 83 48 129 129 129h602c90 0 149 -39 149 -129v-709z" />
    <glyph glyph-name="egrave" unicode="&#xe8;" 
d="M536.7 568.1l57.1 -101.2c3.29999 -6.60001 6.70001 -15.4 6.70001 -22c0 -7.69998 -6.70001 -13.2 -13.3 -13.2c-6.60004 0 -15.4 4.39999 -29.7 16.5l-99 86.9l1.20001 8.80005c6.59998 7.69995 30.8 26.4 60.5 26.4c4.39996 0 13.2 -1.09998 16.5 -2.20001zM463 259
h107c8 0 11 4 11 10c0 54 -19 67 -47 67c-17 0 -60 -10 -71 -77zM666 129c11 -6 16 -15 16 -26c-29 -39 -85 -67 -139 -67c-112 0 -177 71 -177 157c0 114 97 180 168 180c100 0 142 -71 142 -134c0 -9 -5 -13 -13 -13h-202c0 -106 54 -139 97 -139c41 0 82 14 108 42z
M249 718c-60 0 -93 -33 -93 -93v-678c0 -60 33 -83 93 -83h572c60 0 83 23 83 83v678c0 60 -23 93 -83 93h-572zM1000 -84c0 -90 -29 -128 -119 -128h-632c-90 0 -129 38 -129 128v709c0 83 48 129 129 129h602c90 0 149 -39 149 -129v-709z" />
    <glyph glyph-name="eacute" unicode="&#xe9;" 
d="M535.3 568.2c2.20001 1.09998 8.79999 2.29999 13.2 2.29999c25.3 0 40.7 -12.1 47.3 -19.8l7.70001 -19.9l-99 -89c-11 -9.89999 -23.1 -13.3 -30.8 -13.3c-6.60001 0 -13.2 6.70001 -13.2 12.2c0 4.39999 1.10001 12.1 6.60001 19.8zM463 259h107c8 0 11 4 11 10
c0 54 -19 67 -47 67c-17 0 -60 -10 -71 -77zM666 129c11 -6 16 -15 16 -26c-29 -39 -85 -67 -139 -67c-112 0 -177 71 -177 157c0 114 97 180 168 180c100 0 142 -71 142 -134c0 -9 -5 -13 -13 -13h-202c0 -106 54 -139 97 -139c41 0 82 14 108 42zM249 718
c-60 0 -93 -33 -93 -93v-678c0 -60 33 -83 93 -83h572c60 0 83 23 83 83v678c0 60 -23 93 -83 93h-572zM1000 -84c0 -90 -29 -128 -119 -128h-632c-90 0 -129 38 -129 128v709c0 83 48 129 129 129h602c90 0 149 -39 149 -129v-709z" />
    <glyph glyph-name="ecircumflex" unicode="&#xea;" 
d="M554 548.8c25.3 -40.7 56 -77 86.8 -111.1l-20.8 -15.5c-35.2 22 -59.4 38.6 -88 68.3c-30.8 -31.9 -54 -46.3 -87 -68.3l-20.8 15.5c29.7 34.1 62.6 71.5 86.8 111.1h43zM463 259h107c8 0 11 4 11 10c0 54 -19 67 -47 67c-17 0 -60 -10 -71 -77zM666 129
c11 -6 16 -15 16 -26c-29 -39 -85 -67 -139 -67c-112 0 -177 71 -177 157c0 114 97 180 168 180c100 0 142 -71 142 -134c0 -9 -5 -13 -13 -13h-202c0 -106 54 -139 97 -139c41 0 82 14 108 42zM249 718c-60 0 -93 -33 -93 -93v-678c0 -60 33 -83 93 -83h572
c60 0 83 23 83 83v678c0 60 -23 93 -83 93h-572zM1000 -84c0 -90 -29 -128 -119 -128h-632c-90 0 -129 38 -129 128v709c0 83 48 129 129 129h602c90 0 149 -39 149 -129v-709z" />
    <glyph glyph-name="edieresis" unicode="&#xeb;" 
d="M565.8 501c0 25.3 19.8 45.1 44 45.1s45.1 -19.8 45.1 -45.1c0 -24.2 -20.9 -44 -45.1 -44s-44 19.8 -44 44zM416.2 501c0 25.3 20.8 45.1 45 45.1c24.2 0 44.1 -19.8 44.1 -45.1c0 -24.2 -19.9 -44 -44.1 -44c-24.2 0 -45 19.8 -45 44zM463 259h107c8 0 11 4 11 10
c0 54 -19 67 -47 67c-17 0 -60 -10 -71 -77zM666 129c11 -6 16 -15 16 -26c-29 -39 -85 -67 -139 -67c-112 0 -177 71 -177 157c0 114 97 180 168 180c100 0 142 -71 142 -134c0 -9 -5 -13 -13 -13h-202c0 -106 54 -139 97 -139c41 0 82 14 108 42zM249 718
c-60 0 -93 -33 -93 -93v-678c0 -60 33 -83 93 -83h572c60 0 83 23 83 83v678c0 60 -23 93 -83 93h-572zM1000 -84c0 -90 -29 -128 -119 -128h-632c-90 0 -129 38 -129 128v709c0 83 48 129 129 129h602c90 0 149 -39 149 -129v-709z" />
    <glyph glyph-name="igrave" unicode="&#xec;" horiz-adv-x="1120" 
d="M512.7 588.1l57.1 -101.2c3.29999 -6.60001 6.70001 -15.4 6.70001 -22c0 -7.69998 -6.70001 -13.2 -13.3 -13.2c-6.60004 0 -15.4 4.39999 -29.7 16.5l-99 86.9l1.20001 8.80005c6.59998 7.69995 30.8 26.4 60.5 26.4c4.39999 0 13.2 -1.09998 16.5 -2.20001zM489 214
c0 56 -2 99 -8 132l2 2c30 2 76 11 95 19c4 0 7 -2 7 -8c-6 -46 -8 -77 -8 -133v-53c0 -58 2 -93 8 -136l-2 -2s-25 2 -50 2c-26 0 -51 -2 -51 -2l-1 2c6 41 8 79 8 136v41zM249 718c-60 0 -93 -33 -93 -93v-678c0 -60 33 -83 93 -83h572c60 0 83 23 83 83v678
c0 60 -23 93 -83 93h-572zM1000 -84c0 -90 -29 -128 -119 -128h-632c-90 0 -129 38 -129 128v709c0 83 48 129 129 129h602c90 0 149 -39 149 -129v-709z" />
    <glyph glyph-name="iacute" unicode="&#xed;" horiz-adv-x="1120" 
d="M563.3 578.2c2.20001 1.09998 8.79999 2.29999 13.2 2.29999c25.3 0 40.7 -12.1 47.3 -19.8l7.70001 -19.9l-99 -89c-11 -9.89999 -23.1 -13.3 -30.8 -13.3c-6.60001 0 -13.2 6.70001 -13.2 12.2c0 4.39999 1.10001 12.1 6.60001 19.8zM489 214c0 56 -2 99 -8 132l2 2
c30 2 76 11 95 19c4 0 7 -2 7 -8c-6 -46 -8 -77 -8 -133v-53c0 -58 2 -93 8 -136l-2 -2s-25 2 -50 2c-26 0 -51 -2 -51 -2l-1 2c6 41 8 79 8 136v41zM249 718c-60 0 -93 -33 -93 -93v-678c0 -60 33 -83 93 -83h572c60 0 83 23 83 83v678c0 60 -23 93 -83 93h-572zM1000 -84
c0 -90 -29 -128 -119 -128h-632c-90 0 -129 38 -129 128v709c0 83 48 129 129 129h602c90 0 149 -39 149 -129v-709z" />
    <glyph glyph-name="icircumflex" unicode="&#xee;" horiz-adv-x="1120" 
d="M552 548.8c25.3 -40.7 56 -77 86.8 -111.1l-20.8 -15.5c-35.2 22 -59.4 38.6 -88 68.3c-30.8 -31.9 -54 -46.3 -87 -68.3l-20.8 15.5c29.7 34.1 62.6 71.5 86.8 111.1h43zM489 214c0 56 -2 99 -8 132l2 2c30 2 76 11 95 19c4 0 7 -2 7 -8c-6 -46 -8 -77 -8 -133v-53
c0 -58 2 -93 8 -136l-2 -2s-25 2 -50 2c-26 0 -51 -2 -51 -2l-1 2c6 41 8 79 8 136v41zM249 718c-60 0 -93 -33 -93 -93v-678c0 -60 33 -83 93 -83h572c60 0 83 23 83 83v678c0 60 -23 93 -83 93h-572zM1000 -84c0 -90 -29 -128 -119 -128h-632c-90 0 -129 38 -129 128v709
c0 83 48 129 129 129h602c90 0 149 -39 149 -129v-709z" />
    <glyph glyph-name="idieresis" unicode="&#xef;" horiz-adv-x="1120" 
d="M570.8 501c0 25.3 19.8 45.1 44 45.1s45.1 -19.8 45.1 -45.1c0 -24.2 -20.9 -44 -45.1 -44s-44 19.8 -44 44zM421.2 501c0 25.3 20.8 45.1 45 45.1c24.2 0 44.1 -19.8 44.1 -45.1c0 -24.2 -19.9 -44 -44.1 -44c-24.2 0 -45 19.8 -45 44zM489 214c0 56 -2 99 -8 132l2 2
c30 2 76 11 95 19c4 0 7 -2 7 -8c-6 -46 -8 -77 -8 -133v-53c0 -58 2 -93 8 -136l-2 -2s-25 2 -50 2c-26 0 -51 -2 -51 -2l-1 2c6 41 8 79 8 136v41zM249 718c-60 0 -93 -33 -93 -93v-678c0 -60 33 -83 93 -83h572c60 0 83 23 83 83v678c0 60 -23 93 -83 93h-572zM1000 -84
c0 -90 -29 -128 -119 -128h-632c-90 0 -129 38 -129 128v709c0 83 48 129 129 129h602c90 0 149 -39 149 -129v-709z" />
    <glyph glyph-name="eth" unicode="&#xf0;" 
d="M565.4 76c33.8 0 84.5 19.9 84.5 137c0 34.1 -3 66 -12 96.8c-16.2 19 -41.6 27.2 -73.6 27.2c-74.4 0 -93 -67.1 -93 -122c0 -84.7 44.4 -139 94.1 -139zM387 202c0 134.4 110.5 180 178.4 180c16.4 0 32.2 -1.79999 47.9 -5.70001c-15.4 31.1 -36.1 60.5 -60 89.3
l-85.9 -55.2l-26.5 35.4l82.3 53.2l-6.40002 6c-16.4 15.5 -36.1 29.3 -55.1 42.3l-6.40002 4.40002l23.8 27.3l5.39999 -2.90002c26.4 -14.4 53.7 -31.6 81.1 -51.5l85.1 55.1l26.2 -35.5l-75.9 -48.4l7.79999 -7.89999c76.4 -73.1 122.2 -158.3 122.2 -263.9
c0 -131.3 -86 -193 -178.3 -193c-104.4 0 -165.7 90 -165.7 171zM249 718c-60 0 -93 -33 -93 -93v-678c0 -60 33 -83 93 -83h572c60 0 83 23 83 83v678c0 60 -23 93 -83 93h-572zM1000 -84c0 -90 -29 -128 -119 -128h-632c-90 0 -129 38 -129 128v709c0 83 48 129 129 129
h602c90 0 149 -39 149 -129v-709z" />
    <glyph glyph-name="ntilde" unicode="&#xf1;" 
d="M579 486.1c18.7 0 28.7 6.60001 40.8 47.3l23 -7.70001c-11 -56.1 -35.2 -89.1 -74.8 -89.1c-19.8 0 -37.3 12.1 -53.8 24.2c-16.5 11 -33 22 -48.4 22c-22 0 -30.8 -12.1 -39.6 -44l-22 6.60001c12.1 56.1 31.8 86.9 68.1 86.9c26.4 0 45.2 -13.2 61.7 -26.4
c14.3 -11 28.5 -19.8 45 -19.8zM693 180c0 -58 1 -96 7 -139l-1 -2s-25 2 -51 2s-50 -2 -50 -2l-1 2c7 41 7 82 7 139v66c0 53 -7 78 -47 78c-33 0 -45 -11 -83 -56v-88c0 -58 1 -96 7 -139l-1 -2s-25 2 -50 2c-27 0 -52 -2 -52 -2v2c6 41 7 82 7 139v41c0 56 -1 100 -7 132
l1 2c31 2 74 11 93 19c5 0 7 -2 7 -8c-4 -22 -7 -54 -7 -54h2c48 56 67 62 106 62c67 0 113 -52 113 -119v-75zM249 718c-60 0 -93 -33 -93 -93v-678c0 -60 33 -83 93 -83h572c60 0 83 23 83 83v678c0 60 -23 93 -83 93h-572zM1000 -84c0 -90 -29 -128 -119 -128h-632
c-90 0 -129 38 -129 128v709c0 83 48 129 129 129h602c90 0 149 -39 149 -129v-709z" />
    <glyph glyph-name="oslash" unicode="&#xf8;" 
d="M651 394l23 -18l-29.4 -35.7c43.5 -33.5 60.4 -87.5 60.4 -136.3c0 -80 -56 -168 -171 -168c-46.1 0 -83.3 13.4 -111 34.9l-32 -38.9l-22 20l32.4 39.3c-25.4 29.3 -38.4 67.2 -38.4 105.7c0 103 65 176 173 176c33.4 0 61 -6.39999 83.5 -17.3zM530 335
c-64 0 -71 -55 -71 -120c0 -15.7 0.5 -33.2 2.79999 -50.4l122.6 148.6c-12.1 14.7 -29.6 21.8 -54.4 21.8zM249 718c-60 0 -93 -33 -93 -93v-678c0 -60 33 -83 93 -83h572c60 0 83 23 83 83v678c0 60 -23 93 -83 93h-572zM1000 -84c0 -90 -29 -128 -119 -128h-632
c-90 0 -129 38 -129 128v709c0 83 48 129 129 129h602c90 0 149 -39 149 -129v-709zM598.8 284.7l-128.6 -156.5c10.9 -30.7 32.3 -54.2 73.8 -54.2c34 0 65 24 65 110c0 43.1 -2.59998 76.5 -10.2 100.7z" />
    <glyph glyph-name="udieresis" unicode="&#xfc;" 
d="M556.8 501c0 25.3 19.8 45.1 44 45.1s45.1 -19.8 45.1 -45.1c0 -24.2 -20.9 -44 -45.1 -44s-44 19.8 -44 44zM407.2 501c0 25.3 20.8 45.1 45 45.1c24.2 0 44.1 -19.8 44.1 -45.1c0 -24.2 -19.9 -44 -44.1 -44c-24.2 0 -45 19.8 -45 44zM588 91c-42 -45 -65 -56 -96 -56
c-74 0 -117 51 -117 102v93c0 56 -1 92 -7 134l1 3s25 -3 50 -3c27 0 51 3 51 3l1 -3c-7 -39 -7 -78 -7 -134v-68c0 -67 25 -79 48 -79c33 0 57 33 76 56v91c0 56 -1 92 -7 134l1 3s25 -3 50 -3c27 0 51 3 51 3l1 -3c-7 -39 -7 -78 -7 -134v-43c0 -57 6 -112 12 -144l-1 -3
c-10 2 -38 3 -48 3c-11 0 -30 -1 -40 -3c-4 0 -7 1 -7 3l-3 48h-2zM249 718c-60 0 -93 -33 -93 -93v-678c0 -60 33 -83 93 -83h572c60 0 83 23 83 83v678c0 60 -23 93 -83 93h-572zM1000 -84c0 -90 -29 -128 -119 -128h-632c-90 0 -129 38 -129 128v709c0 83 48 129 129 129
h602c90 0 149 -39 149 -129v-709z" />
    <glyph glyph-name="yacute" unicode="&#xfd;" 
d="M558.3 578.2c2.20001 1.09998 8.79999 2.29999 13.2 2.29999c25.3 0 40.7 -12.1 47.3 -19.8l7.70001 -19.9l-99 -89c-11 -9.89999 -23.1 -13.3 -30.8 -13.3c-6.60001 0 -13.2 6.70001 -13.2 12.2c0 4.39999 1.10001 12.1 6.60001 19.8zM356 388c10 -2 43 -2 53 -2
s41 0 51 2c24.3 -74.8 55.2 -148.8 87.4 -226.4c30.9 71.4 60.5 153.3 84.6 226.4c7 -2 36 -2 43 -2c8 0 25 0 32 2c-24 -50 -189 -408 -217 -501c-8 2 -29 3 -37 3c-7 0 -33 -1 -40 -3c34 56 60 107 84 163l-3 5c-28 76 -109 268 -138 333zM249 718c-60 0 -93 -33 -93 -93
v-678c0 -60 33 -83 93 -83h572c60 0 83 23 83 83v678c0 60 -23 93 -83 93h-572zM1000 -84c0 -90 -29 -128 -119 -128h-632c-90 0 -129 38 -129 128v709c0 83 48 129 129 129h602c90 0 149 -39 149 -129v-709z" />
    <glyph glyph-name="thorn" unicode="&#xfe;" horiz-adv-x="515" 
d="M207 287v-175c19 -20 51 -22 63 -22c80 0 89 59 89 124c0 109 -40 125 -73 125c-26 0 -63 -12 -79 -52zM207 34c0 -57 1 -107 7 -150l-1 -2s-27 2 -52 2c-27 0 -48 -2 -48 -2l-1 2c7 40 8 94 8 150v385c0 57 -2 109 -8 141l2 3c30 2 75 11 94 18c4 0 6 -2 6 -7
c-6 -46 -7 -85 -7 -141v-81l-1 -25c14 24 48 60 100 60c72 0 145 -74 145 -153c0 -112 -90 -184 -177 -184c-27 0 -48 6 -67 17v-33zM-11 718c-60 0 -93 -33 -93 -93v-678c0 -60 33 -83 93 -83h572c60 0 83 23 83 83v678c0 60 -23 93 -83 93h-572zM740 -84
c0 -90 -29 -128 -119 -128h-632c-90 0 -129 38 -129 128v709c0 83 48 129 129 129h602c90 0 149 -39 149 -129v-709z" />
    <glyph glyph-name="ydieresis" unicode="&#xff;" 
d="M568.8 501c0 25.3 19.8 45.1 44 45.1s45.1 -19.8 45.1 -45.1c0 -24.2 -20.9 -44 -45.1 -44s-44 19.8 -44 44zM419.2 501c0 25.3 20.8 45.1 45 45.1c24.2 0 44.1 -19.8 44.1 -45.1c0 -24.2 -19.9 -44 -44.1 -44c-24.2 0 -45 19.8 -45 44zM356 388c10 -2 43 -2 53 -2
s41 0 51 2c24.3 -74.8 55.2 -148.8 87.4 -226.4c30.9 71.4 60.5 153.3 84.6 226.4c7 -2 36 -2 43 -2c8 0 25 0 32 2c-24 -50 -189 -408 -217 -501c-8 2 -29 3 -37 3c-7 0 -33 -1 -40 -3c34 56 60 107 84 163l-3 5c-28 76 -109 268 -138 333zM249 718c-60 0 -93 -33 -93 -93
v-678c0 -60 33 -83 93 -83h572c60 0 83 23 83 83v678c0 60 -23 93 -83 93h-572zM1000 -84c0 -90 -29 -128 -119 -128h-632c-90 0 -129 38 -129 128v709c0 83 48 129 129 129h602c90 0 149 -39 149 -129v-709z" />
    <glyph glyph-name="Amacron" unicode="&#x100;" 
d="M628 614h-205c-9 0 -12 7 -12 14c0 9 9 24 19 24h207c8 0 11 -7 11 -13c0 -10 -9 -25 -20 -25zM249 718c-60 0 -93 -33 -93 -93v-678c0 -60 33 -83 93 -83h572c60 0 83 23 83 83v678c0 60 -23 93 -83 93h-572zM1000 -84c0 -90 -29 -128 -119 -128h-632
c-90 0 -129 38 -129 128v709c0 83 48 129 129 129h602c90 0 149 -39 149 -129v-709zM512.5 414.7c-22.4 -51.7 -47.8 -109.8 -71.6 -166.7c23.8 -0.300003 56.3 -2 78.1 -2c17.3 0 41 0.5 62.5 1.10001c-18.6 48 -41.4 103.9 -69 167.6zM423.2 205.1
c-25.5 -62.9 -47.5 -121.8 -59.2 -166.1c-9 2 -26 2 -34 2s-33 0 -42 -2c76 165 149 329 221 495h53c69 -164 168 -420 205 -495c-13 2 -48 2 -61 2c-12 0 -40 0 -53 -2c-4.29999 15.9 -20.5 72.1 -55.8 166.6c-24.6 0.699997 -50.6 1.39999 -74.2 1.39999
c-27 0 -70.7 -0.899994 -99.8 -1.89999z" />
    <glyph glyph-name="amacron" unicode="&#x101;" 
d="M634 473h-205c-9 0 -12 7 -12 14c0 9 9 24 19 24h207c8 0 11 -7 11 -13c0 -10 -9 -25 -20 -25zM576 208l-60 -16c-42 -11 -52 -37 -52 -68c0 -20 12 -43 35 -43c21 0 45 17 64 32c6 5 13 10 13 20v75zM656 107c0 -15 9 -23 18 -23c10 0 20 11 27 16l2 -2
c8 -4 12 -12 16 -20c-24 -30 -55 -42 -84 -42c-33 0 -54 20 -60 44h-1c-38 -34 -75 -44 -104 -44c-53 0 -96 26 -96 81c0 51 60 95 132 112l66 16c2 0 4 3 4 9c0 57 -19 78 -59 78c-34 0 -65 -25 -85 -59l-17 1l-20 49l3 3c18 16 72 47 126 47c67 0 135 -25 135 -122
c0 -8 -3 -122 -3 -144zM249 718c-60 0 -93 -33 -93 -93v-678c0 -60 33 -83 93 -83h572c60 0 83 23 83 83v678c0 60 -23 93 -83 93h-572zM1000 -84c0 -90 -29 -128 -119 -128h-632c-90 0 -129 38 -129 128v709c0 83 48 129 129 129h602c90 0 149 -39 149 -129v-709z" />
    <glyph glyph-name="Abreve" unicode="&#x102;" 
d="M638 673c-11 -69 -52 -95 -101 -95c-55 0 -99 33 -102 95h25c6 -29 37 -46 77 -46c37 0 72 17 77 46h24zM249 718c-60 0 -93 -33 -93 -93v-678c0 -60 33 -83 93 -83h572c60 0 83 23 83 83v678c0 60 -23 93 -83 93h-572zM1000 -84c0 -90 -29 -128 -119 -128h-632
c-90 0 -129 38 -129 128v709c0 83 48 129 129 129h602c90 0 149 -39 149 -129v-709zM512.5 414.7c-22.4 -51.7 -47.8 -109.8 -71.6 -166.7c23.8 -0.300003 56.3 -2 78.1 -2c17.3 0 41 0.5 62.5 1.10001c-18.6 48 -41.4 103.9 -69 167.6zM423.2 205.1
c-25.5 -62.9 -47.5 -121.8 -59.2 -166.1c-9 2 -26 2 -34 2s-33 0 -42 -2c76 165 149 329 221 495h53c69 -164 168 -420 205 -495c-13 2 -48 2 -61 2c-12 0 -40 0 -53 -2c-4.29999 15.9 -20.5 72.1 -55.8 166.6c-24.6 0.699997 -50.6 1.39999 -74.2 1.39999
c-27 0 -70.7 -0.899994 -99.8 -1.89999z" />
    <glyph glyph-name="abreve" unicode="&#x103;" 
d="M439 539c1 -40 33 -70 81 -70c35 0 78 22 80 70l24 -21c-8 -79 -66 -107 -104 -107c-61 0 -101 46 -106 107zM576 208l-60 -16c-42 -11 -52 -37 -52 -68c0 -20 12 -43 35 -43c21 0 45 17 64 32c6 5 13 10 13 20v75zM656 107c0 -15 9 -23 18 -23c10 0 20 11 27 16l2 -2
c8 -4 12 -12 16 -20c-24 -30 -55 -42 -84 -42c-33 0 -54 20 -60 44h-1c-38 -34 -75 -44 -104 -44c-53 0 -96 26 -96 81c0 51 60 95 132 112l66 16c2 0 4 3 4 9c0 57 -19 78 -59 78c-34 0 -65 -25 -85 -59l-17 1l-20 49l3 3c18 16 72 47 126 47c67 0 135 -25 135 -122
c0 -8 -3 -122 -3 -144zM249 718c-60 0 -93 -33 -93 -93v-678c0 -60 33 -83 93 -83h572c60 0 83 23 83 83v678c0 60 -23 93 -83 93h-572zM1000 -84c0 -90 -29 -128 -119 -128h-632c-90 0 -129 38 -129 128v709c0 83 48 129 129 129h602c90 0 149 -39 149 -129v-709z" />
    <glyph glyph-name="Aogonek" unicode="&#x104;" 
d="M703 -78c-20 -24 -49 -42 -74 -42c-37 0 -59 22 -59 57c0 46 38.4 85.3 79.3 115.1c-7.29999 25.1 -23.4 76.6 -52.1 153.5c-24.6 0.699997 -50.6 1.39999 -74.2 1.39999c-27 0 -70.7 -0.899994 -99.8 -1.89999c-25.5 -62.9 -47.5 -121.8 -59.2 -166.1c-9 2 -26 2 -34 2
s-33 0 -42 -2c76 165 149 329 221 495h53c69 -164 168 -420 205 -495c-13 2 -48 2 -61 2c-7.70001 0 -21.9 -0.5 -34.6 -0.5c-34 -34.3 -52.4 -59.6 -52.4 -94.5c0 -16 12 -33 32 -33c12 0 29 11 39 23l3 -1zM249 718c-60 0 -93 -33 -93 -93v-678c0 -60 33 -83 93 -83h572
c60 0 83 23 83 83v678c0 60 -23 93 -83 93h-572zM1000 -84c0 -90 -29 -128 -119 -128h-632c-90 0 -129 38 -129 128v709c0 83 48 129 129 129h602c90 0 149 -39 149 -129v-709zM512.5 414.7c-22.4 -51.7 -47.8 -109.8 -71.6 -166.7c23.8 -0.300003 56.3 -2 78.1 -2
c17.3 0 41 0.5 62.5 1.10001c-18.6 48 -41.4 103.9 -69 167.6z" />
    <glyph glyph-name="aogonek" unicode="&#x105;" 
d="M677 -79c-20 -25 -49 -42 -74 -42c-37 0 -60 22 -60 57c0 40.1 31 76.1 66.3 104.7c-18.3 7.3 -30 22.3 -34.3 39.3h-1c-38 -34 -75 -44 -104 -44c-53 0 -96 26 -96 81c0 51 60 95 132 112l66 16c2 0 4 3 4 9c0 57 -19 78 -59 78c-34 0 -65 -25 -85 -59l-17 1l-20 49l3 3
c18 16 72 47 126 47c67 0 135 -25 135 -122c0 -8 -3 -122 -3 -144c0 -15 9 -23 18 -23c10 0 20 11 27 16l2 -2c8 -4 12 -12 16 -20c-22.2 -27.8 -50.4 -40.1 -77.5 -41.8c-31.2 -32.7 -48.5 -57.6 -48.5 -92.2c0 -16 12 -32 31 -32c13 0 29 11 40 22h2zM576 208l-60 -16
c-42 -11 -52 -37 -52 -68c0 -20 12 -43 35 -43c21 0 45 17 64 32c6 5 13 10 13 20v75zM249 718c-60 0 -93 -33 -93 -93v-678c0 -60 33 -83 93 -83h572c60 0 83 23 83 83v678c0 60 -23 93 -83 93h-572zM1000 -84c0 -90 -29 -128 -119 -128h-632c-90 0 -129 38 -129 128v709
c0 83 48 129 129 129h602c90 0 149 -39 149 -129v-709z" />
    <glyph glyph-name="Cacute" unicode="&#x106;" 
d="M587.8 676.6l51.7 -42.9l-118.7 -48.4c-17.6 -7.70001 -28.7 -9.89996 -35.3 -9.89996c-7.70001 0 -12 4.39996 -12 13.2c0 5.5 2.10001 8.80005 12 16.5zM551 534c91 0 171 -33 171 -33l2 -3c-9 -36 -13 -59 -15 -97l-18 -1c-31 62 -83 90 -151 90
c-61 0 -139 -46 -139 -198c0 -110 42.9 -204 149 -204c70 0 121 16 174 75l17 -28c-51 -67 -133 -101 -205 -101c-162 0 -244 110 -244 252c0 153 117 248 259 248zM249 718c-60 0 -93 -33 -93 -93v-678c0 -60 33 -83 93 -83h572c60 0 83 23 83 83v678c0 60 -23 93 -83 93
h-572zM1000 -84c0 -90 -29 -128 -119 -128h-632c-90 0 -129 38 -129 128v709c0 83 48 129 129 129h602c90 0 149 -39 149 -129v-709z" />
    <glyph glyph-name="cacute" unicode="&#x107;" 
d="M534.3 560.2c2.20001 1.09998 8.79999 2.29999 13.2 2.29999c25.3 0 40.7 -12.1 47.3 -19.8l7.70001 -19.9l-99 -89c-11 -9.89999 -23.1 -13.3 -30.8 -13.3c-6.60001 0 -13.2 6.70001 -13.2 12.2c0 4.39999 1.10001 12.1 6.60001 19.8zM538 332c-50 0 -90 -36 -90 -113
c0 -79 43 -134 100 -134c30 0 59 10 88 46h2c10 -6 15 -12 16 -19c-19 -41 -67 -76 -124 -76c-110 0 -174 67 -174 164c0 106 82 173 183 173c37 0 85 -12 108 -24l1 -2l-17 -76l-13 -1c-20 34 -51 62 -80 62zM249 718c-60 0 -93 -33 -93 -93v-678c0 -60 33 -83 93 -83h572
c60 0 83 23 83 83v678c0 60 -23 93 -83 93h-572zM1000 -84c0 -90 -29 -128 -119 -128h-632c-90 0 -129 38 -129 128v709c0 83 48 129 129 129h602c90 0 149 -39 149 -129v-709z" />
    <glyph glyph-name="Ccircumflex" unicode="&#x108;" 
d="M660 579l-13 -21c-37 14 -71 33 -105 49c-34 -16 -68 -35 -105 -49l-13 21c36 29 75 67 106 98h24c31 -33 71 -68 106 -98zM551 534c91 0 171 -33 171 -33l2 -3c-9 -36 -13 -59 -15 -97l-18 -1c-31 62 -83 90 -151 90c-61 0 -139 -46 -139 -198
c0 -110 42.9 -204 149 -204c70 0 121 16 174 75l17 -28c-51 -67 -133 -101 -205 -101c-162 0 -244 110 -244 252c0 153 117 248 259 248zM249 718c-60 0 -93 -33 -93 -93v-678c0 -60 33 -83 93 -83h572c60 0 83 23 83 83v678c0 60 -23 93 -83 93h-572zM1000 -84
c0 -90 -29 -128 -119 -128h-632c-90 0 -129 38 -129 128v709c0 83 48 129 129 129h602c90 0 149 -39 149 -129v-709z" />
    <glyph glyph-name="ccircumflex" unicode="&#x109;" 
d="M536 548.8c25.3 -40.7 56 -77 86.8 -111.1l-20.8 -15.5c-35.2 22 -59.4 38.6 -88 68.3c-30.8 -31.9 -54 -46.3 -87 -68.3l-20.8 15.5c29.7 34.1 62.6 71.5 86.8 111.1h43zM537 332c-50 0 -90 -36 -90 -113c0 -79 43 -134 100 -134c30 0 59 10 88 46h2
c10 -6 15 -12 16 -19c-19 -41 -67 -76 -124 -76c-110 0 -174 67 -174 164c0 106 82 173 183 173c37 0 85 -12 108 -24l1 -2l-17 -76l-13 -1c-20 34 -51 62 -80 62zM248 718c-60 0 -93 -33 -93 -93v-678c0 -60 33 -83 93 -83h572c60 0 83 23 83 83v678c0 60 -23 93 -83 93
h-572zM999 -84c0 -90 -29 -128 -119 -128h-632c-90 0 -129 38 -129 128v709c0 83 48 129 129 129h602c90 0 149 -39 149 -129v-709z" />
    <glyph glyph-name="Cdotaccent" unicode="&#x10a;" 
d="M469 643c0 28 23 52 52 52s52 -24 52 -52s-23 -52 -52 -52s-52 24 -52 52zM551 534c91 0 171 -33 171 -33l2 -3c-9 -36 -13 -59 -15 -97l-18 -1c-31 62 -83 90 -151 90c-61 0 -139 -46 -139 -198c0 -110 42.9 -204 149 -204c70 0 121 16 174 75l17 -28
c-51 -67 -133 -101 -205 -101c-162 0 -244 110 -244 252c0 153 117 248 259 248zM249 718c-60 0 -93 -33 -93 -93v-678c0 -60 33 -83 93 -83h572c60 0 83 23 83 83v678c0 60 -23 93 -83 93h-572zM1000 -84c0 -90 -29 -128 -119 -128h-632c-90 0 -129 38 -129 128v709
c0 83 48 129 129 129h602c90 0 149 -39 149 -129v-709z" />
    <glyph glyph-name="cdotaccent" unicode="&#x10b;" 
d="M474 509c0 28 23 52 52 52s52 -24 52 -52s-23 -52 -52 -52s-52 24 -52 52zM538 332c-50 0 -90 -36 -90 -113c0 -79 43 -134 100 -134c30 0 59 10 88 46h2c10 -6 15 -12 16 -19c-19 -41 -67 -76 -124 -76c-110 0 -174 67 -174 164c0 106 82 173 183 173
c37 0 85 -12 108 -24l1 -2l-17 -76l-13 -1c-20 34 -51 62 -80 62zM249 718c-60 0 -93 -33 -93 -93v-678c0 -60 33 -83 93 -83h572c60 0 83 23 83 83v678c0 60 -23 93 -83 93h-572zM1000 -84c0 -90 -29 -128 -119 -128h-632c-90 0 -129 38 -129 128v709c0 83 48 129 129 129
h602c90 0 149 -39 149 -129v-709z" />
    <glyph glyph-name="Ccaron" unicode="&#x10c;" 
d="M514 588c-22 28 -48 51 -76 72l12 15c30 -13 55 -27 80 -46c28 19 52 34 80 46l12 -15c-29 -22 -53 -46 -76 -72h-32zM551 534c91 0 171 -33 171 -33l2 -3c-9 -36 -13 -59 -15 -97l-18 -1c-31 62 -83 90 -151 90c-61 0 -139 -46 -139 -198c0 -110 42.9 -204 149 -204
c70 0 121 16 174 75l17 -28c-51 -67 -133 -101 -205 -101c-162 0 -244 110 -244 252c0 153 117 248 259 248zM249 718c-60 0 -93 -33 -93 -93v-678c0 -60 33 -83 93 -83h572c60 0 83 23 83 83v678c0 60 -23 93 -83 93h-572zM1000 -84c0 -90 -29 -128 -119 -128h-632
c-90 0 -129 38 -129 128v709c0 83 48 129 129 129h602c90 0 149 -39 149 -129v-709z" />
    <glyph glyph-name="ccaron" unicode="&#x10d;" 
d="M540 416h-38c-22 35 -50 67 -76 97l18 14c29 -21 48 -35 76 -63c26 27 48 42 77 63l18 -14c-27 -30 -54 -61 -75 -97zM538 332c-50 0 -90 -36 -90 -113c0 -79 43 -134 100 -134c30 0 59 10 88 46h2c10 -6 15 -12 16 -19c-19 -41 -67 -76 -124 -76
c-110 0 -174 67 -174 164c0 106 82 173 183 173c37 0 85 -12 108 -24l1 -2l-17 -76l-13 -1c-20 34 -51 62 -80 62zM249 718c-60 0 -93 -33 -93 -93v-678c0 -60 33 -83 93 -83h572c60 0 83 23 83 83v678c0 60 -23 93 -83 93h-572zM1000 -84c0 -90 -29 -128 -119 -128h-632
c-90 0 -129 38 -129 128v709c0 83 48 129 129 129h602c90 0 149 -39 149 -129v-709z" />
    <glyph glyph-name="Dcaron" unicode="&#x10e;" 
d="M504 584c-22 28 -48 51 -76 72l12 15c30 -13 55 -27 80 -46c28 19 52 34 80 46l12 -15c-29 -22 -53 -46 -76 -72h-32zM413 109c0 -24 8 -30 82 -30c105 0 176 23 176 175c0 115 -33 233 -195 233c-37 0 -63 -4 -63 -30v-348zM365 524c55 0 85 3 139 3
c144 0 276 -116 276 -255c0 -185 -156 -233 -262 -233c-77 0 -93 2 -153 2c-26 0 -55 -3 -55 -3l-1 3c6 40 8 93 8 150v183c0 57 -2 108 -8 150l2 3s28 -3 54 -3zM249 718c-60 0 -93 -33 -93 -93v-678c0 -60 33 -83 93 -83h572c60 0 83 23 83 83v678c0 60 -23 93 -83 93
h-572zM1000 -84c0 -90 -29 -128 -119 -128h-632c-90 0 -129 38 -129 128v709c0 83 48 129 129 129h602c90 0 149 -39 149 -129v-709z" />
    <glyph glyph-name="dcaron" unicode="&#x10f;" 
d="M739 664c28 0 45 -28 45 -55s-24 -74 -77 -80l-4 13c32 7 48 35 48 52c0 10 -5 16 -11 16c-31 0 -34 16 -34 28s10 26 33 26zM566 129v158c-18 29 -29 45 -64 45c-36 0 -92 -11 -92 -123c0 -94 35 -126 75 -126c31 0 53 12 81 46zM566 89c-27 -35 -64 -56 -100 -56
c-81 0 -148 70 -148 162c0 102 94 177 192 177c15 0 38 -7 56 -16v49c0 56 -2 108 -8 140l2 3c30 2 76 11 95 19c5 0 7 -3 7 -8c-6 -46 -8 -86 -8 -141v-231c0 -56 7 -114 13 -146l-2 -2c-9 1 -38 2 -47 2c-11 0 -30 -1 -40 -2c-5 0 -7 0 -7 2l-4 48h-1zM249 718
c-60 0 -93 -33 -93 -93v-678c0 -60 33 -83 93 -83h572c60 0 83 23 83 83v678c0 60 -23 93 -83 93h-572zM1000 -84c0 -90 -29 -128 -119 -128h-632c-90 0 -129 38 -129 128v709c0 83 48 129 129 129h602c90 0 149 -39 149 -129v-709z" />
    <glyph glyph-name="Dcroat" unicode="&#x110;" 
d="M413 109c0 -24 8 -30 82 -30c105 0 176 23 176 175c0 115 -33 233 -195 233c-37 0 -63 -4 -63 -30v-160h67v-30h-67v-158zM365 524c55 0 85 3 139 3c144 0 276 -116 276 -255c0 -185 -156 -233 -262 -233c-77 0 -93 2 -153 2c-26 0 -55 -3 -55 -3l-1 3c6 40 8 93 8 150
v76h-82v30h82v77c0 57 -2 108 -8 150l2 3s28 -3 54 -3zM249 718c-60 0 -93 -33 -93 -93v-678c0 -60 33 -83 93 -83h572c60 0 83 23 83 83v678c0 60 -23 93 -83 93h-572zM1000 -84c0 -90 -29 -128 -119 -128h-632c-90 0 -129 38 -129 128v709c0 83 48 129 129 129h602
c90 0 149 -39 149 -129v-709z" />
    <glyph glyph-name="dcroat" unicode="&#x111;" 
d="M725 518v-36h-69.7c-0.899963 -19.7 -1.29999 -40.5 -1.29999 -64v-231c0 -56 7 -114 13 -146l-2 -2c-9 1 -38 2 -47 2c-11 0 -30 -1 -40 -2c-5 0 -7 0 -7 2l-4 48h-1c-27 -35 -64 -56 -100 -56c-81 0 -148 70 -148 162c0 102 94 177 192 177c15 0 38 -7 56 -16v49
c0 27.2 -0.400024 53.5 -1.59998 77h-62.4v36h59.7c-1 10.1 -2.20001 19.1 -3.70001 27l2 3c30 2 76 11 95 19c5 0 7 -3 7 -8c-1.79999 -14 -3.29999 -27.5 -4.40002 -41h67.4zM566 129v158c-18 29 -29 45 -64 45c-36 0 -92 -11 -92 -123c0 -94 35 -126 75 -126
c31 0 53 12 81 46zM249 718c-60 0 -93 -33 -93 -93v-678c0 -60 33 -83 93 -83h572c60 0 83 23 83 83v678c0 60 -23 93 -83 93h-572zM1000 -84c0 -90 -29 -128 -119 -128h-632c-90 0 -129 38 -129 128v709c0 83 48 129 129 129h602c90 0 149 -39 149 -129v-709z" />
    <glyph glyph-name="Emacron" unicode="&#x112;" 
d="M621 589h-205c-9 0 -12 7 -12 14c0 9 9 24 19 24h207c8 0 11 -7 11 -13c0 -10 -9 -25 -20 -25zM453 191c0 -13 1 -85 6 -103c101 0 212 9 212 9l1 -3c0 -6 -1 -19 -1 -26c0 -8 1 -17 1 -27l-1 -3c-12 2 -29 3 -45 3h-221c-26 0 -55 -3 -55 -3v3c6 40 7 93 7 150v183
c0 57 -1 108 -7 150l1 3s29 -3 54 -3h213c16 0 33 1 45 3l2 -3c-1 -10 -2 -20 -2 -26c0 -7 1 -17 2 -23l-2 -3s-103 9 -204 9c-5 -18 -6 -94 -6 -107v-58c89 0 123 4 167 7l3 -2c-2 -7 -3 -17 -3 -24s1 -18 3 -25l-3 -2c-51 5 -131 8 -167 8v-87zM249 718
c-60 0 -93 -33 -93 -93v-678c0 -60 33 -83 93 -83h572c60 0 83 23 83 83v678c0 60 -23 93 -83 93h-572zM1000 -84c0 -90 -29 -128 -119 -128h-632c-90 0 -129 38 -129 128v709c0 83 48 129 129 129h602c90 0 149 -39 149 -129v-709z" />
    <glyph glyph-name="emacron" unicode="&#x113;" 
d="M631 433h-205c-9 0 -12 7 -12 14c0 9 9 24 19 24h207c8 0 11 -7 11 -13c0 -10 -9 -25 -20 -25zM463 259h107c8 0 11 4 11 10c0 54 -19 67 -47 67c-17 0 -60 -10 -71 -77zM666 129c11 -6 16 -15 16 -26c-29 -39 -85 -67 -139 -67c-112 0 -177 71 -177 157
c0 114 97 180 168 180c100 0 142 -71 142 -134c0 -9 -5 -13 -13 -13h-202c0 -106 54 -139 97 -139c41 0 82 14 108 42zM249 718c-60 0 -93 -33 -93 -93v-678c0 -60 33 -83 93 -83h572c60 0 83 23 83 83v678c0 60 -23 93 -83 93h-572zM1000 -84c0 -90 -29 -128 -119 -128
h-632c-90 0 -129 38 -129 128v709c0 83 48 129 129 129h602c90 0 149 -39 149 -129v-709z" />
    <glyph glyph-name="Ebreve" unicode="&#x114;" 
d="M631 673c-11 -69 -52 -95 -101 -95c-55 0 -99 33 -102 95h25c6 -29 37 -46 77 -46c37 0 72 17 77 46h24zM453 191c0 -13 1 -85 6 -103c101 0 212 9 212 9l1 -3c0 -6 -1 -19 -1 -26c0 -8 1 -17 1 -27l-1 -3c-12 2 -29 3 -45 3h-221c-26 0 -55 -3 -55 -3v3c6 40 7 93 7 150
v183c0 57 -1 108 -7 150l1 3s29 -3 54 -3h213c16 0 33 1 45 3l2 -3c-1 -10 -2 -20 -2 -26c0 -7 1 -17 2 -23l-2 -3s-103 9 -204 9c-5 -18 -6 -94 -6 -107v-58c89 0 123 4 167 7l3 -2c-2 -7 -3 -17 -3 -24s1 -18 3 -25l-3 -2c-51 5 -131 8 -167 8v-87zM249 718
c-60 0 -93 -33 -93 -93v-678c0 -60 33 -83 93 -83h572c60 0 83 23 83 83v678c0 60 -23 93 -83 93h-572zM1000 -84c0 -90 -29 -128 -119 -128h-632c-90 0 -129 38 -129 128v709c0 83 48 129 129 129h602c90 0 149 -39 149 -129v-709z" />
    <glyph glyph-name="dotlessi" unicode="&#x131;" horiz-adv-x="1120" 
d="M489 214c0 56 -2 99 -8 132l2 2c30 2 76 11 95 19c4 0 7 -2 7 -8c-6 -46 -8 -77 -8 -133v-53c0 -58 2 -93 8 -136l-2 -2s-25 2 -50 2c-26 0 -51 -2 -51 -2l-1 2c6 41 8 79 8 136v41zM249 718c-60 0 -93 -33 -93 -93v-678c0 -60 33 -83 93 -83h572c60 0 83 23 83 83v678
c0 60 -23 93 -83 93h-572zM1000 -84c0 -90 -29 -128 -119 -128h-632c-90 0 -129 38 -129 128v709c0 83 48 129 129 129h602c90 0 149 -39 149 -129v-709z" />
    <glyph glyph-name="IJ" unicode="&#x132;" 
d="M618 112v262c0 56 -1 107 -7 150l1 2s29 -2 54 -2c27 0 55 2 55 2l1 -2c-6 -40 -8 -94 -8 -150v-246c0 -86 -2 -116 -47 -166c-41 -48 -103 -57 -150 -57c-14 0 -35 3 -41 6l-1 3c8 14 16 55 21 75l16 1c8 -15 22 -34 43 -34c60 0 63 90 63 156zM382 374
c0 57 -2 108 -8 150l2 3s28 -3 54 -3s55 3 55 3l1 -3c-6 -39 -8 -93 -8 -150v-183c0 -57 2 -108 8 -150l-2 -3s-28 3 -54 3s-55 -3 -55 -3l-1 3c6 40 8 93 8 150v183zM249 718c-60 0 -93 -33 -93 -93v-678c0 -60 33 -83 93 -83h572c60 0 83 23 83 83v678c0 60 -23 93 -83 93
h-572zM1000 -84c0 -90 -29 -128 -119 -128h-632c-90 0 -129 38 -129 128v709c0 83 48 129 129 129h602c90 0 149 -39 149 -129v-709z" />
    <glyph glyph-name="ij" unicode="&#x133;" 
d="M588 528c0 28 23 52 52 52s52 -24 52 -52s-23 -52 -52 -52s-52 24 -52 52zM596 18c0 12 -2 30 -2 112v104c0 57 -2 100 -8 132l2 3c30 2 76 11 95 19c4 0 7 -3 7 -8c-6 -46 -8 -77 -8 -134v-189c0 -54 -13 -75 -38 -111c-25 -35 -77 -48 -121 -48c-13 0 -34 4 -39 6l-1 3
c8 13 7 58 12 77l15 1c8 -14 13 -32 33 -32c40 0 53 26 53 65zM373 518c0 28 23 52 52 52s52 -24 52 -52s-23 -52 -52 -52s-52 24 -52 52zM379 221c0 56 -2 99 -8 132l2 2c30 2 76 11 95 19c4 0 7 -2 7 -8c-6 -46 -8 -77 -8 -133v-53c0 -58 2 -93 8 -136l-2 -2s-25 2 -50 2
c-26 0 -51 -2 -51 -2l-1 2c6 41 8 79 8 136v41zM249 718c-60 0 -93 -33 -93 -93v-678c0 -60 33 -83 93 -83h572c60 0 83 23 83 83v678c0 60 -23 93 -83 93h-572zM1000 -84c0 -90 -29 -128 -119 -128h-632c-90 0 -129 38 -129 128v709c0 83 48 129 129 129h602
c90 0 149 -39 149 -129v-709z" />
    <glyph glyph-name="Jcircumflex" unicode="&#x134;" 
d="M573.5 653.3c24.2 -29.7 54 -56.1 83.7 -78.1l-13.2 -17.5c-33 15.4 -60.5 30.7 -88 51.6c-30.8 -22 -57.2 -37.3 -88 -51.6l-12.2 17.5c30.8 23.1 56.1 49.5 82.5 78.1h35.2zM513 221v153c0 56 -1 107 -7 150l1 2s29 -2 54 -2c27 0 55 2 55 2l1 -2
c-6 -40 -8 -94 -8 -150v-137c0 -86 0 -118 -47 -166c-33 -33.7 -78 -37 -118 -37c-17.2 0 -58.9 5 -73 12l-1 3c8 14 12 49 15 69l22 1c8 -15 22 -34 43 -34c60 0 63 70 63 136zM249 718c-60 0 -93 -33 -93 -93v-678c0 -60 33 -83 93 -83h572c60 0 83 23 83 83v678
c0 60 -23 93 -83 93h-572zM1000 -84c0 -90 -29 -128 -119 -128h-632c-90 0 -129 38 -129 128v709c0 83 48 129 129 129h602c90 0 149 -39 149 -129v-709z" />
    <glyph glyph-name="jcircumflex" unicode="&#x135;" 
d="M249 718c-60 0 -93 -33 -93 -93v-678c0 -60 33 -83 93 -83h572c60 0 83 23 83 83v678c0 60 -23 93 -83 93h-572zM1000 -84c0 -90 -29 -128 -119 -128h-632c-90 0 -129 38 -129 128v709c0 83 48 129 129 129h602c90 0 149 -39 149 -129v-709zM560 611
c23 -37 51 -70 79 -101l-19 -14c-32 20 -54 35 -80 62c-28 -29 -49 -42 -79 -62l-19 14c27 31 57 65 79 101h39zM502 48c0 12 -2 30 -2 112v104c0 57 -2 100 -8 132l2 3c30 2 76 11 95 19c4 0 7 -3 7 -8c-6 -46 -8 -77 -8 -134v-189c0 -54 -13 -75 -38 -111
c-25 -35 -77 -48 -121 -48c-13 0 -34 4 -39 6l-1 3c8 13 7 58 12 77l15 1c8 -14 13 -32 33 -32c40 0 53 26 53 65z" />
    <glyph glyph-name="Kcommaaccent" unicode="&#x136;" 
d="M535 18c30 0 47 -28 47 -54c0 -20 -13 -77 -80 -80l-3 13c57 11 59 55 59 59c0 3 -1 6 -2 8c-8 -5 -15 -7 -21 -7c-31 0 -38 19 -38 31s11 30 38 30zM342 375c0 57 -2 108 -8 150l2 3s28 -3 54 -3s55 3 55 3l1 -3c-6 -39 -8 -93 -8 -150v-70.3
c3.29999 1.09998 7 2.79999 10 5.29999c66 58 132 141 199 218c9 -3 49 -3 59 -3c11 0 41 0 53 3c-66 -58 -177 -162 -228 -221v-1l236 -267c-15 3 -48 3 -62 3c-13 0 -56 0 -69 -3c-67 84 -160 210 -190 240c-2.10001 1.70001 -5.10001 3 -8 4v-91c0 -57 2 -108 8 -150
l-2 -3s-28 3 -54 3s-55 -3 -55 -3l-1 3c6 40 8 93 8 150v183zM249 718c-60 0 -93 -33 -93 -93v-678c0 -60 33 -83 93 -83h572c60 0 83 23 83 83v678c0 60 -23 93 -83 93h-572zM1000 -84c0 -90 -29 -128 -119 -128h-632c-90 0 -129 38 -129 128v709c0 83 48 129 129 129h602
c90 0 149 -39 149 -129v-709z" />
    <glyph glyph-name="kcommaaccent" unicode="&#x137;" 
d="M538 20c30 0 47 -28 47 -54c0 -20 -13 -77 -80 -80l-3 13c57 11 59 55 59 59c0 3 -1 6 -2 8c-8 -5 -15 -7 -21 -7c-31 0 -38 19 -38 31s11 30 38 30zM249 718c-60 0 -93 -33 -93 -93v-678c0 -60 33 -83 93 -83h572c60 0 83 23 83 83v678c0 60 -23 93 -83 93h-572z
M1000 -84c0 -90 -29 -128 -119 -128h-632c-90 0 -129 38 -129 128v709c0 83 48 129 129 129h602c90 0 149 -39 149 -129v-709zM381 197v211c0 57 -2 109 -8 141l2 3c30 2 76 11 95 18c5 0 7 -2 7 -7c-6 -46 -8 -85 -8 -141v-193.6c6.10001 1.10001 11.9 4.3 19 10.6
c30 23 84 83 117 130c20 0 90 0 104 2l1 -2c-48 -42 -110 -113 -140 -144c72 -86 100 -119 156 -178l-1 -2c-7 1 -51 2 -63 2c-13 0 -49 -1 -60 -2c-53 74 -68 99 -116 150c-5.10001 4.39999 -11.8 6.10001 -17 6.7v-4.7c0 -57 1 -107 8 -150l-2 -2s-24 2 -50 2
s-51 -2 -51 -2l-1 2c7 40 8 94 8 150z" />

<!--
Ist das so richtig?
-->
    <glyph glyph-name="kgreenlandic" unicode="&#x138;" 
d="M379 214c0 56 -2 99 -8 132l2 2c30 2 76 11 95 19c4 0 7 -2 7 -8c-6 -46 -8 -77 -8 -133v-0.899994c5.39999 1.7 11 5.29999 18 10.9c29 22 84 82 116 129c20 0 90 0 104 3l2 -3c-49 -41 -111 -112 -141 -143c72 -86 101 -119 156 -178l-1 -3c-7 2 -51 3 -63 3
c-13 0 -48 -1 -60 -3c-53 74 -68 100 -116 151c-4.5 3.8 -10.2 5.60001 -15 6.39999v-25.4c0 -58 2 -93 8 -136l-2 -2s-25 2 -50 2c-26 0 -51 -2 -51 -2l-1 2c6 41 8 79 8 136v41zM249 718c-60 0 -93 -33 -93 -93v-678c0 -60 33 -83 93 -83h572c60 0 83 23 83 83v678
c0 60 -23 93 -83 93h-572zM1000 -84c0 -90 -29 -128 -119 -128h-632c-90 0 -129 38 -129 128v709c0 83 48 129 129 129h602c90 0 149 -39 149 -129v-709z" />
    <glyph glyph-name="Lacute" unicode="&#x139;" 
d="M497.8 676.6l51.7 -42.9l-118.7 -48.4c-17.6 -7.70001 -28.7 -9.89996 -35.3 -9.89996c-7.70001 0 -12 4.39996 -12 13.2c0 5.5 2.10001 8.80005 12 16.5zM490 191c0 -13 1 -85 6 -103c101 0 212 9 212 9l1 -3c-1 -6 -1 -17 -1 -25c0 -7 0 -18 1 -28l-1 -3
c-12 2 -30 3 -45 3h-221c-25 0 -55 -3 -55 -3v3c6 40 7 93 7 150v183c0 57 -2 108 -8 150l1 3s30 -3 55 -3c26 0 55 3 55 3l1 -3c-6 -39 -8 -93 -8 -150v-183zM249 718c-60 0 -93 -33 -93 -93v-678c0 -60 33 -83 93 -83h572c60 0 83 23 83 83v678c0 60 -23 93 -83 93h-572z
M1000 -84c0 -90 -29 -128 -119 -128h-632c-90 0 -129 38 -129 128v709c0 83 48 129 129 129h602c90 0 149 -39 149 -129v-709z" />
    <glyph glyph-name="lacute" unicode="&#x13a;" 
d="M485 191v215c0 57 -2 109 -8 141l2 3c30 2 76 11 95 18c5 0 7 -2 7 -7c-6 -46 -8 -85 -8 -141v-229c0 -57 1 -107 8 -150l-2 -2s-24 2 -50 2s-51 -2 -51 -2l-1 2c7 40 8 94 8 150zM249 718c-60 0 -93 -33 -93 -93v-678c0 -60 33 -83 93 -83h572c60 0 83 23 83 83v678
c0 60 -23 93 -83 93h-572zM1000 -84c0 -90 -29 -128 -119 -128h-632c-90 0 -129 38 -129 128v709c0 83 48 129 129 129h602c90 0 149 -39 149 -129v-709zM565.8 698.6l51.7 -42.9l-118.7 -48.4c-17.6 -7.70001 -28.7 -9.89996 -35.3 -9.89996
c-7.70001 0 -12 4.39996 -12 13.2c0 5.5 2.10001 8.80005 12 16.5z" />
    </font>
</defs>
</svg>
