<?xml version="1.0" standalone="no"?>
<!DOCTYPE svg PUBLIC "-//W3C//DTD SVG 1.1//EN" "http://www.w3.org/Graphics/SVG/1.1/DTD/svg11.dtd" >
<svg xmlns="http://www.w3.org/2000/svg" xmlns:xlink="http://www.w3.org/1999/xlink" version="1.1">
<metadata>
Created by FontForge 20170515 at Fri Oct 13 01:06:44 2017
 By fw_worker
Linux Libertine by Philipp H. Poll,
Open Font under Terms of following Free Software Licenses:
GPL (General Public License) with font-exception and OFL (Open Font License).
Created with FontForge (http://fontforge.sf.net)
Sept 2003, 2004, 2005, 2006, 2007, 2008, 2009, 2010, 2011
</metadata>
<defs>
<font id="LinBiolinumU" horiz-adv-x="0" >
  <font-face 
    font-family="Linux Biolinum Outline"
    font-weight="400"
    font-stretch="normal"
    units-per-em="2048"
    panose-1="2 0 5 3 0 0 0 0 0 0"
    ascent="1638"
    descent="-410"
    x-height="885"
    cap-height="1327"
    bbox="-2222 -549 12638 1829"
    underline-thickness="81"
    underline-position="-281"
    unicode-range="U+0020-FFFD"
  />
<missing-glyph horiz-adv-x="1024" 
d="M0 0v1430h1024v-1430h-1024zM512 807l348 518h-696zM573 715l349 -520v1040zM164 102h696l-348 521zM102 1235v-1040l349 520zM20 20h984v1389h-984v-1389zM512 770l-387 576h774zM549 715l393 587v-1175zM125 82l387 577l387 -577h-774zM82 1302l393 -587l-393 -588
v1175z" />
    <glyph glyph-name="ellipsis" unicode="&#x2e;&#x2e;&#x2e;" horiz-adv-x="1533" 
d="M1194 90v8q27 76 111 111h8q84 -31 110 -111v-8q-29 -90 -110 -110h-8q-49 10 -73 34.5t-38 75.5zM653 90v8q27 76 111 111h8q84 -31 111 -111v-8q-29 -90 -111 -110h-8q-49 10 -73 34.5t-38 75.5zM111 90v8q27 76 110 111h8q84 -31 111 -111v-8q-29 -90 -111 -110h-8
q-49 10 -72.5 34.5t-37.5 75.5zM1214 94q18 -64 55 -82q16 -7 40 -12q27 7 43 17t28.5 28t22.5 49q-13 37 -33.5 58t-60.5 37q-40 -17 -61 -37.5t-34 -57.5zM673 94q18 -64 56 -82q16 -7 39 -12q40 11 59.5 30t34.5 64q-9 25 -20 42t-29 29.5t-45 23.5q-40 -17 -61 -37.5
t-34 -57.5zM131 94q13 -47 31 -65t63 -29q20 5 34 11.5t25 17.5t19.5 26.5t16.5 38.5q-13 37 -34 58t-61 37q-27 -11 -44.5 -24t-29 -29.5t-20.5 -41.5z" />
    <glyph glyph-name="exclamdbl" unicode="&#x21;&#x21;" horiz-adv-x="841" 
d="M117 90v8q27 76 110 111h9q84 -31 110 -111v-8q-29 -90 -110 -110h-9q-49 10 -72.5 34.5t-37.5 75.5zM231 1348q45 0 80 -39t35 -111q0 -76 -22.5 -205t-30.5 -190q-12 -96 -19.5 -183.5t-9.5 -134.5t-4 -55q-4 -41 -28.5 -41t-28.5 27l-10 145q-10 145 -21 242
q-8 72 -29.5 193.5t-21.5 201.5q0 76 34.5 113t75.5 37zM494 94v8q27 76 110 111h8q84 -31 111 -111v-8q-29 -90 -111 -110h-8q-49 10 -72.5 34.5t-37.5 75.5zM608 1352q45 0 80 -39t35 -111q0 -76 -22.5 -205t-30.5 -190q-12 -96 -19.5 -183t-9.5 -134.5t-4 -55.5
q-4 -41 -28.5 -41t-28.5 27l-11 145q-10 145 -20 242q-8 72 -29.5 193.5t-21.5 201.5q0 76 34.5 113t75.5 37zM137 94q13 -47 31 -65t63 -29q20 5 34 11.5t25.5 17.5t19.5 26.5t16 38.5q-13 37 -33.5 58t-60.5 37q-16 -7 -28.5 -14t-23 -15t-18 -18t-14 -21.5t-11.5 -26.5z
M231 1327q-33 0 -61.5 -30.5t-28.5 -98.5q0 -20 1 -40t2.5 -37t4 -35t5.5 -34t6 -34t6.5 -35.5t7 -38.5t6.5 -41.5t6.5 -46t5.5 -51.5q7 -70 14 -156t11.5 -152t5.5 -79q0 -2 1 -4q1 -4 6 -4h1q2 0 3 0.5t3 5.5t3 16v1q1 6 2 26t3 52.5t5.5 73.5t9 100t13.5 120
q8 65 30.5 192.5t22.5 200.5q0 66 -29 97.5t-66 31.5zM514 98q13 -47 31 -65t63 -29q40 11 60 30t35 64q-13 37 -34 58.5t-61 36.5q-40 -17 -60.5 -37.5t-33.5 -57.5zM608 1331q-33 0 -61.5 -30.5t-28.5 -98.5q0 -77 22 -198t29 -195q4 -38 8 -81t6.5 -80.5t5.5 -75.5t5 -66
t3.5 -51t2.5 -33q6 -9 8 -8q6 0 9 22v1q1 7 3 38.5t4.5 73.5t9 113.5t15.5 146.5q8 65 30.5 192.5t22.5 200.5q0 66 -28.5 97.5t-65.5 31.5z" />
    <glyph glyph-name="question_question" unicode="&#x3f;&#x3f;" horiz-adv-x="1599" 
d="M254 90v8q27 76 111 111h8q84 -31 110 -111v-8q-29 -90 -110 -110h-8q-49 10 -73 34.5t-38 75.5zM399 1268q-141 0 -252 -193l-26 2l-33 137l6 9q152 127 324 127q156 0 247 -84t91 -226q0 -76 -39 -142.5t-76 -99t-102 -79.5q-86 -63 -107 -103q-37 -72 -37 -149v-90
q0 -20 -26.5 -20.5t-26.5 20.5v94q0 59 5 100t38 107.5t94 122.5q66 61 94.5 111.5t28.5 119.5q0 100 -57.5 168t-145.5 68zM1024 90v8q27 76 111 111h8q84 -31 110 -111v-8q-29 -90 -110 -110h-8q-49 10 -73 34.5t-38 75.5zM1169 1268q-141 0 -251 -193l-27 2l-33 137l6 9
q152 127 324 127q156 0 247 -84t91 -226q0 -76 -39 -142.5t-76 -99t-102 -79.5q-86 -63 -107 -103q-37 -72 -37 -149v-90q0 -20 -26.5 -20.5t-26.5 20.5v94q0 59 5 100t38 107.5t94 122.5q66 61 94.5 111.5t28.5 119.5q0 100 -57.5 168t-145.5 68zM274 94q18 -64 55 -82
q16 -7 40 -12q16 4 27.5 9t21.5 12t18 17t14.5 23.5t12.5 32.5q-13 37 -33.5 58t-60.5 37q-40 -17 -61 -37.5t-34 -57.5zM399 1288q96 0 160 -73.5t64 -182.5q0 -74 -31.5 -129t-98.5 -117q-45 -41 -73.5 -84t-40 -87t-14.5 -72.5t-3 -71.5v-94q3 -1 7 0h3h3v90
q0 27 3.5 52.5t12.5 52.5t23 54q23 43 113 109q47 34 75 58t63.5 63t52.5 85t17 99q0 133 -85 211t-232 78q-91 0 -172 -37.5t-136 -82.5l27 -111q49 81 114 135.5t148 54.5zM1044 94q18 -64 55 -82q16 -7 40 -12q27 7 43 17t28.5 28t22.5 49q-13 37 -33.5 58t-60.5 37
q-40 -17 -61 -37.5t-34 -57.5zM1169 1288q96 0 160 -73.5t64 -182.5q0 -26 -4 -49t-11.5 -44t-18 -40t-26 -38.5t-32 -37t-38.5 -37.5q-45 -41 -73.5 -84t-40 -87t-14 -72.5t-2.5 -71.5v-94q3 -1 6 0h3h3v90q0 84 39 159q23 43 113 109q37 27 59.5 45t54.5 49.5t50 59.5
t31 68t13 83q0 133 -85 211t-232 78q-63 0 -129.5 -22.5t-106 -46.5t-72.5 -51l27 -111q31 51 65 89.5t87 69.5t110 31z" />
    <glyph glyph-name="question_exclam" unicode="&#x3f;&#x21;" horiz-adv-x="1216" 
d="M254 90v8q27 76 111 111h8q84 -31 110 -111v-8q-29 -90 -110 -110h-8q-49 10 -73 34.5t-38 75.5zM399 1268q-141 0 -252 -193l-26 2l-33 137l6 9q152 127 324 127q156 0 247 -84t91 -226q0 -76 -39 -142.5t-76 -99t-102 -79.5q-86 -63 -107 -103q-37 -72 -37 -149v-90
q0 -20 -26.5 -20.5t-26.5 20.5v94q0 59 5 100t38 107.5t94 122.5q66 61 94.5 111.5t28.5 119.5q0 100 -57.5 168t-145.5 68zM868 94v8q27 76 111 111h8q84 -31 111 -111v-8q-29 -90 -111 -110h-8q-49 10 -73 34.5t-38 75.5zM983 1352q45 0 80 -39t35 -111q0 -76 -22.5 -205
t-31.5 -190q-12 -96 -19 -183t-9 -134.5t-4 -55.5q-4 -41 -29 -41t-29 27l-10 145q-10 145 -20 242q-8 72 -30 193.5t-22 201.5q0 76 35 113t76 37zM274 94q18 -64 55 -82q16 -7 40 -12q16 4 27.5 9t21.5 12t18 17t14.5 23.5t12.5 32.5q-13 37 -33.5 58t-60.5 37
q-40 -17 -61 -37.5t-34 -57.5zM399 1288q96 0 160 -73.5t64 -182.5q0 -74 -31.5 -129t-98.5 -117q-45 -41 -73.5 -84t-40 -87t-14.5 -72.5t-3 -71.5v-94q3 -1 7 0h3h3v90q0 27 3.5 52.5t12.5 52.5t23 54q23 43 113 109q47 34 75 58t63.5 63t52.5 85t17 99q0 133 -85 211
t-232 78q-91 0 -172 -37.5t-136 -82.5l27 -111q49 81 114 135.5t148 54.5zM889 98q13 -47 30.5 -65t63.5 -29q40 11 59.5 30t35.5 64q-7 19 -15 33t-19 25.5t-25.5 20t-35.5 16.5q-40 -17 -60.5 -37.5t-33.5 -57.5zM983 1331q-33 0 -61.5 -30.5t-28.5 -98.5q0 -77 21.5 -198
t29.5 -195q4 -38 7.5 -81t6.5 -80.5t6 -75.5t4.5 -66t3.5 -51t3 -33q6 -9 8 -8q6 0 8 22v1q1 7 3 38.5t5 73.5t9.5 113.5t15.5 146.5q8 69 22.5 146t22.5 134t8 113q0 66 -28.5 97.5t-65.5 31.5z" />
    <glyph glyph-name="exclam_question" unicode="&#x21;&#x3f;" horiz-adv-x="1202" 
d="M627 86v8q27 76 110 111h8q84 -31 111 -111v-8q-29 -90 -111 -111h-8q-49 10 -72.5 35t-37.5 76zM772 1264q-141 0 -252 -193l-26 2l-33 137l6 9q152 127 324 127q156 0 246.5 -84t90.5 -226q0 -76 -38.5 -142.5t-75.5 -99t-103 -79.5q-86 -63 -106 -103
q-37 -72 -37 -149v-90q0 -20 -26.5 -20.5t-26.5 20.5v94q0 59 5 100t38 107.5t94 122.5q66 61 94.5 111t28.5 120q0 100 -57.5 168t-145.5 68zM117 90v8q27 76 110 111h9q84 -31 110 -111v-8q-29 -90 -110 -110h-9q-49 10 -72.5 34.5t-37.5 75.5zM231 1348q45 0 80 -39
t35 -111q0 -76 -22.5 -205t-30.5 -190q-12 -96 -19.5 -183.5t-9.5 -134.5t-4 -55q-4 -41 -28.5 -41t-28.5 27l-10 145q-10 145 -21 242q-8 72 -29.5 193.5t-21.5 201.5q0 76 34.5 113t75.5 37zM647 90q13 -47 31 -65.5t63 -29.5q40 11 60 30.5t35 64.5q-3 8 -6 15.5t-6.5 14
t-7.5 12.5t-8.5 11t-10 10t-11.5 9t-13 8t-14.5 7.5t-16.5 6.5q-40 -17 -61 -37t-34 -57zM772 1284q96 0 159.5 -73.5t63.5 -182.5q0 -74 -31 -129t-98 -117q-45 -41 -74 -84t-40 -87t-14 -72.5t-3 -71.5v-94q3 -1 6 0h7v90q0 84 39 159q23 43 112 109q47 34 75.5 58t64 63
t52.5 85t17 99q0 133 -85 211t-232 78q-63 0 -129.5 -22.5t-106.5 -46.5t-72 -51l27 -111q49 81 114 135.5t148 54.5zM137 94q13 -47 31 -65t63 -29q20 5 34 11.5t25.5 17.5t19.5 26.5t16 38.5q-13 37 -33.5 58t-60.5 37q-16 -7 -28.5 -14t-23 -15t-18 -18t-14 -21.5
t-11.5 -26.5zM231 1327q-33 0 -61.5 -30.5t-28.5 -98.5q0 -20 1 -40t2.5 -37t4 -35t5.5 -34t6 -34t6.5 -35.5t7 -38.5t6.5 -41.5t6.5 -46t5.5 -51.5q7 -70 14 -156t11.5 -152t5.5 -79q0 -2 1 -4q1 -4 6 -4h1q2 0 3 0.5t3 5.5t3 16v1q1 6 2 26t3 52.5t5.5 73.5t9 100
t13.5 120q8 65 30.5 192.5t22.5 200.5q0 66 -29 97.5t-66 31.5z" />
    <glyph glyph-name="centigrade" unicode="&#xb0;C" horiz-adv-x="1626" 
d="M90 1143q0 86 60.5 145.5t144.5 59.5t143.5 -59.5t59.5 -145.5q0 -84 -59.5 -143.5t-143.5 -59.5t-144.5 59.5t-60.5 143.5zM430 1141q0 57 -36 103t-99.5 46t-100 -45t-36.5 -104q0 -57 37.5 -100.5t99.5 -43.5q59 0 97 44.5t38 99.5zM1083 1249q98 0 195.5 -20.5
t146.5 -40.5l50 -21l4 -4q-27 -88 -37 -205l-19 -2q-104 205 -366 205q-133 0 -254 -134t-121 -386q0 -236 98.5 -400.5t292.5 -164.5q129 0 215 38t180 142l43 -31q-188 -246 -436 -245q-186 0 -322.5 91t-201 231t-64.5 306q0 279 179 460t417 181zM111 1143
q0 -76 54 -129t130 -53t129 53t53 129q0 78 -53 131t-129 53t-130 -53t-54 -131zM451 1140.5q0 -63.5 -43 -113.5t-113 -50q-72 0 -115 49t-43 114.5t43 118t115 52.5q74 0 115 -53.5t41 -117zM1083 1229q-229 0 -402 -175t-173 -446q0 -252 150.5 -430t416.5 -178
q229 0 407 221l-11 8q-91 -98 -180.5 -136t-217.5 -38q-141 0 -237.5 89t-135 217t-38.5 280q0 135 38.5 243.5t99 170t127 94.5t130.5 33q60 0 112 -10.5t99 -32.5t87 -58t70 -85q9 86 30 158q-177 75 -372 75z" />
    <glyph glyph-name="fahrenheit" unicode="&#xb0;F" horiz-adv-x="1480" 
d="M90 1143q0 86 60.5 145.5t144.5 59.5t143.5 -59.5t59.5 -145.5q0 -84 -59.5 -143.5t-143.5 -59.5t-144.5 59.5t-60.5 143.5zM430 1141q0 57 -36 103t-99.5 46t-100 -45t-36.5 -104q0 -57 37.5 -100.5t99.5 -43.5q59 0 97 44.5t38 99.5zM1282 1229q86 0 115 4l2 -4
q-2 -27 -2 -62q0 -31 2 -47l-2 -6q-270 23 -510 23q-14 -53 -15 -269v-174q229 0 422 19l4 -6q-4 -16 -4 -52q0 -37 4 -53l-4 -6q-188 18 -422 18v-254q0 -244 17 -360l-2 -6q-35 6 -96 6l-99 -6l-2 6q18 123 19 360v508q0 225 -19 361l4 4q35 -4 97 -4h491zM111 1143
q0 -76 54 -129t130 -53t129 53t53 129q0 78 -53 131t-129 53t-130 -53t-54 -131zM451 1140.5q0 -63.5 -43 -113.5t-113 -50q-72 0 -115 49t-43 114.5t43 118t115 52.5q74 0 115 -53.5t41 -117zM1282 1208h-491q-12 0 -23.5 0.5t-21 0.5t-17 0.5t-16.5 1.5q16 -131 16 -343
v-508q0 -220 -16 -343q35 3 78 3q40 0 75 -3q-14 114 -14 343v275h20q33 0 80.5 -1t102.5 -3t114 -5.5t106 -7.5q-1 14 -1 37v7v6.5v7.5t0.5 7t0.5 7q-177 -17 -403 -16h-20v194q0 34 0.5 76.5t4.5 108.5t10 89l4 15h16q91 0 202 -4.5t172.5 -8.5t115.5 -8q-1 11 -1 31
q0 25 1 43q-8 -1 -17 -1h-18t-20 -0.5t-19.5 -0.5h-20.5z" />
    <glyph glyph-name="f_t" unicode="ft" horiz-adv-x="1302" 
d="M203 788h-2q-94 0 -152 -4l-10 15q29 45 45 84q31 -4 119 -4v82q0 111 23.5 168t88.5 145q115 156 316 156q63 0 92 -19l2 -6q-25 -43 -57 -168l-23 -2q-39 72 -119 72q-84 0 -127 -60.5t-43 -150.5q0 -16 5.5 -92t5.5 -105v-20h434q0 162 -15 247l5 7q29 2 54 8t39.5 11
t37 16.5t34.5 15.5q18 0 19 -21q-10 -131 -10 -284h96q86 0 143 4l10 -15q-16 -41 -24 -84q-41 4 -148 4h-77v-292q0 -70 -3.5 -160t-3.5 -113q0 -68 14.5 -100.5t53.5 -32.5q98 0 161 36l25 -50q-104 -96 -258 -96q-72 0 -115.5 45t-43.5 116q0 23 3 142.5t3 189.5v315
h-434v-378q0 -272 20 -410l-4 -6q-29 6 -98 6l-101 -6l-2 6q20 129 21 410v378zM223 809v-399q0 -264 -17 -393q9 1 19 1.5t26.5 1t33.5 0.5q45 0 79 -3q-10 79 -14 173.5t-4 219.5v399h475v-336q0 -70 -3 -189.5t-3 -142.5q0 -63 38 -102t101 -39q137 0 233 81l-9 18
q-25 -12 -52.5 -18.5t-49.5 -8.5t-50 -2q-88 0 -88 153q0 25 3 115t3 158v313h98q78 0 131 -3q6 28 17 55q-25 -1 -62.5 -2t-66.5 -1h-117v21q0 153 10 282q-7 -3 -22 -10q-9 -4 -13.5 -6.5t-14 -6.5t-16 -6t-16.5 -5.5t-19 -5.5t-20.5 -4t-23.5 -3q12 -78 12 -235v-21h-475
v41q0 27 -5 102.5t-5 94.5q0 96 48 163.5t142 67.5q81 0 127 -66q25 94 46 138q-29 10 -68 10q-191 0 -299 -147q-46 -62 -63.5 -91.5t-31.5 -82t-14 -127.5v-103h-20h-38.5t-33.5 1t-34 2q-3 -7 -6.5 -13.5t-7 -13.5t-7.5 -14l-8 -14q26 1 64 2t69 1h22z" />
    <glyph glyph-name="t_t" unicode="tt" horiz-adv-x="1232" 
d="M793 788h-435v-292q0 -70 -3 -157t-3 -110q0 -68 14.5 -97.5t53.5 -29.5q77 0 141 37l25 -57q-111 -102 -238 -102q-72 0 -116 45t-44 116q0 23 3.5 142.5t3.5 189.5v315q-96 0 -146 -4l-10 15q29 45 45 84q29 -4 111 -4q0 63 4 145t4 117l4 6q31 4 52.5 11t49 20.5
t41.5 19.5q18 0 19 -20q-10 -131 -11 -299h435q0 63 4 145t4 117l4 6q31 4 52.5 11t49 20.5t41.5 19.5q18 0 19 -20q-10 -131 -11 -299h97q86 0 143 4l10 -15q-16 -41 -24 -84q-41 4 -148 4h-78v-258q0 -70 -3 -159.5t-3 -112.5q0 -158 68 -168q79 -13 161 16l25 -51
q-119 -76 -237 -75q-76 0 -128.5 51t-52.5 145q0 23 3.5 142.5t3.5 189.5v280zM813 809v-301q0 -70 -3 -189.5t-3 -142.5q0 -86 46 -131t114 -45q108 0 211 63l-9 18q-14 -4 -28 -7.5t-27 -5t-25.5 -2.5t-25 -0.5t-24.5 1.5t-24 3q-48 8 -66.5 54t-18.5 134q0 25 3 115
t3 157v279h98q78 0 131 -3q6 28 16 55q-25 -1 -62 -2t-66 -1h-117v21q0 167 10 296q-8 -3 -18.5 -8t-18.5 -9t-18.5 -8.5t-20.5 -8t-22.5 -7t-26.5 -5.5q0 -28 -4 -108t-4 -142v-21h-475v21q0 167 10 296q-9 -4 -27 -12.5t-29.5 -13.5t-30 -11t-38.5 -9q0 -29 -2 -69.5
t-4 -86.5t-2 -94v-21h-21q-66 0 -97 3q-6 -14 -13 -27.5t-16 -27.5q51 3 126 3h21v-336q0 -70 -3 -189.5t-3 -142.5q0 -63 38 -102t101 -39q114 0 213 87l-10 23q-22 -11 -43.5 -17t-42 -8.5t-45.5 -2.5q-88 0 -88 147q0 25 3 112t3 155v313h475z" />
    <glyph glyph-name="Q_u" unicode="Qu" horiz-adv-x="2553" 
d="M1095 66q154 -99 388.5 -186t492.5 -120v-12q-135 -72 -192 -117q-182 51 -328 105t-272 117t-258 146q-81 -19 -170 -19q-272 0 -461 180t-189 475q0 301 186.5 507t461.5 206q281 0 469 -187.5t188 -486.5q0 -204 -83.5 -363t-232.5 -245zM2234 188q-57 -88 -139 -148
t-170 -60q-141 0 -204.5 81.5t-63.5 202.5v246q0 238 -19 369l4 6q37 -6 96.5 -6t96.5 6l4 -6q-18 -123 -18 -369v-203q0 -129 35.5 -171t101.5 -42q72 0 150.5 64.5t129.5 150.5v201q0 233 -18 369l4 6q37 -6 96.5 -6t96.5 6l4 -6q-18 -123 -19 -369v-117q0 -207 35 -393
l-4 -6q-41 6 -91 6q-24 0 -71 -6q-18 0 -18 6l-10 182zM727 1257q-168 0 -289 -144t-121 -443q0 -281 141.5 -440.5t338.5 -159.5q180 0 291.5 148.5t111.5 416.5q0 311 -125 466.5t-348 155.5zM1084 49l-28 18l30 17q95 55 162.5 141t105 201t37.5 248q0 291 -182.5 472
t-454.5 181q-266 0 -446.5 -199.5t-180.5 -492.5q0 -287 182.5 -461t446.5 -174q87 0 165 19l9 2l7 -5q195 -123 385.5 -205.5t456.5 -156.5q12 9 29 20t36 23t41 24t45 25q-248 37 -472.5 122t-373.5 181zM2217 200l12 18l33 -25l10 -178q44 6 70 5q35 0 71 -3
q-31 185 -31 376v117v82.5t1 73t3 69.5t4.5 63.5t7.5 63.5q-40 -4 -78 -4q-17 0 -36.5 1t-40.5 3q16 -128 16 -352v-206l-3 -5q-53 -90 -136 -157.5t-162 -67.5q-72 0 -115 49t-43 184v203q0 235 16 352q-40 -4 -77.5 -4t-77.5 4q10 -77 13 -153.5t3 -198.5v-246
q0 -115 58.5 -189.5t189.5 -74.5q81 0 159.5 58t132.5 142zM727 1278q231 0 362.5 -163t131.5 -480q0 -274 -117 -430t-307 -156q-207 0 -353.5 166t-146.5 455q0 305 127 456.5t303 151.5z" />
    <glyph glyph-name="f_f" unicode="ff" horiz-adv-x="1212" 
d="M203 788h-2q-94 0 -152 -4l-10 15q29 45 45 84q31 -4 119 -4v61q0 111 23.5 168t88.5 145q115 156 316 156q63 0 92 -18l2 -7q-25 -43 -57 -167l-23 -3q-39 72 -119 72q-84 0 -127 -60.5t-43 -150.5q0 -16 5.5 -81.5t5.5 -94.5v-20h405v102q0 111 23.5 168t89.5 145
q115 156 315 156q63 0 92 -18l2 -7q-25 -43 -57 -168l-23 -2q-39 72 -118 72q-84 0 -127 -60.5t-43 -150.5q0 -16 5 -102t5 -115v-20h88q57 0 143 4l11 -15q-16 -41 -25 -84q-41 4 -147 4h-70v-378q0 -272 20 -410l-4 -6q-29 6 -98 6l-100 -6l-2 6q20 129 20 410v378h-405
v-378q0 -272 20 -410l-4 -6q-29 6 -98 6l-101 -6l-2 6q20 129 21 410v378zM223 809v-399q0 -264 -17 -393q9 1 19 1.5t26.5 1t33.5 0.5q45 0 79 -3q-10 79 -14 173.5t-4 219.5v399h447v-399q0 -264 -18 -393q9 1 19 1.5t26.5 1t33.5 0.5q45 0 79 -3q-18 136 -18 393v399h91
q78 0 131 -3q1 4 1.5 7.5t1.5 7.5l2 8t2.5 8t2.5 8t2.5 8.5t3.5 8.5q-78 -3 -129 -4h-109v41q0 27 -5 113t-5 104q0 96 48 164t143 68q81 0 126 -66q25 94 46 138q-29 10 -68 10q-191 0 -299 -148q-35 -48 -49 -69.5t-31.5 -58.5t-22.5 -76.5t-5 -96.5v-123h-447v41
q0 27 -5 92.5t-5 83.5q0 96 48 164t142 68q81 0 127 -66q25 94 46 138q-29 10 -68 10q-191 0 -299 -148q-46 -62 -63.5 -91t-31.5 -82t-14 -128v-82h-20h-38.5t-33.5 1t-34 2q-3 -7 -6.5 -13.5t-7 -13.5t-7.5 -14l-8 -14q26 1 64 2t69 1h22z" />
    <glyph glyph-name=".notdef" horiz-adv-x="1024" 
d="M0 0v1430h1024v-1430h-1024zM512 807l348 518h-696zM573 715l349 -520v1040zM164 102h696l-348 521zM102 1235v-1040l349 520zM20 20h984v1389h-984v-1389zM512 770l-387 576h774zM549 715l393 587v-1175zM125 82l387 577l387 -577h-774zM82 1302l393 -587l-393 -588
v1175z" />
    <glyph glyph-name=".null" 
 />
    <glyph glyph-name="nonmarkingreturn" horiz-adv-x="682" 
 />
    <glyph glyph-name="space" unicode=" " horiz-adv-x="512" 
 />
    <glyph glyph-name="exclam" unicode="!" horiz-adv-x="466" 
d="M117 90v8q27 76 110 111h9q84 -31 110 -111v-8q-29 -90 -110 -110h-9q-49 10 -72.5 34.5t-37.5 75.5zM231 1348q45 0 80 -39t35 -111q0 -76 -22.5 -205t-30.5 -190q-12 -96 -19.5 -183.5t-9.5 -134.5t-4 -55q-4 -41 -28.5 -41t-28.5 27l-10 145q-10 145 -21 242
q-8 72 -29.5 193.5t-21.5 201.5q0 76 34.5 113t75.5 37zM137 94q13 -47 31 -65t63 -29q20 5 34 11.5t25.5 17.5t19.5 26.5t16 38.5q-13 37 -33.5 58t-60.5 37q-16 -7 -28.5 -14t-23 -15t-18 -18t-14 -21.5t-11.5 -26.5zM231 1327q-33 0 -61.5 -30.5t-28.5 -98.5q0 -20 1 -40
t2.5 -37t4 -35t5.5 -34t6 -34t6.5 -35.5t7 -38.5t6.5 -41.5t6.5 -46t5.5 -51.5q7 -70 14 -156t11.5 -152t5.5 -79q0 -2 1 -4q1 -4 6 -4h1q2 0 3 0.5t3 5.5t3 16v1q1 6 2 26t3 52.5t5.5 73.5t9 100t13.5 120q8 65 30.5 192.5t22.5 200.5q0 66 -29 97.5t-66 31.5z" />
    <glyph glyph-name="quotedbl" unicode="&#x22;" horiz-adv-x="688" 
d="M182 872q-53 326 -53 345q0 37 30.5 69.5t73.5 32.5q72 0 72 -68l-67 -370zM440 874q-53 326 -53 345q0 37 31 69.5t74 32.5q72 0 71 -68l-67 -370zM199 896l21 3q64 324 65 352q0 47 -52 47q-17 0 -32.5 -7.5t-26.5 -19.5t-17.5 -26.5t-7.5 -27.5q2 -25 50 -321z
M457 898l21 3q64 324 65 352q0 47 -51 47q-34 0 -59 -26t-25 -55q1 -12 18.5 -126.5t30.5 -194.5z" />
    <glyph glyph-name="numbersign" unicode="#" horiz-adv-x="962" 
d="M694 745l-41 -239h199l-16 -107h-195l-61 -370h-72l57 370h-239l-62 -370h-71l59 370h-197l15 107h198l39 239h-198l18 109h197l59 371h74l-62 -371h244l57 371h72l-59 -371h198l-16 -109h-197zM584 506l37 239h-240l-39 -239h242zM677 766h196l10 68h-198l59 370h-30
l-57 -370h-286l62 370h-33l-59 -370h-197l-11 -68h198l-45 -281h-198l-9 -65h197l-59 -371h30l61 371h281l-57 -371h30l62 371h194l10 65h-199zM601 485h-283l46 281h280z" />
    <glyph glyph-name="dollar" unicode="$" horiz-adv-x="952" 
d="M471 -19l-9 -172q-18 -10 -76 -10l10 181q-93 4 -169.5 26.5t-107.5 40.5t-31 21l-4 6q31 127 39 186l18 2q10 -22 23.5 -42.5t29.5 -38.5t33.5 -34t37.5 -29t42 -23t45.5 -17.5t48.5 -10.5l27 503q-67 28 -116 57t-97 71t-73 98.5t-25 125.5q0 57 20.5 108.5t55 90
t79.5 67t95 44t99 17.5l9 163q27 10 76 10l-10 -175q81 -6 142.5 -27t81.5 -39l21 -18l5 -6q-29 -88 -37 -180l-21 -2q-33 73 -81.5 121t-115.5 66l-24 -444q46 -17 82 -32t79.5 -38.5t75 -51.5t59 -63t42 -80.5t14.5 -98.5q0 -166 -123 -270q-52 -44 -123 -70.5t-147 -32.5
zM502 541l-26 -476q96 8 161 65t65 157q0 57 -15 99.5t-46 71t-61.5 46.5t-77.5 37zM438 748l24 423h-3q-92 0 -147.5 -56t-55.5 -144q0 -56 30 -102.5t66.5 -72t85.5 -48.5zM452 0l18 2q158 12 258 98q56 48 86 116t30 138q0 59 -21 108.5t-51.5 84t-79 65t-90 49
t-97.5 38.5l-14 5l26 484l24 -6q123 -33 196 -169q5 36 12.5 70t18.5 70q-13 11 -32.5 23t-74.5 29t-122 22l-20 1l10 173q-20 -1 -35 -4l-9 -168h-19q-125 -4 -227 -91t-102 -216q0 -52 17 -97t43.5 -78t67 -63.5t80.5 -51.5t91 -43l14 -5l-30 -541l-22 3q-21 3 -41 8.5
t-39 13t-36.5 17t-34 21t-31.5 24.5t-29 28t-26 31.5t-23 34.5q-8 -50 -31 -144q107 -72 290 -79l21 -1l-10 -180q21 1 34 4zM483 570l27 -10q47 -19 79.5 -38.5t66 -50.5t50.5 -77.5t17 -106.5q0 -109 -71.5 -172t-173.5 -71l-24 -2zM457 717l-27 13q-194 89 -194 241
q0 96 61 158.5t162 62.5h24z" />
    <glyph glyph-name="percent" unicode="%" horiz-adv-x="1392" 
d="M242 870q0 -78 30.5 -110.5t67.5 -32.5q84 0 141.5 106.5t57.5 215.5q0 74 -30 103.5t-69 29.5q-76 0 -137 -105t-61 -207zM797 1141q90 0 186 27.5t141 88.5l70 -34l-897 -1250l-74 33l785 1094q-104 -41 -234 -41q-98 0 -174 45q6 -23 6 -53q0 -125 -77.5 -256
t-202.5 -131q-94 0 -145.5 72.5t-51.5 164.5q0 129 86 238.5t201 109.5q43 0 86 -17.5t61 -37.5q115 -53 234 -53zM831 215q0 127 86.5 235.5t202.5 108.5q80 0 134.5 -45t54.5 -154q0 -131 -77 -259t-202 -128q-94 0 -146.5 73t-52.5 169zM946 182q0 -78 30 -111.5
t68 -33.5q84 0 141.5 108.5t57.5 212.5q0 76 -31.5 105t-66.5 29q-76 0 -137.5 -104t-61.5 -206zM221 870q0 109 64.5 220.5t154.5 111.5q45 0 82 -37t37 -116q0 -70 -23.5 -146t-75.5 -136t-120 -60q-45 0 -82 39.5t-37 123.5zM797 1120q-124 0 -242 55l-5 2l-2 4
q-6 8 -20 16t-31.5 15t-39 12t-41.5 5q-104 0 -185 -102.5t-81 -225.5q0 -86 46 -151.5t130 -65.5q113 0 186.5 124t73.5 243q0 29 -6 47l-14 50l45 -27q27 -16 77.5 -29t85.5 -13q55 0 112.5 9t113.5 31l65 25l-810 -1129l35 -16l873 1216l-33 17q-54 -60 -149.5 -86
t-183.5 -26zM852 215q0 -90 47 -155.5t131 -65.5q113 0 185.5 121t72.5 245q0 178 -168 179q-106 0 -187 -101.5t-81 -222.5zM926 182q0 109 64.5 219.5t154.5 110.5q41 0 80 -35t39 -119q0 -111 -60.5 -226.5t-159.5 -115.5q-47 0 -82.5 41t-35.5 125z" />
    <glyph glyph-name="ampersand" unicode="&#x26;" horiz-adv-x="1454" 
d="M895 393q186 276 213 492q20 -6 80 -6q68 0 88 6q-31 -51 -164 -292t-160 -280l70 -94q45 -63 88 -96t70 -33q98 0 155 111l33 -17q-33 -102 -88 -153t-113 -51q-41 0 -69.5 5t-74.5 37.5t-91 94.5l-60 76q-78 -106 -162.5 -159.5t-207.5 -53.5q-180 0 -296 88t-116 272
q0 111 92 212t295 216q-111 172 -110 301q0 100 89 189.5t232 89.5q109 0 184.5 -69t75.5 -165q0 -82 -86 -180t-217 -174l8 -17q66 -112 242 -350zM600 842q96 63 153.5 139t57.5 133q0 70 -36 112t-97 42q-51 0 -103.5 -52.5t-52.5 -142.5q0 -104 78 -231zM522 692
q-147 -82 -198.5 -167t-51.5 -206q0 -258 244 -258q70 0 123 29t82 62.5t92 119.5q-228 301 -291 420zM912 382l-16 -24l-17 23q-177 238 -243 352l-18 35l17 10q127 73 210 168t83 168q0 88 -70 150.5t-170 62.5q-135 0 -218 -83t-83 -175q0 -37 10.5 -80.5t35 -97.5
t61.5 -112l12 -18l-19 -11q-134 -75 -217.5 -144t-121 -133.5t-37.5 -132.5q0 -174 108.5 -257t282.5 -83q117 0 198 50.5t156 154.5l16 21l76 -97q33 -46 63.5 -74t60 -39t47.5 -13.5t48 -2.5q17 0 35 5.5t37 18t36 31.5t34.5 48t31.5 65q-60 -98 -161 -98q-14 0 -29.5 5.5
t-33 16.5t-36 27t-38 38.5t-38.5 49.5l-78 106l8 12q18 27 72 122.5t126 225t105 186.5q-11 -1 -25 -1h-25q-40 0 -63 3q-15 -103 -64 -217.5t-149 -261.5zM611 825l-17 -12l-11 18q-81 133 -81 242q0 100 58 157.5t118 57.5q72 0 112.5 -49t40.5 -125q0 -43 -27 -93.5
t-77 -101.5t-116 -94zM512 710l19 10l9 -18q11 -20 57 -89.5t112 -163t120 -164.5l10 -12l-9 -13q-40 -54 -57.5 -76.5t-50.5 -57.5t-58.5 -48.5t-63.5 -25t-84 -11.5q-115 0 -189.5 65.5t-74.5 212.5q0 125 54 216t206 175z" />
    <glyph glyph-name="quotesingle" unicode="'" horiz-adv-x="389" 
d="M162 872q-53 326 -53 345q0 37 30.5 69.5t73.5 32.5q72 0 72 -68l-68 -370zM179 896l21 3q64 324 64 352q0 47 -51 47q-34 0 -58.5 -26t-25.5 -55q2 -25 50 -321z" />
    <glyph glyph-name="parenleft" unicode="(" horiz-adv-x="614" 
d="M90 516q0 274 121 520t313 412l47 -37q-311 -350 -311 -895q0 -541 311 -899l-47 -35q-121 104 -208 231.5t-129 228.5t-66.5 213t-27.5 162t-3 99zM111 516q0 -47 3 -95t25.5 -157t62.5 -206.5t124 -222t199 -227.5l16 12q-302 355 -301 896q0 145 24 280t57 226.5
t79.5 177t77 127.5t64.5 81l-17 13q-184 -163 -299 -401.5t-115 -503.5z" />
    <glyph glyph-name="parenright" unicode=")" horiz-adv-x="614" 
d="M524 516q0 -274 -120.5 -520t-313.5 -412l-47 37q311 350 311 895q0 541 -311 899l47 35q121 -104 208 -231t129 -228.5t66.5 -213t27.5 -162t3 -99.5zM504 516q0 37 -3 75t-13.5 117.5t-38.5 160.5t-70.5 176t-117.5 193.5t-172 185.5l-16 -12q302 -355 302 -896
q0 -145 -24.5 -280t-57 -226.5t-79 -177t-77.5 -127.5t-64 -81l16 -13q119 106 211 243t148 310.5t56 351.5z" />
    <glyph glyph-name="asterisk" unicode="*" horiz-adv-x="886" 
d="M406 1161q-35 8 -87 8q-166 0 -165 76q0 25 16 43.5t51 18.5q39 0 99.5 -45t97.5 -60q-4 41 -25.5 101.5t-21.5 87.5q0 33 17.5 56t43.5 23q68 0 68 -71q0 -29 -18.5 -99.5t-20.5 -99.5q39 16 98 61.5t96 45.5t53.5 -20.5t16.5 -41.5q0 -76 -141 -76q-63 0 -113 -8
q25 -27 72 -58.5t72.5 -57t25.5 -62.5q0 -27 -18.5 -43t-40.5 -16q-35 0 -58.5 32.5t-47 93t-40.5 87.5q-14 -27 -38.5 -90.5t-47 -93t-57.5 -29.5q-27 0 -43.5 17t-16.5 40q0 39 27 65.5t74 56t72 58.5zM440 1190v11q2 34 20.5 104t18.5 94q0 51 -47 51q-16 0 -28.5 -16.5
t-12.5 -42.5q0 -18 10 -46.5t21.5 -66t15.5 -74.5zM470 1182q51 8 114 8q121 0 121 55q0 41 -50 41q-28 0 -82.5 -41.5t-102.5 -62.5zM448 1156l5 -8q22 -34 44.5 -90.5t40.5 -85t44 -28.5q14 0 26.5 11.5t12.5 27.5q0 29 -22.5 49.5t-67.5 51t-75 63.5zM416 1142
q-29 -31 -73.5 -59.5t-66.5 -49.5t-22 -52q0 -14 11 -25.5t28 -11.5q25 0 41.5 23.5t40 82t41.5 92.5zM421 1179l-11 4q-33 13 -63.5 33t-48 34.5t-38 25t-39.5 10.5q-47 0 -47 -41q0 -55 145 -55q17 0 31.5 -1t30 -3t29.5 -5z" />
    <glyph glyph-name="plus" unicode="+" horiz-adv-x="1079" 
d="M592 526h352v-100h-352v-356h-105v356h-352v100h352v357h105v-357zM571 506v356h-63v-356h-352v-60h352v-356h63v356h353v60h-353z" />
    <glyph glyph-name="comma" unicode="," horiz-adv-x="450" 
d="M98 90v8q27 76 111 111h8q131 -47 131 -215q0 -59 -15.5 -104.5t-52 -81t-62 -52t-83.5 -51.5q-27 23 -26 43q160 109 159 193q0 53 -59 53q-51 12 -75 29.5t-36 66.5zM118 94q12 -43 28.5 -56t64.5 -24q78 -1 78 -73q0 -37 -21 -73t-53.5 -65t-83.5 -64l7 -9
q50 29 75 47t56.5 50t45 72.5t13.5 94.5q0 86 -29.5 129.5t-85.5 65.5q-40 -17 -61 -37.5t-34 -57.5z" />
    <glyph glyph-name="hyphen" unicode="-" horiz-adv-x="681" 
d="M561 483h-463q-31 0 -30 35q0 25 16 50.5t35 25.5h469q29 0 28 -37q0 -18 -18.5 -46t-36.5 -28zM561 504q6 0 20.5 21.5t14.5 31.5q0 16 -8 16h-469q-2 0 -9.5 -8t-14.5 -21.5t-7 -25.5q0 -14 10 -14h463z" />
    <glyph glyph-name="period" unicode="." horiz-adv-x="450" 
d="M111 90v8q27 76 110 111h8q84 -31 111 -111v-8q-29 -90 -111 -110h-8q-49 10 -72.5 34.5t-37.5 75.5zM131 94q13 -47 31 -65t63 -29q20 5 34 11.5t25 17.5t19.5 26.5t16.5 38.5q-13 37 -34 58t-61 37q-27 -11 -44.5 -24t-29 -29.5t-20.5 -41.5z" />
    <glyph glyph-name="slash" unicode="/" horiz-adv-x="661" 
d="M600 1323l-485 -1444h-84l485 1444h84zM572 1303h-41l-472 -1403h41z" />
    <glyph glyph-name="zero" unicode="0" horiz-adv-x="952" 
d="M467 -20q-182 0 -284.5 175t-102.5 437q0 291 118.5 474t278.5 183q117 0 195 -71q190 -174 190 -545q0 -170 -39 -302t-100 -206t-127 -109.5t-129 -35.5zM477 1169q-221 0 -221 -581q0 -63 3 -124t16.5 -138.5t36 -133t62.5 -94.5t95 -39q27 0 54.5 10.5t67.5 56.5
t60 124q35 127 35 399q0 195 -34 320t-85 168q-37 32 -90 32zM467 0q57 0 118.5 34t121 103.5t97.5 198.5t38 297q0 208 -56 335.5t-128 194.5q-37 35 -82 50.5t-99 15.5q-150 0 -263.5 -175t-113.5 -462q0 -256 98.5 -424t268.5 -168zM477 1190q62 0 104 -38
q57 -48 91.5 -176t34.5 -327q0 -275 -36 -405q-17 -63 -44.5 -106.5t-58 -63.5t-54.5 -27.5t-45 -7.5q-233 0 -233 549q-1 602 241 602z" />
    <glyph glyph-name="one" unicode="1" horiz-adv-x="952" 
d="M668 387q0 -229 18 -387l-4 -6q-57 6 -98 6l-95 -6l-2 6q16 133 17 387v508q0 156 -37 156q-23 0 -107 -14.5t-127 -18.5l-12 59q86 27 237.5 90.5t211.5 81.5q14 0 14 -10q-16 -115 -16 -332v-520zM647 387v520q0 208 14 318q-40 -13 -95 -35.5t-101.5 -42.5
t-107.5 -43.5t-112 -40.5l5 -23q32 4 80 12.5t83 13.5t54 5q14 0 24.5 -6t16.5 -19.5t10 -24.5t5 -32.5t1 -32v-34v-27.5v-508q0 -242 -14 -371q47 4 74 4q31 0 80 -4q-17 150 -17 371z" />
    <glyph glyph-name="two" unicode="2" horiz-adv-x="909" 
d="M414 1133q-98 0 -158 -48q-19 -15 -33.5 -34t-20 -28.5t-19 -41.5t-17.5 -41l-27 2l-45 141q28 37 70.5 71.5t119.5 64.5t163 30q112 0 194 -42t123.5 -116.5t41.5 -171.5q0 -149 -148 -350q-63 -85 -127.5 -159t-100.5 -110t-104 -101q-36 -35 -36 -56q0 -3 0.5 -5
t2.5 -5q56 4 167 4q190 0 375 17q-10 -41 -10 -97q0 -24 6 -67q-244 10 -356 10q-10 0 -388 -10q-21 34 -20 80q1 15 3 26q4 4 71 66.5t103.5 99t100 101.5t115 128t92.5 125q78 117 78 275q0 104 -66 173t-150 69zM414 1153q45 0 87.5 -19.5t75.5 -53.5t53.5 -83.5
t20.5 -105.5q0 -71 -20.5 -148.5t-61.5 -137.5q-35 -52 -81 -109t-84.5 -100t-92.5 -97.5t-83 -82t-80 -75t-59 -56.5q-1 -7 -2 -15q0 -15 3.5 -30.5t9.5 -28.5q345 10 375 9q118 0 332 -9q-3 27 -3 46q0 41 5 74q-57 -5 -95 -7.5t-103 -4.5t-151 -2q-110 0 -166 -4l-14 -1
l-6 12q-5 9 -4 19q0 29 42 70q68 66 103.5 101.5t99 109t126.5 158.5q40 54 71 108t52.5 115.5t21.5 113.5q0 92 -38.5 161.5t-116 109t-184.5 39.5q-114 0 -198 -46t-132 -104l37 -116q2 4 9 21t9.5 22.5t9 19t11.5 20.5t13 18t17 20t20 17q65 52 171 52z" />
    <glyph glyph-name="three" unicode="3" horiz-adv-x="952" 
d="M428 59q35 0 75 12.5t86 41t76.5 91t30.5 148.5q0 129 -80 197q-80 66 -200 65q-61 0 -86 -4v90q43 -6 76 -6q111 0 169 58q78 74 78 200q0 94 -53 155.5t-117 61.5q-90 0 -144 -42t-93 -132l-31 2l-43 131l6 7q131 115 324 114q150 0 239.5 -76.5t89.5 -189.5
q0 -119 -75.5 -206t-165.5 -107v-11q121 -10 201.5 -91t80.5 -199q0 -127 -77.5 -219.5t-176 -131t-194.5 -38.5q-188 0 -305 98l-6 6l45 154l30 2q29 -59 40.5 -81t39 -51.5t64.5 -39t96 -9.5zM428 39q-48 0 -84.5 8.5t-60 21t-44.5 39t-32.5 48t-30.5 62.5h-3l-37 -128
q110 -90 288 -90q92 0 186.5 37t168 125t73.5 207q0 111 -75 185.5t-189 84.5l-19 2v45l16 4q83 19 154.5 101t71.5 192q0 104 -84 175t-225 71q-68 0 -133 -18.5t-104 -40.5t-69 -47l34 -106h3q39 86 98.5 129.5t151.5 43.5q74 0 132.5 -67.5t58.5 -170.5q0 -20 -2 -39
t-6 -36.5t-9.5 -33.5t-12.5 -30.5t-15.5 -28t-18 -25.5t-20.5 -22q-34 -32 -81 -47.5t-103 -15.5q-26 0 -56 3v-44q24 2 66 2q128 0 214 -70q87 -74 87 -213q0 -92 -33 -158.5t-83 -97t-93 -44t-80 -13.5z" />
    <glyph glyph-name="four" unicode="4" horiz-adv-x="952" 
d="M586 1049l-416 -643h416v643zM586 303h-422q-121 0 -121 41q0 33 27 80q80 135 256 405.5t270 399.5l8 8q37 -8 70 -8q16 0 43.5 4t36.5 4q4 0 4 -8q-12 -113 -13 -303v-520h132q31 0 30 -33q0 -18 -19.5 -44t-39.5 -26h-103q0 -125 13 -303q0 -6 -4 -6q-8 0 -38 3t-48 3
l-97 -6l-2 6q17 139 17 303zM606 1118v-733h-474zM606 324v-21q0 -163 -14 -287q51 4 76 4q17 0 68 -5q-11 163 -11 288v21h123q8 0 23.5 19t15.5 30q0 12 -10 12h-152v541q0 40 0.5 82t3.5 101.5t7 105.5q-45 -6 -62 -7q-7 0 -14.5 0.5t-13.5 1t-12.5 1.5t-11.5 2t-11 2
q-93 -128 -269 -398t-255 -403q-14 -25 -19 -41t-5 -29q0 -20 101 -20h442z" />
    <glyph glyph-name="five" unicode="5" horiz-adv-x="952" 
d="M414 -20q-178 0 -310 114l-8 6l45 164l29 2q6 -10 23.5 -43t22.5 -42t21.5 -32.5t24.5 -30.5t26.5 -22.5t36 -19.5t41 -9.5t52.5 -5.5q104 0 168.5 83t64.5 223q0 162 -65.5 245.5t-169.5 83.5q-96 0 -254 -63l-15 5l66 603q139 -12 233 -12q170 0 336 20l15 -6l-33 -139
q-100 -12 -215 -12q-123 0 -260 18l-43 -362q84 31 223 30q166 0 264 -110.5t98 -266.5q0 -182 -117.5 -301.5t-299.5 -119.5zM414 0q174 0 285.5 113.5t111.5 287.5q0 150 -93 253.5t-249 103.5q-135 0 -216 -30l-31 -11l49 416l21 -3q135 -18 257 -18q105 0 198 11l25 104
q-163 -19 -326 -19q-88 0 -215 11l-61 -561q147 59 246 59q115 0 185.5 -91t70.5 -259q0 -147 -70 -236.5t-184 -89.5q-54 0 -93 12t-68 42t-44.5 54t-43.5 76q-8 14 -11 21l-38 -138q124 -108 294 -108z" />
    <glyph glyph-name="six" unicode="6" horiz-adv-x="952" 
d="M819 1194q-227 -23 -360 -152q-162 -158 -195 -415q37 45 109.5 75.5t136.5 30.5q113 0 192.5 -42t115.5 -105.5t51.5 -116.5t15.5 -100q0 -61 -19.5 -124t-60.5 -124.5t-120 -100t-185 -38.5q-68 0 -131.5 21.5t-129 73.5t-105.5 160.5t-40 260.5q0 324 219 542
q102 104 220 152.5t280 58.5zM260 567q-2 -20 -2 -75q0 -129 24.5 -220.5t67.5 -135.5t84 -62.5t88 -18.5q182 0 183 299q0 45 -9.5 90t-32 95.5t-72.5 81t-124 30.5q-125 0 -207 -84zM797 1212l-2 18q-149 -11 -259.5 -58.5t-207.5 -145.5q-213 -213 -213 -528
q0 -121 26.5 -212t65.5 -143.5t93 -86t101.5 -44t98.5 -10.5q100 0 176 37t113.5 95.5t56 116.5t18.5 118q0 33 -7 71.5t-30.5 89t-60.5 89t-103.5 66.5t-152.5 28q-19 0 -40.5 -3.5t-43 -10t-43.5 -15.5t-41 -20t-35 -24t-27 -26l-46 -57l10 72q34 265 200 428
q74 71 159 106.5t194 48.5zM240 569v7l5 6q88 90 222 90q80 0 135 -34t80 -89t34 -101.5t9 -93.5q0 -164 -55.5 -241.5t-147.5 -77.5q-115 0 -199.5 103.5t-84.5 353.5q0 56 2 77z" />
    <glyph glyph-name="seven" unicode="7" horiz-adv-x="952" 
d="M707 1075q-371 12 -578 -18q10 78 10 100q0 10 -10 86q102 -14 573 -14q70 0 132 20l34 -20q-221 -541 -458 -1247l-150 -9l-6 13q129 288 453 1089zM707 1096l30 -1l-11 -27q-318 -787 -445 -1073l114 6q230 685 448 1219l-12 7q-59 -19 -129 -19q-435 0 -549 12
q2 -11 3 -19t2.5 -20.5t1.5 -23.5q0 -26 -7 -76q218 25 554 15z" />
    <glyph glyph-name="eight" unicode="8" horiz-adv-x="952" 
d="M467 49q92 0 166 53.5t74 186.5q0 154 -181 266l-94 59q-193 -127 -192 -315q0 -125 70.5 -187.5t156.5 -62.5zM815 993q0 -47 -22.5 -92t-65.5 -85t-74.5 -64.5t-79.5 -55.5l125 -82q178 -117 179 -282q0 -129 -113 -239.5t-301 -110.5q-170 0 -276.5 82.5t-106.5 234.5
q0 127 135 246q66 57 143 117l-41 22q-180 104 -180 285q0 119 100.5 199.5t256.5 80.5q150 0 235.5 -71.5t85.5 -184.5zM481 1182q-88 0 -139 -50.5t-51 -125.5q0 -129 143 -224l64 -37q61 43 113.5 110t52.5 140q0 80 -44.5 133.5t-138.5 53.5zM467 29q-92 0 -170 67.5
t-78 202.5q0 199 202 332l11 8l105 -67q190 -119 190 -283q0 -76 -25.5 -130.5t-67.5 -81t-83 -37.5t-84 -11zM795 993q0 104 -80 170t-221 66q-147 0 -241.5 -76t-94.5 -184q0 -53 19 -102t57 -91t94 -74l68 -38l-25 -19q-40 -31 -73 -57t-69 -59q-60 -53 -94.5 -114.5
t-34.5 -115.5q0 -141 99.5 -219t263.5 -78q180 0 286.5 104.5t106.5 225.5q0 155 -169 265l-151 99l26 17q44 29 77.5 55t72.5 63.5t61 79t22 82.5zM481 1202q102 0 152.5 -60.5t50.5 -146.5q0 -81 -55 -150.5t-119 -115.5l-11 -8l-76 44q-153 99 -153 241q0 84 57.5 140
t153.5 56z" />
    <glyph glyph-name="nine" unicode="9" horiz-adv-x="952" 
d="M123 35q227 23 360 151q162 158 195 416q-37 -45 -109.5 -75.5t-136.5 -30.5q-113 0 -192.5 42t-115.5 105.5t-51.5 116.5t-15.5 100q0 61 19.5 124t60.5 124t120 100t185 39q68 0 131.5 -21.5t129 -73.5t105.5 -160.5t40 -260.5q0 -324 -219 -543q-102 -104 -220 -152
t-280 -59zM682 662q2 20 2 75q0 129 -24.5 220.5t-67.5 135.5t-84 62.5t-88 18.5q-182 0 -182 -300q0 -45 9 -90t31.5 -95t72.5 -80.5t124 -30.5q125 0 207 84zM145 17l2 -18q149 11 259.5 58t207.5 146q213 213 213 528q0 121 -26.5 212t-65.5 143.5t-93 86t-101 44
t-99 10.5q-100 0 -176 -37t-113.5 -95.5t-56 -116.5t-18.5 -118q0 -33 7 -71.5t30.5 -89t60.5 -89.5t103.5 -66.5t152.5 -27.5q28 0 62 8t65.5 21t59 31.5t43.5 38.5l46 57l-10 -73q-34 -265 -200 -427q-135 -129 -353 -155zM702 659v-7l-5 -5q-88 -90 -222 -90
q-80 0 -135 34t-79.5 89t-34 101t-9.5 93q0 164 55.5 242t147.5 78q115 0 200 -103.5t85 -353.5v-2q-1 -54 -3 -76z" />
    <glyph glyph-name="colon" unicode=":" horiz-adv-x="450" 
d="M125 190v9q27 76 111 110h8q84 -31 110 -110v-9q-29 -90 -110 -110h-8q-49 10 -73 34.5t-38 75.5zM125 729v8q27 76 111 111h8q84 -31 110 -111v-8q-29 -90 -110 -111h-8q-49 10 -73 35t-38 76zM145 194q9 -33 19 -49.5t27 -27t49 -17.5q13 4 23 7.5t19.5 9t16 12.5
t13 16.5t12 21.5t10.5 28q-13 37 -33.5 58t-60.5 36q-27 -11 -44.5 -23.5t-29.5 -29.5t-21 -42zM145 733q13 -47 31 -65.5t64 -28.5q40 11 59.5 30t34.5 64q-9 25 -20.5 42t-29 29.5t-44.5 22.5q-40 -17 -61 -37t-34 -57z" />
    <glyph glyph-name="semicolon" unicode=";" horiz-adv-x="450" 
d="M98 90v8q27 76 111 111h8q131 -47 131 -215q0 -59 -15.5 -104.5t-52 -81t-62 -52t-83.5 -51.5q-27 23 -26 43q160 109 159 193q0 53 -59 53q-51 12 -75 29.5t-36 66.5zM104 729v8q27 76 111 111h8q84 -31 111 -111v-8q-29 -90 -111 -111h-8q-49 10 -73 35t-38 76zM118 94
q12 -43 28.5 -56t64.5 -24q78 -1 78 -73q0 -37 -21 -73t-53.5 -65t-83.5 -64l7 -9q50 29 75 47t56.5 50t45 72.5t13.5 94.5q0 86 -29.5 129.5t-85.5 65.5q-40 -17 -61 -37.5t-34 -57.5zM125 733q13 -47 31 -65.5t63 -28.5q40 11 60 30t35 64q-13 37 -34 58t-61 36
q-40 -17 -60.5 -37t-33.5 -57z" />
    <glyph glyph-name="less" unicode="&#x3c;" horiz-adv-x="997" 
d="M250 489l649 -237v-102l-799 290v99l799 288v-102zM190 490l689 249v59l-758 -274v-69l758 -276v59z" />
    <glyph glyph-name="equal" unicode="=" horiz-adv-x="1079" 
d="M944 395v-100h-809v100h809zM944 651v-100h-809v100h809zM924 375h-768v-60h768v60zM924 631h-768v-60h768v60z" />
    <glyph glyph-name="greater" unicode="&#x3e;" horiz-adv-x="997" 
d="M750 483l-650 238v102l799 -291v-98l-799 -289v103zM809 483l-688 -250v-58l758 274v69l-758 276v-59z" />
    <glyph glyph-name="question" unicode="?" horiz-adv-x="829" 
d="M254 90v8q27 76 111 111h8q84 -31 110 -111v-8q-29 -90 -110 -110h-8q-49 10 -73 34.5t-38 75.5zM399 1268q-141 0 -252 -193l-26 2l-33 137l6 9q152 127 324 127q156 0 247 -84t91 -226q0 -76 -39 -142.5t-76 -99t-102 -79.5q-86 -63 -107 -103q-37 -72 -37 -149v-90
q0 -20 -26.5 -20.5t-26.5 20.5v94q0 59 5 100t38 107.5t94 122.5q66 61 94.5 111.5t28.5 119.5q0 100 -57.5 168t-145.5 68zM274 94q18 -64 55 -82q16 -7 40 -12q16 4 27.5 9t21.5 12t18 17t14.5 23.5t12.5 32.5q-13 37 -33.5 58t-60.5 37q-40 -17 -61 -37.5t-34 -57.5z
M399 1288q96 0 160 -73.5t64 -182.5q0 -74 -31.5 -129t-98.5 -117q-45 -41 -73.5 -84t-40 -87t-14.5 -72.5t-3 -71.5v-94q3 -1 7 0h3h3v90q0 27 3.5 52.5t12.5 52.5t23 54q23 43 113 109q47 34 75 58t63.5 63t52.5 85t17 99q0 133 -85 211t-232 78q-91 0 -172 -37.5
t-136 -82.5l27 -111q49 81 114 135.5t148 54.5z" />
    <glyph glyph-name="at" unicode="@" horiz-adv-x="1832" 
d="M1194 152q0 -25 23 -25q168 0 253.5 97.5t85.5 338.5q0 152 -59 276t-153.5 197.5t-199 113.5t-204.5 40q-121 0 -234.5 -42t-209 -123t-153.5 -219t-58 -312q0 -98 19.5 -196.5t69.5 -200t124.5 -178.5t196.5 -126t274 -49q242 0 411 135l27 -37q-109 -82 -213 -124
t-264 -42q-360 0 -584.5 223.5t-224.5 557.5q0 330 246.5 562t593.5 232q328 0 542.5 -192.5t214.5 -480.5q0 -94 -30.5 -181.5t-95 -166t-184.5 -127t-280 -48.5q-74 0 -73 84q0 33 30 129l-4 2q-63 -106 -138 -158.5t-134 -52.5q-72 0 -125 28t-77.5 70t-36 80.5
t-11.5 75.5q0 211 152.5 369t324.5 158q51 0 97.5 -24.5t60.5 -63.5l10 49l109 26l30 -10l-122 -528q-27 -119 -27 -137zM1165 647q0 57 -37.5 93t-95.5 36q-35 0 -89 -19.5t-95 -62.5q-139 -139 -139 -362q0 -188 159 -189q53 0 121 77t115 190q61 147 61 237zM1174 152
q0 20 27 141l118 511l-7 2l-90 -22l-22 -105l-25 65q-12 31 -52 53t-87 22q-162 0 -309 -151.5t-147 -354.5q0 -35 10 -70.5t32.5 -74.5t71.5 -63.5t115 -24.5q53 0 123.5 49.5t131.5 151.5l9 16l37 -18l-5 -17q-30 -93 -30 -123q0 -63 53 -63q156 0 272 46t178 121.5
t91 159.5t29 175q0 281 -208 467t-529 186q-338 0 -579 -226.5t-241 -547.5q0 -326 218.5 -543t570.5 -217q79 0 144 10.5t119 32t95.5 46t90.5 61.5l-3 3q-169 -127 -407 -126q-156 0 -282 50t-202.5 130t-128 184.5t-72 204.5t-20.5 201q0 143 40 264t105.5 203.5
t153.5 139t183.5 83t193.5 26.5q102 0 211 -41t206 -117.5t158.5 -204.5t61.5 -284q0 -248 -92 -352.5t-268 -104.5q-12 0 -27.5 10.5t-15.5 35.5zM1186 647q0 -95 -63 -245q-50 -119 -120 -199t-135 -80q-180 0 -180 209q0 232 145 377q44 46 101.5 67t97.5 21
q63 0 108.5 -42t45.5 -108z" />
    <glyph glyph-name="A" unicode="A" horiz-adv-x="1288" 
d="M367 468q-59 -145 -103 -265t-67 -209q-25 6 -93 6q-47 0 -71 -6q348 764 604 1354h57q70 -166 198 -483.5t223 -549t140 -321.5q-35 6 -122 6q-68 0 -103 -6q-4 14 -9.5 32.5t-15 50t-22.5 71t-29 87t-37.5 108.5t-45.5 125q-67 2 -127 2.5t-113 0.5q-117 0 -264 -3z
M834 564q-44 115 -95.5 241t-111.5 264h-4l-216 -504q24 0 102 -2t112 -2q87 0 213 3zM348 475l5 13h13q60 1 136.5 2.5t128.5 1.5q95 0 241 -4h13l5 -13q59 -159 97 -273.5t58 -184.5q31 4 87.5 3.5t88.5 -2.5q-49 104 -141.5 330.5t-211.5 521.5t-187 457h-31
q-248 -574 -583 -1307q14 1 37 0q50 0 78 -3q47 166 166 458zM853 572l11 -28h-29q-127 -3 -214 -3q-34 0 -112.5 1.5t-102.5 2.5h-30l233 544h31l5 -12q41 -93 79.5 -185t69 -168.5t59.5 -151.5z" />
    <glyph glyph-name="B" unicode="B" horiz-adv-x="1261" 
d="M301 1321q55 0 141 3t119 3q109 0 193 -20.5t132 -51t77.5 -74.5t40 -85t10.5 -86q0 -82 -54.5 -158t-136.5 -115q311 -90 312 -360q0 -72 -24 -135.5t-77 -122t-157.5 -92t-249.5 -33.5q-98 0 -183.5 3t-142.5 3l-106 -6l-2 6q20 139 20 410v501q0 264 -20 410l4 6
q34 -6 104 -6zM389 672v-492q0 -51 46 -74.5t153 -23.5q203 0 273.5 66.5t70.5 189.5q0 145 -90 239.5t-262 94.5h-191zM389 1145v-385h160q137 0 212 51t75 174q0 141 -77 197.5t-184 56.5q-119 0 -152.5 -19.5t-33.5 -74.5zM301 1300q-48 0 -86 4q10 -78 14 -176t4 -217
v-501q0 -255 -17 -393q38 3 85 3q57 0 142 -3t184 -3q141 0 242.5 32t151.5 88t71.5 114.5t21.5 128.5q0 256 -296 341l-51 14l47 24q76 37 127.5 108t51.5 146q0 297 -432 297q-31 0 -118 -3.5t-142 -3.5zM369 692h211q180 0 276 -100t96 -254q0 -131 -77.5 -204
t-286.5 -73q-219 0 -219 119v512zM369 1145q0 63 43 89t163 26q49 0 94.5 -12.5t89.5 -41t70.5 -85t26.5 -136.5q0 -246 -307 -246h-180v406z" />
    <glyph glyph-name="C" unicode="C" horiz-adv-x="1386" 
d="M778 1348q111 0 222.5 -22.5t167.5 -46.5l57 -24l4 -6q-35 -147 -41 -227l-21 -2q-115 231 -417 231q-68 0 -139.5 -31.5t-139.5 -95t-111 -178.5t-43 -262q0 -156 50.5 -289t160 -222t260.5 -89q141 0 233.5 45t203.5 166l49 -39q-211 -276 -504 -276q-211 0 -365.5 99
t-226.5 247.5t-72 318.5q0 295 203 499t469 204zM778 1327q-258 0 -454.5 -197.5t-196.5 -484.5q0 -123 41 -236.5t119 -205.5t203.5 -147.5t279.5 -55.5q273 0 475 253l-18 14q-106 -113 -202 -158.5t-237 -45.5q-160 0 -274.5 93.5t-165.5 230.5t-51 297q0 152 45 270.5
t114.5 184t145.5 99.5t148 34q294 0 420 -214q2 18 4 34.5t4 27t6 28.5t5.5 26t7.5 32.5t9 34.5q-203 86 -428 86z" />
    <glyph glyph-name="D" unicode="D" horiz-adv-x="1454" 
d="M301 1321q66 0 169 3t169 3q295 0 502 -204.5t207 -491.5q0 -145 -43 -259t-110 -182.5t-158 -113.5t-179 -62.5t-182 -17.5q-115 0 -213 2t-162 2l-106 -6l-2 6q20 139 20 410v501q0 264 -20 410l4 6q34 -6 104 -6zM389 168q0 -51 39 -66.5t184 -15.5q119 0 206 20.5
t163 71.5t116 152.5t40 251.5q0 127 -29 236.5t-92.5 207.5t-179 154.5t-275.5 56.5q-86 0 -129 -16.5t-43 -65.5v-987zM301 1300q-48 0 -86 4q10 -78 14 -176t4 -217v-501q0 -255 -17 -393q38 3 85 3q66 0 164 -2t211 -2q92 0 177 16.5t174 59.5t153.5 110.5t105.5 177
t41 251.5q0 279 -201.5 477.5t-486.5 198.5q-66 0 -169 -3.5t-169 -3.5zM369 168v987q0 63 51 82.5t141 19.5q164 0 285 -59t186.5 -159.5t95 -214t29.5 -242.5q0 -154 -42 -259.5t-122 -159.5t-170 -75.5t-211 -21.5q-147 0 -195 19.5t-48 82.5z" />
    <glyph glyph-name="E" unicode="E" horiz-adv-x="1101" 
d="M389 410q0 -240 17 -295q123 0 267 6t227 12l83 6l4 -8q-4 -33 -4 -68q0 -6 4 -63l-4 -6q-49 6 -123 6h-559l-106 -6l-2 6q20 139 20 410v501q0 264 -20 410l4 6q35 -6 104 -6h539q74 0 123 6l4 -6q-4 -57 -4 -77.5t4 -53.5l-4 -8q-283 25 -557 24q-16 -55 -17 -295v-159
q215 0 457 20l6 -6q-6 -29 -6 -65.5t6 -65.5l-6 -6q-203 20 -457 20v-239zM369 410v260h20q38 0 89.5 -1.5t111.5 -3.5t124 -5.5t115 -8.5q-1 7 -2 16t-1.5 18t-0.5 15q0 24 4 50q-220 -19 -440 -19h-20v180q0 242 17 301l4 15h16q250 0 538 -23q-2 23 -2 39q0 10 1 25t2 37
q-48 -4 -105 -5h-539q-48 0 -86 4q10 -78 14 -176t4 -217v-501q0 -255 -17 -393q38 3 85 3h559q57 0 105 -4q-3 33 -2 47q0 12 0.5 26t1.5 28q-309 -23 -559 -23h-16l-4 15q-7 25 -11.5 98t-5 118.5t-0.5 84.5z" />
    <glyph glyph-name="F" unicode="F" horiz-adv-x="1032" 
d="M834 1321q80 0 129 6l4 -6q-4 -57 -4 -70q0 -29 4 -61l-4 -8q-283 25 -557 24q-16 -55 -17 -295v-159q215 0 457 20l6 -6q-6 -29 -6 -65.5t6 -65.5l-6 -6q-203 20 -457 20v-239q0 -264 21 -410l-4 -6q-35 6 -105 6l-106 -6l-2 6q20 139 20 410v501q0 264 -20 410l4 6
q35 -6 104 -6h533zM834 1300h-533q-48 0 -86 4q10 -78 14 -176t4 -217v-501q0 -255 -17 -393q38 3 85 3q48 0 86 -3q-18 143 -18 393v260h20q38 0 89.5 -1.5t111.5 -3.5t124 -5.5t115 -8.5q-1 7 -2 16t-1.5 18t-0.5 15q0 24 4 50q-220 -19 -440 -19h-20v180q0 242 17 301
l4 15h16q66 0 138.5 -2t130 -4.5t117 -6t92 -6t61.5 -4.5q-3 28 -3 47q0 14 3 54q-22 -2 -51.5 -3.5t-59.5 -1.5z" />
    <glyph glyph-name="G" unicode="G" horiz-adv-x="1468" 
d="M1118 240q-6 283 -20 389l4 6q35 -6 104 -6l107 6l2 -6q-20 -135 -21 -348v-13q0 -74 21 -98v-6q-219 -184 -545 -184q-299 0 -481.5 196.5t-182.5 472.5q0 164 61.5 299t164 220t229.5 132.5t260 47.5q111 0 227.5 -22.5t178.5 -46.5l61 -24l4 -6q-33 -139 -41 -248
l-20 -2q-70 117 -185.5 184.5t-252.5 67.5q-211 0 -343.5 -157.5t-132.5 -423.5q0 -106 28 -208t84 -191t156.5 -143t231.5 -54q219 0 301 78v88zM1139 240v-97l-7 -6q-89 -83 -315 -84q-111 0 -201 38t-148 99.5t-97 143.5t-56.5 166t-17.5 170q0 272 138 437t358 165
q135 0 250.5 -63t189.5 -175q8 88 36 207q-221 86 -448 86q-176 0 -331.5 -75.5t-259 -234.5t-103.5 -368q0 -268 177 -458.5t466 -190.5q309 0 521 170q-17 36 -17 98v13v58.5t0.5 52t1.5 48t2.5 44.5t3.5 42.5t4.5 42t5.5 43.5q-16 -1 -37.5 -2.5t-48.5 -1.5q-48 0 -85 4
q13 -102 17 -340q1 -21 1 -32z" />
    <glyph glyph-name="H" unicode="H" horiz-adv-x="1486" 
d="M1098 911q0 264 -21 410l4 6q37 -6 105 -6q70 0 106 6l2 -6q-20 -135 -20 -410v-501q0 -264 20 -410l-4 -6q-37 6 -104 6q-70 0 -107 -6l-2 6q20 139 21 410v247h-709v-247q0 -264 21 -410l-4 -6q-37 6 -105 6q-70 0 -106 -6l-2 6q20 139 20 410v501q0 264 -20 410l4 6
q37 -6 104 -6q70 0 107 6l2 -6q-20 -135 -21 -410v-163h709v163zM1118 911v-184h-749v184q0 122 3.5 219.5t14.5 173.5q-43 -4 -86 -4q-11 0 -24.5 0.5t-30 1.5t-31.5 2q10 -78 14 -176t4 -217v-501q0 -255 -17 -393q43 4 85 3q43 0 86 -3q-18 143 -18 393v268h749v-268
q0 -255 -18 -393q43 4 86 3q17 0 40.5 -0.5t44.5 -2.5q-18 143 -18 393v501q0 122 4 219.5t14 173.5q-43 -4 -85 -4q-17 0 -41 1t-45 3q18 -143 18 -393z" />
    <glyph glyph-name="I" unicode="I" horiz-adv-x="602" 
d="M213 911q0 264 -20 410l4 6q37 -6 104.5 -6t104.5 6l4 -6q-20 -135 -21 -410v-501q0 -264 21 -410l-4 -6q-37 6 -105 6t-104 -6l-4 6q20 139 20 410v501zM233 911v-501q0 -255 -17 -393q43 4 85.5 3.5t85.5 -3.5q-18 143 -18 393v501q0 79 1 143t5.5 131t11.5 119
q-43 -4 -86 -4q-11 0 -24.5 0.5t-30 1.5t-31.5 2q10 -78 14 -176t4 -217z" />
    <glyph glyph-name="J" unicode="J" horiz-adv-x="655" 
d="M287 195v716q0 264 -21 410l4 6q37 -6 105 -6q70 0 106 6l2 -6q-20 -135 -20 -410v-671q0 -174 -23.5 -252t-105.5 -185q-121 -156 -324 -155q-63 0 -92 18l-2 6q25 43 57 168l23 2q39 -72 119 -71q57 0 94 37.5t52 109.5t20.5 131.5t5.5 145.5zM307 195q0 -70 -2 -115
t-12 -113.5t-28.5 -110.5t-57.5 -74t-92 -32q-81 0 -127 66q-25 -94 -46 -138q29 -10 68 -10q193 0 308 148q43 56 65 92t36.5 84.5t18.5 102t4 145.5v671q0 122 4 219.5t14 173.5q-43 -4 -85 -4q-11 0 -24.5 0.5t-30 1.5t-31.5 2q18 -143 18 -393v-716z" />
    <glyph glyph-name="K" unicode="K" horiz-adv-x="1288" 
d="M213 911q0 264 -20 410l4 6q37 -6 104.5 -6t104.5 6l4 -6q-20 -135 -21 -410v-206q27 3 45 18q240 209 584 604q27 -6 100 -6q72 0 105 6q-422 -371 -623 -602v-4l643 -727q-39 6 -127 6q-92 0 -127 -6q-449 553 -561 665q-5 4 -12.5 7t-14 4.5t-12.5 2.5v-263
q0 -264 21 -410l-4 -6q-37 6 -105 6t-104 -6l-4 6q20 139 20 410v501zM369 911q0 79 1 143t5.5 131t11.5 119q-43 -4 -86 -4q-11 0 -24.5 0.5t-30 1.5t-31.5 2q10 -78 14 -176t4 -217v-501q0 -255 -17 -393q43 4 85.5 3.5t85.5 -3.5q-18 143 -18 393v501zM413 689
q18 -6 28 -14h1q113 -113 556 -659q24 3 54 3.5t64 0.5h8h8.5h7.5h8.5h7.5h9h9t9.5 -0.5t9.5 -0.5l-613 694v20l5 5q179 208 577 563h-8.5h-9t-9.5 -0.5t-9 -0.5h-8q-62 0 -92 5q-341 -390 -578 -597q-14 -12 -35 -19z" />
    <glyph glyph-name="L" unicode="L" horiz-adv-x="1054" 
d="M391 911v-501q0 -229 17 -285q123 0 267 11t227 23l83 11l4 -8q-4 -33 -4 -72q0 -33 4 -90l-4 -6q-49 6 -123 6h-559l-106 -6l-2 6q20 139 20 410v501q0 264 -20 410l4 6q37 -6 104 -6q70 0 107 6l2 -6q-21 -136 -21 -410zM371 911q0 122 4 219.5t14 173.5q-43 -4 -86 -4
q-11 0 -24.5 0.5t-30 1.5t-31.5 2q10 -78 14.5 -176t4.5 -217v-501q0 -255 -18 -393q14 1 36.5 2t48.5 1h559q27 0 55 -1t51 -3q-3 49 -3 74q0 24 2 57q-308 -42 -559 -43h-16l-4 15q-7 25 -11.5 95t-5 114t-0.5 82v501z" />
    <glyph glyph-name="M" unicode="M" horiz-adv-x="1814" 
d="M395 1356h56q55 -113 119 -261t112 -261.5t114 -256.5t131 -262l529 1041h45q94 -815 172 -1362q-31 6 -108 6q-70 0 -101 -6q-54 651 -93 974l-7 1q-268 -496 -475 -969h-39q-34 72 -71.5 158t-68.5 161.5t-68 163t-70 164.5t-73 164t-79 164h-9q-21 -132 -51.5 -331.5
t-58 -381t-41.5 -268.5q-23 6 -61 6q-45 0 -68 -6q166 799 264 1362zM412 1335q-95 -546 -255 -1316q9 1 19 1h23q29 0 44 -2q14 90 67.5 442.5t80.5 518.5l3 17h39l6 -11q71 -140 144.5 -311.5t148 -351.5t131.5 -302h12q206 468 471 958l6 12l37 -2l2 -17
q18 -149 35.5 -323.5t28 -295.5t28.5 -335q17 2 37.5 2.5t44.5 0.5q55 0 84 -2q-76 532 -166 1317h-14l-542 -1065l-19 36q-81 151 -160 328t-162.5 372t-147.5 329h-26z" />
    <glyph glyph-name="N" unicode="N" horiz-adv-x="1470" 
d="M221 1321l4 6q16 -6 86 -6l29 4l702 -909q82 -106 97 -113t20 19q3 15 4 43v546q0 264 -20 410l4 6q37 -6 71.5 -6t71.5 6l4 -6q-12 -160 -19 -335t-9 -290.5t-6.5 -328.5t-6.5 -324q-4 -63 -39 -63q-51 0 -88 49l-714 903q-31 41 -45.5 56.5t-23.5 10t-10 -26t-1 -73.5
v-489q0 -264 20 -410l-4 -6q-37 6 -71.5 6t-71.5 -6l-4 6q25 238 29.5 637t-9.5 684zM242 1303q33 -733 -19 -1286q27 3 53 3t53 -3q-7 55 -11 121t-5.5 130t-1.5 142v489q0 8 -0.5 23t-0.5 24.5t0.5 22t3 20.5t6 16t10.5 11.5t16 3.5t16.5 -3t16.5 -12.5t14 -15t17.5 -22
t17.5 -23.5l715 -903q30 -41 71 -41q16 0 19 44q2 112 5.5 319.5t6 323t9.5 287.5t19 330q-27 -3 -54 -4q-7 0 -13.5 0.5l-13 1l-13 1t-13.5 1.5q18 -144 18 -393v-547q-1 -21 -1.5 -29t-4 -25t-12 -23.5t-22.5 -5.5q-9 1 -18.5 6t-17.5 12t-18.5 20t-18.5 24t-21.5 29
t-23.5 31l-695 900q-13 -2 -20 -3q-23 0 -39 1t-30 2z" />
    <glyph glyph-name="O" unicode="O" horiz-adv-x="1517" 
d="M1411 674q0 -307 -181 -500.5t-474 -193.5q-272 0 -461 180t-189 475q0 301 186.5 507t461.5 206q281 0 469 -187.5t188 -486.5zM727 1257q-168 0 -289 -144t-121 -443q0 -281 141.5 -440.5t338.5 -159.5q180 0 291.5 148.5t111.5 416.5q0 311 -125 466.5t-348 155.5z
M1391 674q0 291 -182.5 472t-454.5 181q-266 0 -446.5 -199.5t-180.5 -492.5q0 -287 182.5 -461t446.5 -174q285 0 460 186.5t175 487.5zM727 1278q231 0 362.5 -163t131.5 -480q0 -274 -117 -430t-307 -156q-207 0 -353.5 166t-146.5 455q0 305 127 456.5t303 151.5z" />
    <glyph glyph-name="P" unicode="P" horiz-adv-x="1144" 
d="M213 911q0 264 -20 410l4 6q37 -6 104 -6q31 0 145.5 7t141.5 7q135 0 233.5 -33.5t147.5 -90t71.5 -115t22.5 -121.5q0 -70 -27.5 -138.5t-83 -131t-157 -101.5t-234.5 -39q-109 0 -172 21v-176q0 -264 21 -410l-4 -6q-37 6 -105 6t-104 -6l-4 6q20 139 20 410v501z
M389 1157v-483q39 -20 162 -21q158 0 235.5 71t77.5 241q0 88 -24.5 146t-69.5 87t-91 39t-106 10q-106 0 -145 -21.5t-39 -68.5zM233 911v-501q0 -255 -17 -393q43 4 85.5 3.5t85.5 -3.5q-18 143 -18 393v204l26 -9q61 -20 166 -19q129 0 227.5 36.5t150.5 97t77.5 125
t25.5 130.5q0 59 -20.5 113.5t-67.5 108.5t-141 86t-225 32q-25 0 -139.5 -7.5t-147.5 -7.5q-11 0 -24.5 0.5t-30 1.5t-31.5 2q10 -78 14 -176t4 -217zM369 1157q0 57 48 84t156 27q311 0 312 -303q0 -178 -85 -255t-249 -77q-129 0 -172 23l-10 6v495z" />
    <glyph glyph-name="Q" unicode="Q" horiz-adv-x="1517" 
d="M1148 101q9 -5 119.5 -71t200.5 -109.5t191 -78.5v-12q-135 -72 -193 -117q-92 52 -239 161q-100 73 -236 144q-36 -13 -74 -21.5t-78.5 -12.5t-82.5 -4q-272 0 -461 180t-189 475q0 301 186.5 507t461.5 206q281 0 469 -187.5t188 -486.5q0 -185 -69 -333.5t-194 -239.5
zM727 1257q-168 0 -289 -144t-121 -443q0 -281 141.5 -440.5t338.5 -159.5q180 0 291.5 148.5t111.5 416.5q0 311 -125 466.5t-348 155.5zM1138 83l-28 15l27 20q120 88 187 231.5t67 324.5q0 291 -182.5 472t-454.5 181q-266 0 -446.5 -199.5t-180.5 -492.5
q0 -287 182.5 -461t446.5 -174q122 0 228 37l8 3l8 -4q144 -76 259.5 -161.5t205.5 -136.5q55 40 157 96q-94 34 -181 77.5t-188.5 104t-114.5 67.5zM727 1278q231 0 362.5 -163t131.5 -480q0 -274 -117 -430t-307 -156q-207 0 -353.5 166t-146.5 455q0 305 127 456.5
t303 151.5z" />
    <glyph glyph-name="R" unicode="R" horiz-adv-x="1228" 
d="M580 1247q-135 0 -163 -14t-28 -76v-489h119q168 0 266 68.5t98 242.5q0 78 -27.5 134t-73.5 84t-92 39t-99 11zM389 586v-176q0 -264 21 -410l-4 -6q-37 6 -105 6t-104 -6l-4 6q20 139 20 410v501q0 264 -20 410l4 6q37 -6 104 -6q33 0 142.5 7t134.5 7q279 0 383 -98
q109 -102 108 -256q0 -227 -205 -330q-45 -23 -124 -39q48 -64 214 -305.5t224 -306.5l-4 -6q-41 6 -123 6q-84 0 -123 -6q-37 111 -195 366q-10 16 -36.5 60t-39.5 64.5t-35.5 52t-42.5 55.5q-86 -6 -190 -6zM580 1268q55 0 104 -12.5t99.5 -42t80 -90t29.5 -144.5
q0 -332 -385 -332h-139v510q0 70 38 90.5t173 20.5zM369 606h20q35 0 68.5 1t63 2t57.5 4h10l7 -8q21 -24 43.5 -56t35.5 -53t40 -65t37 -60q142 -229 190 -355q37 4 110 4q55 0 84 -1q-47 58 -123 168t-158 230t-130 183l-20 26l32 6q39 8 68.5 17.5t50.5 20.5
q194 97 194 311q0 145 -103 241q-61 57 -152.5 75t-215.5 18q-23 0 -133.5 -7.5t-143.5 -7.5q-11 0 -24.5 0.5t-30 1.5t-31.5 2q10 -78 14 -176t4 -217v-501q0 -255 -17 -393q43 4 85.5 3.5t85.5 -3.5q-18 143 -18 393v196z" />
    <glyph glyph-name="S" unicode="S" horiz-adv-x="1036" 
d="M496 70q96 0 167.5 64.5t71.5 174.5q0 119 -61.5 183.5t-177.5 113.5q-76 31 -129.5 61.5t-108.5 77t-85 108.5t-30 140q0 106 64.5 192.5t161.5 127.5q84 35 176 35q106 0 187 -22.5t110 -46.5l28 -24l4 -6q-39 -129 -47 -205l-20 -2q-41 96 -118 155.5t-161 59.5
q-78 0 -125 -24q-39 -20 -66.5 -74.5t-27.5 -109.5q0 -59 22.5 -106.5t65.5 -78t77 -48t85 -36.5q367 -137 367 -409q0 -176 -127 -283.5t-320 -107.5q-106 0 -199.5 22.5t-133.5 45.5l-40 24l-4 6q41 152 48 211l20 2q47 -90 143.5 -155.5t182.5 -65.5zM496 49
q-87 0 -181 60t-149 148q-9 -54 -41 -173q140 -84 354 -84q184 0 305 102.5t121 268.5q0 80 -30.5 145.5t-85.5 111.5t-110.5 76.5t-126.5 56.5q-41 15 -68 27t-68 37.5t-65.5 53.5t-43 72.5t-18.5 97.5q0 61 29.5 119t75.5 83q51 27 134 27q142 0 246 -138q21 -28 38 -60
q11 65 40 165q-16 14 -41.5 29t-100 34t-165.5 19q-88 0 -169 -33q-59 -25 -106 -68t-76.5 -104t-29.5 -129q0 -72 27.5 -130.5t80 -102.5t105.5 -74t127 -61q120 -50 186 -119.5t66 -196.5q0 -119 -78 -189.5t-182 -70.5z" />
    <glyph glyph-name="T" unicode="T" horiz-adv-x="1105" 
d="M465 911q0 240 -16 295q-123 0 -226.5 -7t-145.5 -14l-42 -7l-4 8q6 47 0 135l4 6q49 -6 123 -6h790q74 0 123 6l4 -6q-6 -88 0 -135l-4 -8q-139 29 -414 28q-16 -55 -16 -295v-501q0 -264 21 -410l-5 -6q-37 6 -104.5 6t-103.5 -6l-5 6q20 139 21 410v501zM485 911v-501
q0 -255 -18 -393q43 4 86 3.5t86 -3.5q-18 143 -18 393v501q0 242 17 301l4 15h15q238 0 396 -25q-3 42 1 103q-47 -4 -106 -5h-790q-59 0 -106 5q4 -61 1 -103q158 25 396 25h15l4 -15q6 -20 10 -63.5t5 -96.5t1.5 -84.5t0.5 -56.5z" />
    <glyph glyph-name="U" unicode="U" horiz-adv-x="1417" 
d="M1114 911q0 264 -20 410l4 6q37 -6 71.5 -6t71.5 6l4 -6q-20 -135 -20 -410v-307q0 -299 -120 -461.5t-415 -162.5q-80 0 -154.5 21.5t-151.5 72.5t-124 156.5t-47 252.5v428q0 264 -20 410l4 6q37 -6 104.5 -6t104.5 6l4 -6q-20 -135 -21 -410v-360q0 -457 344 -457
q100 0 172 29t112 71t62.5 109.5t28.5 125.5t6 138v344zM1135 911v-344q0 -80 -6.5 -140t-31 -131t-66.5 -116t-117.5 -75.5t-180.5 -30.5q-365 0 -364 477v360q0 79 1 143t5.5 131t11.5 119q-43 -4 -86 -4q-11 0 -24.5 0.5t-30 1.5t-31.5 2q10 -78 14 -176t4 -217v-428
q0 -143 45.5 -244.5t119 -149.5t144 -68.5t148.5 -20.5q287 0 400.5 154.5t113.5 449.5v307q0 256 18 393q-27 -3 -53 -4q-7 0 -13 0.5t-12.5 1l-13 1t-13.5 1.5q18 -145 18 -393z" />
    <glyph glyph-name="V" unicode="V" horiz-adv-x="1292" 
d="M664 271q12 27 50 115.5t54.5 126.5t52.5 122t55 131.5t49.5 122t49.5 125.5t41 111t38 109.5t27 92.5q35 -6 93 -6q45 0 81 6q-397 -872 -604 -1347h-57q-68 162 -197 480t-224 546.5t-140 320.5q57 -6 123 -6q55 0 112 6q128 -446 391 -1056h5zM682 263l-5 -13h-31
l-5 13q-262 608 -388 1042q-53 -5 -97 -5q-39 0 -89 4q49 -104 141 -328t212.5 -520.5t187.5 -455.5h30q203 470 584 1303q-6 0 -13 -1t-13.5 -1t-12 -0.5t-9.5 -0.5q-10 0 -22.5 0.5t-27 1.5t-28.5 2q-68 -242 -375 -951q-9 -20 -13.5 -31.5t-12 -28t-13.5 -30.5z" />
    <glyph glyph-name="W" unicode="W" horiz-adv-x="1947" 
d="M1319 270q6 14 50 114.5t55.5 128.5t51.5 121t56 133t49 120t50.5 127t41 109.5t37.5 111.5t27 92q25 -6 102 -6q47 0 72 6q-397 -872 -604 -1347h-58q-120 337 -269 740l-329 -740h-57q-68 162 -197 480t-224 546.5t-140 320.5q35 -6 123 -6q68 0 102 6
q121 -426 404 -1075h4q204 474 260 612q-39 104 -71.5 190.5t-60 158t-44.5 114.5q35 -6 122 -6q78 0 113 6q55 -250 330 -1057h4zM1338 262l-6 -12h-32l-5 14q-263 775 -326 1040q-33 -4 -97 -4q-58 0 -91 3q18 -46 44.5 -114t56 -146.5t63.5 -170.5l3 -8l-3 -7
q-56 -139 -261 -613l-5 -13h-31l-5 13q-275 634 -400 1060q-31 -4 -87 -4h-5q-52 0 -84 3q49 -105 141.5 -328.5t212.5 -519.5t187 -455h30l344 774l17 -47q146 -394 265 -727h29q203 470 583 1301q-14 -1 -37 -1q-16 0 -25 0.5t-28.5 1t-33.5 2.5q-11 -39 -26.5 -87
t-31 -91.5t-38.5 -104t-40 -103t-46 -113t-45 -109t-49 -115t-46.5 -107.5t-47.5 -110.5t-44 -101.5z" />
    <glyph glyph-name="X" unicode="X" horiz-adv-x="1189" 
d="M1155 -6q-37 6 -119 6t-118 -6q-31 59 -63.5 115.5t-72.5 119.5t-67 104t-78.5 118t-74.5 112q-197 -301 -343 -569q-23 6 -86 6t-86 -6l453 663l-443 670q35 -6 115 -6t117 6q21 -43 61.5 -111t70.5 -114.5t102 -155.5t95 -146q137 198 195 289t137 238q23 -6 86.5 -6
t85.5 6q-27 -38 -105.5 -145t-166.5 -230t-171 -245q326 -501 476 -713zM1112 19q-23 32 -46 66t-43 62.5t-45 66.5t-41.5 62.5t-44.5 67t-42.5 64.5t-46 70.5t-44.5 68t-48.5 74.5t-48.5 75l-8 12l8 11q59 87 125 180t110 153.5t102 139.5t79 109q-16 -1 -42 -1
q-50 0 -75 4q-40 -74 -70.5 -126.5t-70.5 -115t-76.5 -116.5t-108.5 -157l-17 -25l-17 25q-26 40 -92.5 141.5t-97.5 149t-71 114t-63 111.5q-23 -3 -48.5 -4t-56.5 -1q-11 0 -17.5 0.5t-17 0.5h-20t-19.5 1l426 -645l-434 -637q18 1 43 0q51 0 75 -3q144 264 337 557l17 26
l17 -26q23 -35 73 -109.5t77 -115t66 -102t71 -117.5t63 -114q37 4 107 4q49 1 76 -1z" />
    <glyph glyph-name="Y" unicode="Y" horiz-adv-x="1191" 
d="M682 584q4 -475 14 -590q-37 6 -102.5 6t-101.5 -6q14 158 14 569q-61 104 -237.5 390t-235.5 374q51 -6 117 -6q63 0 116 6q49 -96 359 -631q229 360 358 631q37 -6 86 -6q45 0 86 6q-63 -98 -161.5 -246.5t-140.5 -213t-91 -144.5t-80 -139zM662 583l-1 6l3 4
q29 57 77.5 136.5t85.5 137t135 205.5t152 230q-11 -1 -23 -1.5t-22 -0.5q-38 0 -74 5q-70 -146 -162 -304.5t-191 -315.5l-18 -28l-17 29q-30 52 -113.5 194t-136.5 236t-103 189q-16 -1 -34.5 -2t-36.5 -2t-33 -1q-37 0 -77 3q76 -118 235.5 -376.5t215.5 -352.5l2 -5v-6
q0 -73 -0.5 -147.5t-2 -148t-4 -139.5t-5.5 -111q13 1 28.5 2t28.5 1h23h16.5t20 -0.5t22 -1t21.5 -1.5q-5 76 -7.5 232.5t-4.5 333.5z" />
    <glyph glyph-name="Z" unicode="Z" horiz-adv-x="1273" 
d="M383 111q119 0 313.5 10t329.5 21l135 12l4 -7q-4 -33 -4 -67q0 -23 4 -80l-4 -6q-49 6 -145 6h-744l-178 -6l-6 8q12 16 30.5 44t22.5 32l756 1108q16 25 -6 24q-113 0 -225.5 -7t-257 -18t-244.5 -18l-4 7q4 33 4 67q0 23 -4 80l4 6q49 -6 125 -6h622q166 0 258 12
q12 0 13 -12q0 -25 -62 -111l-727 -1063q-10 -13 -10 -36zM383 90h-21v21q0 28 14 48l727 1063q49 68 56 90q-123 -11 -248 -12h-622q-29 0 -55.5 1t-52.5 4q3 -43 3 -64q0 -22 -2 -52q82 5 188 13.5t177 14t164.5 10t179.5 4.5q22 0 29 -19.5t-6 -37.5l-756 -1108
q-4 -5 -9 -12.5l-12 -18l-13 -19.5q100 5 148 4h744q45 0 74 -0.5t54 -3.5q-3 43 -3 64q0 22 2 52q-509 -42 -760 -42z" />
    <glyph glyph-name="bracketleft" unicode="[" horiz-adv-x="739" 
d="M225 -393v1833h441v-62q-111 -8 -166.5 -18t-88 -38t-39.5 -63.5t-7 -109.5v-1251q0 -74 6 -109t38.5 -63.5t89 -40t167.5 -19.5v-59h-441zM246 -373h399v20q-103 9 -160 22.5t-90 44t-42 70.5t-9 114v1251q0 74 9 113.5t41.5 70t90 43.5t160.5 21v22h-399v-1792z" />
    <glyph glyph-name="backslash" unicode="\" horiz-adv-x="598" 
d="M123 1430l471 -1528h-100l-471 1528h100zM108 1409h-58l459 -1487h57z" />
    <glyph glyph-name="bracketright" unicode="]" horiz-adv-x="739" 
d="M514 1440v-1833h-440v61q111 8 166 18.5t87.5 38t40 63.5t7.5 110v1251q0 74 -6.5 108.5t-39 63.5t-89 40t-166.5 19v60h440zM494 1419h-400v-20q103 -9 160.5 -22t90 -43.5t41.5 -70.5t9 -114v-1251q0 -74 -8.5 -114t-41.5 -70t-90 -43.5t-161 -21.5v-22h400v1792z" />
    <glyph glyph-name="asciicircum" unicode="^" horiz-adv-x="1060" 
d="M530 1214l-208 -505h-93l260 622h86l259 -622h-93zM530 1268l225 -539h48l-241 582h-59l-243 -582h48z" />
    <glyph glyph-name="underscore" unicode="_" horiz-adv-x="995" 
d="M987 -225v-90h-977v90h977zM967 -246h-936v-49h936v49z" />
    <glyph glyph-name="grave" unicode="`" horiz-adv-x="802" 
d="M365 1432l143 -258q12 -25 12 -50q0 -8 -9 -15t-22 -7q-16 0 -59 41l-233 223l4 23q63 47 133 47q15 0 31 -4zM351 1413q-4 1 -9 1.5t-8 0.5q-61 0 -115 -38v-4l225 -215q15 -14 26.5 -23t13.5 -10l5 -3q6 0 11 5q0 19 -10 37z" />
    <glyph glyph-name="a" unicode="a" horiz-adv-x="985" 
d="M635 98h-8q-82 -70 -138.5 -94t-140.5 -24q-119 0 -187.5 55t-68.5 166q0 104 91 183t249 114l191 43q14 4 14 24q0 66 -14.5 114t-33 71.5t-49 37t-51 16.5t-49.5 3q-117 0 -225 -174l-27 2l-34 137l6 8q141 119 301 119q338 0 338 -332q0 -7 -1 -49.5t-2 -91t-2 -98.5
t-1 -70q0 -129 34 -160q17 -15 60 -15q25 0 55 11l16 -51q-60 -63 -163 -63q-58 0 -100.5 30t-59.5 88zM635 461l-174 -47q-113 -31 -158 -81t-45 -124q0 -49 42 -87t110 -38q82 0 188 80q29 20 29 53zM650 119l5 -15q30 -104 140 -104q39 0 74.5 11t65.5 38l-6 19
q-11 -3 -21.5 -4.5t-20.5 -1.5q-51 0 -74 21q-41 37 -40 175q0 35 2.5 169t2.5 140q0 311 -317 312q-67 0 -128 -21t-91 -41t-66 -50l29 -112q50 78 106 125t129 47q39 0 69 -7t67.5 -30.5t59 -81t21.5 -143.5q0 -7 -1.5 -13t-4 -10.5t-6 -9t-7.5 -7t-9 -4.5h-1l-191 -43
q-76 -17 -137.5 -45.5t-102.5 -64t-62.5 -78.5t-21.5 -89q0 -201 235 -201q80 0 132 22.5t133 91.5l6 5h31zM656 488l-9 -271q0 -42 -37 -70q-113 -84 -200 -84q-74 0 -123 43.5t-49 102.5q0 81 49.5 137t167.5 87z" />
    <glyph glyph-name="b" unicode="b" horiz-adv-x="1032" 
d="M332 1024v-227q94 102 256 102q154 0 265.5 -121t111.5 -303q0 -242 -132.5 -368.5t-308.5 -126.5q-125 0 -241 100q-33 -61 -68 -100q-41 0 -57 16q10 53 10 154v837q0 258 -25 395l4 7q92 6 179 41q18 0 18 -21q-12 -160 -12 -385zM332 166q33 -41 84 -73t96 -32
q141 0 205.5 100.5t64.5 297.5q0 180 -66.5 269t-168.5 89q-59 0 -104.5 -27.5t-110.5 -93.5v-530zM311 1024q0 118 3 205.5t9 177.5q-75 -29 -157 -37q22 -141 22 -383v-837q0 -96 -8 -145q10 -4 26 -5q30 35 58 89l12 23l20 -17q46 -40 108.5 -67.5t119.5 -27.5
q168 0 294 121t126 354q0 174 -106.5 289t-249.5 115q-153 0 -241 -96l-36 -39v280zM316 153l-5 6v546l6 6q66 68 115.5 97.5t114.5 29.5q113 0 184.5 -96.5t71.5 -282.5q0 -418 -291 -418q-52 0 -106 33.5t-90 78.5z" />
    <glyph glyph-name="c" unicode="c" horiz-adv-x="878" 
d="M512 817q-106 0 -180 -98t-74 -262q0 -174 75 -274.5t191 -100.5q123 0 219 86h9l39 -43q-115 -145 -302 -145q-188 0 -299.5 126.5t-111.5 339.5q0 199 133 326t303 127q162 0 272 -57l5 -6l-48 -168l-26 -2q-88 151 -205 151zM512 838q123 0 216 -151l39 141
q-47 22 -116 36.5t-137 14.5q-162 0 -289 -121t-127 -312q0 -207 106.5 -326.5t284.5 -119.5q169 0 275 124l-18 19q-97 -82 -222 -82q-127 0 -206.5 107.5t-79.5 288.5q0 170 78.5 275.5t195.5 105.5z" />
    <glyph glyph-name="d" unicode="d" horiz-adv-x="1085" 
d="M739 119q-109 -139 -264 -139q-164 0 -267.5 132t-103.5 324q0 207 130.5 335t332.5 128q92 0 172 -45v133q0 293 -18 395l4 7q92 6 178 41q18 0 19 -21q-18 -227 -19 -385v-631q0 -207 35 -393l-4 -6q-41 6 -91 6q-24 0 -71 -6q-18 0 -18 6l-11 119h-4zM739 231v467
q-39 61 -82 90t-112 29q-43 0 -84 -15.5t-84 -51t-68.5 -112.5t-25.5 -185q0 -182 57 -274.5t147 -92.5q137 0 252 145zM723 131l6 8h33l11 -124q45 6 70 5q16 0 35 -0.5t36 -2.5q-31 185 -31 376v631q0 103 4 184.5t14 198.5q-75 -29 -157 -37q9 -63 12.5 -158.5
t3.5 -224.5v-168l-31 17q-30 17 -81 30t-81 13q-195 0 -318.5 -122t-123.5 -321q0 -186 98.5 -311t251.5 -125q146 0 248 131zM760 224l-5 -5q-38 -49 -83 -83.5t-92 -52t-93 -17.5q-100 0 -162.5 100t-62.5 287q0 113 27.5 193.5t74 119.5t90.5 55.5t91 16.5
q74 0 122.5 -32t89.5 -97l3 -5v-480z" />
    <glyph glyph-name="e" unicode="e" horiz-adv-x="927" 
d="M803 213l41 -51q-59 -82 -153.5 -132t-203.5 -50q-213 0 -325 135q-92 111 -92 313q0 213 130 342t289 129q184 0 269.5 -116.5t85.5 -270.5q0 -35 -37 -35h-557q0 -182 49 -260q74 -117 223 -117q177 0 281 113zM256 559h377q29 0 29 29q0 106 -54.5 167.5t-118.5 61.5
q-23 0 -52 -11t-67 -37t-70 -81t-44 -129zM801 182q-108 -102 -279 -102q-66 0 -132 29.5t-108 96.5q-52 83 -53 271v21h578q16 0 16 14q0 147 -79.5 257t-254.5 110q-152 0 -275.5 -123t-123.5 -328q0 -195 88 -300q106 -128 309 -128q98 0 185 44t146 117zM232 539l4 23
q13 78 46.5 136.5t74 86.5t74 40.5t58.5 12.5q72 0 132.5 -68t60.5 -182q0 -20 -13.5 -34.5t-35.5 -14.5h-401z" />
    <glyph glyph-name="f" unicode="f" horiz-adv-x="643" 
d="M203 879v79q0 172 112 314q57 74 148.5 116t187.5 42q59 0 92 -21l2 -6q-31 -61 -57 -168l-22 -2q-39 72 -119 72q-88 0 -139.5 -52.5t-51.5 -138.5q0 -14 5.5 -95t5.5 -122v-18h88q57 0 143 4l10 -15q-16 -41 -24 -84q-41 4 -148 4h-69v-380q0 -270 20 -408l-4 -6
q-37 6 -98.5 6t-98.5 -6l-4 6q20 129 21 408v380h-2q-94 0 -152 -4l-10 15q29 45 45 84q31 -4 119 -4zM223 858h-20h-38.5t-33.5 1t-34 2q-3 -7 -6.5 -13.5t-7 -13.5t-7.5 -14l-8 -14q26 1 64 2t69 1h22v-401q0 -126 -3.5 -220.5t-14.5 -170.5q40 4 80 3l79 -3
q-10 77 -14 172.5t-4 218.5v401h90q78 0 131 -3q2 8 4.5 17t5.5 19t7 20q-78 -3 -129 -4h-109v39q0 41 -5 121t-5 96q0 94 57.5 152.5t153.5 58.5q20 0 38 -4.5t34 -13t29.5 -21t24.5 -27.5q10 37 22.5 73t24.5 65q-31 12 -69 12q-92 0 -178.5 -40.5t-141.5 -109.5
q-108 -137 -108 -301v-100z" />
    <glyph glyph-name="g" unicode="g" horiz-adv-x="1021" 
d="M639 582q0 240 -186 239q-88 0 -134.5 -59.5t-46.5 -163.5q0 -119 45 -178.5t152 -59.5q92 0 131 58t39 164zM799 592q0 -135 -88 -224t-252 -89q-98 0 -152 28q-61 -53 -61 -114q0 -59 31.5 -78t87.5 -19q2 0 59 4q78 10 170 11q209 0 289 -68q86 -74 86 -203
q0 -104 -84 -181t-206 -111.5t-261 -34.5q-84 0 -159 19t-134 74.5t-59 139.5q0 63 47 135q25 20 167 100q4 2 7 4q-79 14 -117.5 61.5t-38.5 115.5q0 82 127 170q-145 84 -145 256q0 143 107.5 227t240.5 84q69 0 125 -18q87 5 189 20.5t134 18.5l6 -7q-6 -29 -6 -53t6 -53
l-6 -6q-191 20 -213 21q103 -68 103 -230zM207 -213q0 -63 54 -108.5t112.5 -61.5t101.5 -16q141 0 242.5 51t101.5 141q0 100 -80 148q-59 35 -217 34q-10 0 -78.5 -3t-103.5 -3q-55 -31 -94 -82t-39 -100zM659 582q0 -242 -190 -242q-217 0 -217 258q0 111 52 177.5
t149 66.5q106 0 156 -70.5t50 -189.5zM778 592q0 48 -8 85.5t-23 61.5t-29.5 38.5t-33.5 27.5l-66 44l79 -7q20 -2 45.5 -4t42.5 -3.5t52.5 -5.5t54.5 -6q-1 8 -2 18t-1 19q0 10 0.5 18t2.5 19q-25 -3 -62.5 -8.5t-68 -10t-77.5 -9.5t-97 -8h-3l-4 1q-53 17 -119 17
q-127 0 -227.5 -79t-100.5 -212q0 -161 135 -238l28 -17l-26 -18q-118 -81 -118 -153q0 -132 137 -157l57 -9l-49 -29q-11 -7 -48.5 -27t-67.5 -38t-53 -35q-42 -66 -42 -121q0 -109 100.5 -161t231.5 -52q213 0 371.5 83t158.5 224q0 120 -79 187q-73 63 -275 63
q-13 0 -34 -0.5t-45 -2t-48 -3.5t-40 -4h-2q-58 -4 -60 -4q-139 0 -140 117q0 71 69 130l10 9l13 -7q49 -26 142 -26q156 0 237.5 82t81.5 211zM186 -213q0 122 144 200l5 3h5q33 0 101.5 3t80.5 3q88 0 136.5 -6.5t91.5 -31.5q90 -53 90 -165q0 -102 -109.5 -157.5
t-255.5 -55.5q-45 0 -106.5 16.5t-122 66.5t-60.5 124z" />
    <glyph glyph-name="h" unicode="h" horiz-adv-x="1124" 
d="M348 721l4 -6q158 184 355 184q135 0 194.5 -80t59.5 -244q0 -33 -2.5 -103.5t-2.5 -102.5q0 -238 19 -369l-4 -6q-37 6 -96.5 6t-96.5 -6l-4 6q18 125 19 369v200q0 121 -33 164t-115 43q-61 0 -143 -41t-154 -127v-239q0 -227 19 -369l-5 -6q-37 6 -96 6t-96 -6l-4 6
q18 133 18 369v616q0 295 -18 397l4 7q92 6 178 41q18 0 19 -21q-18 -236 -19 -383v-305zM328 715v311q0 148 18 381q-15 -6 -26.5 -10t-27 -8.5t-30 -8t-33.5 -6t-40 -4.5q6 -43 10 -109t5 -129.5t1 -146.5v-616q0 -226 -16 -352q40 4 77.5 3.5t77.5 -3.5q-16 132 -16 352
v247l5 6q75 88 159.5 131.5t152.5 43.5q90 0 129 -51.5t39 -176.5v-200q0 -233 -16 -352q40 4 77 3h13h15t16 -0.5t16.5 -1t17.5 -1.5q-16 125 -16 352q0 33 2 103.5t2 102.5q0 160 -53 232t-180 72q-73 0 -164 -39t-175 -139l-18 -20z" />
    <glyph glyph-name="i" unicode="i" horiz-adv-x="532" 
d="M184 481q0 272 -18 398l4 6q88 -6 178 2q12 0 15.5 -3t3.5 -18q-18 -172 -19 -352v-145q0 -223 19 -369l-5 -6q-37 6 -96 6t-96 -6l-4 6q18 137 18 369v112zM164 1223q0 41 31.5 72.5t72.5 31.5t73 -31.5t32 -72.5t-32 -73t-73 -32t-72.5 32t-31.5 73zM205 481v-112
q0 -220 -16 -352q40 4 77 3q17 0 37 -0.5t41 -2.5q-16 137 -16 352v145q0 46 0.5 83.5t1.5 69.5t3.5 65t5.5 63t7 71q-31 -3 -76 -3.5t-81 0.5q16 -131 16 -382zM184 1222.5q0 -32.5 26 -58t58.5 -25.5t58 25.5t25.5 58t-25.5 58.5t-58 26t-58.5 -26t-26 -58.5z" />
    <glyph glyph-name="j" unicode="j" horiz-adv-x="557" 
d="M373 514v-268q0 -223 -20.5 -334t-69.5 -188q-106 -166 -277 -166q-59 0 -88 18l-2 6q8 31 8 182l33 9q51 -92 123 -92q78 0 103.5 133t25.5 383v284q0 272 -19 398l5 6q88 -6 178 2q12 0 15 -3t3 -18q-18 -172 -18 -352zM184 1223q0 41 32 72.5t73 31.5t72.5 -31.5
t31.5 -72.5t-31.5 -73t-72.5 -32t-73 32t-32 73zM352 514q0 111 4 181.5t15 170.5q-72 -7 -158 -3q8 -65 12 -166.5t4 -215.5v-284q0 -82 -1 -134.5t-5 -123t-14 -113.5t-25.5 -85t-42 -61.5t-61.5 -19.5q-77 0 -135 93q0 -124 -7 -164q28 -11 68 -11q160 0 259 157
q47 74 67 182t20 329v268zM205 1222.5q0 -32.5 25.5 -58t58.5 -25.5t58.5 25.5t25.5 58t-25.5 58.5t-58.5 26t-58.5 -26t-25.5 -58.5z" />
    <glyph glyph-name="k" unicode="k" horiz-adv-x="1030" 
d="M184 410v577q0 293 -18 395l4 7q92 6 178 41q18 0 19 -21q-18 -248 -19 -385v-532q23 2 47.5 9.5t42.5 20.5q63 49 161.5 155.5t162.5 201.5q168 0 207 6l4 -6q-201 -170 -414 -392q88 -104 163 -185t161 -166t133 -136l-4 -6q-31 6 -123 6q-82 0 -135 -6
q-90 129 -121 173t-84 108.5t-117 132.5q-23 20 -84 22v-20q0 -274 19 -410l-5 -6q-37 6 -96 6t-96 -6l-4 6q18 131 18 410zM205 410q0 -261 -16 -393q18 2 40 2.5t37 0.5h16.5t18.5 -0.5t21 -1t22 -1.5q-16 132 -16 393v41h21q6 0 12 -0.5t15 -2t18.5 -3.5t18.5 -4.5
t17.5 -7.5t15.5 -10l1 -1q49 -51 83.5 -90.5t76.5 -96t65.5 -89.5t91.5 -131q59 5 125 5q37 0 81 -2q-28 29 -118.5 119.5t-158 164t-150.5 172.5l-11 14l12 14q178 185 376 358q-51 -2 -147 -2q-33 -47 -77 -100t-87.5 -100.5t-85.5 -88t-72 -63.5q-21 -16 -48 -24t-53 -11
l-22 -2v555q0 138 18 383q-38 -15 -72.5 -24t-84.5 -13q9 -63 12.5 -158.5t3.5 -224.5v-577z" />
    <glyph glyph-name="l" unicode="l" horiz-adv-x="516" 
d="M184 410v577q0 293 -18 395l4 7q92 6 178 41q18 0 19 -21q-18 -248 -19 -385v-614q0 -274 19 -410l-5 -6q-37 6 -96 6t-96 -6l-4 6q18 131 18 410zM205 410q0 -261 -16 -393q18 2 40 2.5t37 0.5h16.5t18.5 -0.5t21 -1t22 -1.5q-16 132 -16 393v614q0 138 18 383
q-38 -15 -72.5 -24t-84.5 -13q9 -63 12.5 -158.5t3.5 -224.5v-577z" />
    <glyph glyph-name="m" unicode="m" horiz-adv-x="1652" 
d="M332 721l6 -6q174 184 344 184q86 0 144.5 -44t72.5 -118q154 162 346 162q152 0 203 -83t51 -243v-204q0 -238 19 -369l-5 -6q-37 6 -96 6t-96 -6l-4 6q18 125 18 369v225q0 100 -39 141t-125 41q-150 0 -260 -123q2 -25 2 -78v-206q0 -238 19 -369l-4 -6q-37 6 -96.5 6
t-96.5 -6l-4 6q18 125 19 369v225q0 182 -136 182q-55 0 -133 -44t-149 -116v-247q0 -238 18 -369l-4 -6q-37 6 -96.5 6t-95.5 -6l-4 6q18 125 18 369v112q0 283 -18 398l4 6q90 -8 165 6q12 0 13 -21v-149zM311 712v157q-64 -10 -138 -6q16 -119 15 -382v-112
q0 -233 -15 -352q40 4 77 3h9h10h10.5t11.5 -0.5t11.5 -1t12 -1t12.5 -0.5q-16 125 -16 352v256l6 6q49 50 102.5 87.5t104 58t90.5 20.5q156 0 156 -203v-225q0 -233 -16 -352q40 4 77 3h23t26.5 -1t28.5 -2q-16 125 -16 352v206q0 52 -2 77l-1 8l6 7q70 77 135.5 103.5
t139.5 26.5q92 0 138.5 -48.5t46.5 -154.5v-225q0 -123 -3 -200.5t-13 -151.5q40 4 77 3q17 0 37 -0.5t41 -2.5q-16 125 -16 352v204q0 156 -46.5 231t-187.5 75q-86 0 -168.5 -36t-162.5 -120l-28 -29l-7 40q-6 33 -22.5 59.5t-42 45.5t-59 29.5t-73.5 10.5
q-162 0 -329 -178l-15 -16z" />
    <glyph glyph-name="n" unicode="n" horiz-adv-x="1103" 
d="M942 369q0 -233 19 -369l-5 -6q-37 6 -96 6t-96 -6l-4 6q18 137 18 369v200q0 121 -32.5 164t-114.5 43q-63 0 -144 -41t-153 -127v-239q0 -238 18 -369l-4 -6q-37 6 -96 6t-96 -6l-4 6q18 125 18 369v112q0 283 -18 398l4 6q90 -8 166 6q12 0 12 -21v-149l4 -6
q158 184 354 184q135 0 194.5 -80t59.5 -244q0 -33 -2 -103t-2 -103zM922 369q0 33 2 103.5t2 102.5q0 160 -53.5 232t-180.5 72q-73 0 -163.5 -39t-175.5 -139l-17 -20l-23 34v154q-64 -10 -138 -6q16 -119 15 -382v-112q0 -233 -15 -352q40 4 77 3h9h10h10.5t11.5 -0.5
t11.5 -1t12 -1t12.5 -0.5q-16 125 -16 352v247l5 6q75 88 160 131.5t153 43.5q90 0 129 -51.5t39 -176.5v-200q0 -220 -16 -352q40 4 77.5 3.5t77.5 -3.5q-10 77 -13 154.5t-3 197.5z" />
    <glyph glyph-name="o" unicode="o" horiz-adv-x="1024" 
d="M506 817q-90 0 -148.5 -55t-79 -132t-20.5 -175q0 -92 20.5 -174t86 -151t165.5 -69q102 0 169 96.5t67 243.5q0 207 -54 311.5t-206 104.5zM78 420q0 217 120.5 348t321.5 131q205 0 315.5 -124t110.5 -337q0 -205 -116.5 -331.5t-317.5 -126.5q-199 0 -316.5 125
t-117.5 315zM506 838q70 0 120 -22.5t80.5 -59.5t49 -94.5t24.5 -119t6 -141.5q0 -154 -71.5 -257t-184.5 -103q-84 0 -145 41t-91 107.5t-43 132t-13 133.5q0 100 21.5 180t84 141.5t162.5 61.5zM98 420q0 -182 112 -301t302 -119t302 121t112 317q0 205 -105.5 323
t-300.5 118q-193 0 -307.5 -124t-114.5 -335z" />
    <glyph glyph-name="p" unicode="p" horiz-adv-x="1071" 
d="M332 721l4 -6q121 184 276 184q164 0 260.5 -126t96.5 -300q0 -219 -117 -356t-317 -137q-119 0 -203 45v-91q0 -264 18 -409l-4 -6q-37 6 -96.5 6t-95.5 -6l-4 6q18 137 18 409v547q0 283 -18 398l4 6q90 -8 165 6q12 0 13 -21v-149zM332 602v-448q78 -92 190 -93
q78 0 133.5 35t83 95.5t38.5 123t11 131.5q0 358 -210 359q-61 0 -137 -61.5t-109 -141.5zM311 715v154q-64 -10 -138 -6q16 -119 15 -382v-547q0 -121 -3.5 -218t-12.5 -174q40 4 78 3.5t78 -3.5q-9 78 -13 175.5t-4 216.5v125l30 -16q79 -43 194 -43q190 0 301.5 130
t111.5 343q0 166 -91 286t-245 120q-144 0 -259 -175l-17 -26zM311 606l2 4q36 86 115.5 150.5t149.5 64.5q115 0 173 -99t58 -280q0 -72 -12.5 -135t-41 -128.5t-89 -103.5t-144.5 -38q-121 0 -206 99l-5 6v460z" />
    <glyph glyph-name="q" unicode="q" horiz-adv-x="1069" 
d="M750 885q63 -10 165 0l5 -6q-18 -115 -19 -398v-547q0 -287 19 -409l-5 -6q-27 6 -96 6l-96 -6l-4 6q18 117 18 409v113q-29 -25 -95.5 -46t-145.5 -21q-133 0 -226.5 72.5t-131.5 174t-38 215.5q0 201 123 329t303 128q138 0 224 -14zM731 770q-57 47 -192 47
q-115 0 -186.5 -97t-71.5 -255q0 -211 78.5 -303t185.5 -92q35 0 95 18t97 47v344zM746 865q-27 5 -99 9.5t-121 4.5q-172 0 -288.5 -122t-116.5 -315q0 -176 95 -309t280 -133q75 0 139.5 21t88.5 42l34 29v-158q0 -277 -16 -392q32 3 77 3q25 0 43 -0.5t34 -2.5
q-16 122 -15 392v547q0 120 3.5 218.5t12.5 163.5q-98 -7 -151 2zM744 786l7 -6l1 -9q1 -10 1.5 -30t2.5 -95.5t2 -166.5v-354l-8 -6q-41 -31 -103.5 -50.5t-101.5 -19.5q-117 0 -201 99.5t-84 316.5q0 166 77 269.5t202 103.5q36 0 63.5 -2.5t53.5 -8t47.5 -16t40.5 -25.5z
" />
    <glyph glyph-name="r" unicode="r" horiz-adv-x="727" 
d="M342 684l6 -4q72 123 126 171t134 48q25 0 74 -14l8 -8l-41 -152l-16 -4q-31 29 -107 29q-68 0 -114 -72q-70 -106 -70 -203v-106q0 -229 18 -369l-4 -6q-37 6 -96 6t-96 -6l-4 6q18 127 18 369v112q0 283 -18 398l4 6q90 -8 166 6q12 0 12 -21v-186zM322 673v196
q-64 -10 -139 -6q16 -119 16 -382v-112q0 -230 -16 -352q40 4 77.5 3.5t77.5 -3.5q-16 133 -16 352v106q0 27 3.5 51t9 43.5t15.5 41t20 38.5t24 40q53 81 132 81q13 0 22 -0.5t21.5 -1.5t22 -3.5t20.5 -7t22 -11.5l33 122q-4 1 -9.5 3t-8 3t-6.5 2t-7 1t-7 0.5t-9 1
t-12 0.5q-73 0 -123 -44.5t-119 -164.5l-11 -19z" />
    <glyph glyph-name="s" unicode="s" horiz-adv-x="811" 
d="M102 207l31 2q106 -147 242 -148q84 0 136 45.5t52 124.5q0 70 -50 104t-157 62q-115 31 -180 86.5t-65 165.5q0 119 92 184.5t217 65.5q158 0 276 -61l4 -7l-41 -151l-28 -2q-39 45 -57.5 64.5t-65.5 47t-96 27.5q-68 0 -112 -33.5t-44 -95.5q0 -115 190 -160
q127 -31 203 -92t76 -176q0 -47 -15.5 -92t-51 -90t-108.5 -71.5t-173 -26.5q-152 0 -309 55zM119 187l-28 -139q147 -48 286 -48q96 0 164.5 25.5t101.5 66.5t47.5 82t14.5 86q0 106 -70 162.5t-193 85.5q-206 50 -206 180q0 72 50 111t126 39q40 0 74.5 -12t65.5 -38
t46.5 -42t44.5 -50l34 128q-116 54 -257 55q-119 0 -204 -60.5t-85 -169.5q0 -54 17.5 -94t52.5 -66t71.5 -41.5t89.5 -30t85 -27t67.5 -33.5t52.5 -52t17 -74q0 -88 -59.5 -139t-149.5 -51q-141 0 -252 147z" />
    <glyph glyph-name="t" unicode="t" horiz-adv-x="696" 
d="M195 879q0 63 4 145t4 117l4 6q31 4 52.5 11t49 20.5t41.5 19.5q18 0 19 -20q-10 -131 -11 -299h97q39 0 143 4l10 -15q-16 -41 -24 -84q-41 4 -148 4h-78v-258q0 -70 -3 -159.5t-3 -112.5q0 -158 68 -168q79 -13 161 16l25 -51q-119 -76 -237 -75q-76 0 -128.5 51
t-52.5 145q0 23 3.5 142.5t3.5 189.5v280q-96 0 -146 -4l-10 15q29 45 45 84q29 -4 111 -4zM215 879v-21h-21q-66 0 -97 3q-6 -14 -13 -27.5t-16 -27.5q51 3 126 3h21v-301q0 -70 -3 -189.5t-3 -142.5q0 -86 46 -131t114 -45q108 0 211 63l-9 18q-77 -23 -154 -11
q-32 5 -51.5 30t-26.5 62.5t-7 95.5q0 25 3 115t3 157v279h98q78 0 131 -3q2 8 4.5 17t5.5 19t7 20q-88 -4 -129 -4h-117v21q0 167 10 296q-9 -4 -27 -12.5t-29.5 -13.5t-30 -11t-38.5 -9q0 -29 -2 -69.5t-4 -86.5t-2 -94z" />
    <glyph glyph-name="u" unicode="u" horiz-adv-x="1099" 
d="M748 188q-57 -88 -139.5 -148t-170.5 -60q-141 0 -204.5 81.5t-63.5 202.5v246q0 238 -18 369l4 6q37 -6 96 -6t96 6l4 -6q-18 -123 -18 -369v-203q0 -129 36 -171t101 -42q72 0 150.5 64.5t130.5 150.5v201q0 233 -19 369l4 6q37 -6 96.5 -6t96.5 6l4 -6
q-18 -123 -19 -369v-117q0 -207 35 -393l-4 -6q-41 6 -91 6q-24 0 -71 -6q-18 0 -18 6l-10 182zM730 200l12 18l34 -25l10 -178q44 6 69 5q16 0 35 -0.5t36 -2.5q-31 185 -31 376v117q0 235 16 352q-40 -4 -77 -4q-17 0 -37 1t-41 3q16 -128 16 -352v-206l-3 -5
q-53 -90 -135.5 -157.5t-162.5 -67.5q-72 0 -115 49t-43 184v203q0 61 0.5 102.5t2.5 87t5 85t8 77.5q-40 -4 -77.5 -4t-77.5 4q7 -53 10.5 -109t4.5 -109t1 -134v-246q0 -115 58.5 -189.5t189.5 -74.5q81 0 159.5 58t132.5 142z" />
    <glyph glyph-name="v" unicode="v" horiz-adv-x="935" 
d="M403 -6q-231 602 -362 891q33 -6 108.5 -6t102.5 6q10 -32 42.5 -135.5t47.5 -150.5t43 -129.5t54.5 -150t55.5 -134.5h4q42 89 83.5 206.5t89 265.5t76.5 228q18 -6 69 -6q59 0 78 6q-254 -573 -367 -891q-18 6 -61.5 6t-63.5 -6zM416 18q9 1 23.5 1.5t27.5 0.5h4h8h8h9
t9 -0.5t10 -1.5q111 309 346 841q-6 0 -15 -0.5t-16 -0.5h-13q-37 0 -56 3q-23 -66 -57.5 -171.5t-59.5 -183t-59.5 -170t-66.5 -160.5l-6 -12h-30l-6 13q-24 55 -48 117t-41 108.5t-41.5 119.5t-35.5 108t-37.5 120t-34.5 112q-29 -3 -88 -4h-4h-17h-16t-19.5 0.5
t-18.5 1.5q125 -278 341 -842z" />
    <glyph glyph-name="w" unicode="w" horiz-adv-x="1468" 
d="M410 -8q-199 518 -369 891q33 -6 108.5 -6t102.5 6q6 -18 36 -113.5t39 -124.5t35.5 -108.5t43 -124t41.5 -109t50 -121.5h13q64 137 173 446q-52 145 -89 257q33 -6 108.5 -6t102.5 6q93 -429 196 -700h16q121 282 253 700q18 -6 69 -6q70 0 88 6q-123 -270 -380 -891
q-18 6 -76 6q-33 0 -53 -6q-30 83 -92 248t-91 244q-61 -148 -184 -494q-18 6 -74 6q-47 0 -67 -6zM422 16q20 3 55 2q40 0 61 -2q40 113 58.5 164.5t54 145.5t65.5 168l20 48l18 -49q29 -79 88 -237t88 -238q8 1 18.5 1.5t22.5 0.5q42 0 63 -3q238 573 359 842
q-22 -1 -54 -1q-35 0 -55 3q-129 -408 -248 -685l-5 -12h-44l-5 14q-101 267 -193 683q-29 -3 -87 -3q-52 0 -78 2q17 -51 37 -108t42 -117l2 -7l-2 -7q-110 -310 -175 -447l-5 -12h-39l-6 13q-18 42 -36.5 87.5t-32.5 82t-32.5 89t-28.5 81.5t-29.5 89t-26.5 82t-28 89.5
t-26 84.5q-29 -3 -88 -4h-24.5t-22.5 0.5t-28 1.5q160 -356 347 -842z" />
    <glyph glyph-name="x" unicode="x" horiz-adv-x="931" 
d="M378 424l-329 461q45 -6 119 -6q61 0 111 6q17 -28 39.5 -67t40 -69t38 -64.5t43 -68.5t46.5 -66q30 39 61.5 84.5t55 81.5t56 85t56.5 84q29 -6 76 -6q57 0 92 6l-336 -413q30 -44 100 -148.5t124 -181t110 -148.5q-55 6 -117 6q-63 0 -105 -6q-11 17 -89.5 146.5
t-127.5 197.5q-46 -64 -118.5 -181.5t-102.5 -162.5q-35 6 -90 6q-41 0 -74 -6zM403 423l-301 -404q17 1 29 1q38 0 80 -4q24 37 96.5 153.5t118.5 180.5l16 23l17 -23q36 -50 189 -298q12 -20 22 -36q40 5 94 4h21.5t24 -0.5t26.5 -1.5q-49 65 -99.5 138t-113 166
t-93.5 138l-9 13l315 387q-26 -1 -45 -2q-36 0 -67 4q-24 -35 -70 -106q-24 -36 -37 -56t-34.5 -51t-41 -58t-39.5 -53l-17 -22l-16 22q-28 38 -57 83t-48 77t-49 84t-47 81q-46 -5 -100 -5q-38 0 -76 2z" />
    <glyph glyph-name="y" unicode="y" horiz-adv-x="1036" 
d="M57 885q29 -6 107 -6q74 0 100 6q68 -209 274 -706h4q138 294 269 706q20 -6 80 -6q68 0 88 6q-88 -178 -315.5 -691t-278.5 -679q-35 10 -100 10q-37 0 -72 -10q147 248 242 465q-42 110 -398 905zM91 860q13 -28 54.5 -120.5t71 -157.5t73.5 -163.5t75.5 -170.5
t61.5 -144.5t47 -116.5l3 -8l-4 -8q-86 -201 -219 -428q17 2 31 2q40 0 86 -7q56 172 255 621.5t318 699.5q-21 -1 -53 -1q-44 0 -66 3q-130 -403 -264 -690l-6 -12h-31l-5 14q-201 485 -269 689q-29 -3 -86 -4q-46 0 -73 2z" />
    <glyph glyph-name="z" unicode="z" horiz-adv-x="851" 
d="M278 102q111 1 239 6.5t201 11.5l73 5l4 -6q-4 -33 -4 -64q0 -2 4 -55l-4 -6q-45 6 -115 6h-463l-166 -6l-6 9q12 13 45 63l481 710q-104 -1 -220.5 -7t-181.5 -11l-65 -4l-4 6q4 33 4 63q0 2 -4 56l4 6q47 -6 115 -6h418q20 0 49 2t52 4t42 4t22 2q6 0 8.5 -3t2.5 -9
q-14 -16 -61 -86zM278 82h-39l492 722q32 47 44 65q-29 -3 -44.5 -4.5t-46.5 -4t-51 -2.5h-418q-53 0 -97 4q3 -26 3 -39q0 -19 -3 -47q237 18 449 20l39 1l-503 -743q-3 -5 -8.5 -12.5t-9.5 -13.5l-8 -12q91 5 136 4h463q53 0 97 -4q-3 26 -3 39q0 19 2 48
q-268 -20 -494 -21z" />
    <glyph glyph-name="braceleft" unicode="{" horiz-adv-x="567" 
d="M365 1130l16 -339q6 -127 -47 -187.5t-168 -93.5v-8q113 -47 167 -118t48 -189l-16 -306q-6 -123 43 -198.5t120 -75.5q8 -8 8.5 -24.5t-8.5 -24.5q-166 0 -242.5 71.5t-68.5 262.5l12 348q6 209 -200 233q-25 25 0 49q104 10 152 75t48 153l-12 377q-10 313 311 313
q8 -10 8.5 -24.5t-8.5 -24.5q-37 -10 -60.5 -22.5t-53 -40t-41.5 -79t-8 -127.5zM344 1130q-3 52 3 93.5t19 70.5t28.5 50t38 35t41 22t42.5 15q2 5 1 11q-289 -6 -279 -292l12 -377q0 -93 -50.5 -163t-160.5 -84q-2 -8 0 -10q112 -16 163 -83t48 -171l-12 -348
q-7 -174 55 -240.5t204 -71.5q9 0 20 -1v9q-79 7 -129.5 88.5t-43.5 207.5l16 305q3 47 -4.5 85.5t-23.5 67.5t-42.5 54t-58 43.5t-73.5 36.5l-13 5v37l15 5q110 32 158 85.5t42 174.5z" />
    <glyph glyph-name="bar" unicode="|" horiz-adv-x="430" 
d="M266 -475h-100v1905h100v-1905zM246 -455v1864h-60v-1864h60z" />
    <glyph glyph-name="braceright" unicode="}" horiz-adv-x="567" 
d="M195 -119l-17 340q-6 127 47.5 187.5t167.5 93.5v8q-113 47 -167 117.5t-48 189.5l17 305q6 123 -43.5 199t-120.5 76q-10 8 -10.5 24.5t10.5 24.5q166 0 242.5 -71.5t68.5 -262.5l-12 -348q-6 -209 200 -234q25 -25 0 -49q-104 -10 -152 -74.5t-48 -152.5l12 -377
q10 -313 -311 -313q-10 10 -10.5 24.5t10.5 24.5q37 10 60.5 22.5t53 40t42 78.5t8.5 127zM215 -118q4 -76 -9.5 -130.5t-42.5 -85t-55.5 -45.5t-64.5 -26q-2 -5 -1 -11q289 6 280 292l-13 378q0 221 211 247q2 8 0 10q-112 16 -163 83t-48 171l13 348q7 174 -55.5 240
t-204.5 72h-20v-3.5t1 -4.5q51 -5 91.5 -42t62.5 -103.5t18 -150.5l-16 -305q-6 -113 44 -177.5t158 -109.5l13 -5v-38l-15 -4q-110 -32 -158 -85.5t-42 -174.5z" />
    <glyph glyph-name="asciitilde" unicode="~" horiz-adv-x="919" 
d="M53 428q20 104 96 183t166 79q45 0 152 -65q106 -68 149 -68q53 0 112.5 34t90.5 103l35 -12q-29 -100 -82 -159.5t-91 -73t-73 -13.5q-57 0 -153 68q-96 66 -152 65q-57 0 -123.5 -41t-99.5 -106zM86 469q41 54 102 87.5t115 33.5q61 0 163 -69q90 -64 142 -64
q20 0 43 6.5t56.5 25t65.5 64t54 111.5q-36 -64 -96.5 -95.5t-114.5 -31.5q-8 0 -16.5 1t-15.5 2.5t-17 5.5t-16 6t-17 8t-15.5 8.5t-16.5 9.5t-15 9t-16 10.5t-15 9.5q-101 62 -141 63q-106 0 -185 -116q-28 -41 -44 -85z" />
    <glyph glyph-name="uni00A0" unicode="&#xa0;" horiz-adv-x="512" 
 />
    <glyph glyph-name="exclamdown" unicode="&#xa1;" horiz-adv-x="466" 
d="M350 788v-8q-27 -76 -110 -110h-9q-84 31 -110 110v8q29 90 110 111h9q49 -10 72.5 -35t37.5 -76zM236 -469q-45 0 -80 39t-35 111q0 76 22.5 204.5t30.5 190.5q12 96 19.5 183t9.5 134t4 56q4 41 28.5 40.5t28.5 -26.5l10 -146q10 -145 21 -241q8 -72 29.5 -194
t21.5 -201q0 -76 -34.5 -113t-75.5 -37zM330 785q-13 47 -31 65t-63 29q-27 -7 -43.5 -17t-29 -28.5t-22.5 -49.5q13 -37 33.5 -58t60.5 -36q27 11 44.5 23.5t29.5 29.5t21 42zM236 -449q33 0 61.5 31t28.5 99q0 77 -22 198t-29 195q-5 45 -9.5 96.5t-8 96.5t-6 84
t-4.5 68.5t-3 40.5q0 2 -1 5q-1 4 -6 4h-1q-2 0 -3 -0.5t-3 -6t-3 -15.5v-1q-1 -7 -3 -38.5t-4.5 -73.5t-9 -113.5t-16.5 -147.5q-8 -65 -30.5 -192.5t-22.5 -199.5q0 -66 29 -98t66 -32z" />
    <glyph glyph-name="cent" unicode="&#xa2;" horiz-adv-x="1024" 
d="M523 314v721q-82 -32 -133.5 -125t-51.5 -229q0 -143 50.5 -238t134.5 -129zM523 1344h79v-211q38 0 78 -4.5t75.5 -12.5t67 -18.5t55.5 -23.5l4 -6l-48 -172l-27 -2q-88 152 -205 155v-751h8q126 0 224 88h9l39 -44q-29 -37 -60.5 -64t-66.5 -45t-72.5 -27.5
t-80.5 -11.5v-222h-79v224q-222 23 -317 221q-52 110 -52 253q0 180 108.5 303.5t260.5 152.5v218zM544 284l-28 11q-45 18 -81.5 52.5t-62.5 83t-40 112.5t-14 138q0 141 54.5 240t143.5 133l28 11v-781zM544 1324v-215l-17 -4q-69 -13 -132 -49t-112.5 -90.5t-79 -131
t-29.5 -164.5q0 -196 95 -316.5t256 -137.5l19 -2v-221h38v220l19 1q153 8 254 127l-18 20q-55 -47 -109.5 -65.5t-117.5 -18.5h-28v793l21 -1q32 -1 62 -12t56.5 -31t50.5 -48t46 -63l41 146q-109 51 -257 51h-20v212h-38z" />
    <glyph glyph-name="sterling" unicode="&#xa3;" horiz-adv-x="1024" 
d="M484 902v-156h274q16 0 16 -13v-49q0 -13 -16.5 -20.5t-36.5 -7.5h-237q-3 -308 -161 -456h12q70 0 122 -10.5t82 -25.5t55.5 -30t57.5 -26t71 -11q157 0 228 96l40 -23q-72 -154 -235 -186q-36 -7 -72 -7q-66 0 -118 20t-80.5 44.5t-79.5 45t-115 20.5q-93 0 -93 -54
q0 -37 -25 -56.5t-64 -19.5q-31 0 -50 17t-19 43q0 49 111 109q90 66 123 183.5t33 289.5v37h-139q-6 0 -9 1t-4.5 4t-1.5 9v30q0 17 13.5 31.5t40.5 14.5h100v45q0 94 14.5 157.5t45.5 113.5t89 108q156 156 388 156q60 0 93 -19l3 -7q-28 -48 -59 -167l-23 -3
q-43 72 -118 72q-92 0 -174 -92.5t-82 -207.5zM463 902q0 81 41.5 156.5t105.5 120t130 44.5q79 0 126 -67q24 91 48 139q-8 3 -19 5t-24.5 3.5t-26.5 1.5q-224 0 -374 -150q-84 -84 -113.5 -157t-29.5 -207v-65h-120q-18 0 -25.5 -8.5t-7.5 -17.5v-24h153v-57
q0 -83 -6 -148t-23 -131.5t-50.5 -119.5t-84.5 -90l-1 -1q-100 -55 -102 -92q0 -11 5.5 -20t16.5 -14.5t27 -5.5q68 0 68 56q0 31 28 52.5t86 21.5q69 0 122.5 -20t82.5 -44.5t78 -45t110 -20.5q63 0 117.5 21t95 57.5t67.5 86.5l-8 4q-79 -89 -233 -89q-53 0 -95 16
t-68.5 35t-84.5 35t-140 16h-64l38 36q152 142 154 441v20h258q24 0 33 9v41h-291v176z" />
    <glyph glyph-name="currency" unicode="&#xa4;" horiz-adv-x="1024" 
d="M509 263q-140 0 -251 84l-100 -124l-95 93l125 100q-45 54 -67.5 118t-22.5 136q0 151 90 256l-121 95l86 93l108 -119q112 82 248 82q36 0 69.5 -5.5t65.5 -16t61.5 -27t57.5 -37.5l107 128l91 -96l-128 -102q88 -108 88 -251q0 -138 -86 -249l121 -102l-84 -89
l-107 119q-38 -29 -79 -48t-85 -28.5t-92 -9.5zM237 672q0 -131 75.5 -221.5t196.5 -90.5q119 0 194.5 91t75.5 219q0 130 -78 219.5t-187 89.5q-120 0 -198.5 -90t-78.5 -217zM509 283q46 0 87.5 9t80.5 27t76 46l15 11l104 -116l54 57l-119 101l12 15q82 105 82 237
q0 46 -9.5 88t-28.5 79.5t-46 70.5l-14 16l127 101l-59 63l-105 -126l-16 12q-105 82 -241 82q-44 0 -83.5 -8t-78 -25.5t-74.5 -43.5l-15 -11l-105 116l-56 -61l121 -94l-14 -17q-43 -49 -64.5 -110t-21.5 -132q0 -138 86 -240l14 -17l-124 -98l62 -61l99 121l15 -12
q53 -40 112.5 -60t126.5 -20zM217 672q0 134 84 231t213 97q119 0 202.5 -96.5t83.5 -233.5q0 -87 -35 -162t-102.5 -121.5t-153.5 -46.5q-87 0 -154.5 46t-102.5 121.5t-35 164.5z" />
    <glyph glyph-name="yen" unicode="&#xa5;" horiz-adv-x="1024" 
d="M109 532q-8 0 -9.5 2.5t-1.5 12.5v32q0 17 12 31.5t39 14.5h233q-38 71 -184.5 356.5t-188.5 355.5q35 -7 119 -7h11h11h12t12 0.5t12 0.5t12 0.5t12.5 1t11.5 1t11.5 1.5t10.5 2q149 -385 292 -635q28 45 56 96.5t49 94.5t48 106t44 104t47.5 116.5t47.5 117.5
q23 -7 86 -7h21t21 1t24 2.5t20 3.5q-177 -310 -385 -712h299q5 0 8.5 -1t5.5 -4.5t2 -7.5v-49q0 -7 -5 -13.5t-13 -10t-17 -5.5t-18 -2h-280q1 -108 2 -146h315q16 0 16 -14v-46q0 -14 -16.5 -22.5t-36.5 -8.5h-277q2 -100 5.5 -180.5t6.5 -121.5q-34 7 -107 7
q-72 0 -105 -7q9 86 12 302h-303q-8 0 -9.5 2.5t-1.5 11.5v31q0 17 12 31.5t39 14.5h264q0 47 1 146h-305zM118 553h316v-22v-145l-1 -20h-284q-31 0 -31 -26v-24h315v-21q-3 -187 -10 -278q29 3 82 3h5h14h14.5t16.5 -0.5t16.5 -1t18.5 -1.5q-5 93 -10 278v21h297
q27 0 33 10v40h-332v21q-1 40 -2 145v21h301q27 0 33 10v42h-329l15 30q200 386 365 676q-4 0 -9 -0.5t-9.5 -0.5h-10h-10h-8.5q-50 0 -74 3q-10 -25 -53 -131.5t-58.5 -142t-49.5 -111.5t-63 -130t-63 -107l-18 -29l-17 30q-143 249 -287 622q-22 -3 -47 -3.5t-56 -0.5
q-53 0 -81 2q15 -27 36 -66t42.5 -81t46.5 -90.5t49 -95.5t49.5 -96.5t47.5 -92.5t43.5 -84t38.5 -71l16 -30h-267q-31 0 -31 -26v-26z" />
    <glyph glyph-name="brokenbar" unicode="&#xa6;" horiz-adv-x="419" 
d="M264 330v-742h-98v742h98zM264 1380v-741h-98v741h98zM244 309h-58v-700h58v700zM244 1360h-58v-701h58v701z" />
    <glyph glyph-name="section" unicode="&#xa7;" horiz-adv-x="989" 
d="M256 834q-90 95 -90 223q0 109 94 200t240 91q66 0 128 -27t85.5 -45.5t70.5 -56.5l7 -11l-35 -149l-29 -4q-57 98 -113.5 154.5t-132.5 56.5q-74 0 -124 -47.5t-50 -120.5q0 -135 164 -203q416 -170 416 -446q0 -173 -154 -288q90 -95 90 -222q0 -109 -94 -200t-240 -91
q-66 0 -128 26.5t-85.5 45t-70.5 57.5l-6 10l34 150l29 4q57 -98 113.5 -154.5t132.5 -56.5q74 0 124 47t50 121q0 135 -164 202q-416 170 -416 447q0 172 154 287zM302 793q-83 -82 -83 -168q0 -35 11.5 -69t24.5 -58.5t45 -53t49.5 -44t63.5 -43t60 -35t67.5 -34
t59.5 -30.5q48 -25 87 -55q83 82 83 168q0 35 -11 68.5t-24.5 58t-45.5 53.5t-49 44t-63.5 43t-60.5 35t-67.5 33.5t-59.5 30.5q-48 26 -87 56zM271 848l16 -17l-19 -13q-146 -108 -145 -271q0 -68 27 -129t66 -104t97 -83t106 -64t107 -48q85 -35 130.5 -89.5t45.5 -131.5
q0 -82 -56 -135.5t-138 -53.5t-141 56.5t-116 154.5l-31 -130q43 -37 68 -55.5t83 -42.5t118 -24q137 0 225.5 85t88.5 186q0 119 -85 208l-16 17l19 14q146 108 145 271q0 68 -26.5 128.5t-66 104t-97.5 83t-106 63.5t-107 48q-177 73 -176 222q0 82 56 135t138 53
t141 -56.5t117 -153.5l30 129q-43 37 -68 55.5t-83 42.5t-118 24q-137 0 -225.5 -85t-88.5 -185q0 -119 85 -209zM288 807l12 13l15 -11q38 -29 84 -54q11 -6 58.5 -29.5t67 -34t63 -36t64.5 -43t53 -47.5t47 -57t27 -63t12 -74q0 -95 -90 -183l-12 -12l-14 11
q-38 29 -84 53q-11 6 -59 29.5t-67.5 34t-63 36.5t-64.5 43.5t-53 47t-47 57t-26.5 63t-11.5 74.5q0 94 89 182z" />
    <glyph glyph-name="dieresis" unicode="&#xa8;" horiz-adv-x="776" 
d="M449 1176q0 41 28.5 69.5t67.5 28.5t67.5 -28.5t28.5 -69.5t-27.5 -69t-68.5 -28t-68.5 28t-27.5 69zM102 1176q0 41 29 69.5t68 28.5t67.5 -28.5t28.5 -69.5t-28.5 -69t-67.5 -28t-68 28t-29 69zM469 1176q0 -31 22.5 -53.5t53 -22.5t53.5 22.5t23 53.5q0 33 -23 55
t-53.5 22t-53 -22t-22.5 -55zM123 1176q0 -31 22.5 -53.5t53 -22.5t53 22.5t22.5 53.5q0 33 -22.5 55t-53 22t-53 -22t-22.5 -55z" />
    <glyph glyph-name="copyright" unicode="&#xa9;" horiz-adv-x="1296" 
d="M649 1141q-215 0 -365.5 -150.5t-150.5 -363.5t150.5 -363.5t365.5 -150.5q213 0 363.5 150.5t150.5 363.5t-150.5 363.5t-363.5 150.5zM649.5 47q-239.5 0 -409.5 170t-170 409.5t170 408.5t409.5 169t408.5 -169t169 -408.5t-169 -409.5t-408.5 -170zM899 442
q-35 -53 -99.5 -92t-142.5 -39q-135 0 -227 91.5t-92 213.5q0 129 95 224.5t229 95.5q82 0 133 -15.5t69 -15.5l29 -160l-41 -8q-29 78 -73 115t-126 37q-76 0 -132 -58.5t-56 -193.5q0 -117 55 -191.5t156 -74.5q115 0 184 102zM649 1161q221 0 378 -156.5t157 -377.5
t-157 -378t-378 -157q-223 0 -379.5 157t-156.5 378t156.5 377.5t379.5 156.5zM649.5 68q231.5 0 394 163.5t162.5 395t-162.5 394.5t-394 163t-395.5 -163t-164 -394q0 -229 164 -394t395.5 -165zM871 438l-7 6q-75 -94 -188 -94q-111 0 -171.5 82t-60.5 205
q0 143 62.5 207.5t146.5 64.5q57 0 99.5 -19t67.5 -50t45 -79l4 1l-22 124q-8 1 -59 15t-126 14q-125 0 -214.5 -89t-89.5 -210q0 -115 86 -199.5t213 -84.5q67 0 123 30.5t91 75.5z" />
    <glyph glyph-name="ordfeminine" unicode="&#xaa;" horiz-adv-x="608" 
d="M487 842q0 -39 21 -39q8 0 49 26l4 -2l21 -26q-53 -68 -113 -68q-72 0 -80 74h-8q-53 -45 -85 -59.5t-83 -14.5q-74 0 -117 35t-43 102q0 63 56.5 112.5t154.5 72.5l115 26q8 4 8 15q0 66 -21.5 102.5t-43 42.5t-52.5 6q-72 0 -139 -112h-16l-23 90l4 4q94 76 187 76
q209 0 209 -207q0 -4 -2.5 -120t-2.5 -136zM387 1032l-104 -31q-70 -20 -95.5 -49.5t-25.5 -77.5q0 -31 24.5 -53t65.5 -22q49 0 113 49q16 12 16 33zM467 842q0 23 2 137.5t2 118.5q0 186 -188 186q-86 0 -168 -66l13 -51q67 100 142 101q137 0 138 -172q0 -23 -20 -33
l-2 -1l-117 -27q-93 -22 -144 -66t-51 -99q0 -117 139 -116q33 0 55 5.5t43 19t57 44.5l5 4h35l1 -18q1 -8 4 -16t9 -17.5t18 -15.5t29 -6q44 0 85 47q-25 -18 -46 -19q-41 1 -41 60zM409 1060l-8 -180q0 -29 -24 -48q-70 -53 -125 -54q-49 0 -80 29t-31 67q0 107 136 147z
" />
    <glyph glyph-name="guillemotleft" unicode="&#xab;" horiz-adv-x="1112" 
d="M688 440q121 -137 260 -348q-8 -35 -49 -39q-209 225 -379 375v25q170 150 379 374q41 -4 49 -39q-139 -211 -260 -348zM319 440q121 -137 261 -348q-8 -35 -50 -39q-209 225 -378 375v25q170 150 378 374q41 -4 50 -39q-140 -211 -261 -348zM673 427l-12 13l12 14
q118 134 252 337q-9 10 -19 14q-201 -216 -365 -362v-6q164 -145 365 -361q12 5 19 14q-50 76 -94.5 138t-81.5 108.5t-76 90.5zM304 427l-12 13l12 14q118 134 252 337q-2 3 -4.5 5t-6 4.5t-8.5 4.5q-201 -216 -365 -362v-6q164 -145 365 -361q12 5 19 14
q-134 203 -252 337z" />
    <glyph glyph-name="logicalnot" unicode="&#xac;" horiz-adv-x="1146" 
d="M989 272v459h-940v90h1051v-549h-111zM1010 293h69v508h-1009v-49h940v-459z" />
    <glyph glyph-name="uni00AD" unicode="&#xad;" horiz-adv-x="681" 
d="M561 483h-463q-31 0 -30 35q0 25 16 50.5t35 25.5h469q29 0 28 -37q0 -18 -18.5 -46t-36.5 -28zM561 504q6 0 20.5 21.5t14.5 31.5q0 16 -8 16h-469q-2 0 -9.5 -8t-14.5 -21.5t-7 -25.5q0 -14 10 -14h463z" />
    <glyph glyph-name="registered" unicode="&#xae;" horiz-adv-x="1296" 
d="M649 1141q-215 0 -365.5 -150.5t-150.5 -363.5t150.5 -363.5t365.5 -150.5q213 0 363.5 150.5t150.5 363.5t-150.5 363.5t-363.5 150.5zM649.5 47q-239.5 0 -409.5 170t-170 409.5t170 408.5t409.5 169t408.5 -169t169 -408.5t-169 -409.5t-408.5 -170zM770 758
q0 104 -102 104q-82 0 -82 -51v-172h65q55 0 87 23.5t32 95.5zM883 758q0 -113 -119 -152l98 -168q31 -53 88 -43l8 -35q-35 -14 -73 -14q-82 0 -125 72l-98 164q-10 8 -76 8v-148q0 -39 24 -43l29 -4q23 -2 23 -12v-33l-5 -4q-84 4 -120 4l-125 -4l-4 4v35q0 8 20 10l35 4
q27 4 26 43v369q0 51 -47 51h-22q-16 0 -17 10v35l5 4h278q104 0 150.5 -48t46.5 -105zM649 1161q221 0 378 -156.5t157 -377.5t-157 -378t-378 -157q-223 0 -379.5 157t-156.5 378t156.5 377.5t379.5 156.5zM649.5 68q231.5 0 394 163.5t162.5 395t-162.5 394.5t-394 163
t-395.5 -163t-164 -394q0 -229 164 -394t395.5 -165zM791 758q0 -139 -140 -140h-86v193q0 72 103 72q123 0 123 -125zM862 758q0 51 -40 92t-136 41h-262v-8h18q27 0 47.5 -19.5t20.5 -52.5v-369q0 -58 -45 -63l-35 -4h-2v-8q75 3 109 4q18 0 46 -1t58 -3v7l-5 1l-29 4
q-42 6 -42 63v168h21q72 0 88 -12l3 -2l100 -168q36 -62 108 -61q25 0 48 6q-57 0 -88 55l-112 190l25 8q46 15 75 49t29 83z" />
    <glyph glyph-name="macron" unicode="&#xaf;" horiz-adv-x="813" 
d="M645 1083h-500q-25 0 -24 31q0 20 13 40t32 20h500q29 0 28 -29q0 -20 -15.5 -41t-33.5 -21zM645 1104q8 0 18.5 14.5t10.5 26.5q0 8 -8 8h-500q-6 0 -15.5 -13.5t-9.5 -25.5l3 -10h1h500z" />
    <glyph glyph-name="degree" unicode="&#xb0;" horiz-adv-x="546" 
d="M70 1075q0 86 60 145.5t144 59.5t143.5 -59.5t59.5 -145.5q0 -84 -59.5 -143.5t-143.5 -59.5t-144 59.5t-60 143.5zM410 1073q0 57 -36 103.5t-99.5 46.5t-100.5 -45t-37 -105q0 -57 38 -100t99 -43q59 0 97.5 44t38.5 99zM90 1075q0 -76 54.5 -129t130 -53t129 53
t53.5 129q0 78 -53.5 131.5t-129 53.5t-130 -53.5t-54.5 -131.5zM430 1073.5q0 -63.5 -43 -114t-113 -50.5q-72 0 -114.5 49.5t-42.5 115t43 117.5t114 52q74 0 115 -53t41 -116.5z" />
    <glyph glyph-name="plusminus" unicode="&#xb1;" horiz-adv-x="1079" 
d="M944 139v-100h-809v100h809zM592 700h352v-100h-352v-356h-105v356h-352v100h352v357h105v-357zM924 119h-768v-60h768v60zM571 680v356h-63v-356h-352v-59h352v-357h63v357h353v59h-353z" />
    <glyph glyph-name="two.superior" unicode="&#xb2;" horiz-adv-x="636" 
d="M145 1260h-26l-23 86l4 4q68 61 191 61q104 0 166 -43q68 -45 67.5 -129t-106.5 -184l-109 -107q-72 -72 -71 -94h88q59 0 202 10q-6 -29 -6 -71q0 -23 6 -52q-111 4 -188 4q-55 0 -260 -4l-2 4q0 70 149 224l82 80q68 70 68 192q0 47 -33 80q-29 31 -61 31
q-87 0 -138 -92zM134 1281q57 91 149 91q14 0 27.5 -4.5t25.5 -12.5t23 -20q19 -19 28.5 -43t9.5 -51q0 -65 -18 -117t-55 -90l-82 -80q-124 -127 -141 -192q187 4 239 4q69 0 164 -3q-2 17 -2 30q0 27 2 49q-61 -4 -105.5 -6t-72.5 -2h-109v20q0 20 18 43.5t60 65.5
l109 106q51 48 75.5 91t24.5 79q0 12 -1.5 23.5t-5 22t-8 19.5t-11 17.5t-15 15.5t-18.5 14q-28 20 -66 30t-88 10q-110 0 -172 -52z" />
    <glyph glyph-name="three.superior" unicode="&#xb3;" horiz-adv-x="641" 
d="M350 817q45 37 45 121q0 127 -121 127q-29 0 -41 -2v51q150 6 150 139q0 43 -23 72q-25 29 -55 29q-55 0 -84 -25q-25 -18 -53 -72h-27l-22 86l2 7q70 59 192 59q84 0 138 -31q59 -37 59 -108q0 -133 -129 -166v-4q68 -6 111 -43q51 -43 51 -115q0 -106 -86 -162
q-72 -47 -183 -47q-106 0 -176 62l-4 4l25 86l24 2q33 -57 50 -72q29 -25 83 -24q43 -1 74 26zM363 801q-36 -31 -87 -31q-63 0 -97 30q-10 9 -19.5 22.5t-25.5 40.5l-17 -58q32 -26 71 -38.5t86 -12.5q53 0 95.5 11t75.5 32q39 25 58 60.5t19 84.5q0 62 -44 99
q-38 33 -99 38l-19 2v39l16 4q59 15 86 50t27 96q0 31 -12 53t-37 38l-12 6t-13 5.5t-14.5 5t-15.5 4t-16.5 3t-17.5 2.5t-18.5 1.5t-19.5 0.5q-109 0 -172 -49l16 -61q14 24 25.5 39.5t25.5 26.5q35 29 97 29q20 0 38 -9t33 -27v0q27 -35 27 -85q0 -69 -38 -109.5
t-111 -48.5v-10h9.5h10.5q68 0 105 -38.5t37 -108.5q-1 -94 -53 -137z" />
    <glyph glyph-name="acute" unicode="&#xb4;" horiz-adv-x="698" 
d="M358 1440q12 4 29 4q63 0 113 -47l6 -23l-236 -223q-39 -39 -61 -39q-10 0 -19.5 8t-9.5 19q0 20 24 57zM371 1422l-150 -237q-2 -4 -6.5 -10.5t-5.5 -8t-3.5 -5.5t-2.5 -5.5t-1 -4.5t-1 -5.5v-6.5q0 -6 8 -6q3 0 7.5 1.5t15 9.5t24.5 22l227 215l-2 5q-44 38 -94 37z
" />
    <glyph glyph-name="uni00B5" unicode="&#xb5;" horiz-adv-x="995" 
d="M207 -479q-31 0 -71 38t-40 95q0 49 16.5 155.5t16.5 174.5q0 27 -9 126t-9 164v385l-21 220q27 0 89.5 9t78.5 11q6 -131 6 -197v-401q0 -229 142 -229q80 0 150.5 39t107.5 92v676q29 0 86 9t67 11v-645q0 -59 1 -84t6 -51.5t15.5 -34.5t30.5 -8q35 0 70 86l49 -23
q-33 -84 -71.5 -121.5t-114.5 -37.5q-57 0 -98 41.5t-41 101.5q-131 -143 -297 -143q-78 0 -117 47q-25 0 -25 -19q0 -72 33 -198.5t33 -165.5q0 -59 -23.5 -91t-60.5 -32zM207 -459q63 0 63 103q0 33 -32.5 159.5t-32.5 204.5q0 18 14 28.5t31 10.5h9l6 -7q13 -16 43 -28
t59 -12q158 0 281 137l36 39v-53q0 -51 35 -87t84 -36q64 0 97.5 29t62.5 100l-12 5q-36 -79 -81 -79q-35 0 -52 25.5t-19 55.5t-2 99v19v622q-100 -16 -113 -17v-662l-3 -6q-39 -58 -115 -99t-160 -41q-162 0 -162 250v401q0 32 -1.5 79.5t-3.5 94.5q-13 -2 -39.5 -6
t-47.5 -7t-39 -4q18 -149 18 -200v-385q0 -63 9.5 -162.5t9.5 -127.5q0 -70 -16.5 -177.5t-16.5 -152.5q0 -47 33.5 -80t56.5 -33z" />
    <glyph glyph-name="paragraph" unicode="&#xb6;" horiz-adv-x="1232" 
d="M836 1321l202 6l2 -6q-20 -135 -20 -410v-977q0 -264 20 -409l-4 -6q-133 6 -202 6l-201 -6l-4 6q20 145 20 409v650q-27 -6 -65 -6q-227 0 -347 102t-120 305q0 135 100 237.5t289 102.5q88 0 201 -2t129 -2zM752 1176v-1506q0 -78 82 -78q84 0 84 78v1506q0 78 -84 77
q-82 1 -82 -77zM836 1300q-16 0 -129 2.5t-201 2.5q-180 0 -274.5 -96.5t-94.5 -223.5q0 -387 447 -387q21 0 34 1.5t27 4.5l25 5v-675q0 -250 -19 -394q19 1 38.5 1.5t46.5 1.5t53 1.5t45 0.5q60 0 184 -5q-18 145 -19 394v977q0 58 1 108.5t3 102t5.5 98t9.5 86.5
q-121 -6 -182 -6zM731 1176q0 49 28.5 73.5t74.5 24.5q104 0 104 -98v-1506q0 -98 -104 -98q-45 0 -74 24.5t-29 73.5v1506z" />
    <glyph glyph-name="periodcentered" unicode="&#xb7;" horiz-adv-x="512" 
d="M256 418q-49 0 -80 32.5t-31 77.5q0 43 33 77t78 34q43 0 77 -33t34 -78t-32 -77.5t-79 -32.5zM256 438q39 0 64.5 27t25.5 63.5t-27.5 63t-62.5 26.5t-62.5 -27.5t-27.5 -62.5q0 -37 24.5 -63.5t65.5 -26.5z" />
    <glyph glyph-name="cedilla" unicode="&#xb8;" horiz-adv-x="1107" 
d="M618 -197q-53 0 -92 -12l-12 12l82 197h70l-52 -137q25 6 54 6q63 0 104 -35t41 -92q0 -66 -62.5 -109t-156.5 -43q-72 0 -152 35q0 33 21 53q78 -29 119 -28q47 0 75.5 21.5t28.5 60.5q0 71 -68 71zM618 -176q43 0 66 -25.5t23 -66.5q0 -49 -36 -76t-89 -27
q-44 0 -113 25q-4 -7 -5 -16q65 -27 130 -27q88 0 143.5 38t55.5 93q0 47 -35 76.5t-90 29.5l-49 -5l-37 -10l54 147h-26l-68 -163q16 4 34.5 5.5t41.5 1.5z" />
    <glyph glyph-name="one.superior" unicode="&#xb9;" horiz-adv-x="786" 
d="M498 950q0 -119 14 -205l-2 -4q-37 4 -78 4q-39 0 -74 -4v4q12 74 13 205v267q0 70 -21 69q-72 0 -119 -6l-2 47q66 16 275 82q6 0 6 -6q-12 -84 -12 -176v-277zM477 950v277q0 40 2.5 78.5t6.5 76.5q-169 -53 -235 -71v-8q43 4 99 4q41 0 41 -90v-267q0 -114 -9 -186
q25 2 50 2q15 0 28.5 -0.5t27.5 -1.5q-11 81 -11 186z" />
    <glyph glyph-name="ordmasculine" unicode="&#xba;" horiz-adv-x="714" 
d="M350 1108q-74 0 -112.5 -60.5t-38.5 -148.5q0 -86 45 -153.5t131 -67.5q55 0 100 41t45 139q0 121 -46 185.5t-124 64.5zM80 879q0 131 75.5 205.5t206.5 74.5q141 0 208 -76.5t67 -191.5q0 -113 -74 -191.5t-211 -78.5q-115 0 -193.5 73.5t-78.5 184.5zM350 1128
q88 0 139.5 -71.5t51.5 -198.5q0 -106 -52.5 -153.5t-113.5 -47.5q-96 0 -146.5 75t-50.5 167q0 94 44 161.5t128 67.5zM100 879q0 -100 73 -169t179 -69q129 0 196.5 72.5t67.5 177.5q0 109 -61 178.5t-193 69.5q-125 0 -193.5 -68.5t-68.5 -191.5z" />
    <glyph glyph-name="guillemotright" unicode="&#xbb;" horiz-adv-x="1112" 
d="M424 440q-121 137 -260 348q8 35 49 39q209 -225 379 -374v-25q-170 -150 -379 -375q-41 4 -49 39q139 211 260 348zM793 440q-121 137 -261 348q8 35 50 39q209 -225 379 -374v-25q-170 -150 -379 -375q-41 4 -50 39q140 211 261 348zM439 454l12 -14l-12 -13
q-118 -134 -252 -337q7 -9 19 -14q201 216 365 361v6q-164 145 -365 362q-12 -5 -19 -14q134 -203 252 -337zM808 454l12 -14l-12 -13q-118 -134 -252 -337q7 -9 19 -14q201 216 365 361v6q-164 145 -365 362q-12 -5 -19 -14q50 -76 94.5 -138t81.5 -108.5t76 -90.5z" />
    <glyph glyph-name="onequarter" unicode="&#xbc;" horiz-adv-x="1351" 
d="M492 850q0 -119 14 -205l-2 -4q-37 4 -78 4q-39 0 -74 -4v4q12 74 13 205v266q0 70 -21 70q-72 0 -119 -6l-2 47q66 16 275 82q6 0 6 -6q-12 -84 -12 -177v-276zM836 88h198v313zM813 16q-59 0 -61 15q0 35 12 51q125 168 280 428v4q12 -4 54 -4q39 0 73 4l3 -4
q-10 -82 -11 -162v-260h78q14 0 14 -22q0 -10 -8 -29q-12 -20 -22 -21h-62q0 -80 11 -159l-3 -4q-35 4 -73 4q-41 0 -76 -4v4q12 92 12 159h-221zM1141 1231l84 -17l-938 -1341l-86 16zM471 850v276q0 20 0.5 40t1.5 39.5t3 38.5l4 38q-169 -53 -236 -71l1 -9q43 4 99 4
q41 0 41 -90v-266q0 -114 -9 -186q25 2 50 2q10 0 19 -0.5l18 -1t19 -0.5q-11 81 -11 186zM798 68l257 404v-404h-257zM813 37h242v-21q0 -60 -10 -141q26 2 53 2q26 0 53 -2q-8 72 -8 141v21h79q3 3 7 9q6 14 6 20v1l-92 1v280q0 70 8 143q-12 -1 -26 -1.5t-27 -0.5
t-22.5 0.5t-18.5 1.5q-38 -64 -74.5 -122t-71 -110.5t-67.5 -100t-64 -88.5q-3 -4 -5 -10.5t-3 -19.5q14 -3 41 -3zM1150 1208l-914 -1304l42 -8l912 1304z" />
    <glyph glyph-name="onehalf" unicode="&#xbd;" horiz-adv-x="1351" 
d="M496 850q0 -119 14 -205l-2 -4q-37 4 -78 4q-39 0 -74 -4v4q12 74 13 205v266q0 70 -21 70q-72 0 -119 -6l-2 47q66 16 275 82q6 0 6 -6q-12 -84 -12 -177v-276zM879 352h-27l-23 86l5 4q68 61 190 62q104 0 166 -43q68 -45 67.5 -129t-106.5 -185l-109 -106
q-72 -72 -71 -94h88q59 0 203 10q-6 -29 -7 -72q0 -23 7 -51q-111 4 -189 4q-55 0 -260 -4l-2 4q0 70 150 223l81 80q68 70 68 193q0 47 -33 80q-29 31 -61 30q-86 0 -137 -92zM1090 1231l86 -17l-940 -1341l-84 16zM475 850v276q0 20 0.5 40t2 39.5t3 38.5t3.5 38
q-169 -53 -235 -71v-9q43 4 99 4q41 0 41 -90v-266q0 -114 -9 -186q25 2 50 2q15 0 28.5 -0.5t27.5 -1.5q-11 81 -11 186zM867 374q11 17 23.5 31t26.5 25.5t29.5 19t33 11.5t36.5 4q42 0 76 -37q39 -39 38 -94q0 -65 -18 -117t-55 -90l-82 -80q-124 -127 -141 -192
q187 4 239 4q69 0 164 -4q-2 17 -2 30q0 27 2 50q-124 -8 -178 -9h-109v21q0 20 18 43.5t60 64.5l109 107q51 48 75.5 90.5t24.5 79.5q0 12 -1.5 23.5t-5 21.5t-8 19.5t-11 17.5t-15 15.5t-18.5 14.5q-28 20 -66 29.5t-88 9.5q-56 0 -98 -12.5t-74 -38.5zM1099 1208
l-913 -1305l40 -7l915 1304z" />
    <glyph glyph-name="threequarters" unicode="&#xbe;" horiz-adv-x="1351" 
d="M844 92h198v314zM821 20q-59 0 -61 15q0 35 12 51q125 168 281 428v4q12 -4 53 -4q39 0 74 4l2 -4q-10 -82 -11 -162v-260h78q14 0 15 -22q0 -10 -9 -29q-12 -20 -22 -21h-62q0 -80 11 -159l-2 -4q-35 4 -74 4q-41 0 -76 -4v4q12 92 12 159h-221zM346 713q45 37 45 121
q0 127 -121 127q-29 0 -41 -3v52q150 6 150 139q0 43 -23 72q-25 29 -55 28q-55 0 -84 -24q-25 -18 -53 -72h-27l-22 86l2 6q70 59 192 60q84 0 137 -31q59 -37 60 -109q0 -133 -129 -166v-4q68 -6 110 -43q51 -43 52 -114q0 -106 -86 -162q-72 -47 -183 -47q-106 0 -176 61
l-4 4l25 86l24 2q33 -57 49 -71q29 -25 84 -25q43 0 74 27zM1151 1231l84 -17l-938 -1341l-86 16zM807 72l256 404v-404h-256zM821 41h242v-21q0 -60 -10 -141q26 2 53 2q26 0 53 -2q-8 72 -8 141v21h79q3 3 7 9q6 14 6 20v1l-92 1v280q0 70 8 144q-12 -1 -26 -1.5t-27 -0.5
h-22t-19 1q-31 -51 -60 -98.5t-57.5 -91.5t-55.5 -84t-53 -77t-50 -70q-3 -4 -5 -10.5t-3 -19.5q13 -3 40 -3zM359 697q-36 -31 -87 -31q-63 0 -97 29q-10 9 -19.5 22.5t-25.5 40.5l-17 -57q32 -26 71 -39t86 -13q53 0 95.5 11t75.5 33q26 17 43 38t25.5 47.5t8.5 59.5
q0 62 -44 99q-38 33 -99 38l-19 2v38l17 5q113 30 112 145q0 31 -12 53.5t-37 37.5q-23 14 -55 21t-72 7q-109 0 -172 -49l16 -60q14 24 25.5 39.5t25.5 26.5q35 29 97 29q13 0 26 -4.5t24 -12.5t21 -19q27 -35 27 -85q0 -69 -38 -110t-111 -48v-10h20q68 0 105 -39t37 -108
q-1 -94 -53 -137zM1160 1208l-914 -1304l42 -8l912 1304z" />
    <glyph glyph-name="questiondown" unicode="&#xbf;" horiz-adv-x="829" 
d="M578 788v-8q-27 -76 -111 -110h-8q-84 31 -111 110v8q29 90 111 111h8q49 -10 73 -35t38 -76zM432 -389q141 0 252 192l27 -2l32 -137l-6 -8q-152 -127 -323 -127q-156 0 -247 84t-91 225q0 76 39 142.5t75.5 99.5t102.5 80q86 63 106 102q37 72 37 150v90q0 20 26.5 20
t26.5 -20v-94q0 -59 -5 -100.5t-37.5 -108t-94.5 -121.5q-66 -61 -94.5 -111.5t-28.5 -120.5q0 -100 57.5 -167.5t145.5 -67.5zM557 785q-7 25 -13.5 39t-17 25.5t-25 17.5t-38.5 12q-20 -5 -33.5 -11.5t-25 -17.5t-20 -26.5t-16.5 -39.5q13 -37 34 -58t61 -36
q20 9 34.5 17.5t26 20t19 25t14.5 32.5zM432 -410q-96 0 -159.5 74t-63.5 182q0 50 15.5 93.5t42.5 78t71 75.5q37 33 63 69.5t39 65.5t20 65.5t8 58.5t1 56v93q-3 1 -6 1h-3.5t-2.5 -1v-89q0 -20 -2.5 -39.5t-7 -39.5t-12 -40t-17.5 -40q-23 -43 -113 -110
q-47 -34 -75.5 -58t-63.5 -63t-52.5 -84.5t-17.5 -99.5q0 -133 85 -211t233 -78q91 0 172 38t135 82l-27 112q-115 -191 -262 -191z" />
    <glyph glyph-name="Agrave" unicode="&#xc0;" horiz-adv-x="1288" 
d="M367 468q-59 -145 -103 -265t-67 -209q-25 6 -93 6q-47 0 -71 -6q348 764 604 1354h57q70 -166 198 -483.5t223 -549t140 -321.5q-35 6 -122 6q-68 0 -103 -6q-4 14 -9.5 32.5t-15 50t-22.5 71t-29 87t-37.5 108.5t-45.5 125q-67 2 -127 2.5t-113 0.5q-117 0 -264 -3z
M834 564q-44 115 -95.5 241t-111.5 264h-4l-216 -504q24 0 102 -2t112 -2q87 0 213 3zM524 1675l248 -172q31 -23 31 -43q0 -12 -9.5 -21t-21.5 -9q-31 0 -88 24l-315 129q63 61 155 92zM348 475l5 13h13q60 1 136.5 2.5t128.5 1.5q95 0 241 -4h13l5 -13q59 -159 97 -273.5
t58 -184.5q31 4 87.5 3.5t88.5 -2.5q-49 104 -141.5 330.5t-211.5 521.5t-187 457h-31q-248 -574 -583 -1307q14 1 37 0q50 0 78 -3q47 166 166 458zM853 572l11 -28h-29q-127 -3 -214 -3q-34 0 -112.5 1.5t-102.5 2.5h-30l233 544h31l5 -12q41 -93 79.5 -185t69 -168.5
t59.5 -151.5zM521 1652q-35 -13 -62 -28t-52 -34l285 -117q54 -23 80 -23q10 0 10 10q0 2 -0.5 4t-2.5 5t-6.5 7.5t-12.5 10.5z" />
    <glyph glyph-name="Aacute" unicode="&#xc1;" horiz-adv-x="1288" 
d="M367 468q-59 -145 -103 -265t-67 -209q-25 6 -93 6q-47 0 -71 -6q348 764 604 1354h57q70 -166 198 -483.5t223 -549t140 -321.5q-35 6 -122 6q-68 0 -103 -6q-4 14 -9.5 32.5t-15 50t-22.5 71t-29 87t-37.5 108.5t-45.5 125q-67 2 -127 2.5t-113 0.5q-117 0 -264 -3z
M834 564q-44 115 -95.5 241t-111.5 264h-4l-216 -504q24 0 102 -2t112 -2q87 0 213 3zM752 1679q88 -41 127 -106l-295 -119q-57 -25 -86 -24q-31 0 -31 30q0 23 31 43zM348 475l5 13h13q60 1 136.5 2.5t128.5 1.5q95 0 241 -4h13l5 -13q59 -159 97 -273.5t58 -184.5
q31 4 87.5 3.5t88.5 -2.5q-49 104 -141.5 330.5t-211.5 521.5t-187 457h-31q-248 -574 -583 -1307q14 1 37 0q50 0 78 -3q47 166 166 458zM853 572l11 -28h-29q-127 -3 -214 -3q-34 0 -112.5 1.5t-102.5 2.5h-30l233 544h31l5 -12q41 -93 79.5 -185t69 -168.5t59.5 -151.5z
M753 1656l-244 -170q-22 -15 -22 -26q0 -10 11 -10q7 0 16.5 2t25 7t36.5 14l271 109q-34 43 -94 74z" />
    <glyph glyph-name="Acircumflex" unicode="&#xc2;" horiz-adv-x="1288" 
d="M367 468q-59 -145 -103 -265t-67 -209q-25 6 -93 6q-47 0 -71 -6q348 764 604 1354h57q70 -166 198 -483.5t223 -549t140 -321.5q-35 6 -122 6q-68 0 -103 -6q-4 14 -9.5 32.5t-15 50t-22.5 71t-29 87t-37.5 108.5t-45.5 125q-67 2 -127 2.5t-113 0.5q-117 0 -264 -3z
M834 564q-44 115 -95.5 241t-111.5 264h-4l-216 -504q24 0 102 -2t112 -2q87 0 213 3zM709 1649q84 -100 206 -193l-32 -43q-127 59 -217 127q-102 -76 -220 -127l-28 43q88 66 203 193h88zM348 475l5 13h13q60 1 136.5 2.5t128.5 1.5q95 0 241 -4h13l5 -13
q59 -159 97 -273.5t58 -184.5q31 4 87.5 3.5t88.5 -2.5q-49 104 -141.5 330.5t-211.5 521.5t-187 457h-31q-248 -574 -583 -1307q14 1 37 0q50 0 78 -3q47 166 166 458zM853 572l11 -28h-29q-127 -3 -214 -3q-34 0 -112.5 1.5t-102.5 2.5h-30l233 544h31l5 -12
q41 -93 79.5 -185t69 -168.5t59.5 -151.5zM699 1628h-69q-33 -36 -58.5 -62t-59 -57t-67.5 -57l9 -13q105 48 200 118l12 9l12 -10q45 -34 93 -62t105 -55l11 13q-111 85 -188 176z" />
    <glyph glyph-name="Atilde" unicode="&#xc3;" horiz-adv-x="1288" 
d="M367 468q-59 -145 -103 -265t-67 -209q-25 6 -93 6q-47 0 -71 -6q348 764 604 1354h57q70 -166 198 -483.5t223 -549t140 -321.5q-35 6 -122 6q-68 0 -103 -6q-4 14 -9.5 32.5t-15 50t-22.5 71t-29 87t-37.5 108.5t-45.5 125q-67 2 -127 2.5t-113 0.5q-117 0 -264 -3z
M834 564q-44 115 -95.5 241t-111.5 264h-4l-216 -504q24 0 102 -2t112 -2q87 0 213 3zM807 1524q35 0 58.5 22.5t43.5 83.5l49 -12q-37 -184 -178 -184q-51 0 -131 53q-74 45 -110 45q-39 0 -61.5 -23.5t-39.5 -74.5l-49 10q23 92 60.5 137t103 45t147.5 -57q60 -45 107 -45
zM348 475l5 13h13q60 1 136.5 2.5t128.5 1.5q95 0 241 -4h13l5 -13q59 -159 97 -273.5t58 -184.5q31 4 87.5 3.5t88.5 -2.5q-49 104 -141.5 330.5t-211.5 521.5t-187 457h-31q-248 -574 -583 -1307q14 1 37 0q50 0 78 -3q47 166 166 458zM853 572l11 -28h-29
q-127 -3 -214 -3q-34 0 -112.5 1.5t-102.5 2.5h-30l233 544h31l5 -12q41 -93 79.5 -185t69 -168.5t59.5 -151.5zM807 1503q-53 0 -119 49q-76 53 -135 54q-53 0 -85 -34t-54 -112l11 -3q34 95 114 95q12 0 26 -3t24 -6.5t25 -11.5t22.5 -12.5t23.5 -14.5q37 -24 65.5 -37
t54.5 -13q20 0 37 4t32 11.5t27.5 19.5t23.5 28.5t19.5 38t14.5 47.5l-12 3q-14 -37 -31 -60t-37.5 -33t-46.5 -10z" />
    <glyph glyph-name="Adieresis" unicode="&#xc4;" horiz-adv-x="1288" 
d="M367 468q-59 -145 -103 -265t-67 -209q-25 6 -93 6q-47 0 -71 -6q348 764 604 1354h57q70 -166 198 -483.5t223 -549t140 -321.5q-35 6 -122 6q-68 0 -103 -6q-4 14 -9.5 32.5t-15 50t-22.5 71t-29 87t-37.5 108.5t-45.5 125q-67 2 -127 2.5t-113 0.5q-117 0 -264 -3z
M834 564q-44 115 -95.5 241t-111.5 264h-4l-216 -504q24 0 102 -2t112 -2q87 0 213 3zM856 1452q0 39 27.5 65.5t66.5 26.5t65.5 -26.5t26.5 -65.5t-26.5 -65.5t-65.5 -26.5t-66.5 26.5t-27.5 65.5zM293 1452q0 39 27.5 65.5t66.5 26.5t65.5 -26.5t26.5 -65.5t-26.5 -65.5
t-65.5 -26.5t-66.5 26.5t-27.5 65.5zM348 475l5 13h13q60 1 136.5 2.5t128.5 1.5q95 0 241 -4h13l5 -13q59 -159 97 -273.5t58 -184.5q31 4 87.5 3.5t88.5 -2.5q-49 104 -141.5 330.5t-211.5 521.5t-187 457h-31q-248 -574 -583 -1307q14 1 37 0q50 0 78 -3q47 166 166 458z
M853 572l11 -28h-29q-127 -3 -214 -3q-34 0 -112.5 1.5t-102.5 2.5h-30l233 544h31l5 -12q41 -93 79.5 -185t69 -168.5t59.5 -151.5zM877 1452q0 -29 21.5 -50.5t52 -21.5t51 20.5t20.5 51.5t-20.5 51.5t-51 20.5t-52 -21.5t-21.5 -50.5zM313 1452q0 -29 21.5 -50.5
t52.5 -21.5t51.5 20.5t20.5 51.5t-20.5 51.5t-51.5 20.5t-52.5 -21.5t-21.5 -50.5z" />
    <glyph glyph-name="Aring" unicode="&#xc5;" horiz-adv-x="1288" 
d="M834 564q-44 115 -95.5 241t-111.5 264h-4l-216 -504q24 0 102 -2t112 -2q87 0 213 3zM485 1462q0 70 53.5 120t125 50t125 -49t53.5 -121q0 -56 -36 -101t-92 -62q67 -160 192.5 -471.5t215.5 -528.5t133 -305q-35 6 -122 6q-68 0 -103 -6q-4 14 -9.5 32.5t-15 50
t-22.5 71t-29 87t-37.5 108.5t-45.5 125q-67 2 -127 2.5t-113 0.5q-117 0 -264 -3q-59 -145 -103 -265t-67 -209q-25 6 -93 6q-47 0 -71 -6q336 735 583 1305q-56 16 -93.5 61t-37.5 102zM664 1577q-47 0 -75 -34t-28 -81q0 -45 28.5 -79.5t74 -34.5t74 34.5t28.5 79.5
q0 49 -28.5 82t-73.5 33zM853 572l11 -28h-29q-127 -3 -214 -3q-34 0 -112.5 1.5t-102.5 2.5h-30l233 544h31l5 -12q41 -93 79.5 -185t69 -168.5t59.5 -151.5zM506 1462q0 -50 33 -90t82 -53l23 -7l-9 -21q-242 -558 -568 -1271h13h12h12q50 0 78 -3q47 166 166 458l5 13h13
q60 1 136.5 2.5t128.5 1.5q95 0 241 -4h13l5 -13q59 -159 97 -273.5t58 -184.5q31 4 88 3h4q52 0 84 -2q-37 80 -104 240.5t-131.5 320.5t-149.5 369.5t-141 343.5l-8 21l22 6q49 14 80.5 54t31.5 89q0 61 -47 105.5t-110.5 44.5t-110.5 -44.5t-47 -105.5zM663.5 1597
q55.5 0 89 -39.5t33.5 -95.5q0 -53 -33.5 -94t-89 -41t-89 41t-33.5 94q0 55 33.5 95t89 40z" />
    <glyph glyph-name="AE" unicode="&#xc6;" horiz-adv-x="1642" 
d="M813 665q-34 178 -83 428h-4q-109 -192 -224 -426q172 -3 184 -3h58t69 1zM455 570q-164 -340 -254 -576q-25 6 -92 6q-47 0 -72 -6q52 99 127 247t134.5 265t132.5 255.5t153.5 281t165.5 279.5l4 5q35 -6 104 -6h436q74 0 123 6l4 -6q-4 -57 -4 -64q0 -20 4 -53l-4 -8
q-159 21 -375 21q-115 0 -148 -19t-25 -81q41 -203 95 -435q224 0 459 20l7 -6q-6 -29 -6.5 -57.5t6.5 -56.5l-7 -7q-172 17 -439 21q64 -272 121 -482l435 21l4 -8q-4 -33 -4 -68q0 -2 4 -59l-4 -6q-49 6 -123 6h-280h-3h-110q-68 0 -102 -6q0 101 -91 578q-68 1 -135 1
q-98 0 -241 -3zM834 669l4 -24h-24q-79 -1 -128 -2q-23 0 -53 0.5t-72 1.5t-60 2h-32l14 29q115 234 225 427l6 10h33l3 -16q50 -250 84 -428zM436 579l6 12h12q61 1 128.5 2t113.5 1q33 0 67.5 -0.5t68.5 -0.5l16 -1l3 -16q83 -440 90 -559q17 2 37.5 2.5t45.5 0.5h393
q57 0 105 -4v6q-2 23 -2 37q0 23 2 55q-233 -14 -416 -20l-17 -1l-4 16q-57 210 -121 482l-6 26l26 -1q247 -3 422 -18q-1 10 -2 20.5t-1 20.5q0 20 3 41q-217 -19 -442 -18l-16 -1l-4 16q-54 233 -95 436v2q-2 17 -1.5 31.5t4.5 27t11.5 22t18.5 17t26.5 12.5t35.5 8
q19 2 43 3.5t55 1.5q78 0 158 -4t122 -7.5t77 -7.5q-2 22 -2 38q0 12 3 48q-48 -4 -106 -5h-436q-54 0 -95 5q-81 -132 -158.5 -268.5t-149 -272.5t-128.5 -247t-131 -257.5t-123 -239.5q14 1 36 0h3q47 0 76 -3q91 236 248 562z" />
    <glyph glyph-name="Ccedilla" unicode="&#xc7;" horiz-adv-x="1386" 
d="M752 -205q-53 0 -93 -12l-12 12l77 186q-148 8 -268.5 68t-195 153.5t-114.5 207.5t-40 235q0 295 203 499t469 204q111 0 222.5 -22.5t167.5 -46.5l57 -24l4 -6q-35 -147 -41 -227l-21 -2q-115 231 -417 231q-68 0 -139.5 -31.5t-139.5 -95t-111 -178.5t-43 -262
q0 -156 50.5 -289t160 -222t260.5 -89q141 0 233.5 45t203.5 166l49 -39q-204 -264 -480 -276l-46 -125q25 6 53 6q63 0 104 -35t41 -92q0 -66 -62.5 -109t-156.5 -43q-72 0 -152 35q0 33 21 53q78 -29 119 -28q47 0 75.5 21.5t28.5 60.5q1 71 -67 71zM752 -184
q43 0 65.5 -26t22.5 -66q0 -49 -36 -76t-89 -27q-44 0 -113 25q-4 -7 -5 -16q65 -27 130 -27q88 0 143.5 37.5t55.5 93.5q0 47 -35 76.5t-90 29.5h-10t-10 -0.5l-10 -1t-9.5 -1.5t-9.5 -2l-37 -10l65 175h14q258 11 451 253l-18 14q-106 -113 -202 -158.5t-237 -45.5
q-160 0 -274.5 93.5t-165.5 230.5t-51 297q0 152 45 270.5t114.5 184t145.5 99.5t148 34q294 0 420 -214q2 18 4 34.5t4 27t6 28.5t5.5 26t7.5 32.5t9 34.5q-202 86 -428 86q-258 0 -454.5 -197.5t-196.5 -484.5q0 -118 38.5 -228.5t111 -201t188.5 -148.5t260 -66l29 -1
l-79 -192q30 8 77 8z" />
    <glyph glyph-name="Egrave" unicode="&#xc8;" horiz-adv-x="1101" 
d="M502 1673l248 -172q31 -23 30 -43q0 -12 -9 -21.5t-21 -9.5q-31 0 -88 25l-316 129q64 61 156 92zM389 410q0 -240 17 -295q123 0 267 6t227 12l83 6l4 -8q-4 -33 -4 -68q0 -6 4 -63l-4 -6q-49 6 -123 6h-559l-106 -6l-2 6q20 139 20 410v501q0 264 -20 410l4 6
q35 -6 104 -6h539q74 0 123 6l4 -6q-4 -57 -4 -77.5t4 -53.5l-4 -8q-283 25 -557 24q-16 -55 -17 -295v-159q215 0 457 20l6 -6q-6 -29 -6 -65.5t6 -65.5l-6 -6q-203 20 -457 20v-239zM499 1650q-35 -13 -62.5 -28t-52.5 -34l285 -117q54 -23 81 -23q10 0 10 10
q0 2 -0.5 3.5t-1.5 3.5t-3.5 5t-6.5 6.5t-10 7.5zM369 410v260h20q38 0 89.5 -1.5t111.5 -3.5t124 -5.5t115 -8.5q-1 7 -2 16t-1.5 18t-0.5 15q0 24 4 50q-220 -19 -440 -19h-20v180q0 242 17 301l4 15h16q250 0 538 -23q-2 23 -2 39q0 10 1 25t2 37q-48 -4 -105 -5h-539
q-48 0 -86 4q10 -78 14 -176t4 -217v-501q0 -255 -17 -393q38 3 85 3h559q57 0 105 -4q-3 33 -2 47q0 12 0.5 26t1.5 28q-309 -23 -559 -23h-16l-4 15q-7 25 -11.5 98t-5 118.5t-0.5 84.5z" />
    <glyph glyph-name="Eacute" unicode="&#xc9;" horiz-adv-x="1101" 
d="M717 1679q88 -41 127 -106l-295 -119q-57 -25 -86 -24q-31 0 -31 30q0 23 31 43zM389 410q0 -240 17 -295q123 0 267 6t227 12l83 6l4 -8q-4 -33 -4 -68q0 -6 4 -63l-4 -6q-49 6 -123 6h-559l-106 -6l-2 6q20 139 20 410v501q0 264 -20 410l4 6q35 -6 104 -6h539
q74 0 123 6l4 -6q-4 -57 -4 -77.5t4 -53.5l-4 -8q-283 25 -557 24q-16 -55 -17 -295v-159q215 0 457 20l6 -6q-6 -29 -6 -65.5t6 -65.5l-6 -6q-203 20 -457 20v-239zM719 1656l-244 -170q-22 -15 -22 -26q0 -10 10 -10q12 0 30 5t48 18l272 109q-34 43 -94 74zM369 410v260
h20q38 0 89.5 -1.5t111.5 -3.5t124 -5.5t115 -8.5q-1 7 -2 16t-1.5 18t-0.5 15q0 24 4 50q-220 -19 -440 -19h-20v180q0 242 17 301l4 15h16q250 0 538 -23q-2 23 -2 39q0 10 1 25t2 37q-48 -4 -105 -5h-539q-48 0 -86 4q10 -78 14 -176t4 -217v-501q0 -255 -17 -393
q38 3 85 3h559q57 0 105 -4q-3 33 -2 47q0 12 0.5 26t1.5 28q-309 -23 -559 -23h-16l-4 15q-7 25 -11.5 98t-5 118.5t-0.5 84.5z" />
    <glyph glyph-name="Ecircumflex" unicode="&#xca;" horiz-adv-x="1101" 
d="M389 410q0 -240 17 -295q123 0 267 6t227 12l83 6l4 -8q-4 -33 -4 -68q0 -6 4 -63l-4 -6q-49 6 -123 6h-559l-106 -6l-2 6q20 139 20 410v501q0 264 -20 410l4 6q35 -6 104 -6h539q74 0 123 6l4 -6q-4 -57 -4 -77.5t4 -53.5l-4 -8q-283 25 -557 24q-16 -55 -17 -295v-159
q215 0 457 20l6 -6q-6 -29 -6 -65.5t6 -65.5l-6 -6q-203 20 -457 20v-239zM649 1649q84 -100 207 -193l-33 -43q-127 59 -217 127q-102 -76 -219 -127l-29 43q88 66 203 193h88zM369 410v260h20q38 0 89.5 -1.5t111.5 -3.5t124 -5.5t115 -8.5q-1 7 -2 16t-1.5 18t-0.5 15
q0 24 4 50q-220 -19 -440 -19h-20v180q0 242 17 301l4 15h16q250 0 538 -23q-2 23 -2 39q0 10 1 25t2 37q-48 -4 -105 -5h-539q-48 0 -86 4q10 -78 14 -176t4 -217v-501q0 -255 -17 -393q38 3 85 3h559q57 0 105 -4q-3 33 -2 47q0 12 0.5 26t1.5 28q-309 -23 -559 -23h-16
l-4 15q-7 25 -11.5 98t-5 118.5t-0.5 84.5zM640 1628h-70q-24 -26 -43.5 -46.5t-42.5 -43.5t-47.5 -44.5t-50.5 -41.5l8 -13q105 48 200 118l12 9l13 -10q45 -34 93 -62t105 -55l10 13q-110 85 -187 176z" />
    <glyph glyph-name="Edieresis" unicode="&#xcb;" horiz-adv-x="1101" 
d="M389 410q0 -240 17 -295q123 0 267 6t227 12l83 6l4 -8q-4 -33 -4 -68q0 -6 4 -63l-4 -6q-49 6 -123 6h-559l-106 -6l-2 6q20 139 20 410v501q0 264 -20 410l4 6q35 -6 104 -6h539q74 0 123 6l4 -6q-4 -57 -4 -77.5t4 -53.5l-4 -8q-283 25 -557 24q-16 -55 -17 -295v-159
q215 0 457 20l6 -6q-6 -29 -6 -65.5t6 -65.5l-6 -6q-203 20 -457 20v-239zM297 1538q0 39 29.5 68.5t68.5 29.5t69 -29.5t30 -68.5t-30 -68.5t-69 -29.5t-68.5 29.5t-29.5 68.5zM684 1538q0 39 28.5 68.5t69.5 29.5t70 -29.5t29 -68.5t-29 -68.5t-70 -29.5t-69.5 29.5
t-28.5 68.5zM369 410v260h20q38 0 89.5 -1.5t111.5 -3.5t124 -5.5t115 -8.5q-1 7 -2 16t-1.5 18t-0.5 15q0 24 4 50q-220 -19 -440 -19h-20v180q0 242 17 301l4 15h16q250 0 538 -23q-2 23 -2 39q0 10 1 25t2 37q-48 -4 -105 -5h-539q-48 0 -86 4q10 -78 14 -176t4 -217
v-501q0 -255 -17 -393q38 3 85 3h559q57 0 105 -4q-3 33 -2 47q0 12 0.5 26t1.5 28q-309 -23 -559 -23h-16l-4 15q-7 25 -11.5 98t-5 118.5t-0.5 84.5zM317 1538q0 -31 24 -54.5t54.5 -23.5t54 23.5t23.5 54.5t-23.5 54.5t-54 23.5t-54.5 -23.5t-24 -54.5zM705 1538
q0 -31 23.5 -54.5t54 -23.5t54 23.5t23.5 54.5t-23.5 54.5t-54 23.5t-54 -23.5t-23.5 -54.5z" />
    <glyph glyph-name="Igrave" unicode="&#xcc;" horiz-adv-x="602" 
d="M203 1673l248 -172q31 -23 30 -43q0 -12 -9 -21.5t-21 -9.5q-31 0 -89 25l-315 129q64 61 156 92zM213 911q0 264 -20 410l4 6q37 -6 104.5 -6t104.5 6l4 -6q-20 -135 -21 -410v-501q0 -264 21 -410l-4 -6q-37 6 -105 6t-104 -6l-4 6q20 139 20 410v501zM200 1650
q-35 -13 -62.5 -28t-52.5 -34l285 -117q28 -12 49 -17.5t31.5 -5.5t10.5 10q0 2 -0.5 4t-2.5 5t-7 7.5t-12 9.5zM233 911v-501q0 -255 -17 -393q43 4 85.5 3.5t85.5 -3.5q-18 143 -18 393v501q0 79 1 143t5.5 131t11.5 119q-43 -4 -86 -4q-11 0 -24.5 0.5t-30 1.5t-31.5 2
q10 -78 14 -176t4 -217z" />
    <glyph glyph-name="Iacute" unicode="&#xcd;" horiz-adv-x="602" 
d="M430 1677q88 -41 127 -106l-295 -119q-57 -25 -86 -25q-31 0 -31 31q0 23 31 43zM213 911q0 264 -20 410l4 6q37 -6 104.5 -6t104.5 6l4 -6q-20 -135 -21 -410v-501q0 -264 21 -410l-4 -6q-37 6 -105 6t-104 -6l-4 6q20 139 20 410v501zM432 1654l-244 -170
q-22 -15 -22 -26q0 -10 10 -10q12 0 30 5t48 18l272 109q-34 43 -94 74zM233 911v-501q0 -255 -17 -393q43 4 85.5 3.5t85.5 -3.5q-18 143 -18 393v501q0 79 1 143t5.5 131t11.5 119q-43 -4 -86 -4q-11 0 -24.5 0.5t-30 1.5t-31.5 2q10 -78 14 -176t4 -217z" />
    <glyph glyph-name="Icircumflex" unicode="&#xce;" horiz-adv-x="602" 
d="M213 911q0 264 -20 410l4 6q37 -6 104.5 -6t104.5 6l4 -6q-20 -135 -21 -410v-501q0 -264 21 -410l-4 -6q-37 6 -105 6t-104 -6l-4 6q20 139 20 410v501zM342 1649q84 -100 207 -193l-33 -43q-127 59 -217 127q-102 -76 -219 -127l-29 43q88 66 203 193h88zM233 911v-501
q0 -255 -17 -393q43 4 85.5 3.5t85.5 -3.5q-18 143 -18 393v501q0 79 1 143t5.5 131t11.5 119q-43 -4 -86 -4q-11 0 -24.5 0.5t-30 1.5t-31.5 2q10 -78 14 -176t4 -217zM332 1628h-69q-103 -112 -184 -176l8 -13q105 48 200 118l12 9l12 -10q84 -64 199 -117l10 13
q-111 85 -188 176z" />
    <glyph glyph-name="Idieresis" unicode="&#xcf;" horiz-adv-x="602" 
d="M213 911q0 264 -20 410l4 6q37 -6 104.5 -6t104.5 6l4 -6q-20 -135 -21 -410v-501q0 -264 21 -410l-4 -6q-37 6 -105 6t-104 -6l-4 6q20 139 20 410v501zM27 1536q0 41 29.5 69.5t68.5 28.5t68.5 -28.5t29.5 -69.5t-29.5 -69.5t-68.5 -28.5t-68.5 28.5t-29.5 69.5z
M414 1536q0 41 28.5 69.5t69.5 28.5t69.5 -28.5t28.5 -69.5t-28.5 -69.5t-69.5 -28.5t-69.5 28.5t-28.5 69.5zM233 911v-501q0 -255 -17 -393q43 4 85.5 3.5t85.5 -3.5q-18 143 -18 393v501q0 79 1 143t5.5 131t11.5 119q-43 -4 -86 -4q-11 0 -24.5 0.5t-30 1.5t-31.5 2
q10 -78 14 -176t4 -217zM47 1536q0 -31 23.5 -54.5t54.5 -23.5t54.5 23.5t23.5 54.5t-23.5 54.5t-54.5 23.5t-54.5 -23.5t-23.5 -54.5zM434 1536q0 -31 23.5 -54.5t54.5 -23.5t54.5 23.5t23.5 54.5t-23.5 54.5t-54.5 23.5t-54.5 -23.5t-23.5 -54.5z" />
    <glyph glyph-name="Eth" unicode="&#xd0;" horiz-adv-x="1454" 
d="M301 1321q66 0 169 3t169 3q295 0 502 -204.5t207 -491.5q0 -145 -43 -259t-110 -182.5t-158 -113.5t-179 -62.5t-182 -17.5q-115 0 -213 2t-162 2l-106 -6l-2 6q20 139 20 410v178h-178v80h178v243q0 264 -20 410l4 6q34 -6 104 -6zM389 168q0 -51 39 -66.5t184 -15.5
q119 0 206 20.5t163 71.5t116 152.5t40 251.5q0 127 -29 236.5t-92.5 207.5t-179 154.5t-275.5 56.5q-86 0 -129 -16.5t-43 -65.5v-487h201v-80h-201v-420zM301 1300q-48 0 -86 4q10 -78 14 -176t4 -217v-264h-178v-39h178v-198q0 -255 -17 -393q38 3 85 3q66 0 164 -2
t211 -2q92 0 177 16.5t174 59.5t153.5 110.5t105.5 177t41 251.5q0 279 -201.5 477.5t-486.5 198.5q-66 0 -169 -3.5t-169 -3.5zM369 168v440h200v39h-200v508q0 63 51 82.5t141 19.5q164 0 285 -59t186.5 -159.5t95 -214t29.5 -242.5q0 -154 -42 -259.5t-122 -159.5
t-170 -75.5t-211 -21.5q-147 0 -195 19.5t-48 82.5z" />
    <glyph glyph-name="Ntilde" unicode="&#xd1;" horiz-adv-x="1470" 
d="M221 1321l4 6q16 -6 86 -6l29 4l702 -909q82 -106 97 -113t20 19q3 15 4 43v546q0 264 -20 410l4 6q37 -6 71.5 -6t71.5 6l4 -6q-12 -160 -19 -335t-9 -290.5t-6.5 -328.5t-6.5 -324q-4 -63 -39 -63q-51 0 -88 49l-714 903q-31 41 -45.5 56.5t-23.5 10t-10 -26t-1 -73.5
v-489q0 -264 20 -410l-4 -6q-37 6 -71.5 6t-71.5 -6l-4 6q25 238 29.5 637t-9.5 684zM854 1520q35 0 58.5 22.5t43.5 83.5l50 -12q-37 -184 -179 -184q-51 0 -131 53q-74 45 -110 45q-39 0 -61.5 -23.5t-39.5 -74.5l-49 10q23 92 61 137t103.5 45t147.5 -57q59 -45 106 -45z
M242 1303q33 -733 -19 -1286q27 3 53 3t53 -3q-7 55 -11 121t-5.5 130t-1.5 142v489q0 8 -0.5 23t-0.5 24.5t0.5 22t3 20.5t6 16t10.5 11.5t16 3.5t16.5 -3t16.5 -12.5t14 -15t17.5 -22t17.5 -23.5l715 -903q30 -41 71 -41q16 0 19 44q2 112 5.5 319.5t6 323t9.5 287.5
t19 330q-27 -3 -54 -4q-7 0 -13.5 0.5l-13 1l-13 1t-13.5 1.5q18 -144 18 -393v-547q-1 -21 -1.5 -29t-4 -25t-12 -23.5t-22.5 -5.5q-9 1 -18.5 6t-17.5 12t-18.5 20t-18.5 24t-21.5 29t-23.5 31l-695 900q-13 -2 -20 -3q-23 0 -39 1t-30 2zM854 1499q-53 0 -118 49
q-76 53 -136 54q-53 0 -85 -34t-54 -113l11 -2q34 95 114 95q20 0 43.5 -8.5t37.5 -16t40 -23.5q37 -24 65.5 -37t54.5 -13q20 0 37 3.5t32 11.5t27.5 20t23.5 28.5t19.5 38t14.5 47.5l-11 3q-14 -37 -31.5 -60t-38 -33t-46.5 -10z" />
    <glyph glyph-name="Ograve" unicode="&#xd2;" horiz-adv-x="1517" 
d="M623 1677l247 -172q31 -23 31 -43q0 -12 -9 -21t-22 -9q-31 0 -88 24l-315 129q64 61 156 92zM1411 674q0 -307 -181 -500.5t-474 -193.5q-272 0 -461 180t-189 475q0 301 186.5 507t461.5 206q281 0 469 -187.5t188 -486.5zM727 1257q-168 0 -289 -144t-121 -443
q0 -281 141.5 -440.5t338.5 -159.5q180 0 291.5 148.5t111.5 416.5q0 311 -125 466.5t-348 155.5zM619 1655q-23 -9 -43 -18.5t-37 -20.5t-34 -24l285 -117q54 -23 80 -23q10 0 11 10q0 2 -1 4t-3 5t-6.5 7.5t-11.5 10.5zM1391 674q0 291 -182.5 472t-454.5 181
q-266 0 -446.5 -199.5t-180.5 -492.5q0 -287 182.5 -461t446.5 -174q285 0 460 186.5t175 487.5zM727 1278q231 0 362.5 -163t131.5 -480q0 -274 -117 -430t-307 -156q-207 0 -353.5 166t-146.5 455q0 305 127 456.5t303 151.5z" />
    <glyph glyph-name="Oacute" unicode="&#xd3;" horiz-adv-x="1517" 
d="M793 1679q88 -41 127 -106l-295 -119q-57 -25 -86 -24q-31 0 -31 30q0 23 31 43zM1411 674q0 -307 -181 -500.5t-474 -193.5q-272 0 -461 180t-189 475q0 301 186.5 507t461.5 206q281 0 469 -187.5t188 -486.5zM727 1257q-168 0 -289 -144t-121 -443
q0 -281 141.5 -440.5t338.5 -159.5q180 0 291.5 148.5t111.5 416.5q0 311 -125 466.5t-348 155.5zM794 1656l-244 -170q-22 -15 -22 -26q0 -10 11 -10q6 0 12 1t15.5 3.5t22 7t28.5 11.5l271 109q-34 43 -94 74zM1391 674q0 291 -182.5 472t-454.5 181q-266 0 -446.5 -199.5
t-180.5 -492.5q0 -287 182.5 -461t446.5 -174q285 0 460 186.5t175 487.5zM727 1278q231 0 362.5 -163t131.5 -480q0 -274 -117 -430t-307 -156q-207 0 -353.5 166t-146.5 455q0 305 127 456.5t303 151.5z" />
    <glyph glyph-name="Ocircumflex" unicode="&#xd4;" horiz-adv-x="1517" 
d="M1411 674q0 -307 -181 -500.5t-474 -193.5q-272 0 -461 180t-189 475q0 301 186.5 507t461.5 206q281 0 469 -187.5t188 -486.5zM727 1257q-168 0 -289 -144t-121 -443q0 -281 141.5 -440.5t338.5 -159.5q180 0 291.5 148.5t111.5 416.5q0 311 -125 466.5t-348 155.5z
M795 1649q84 -100 206 -193l-32 -43q-127 59 -217 127q-102 -76 -220 -127l-28 43q88 66 203 193h88zM1391 674q0 291 -182.5 472t-454.5 181q-266 0 -446.5 -199.5t-180.5 -492.5q0 -287 182.5 -461t446.5 -174q285 0 460 186.5t175 487.5zM727 1278q231 0 362.5 -163
t131.5 -480q0 -274 -117 -430t-307 -156q-207 0 -353.5 166t-146.5 455q0 305 127 456.5t303 151.5zM785 1628h-69q-24 -26 -43.5 -46.5t-43 -43.5t-48 -44.5t-50.5 -41.5l9 -13q105 48 200 118l12 9l12 -10q45 -34 93 -62t105 -55l11 13q-111 85 -188 176z" />
    <glyph glyph-name="Otilde" unicode="&#xd5;" horiz-adv-x="1517" 
d="M1411 674q0 -307 -181 -500.5t-474 -193.5q-272 0 -461 180t-189 475q0 301 186.5 507t461.5 206q281 0 469 -187.5t188 -486.5zM727 1257q-168 0 -289 -144t-121 -443q0 -281 141.5 -440.5t338.5 -159.5q180 0 291.5 148.5t111.5 416.5q0 311 -125 466.5t-348 155.5z
M870 1520q35 0 58.5 22.5t44.5 83.5l49 -12q-37 -184 -178 -184q-51 0 -131 53q-74 45 -111 45q-39 0 -61.5 -23.5t-38.5 -74.5l-49 10q23 92 60.5 137t103 45t147.5 -57q59 -45 106 -45zM1391 674q0 291 -182.5 472t-454.5 181q-266 0 -446.5 -199.5t-180.5 -492.5
q0 -287 182.5 -461t446.5 -174q285 0 460 186.5t175 487.5zM727 1278q231 0 362.5 -163t131.5 -480q0 -274 -117 -430t-307 -156q-207 0 -353.5 166t-146.5 455q0 305 127 456.5t303 151.5zM870 1499q-53 0 -118 49q-76 53 -136 54q-53 0 -85 -34t-53 -113l10 -2
q34 95 114 95q20 0 44 -8.5t38 -16t40 -23.5q37 -24 65.5 -37t54.5 -13q59 0 96.5 35.5t57.5 113.5l-12 3q-14 -37 -31 -60t-38 -33t-47 -10z" />
    <glyph glyph-name="Odieresis" unicode="&#xd6;" horiz-adv-x="1517" 
d="M1411 674q0 -307 -181 -500.5t-474 -193.5q-272 0 -461 180t-189 475q0 301 186.5 507t461.5 206q281 0 469 -187.5t188 -486.5zM727 1257q-168 0 -289 -144t-121 -443q0 -281 141.5 -440.5t338.5 -159.5q180 0 291.5 148.5t111.5 416.5q0 311 -125 466.5t-348 155.5z
M1141 1452q0 39 26.5 65.5t65.5 26.5t65.5 -26.5t26.5 -65.5t-26.5 -65.5t-65.5 -26.5t-65.5 26.5t-26.5 65.5zM193 1452q0 39 27.5 65.5t66.5 26.5t65.5 -26.5t26.5 -65.5t-26.5 -65.5t-65.5 -26.5t-66.5 26.5t-27.5 65.5zM1391 674q0 291 -182.5 472t-454.5 181
q-266 0 -446.5 -199.5t-180.5 -492.5q0 -287 182.5 -461t446.5 -174q285 0 460 186.5t175 487.5zM727 1278q231 0 362.5 -163t131.5 -480q0 -274 -117 -430t-307 -156q-207 0 -353.5 166t-146.5 455q0 305 127 456.5t303 151.5zM1161 1452q0 -31 20.5 -51.5t51.5 -20.5
t51.5 20.5t20.5 51.5t-20.5 51.5t-51.5 20.5t-51.5 -20.5t-20.5 -51.5zM213 1452q0 -29 21.5 -50.5t52 -21.5t51 20.5t20.5 51.5t-20.5 51.5t-51 20.5t-52 -21.5t-21.5 -50.5z" />
    <glyph glyph-name="multiply" unicode="&#xd7;" horiz-adv-x="1079" 
d="M610 471l252 -250l-71 -71l-250 249l-250 -249l-74 71l252 250l-252 252l74 72l250 -252l250 252l71 -72zM581 471l252 252l-42 43l-250 -252l-250 252l-45 -43l252 -252l-252 -250l45 -43l250 250l250 -250l42 43z" />
    <glyph glyph-name="Oslash" unicode="&#xd8;" horiz-adv-x="1517" 
d="M1103 1062l-659 -814q67 -87 159 -132.5t194 -45.5q180 0 291.5 148.5t111.5 416.5q0 270 -97 427zM727 1257q-168 0 -289 -144t-121 -443q0 -191 72 -334l653 804q-119 117 -315 117zM221 -27q-27 0 -48 20.5t-26 45.5l121 149q-162 180 -162 447q0 301 186.5 507
t461.5 206q208 0 370 -107l86 107q29 0 49.5 -18.5t24.5 -43.5l-84 -104q211 -191 211 -508q0 -307 -181 -500.5t-474 -193.5q-240 0 -416 140zM1105 1097l15 -24q100 -162 101 -438q0 -274 -117 -430t-307 -156q-106 0 -203 48t-167 139l-9 12zM727 1278q205 0 329 -124
l13 -13l-684 -843l-15 29q-73 147 -73 343q0 305 127 456.5t303 151.5zM212 -5l125 154l16 -13q170 -136 403 -136q285 0 460 186.5t175 487.5q0 308 -205 493l-14 13l90 111q-11 29 -43 35l-91 -112l-15 10q-158 103 -359 103q-266 0 -446.5 -199.5t-180.5 -492.5
q0 -259 157 -434l11 -13l-125 -154q15 -31 42 -39z" />
    <glyph glyph-name="Ugrave" unicode="&#xd9;" horiz-adv-x="1417" 
d="M688 1675l248 -172q31 -23 31 -43q0 -12 -9.5 -21t-21.5 -9q-31 0 -88 24l-316 129q64 61 156 92zM1114 911q0 264 -20 410l4 6q37 -6 71.5 -6t71.5 6l4 -6q-20 -135 -20 -410v-307q0 -299 -120 -461.5t-415 -162.5q-80 0 -154.5 21.5t-151.5 72.5t-124 156.5t-47 252.5
v428q0 264 -20 410l4 6q37 -6 104.5 -6t104.5 6l4 -6q-20 -135 -21 -410v-360q0 -457 344 -457q100 0 172 29t112 71t62.5 109.5t28.5 125.5t6 138v344zM685 1652q-23 -9 -43.5 -18.5t-37.5 -20t-33 -23.5l285 -117q54 -23 80 -23q10 0 10 10q0 9 -17 23q-2 2 -5 4z
M1135 911v-344q0 -80 -6.5 -140t-31 -131t-66.5 -116t-117.5 -75.5t-180.5 -30.5q-365 0 -364 477v360q0 79 1 143t5.5 131t11.5 119q-43 -4 -86 -4q-11 0 -24.5 0.5t-30 1.5t-31.5 2q10 -78 14 -176t4 -217v-428q0 -143 45.5 -244.5t119 -149.5t144 -68.5t148.5 -20.5
q287 0 400.5 154.5t113.5 449.5v307q0 256 18 393q-27 -3 -53 -4q-7 0 -13 0.5t-12.5 1l-13 1t-13.5 1.5q18 -145 18 -393z" />
    <glyph glyph-name="Uacute" unicode="&#xda;" horiz-adv-x="1417" 
d="M870 1677q88 -41 127 -106l-295 -119q-57 -25 -86 -25q-31 0 -30 31q0 23 30 43zM1114 911q0 264 -20 410l4 6q37 -6 71.5 -6t71.5 6l4 -6q-20 -135 -20 -410v-307q0 -299 -120 -461.5t-415 -162.5q-80 0 -154.5 21.5t-151.5 72.5t-124 156.5t-47 252.5v428
q0 264 -20 410l4 6q37 -6 104.5 -6t104.5 6l4 -6q-20 -135 -21 -410v-360q0 -457 344 -457q100 0 172 29t112 71t62.5 109.5t28.5 125.5t6 138v344zM872 1654l-244 -170q-22 -15 -22 -26q0 -10 10 -10q7 0 17 2t25.5 7t36.5 14l271 109q-34 43 -94 74zM1135 911v-344
q0 -80 -6.5 -140t-31 -131t-66.5 -116t-117.5 -75.5t-180.5 -30.5q-365 0 -364 477v360q0 79 1 143t5.5 131t11.5 119q-43 -4 -86 -4q-11 0 -24.5 0.5t-30 1.5t-31.5 2q10 -78 14 -176t4 -217v-428q0 -143 45.5 -244.5t119 -149.5t144 -68.5t148.5 -20.5q287 0 400.5 154.5
t113.5 449.5v307q0 256 18 393q-27 -3 -53 -4q-7 0 -13 0.5t-12.5 1l-13 1t-13.5 1.5q18 -145 18 -393z" />
    <glyph glyph-name="Ucircumflex" unicode="&#xdb;" horiz-adv-x="1417" 
d="M819 1649q84 -100 207 -193l-33 -43q-127 59 -217 127q-102 -76 -219 -127l-29 43q88 66 203 193h88zM1114 911q0 264 -20 410l4 6q37 -6 71.5 -6t71.5 6l4 -6q-20 -135 -20 -410v-307q0 -299 -120 -461.5t-415 -162.5q-80 0 -154.5 21.5t-151.5 72.5t-124 156.5
t-47 252.5v428q0 264 -20 410l4 6q37 -6 104.5 -6t104.5 6l4 -6q-20 -135 -21 -410v-360q0 -457 344 -457q100 0 172 29t112 71t62.5 109.5t28.5 125.5t6 138v344zM810 1628h-70q-50 -55 -92.5 -96.5t-91.5 -79.5l8 -13q105 48 200 118l12 9l13 -10q18 -14 37 -27t38 -24.5
t39.5 -23t40.5 -22t43 -20.5l10 13q-110 85 -187 176zM1135 911v-344q0 -80 -6.5 -140t-31 -131t-66.5 -116t-117.5 -75.5t-180.5 -30.5q-365 0 -364 477v360q0 79 1 143t5.5 131t11.5 119q-43 -4 -86 -4q-11 0 -24.5 0.5t-30 1.5t-31.5 2q10 -78 14 -176t4 -217v-428
q0 -143 45.5 -244.5t119 -149.5t144 -68.5t148.5 -20.5q287 0 400.5 154.5t113.5 449.5v307q0 256 18 393q-27 -3 -53 -4q-7 0 -13 0.5t-12.5 1l-13 1t-13.5 1.5q18 -145 18 -393z" />
    <glyph glyph-name="Udieresis" unicode="&#xdc;" horiz-adv-x="1417" 
d="M1114 911q0 264 -20 410l4 6q37 -6 71.5 -6t71.5 6l4 -6q-20 -135 -20 -410v-307q0 -299 -120 -461.5t-415 -162.5q-80 0 -154.5 21.5t-151.5 72.5t-124 156.5t-47 252.5v428q0 264 -20 410l4 6q37 -6 104.5 -6t104.5 6l4 -6q-20 -135 -21 -410v-360q0 -457 344 -457
q100 0 172 29t112 71t62.5 109.5t28.5 125.5t6 138v344zM848 1452q0 39 26.5 65.5t65.5 26.5t65.5 -26.5t26.5 -65.5t-26.5 -65.5t-65.5 -26.5t-65.5 26.5t-26.5 65.5zM492 1452q0 39 26.5 65.5t65.5 26.5t65.5 -26.5t26.5 -65.5t-26.5 -65.5t-65.5 -26.5t-65.5 26.5
t-26.5 65.5zM1135 911v-344q0 -80 -6.5 -140t-31 -131t-66.5 -116t-117.5 -75.5t-180.5 -30.5q-365 0 -364 477v360q0 79 1 143t5.5 131t11.5 119q-43 -4 -86 -4q-11 0 -24.5 0.5t-30 1.5t-31.5 2q10 -78 14 -176t4 -217v-428q0 -143 45.5 -244.5t119 -149.5t144 -68.5
t148.5 -20.5q287 0 400.5 154.5t113.5 449.5v307q0 256 18 393q-27 -3 -53 -4q-7 0 -13 0.5t-12.5 1l-13 1t-13.5 1.5q18 -145 18 -393zM868 1452q0 -31 20.5 -51.5t51.5 -20.5t51.5 20.5t20.5 51.5t-20.5 51.5t-51.5 20.5t-51.5 -20.5t-20.5 -51.5zM512 1452
q0 -31 20.5 -51.5t51 -20.5t51 20.5t20.5 51.5t-20.5 51.5t-51 20.5t-51 -20.5t-20.5 -51.5z" />
    <glyph glyph-name="Yacute" unicode="&#xdd;" horiz-adv-x="1177" 
d="M737 1679q88 -41 127 -106l-295 -119q-57 -25 -86 -24q-31 0 -30 30q0 23 30 43zM682 584q4 -475 14 -590q-37 6 -102.5 6t-101.5 -6q14 158 14 569q-61 104 -237.5 390t-235.5 374q51 -6 117 -6q63 0 116 6q49 -96 359 -631q229 360 358 631q37 -6 86 -6q45 0 86 6
q-63 -98 -161.5 -246.5t-140.5 -213t-91 -144.5t-80 -139zM739 1656l-244 -170q-22 -15 -22 -26q0 -10 10 -10q12 0 30.5 5t47.5 18l272 109q-34 43 -94 74zM662 583l-1 6l3 4q29 57 77.5 136.5t85.5 137t135 205.5t152 230q-11 -1 -23 -1.5t-22 -0.5q-38 0 -74 5
q-70 -146 -162 -304.5t-191 -315.5l-18 -28l-17 29q-30 52 -113.5 194t-136.5 236t-103 189q-16 -1 -34.5 -2t-36.5 -2t-33 -1q-37 0 -77 3q76 -118 235.5 -376.5t215.5 -352.5l2 -5v-6q0 -73 -0.5 -147.5t-2 -148t-4 -139.5t-5.5 -111q13 1 28.5 2t28.5 1h23h16.5t20 -0.5
t22 -1t21.5 -1.5q-5 76 -7.5 232.5t-4.5 333.5z" />
    <glyph glyph-name="Thorn" unicode="&#xde;" horiz-adv-x="1116" 
d="M389 394q16 -4 52 -6.5t89 -2.5q299 0 299 317q0 291 -262 291q-96 0 -178 -21v-61v-501v-16zM213 911q0 264 -20 410l4 6q37 -6 104.5 -6t104.5 6l4 -6q-14 -93 -19 -247q71 4 178 3q133 0 230.5 -36.5t143.5 -97t66.5 -120t20.5 -121.5q0 -49 -15.5 -101t-52 -106.5
t-91 -96.5t-140.5 -69.5t-190 -27.5q-107 0 -151 13q3 -192 20 -314l-4 -6q-37 6 -105 6t-104 -6l-4 6q20 139 20 410v501zM384 374l-15 4v533v61v16l15 4q34 9 92 15.5t91 6.5q119 0 201 -68.5t82 -243.5q0 -338 -320 -337q-37 0 -65 1t-48 3t-33 5zM233 911v-501
q0 -255 -17 -393q43 4 85 3q17 0 40.5 -0.5t45.5 -2.5q-15 119 -18 297v27l27 -7q41 -12 145 -12q125 0 221 38.5t147.5 99t76 122t24.5 121t-18.5 114.5t-62.5 112.5t-137.5 92.5t-222.5 35q-106 0 -177 -4l-22 -1l1 22q4 139 16 230q-18 -2 -44 -3t-42 -1q-11 0 -24.5 0.5
t-30 1.5t-31.5 2q10 -78 14 -176t4 -217z" />
    <glyph glyph-name="germandbls" unicode="&#xdf;" horiz-adv-x="1116" 
d="M707 -20q-121 0 -213 57l-2 6q14 25 38 119l23 2q18 -35 65.5 -69t88.5 -34q135 0 135 238q0 133 -79 273.5t-208 238.5v27q104 80 144 153.5t40 184.5q0 172 -159 172q-45 0 -79 -14.5t-56.5 -34t-38 -58.5t-23.5 -67.5t-11 -85t-4 -88t-1 -95.5v-495q0 -283 18 -410
l-4 -6q-37 6 -96.5 6t-96.5 -6l-4 6q18 125 19 410v350q0 18 -5 23t-20 5h-86q-20 0 -16 17l14 53q6 20 47 21q45 0 55.5 17t10.5 81q0 121 38 213t99 141t126.5 74t131.5 25q147 0 225 -71t78 -157q0 -117 -46 -196.5t-157 -163.5v-4q139 -92 231.5 -221.5t92.5 -282.5
q0 -159 -68 -248q-82 -106 -247 -106zM707 0q155 0 231 98q64 83 63 236q0 101 -47 197t-114 164.5t-153 125.5l-9 6v25l8 6q72 55 113.5 104t61.5 106.5t20 133.5t-72 141.5t-211 65.5q-49 0 -98 -13.5t-99.5 -45t-89.5 -79.5t-63.5 -124t-24.5 -170q0 -66 -16.5 -92.5
t-69.5 -26.5q-11 0 -17 -0.5t-9 -2.5q0 -1 -1 -2l-12 -44h80q45 0 45 -49v-350q0 -131 -3 -224t-13 -169q40 4 78 3h22.5t26 -1t28.5 -2q-16 124 -16 393v495q0 76 1 111t7 102.5t20.5 101t39 73.5t66.5 57.5t100 17.5q88 0 134 -51t46 -141q0 -114 -41 -190.5t-144 -157.5
v-7q85 -66 150 -152.5t101 -182.5t36 -187q0 -258 -155 -258q-30 0 -63 15.5t-57 36.5t-42 45l-2.5 -12.5t-2.5 -12t-3 -11t-3 -11t-3 -10.5t-4 -11t-4.5 -11t-5.5 -12q95 -47 190 -47z" />
    <glyph glyph-name="agrave" unicode="&#xe0;" horiz-adv-x="985" 
d="M635 98h-8q-82 -70 -138.5 -94t-140.5 -24q-119 0 -187.5 55t-68.5 166q0 104 91 183t249 114l191 43q14 4 14 24q0 66 -14.5 114t-33 71.5t-49 37t-51 16.5t-49.5 3q-117 0 -225 -174l-27 2l-34 137l6 8q141 119 301 119q338 0 338 -332q0 -7 -1 -49.5t-2 -91t-2 -98.5
t-1 -70q0 -129 34 -160q17 -15 60 -15q25 0 55 11l16 -51q-60 -63 -163 -63q-58 0 -100.5 30t-59.5 88zM635 461l-174 -47q-113 -31 -158 -81t-45 -124q0 -49 42 -87t110 -38q82 0 188 80q29 20 29 53zM401 1374l144 -258q12 -25 12 -49q0 -8 -9 -15.5t-22 -7.5
q-16 0 -59 41l-234 224l5 22q63 47 133 47q14 0 30 -4zM650 119l5 -15q30 -104 140 -104q39 0 74.5 11t65.5 38l-6 19q-11 -3 -21.5 -4.5t-20.5 -1.5q-51 0 -74 21q-41 37 -40 175q0 35 2.5 169t2.5 140q0 311 -317 312q-67 0 -128 -21t-91 -41t-66 -50l29 -112
q50 78 106 125t129 47q39 0 69 -7t67.5 -30.5t59 -81t21.5 -143.5q0 -7 -1.5 -13t-4 -10.5t-6 -9t-7.5 -7t-9 -4.5h-1l-191 -43q-76 -17 -137.5 -45.5t-102.5 -64t-62.5 -78.5t-21.5 -89q0 -201 235 -201q80 0 132 22.5t133 91.5l6 5h31zM656 488l-9 -271q0 -42 -37 -70
q-113 -84 -200 -84q-74 0 -123 43.5t-49 102.5q0 81 49.5 137t167.5 87zM388 1356l-17 2q-61 0 -115 -38v-4l225 -216q38 -35 45 -35l11 4q0 19 -10 38z" />
    <glyph glyph-name="aacute" unicode="&#xe1;" horiz-adv-x="985" 
d="M635 98h-8q-82 -70 -138.5 -94t-140.5 -24q-119 0 -187.5 55t-68.5 166q0 104 91 183t249 114l191 43q14 4 14 24q0 66 -14.5 114t-33 71.5t-49 37t-51 16.5t-49.5 3q-117 0 -225 -174l-27 2l-34 137l6 8q141 119 301 119q338 0 338 -332q0 -7 -1 -49.5t-2 -91t-2 -98.5
t-1 -70q0 -129 34 -160q17 -15 60 -15q25 0 55 11l16 -51q-60 -63 -163 -63q-58 0 -100.5 30t-59.5 88zM635 461l-174 -47q-113 -31 -158 -81t-45 -124q0 -49 42 -87t110 -38q82 0 188 80q29 20 29 53zM500 1374q12 4 28 4q63 0 113 -47l6 -22l-235 -224q-39 -39 -62 -38
q-10 0 -19 8t-9 18q0 20 23 57zM650 119l5 -15q30 -104 140 -104q39 0 74.5 11t65.5 38l-6 19q-11 -3 -21.5 -4.5t-20.5 -1.5q-51 0 -74 21q-41 37 -40 175q0 35 2.5 169t2.5 140q0 311 -317 312q-67 0 -128 -21t-91 -41t-66 -50l29 -112q50 78 106 125t129 47q39 0 69 -7
t67.5 -30.5t59 -81t21.5 -143.5q0 -7 -1.5 -13t-4 -10.5t-6 -9t-7.5 -7t-9 -4.5h-1l-191 -43q-76 -17 -137.5 -45.5t-102.5 -64t-62.5 -78.5t-21.5 -89q0 -201 235 -201q80 0 132 22.5t133 91.5l6 5h31zM656 488l-9 -271q0 -42 -37 -70q-113 -84 -200 -84q-74 0 -123 43.5
t-49 102.5q0 81 49.5 137t167.5 87zM513 1356l-151 -236q-2 -4 -6.5 -10.5t-5.5 -8.5l-3 -6t-2.5 -5.5l-1.5 -4.5t-1 -5.5v-6.5q0 -6 8 -6q14 0 47 33l227 215l-1 5q-44 38 -95 38z" />
    <glyph glyph-name="acircumflex" unicode="&#xe2;" horiz-adv-x="985" 
d="M635 98h-8q-82 -70 -138.5 -94t-140.5 -24q-119 0 -187.5 55t-68.5 166q0 104 91 183t249 114l191 43q14 4 14 24q0 66 -14.5 114t-33 71.5t-49 37t-51 16.5t-49.5 3q-117 0 -225 -174l-27 2l-34 137l6 8q141 119 301 119q338 0 338 -332q0 -7 -1 -49.5t-2 -91t-2 -98.5
t-1 -70q0 -129 34 -160q17 -15 60 -15q25 0 55 11l16 -51q-60 -63 -163 -63q-58 0 -100.5 30t-59.5 88zM635 461l-174 -47q-113 -31 -158 -81t-45 -124q0 -49 42 -87t110 -38q82 0 188 80q29 20 29 53zM492 1323q68 -109 206 -264l-43 -29q-145 106 -217 184
q-90 -92 -219 -184l-41 29q147 164 211 264h103zM650 119l5 -15q30 -104 140 -104q39 0 74.5 11t65.5 38l-6 19q-11 -3 -21.5 -4.5t-20.5 -1.5q-51 0 -74 21q-41 37 -40 175q0 35 2.5 169t2.5 140q0 311 -317 312q-67 0 -128 -21t-91 -41t-66 -50l29 -112q50 78 106 125
t129 47q39 0 69 -7t67.5 -30.5t59 -81t21.5 -143.5q0 -7 -1.5 -13t-4 -10.5t-6 -9t-7.5 -7t-9 -4.5h-1l-191 -43q-76 -17 -137.5 -45.5t-102.5 -64t-62.5 -78.5t-21.5 -89q0 -201 235 -201q80 0 132 22.5t133 91.5l6 5h31zM656 488l-9 -271q0 -42 -37 -70q-113 -84 -200 -84
q-74 0 -123 43.5t-49 102.5q0 81 49.5 137t167.5 87zM480 1303h-80q-62 -96 -191 -241l10 -7q118 85 205 174l14 15l15 -15q44 -47 90 -85.5t113 -88.5l11 8q-57 64 -103 121.5t-84 118.5z" />
    <glyph glyph-name="atilde" unicode="&#xe3;" horiz-adv-x="985" 
d="M635 98h-8q-82 -70 -138.5 -94t-140.5 -24q-119 0 -187.5 55t-68.5 166q0 104 91 183t249 114l191 43q14 4 14 24q0 66 -14.5 114t-33 71.5t-49 37t-51 16.5t-49.5 3q-117 0 -225 -174l-27 2l-34 137l6 8q141 119 301 119q338 0 338 -332q0 -7 -1 -49.5t-2 -91t-2 -98.5
t-1 -70q0 -129 34 -160q17 -15 60 -15q25 0 55 11l16 -51q-60 -63 -163 -63q-58 0 -100.5 30t-59.5 88zM635 461l-174 -47q-113 -31 -158 -81t-45 -124q0 -49 42 -87t110 -38q82 0 188 80q29 20 29 53zM580 1167q35 0 58.5 22.5t43.5 84.5l49 -12q-37 -184 -178 -185
q-51 0 -131 53q-74 45 -111 46q-39 0 -61.5 -24t-38.5 -75l-49 10q23 92 60.5 137.5t103 45.5t147.5 -58q60 -45 107 -45zM650 119l5 -15q30 -104 140 -104q39 0 74.5 11t65.5 38l-6 19q-11 -3 -21.5 -4.5t-20.5 -1.5q-51 0 -74 21q-41 37 -40 175q0 35 2.5 169t2.5 140
q0 311 -317 312q-67 0 -128 -21t-91 -41t-66 -50l29 -112q50 78 106 125t129 47q39 0 69 -7t67.5 -30.5t59 -81t21.5 -143.5q0 -7 -1.5 -13t-4 -10.5t-6 -9t-7.5 -7t-9 -4.5h-1l-191 -43q-76 -17 -137.5 -45.5t-102.5 -64t-62.5 -78.5t-21.5 -89q0 -201 235 -201
q80 0 132 22.5t133 91.5l6 5h31zM656 488l-9 -271q0 -42 -37 -70q-113 -84 -200 -84q-74 0 -123 43.5t-49 102.5q0 81 49.5 137t167.5 87zM580 1147q-53 0 -119 49q-76 53 -135 53q-35 0 -61 -14.5t-45 -46.5t-33 -85l10 -2q34 95 114 95q43 0 122 -48q75 -50 120 -50
q59 0 97 35.5t57 113.5l-12 2q-21 -55 -48 -78.5t-67 -23.5z" />
    <glyph glyph-name="adieresis" unicode="&#xe4;" horiz-adv-x="985" 
d="M635 98h-8q-82 -70 -138.5 -94t-140.5 -24q-119 0 -187.5 55t-68.5 166q0 104 91 183t249 114l191 43q14 4 14 24q0 66 -14.5 114t-33 71.5t-49 37t-51 16.5t-49.5 3q-117 0 -225 -174l-27 2l-34 137l6 8q141 119 301 119q338 0 338 -332q0 -7 -1 -49.5t-2 -91t-2 -98.5
t-1 -70q0 -129 34 -160q17 -15 60 -15q25 0 55 11l16 -51q-60 -63 -163 -63q-58 0 -100.5 30t-59.5 88zM635 461l-174 -47q-113 -31 -158 -81t-45 -124q0 -49 42 -87t110 -38q82 0 188 80q29 20 29 53zM516 1176q0 41 28.5 69.5t67.5 28.5t68 -28.5t29 -69.5t-29 -69
t-68 -28t-67.5 28t-28.5 69zM170 1176q0 41 28.5 69.5t67.5 28.5t67.5 -28.5t28.5 -69.5t-27.5 -69t-68.5 -28t-68.5 28t-27.5 69zM650 119l5 -15q30 -104 140 -104q39 0 74.5 11t65.5 38l-6 19q-11 -3 -21.5 -4.5t-20.5 -1.5q-51 0 -74 21q-41 37 -40 175q0 35 2.5 169
t2.5 140q0 311 -317 312q-67 0 -128 -21t-91 -41t-66 -50l29 -112q50 78 106 125t129 47q39 0 69 -7t67.5 -30.5t59 -81t21.5 -143.5q0 -7 -1.5 -13t-4 -10.5t-6 -9t-7.5 -7t-9 -4.5h-1l-191 -43q-76 -17 -137.5 -45.5t-102.5 -64t-62.5 -78.5t-21.5 -89q0 -201 235 -201
q80 0 132 22.5t133 91.5l6 5h31zM656 488l-9 -271q0 -42 -37 -70q-113 -84 -200 -84q-74 0 -123 43.5t-49 102.5q0 81 49.5 137t167.5 87zM537 1176q0 -31 22.5 -53.5t53 -22.5t53 22.5t22.5 53.5q0 33 -22.5 55t-53 22t-53 -22t-22.5 -55zM190 1176q0 -31 23 -53.5
t53.5 -22.5t53 22.5t22.5 53.5q0 33 -22.5 55t-53 22t-53.5 -22t-23 -55z" />
    <glyph glyph-name="aring" unicode="&#xe5;" horiz-adv-x="985" 
d="M635 98h-8q-82 -70 -138.5 -94t-140.5 -24q-119 0 -187.5 55t-68.5 166q0 104 91 183t249 114l191 43q14 4 14 24q0 66 -14.5 114t-33 71.5t-49 37t-51 16.5t-49.5 3q-117 0 -225 -174l-27 2l-34 137l6 8q141 119 301 119q338 0 338 -332q0 -7 -1 -49.5t-2 -91t-2 -98.5
t-1 -70q0 -129 34 -160q17 -15 60 -15q25 0 55 11l16 -51q-60 -63 -163 -63q-58 0 -100.5 30t-59.5 88zM635 461l-174 -47q-113 -31 -158 -81t-45 -124q0 -49 42 -87t110 -38q82 0 188 80q29 20 29 53zM252 1192q0 70 53 120t125 50t125 -49t53 -121q0 -70 -52 -120
t-126 -50q-72 0 -125 50t-53 120zM430 1307q-47 0 -74.5 -34t-27.5 -81q0 -45 28.5 -80t73.5 -35t73.5 35t28.5 80q0 49 -28.5 82t-73.5 33zM650 119l5 -15q30 -104 140 -104q39 0 74.5 11t65.5 38l-6 19q-11 -3 -21.5 -4.5t-20.5 -1.5q-51 0 -74 21q-41 37 -40 175
q0 35 2.5 169t2.5 140q0 311 -317 312q-67 0 -128 -21t-91 -41t-66 -50l29 -112q50 78 106 125t129 47q39 0 69 -7t67.5 -30.5t59 -81t21.5 -143.5q0 -7 -1.5 -13t-4 -10.5t-6 -9t-7.5 -7t-9 -4.5h-1l-191 -43q-76 -17 -137.5 -45.5t-102.5 -64t-62.5 -78.5t-21.5 -89
q0 -201 235 -201q80 0 132 22.5t133 91.5l6 5h31zM656 488l-9 -271q0 -42 -37 -70q-113 -84 -200 -84q-74 0 -123 43.5t-49 102.5q0 81 49.5 137t167.5 87zM272 1191.5q0 -61.5 47.5 -105.5t110.5 -44q66 0 112 44t46 105.5t-47 105.5t-110.5 44t-111 -44t-47.5 -105.5z
M430 1327q55 0 89 -40t34 -95q0 -53 -34 -94t-89 -41t-89 41t-34 94q0 55 34 95t89 40z" />
    <glyph glyph-name="ae" unicode="&#xe6;" horiz-adv-x="1406" 
d="M414 807q-63 0 -125 -52.5t-107 -129.5l-26 2l-33 137l6 8q152 127 303 127q201 0 281 -143q104 143 291 143q82 0 147.5 -30.5t100 -77t53 -87t18.5 -71.5q0 -102 -53 -148q-33 -18 -89.5 -23t-189.5 -8t-225 -8q0 -162 69.5 -259t184.5 -97q133 0 252 139l41 -57
q-45 -84 -133 -138t-189 -54q-66 0 -117 13t-86.5 39.5t-51 42t-40.5 46.5q-147 -141 -307 -141q-309 0 -309 227q0 131 135 214t391 101q-2 152 -42.5 218.5t-149.5 66.5zM768 528q53 2 110.5 3t91.5 1t68.5 2.5t53 6.5t34 14t20.5 27.5t5 44.5q0 59 -41 119.5t-109 60.5
q-96 0 -158.5 -74t-74.5 -205zM606 440q-358 -33 -358 -223q0 -135 145 -135q59 0 114.5 32.5t76.5 90.5q22 63 22 235zM414 827q118 0 164.5 -75t48.5 -229v-20l-19 -1q-252 -18 -380 -97.5t-128 -197.5q0 -207 289 -207q151 0 293 136l16 15l14 -17q24 -30 38 -44t48 -40
t82 -38t111 -12q90 0 171 47t127 124l-19 26q-117 -127 -250 -127q-125 0 -200 104.5t-75 271.5v20l20 1q83 5 181 7.5t148 3.5t95.5 6.5t68.5 17.5q24 21 34.5 52.5t10.5 78.5q0 70 -78 158t-221 88q-41 0 -80.5 -9t-74.5 -26t-65.5 -42.5t-54.5 -57.5l-19 -26l-15 28
q-24 44 -62 73.5t-79.5 40.5t-68 15t-53.5 4q-143 0 -287 -120l27 -112q46 76 109.5 128t132.5 52zM769 508l-24 -1l3 23q13 136 80 216.5t173 80.5q78 0 124 -67.5t46 -132.5q0 -32 -7 -53t-25.5 -33.5t-39.5 -18.5t-58.5 -8t-72.5 -2t-92 -0.5t-107 -3.5zM604 461l23 2
v-23q0 -31 -1 -61t-3 -57t-5 -50.5t-7 -42.5t-8 -31q-23 -64 -84 -100.5t-126 -36.5q-166 0 -166 156q0 97 90.5 161.5t286.5 82.5z" />
    <glyph glyph-name="ccedilla" unicode="&#xe7;" horiz-adv-x="878" 
d="M477 -193q-53 0 -92 -12l-12 12l72 175q-169 15 -268 139.5t-99 324.5q0 199 133 326t303 127q162 0 272 -57l5 -6l-48 -168l-26 -2q-88 152 -205 151q-106 0 -180 -98t-74 -262q0 -174 75 -274.5t191 -100.5q123 0 219 86h9l39 -43q-56 -71 -123.5 -106t-152.5 -39
l-42 -113q25 6 53 6q63 0 104.5 -35t41.5 -92q0 -66 -62.5 -109t-156.5 -43q-72 0 -152 35q0 33 21 54q78 -29 118 -29q47 0 76 21.5t29 60.5q0 71 -68 71zM477 -172q43 0 65.5 -25.5t22.5 -66.5q0 -49 -35.5 -76t-89.5 -27q-44 0 -112 25q-4 -7 -6 -16q65 -27 131 -27
q88 0 143 38t55 93q0 47 -34.5 77t-90.5 30q-5 0 -10 -0.5l-10 -1t-9.5 -1t-9.5 -1.5t-9 -2l-38 -9l61 162l13 1q51 3 93.5 15.5t81.5 39t75 68.5l-18 19q-97 -82 -222 -82q-127 0 -206.5 107.5t-79.5 288.5q0 170 78.5 275.5t195.5 105.5q123 0 216 -151l39 141
q-47 22 -116 36.5t-137 14.5q-162 0 -289 -121t-127 -312q0 -193 94 -311.5t255 -132.5l28 -3l-75 -178q8 2 17 3t18.5 2t19.5 1.5t22 0.5z" />
    <glyph glyph-name="egrave" unicode="&#xe8;" horiz-adv-x="927" 
d="M803 213l41 -51q-59 -82 -153.5 -132t-203.5 -50q-213 0 -325 135q-92 111 -92 313q0 213 130 342t289 129q184 0 269.5 -116.5t85.5 -270.5q0 -35 -37 -35h-557q0 -182 49 -260q74 -117 223 -117q177 0 281 113zM256 559h377q29 0 29 29q0 106 -54.5 167.5t-118.5 61.5
q-23 0 -52 -11t-67 -37t-70 -81t-44 -129zM430 1374l143 -258q12 -25 13 -49q0 -8 -9.5 -15.5t-21.5 -7.5q-16 0 -59 41l-234 224l4 22q63 47 133 47q15 0 31 -4zM801 182q-108 -102 -279 -102q-66 0 -132 29.5t-108 96.5q-52 83 -53 271v21h578q16 0 16 14q0 147 -79.5 257
t-254.5 110q-152 0 -275.5 -123t-123.5 -328q0 -195 88 -300q106 -128 309 -128q98 0 185 44t146 117zM232 539l4 23q13 78 46.5 136.5t74 86.5t74 40.5t58.5 12.5q72 0 132.5 -68t60.5 -182q0 -20 -13.5 -34.5t-35.5 -14.5h-401zM417 1356q-4 1 -9 1.5t-9 0.5
q-61 0 -114 -38l-1 -4l226 -216q38 -35 45 -35l10 4q0 19 -10 38z" />
    <glyph glyph-name="eacute" unicode="&#xe9;" horiz-adv-x="927" 
d="M803 213l41 -51q-59 -82 -153.5 -132t-203.5 -50q-213 0 -325 135q-92 111 -92 313q0 213 130 342t289 129q184 0 269.5 -116.5t85.5 -270.5q0 -35 -37 -35h-557q0 -182 49 -260q74 -117 223 -117q177 0 281 113zM256 559h377q29 0 29 29q0 106 -54.5 167.5t-118.5 61.5
q-23 0 -52 -11t-67 -37t-70 -81t-44 -129zM553 1374q12 4 29 4q63 0 112 -47l6 -22l-235 -224q-39 -39 -62 -38q-10 0 -19 8t-9 18q0 20 23 57zM801 182q-108 -102 -279 -102q-66 0 -132 29.5t-108 96.5q-52 83 -53 271v21h578q16 0 16 14q0 147 -79.5 257t-254.5 110
q-152 0 -275.5 -123t-123.5 -328q0 -195 88 -300q106 -128 309 -128q98 0 185 44t146 117zM232 539l4 23q13 78 46.5 136.5t74 86.5t74 40.5t58.5 12.5q72 0 132.5 -68t60.5 -182q0 -20 -13.5 -34.5t-35.5 -14.5h-401zM566 1356l-151 -236q-2 -4 -6 -10.5t-5 -8.5t-3.5 -6
t-3 -5.5l-1.5 -4.5t-1 -5.5v-6.5q0 -6 8 -6q14 0 48 33l226 215l-1 5q-44 38 -94 38z" />
    <glyph glyph-name="ecircumflex" unicode="&#xea;" horiz-adv-x="927" 
d="M803 213l41 -51q-59 -82 -153.5 -132t-203.5 -50q-213 0 -325 135q-92 111 -92 313q0 213 130 342t289 129q184 0 269.5 -116.5t85.5 -270.5q0 -35 -37 -35h-557q0 -182 49 -260q74 -117 223 -117q177 0 281 113zM256 559h377q29 0 29 29q0 106 -54.5 167.5t-118.5 61.5
q-23 0 -52 -11t-67 -37t-70 -81t-44 -129zM528 1323q68 -109 207 -264l-43 -29q-145 106 -217 184q-90 -92 -219 -184l-41 29q147 164 211 264h102zM801 182q-108 -102 -279 -102q-66 0 -132 29.5t-108 96.5q-52 83 -53 271v21h578q16 0 16 14q0 147 -79.5 257t-254.5 110
q-152 0 -275.5 -123t-123.5 -328q0 -195 88 -300q106 -128 309 -128q98 0 185 44t146 117zM232 539l4 23q13 78 46.5 136.5t74 86.5t74 40.5t58.5 12.5q72 0 132.5 -68t60.5 -182q0 -20 -13.5 -34.5t-35.5 -14.5h-401zM517 1303h-80q-62 -96 -191 -241l10 -7q118 85 204 174
l15 15l15 -15q44 -47 89.5 -85.5t113.5 -88.5l11 8q-37 42 -65.5 75.5t-61.5 78t-60 86.5z" />
    <glyph glyph-name="edieresis" unicode="&#xeb;" horiz-adv-x="927" 
d="M803 213l41 -51q-59 -82 -153.5 -132t-203.5 -50q-213 0 -325 135q-92 111 -92 313q0 213 130 342t289 129q184 0 269.5 -116.5t85.5 -270.5q0 -35 -37 -35h-557q0 -182 49 -260q74 -117 223 -117q177 0 281 113zM256 559h377q29 0 29 29q0 106 -54.5 167.5t-118.5 61.5
q-23 0 -52 -11t-67 -37t-70 -81t-44 -129zM549 1176q0 41 28.5 69.5t67.5 28.5t67.5 -28.5t28.5 -69.5t-28.5 -69t-67.5 -28t-67.5 28t-28.5 69zM203 1176q0 41 28.5 69.5t67.5 28.5t67.5 -28.5t28.5 -69.5t-27.5 -69t-68.5 -28t-68.5 28t-27.5 69zM801 182
q-108 -102 -279 -102q-66 0 -132 29.5t-108 96.5q-52 83 -53 271v21h578q16 0 16 14q0 147 -79.5 257t-254.5 110q-152 0 -275.5 -123t-123.5 -328q0 -195 88 -300q106 -128 309 -128q98 0 185 44t146 117zM232 539l4 23q13 78 46.5 136.5t74 86.5t74 40.5t58.5 12.5
q72 0 132.5 -68t60.5 -182q0 -20 -13.5 -34.5t-35.5 -14.5h-401zM569 1176q0 -31 22.5 -53.5t53.5 -22.5t53.5 22.5t22.5 53.5q0 33 -22.5 55t-53.5 22t-53.5 -22t-22.5 -55zM223 1176q0 -31 22.5 -53.5t53.5 -22.5t53.5 22.5t22.5 53.5q0 33 -22.5 55t-53.5 22t-53.5 -22
t-22.5 -55z" />
    <glyph glyph-name="igrave" unicode="&#xec;" horiz-adv-x="532" 
d="M184 481q0 272 -18 398l4 6q88 -6 178 2q12 0 15.5 -3t3.5 -18q-18 -172 -19 -352v-145q0 -223 19 -369l-5 -6q-37 6 -96 6t-96 -6l-4 6q18 137 18 369v112zM225 1374l144 -258q12 -25 12 -49q0 -8 -9.5 -15.5t-21.5 -7.5q-16 0 -59 41l-234 224l4 22q63 47 134 47
q14 0 30 -4zM205 481v-112q0 -220 -16 -352q40 4 77 3q17 0 37 -0.5t41 -2.5q-16 137 -16 352v145q0 46 0.5 83.5t1.5 69.5t3.5 65t5.5 63t7 71q-31 -3 -76 -3.5t-81 0.5q16 -131 16 -382zM212 1356q-10 2 -17 2q-61 0 -115 -38l-1 -4l226 -216q15 -14 26.5 -22.5t12.5 -9.5
l6 -3q6 0 10 4q0 19 -9 38z" />
    <glyph glyph-name="iacute" unicode="&#xed;" horiz-adv-x="532" 
d="M184 481q0 272 -18 398l4 6q88 -6 178 2q12 0 15.5 -3t3.5 -18q-18 -172 -19 -352v-145q0 -223 19 -369l-5 -6q-37 6 -96 6t-96 -6l-4 6q18 137 18 369v112zM356 1374q12 4 29 4q63 0 113 -47l6 -22l-236 -224q-39 -39 -61 -38q-10 0 -19.5 8t-9.5 18q0 20 24 57z
M205 481v-112q0 -220 -16 -352q40 4 77 3q17 0 37 -0.5t41 -2.5q-16 137 -16 352v145q0 46 0.5 83.5t1.5 69.5t3.5 65t5.5 63t7 71q-31 -3 -76 -3.5t-81 0.5q16 -131 16 -382zM369 1356l-150 -236q-2 -4 -6.5 -10.5t-5.5 -8.5t-3.5 -6t-2.5 -5.5t-1 -4.5t-1 -5.5v-6.5
q0 -6 8 -6q3 0 7.5 1.5t15 9.5t24.5 22l227 215l-2 5q-44 38 -94 38z" />
    <glyph glyph-name="icircumflex" unicode="&#xee;" horiz-adv-x="532" 
d="M184 481q0 272 -18 398l4 6q88 -6 178 2q12 0 15.5 -3t3.5 -18q-18 -172 -19 -352v-145q0 -223 19 -369l-5 -6q-37 6 -96 6t-96 -6l-4 6q18 137 18 369v112zM330 1323q68 -109 207 -264l-43 -29q-145 106 -218 184q-90 -92 -219 -184l-41 29q147 164 211 264h103z
M205 481v-112q0 -220 -16 -352q40 4 77 3q17 0 37 -0.5t41 -2.5q-16 137 -16 352v145q0 46 0.5 83.5t1.5 69.5t3.5 65t5.5 63t7 71q-31 -3 -76 -3.5t-81 0.5q16 -131 16 -382zM318 1303h-79q-62 -96 -192 -241l10 -7q118 85 205 174l15 15l14 -15q71 -75 203 -174l12 8
q-57 64 -103.5 121.5t-84.5 118.5z" />
    <glyph glyph-name="idieresis" unicode="&#xef;" horiz-adv-x="532" 
d="M184 481q0 272 -18 398l4 6q88 -6 178 2q12 0 15.5 -3t3.5 -18q-18 -172 -19 -352v-145q0 -223 19 -369l-5 -6q-37 6 -96 6t-96 -6l-4 6q18 137 18 369v112zM356 1176q0 41 29 69.5t68 28.5t67.5 -28.5t28.5 -69.5t-28.5 -69t-67.5 -28t-68 28t-29 69zM10 1176
q0 41 29 69.5t67.5 28.5t67.5 -28.5t29 -69.5t-28 -69t-68.5 -28t-68.5 28t-28 69zM205 481v-112q0 -220 -16 -352q40 4 77 3q17 0 37 -0.5t41 -2.5q-16 137 -16 352v145q0 46 0.5 83.5t1.5 69.5t3.5 65t5.5 63t7 71q-31 -3 -76 -3.5t-81 0.5q16 -131 16 -382zM377 1176
q0 -31 22.5 -53.5t53 -22.5t53 22.5t22.5 53.5q0 33 -22.5 55t-53 22t-53 -22t-22.5 -55zM31 1176q0 -31 22.5 -53.5t53 -22.5t53 22.5t22.5 53.5q0 33 -22.5 55t-53 22t-53 -22t-22.5 -55z" />
    <glyph glyph-name="eth" unicode="&#xf0;" horiz-adv-x="1013" 
d="M70 426q0 125 45 222t115.5 148.5t143 77t142.5 25.5q86 0 158 -29q-61 150 -185 301l-223 -149l-45 65l215 146l-33 33q-47 49 -145 118l39 46q111 -59 217 -146l217 146l45 -66l-198 -133l36 -37q319 -319 320 -709q0 -244 -133 -374.5t-320 -130.5q-180 0 -295.5 137
t-115.5 309zM516 63q94 0 166 86.5t72 307.5q0 156 -33 272q-68 86 -209 86q-139 0 -198.5 -105.5t-59.5 -248.5q0 -172 75.5 -285t186.5 -113zM90 426q0 -164 109.5 -295t281.5 -131q180 0 306 124t126 361q0 381 -313 695l-55 54l203 135l-22 32l-213 -142l-12 9
q-33 26 -66 50t-66.5 45.5t-66.5 40.5l-14 -16q39 -28 71.5 -54t58.5 -54l50 -50l-218 -148l22 -32l222 149l11 -15q124 -155 188 -306l18 -45l-45 18q-35 14 -72.5 21t-77.5 7q-66 0 -135.5 -24t-137 -74t-110.5 -142t-43 -213zM516 43q-123 0 -203 120t-80 298
q0 66 12.5 126t41 118.5t87 94.5t138.5 36q35 0 66.5 -5.5t60.5 -17t54 -29.5t44 -42l3 -3l1 -4q34 -120 33 -278q0 -227 -78 -320.5t-180 -93.5z" />
    <glyph glyph-name="ntilde" unicode="&#xf1;" horiz-adv-x="1103" 
d="M942 369q0 -233 19 -369l-5 -6q-37 6 -96 6t-96 -6l-4 6q18 137 18 369v200q0 121 -32.5 164t-114.5 43q-63 0 -144 -41t-153 -127v-239q0 -238 18 -369l-4 -6q-37 6 -96 6t-96 -6l-4 6q18 125 18 369v112q0 283 -18 398l4 6q90 -8 166 6q12 0 12 -21v-149l4 -6
q158 184 354 184q135 0 194.5 -80t59.5 -244q0 -33 -2 -103t-2 -103zM700 1167q35 0 58.5 22.5t44.5 84.5l49 -12q-37 -184 -178 -185q-51 0 -131 53q-74 45 -111 46q-39 0 -61.5 -24t-38.5 -75l-49 10q23 92 60.5 137.5t103 45.5t147.5 -58q59 -45 106 -45zM922 369
q0 33 2 103.5t2 102.5q0 160 -53.5 232t-180.5 72q-73 0 -163.5 -39t-175.5 -139l-17 -20l-23 34v154q-64 -10 -138 -6q16 -119 15 -382v-112q0 -233 -15 -352q40 4 77 3h9h10h10.5t11.5 -0.5t11.5 -1t12 -1t12.5 -0.5q-16 125 -16 352v247l5 6q75 88 160 131.5t153 43.5
q90 0 129 -51.5t39 -176.5v-200q0 -220 -16 -352q40 4 77.5 3.5t77.5 -3.5q-10 77 -13 154.5t-3 197.5zM700 1147q-53 0 -118 49q-76 53 -136 53q-53 0 -85 -34t-53 -112l10 -2q34 95 114 95q43 0 122 -48q37 -24 65.5 -37t54.5 -13q116 0 153 144q1 2 1 5l-12 2
q-21 -55 -48.5 -78.5t-67.5 -23.5z" />
    <glyph glyph-name="ograve" unicode="&#xf2;" horiz-adv-x="1024" 
d="M506 817q-90 0 -148.5 -55t-79 -132t-20.5 -175q0 -92 20.5 -174t86 -151t165.5 -69q102 0 169 96.5t67 243.5q0 207 -54 311.5t-206 104.5zM78 420q0 217 120.5 348t321.5 131q205 0 315.5 -124t110.5 -337q0 -205 -116.5 -331.5t-317.5 -126.5q-199 0 -316.5 125
t-117.5 315zM479 1374l144 -258q12 -25 12 -49q0 -8 -9.5 -15.5t-21.5 -7.5q-16 0 -59 41l-234 224l4 22q63 47 134 47q14 0 30 -4zM506 838q70 0 120 -22.5t80.5 -59.5t49 -94.5t24.5 -119t6 -141.5q0 -154 -71.5 -257t-184.5 -103q-84 0 -145 41t-91 107.5t-43 132
t-13 133.5q0 100 21.5 180t84 141.5t162.5 61.5zM98 420q0 -182 112 -301t302 -119t302 121t112 317q0 205 -105.5 323t-300.5 118q-193 0 -307.5 -124t-114.5 -335zM466 1356q-4 1 -9 1.5t-8 0.5q-61 0 -115 -38l-1 -4l226 -216q38 -35 45 -35q3 0 5.5 1t4.5 3q0 19 -10 38
z" />
    <glyph glyph-name="oacute" unicode="&#xf3;" horiz-adv-x="1024" 
d="M506 817q-90 0 -148.5 -55t-79 -132t-20.5 -175q0 -92 20.5 -174t86 -151t165.5 -69q102 0 169 96.5t67 243.5q0 207 -54 311.5t-206 104.5zM78 420q0 217 120.5 348t321.5 131q205 0 315.5 -124t110.5 -337q0 -205 -116.5 -331.5t-317.5 -126.5q-199 0 -316.5 125
t-117.5 315zM573 1374q12 4 29 4q63 0 113 -47l6 -22l-236 -224q-39 -39 -61 -38q-10 0 -19.5 8t-9.5 18q0 20 24 57zM506 838q70 0 120 -22.5t80.5 -59.5t49 -94.5t24.5 -119t6 -141.5q0 -154 -71.5 -257t-184.5 -103q-84 0 -145 41t-91 107.5t-43 132t-13 133.5
q0 100 21.5 180t84 141.5t162.5 61.5zM98 420q0 -182 112 -301t302 -119t302 121t112 317q0 205 -105.5 323t-300.5 118q-193 0 -307.5 -124t-114.5 -335zM586 1356l-150 -236q-2 -4 -6.5 -10.5t-5.5 -8.5t-3.5 -6t-2.5 -5.5t-1 -4.5t-1 -5.5v-6.5q0 -6 8 -6q14 0 47 33
l227 215l-1 5q-44 38 -95 38z" />
    <glyph glyph-name="ocircumflex" unicode="&#xf4;" horiz-adv-x="1024" 
d="M506 817q-90 0 -148.5 -55t-79 -132t-20.5 -175q0 -92 20.5 -174t86 -151t165.5 -69q102 0 169 96.5t67 243.5q0 207 -54 311.5t-206 104.5zM78 420q0 217 120.5 348t321.5 131q205 0 315.5 -124t110.5 -337q0 -205 -116.5 -331.5t-317.5 -126.5q-199 0 -316.5 125
t-117.5 315zM567 1323q68 -109 207 -264l-43 -29q-145 106 -217 184q-90 -92 -219 -184l-41 29q147 164 211 264h102zM506 838q70 0 120 -22.5t80.5 -59.5t49 -94.5t24.5 -119t6 -141.5q0 -154 -71.5 -257t-184.5 -103q-84 0 -145 41t-91 107.5t-43 132t-13 133.5
q0 100 21.5 180t84 141.5t162.5 61.5zM98 420q0 -182 112 -301t302 -119t302 121t112 317q0 205 -105.5 323t-300.5 118q-193 0 -307.5 -124t-114.5 -335zM556 1303h-80q-62 -96 -191 -241l10 -7q118 85 204 174l15 15l15 -15q44 -47 89.5 -85.5t113.5 -88.5l11 8
q-37 42 -65.5 75.5t-61.5 78t-60 86.5z" />
    <glyph glyph-name="otilde" unicode="&#xf5;" horiz-adv-x="1024" 
d="M506 817q-90 0 -148.5 -55t-79 -132t-20.5 -175q0 -92 20.5 -174t86 -151t165.5 -69q102 0 169 96.5t67 243.5q0 207 -54 311.5t-206 104.5zM78 420q0 217 120.5 348t321.5 131q205 0 315.5 -124t110.5 -337q0 -205 -116.5 -331.5t-317.5 -126.5q-199 0 -316.5 125
t-117.5 315zM643 1167q35 0 58.5 22.5t43.5 84.5l50 -12q-37 -184 -179 -185q-51 0 -131 53q-74 45 -110 46q-39 0 -61.5 -24t-39.5 -75l-49 10q23 92 61 137.5t103.5 45.5t147.5 -58q59 -45 106 -45zM506 838q70 0 120 -22.5t80.5 -59.5t49 -94.5t24.5 -119t6 -141.5
q0 -154 -71.5 -257t-184.5 -103q-84 0 -145 41t-91 107.5t-43 132t-13 133.5q0 100 21.5 180t84 141.5t162.5 61.5zM98 420q0 -182 112 -301t302 -119t302 121t112 317q0 205 -105.5 323t-300.5 118q-193 0 -307.5 -124t-114.5 -335zM643 1147q-53 0 -118 49q-76 53 -136 53
q-53 0 -85 -34t-54 -112l11 -2q34 95 114 95q43 0 121 -48q75 -50 120 -50q116 0 153 144q1 2 1 5l-11 2q-21 -55 -48.5 -78.5t-67.5 -23.5z" />
    <glyph glyph-name="odieresis" unicode="&#xf6;" horiz-adv-x="1024" 
d="M506 817q-90 0 -148.5 -55t-79 -132t-20.5 -175q0 -92 20.5 -174t86 -151t165.5 -69q102 0 169 96.5t67 243.5q0 207 -54 311.5t-206 104.5zM78 420q0 217 120.5 348t321.5 131q205 0 315.5 -124t110.5 -337q0 -205 -116.5 -331.5t-317.5 -126.5q-199 0 -316.5 125
t-117.5 315zM575 1176q0 41 29 69.5t68 28.5t67.5 -28.5t28.5 -69.5t-27.5 -69t-68.5 -28t-69 28t-28 69zM229 1176q0 41 29 69.5t68 28.5t67.5 -28.5t28.5 -69.5t-28.5 -69t-67.5 -28t-68 28t-29 69zM506 838q70 0 120 -22.5t80.5 -59.5t49 -94.5t24.5 -119t6 -141.5
q0 -154 -71.5 -257t-184.5 -103q-84 0 -145 41t-91 107.5t-43 132t-13 133.5q0 100 21.5 180t84 141.5t162.5 61.5zM98 420q0 -182 112 -301t302 -119t302 121t112 317q0 205 -105.5 323t-300.5 118q-193 0 -307.5 -124t-114.5 -335zM596 1176q0 -31 22.5 -53.5t53 -22.5
t53.5 22.5t23 53.5q0 33 -23 55t-53.5 22t-53 -22t-22.5 -55zM250 1176q0 -31 22.5 -53.5t53 -22.5t53 22.5t22.5 53.5q0 33 -22.5 55t-53 22t-53 -22t-22.5 -55z" />
    <glyph glyph-name="divide" unicode="&#xf7;" horiz-adv-x="1079" 
d="M944 526v-100h-809v100h809zM447 203v6q23 64 93 93h7q38 -14 59 -35t33 -58v-6q-9 -28 -21 -46.5t-29.5 -29.5t-41.5 -17h-7q-40 9 -61 29.5t-32 63.5zM447 751v7q12 35 33 56t60 37h7q70 -26 92 -93v-7q-9 -28 -21 -46t-29.5 -29t-41.5 -17h-7q-40 9 -61 29t-32 63z
M924 506h-768v-60h768v60zM467 205q10 -38 24.5 -52t51.5 -23q16 4 27 9.5t20 14t15.5 21t13.5 31.5q-19 54 -76 75q-57 -24 -76 -76zM467 754q10 -38 24.5 -52t51.5 -23q31 9 47 24t29 52q-7 20 -16.5 33.5t-23.5 23.5t-36 18q-57 -24 -76 -76z" />
    <glyph glyph-name="oslash" unicode="&#xf8;" horiz-adv-x="1024" 
d="M739 648l-401 -489q71 -97 192 -98q102 0 169 96.5t67 243.5q0 160 -27 247zM506 817q-90 0 -148.5 -55t-79 -132t-20.5 -175q0 -26 2 -53t6.5 -55t12 -56.5t17.5 -54.5l406 492q-62 89 -196 89zM868 930l64 -47l-93 -113q107 -122 107 -332q0 -205 -116.5 -331.5
t-317.5 -126.5q-151 0 -259 76l-93 -113l-62 53l93 113q-114 122 -113 311q0 217 120.5 348t321.5 131q157 0 261 -75zM748 690l11 -36q15 -50 21 -112t6 -141q0 -154 -71.5 -257t-184.5 -103q-132 0 -209 106l-9 13zM506 838q74 0 126.5 -25t86.5 -74l8 -12l-437 -531
l-13 32q-40 100 -39 227q0 100 21.5 180t84 141.5t162.5 61.5zM872 902l-88 -106l-15 11q-99 71 -249 72q-193 0 -307.5 -124t-114.5 -335q0 -181 108 -297l13 -13l-92 -112l30 -26l92 111l15 -11q103 -72 248 -72q190 0 302 121t112 317q0 202 -102 319l-11 13l89 109z" />
    <glyph glyph-name="ugrave" unicode="&#xf9;" horiz-adv-x="1099" 
d="M748 188q-57 -88 -139.5 -148t-170.5 -60q-141 0 -204.5 81.5t-63.5 202.5v246q0 238 -18 369l4 6q37 -6 96 -6t96 6l4 -6q-18 -123 -18 -369v-203q0 -129 36 -171t101 -42q72 0 150.5 64.5t130.5 150.5v201q0 233 -19 369l4 6q37 -6 96.5 -6t96.5 6l4 -6
q-18 -123 -19 -369v-117q0 -207 35 -393l-4 -6q-41 6 -91 6q-24 0 -71 -6q-18 0 -18 6l-10 182zM467 1374l143 -258q12 -25 13 -49q0 -8 -9.5 -15.5t-21.5 -7.5q-16 0 -60 41l-233 224l4 22q63 47 133 47q15 0 31 -4zM730 200l12 18l34 -25l10 -178q44 6 69 5q16 0 35 -0.5
t36 -2.5q-31 185 -31 376v117q0 235 16 352q-40 -4 -77 -4q-17 0 -37 1t-41 3q16 -128 16 -352v-206l-3 -5q-53 -90 -135.5 -157.5t-162.5 -67.5q-72 0 -115 49t-43 184v203q0 61 0.5 102.5t2.5 87t5 85t8 77.5q-40 -4 -77.5 -4t-77.5 4q7 -53 10.5 -109t4.5 -109t1 -134
v-246q0 -115 58.5 -189.5t189.5 -74.5q81 0 159.5 58t132.5 142zM454 1356q-4 1 -9 1.5t-9 0.5q-61 0 -114 -38l-1 -4l226 -216q38 -35 45 -35l10 4q0 19 -10 38z" />
    <glyph glyph-name="uacute" unicode="&#xfa;" horiz-adv-x="1099" 
d="M748 188q-57 -88 -139.5 -148t-170.5 -60q-141 0 -204.5 81.5t-63.5 202.5v246q0 238 -18 369l4 6q37 -6 96 -6t96 6l4 -6q-18 -123 -18 -369v-203q0 -129 36 -171t101 -42q72 0 150.5 64.5t130.5 150.5v201q0 233 -19 369l4 6q37 -6 96.5 -6t96.5 6l4 -6
q-18 -123 -19 -369v-117q0 -207 35 -393l-4 -6q-41 6 -91 6q-24 0 -71 -6q-18 0 -18 6l-10 182zM627 1374q12 4 28 4q63 0 113 -47l6 -22l-235 -224q-39 -39 -62 -38q-10 0 -19 8t-9 18q0 20 23 57zM730 200l12 18l34 -25l10 -178q44 6 69 5q16 0 35 -0.5t36 -2.5
q-31 185 -31 376v117q0 235 16 352q-40 -4 -77 -4q-17 0 -37 1t-41 3q16 -128 16 -352v-206l-3 -5q-53 -90 -135.5 -157.5t-162.5 -67.5q-72 0 -115 49t-43 184v203q0 61 0.5 102.5t2.5 87t5 85t8 77.5q-40 -4 -77.5 -4t-77.5 4q7 -53 10.5 -109t4.5 -109t1 -134v-246
q0 -115 58.5 -189.5t189.5 -74.5q81 0 159.5 58t132.5 142zM640 1356l-151 -236q-2 -4 -6.5 -10.5t-5.5 -8.5l-3 -6t-2.5 -5.5l-1.5 -4.5t-1 -5.5v-6.5q0 -6 8 -6q14 0 47 33l227 215l-1 5q-44 38 -95 38z" />
    <glyph glyph-name="ucircumflex" unicode="&#xfb;" horiz-adv-x="1099" 
d="M748 188q-57 -88 -139.5 -148t-170.5 -60q-141 0 -204.5 81.5t-63.5 202.5v246q0 238 -18 369l4 6q37 -6 96 -6t96 6l4 -6q-18 -123 -18 -369v-203q0 -129 36 -171t101 -42q72 0 150.5 64.5t130.5 150.5v201q0 233 -19 369l4 6q37 -6 96.5 -6t96.5 6l4 -6
q-18 -123 -19 -369v-117q0 -207 35 -393l-4 -6q-41 6 -91 6q-24 0 -71 -6q-18 0 -18 6l-10 182zM575 1323q68 -109 207 -264l-43 -29q-145 106 -217 184q-90 -92 -219 -184l-41 29q147 164 211 264h102zM730 200l12 18l34 -25l10 -178q44 6 69 5q16 0 35 -0.5t36 -2.5
q-31 185 -31 376v117q0 235 16 352q-40 -4 -77 -4q-17 0 -37 1t-41 3q16 -128 16 -352v-206l-3 -5q-53 -90 -135.5 -157.5t-162.5 -67.5q-72 0 -115 49t-43 184v203q0 61 0.5 102.5t2.5 87t5 85t8 77.5q-40 -4 -77.5 -4t-77.5 4q7 -53 10.5 -109t4.5 -109t1 -134v-246
q0 -115 58.5 -189.5t189.5 -74.5q81 0 159.5 58t132.5 142zM564 1303h-80q-62 -96 -191 -241l10 -7q118 85 205 174l14 15l15 -15q44 -47 90 -85.5t113 -88.5l11 8q-37 42 -65.5 75.5t-61.5 78t-60 86.5z" />
    <glyph glyph-name="udieresis" unicode="&#xfc;" horiz-adv-x="1099" 
d="M748 188q-57 -88 -139.5 -148t-170.5 -60q-141 0 -204.5 81.5t-63.5 202.5v246q0 238 -18 369l4 6q37 -6 96 -6t96 6l4 -6q-18 -123 -18 -369v-203q0 -129 36 -171t101 -42q72 0 150.5 64.5t130.5 150.5v201q0 233 -19 369l4 6q37 -6 96.5 -6t96.5 6l4 -6
q-18 -123 -19 -369v-117q0 -207 35 -393l-4 -6q-41 6 -91 6q-24 0 -71 -6q-18 0 -18 6l-10 182zM616 1176q0 41 29 69.5t68 28.5t67.5 -28.5t28.5 -69.5t-27.5 -69t-68.5 -28t-69 28t-28 69zM270 1176q0 41 29 69.5t68 28.5t67.5 -28.5t28.5 -69.5t-28.5 -69t-67.5 -28
t-68 28t-29 69zM730 200l12 18l34 -25l10 -178q44 6 69 5q16 0 35 -0.5t36 -2.5q-31 185 -31 376v117q0 235 16 352q-40 -4 -77 -4q-17 0 -37 1t-41 3q16 -128 16 -352v-206l-3 -5q-53 -90 -135.5 -157.5t-162.5 -67.5q-72 0 -115 49t-43 184v203q0 61 0.5 102.5t2.5 87
t5 85t8 77.5q-40 -4 -77.5 -4t-77.5 4q7 -53 10.5 -109t4.5 -109t1 -134v-246q0 -115 58.5 -189.5t189.5 -74.5q81 0 159.5 58t132.5 142zM637 1176q0 -31 22.5 -53.5t53 -22.5t53 22.5t22.5 53.5q0 33 -22.5 55t-53 22t-53 -22t-22.5 -55zM291 1176q0 -31 22.5 -53.5
t53 -22.5t53 22.5t22.5 53.5q0 33 -22.5 55t-53 22t-53 -22t-22.5 -55z" />
    <glyph glyph-name="yacute" unicode="&#xfd;" horiz-adv-x="1036" 
d="M57 885q29 -6 107 -6q74 0 100 6q68 -209 274 -706h4q138 294 269 706q20 -6 80 -6q68 0 88 6q-88 -178 -315.5 -691t-278.5 -679q-35 10 -100 10q-37 0 -72 -10q147 248 242 465q-42 110 -398 905zM629 1374q12 4 28 4q63 0 113 -47l6 -22l-235 -224q-39 -39 -62 -38
q-10 0 -19 8t-9 18q0 20 23 57zM91 860q13 -28 54.5 -120.5t71 -157.5t73.5 -163.5t75.5 -170.5t61.5 -144.5t47 -116.5l3 -8l-4 -8q-86 -201 -219 -428q17 2 31 2q40 0 86 -7q56 172 255 621.5t318 699.5q-21 -1 -53 -1q-44 0 -66 3q-130 -403 -264 -690l-6 -12h-31l-5 14
q-201 485 -269 689q-29 -3 -86 -4q-46 0 -73 2zM642 1356l-151 -236q-2 -4 -6.5 -10.5t-5.5 -8.5l-3 -6t-2.5 -5.5l-1.5 -4.5t-1 -5.5v-6.5q0 -6 8 -6q14 0 47 33l227 215l-1 5q-44 38 -95 38z" />
    <glyph glyph-name="thorn" unicode="&#xfe;" horiz-adv-x="1054" 
d="M334 -66q0 -272 20 -409l-4 -6q-29 6 -98 6l-100 -6l-2 6q20 129 20 409v1053q0 272 -20 385l4 6q66 4 182 52q18 0 18 -21q-20 -164 -20 -385v-221l-2 -68q39 63 108.5 113.5t163.5 50.5q147 0 258 -127t111 -291q0 -221 -135.5 -361t-319.5 -140q-100 0 -184 45v-91z
M334 627v-480q74 -88 174 -88q268 0 268 367q0 201 -69.5 285t-155.5 84q-57 0 -120.5 -45t-96.5 -123zM313 -66v125l31 -16q79 -43 174 -43q176 0 305 134t129 347q0 156 -105.5 277t-242.5 121q-88 0 -153 -47.5t-102 -107.5l-40 -65l4 144v221q0 118 4.5 204.5
t15.5 177.5q-4 -2 -14 -6t-15.5 -6t-15 -6t-16 -6t-16.5 -5.5t-19 -5.5t-19.5 -4.5t-22 -4t-23.5 -3.5q10 -62 14 -157.5t4 -214.5v-1053q0 -264 -17 -392q34 3 79 3q18 0 32.5 -0.5t25 -1t21.5 -1.5q-10 79 -14 173.5t-4 218.5zM313 631l2 4q34 83 102.5 131.5t133.5 48.5
q96 0 171 -91t75 -298q0 -74 -12.5 -137.5t-43 -123t-90 -93t-143.5 -33.5q-111 0 -190 95l-5 6v491z" />
    <glyph glyph-name="ydieresis" unicode="&#xff;" horiz-adv-x="1036" 
d="M57 885q29 -6 107 -6q74 0 100 6q68 -209 274 -706h4q138 294 269 706q20 -6 80 -6q68 0 88 6q-88 -178 -315.5 -691t-278.5 -679q-35 10 -100 10q-37 0 -72 -10q147 248 242 465q-42 110 -398 905zM616 1176q0 41 29 69.5t68 28.5t67.5 -28.5t28.5 -69.5t-27.5 -69
t-68.5 -28t-69 28t-28 69zM270 1176q0 41 29 69.5t68 28.5t67.5 -28.5t28.5 -69.5t-28.5 -69t-67.5 -28t-68 28t-29 69zM91 860q13 -28 54.5 -120.5t71 -157.5t73.5 -163.5t75.5 -170.5t61.5 -144.5t47 -116.5l3 -8l-4 -8q-86 -201 -219 -428q17 2 31 2q40 0 86 -7
q56 172 255 621.5t318 699.5q-21 -1 -53 -1q-44 0 -66 3q-130 -403 -264 -690l-6 -12h-31l-5 14q-201 485 -269 689q-29 -3 -86 -4q-46 0 -73 2zM637 1176q0 -31 22.5 -53.5t53 -22.5t53 22.5t22.5 53.5q0 33 -22.5 55t-53 22t-53 -22t-22.5 -55zM291 1176q0 -31 22.5 -53.5
t53 -22.5t53 22.5t22.5 53.5q0 33 -22.5 55t-53 22t-53 -22t-22.5 -55z" />
    <glyph glyph-name="Amacron" unicode="&#x100;" horiz-adv-x="1288" 
d="M367 468q-59 -145 -103 -265t-67 -209q-25 6 -93 6q-47 0 -71 -6q348 764 604 1354h57q70 -166 198 -483.5t223 -549t140 -321.5q-35 6 -122 6q-68 0 -103 -6q-4 14 -9.5 32.5t-15 50t-22.5 71t-29 87t-37.5 108.5t-45.5 125q-67 2 -127 2.5t-113 0.5q-117 0 -264 -3z
M834 564q-44 115 -95.5 241t-111.5 264h-4l-216 -504q24 0 102 -2t112 -2q87 0 213 3zM909 1487h-499q-27 0 -27 31q0 18 14.5 38.5t30.5 20.5h502q29 0 28 -29q0 -20 -15.5 -40.5t-33.5 -20.5zM348 475l5 13h13q60 1 136.5 2.5t128.5 1.5q95 0 241 -4h13l5 -13
q59 -159 97 -273.5t58 -184.5q31 4 87.5 3.5t88.5 -2.5q-49 104 -141.5 330.5t-211.5 521.5t-187 457h-31q-248 -574 -583 -1307q14 1 37 0q50 0 78 -3q47 166 166 458zM853 572l11 -28h-29q-127 -3 -214 -3q-34 0 -112.5 1.5t-102.5 2.5h-30l233 544h31l5 -12
q41 -93 79.5 -185t69 -168.5t59.5 -151.5zM909 1507q8 0 18.5 14.5t10.5 26.5q0 8 -8 8h-502q-4 0 -14.5 -13t-10.5 -25q0 -10 7 -11h499z" />
    <glyph glyph-name="amacron" unicode="&#x101;" horiz-adv-x="985" 
d="M635 98h-8q-82 -70 -138.5 -94t-140.5 -24q-119 0 -187.5 55t-68.5 166q0 104 91 183t249 114l191 43q14 4 14 24q0 66 -14.5 114t-33 71.5t-49 37t-51 16.5t-49.5 3q-117 0 -225 -174l-27 2l-34 137l6 8q141 119 301 119q338 0 338 -332q0 -7 -1 -49.5t-2 -91t-2 -98.5
t-1 -70q0 -129 34 -160q17 -15 60 -15q25 0 55 11l16 -51q-60 -63 -163 -63q-58 0 -100.5 30t-59.5 88zM635 461l-174 -47q-113 -31 -158 -81t-45 -124q0 -49 42 -87t110 -38q82 0 188 80q29 20 29 53zM680 1102h-500q-27 0 -26 31q0 18 14 38.5t31 20.5h501q29 0 29 -29
q0 -20 -15.5 -40.5t-33.5 -20.5zM650 119l5 -15q30 -104 140 -104q39 0 74.5 11t65.5 38l-6 19q-11 -3 -21.5 -4.5t-20.5 -1.5q-51 0 -74 21q-41 37 -40 175q0 35 2.5 169t2.5 140q0 311 -317 312q-67 0 -128 -21t-91 -41t-66 -50l29 -112q50 78 106 125t129 47q39 0 69 -7
t67.5 -30.5t59 -81t21.5 -143.5q0 -7 -1.5 -13t-4 -10.5t-6 -9t-7.5 -7t-9 -4.5h-1l-191 -43q-76 -17 -137.5 -45.5t-102.5 -64t-62.5 -78.5t-21.5 -89q0 -201 235 -201q80 0 132 22.5t133 91.5l6 5h31zM656 488l-9 -271q0 -42 -37 -70q-113 -84 -200 -84q-74 0 -123 43.5
t-49 102.5q0 81 49.5 137t167.5 87zM680 1122q8 0 18.5 14.5t10.5 26.5q0 8 -9 8h-501q-4 0 -14.5 -13t-10.5 -25q0 -10 6 -11h500z" />
    <glyph glyph-name="Abreve" unicode="&#x102;" horiz-adv-x="1288" 
d="M367 468q-59 -145 -103 -265t-67 -209q-25 6 -93 6q-47 0 -71 -6q348 764 604 1354h57q70 -166 198 -483.5t223 -549t140 -321.5q-35 6 -122 6q-68 0 -103 -6q-4 14 -9.5 32.5t-15 50t-22.5 71t-29 87t-37.5 108.5t-45.5 125q-67 2 -127 2.5t-113 0.5q-117 0 -264 -3z
M834 564q-44 115 -95.5 241t-111.5 264h-4l-216 -504q24 0 102 -2t112 -2q87 0 213 3zM934 1647q-8 -104 -90 -168t-189 -64q-115 0 -192.5 62.5t-85.5 169.5h57q12 -57 74.5 -91t146.5 -34q80 0 145.5 33.5t76.5 91.5h57zM348 475l5 13h13q60 1 136.5 2.5t128.5 1.5
q95 0 241 -4h13l5 -13q59 -159 97 -273.5t58 -184.5q31 4 87.5 3.5t88.5 -2.5q-49 104 -141.5 330.5t-211.5 521.5t-187 457h-31q-248 -574 -583 -1307q14 1 37 0q50 0 78 -3q47 166 166 458zM853 572l11 -28h-29q-127 -3 -214 -3q-34 0 -112.5 1.5t-102.5 2.5h-30l233 544
h31l5 -12q41 -93 79.5 -185t69 -168.5t59.5 -151.5zM911 1626h-19q-20 -59 -88.5 -92t-148.5 -33q-84 0 -150 32t-86 93h-19q14 -87 84 -138.5t171 -51.5q36 0 70.5 8t65 24.5t55 39t41.5 53t24 65.5z" />
    <glyph glyph-name="abreve" unicode="&#x103;" horiz-adv-x="985" 
d="M635 98h-8q-82 -70 -138.5 -94t-140.5 -24q-119 0 -187.5 55t-68.5 166q0 104 91 183t249 114l191 43q14 4 14 24q0 66 -14.5 114t-33 71.5t-49 37t-51 16.5t-49.5 3q-117 0 -225 -174l-27 2l-34 137l6 8q141 119 301 119q338 0 338 -332q0 -7 -1 -49.5t-2 -91t-2 -98.5
t-1 -70q0 -129 34 -160q17 -15 60 -15q25 0 55 11l16 -51q-60 -63 -163 -63q-58 0 -100.5 30t-59.5 88zM635 461l-174 -47q-113 -31 -158 -81t-45 -124q0 -49 42 -87t110 -38q82 0 188 80q29 20 29 53zM201 1325q16 -82 77.5 -133t143.5 -51t144.5 49t76.5 135l55 -25
q-18 -127 -99 -201.5t-177 -74.5q-109 0 -182.5 72.5t-94.5 203.5zM650 119l5 -15q30 -104 140 -104q39 0 74.5 11t65.5 38l-6 19q-11 -3 -21.5 -4.5t-20.5 -1.5q-51 0 -74 21q-41 37 -40 175q0 35 2.5 169t2.5 140q0 311 -317 312q-67 0 -128 -21t-91 -41t-66 -50l29 -112
q50 78 106 125t129 47q39 0 69 -7t67.5 -30.5t59 -81t21.5 -143.5q0 -7 -1.5 -13t-4 -10.5t-6 -9t-7.5 -7t-9 -4.5h-1l-191 -43q-76 -17 -137.5 -45.5t-102.5 -64t-62.5 -78.5t-21.5 -89q0 -201 235 -201q80 0 132 22.5t133 91.5l6 5h31zM656 488l-9 -271q0 -42 -37 -70
q-113 -84 -200 -84q-74 0 -123 43.5t-49 102.5q0 81 49.5 137t167.5 87zM187 1296l-19 -8q23 -117 90 -180.5t164 -63.5q55 0 106 27t92 84t56 133l-18 8q-22 -82 -87.5 -129t-148.5 -47t-146.5 47.5t-88.5 128.5z" />
    <glyph glyph-name="Aogonek" unicode="&#x104;" horiz-adv-x="1288" 
d="M834 564q-44 115 -95.5 241t-111.5 264h-4l-216 -504q24 0 102 -2t112 -2q87 0 213 3zM1116 -334q-94 -115 -203 -115q-76 0 -118.5 42t-42.5 114q0 169 262 344q-54 180 -143 417q-67 2 -127 2.5t-113 0.5q-117 0 -264 -3q-59 -145 -103 -265t-67 -209q-25 6 -93 6
q-47 0 -71 -6q348 764 604 1354h57q70 -166 198 -483.5t223 -549t140 -321.5q-35 6 -122 6q-17 0 -49.5 -2.5t-48.5 -2.5q-78 -79 -113 -137.5t-35 -127.5q0 -35 23.5 -61.5t62.5 -26.5q51 0 108 61l6 -2zM853 572l11 -28h-29q-127 -3 -214 -3q-34 0 -112.5 1.5t-102.5 2.5
h-30l233 544h31l5 -12q41 -93 79.5 -185t69 -168.5t59.5 -151.5zM1089 -334l-7 9q-59 -54 -109 -54q-47 0 -77 33t-30 76q0 124 153 278l7 7h9q15 0 47 2.5t51 2.5q57 0 88 -2q-49 104 -141.5 330.5t-211.5 521.5t-187 457h-31q-248 -574 -583 -1307q14 1 37 0q50 0 78 -3
q47 166 166 458l5 13h13q60 1 136.5 2.5t128.5 1.5q95 0 241 -4h13l5 -13q50 -134 85 -238t58 -180l5 -15l-14 -9q-110 -74 -181 -156.5t-71 -169.5q0 -63 37 -99t104 -36q90 0 176 94z" />
    <glyph glyph-name="aogonek" unicode="&#x105;" horiz-adv-x="985" 
d="M635 461l-174 -47q-113 -31 -158 -81t-45 -124q0 -49 42 -87t110 -38q82 0 188 80q29 20 29 53zM911 -313q-94 -115 -202 -115q-76 0 -119 42t-43 114q0 30 8.5 60.5t23 58t36 55t45 51t51.5 46.5q-27 15 -46.5 40t-29.5 59h-8q-82 -70 -138.5 -94t-140.5 -24
q-119 0 -187.5 55t-68.5 166q0 104 91 183t249 114l191 43q14 4 14 24q0 66 -14.5 114t-33 71.5t-49 37t-51 16.5t-49.5 3q-117 0 -225 -174l-27 2l-34 137l6 8q141 119 301 119q338 0 338 -332q0 -7 -1 -49.5t-2 -91t-2 -98.5t-1 -70q0 -129 34 -160q17 -15 60 -15
q25 0 55 11l16 -51q-60 -63 -162 -63q-59 -63 -86.5 -115.5t-27.5 -114.5q0 -35 23.5 -61.5t62.5 -26.5q51 0 109 62l6 -3zM656 488l-9 -271q0 -42 -37 -70q-113 -84 -200 -84q-74 0 -123 43.5t-49 102.5q0 81 49.5 137t167.5 87zM885 -313l-8 9q-59 -54 -109 -54
q-47 0 -76.5 32.5t-29.5 75.5q0 45 14.5 87.5t39.5 78t65 78.5l6 6h9q86 0 139 49l-6 19q-11 -3 -21.5 -4.5t-20.5 -1.5q-51 0 -74 21q-41 37 -40 175q0 35 2.5 169t2.5 140q0 311 -317 312q-67 0 -128 -21t-91 -41t-66 -50l29 -112q50 78 106 125t129 47q39 0 69 -7
t67.5 -30.5t59 -81t21.5 -143.5q0 -7 -1.5 -13t-4 -10.5t-6 -9t-7.5 -7t-9 -4.5h-1l-191 -43q-76 -17 -137.5 -45.5t-102.5 -64t-62.5 -78.5t-21.5 -89q0 -201 235 -201q80 0 132 22.5t133 91.5l6 5h31l5 -15q18 -61 66 -87l26 -14l-24 -20q-156 -131 -156 -255
q0 -63 37 -99.5t105 -36.5q90 1 176 95z" />
    <glyph glyph-name="Cacute" unicode="&#x106;" horiz-adv-x="1386" 
d="M778 1348q111 0 222.5 -22.5t167.5 -46.5l57 -24l4 -6q-35 -147 -41 -227l-21 -2q-115 231 -417 231q-68 0 -139.5 -31.5t-139.5 -95t-111 -178.5t-43 -262q0 -156 50.5 -289t160 -222t260.5 -89q141 0 233.5 45t203.5 166l49 -39q-211 -276 -504 -276q-211 0 -365.5 99
t-226.5 247.5t-72 318.5q0 295 203 499t469 204zM874 1679q88 -41 127 -106l-294 -119q-57 -25 -86 -24q-31 0 -31 30q0 23 31 43zM778 1327q-258 0 -454.5 -197.5t-196.5 -484.5q0 -123 41 -236.5t119 -205.5t203.5 -147.5t279.5 -55.5q273 0 475 253l-18 14
q-106 -113 -202 -158.5t-237 -45.5q-160 0 -274.5 93.5t-165.5 230.5t-51 297q0 152 45 270.5t114.5 184t145.5 99.5t148 34q294 0 420 -214q2 18 4 34.5t4 27t6 28.5t5.5 26t7.5 32.5t9 34.5q-203 86 -428 86zM876 1656l-244 -170q-22 -15 -22 -26q0 -10 11 -10q7 0 16.5 2
t25 7t36.5 14l271 109q-34 43 -94 74z" />
    <glyph glyph-name="cacute" unicode="&#x107;" horiz-adv-x="878" 
d="M512 817q-106 0 -180 -98t-74 -262q0 -174 75 -274.5t191 -100.5q123 0 219 86h9l39 -43q-115 -145 -302 -145q-188 0 -299.5 126.5t-111.5 339.5q0 199 133 326t303 127q162 0 272 -57l5 -6l-48 -168l-26 -2q-88 151 -205 151zM549 1374q12 4 29 4q63 0 112 -47l6 -22
l-235 -224q-39 -39 -62 -38q-10 0 -19 8t-9 18q0 20 23 57zM512 838q123 0 216 -151l39 141q-47 22 -116 36.5t-137 14.5q-162 0 -289 -121t-127 -312q0 -207 106.5 -326.5t284.5 -119.5q169 0 275 124l-18 19q-97 -82 -222 -82q-127 0 -206.5 107.5t-79.5 288.5
q0 170 78.5 275.5t195.5 105.5zM562 1356l-151 -236q-2 -4 -6 -10.5t-5.5 -8.5t-3.5 -6t-2.5 -5.5l-1.5 -4.5t-1 -5.5v-6.5q0 -6 8 -6q14 0 48 33l226 215l-1 5q-44 38 -94 38z" />
    <glyph glyph-name="Ccircumflex" unicode="&#x108;" horiz-adv-x="1386" 
d="M778 1348q111 0 222.5 -22.5t167.5 -46.5l57 -24l4 -6q-35 -147 -41 -227l-21 -2q-115 231 -417 231q-68 0 -139.5 -31.5t-139.5 -95t-111 -178.5t-43 -262q0 -156 50.5 -289t160 -222t260.5 -89q141 0 233.5 45t203.5 166l49 -39q-211 -276 -504 -276q-211 0 -365.5 99
t-226.5 247.5t-72 318.5q0 295 203 499t469 204zM774 1651q84 -100 207 -193l-33 -43q-127 59 -217 127q-102 -76 -219 -127l-29 43q88 66 203 193h88zM778 1327q-258 0 -454.5 -197.5t-196.5 -484.5q0 -123 41 -236.5t119 -205.5t203.5 -147.5t279.5 -55.5q273 0 475 253
l-18 14q-106 -113 -202 -158.5t-237 -45.5q-160 0 -274.5 93.5t-165.5 230.5t-51 297q0 152 45 270.5t114.5 184t145.5 99.5t148 34q294 0 420 -214q2 18 4 34.5t4 27t6 28.5t5.5 26t7.5 32.5t9 34.5q-203 86 -428 86zM765 1630h-70q-33 -36 -58 -62t-58.5 -57t-67.5 -57
l8 -13q105 48 200 118l12 9l13 -10q45 -34 93 -62t105 -55l10 13q-110 85 -187 176z" />
    <glyph glyph-name="ccircumflex" unicode="&#x109;" horiz-adv-x="878" 
d="M510 817q-106 0 -180 -98t-74 -262q0 -174 75 -274.5t191 -100.5q123 0 219 86h9l38 -43q-115 -145 -301 -145q-188 0 -299.5 126.5t-111.5 339.5q0 199 133 326t303 127q162 0 272 -57l4 -6l-47 -168l-26 -2q-88 151 -205 151zM535 1323q68 -109 206 -264l-43 -29
q-145 106 -217 184q-90 -92 -219 -184l-41 29q147 164 211 264h103zM510 838q123 0 216 -151l39 141q-47 22 -116 36.5t-137 14.5q-162 0 -289 -121t-127 -312q0 -207 106.5 -326.5t284.5 -119.5q169 0 275 124l-18 19q-97 -82 -222 -82q-127 0 -206.5 107.5t-79.5 288.5
q0 170 78.5 275.5t195.5 105.5zM523 1303h-80q-62 -96 -191 -241l10 -7q118 85 205 174l15 15l14 -15q19 -20 39.5 -39.5t38.5 -35.5t40.5 -34t40.5 -31.5t44 -33.5l11 8q-57 64 -103 121.5t-84 118.5z" />
    <glyph glyph-name="Cdotaccent" unicode="&#x10a;" horiz-adv-x="1386" 
d="M778 1348q111 0 222.5 -22.5t167.5 -46.5l57 -24l4 -6q-35 -147 -41 -227l-21 -2q-115 231 -417 231q-68 0 -139.5 -31.5t-139.5 -95t-111 -178.5t-43 -262q0 -156 50.5 -289t160 -222t260.5 -89q141 0 233.5 45t203.5 166l49 -39q-211 -276 -504 -276q-211 0 -365.5 99
t-226.5 247.5t-72 318.5q0 295 203 499t469 204zM623 1599q0 43 31.5 75t74.5 32t75 -32t32 -75t-32 -74.5t-75 -31.5t-74.5 31.5t-31.5 74.5zM778 1327q-258 0 -454.5 -197.5t-196.5 -484.5q0 -123 41 -236.5t119 -205.5t203.5 -147.5t279.5 -55.5q273 0 475 253l-18 14
q-106 -113 -202 -158.5t-237 -45.5q-160 0 -274.5 93.5t-165.5 230.5t-51 297q0 152 45 270.5t114.5 184t145.5 99.5t148 34q294 0 420 -214q2 18 4 34.5t4 27t6 28.5t5.5 26t7.5 32.5t9 34.5q-203 86 -428 86zM643 1599.5q0 -34.5 25.5 -60.5t60.5 -26t60.5 26t25.5 60.5
t-25.5 60.5t-60.5 26t-60.5 -26t-25.5 -60.5z" />
    <glyph glyph-name="cdotaccent" unicode="&#x10b;" horiz-adv-x="878" 
d="M512 817q-106 0 -180 -98t-74 -262q0 -174 75 -274.5t191 -100.5q123 0 219 86h9l39 -43q-115 -145 -302 -145q-188 0 -299.5 126.5t-111.5 339.5q0 199 133 326t303 127q162 0 272 -57l5 -6l-48 -168l-26 -2q-88 151 -205 151zM393 1223q0 41 32 72.5t73 31.5
t72.5 -31.5t31.5 -72.5t-31.5 -73t-72.5 -32t-73 32t-32 73zM512 838q123 0 216 -151l39 141q-47 22 -116 36.5t-137 14.5q-162 0 -289 -121t-127 -312q0 -207 106.5 -326.5t284.5 -119.5q169 0 275 124l-18 19q-97 -82 -222 -82q-127 0 -206.5 107.5t-79.5 288.5
q0 170 78.5 275.5t195.5 105.5zM414 1222.5q0 -32.5 25.5 -58t58 -25.5t58.5 25.5t26 58t-26 58.5t-58.5 26t-58 -26t-25.5 -58.5z" />
    <glyph glyph-name="Ccaron" unicode="&#x10c;" horiz-adv-x="1386" 
d="M778 1348q111 0 222.5 -22.5t167.5 -46.5l57 -24l4 -6q-35 -147 -41 -227l-21 -2q-115 231 -417 231q-68 0 -139.5 -31.5t-139.5 -95t-111 -178.5t-43 -262q0 -156 50.5 -289t160 -222t260.5 -89q141 0 233.5 45t203.5 166l49 -39q-211 -276 -504 -276q-211 0 -365.5 99
t-226.5 247.5t-72 318.5q0 295 203 499t469 204zM682 1427q-74 92 -207 195l33 41q123 -53 217 -125q117 82 219 125l31 -41q-102 -78 -205 -195h-88zM778 1327q-258 0 -454.5 -197.5t-196.5 -484.5q0 -123 41 -236.5t119 -205.5t203.5 -147.5t279.5 -55.5q273 0 475 253
l-18 14q-106 -113 -202 -158.5t-237 -45.5q-160 0 -274.5 93.5t-165.5 230.5t-51 297q0 152 45 270.5t114.5 184t145.5 99.5t148 34q294 0 420 -214q2 18 4 34.5t4 27t6 28.5t5.5 26t7.5 32.5t9 34.5q-203 86 -428 86zM692 1448h69q17 19 33.5 36.5t35 36t36.5 36t38.5 35
t41.5 34.5l-9 12q-93 -41 -200 -117l-12 -8l-12 9q-87 66 -199 116l-10 -13q118 -92 188 -177z" />
    <glyph glyph-name="ccaron" unicode="&#x10d;" horiz-adv-x="878" 
d="M512 817q-106 0 -180 -98t-74 -262q0 -174 75 -274.5t191 -100.5q123 0 219 86h9l39 -43q-115 -145 -302 -145q-188 0 -299.5 126.5t-111.5 339.5q0 199 133 326t303 127q162 0 272 -57l5 -6l-48 -168l-26 -2q-88 151 -205 151zM442 1028q-78 127 -206 266l40 27
q145 -106 218 -184q78 80 221 184l39 -27q-137 -154 -209 -266h-103zM512 838q123 0 216 -151l39 141q-47 22 -116 36.5t-137 14.5q-162 0 -289 -121t-127 -312q0 -207 106.5 -326.5t284.5 -119.5q169 0 275 124l-18 19q-97 -82 -222 -82q-127 0 -206.5 107.5t-79.5 288.5
q0 170 78.5 275.5t195.5 105.5zM454 1049h80q13 21 28 42t30.5 41.5t31.5 40.5t33 40.5t33 39t33 38.5l-8 5q-132 -96 -207 -174l-15 -15l-14 16q-31 33 -66.5 64t-64 53.5t-72.5 55.5l-9 -6q114 -126 187 -241z" />
    <glyph glyph-name="Dcaron" unicode="&#x10e;" horiz-adv-x="1454" 
d="M301 1321q66 0 169 3t169 3q295 0 502 -204.5t207 -491.5q0 -145 -43 -259t-110 -182.5t-158 -113.5t-179 -62.5t-182 -17.5q-115 0 -213 2t-162 2l-106 -6l-2 6q20 139 20 410v501q0 264 -20 410l4 6q34 -6 104 -6zM389 168q0 -51 39 -66.5t184 -15.5q119 0 206 20.5
t163 71.5t116 152.5t40 251.5q0 127 -29 236.5t-92.5 207.5t-179 154.5t-275.5 56.5q-86 0 -129 -16.5t-43 -65.5v-987zM596 1427q-74 92 -207 195l33 41q123 -53 217 -125q117 82 219 125l31 -41q-102 -78 -205 -195h-88zM301 1300q-48 0 -86 4q10 -78 14 -176t4 -217v-501
q0 -255 -17 -393q38 3 85 3q66 0 164 -2t211 -2q92 0 177 16.5t174 59.5t153.5 110.5t105.5 177t41 251.5q0 279 -201.5 477.5t-486.5 198.5q-66 0 -169 -3.5t-169 -3.5zM369 168v987q0 63 51 82.5t141 19.5q164 0 285 -59t186.5 -159.5t95 -214t29.5 -242.5
q0 -154 -42 -259.5t-122 -159.5t-170 -75.5t-211 -21.5q-147 0 -195 19.5t-48 82.5zM606 1448h69q29 33 56.5 61.5t61 59t67.5 57.5l-9 12q-93 -41 -200 -117l-12 -8l-12 9q-87 66 -199 116l-10 -13q118 -92 188 -177z" />
    <glyph glyph-name="dcaron" unicode="&#x10f;" horiz-adv-x="1142" 
d="M739 119q-109 -139 -264 -139q-164 0 -267.5 132t-103.5 324q0 207 130.5 335t332.5 128q92 0 172 -45v133q0 293 -18 395l4 7q92 6 178 41q18 0 19 -21q-18 -227 -19 -385v-631q0 -207 35 -393l-4 -6q-41 6 -91 6q-24 0 -71 -6q-18 0 -18 6l-11 119h-4zM739 231v467
q-39 61 -82 90t-112 29q-43 0 -84 -15.5t-84 -51t-68.5 -112.5t-25.5 -185q0 -182 57 -274.5t147 -92.5q137 0 252 145zM1092 1430q55 0 88.5 -45.5t33.5 -104.5q0 -66 -55 -136.5t-153 -80.5l-11 35q59 12 94 56t35 85q0 43 -28 43q-94 0 -95 78q0 27 24 48.5t67 21.5z
M723 131l6 8h33l11 -124q45 6 70 5q16 0 35 -0.5t36 -2.5q-31 185 -31 376v631q0 103 4 184.5t14 198.5q-75 -29 -157 -37q9 -63 12.5 -158.5t3.5 -224.5v-168l-31 17q-30 17 -81 30t-81 13q-195 0 -318.5 -122t-123.5 -321q0 -186 98.5 -311t251.5 -125q146 0 248 131z
M760 224l-5 -5q-38 -49 -83 -83.5t-92 -52t-93 -17.5q-100 0 -162.5 100t-62.5 287q0 113 27.5 193.5t74 119.5t90.5 55.5t91 16.5q74 0 122.5 -32t89.5 -97l3 -5v-480zM1092 1409q-35 0 -52.5 -15.5t-17.5 -33.5q0 -12 2 -20.5t8 -17.5t21.5 -14t42.5 -5q23 0 36 -19.5
t13 -44.5q0 -19 -7 -40t-20 -41.5t-34.5 -38.5t-47.5 -30q73 20 115.5 79.5t42.5 111.5q0 53 -28.5 91t-73.5 38z" />
    <glyph glyph-name="Dcroat" unicode="&#x110;" horiz-adv-x="1454" 
d="M301 1321q66 0 169 3t169 3q295 0 502 -204.5t207 -491.5q0 -145 -43 -259t-110 -182.5t-158 -113.5t-179 -62.5t-182 -17.5q-115 0 -213 2t-162 2l-106 -6l-2 6q20 139 20 410v178h-178v82h178v241q0 264 -20 410l4 6q34 -6 104 -6zM389 168q0 -51 39 -66.5t184 -15.5
q119 0 206 20.5t163 71.5t116 152.5t40 251.5q0 127 -29 236.5t-92.5 207.5t-179 154.5t-275.5 56.5q-86 0 -129 -16.5t-43 -65.5v-485h316v-82h-316v-420zM301 1300q-48 0 -86 4q10 -78 14 -176t4 -217v-262h-178v-41h178v-198q0 -255 -17 -393q38 3 85 3q66 0 164 -2
t211 -2q92 0 177 16.5t174 59.5t153.5 110.5t105.5 177t41 251.5q0 279 -201.5 477.5t-486.5 198.5q-66 0 -169 -3.5t-169 -3.5zM369 168v440h315v41h-315v506q0 63 51 82.5t141 19.5q164 0 285 -59t186.5 -159.5t95 -214t29.5 -242.5q0 -154 -42 -259.5t-122 -159.5
t-170 -75.5t-211 -21.5q-147 0 -195 19.5t-48 82.5z" />
    <glyph glyph-name="dcroat" unicode="&#x111;" horiz-adv-x="1085" 
d="M739 231v467q-39 61 -82 90t-112 29q-43 0 -84 -15.5t-84 -51t-68.5 -112.5t-25.5 -185q0 -182 57 -274.5t147 -92.5q137 0 252 145zM1100 1171l2 -79h-198q0 -16 -0.5 -33t-0.5 -35v-631q0 -207 35 -393l-4 -6q-41 6 -91 6q-24 0 -71 -6q-18 0 -18 6l-11 119h-4
q-109 -139 -264 -139q-164 0 -267.5 132t-103.5 324q0 207 130.5 335t332.5 128q92 0 172 -45v133v52.5v52.5h-245v79h243q-4 139 -16 211l4 7q92 6 178 41q18 0 19 -21q-12 -151 -16 -238h194zM760 224l-5 -5q-38 -49 -83 -83.5t-92 -52t-93 -17.5q-100 0 -162.5 100
t-62.5 287q0 113 27.5 193.5t74 119.5t90.5 55.5t91 16.5q74 0 122.5 -32t89.5 -97l3 -5v-480zM1080 1151h-195l1 21q2 39 4 81t4.5 73.5t6.5 80.5q-75 -29 -157 -37q4 -25 6.5 -57.5t4.5 -67t3 -73.5v-21h-244v-39h245v-21q1 -51 1 -104v-168l-31 17q-30 17 -81 30t-81 13
q-195 0 -318.5 -122t-123.5 -321q0 -186 98.5 -311t251.5 -125q146 0 248 131l6 8h33l11 -124q45 6 70 5q16 0 35 -0.5t36 -2.5q-31 185 -31 376v631v68l1 20h197z" />
    <glyph glyph-name="Emacron" unicode="&#x112;" horiz-adv-x="1101" 
d="M389 410q0 -240 17 -295q123 0 267 6t227 12l83 6l4 -8q-4 -33 -4 -68q0 -6 4 -63l-4 -6q-49 6 -123 6h-559l-106 -6l-2 6q20 139 20 410v501q0 264 -20 410l4 6q35 -6 104 -6h539q74 0 123 6l4 -6q-4 -57 -4 -77.5t4 -53.5l-4 -8q-283 25 -557 24q-16 -55 -17 -295v-159
q215 0 457 20l6 -6q-6 -29 -6 -65.5t6 -65.5l-6 -6q-203 20 -457 20v-239zM788 1501h-499q-27 0 -27 31q0 18 14.5 38.5t30.5 20.5h502q29 0 29 -28q0 -20 -16 -41t-34 -21zM369 410v260h20q38 0 89.5 -1.5t111.5 -3.5t124 -5.5t115 -8.5q-1 7 -2 16t-1.5 18t-0.5 15
q0 24 4 50q-220 -19 -440 -19h-20v180q0 242 17 301l4 15h16q250 0 538 -23q-2 23 -2 39q0 10 1 25t2 37q-48 -4 -105 -5h-539q-48 0 -86 4q10 -78 14 -176t4 -217v-501q0 -255 -17 -393q38 3 85 3h559q57 0 105 -4q-3 33 -2 47q0 12 0.5 26t1.5 28q-309 -23 -559 -23h-16
l-4 15q-7 25 -11.5 98t-5 118.5t-0.5 84.5zM788 1522q8 0 18.5 14t10.5 27q0 8 -8 8h-502q-4 0 -14 -13.5t-10 -25.5q0 -10 6 -10h499z" />
    <glyph glyph-name="emacron" unicode="&#x113;" horiz-adv-x="927" 
d="M803 213l41 -51q-59 -82 -153.5 -132t-203.5 -50q-213 0 -325 135q-92 111 -92 313q0 213 130 342t289 129q184 0 269.5 -116.5t85.5 -270.5q0 -35 -37 -35h-557q0 -182 49 -260q74 -117 223 -117q177 0 281 113zM256 559h377q29 0 29 29q0 106 -54.5 167.5t-118.5 61.5
q-23 0 -52 -11t-67 -37t-70 -81t-44 -129zM711 1102h-500q-27 0 -27 31q0 18 14.5 38.5t30.5 20.5h502q29 0 29 -29q0 -20 -15.5 -40.5t-33.5 -20.5zM801 182q-108 -102 -279 -102q-66 0 -132 29.5t-108 96.5q-52 83 -53 271v21h578q16 0 16 14q0 147 -79.5 257t-254.5 110
q-152 0 -275.5 -123t-123.5 -328q0 -195 88 -300q106 -128 309 -128q98 0 185 44t146 117zM232 539l4 23q13 78 46.5 136.5t74 86.5t74 40.5t58.5 12.5q72 0 132.5 -68t60.5 -182q0 -20 -13.5 -34.5t-35.5 -14.5h-401zM711 1122q8 0 18 14.5t10 26.5q0 8 -8 8h-502
q-4 0 -14 -13t-10 -25q0 -10 6 -11h500z" />
    <glyph glyph-name="Ebreve" unicode="&#x114;" horiz-adv-x="1101" 
d="M389 410q0 -240 17 -295q123 0 267 6t227 12l83 6l4 -8q-4 -33 -4 -68q0 -6 4 -63l-4 -6q-49 6 -123 6h-559l-106 -6l-2 6q20 139 20 410v501q0 264 -20 410l4 6q35 -6 104 -6h539q74 0 123 6l4 -6q-4 -57 -4 -77.5t4 -53.5l-4 -8q-283 25 -557 24q-16 -55 -17 -295v-159
q215 0 457 20l6 -6q-6 -29 -6 -65.5t6 -65.5l-6 -6q-203 20 -457 20v-239zM852 1645q-8 -104 -90 -168t-189 -64q-115 0 -192.5 62.5t-85.5 169.5h57q12 -57 74.5 -91t146.5 -34q80 0 145.5 33.5t76.5 91.5h57zM369 410v260h20q38 0 89.5 -1.5t111.5 -3.5t124 -5.5t115 -8.5
q-1 7 -2 16t-1.5 18t-0.5 15q0 24 4 50q-220 -19 -440 -19h-20v180q0 242 17 301l4 15h16q250 0 538 -23q-2 23 -2 39q0 10 1 25t2 37q-48 -4 -105 -5h-539q-48 0 -86 4q10 -78 14 -176t4 -217v-501q0 -255 -17 -393q38 3 85 3h559q57 0 105 -4q-3 33 -2 47q0 12 0.5 26
t1.5 28q-309 -23 -559 -23h-16l-4 15q-7 25 -11.5 98t-5 118.5t-0.5 84.5zM829 1624h-19q-20 -59 -88 -92t-149 -33q-54 0 -101.5 13t-84 42t-50.5 70h-19q14 -87 84 -138.5t171 -51.5q36 0 70.5 8t65 24.5t55 39t41.5 53t24 65.5z" />
    <glyph glyph-name="ebreve" unicode="&#x115;" horiz-adv-x="927" 
d="M803 213l41 -51q-59 -82 -153.5 -132t-203.5 -50q-213 0 -325 135q-92 111 -92 313q0 213 130 342t289 129q184 0 269.5 -116.5t85.5 -270.5q0 -35 -37 -35h-557q0 -182 49 -260q74 -117 223 -117q177 0 281 113zM256 559h377q29 0 29 29q0 106 -54.5 167.5t-118.5 61.5
q-23 0 -52 -11t-67 -37t-70 -81t-44 -129zM246 1327q16 -82 77.5 -133t143.5 -51t144.5 49t76.5 135l55 -24q-18 -127 -99 -202t-177 -75q-109 0 -182.5 72.5t-94.5 204.5zM801 182q-108 -102 -279 -102q-66 0 -132 29.5t-108 96.5q-52 83 -53 271v21h578q16 0 16 14
q0 147 -79.5 257t-254.5 110q-152 0 -275.5 -123t-123.5 -328q0 -195 88 -300q106 -128 309 -128q98 0 185 44t146 117zM232 539l4 23q13 78 46.5 136.5t74 86.5t74 40.5t58.5 12.5q72 0 132.5 -68t60.5 -182q0 -20 -13.5 -34.5t-35.5 -14.5h-401zM232 1299l-19 -9
q23 -117 90 -180t164 -63q55 0 106 26.5t92.5 83.5t55.5 133l-18 8q-22 -82 -87.5 -129t-148.5 -47t-146.5 48t-88.5 129z" />
    <glyph glyph-name="Edotaccent" unicode="&#x116;" horiz-adv-x="1101" 
d="M389 410q0 -240 17 -295q123 0 267 6t227 12l83 6l4 -8q-4 -33 -4 -68q0 -6 4 -63l-4 -6q-49 6 -123 6h-559l-106 -6l-2 6q20 139 20 410v501q0 264 -20 410l4 6q35 -6 104 -6h539q74 0 123 6l4 -6q-4 -57 -4 -77.5t4 -53.5l-4 -8q-283 25 -557 24q-16 -55 -17 -295v-159
q215 0 457 20l6 -6q-6 -29 -6 -65.5t6 -65.5l-6 -6q-203 20 -457 20v-239zM459 1599q0 43 31.5 75t74.5 32t75 -32t32 -75t-32 -74.5t-75 -31.5t-74.5 31.5t-31.5 74.5zM369 410v260h20q38 0 89.5 -1.5t111.5 -3.5t124 -5.5t115 -8.5q-1 7 -2 16t-1.5 18t-0.5 15q0 24 4 50
q-220 -19 -440 -19h-20v180q0 242 17 301l4 15h16q250 0 538 -23q-2 23 -2 39q0 10 1 25t2 37q-48 -4 -105 -5h-539q-48 0 -86 4q10 -78 14 -176t4 -217v-501q0 -255 -17 -393q38 3 85 3h559q57 0 105 -4q-3 33 -2 47q0 12 0.5 26t1.5 28q-309 -23 -559 -23h-16l-4 15
q-7 25 -11.5 98t-5 118.5t-0.5 84.5zM479 1599.5q0 -34.5 25.5 -60.5t60.5 -26t60.5 26t25.5 60.5t-25.5 60.5t-60.5 26t-60.5 -26t-25.5 -60.5z" />
    <glyph glyph-name="edotaccent" unicode="&#x117;" horiz-adv-x="927" 
d="M803 213l41 -51q-59 -82 -153.5 -132t-203.5 -50q-213 0 -325 135q-92 111 -92 313q0 213 130 342t289 129q184 0 269.5 -116.5t85.5 -270.5q0 -35 -37 -35h-557q0 -182 49 -260q74 -117 223 -117q177 0 281 113zM256 559h377q29 0 29 29q0 106 -54.5 167.5t-118.5 61.5
q-23 0 -52 -11t-67 -37t-70 -81t-44 -129zM367 1223q0 41 31.5 72.5t72.5 31.5t72.5 -31.5t31.5 -72.5t-31.5 -73t-72.5 -32t-72.5 32t-31.5 73zM801 182q-108 -102 -279 -102q-66 0 -132 29.5t-108 96.5q-52 83 -53 271v21h578q16 0 16 14q0 147 -79.5 257t-254.5 110
q-152 0 -275.5 -123t-123.5 -328q0 -195 88 -300q106 -128 309 -128q98 0 185 44t146 117zM232 539l4 23q13 78 46.5 136.5t74 86.5t74 40.5t58.5 12.5q72 0 132.5 -68t60.5 -182q0 -20 -13.5 -34.5t-35.5 -14.5h-401zM387 1222.5q0 -32.5 25.5 -58t58.5 -25.5t58.5 25.5
t25.5 58t-25.5 58.5t-58.5 26t-58.5 -26t-25.5 -58.5z" />
    <glyph glyph-name="Eogonek" unicode="&#x118;" horiz-adv-x="1101" 
d="M705 -459q-84 0 -137.5 46t-53.5 128q0 36 15 76t41.5 77.5t65 72t83.5 59.5h-418l-106 -6l-2 6q20 139 20 410v501q0 264 -20 410l4 6q35 -6 104 -6h539q74 0 123 6l4 -6q-4 -57 -4 -77.5t4 -53.5l-4 -8q-283 25 -557 24q-16 -55 -17 -295v-159q215 0 457 20l6 -6
q-6 -29 -6 -65.5t6 -65.5l-6 -6q-203 20 -457 20v-239q0 -240 17 -295q123 0 267 6t227 12l83 6l4 -8q-4 -33 -4 -68q0 -6 4 -63l-4 -6q-37 4 -86 6q-109 -7 -184.5 -91t-75.5 -167q0 -51 32.5 -86t86.5 -35q74 0 143 74l31 -17q-35 -68 -99.5 -102.5t-125.5 -34.5z
M705 -438q51 0 104.5 26t88.5 77q-67 -64 -142 -64q-61 0 -100.5 41t-39.5 100q0 92 81 181.5t199 96.5h3q11 0 22 -0.5t22.5 -1.5t21.5 -2q-3 33 -2 47q0 12 0.5 26t1.5 28q-309 -23 -559 -23h-16l-4 15q-7 25 -11.5 98t-5 118.5t-0.5 84.5v260h20q38 0 89.5 -1.5
t111.5 -3.5t124 -5.5t115 -8.5q-1 7 -2 16t-1.5 18t-0.5 15q0 24 4 50q-220 -19 -440 -19h-20v180q0 242 17 301l4 15h16q250 0 538 -23q-2 23 -2 39q0 10 1 25t2 37q-48 -4 -105 -5h-539q-48 0 -86 4q10 -78 14 -176t4 -217v-501q0 -255 -17 -393q38 3 85 3h497l-69 -38
q-87 -48 -140.5 -124t-53.5 -143q0 -72 47 -112.5t123 -40.5z" />
    <glyph glyph-name="eogonek" unicode="&#x119;" horiz-adv-x="927" 
d="M803 213l41 -51q-33 -46 -80 -83l4 -3q-94 -94 -135 -155.5t-41 -137.5q0 -35 23.5 -61.5t62.5 -26.5q51 0 108 61l7 -2l28 -35q-94 -115 -203 -114q-76 0 -118.5 42t-42.5 113q0 113 116 228q-43 -9 -86 -8q-213 0 -325 135q-92 111 -92 313q0 213 130 342t289 129
q184 0 269.5 -116.5t85.5 -270.5q0 -35 -37 -35h-557q0 -182 49 -260q74 -117 223 -117q177 0 281 113zM256 559h377q29 0 29 29q0 106 -54.5 167.5t-118.5 61.5q-23 0 -52 -11t-67 -37t-70 -81t-44 -129zM801 182q-108 -102 -279 -102q-66 0 -132 29.5t-108 96.5
q-52 83 -53 271v21h578q16 0 16 14q0 147 -79.5 257t-254.5 110q-152 0 -275.5 -123t-123.5 -328q0 -195 88 -300q106 -128 309 -128q20 0 40.5 2t41.5 6l66 14l-48 -48q-52 -51 -81 -105t-29 -109q0 -63 37 -99t104 -36q90 0 176 95l-7 8q-59 -54 -109 -54q-47 0 -77 33
t-30 76q0 78 39.5 141.5t126.5 149.5l-6 4l20 17q37 30 67 66zM232 539l4 23q13 78 46.5 136.5t74 86.5t74 40.5t58.5 12.5q72 0 132.5 -68t60.5 -182q0 -20 -13.5 -34.5t-35.5 -14.5h-401z" />
    <glyph glyph-name="Ecaron" unicode="&#x11a;" horiz-adv-x="1101" 
d="M389 410q0 -240 17 -295q123 0 267 6t227 12l83 6l4 -8q-4 -33 -4 -68q0 -6 4 -63l-4 -6q-49 6 -123 6h-559l-106 -6l-2 6q20 139 20 410v501q0 264 -20 410l4 6q35 -6 104 -6h539q74 0 123 6l4 -6q-4 -57 -4 -77.5t4 -53.5l-4 -8q-283 25 -557 24q-16 -55 -17 -295v-159
q215 0 457 20l6 -6q-6 -29 -6 -65.5t6 -65.5l-6 -6q-203 20 -457 20v-239zM549 1427q-74 92 -207 195l33 41q123 -53 217 -125q117 82 219 125l31 -41q-102 -78 -205 -195h-88zM369 410v260h20q38 0 89.5 -1.5t111.5 -3.5t124 -5.5t115 -8.5q-1 7 -2 16t-1.5 18t-0.5 15
q0 24 4 50q-220 -19 -440 -19h-20v180q0 242 17 301l4 15h16q250 0 538 -23q-2 23 -2 39q0 10 1 25t2 37q-48 -4 -105 -5h-539q-48 0 -86 4q10 -78 14 -176t4 -217v-501q0 -255 -17 -393q38 3 85 3h559q57 0 105 -4q-3 33 -2 47q0 12 0.5 26t1.5 28q-309 -23 -559 -23h-16
l-4 15q-7 25 -11.5 98t-5 118.5t-0.5 84.5zM559 1448h69q29 33 56.5 61.5t61 59t67.5 57.5l-9 12q-93 -41 -200 -117l-13 -8l-11 9q-87 66 -199 116l-10 -13q118 -92 188 -177z" />
    <glyph glyph-name="ecaron" unicode="&#x11b;" horiz-adv-x="927" 
d="M803 213l41 -51q-59 -82 -153.5 -132t-203.5 -50q-213 0 -325 135q-92 111 -92 313q0 213 130 342t289 129q184 0 269.5 -116.5t85.5 -270.5q0 -35 -37 -35h-557q0 -182 49 -260q74 -117 223 -117q177 0 281 113zM256 559h377q29 0 29 29q0 106 -54.5 167.5t-118.5 61.5
q-23 0 -52 -11t-67 -37t-70 -81t-44 -129zM408 1026q-78 127 -207 266l41 27q145 -106 217 -184q78 80 221 184l39 -27q-137 -154 -209 -266h-102zM801 182q-108 -102 -279 -102q-66 0 -132 29.5t-108 96.5q-52 83 -53 271v21h578q16 0 16 14q0 147 -79.5 257t-254.5 110
q-152 0 -275.5 -123t-123.5 -328q0 -195 88 -300q106 -128 309 -128q98 0 185 44t146 117zM232 539l4 23q13 78 46.5 136.5t74 86.5t74 40.5t58.5 12.5q72 0 132.5 -68t60.5 -182q0 -20 -13.5 -34.5t-35.5 -14.5h-401zM419 1047h80q38 58 85.5 118.5t103.5 123.5l-8 5
q-132 -96 -207 -174l-14 -15l-15 16q-71 75 -203 173l-9 -6q114 -126 187 -241z" />
    <glyph glyph-name="Gcircumflex" unicode="&#x11c;" horiz-adv-x="1468" 
d="M1118 240q-6 283 -20 389l4 6q35 -6 104 -6l107 6l2 -6q-20 -135 -21 -348v-13q0 -74 21 -98v-6q-219 -184 -545 -184q-299 0 -481.5 196.5t-182.5 472.5q0 164 61.5 299t164 220t229.5 132.5t260 47.5q111 0 227.5 -22.5t178.5 -46.5l61 -24l4 -6q-33 -139 -41 -248
l-20 -2q-70 117 -185.5 184.5t-252.5 67.5q-211 0 -343.5 -157.5t-132.5 -423.5q0 -106 28 -208t84 -191t156.5 -143t231.5 -54q219 0 301 78v88zM788 1649q84 -100 207 -193l-32 -43q-127 59 -218 127q-102 -76 -219 -127l-28 43q88 66 202 193h88zM1139 240v-97l-7 -6
q-89 -83 -315 -84q-111 0 -201 38t-148 99.5t-97 143.5t-56.5 166t-17.5 170q0 272 138 437t358 165q135 0 250.5 -63t189.5 -175q8 88 36 207q-221 86 -448 86q-176 0 -331.5 -75.5t-259 -234.5t-103.5 -368q0 -268 177 -458.5t466 -190.5q309 0 521 170q-17 36 -17 98v13
v58.5t0.5 52t1.5 48t2.5 44.5t3.5 42.5t4.5 42t5.5 43.5q-16 -1 -37.5 -2.5t-48.5 -1.5q-48 0 -85 4q13 -102 17 -340q1 -21 1 -32zM779 1628h-70q-50 -55 -92.5 -96.5t-91.5 -79.5l9 -13q105 48 199 118l13 9l12 -10q45 -34 93 -62t105 -55l11 13q-111 85 -188 176z" />
    <glyph glyph-name="gcircumflex" unicode="&#x11d;" horiz-adv-x="1021" 
d="M639 582q0 240 -186 239q-88 0 -134.5 -59.5t-46.5 -163.5q0 -119 45 -178.5t152 -59.5q92 0 131 58t39 164zM799 592q0 -135 -88 -224t-252 -89q-98 0 -152 28q-61 -53 -61 -114q0 -59 31.5 -78t87.5 -19q2 0 59 4q78 10 170 11q209 0 289 -68q86 -74 86 -203
q0 -104 -84 -181t-206 -111.5t-261 -34.5q-84 0 -159 19t-134 74.5t-59 139.5q0 63 47 135q25 20 167 100q4 2 7 4q-79 14 -117.5 61.5t-38.5 115.5q0 82 127 170q-145 84 -145 256q0 143 107.5 227t240.5 84q69 0 125 -18q87 5 189 20.5t134 18.5l6 -7q-6 -29 -6 -53t6 -53
l-6 -6q-191 20 -213 21q103 -68 103 -230zM207 -213q0 -63 54 -108.5t112.5 -61.5t101.5 -16q141 0 242.5 51t101.5 141q0 100 -80 148q-59 35 -217 34q-10 0 -78.5 -3t-103.5 -3q-55 -31 -94 -82t-39 -100zM522 1321q68 -109 207 -264l-43 -29q-145 106 -217 184
q-90 -92 -219 -184l-41 29q147 164 211 264h102zM659 582q0 -242 -190 -242q-217 0 -217 258q0 111 52 177.5t149 66.5q106 0 156 -70.5t50 -189.5zM778 592q0 48 -8 85.5t-23 61.5t-29.5 38.5t-33.5 27.5l-66 44l79 -7q20 -2 45.5 -4t42.5 -3.5t52.5 -5.5t54.5 -6
q-1 8 -2 18t-1 19q0 10 0.5 18t2.5 19q-25 -3 -62.5 -8.5t-68 -10t-77.5 -9.5t-97 -8h-3l-4 1q-53 17 -119 17q-127 0 -227.5 -79t-100.5 -212q0 -161 135 -238l28 -17l-26 -18q-118 -81 -118 -153q0 -132 137 -157l57 -9l-49 -29q-11 -7 -48.5 -27t-67.5 -38t-53 -35
q-42 -66 -42 -121q0 -109 100.5 -161t231.5 -52q213 0 371.5 83t158.5 224q0 120 -79 187q-73 63 -275 63q-13 0 -34 -0.5t-45 -2t-48 -3.5t-40 -4h-2q-58 -4 -60 -4q-139 0 -140 117q0 71 69 130l10 9l13 -7q49 -26 142 -26q156 0 237.5 82t81.5 211zM186 -213
q0 122 144 200l5 3h5q33 0 101.5 3t80.5 3q88 0 136.5 -6.5t91.5 -31.5q90 -53 90 -165q0 -102 -109.5 -157.5t-255.5 -55.5q-45 0 -106.5 16.5t-122 66.5t-60.5 124zM511 1300h-80q-62 -96 -191 -240l10 -7q118 85 204 174l15 15l15 -16q24 -25 48 -47.5t50.5 -44.5t49 -39
t55.5 -42l11 8q-57 64 -103 121t-84 118z" />
    <glyph glyph-name="Gbreve" unicode="&#x11e;" horiz-adv-x="1468" 
d="M1118 240q-6 283 -20 389l4 6q35 -6 104 -6l107 6l2 -6q-20 -135 -21 -348v-13q0 -74 21 -98v-6q-219 -184 -545 -184q-299 0 -481.5 196.5t-182.5 472.5q0 164 61.5 299t164 220t229.5 132.5t260 47.5q111 0 227.5 -22.5t178.5 -46.5l61 -24l4 -6q-33 -139 -41 -248
l-20 -2q-70 117 -185.5 184.5t-252.5 67.5q-211 0 -343.5 -157.5t-132.5 -423.5q0 -106 28 -208t84 -191t156.5 -143t231.5 -54q219 0 301 78v88zM1040 1651q-8 -104 -90 -168t-188 -64q-115 0 -192.5 62.5t-86.5 169.5h58q12 -57 74.5 -91t146.5 -34q80 0 145.5 33.5
t75.5 91.5h57zM1139 240v-97l-7 -6q-89 -83 -315 -84q-111 0 -201 38t-148 99.5t-97 143.5t-56.5 166t-17.5 170q0 272 138 437t358 165q135 0 250.5 -63t189.5 -175q8 88 36 207q-221 86 -448 86q-176 0 -331.5 -75.5t-259 -234.5t-103.5 -368q0 -268 177 -458.5
t466 -190.5q309 0 521 170q-17 36 -17 98v13v58.5t0.5 52t1.5 48t2.5 44.5t3.5 42.5t4.5 42t5.5 43.5q-16 -1 -37.5 -2.5t-48.5 -1.5q-48 0 -85 4q13 -102 17 -340q1 -21 1 -32zM1017 1630h-18q-20 -59 -88.5 -92t-148.5 -33q-84 0 -150 32t-87 93h-19q14 -87 84 -138.5
t172 -51.5q93 0 166 51.5t89 138.5z" />
    <glyph glyph-name="gbreve" unicode="&#x11f;" horiz-adv-x="1021" 
d="M639 582q0 240 -186 239q-88 0 -134.5 -59.5t-46.5 -163.5q0 -119 45 -178.5t152 -59.5q92 0 131 58t39 164zM799 592q0 -135 -88 -224t-252 -89q-98 0 -152 28q-61 -53 -61 -114q0 -59 31.5 -78t87.5 -19q2 0 59 4q78 10 170 11q209 0 289 -68q86 -74 86 -203
q0 -104 -84 -181t-206 -111.5t-261 -34.5q-84 0 -159 19t-134 74.5t-59 139.5q0 63 47 135q25 20 167 100q4 2 7 4q-79 14 -117.5 61.5t-38.5 115.5q0 82 127 170q-145 84 -145 256q0 143 107.5 227t240.5 84q69 0 125 -18q87 5 189 20.5t134 18.5l6 -7q-6 -29 -6 -53t6 -53
l-6 -6q-191 20 -213 21q103 -68 103 -230zM207 -213q0 -63 54 -108.5t112.5 -61.5t101.5 -16q141 0 242.5 51t101.5 141q0 100 -80 148q-59 35 -217 34q-10 0 -78.5 -3t-103.5 -3q-55 -31 -94 -82t-39 -100zM229 1319q16 -82 78 -133t143.5 -51t144 49t77.5 135l55 -25
q-18 -127 -99 -201.5t-177 -74.5q-109 0 -182.5 72.5t-94.5 203.5zM659 582q0 -242 -190 -242q-217 0 -217 258q0 111 52 177.5t149 66.5q106 0 156 -70.5t50 -189.5zM778 592q0 48 -8 85.5t-23 61.5t-29.5 38.5t-33.5 27.5l-66 44l79 -7q20 -2 45.5 -4t42.5 -3.5t52.5 -5.5
t54.5 -6q-1 8 -2 18t-1 19q0 10 0.5 18t2.5 19q-25 -3 -62.5 -8.5t-68 -10t-77.5 -9.5t-97 -8h-3l-4 1q-53 17 -119 17q-127 0 -227.5 -79t-100.5 -212q0 -161 135 -238l28 -17l-26 -18q-118 -81 -118 -153q0 -132 137 -157l57 -9l-49 -29q-11 -7 -48.5 -27t-67.5 -38
t-53 -35q-42 -66 -42 -121q0 -109 100.5 -161t231.5 -52q213 0 371.5 83t158.5 224q0 120 -79 187q-73 63 -275 63q-13 0 -34 -0.5t-45 -2t-48 -3.5t-40 -4h-2q-58 -4 -60 -4q-139 0 -140 117q0 71 69 130l10 9l13 -7q49 -26 142 -26q156 0 237.5 82t81.5 211zM186 -213
q0 122 144 200l5 3h5q33 0 101.5 3t80.5 3q88 0 136.5 -6.5t91.5 -31.5q90 -53 90 -165q0 -102 -109.5 -157.5t-255.5 -55.5q-45 0 -106.5 16.5t-122 66.5t-60.5 124zM216 1290l-19 -8q23 -117 90 -180.5t164 -63.5q55 0 106 27t92 83.5t55 133.5l-18 8q-22 -82 -87 -129
t-148.5 -47t-146.5 47.5t-88 128.5z" />
    <glyph glyph-name="Gdotaccent" unicode="&#x120;" horiz-adv-x="1468" 
d="M1118 240q-6 283 -20 389l4 6q35 -6 104 -6l107 6l2 -6q-20 -135 -21 -348v-13q0 -74 21 -98v-6q-219 -184 -545 -184q-299 0 -481.5 196.5t-182.5 472.5q0 164 61.5 299t164 220t229.5 132.5t260 47.5q111 0 227.5 -22.5t178.5 -46.5l61 -24l4 -6q-33 -139 -41 -248
l-20 -2q-70 117 -185.5 184.5t-252.5 67.5q-211 0 -343.5 -157.5t-132.5 -423.5q0 -106 28 -208t84 -191t156.5 -143t231.5 -54q219 0 301 78v88zM664 1599q0 43 31.5 75t74.5 32t75 -32t32 -75t-32 -74.5t-75 -31.5t-74.5 31.5t-31.5 74.5zM1139 240v-97l-7 -6
q-89 -83 -315 -84q-111 0 -201 38t-148 99.5t-97 143.5t-56.5 166t-17.5 170q0 272 138 437t358 165q135 0 250.5 -63t189.5 -175q8 88 36 207q-221 86 -448 86q-176 0 -331.5 -75.5t-259 -234.5t-103.5 -368q0 -268 177 -458.5t466 -190.5q309 0 521 170q-17 36 -17 98v13
v58.5t0.5 52t1.5 48t2.5 44.5t3.5 42.5t4.5 42t5.5 43.5q-16 -1 -37.5 -2.5t-48.5 -1.5q-48 0 -85 4q13 -102 17 -340q1 -21 1 -32zM684 1599.5q0 -34.5 25.5 -60.5t60.5 -26t60.5 26t25.5 60.5t-25.5 60.5t-60.5 26t-60.5 -26t-25.5 -60.5z" />
    <glyph glyph-name="gdotaccent" unicode="&#x121;" horiz-adv-x="1021" 
d="M639 582q0 240 -186 239q-88 0 -134.5 -59.5t-46.5 -163.5q0 -119 45 -178.5t152 -59.5q92 0 131 58t39 164zM799 592q0 -135 -88 -224t-252 -89q-98 0 -152 28q-61 -53 -61 -114q0 -59 31.5 -78t87.5 -19q2 0 59 4q78 10 170 11q209 0 289 -68q86 -74 86 -203
q0 -104 -84 -181t-206 -111.5t-261 -34.5q-84 0 -159 19t-134 74.5t-59 139.5q0 63 47 135q25 20 167 100q4 2 7 4q-79 14 -117.5 61.5t-38.5 115.5q0 82 127 170q-145 84 -145 256q0 143 107.5 227t240.5 84q69 0 125 -18q87 5 189 20.5t134 18.5l6 -7q-6 -29 -6 -53t6 -53
l-6 -6q-191 20 -213 21q103 -68 103 -230zM207 -213q0 -63 54 -108.5t112.5 -61.5t101.5 -16q141 0 242.5 51t101.5 141q0 100 -80 148q-59 35 -217 34q-10 0 -78.5 -3t-103.5 -3q-55 -31 -94 -82t-39 -100zM354 1223q0 41 32 72.5t73 31.5t72.5 -31.5t31.5 -72.5t-31.5 -73
t-72.5 -32t-73 32t-32 73zM659 582q0 -242 -190 -242q-217 0 -217 258q0 111 52 177.5t149 66.5q106 0 156 -70.5t50 -189.5zM778 592q0 48 -8 85.5t-23 61.5t-29.5 38.5t-33.5 27.5l-66 44l79 -7q20 -2 45.5 -4t42.5 -3.5t52.5 -5.5t54.5 -6q-1 8 -2 18t-1 19q0 10 0.5 18
t2.5 19q-25 -3 -62.5 -8.5t-68 -10t-77.5 -9.5t-97 -8h-3l-4 1q-53 17 -119 17q-127 0 -227.5 -79t-100.5 -212q0 -161 135 -238l28 -17l-26 -18q-118 -81 -118 -153q0 -132 137 -157l57 -9l-49 -29q-11 -7 -48.5 -27t-67.5 -38t-53 -35q-42 -66 -42 -121q0 -109 100.5 -161
t231.5 -52q213 0 371.5 83t158.5 224q0 120 -79 187q-73 63 -275 63q-13 0 -34 -0.5t-45 -2t-48 -3.5t-40 -4h-2q-58 -4 -60 -4q-139 0 -140 117q0 71 69 130l10 9l13 -7q49 -26 142 -26q156 0 237.5 82t81.5 211zM186 -213q0 122 144 200l5 3h5q33 0 101.5 3t80.5 3
q88 0 136.5 -6.5t91.5 -31.5q90 -53 90 -165q0 -102 -109.5 -157.5t-255.5 -55.5q-45 0 -106.5 16.5t-122 66.5t-60.5 124zM375 1222.5q0 -32.5 25.5 -58t58.5 -25.5t58.5 25.5t25.5 58t-25.5 58.5t-58.5 26t-58.5 -26t-25.5 -58.5z" />
    </font>
</defs>
</svg>
