<?xml version="1.0" standalone="no"?>
<!DOCTYPE svg PUBLIC "-//W3C//DTD SVG 1.1//EN" "http://www.w3.org/Graphics/SVG/1.1/DTD/svg11.dtd" >
<svg xmlns="http://www.w3.org/2000/svg" xmlns:xlink="http://www.w3.org/1999/xlink" version="1.1">
<metadata>
Created by FontForge 20170515 at Fri Oct 13 01:07:07 2017
 By fw_worker
Linux Libertine by Philipp H. Poll,
Open Font under Terms of following Free Software Licenses:
GPL (General Public License) with font-exception and OFL (Open Font License).
Created with FontForge (http://fontforge.sf.net)
Sept 2003, 2004, 2005, 2006, 2007, 2008, 2009, 2010, 2011
</metadata>
<defs>
<font id="LinBiolinumW" horiz-adv-x="114" >
  <font-face 
    font-family="Linux Biolinum Shadow"
    font-weight="400"
    font-stretch="normal"
    units-per-em="2048"
    panose-1="2 0 5 3 0 0 0 0 0 0"
    ascent="1638"
    descent="-410"
    x-height="885"
    cap-height="1327"
    bbox="-2222 -703 12754 1829"
    underline-thickness="81"
    underline-position="-281"
    unicode-range="U+0020-FFFD"
  />
<missing-glyph horiz-adv-x="1138" 
d="M0 0v1430h1024l116 -116v-1430l-908 -116l-116 116zM218 368l233 347l-233 347v-694zM614 470l-134 -368h380zM922 946l-215 -321l37 -50l-42 42l-13 -18l233 -347v694zM782 1209h-502l262 -358zM20 20h983l1 1389h-984v-1389zM512 770l-387 576h774zM549 715l393 587
v-1175zM126 82l386 577l386 -577h-772zM82 1302l393 -587l-393 -588v1175z" />
    <glyph glyph-name="ellipsis" unicode="&#x2e;&#x2e;&#x2e;" horiz-adv-x="1648" 
d="M111 90v8q14 41 39 66.5t71 44.5h8q45 -16 71 -42l116 -116q26 -26 40 -69l-116 116v-8l116 -116q-16 -49 -41.5 -74t-69.5 -36l-116 116h-8l116 -116q-48 11 -73 35l-116 116q-24 24 -37 75zM653 90v8q27 76 111 111h8q45 -16 71 -42l116 -116q26 -26 40 -69l-116 116
v-8l116 -116q-16 -49 -41.5 -74t-69.5 -36l-116 115l-8 1l116 -116q-48 11 -73 35l-116 116q-25 24 -38 75zM1194 90v8q27 76 111 111h8q45 -16 71 -42l115 -116q26 -26 40 -69l-116 116v-8l116 -116q-16 -49 -41.5 -74t-68.5 -36l-116 116h-8l115 -116q-48 11 -72 35
l-116 116q-25 24 -38 75zM1214 94q9 -32 19.5 -49.5t27 -27.5t46.5 -17h3q25 7 41.5 17t29 28.5t22.5 48.5q-13 37 -33.5 58t-60.5 37q-40 -17 -61 -37.5t-34 -57.5zM673 94q13 -47 31.5 -65.5t61.5 -28.5h4q38 10 58 29.5t34 64.5q-13 37 -33.5 58t-60.5 37
q-40 -17 -61 -37.5t-34 -57.5zM131 94q13 -47 31 -65.5t61 -28.5h4q25 7 41 17t29 28.5t23 48.5q-13 37 -34 58t-61 37q-40 -17 -60.5 -37.5t-33.5 -57.5z" />
    <glyph glyph-name="exclamdbl" unicode="&#x21;&#x21;" horiz-adv-x="956" 
d="M608 1352q42 0 73 -32l116 -115q41 -41 42 -119q0 -76 -23 -204.5t-30 -190.5q-12 -97 -19.5 -183.5t-10 -133.5t-3.5 -56q-4 -41 -29 -41q-13 0 -20 7l-116 116q-6 6 -8 20l-11 145q-10 145 -20 242q-7 71 -29 193t-22 202q0 75 34.5 112.5t75.5 37.5zM494 94v8
q27 76 110 111h8q45 -16 71 -42l116 -116q26 -26 40 -68l-116 115v-8l116 -116q-16 -49 -41.5 -74t-69.5 -36l-116 116h-8l116 -116q-48 11 -73 35l-116 116q-24 24 -37 75zM231 1348q42 0 74 -32l116 -115q41 -41 41 -119q0 -58 -8.5 -116t-22.5 -134.5t-22 -144.5
q-12 -97 -19 -183.5t-10 -133.5t-4 -56q-4 -41 -29 -41q-13 0 -20 7l-116 116q-6 6 -8 20q0 1 -10.5 146t-20.5 241q-7 71 -29 193t-22 202q0 76 34.5 113t75.5 37zM117 90v8q27 76 110 111h9q45 -16 70 -42l116 -116q26 -26 40 -69l-116 116v-8l116 -116q-16 -49 -41.5 -74
t-69.5 -36l-115 116h-9l116 -116q-48 11 -73 35l-115 116q-25 24 -38 75zM137 94q13 -47 31 -65.5t62 -28.5h3q38 10 58 29.5t35 64.5q-13 37 -33.5 58t-60.5 37q-40 -17 -61 -37.5t-34 -57.5zM231 1327q-33 0 -61.5 -30.5t-28.5 -98.5q0 -77 22 -198t29 -195q7 -70 14 -156
t11.5 -152t5.5 -79q0 -2 1 -4q1 -4 6 -4h1q2 0 3 0.5t3 5.5t3 16v1q1 7 3 38.5t4.5 73.5t9 113.5t16.5 146.5q8 65 30.5 192.5t22.5 200.5q0 66 -29 97.5t-66 31.5zM514 98q13 -47 31 -65t61 -29h4q38 10 58 29.5t35 64.5q-13 37 -34 58.5t-61 36.5q-40 -17 -60.5 -37.5
t-33.5 -57.5zM608 1331q-14 0 -28 -6t-28.5 -20t-24 -40.5t-9.5 -62.5q0 -77 22 -198t29 -195q7 -70 14 -156t11.5 -151.5t5.5 -79.5q6 -9 8 -8q2 0 3 0.5t3 5.5t3 16v1q1 7 3.5 54t10 134t18.5 184q8 65 30.5 192.5t22.5 200.5q0 65 -28.5 97t-65.5 32z" />
    <glyph glyph-name="question_question" unicode="&#x3f;&#x3f;" horiz-adv-x="1714" 
d="M1285 1152q-141 0 -252 -193l-26 2l-116 116l-33 137l6 9q152 127 324 127q163 0 255 -92l116 -116q83 -83 83 -217q0 -57 -18.5 -106.5t-56.5 -91t-66 -65.5t-76 -59q-86 -64 -107 -102q-37 -71 -37 -150v-90q0 -20 -26 -20l-116 115q-15 0 -22 7q-5 5 -5 14v94
q0 59 5 100t38 107.5t94 122.5q66 61 94.5 111.5t28.5 119.5q0 58 -21 108q-31 12 -66 12zM1024 90v8q27 76 111 111h8q45 -16 71 -42l116 -116q26 -26 39 -69l-116 116v-8l116 -116q-16 -49 -41.5 -74t-68.5 -36l-116 116h-8l115 -116q-48 11 -72 35l-116 116
q-25 24 -38 75zM515 1152q-141 0 -252 -193l-26 2l-116 116l-33 137l6 9q152 127 324 127q163 0 255 -92l116 -116q83 -83 83 -217q0 -46 -14.5 -89.5t-33.5 -73.5t-52.5 -63t-56.5 -51t-61 -45q-86 -64 -106 -102q-37 -71 -37 -150v-90q0 -21 -26 -21l-116 116q-15 0 -22 7
q-5 5 -5 14v94q0 59 5 100t38 107.5t94 122.5q65 60 94 111t29 120q0 58 -21 108q-31 12 -66 12zM254 90v8q27 76 111 111h8q45 -16 71 -42l115 -116q26 -26 40 -69l-116 116v-8l116 -116q-15 -49 -41 -74t-69 -36l-116 116h-8l115 -116q-48 11 -72 35l-116 116
q-25 24 -38 75zM274 94q13 -47 31 -65.5t62 -28.5h3q38 10 58 29.5t35 64.5q-13 37 -33.5 58t-60.5 37q-40 -17 -61 -37.5t-34 -57.5zM403 1288q96 0 158 -74t62 -182q0 -74 -31.5 -129t-98.5 -117q-45 -41 -73.5 -84t-40 -87t-14.5 -72.5t-3 -71.5v-94q3 -1 6.5 -0.5
t6.5 0.5v90q0 84 39 159q23 43 112 109q47 34 75.5 58t64 63t52.5 85t17 99q0 132 -84.5 210.5t-232.5 78.5q-161 0 -308 -120l27 -111q115 190 266 190zM1044 94q13 -47 31 -65.5t62 -28.5h3q25 7 41.5 17t29 28.5t22.5 48.5q-9 25 -20.5 42t-29 29.5t-44.5 23.5
q-40 -17 -61 -37.5t-34 -57.5zM1169 1288q96 0 160 -73.5t64 -182.5q0 -50 -16 -93t-42.5 -77.5t-71.5 -75.5t-73.5 -84t-40 -87t-14 -72.5t-2.5 -71.5v-94q3 -1 6 -0.5t6 0.5v90q0 84 39 159q23 43 113 109q47 34 75 58t63.5 63t52.5 85t17 99q0 133 -85 211t-232 78
q-161 0 -308 -120l27 -111q115 190 262 190z" />
    <glyph glyph-name="question_exclam" unicode="&#x3f;&#x21;" horiz-adv-x="1331" 
d="M983 1352q42 0 73 -32l116 -115q41 -41 42 -119q0 -76 -23 -204.5t-31 -190.5q-12 -97 -19 -183.5t-9.5 -133.5t-3.5 -56q-4 -41 -29 -41q-13 0 -21 7l-115 116q-6 6 -9 20q-1 13 -5.5 78.5t-11 152t-13.5 156.5q-7 71 -29.5 193t-22.5 202q0 76 35 113t76 37zM868 94v8
q27 76 111 111h8q45 -16 71 -42l116 -116q26 -26 40 -68l-116 115v-8l116 -116q-16 -49 -41.5 -74t-69.5 -36l-116 116h-8l116 -116q-48 11 -73 35l-116 116q-25 24 -38 75zM515 1152q-141 0 -252 -193l-26 2l-116 116l-33 137l6 9q152 127 324 127q163 0 255 -92l116 -116
q83 -83 83 -217q0 -46 -14.5 -89.5t-33.5 -73.5t-52.5 -63t-56.5 -51t-61 -45q-86 -64 -106 -102q-37 -71 -37 -150v-90q0 -21 -26 -21l-116 116q-15 0 -22 7q-5 5 -5 14v94q0 59 5 100t38 107.5t94 122.5q65 60 94 111t29 120q0 58 -21 108q-31 12 -66 12zM254 90v8
q27 76 111 111h8q45 -16 71 -42l115 -116q26 -26 40 -69l-116 116v-8l116 -116q-15 -49 -41 -74t-69 -36l-116 116h-8l115 -116q-48 11 -72 35l-116 116q-25 24 -38 75zM274 94q13 -47 31 -65.5t62 -28.5h3q38 10 58 29.5t35 64.5q-13 37 -33.5 58t-60.5 37
q-40 -17 -61 -37.5t-34 -57.5zM403 1288q96 0 158 -74t62 -182q0 -74 -31.5 -129t-98.5 -117q-45 -41 -73.5 -84t-40 -87t-14.5 -72.5t-3 -71.5v-94q3 -1 6.5 -0.5t6.5 0.5v90q0 84 39 159q23 43 112 109q47 34 75.5 58t64 63t52.5 85t17 99q0 132 -84.5 210.5t-232.5 78.5
q-161 0 -308 -120l27 -111q115 190 266 190zM889 98q13 -47 31 -65t61 -29h4q38 10 58 30t35 64q-13 37 -34 58.5t-61 36.5q-40 -17 -60.5 -37.5t-33.5 -57.5zM983 1331q-32 0 -61 -30.5t-29 -98.5q0 -77 21.5 -198t29.5 -195q7 -70 14 -156t11 -151.5t6 -79.5v-4q1 -4 7 -4
h1q2 0 3 0.5t2.5 5.5t2.5 16v1q1 7 4 54t10 134t19 184q8 65 30.5 192.5t22.5 200.5q0 65 -28.5 97t-65.5 32z" />
    <glyph glyph-name="exclam_question" unicode="&#x21;&#x3f;" horiz-adv-x="1316" 
d="M231 1348q42 0 74 -32l116 -115q41 -41 41 -119q0 -58 -8.5 -116t-22.5 -134.5t-22 -144.5q-12 -97 -19 -183.5t-10 -133.5t-4 -56q-4 -41 -29 -41q-13 0 -20 7l-116 116q-6 6 -8 20q0 1 -10.5 146t-20.5 241q-7 71 -29 193t-22 202q0 76 34.5 113t75.5 37zM117 90v8
q27 76 110 111h9q45 -16 70 -42l116 -116q26 -26 40 -69l-116 116v-8l116 -116q-16 -49 -41.5 -74t-69.5 -36l-115 116h-9l116 -116q-48 11 -73 35l-115 116q-25 24 -38 75zM888 1148q-141 0 -252 -193l-27 2l-115 116l-33 137l6 9q33 27 73.5 52t111 50t139.5 25
q163 0 254 -92l116 -116q83 -83 83 -218q0 -57 -18 -106.5t-56 -90.5t-66.5 -65t-76.5 -59q-86 -64 -106 -103q-37 -71 -37 -149v-90q0 -20 -27 -21l-116 116q-15 0 -21 7q-5 5 -5 14v94q0 59 5 100t38 107.5t94 122.5q66 61 94.5 111t28.5 120q0 58 -21 108q-31 12 -66 12z
M627 86v8q27 76 110 111h8q45 -16 71 -42l116 -116q26 -26 40 -69l-116 116v-8l116 -116q-10 -33 -25 -55t-35.5 -35t-50.5 -20l-116 115h-8l116 -115q-48 11 -73 35l-115 116q-25 24 -38 75zM647 90q9 -32 19.5 -49.5t27 -27.5t46.5 -17h3q38 10 58 29.5t35 64.5
q-13 37 -34 58t-60 36q-27 -11 -44.5 -23.5t-29.5 -29t-21 -41.5zM772 1284q96 0 159.5 -73.5t63.5 -182.5q0 -50 -15.5 -93t-42.5 -77.5t-71 -75.5q-45 -41 -74 -84t-40 -87t-14 -72.5t-3 -71.5v-94q4 -1 6 0h7v90q0 84 39 159q23 43 112 109q47 34 75.5 58t64 63t52.5 85
t17 99q0 132 -84.5 210.5t-232.5 78.5q-161 0 -308 -120l27 -111q115 190 262 190zM137 94q13 -47 31 -65.5t62 -28.5h3q38 10 58 29.5t35 64.5q-13 37 -33.5 58t-60.5 37q-40 -17 -61 -37.5t-34 -57.5zM231 1327q-33 0 -61.5 -30.5t-28.5 -98.5q0 -77 22 -198t29 -195
q7 -70 14 -156t11.5 -152t5.5 -79q0 -2 1 -4q1 -4 6 -4h1q2 0 3 0.5t3 5.5t3 16v1q1 7 3 38.5t4.5 73.5t9 113.5t16.5 146.5q8 65 30.5 192.5t22.5 200.5q0 66 -29 97.5t-66 31.5z" />
    <glyph glyph-name="centigrade" unicode="&#xb0;C" horiz-adv-x="1740" 
d="M1083 1249q98 0 195.5 -20.5t146.5 -40.5l50 -21l4 -4l115 -116q-27 -89 -36 -204l-19 -2l-116 115q-9 17 -18 33q-94 57 -232 56q-59 0 -121.5 -30t-121 -89.5t-95.5 -164t-37 -236.5q0 -248 100 -403q77 -47 175 -46q129 0 215 38t180 142l43 -31l116 -116
q-189 -246 -436 -245q-248 0 -407 159l-116 116q-88 88 -134.5 211t-46.5 258q0 138 49 259q-55 -43 -125 -43q-86 0 -146 60l-116 116q-59 59 -59 143q0 86 60.5 145.5t144.5 59.5t143 -59l116 -116q60 -60 60 -146q0 -12 -2 -23q85 115 209.5 180t261.5 65zM276 999
q9 -1 19 -2q60 0 97.5 44t37.5 100q0 16 -3 33q-8 1 -16 0q-63 0 -100 -45t-37 -104q0 -13 2 -26zM111 1143q0 -76 54 -129t130 -53t129 53t53 129q0 78 -53 131t-129 53t-130 -53t-54 -131zM451 1138.5q0 -63.5 -43 -112.5t-113 -49q-71 0 -114.5 49.5t-43.5 114.5
q0 66 43 118t115 52q74 0 115 -54.5t41 -118zM1083 1229q-229 0 -402 -175t-173 -446q0 -252 150.5 -430t416.5 -178q229 0 407 221l-11 8q-91 -98 -180.5 -136t-217.5 -38q-141 0 -237.5 89t-135 217t-38.5 280q0 135 38.5 243.5t99 170t127 94.5t130.5 33q254 0 368 -186
q9 86 30 158q-177 75 -372 75z" />
    <glyph glyph-name="fahrenheit" unicode="&#xb0;F" horiz-adv-x="1595" 
d="M1282 1229q86 0 115 4l2 -4l116 -116q-2 -26 -2 -62q0 -31 2 -47l-116 116l-2 -6l116 -116q-271 23 -510 23q-14 -53 -15 -268v-58q152 3 306 18l4 -6l116 -116q-4 -16 -4 -51q0 -37 4 -54l-116 116l-4 -6l116 -116q-188 18 -422 19v-254q0 -243 17 -361l-116 116l-2 -6
l116 -116q-35 6 -97 6l-98 -6l-116 116l-2 6q18 123 19 360v508q0 225 -19 361l4 4q35 -4 97 -4h491zM90 1143q0 86 60.5 145.5t144.5 59.5t143 -59l116 -116q60 -60 60 -146q0 -84 -59.5 -143.5t-143.5 -59.5q-86 0 -146 60l-116 116q-59 60 -59 143zM276 999q9 -1 19 -2
q60 0 97.5 44t37.5 100q0 16 -3 33q-8 1 -16 0q-63 0 -100 -45t-37 -104q0 -13 2 -26zM111 1143q0 -76 54 -129t130 -53t129 53t53 129q0 78 -53 131t-129 53t-130 -53t-54 -131zM451 1138.5q0 -63.5 -43 -112.5t-113 -49q-71 0 -114.5 49.5t-43.5 114.5q0 66 43 118t115 52
q74 0 115 -54.5t41 -118zM1282 1208h-492q-41 0 -77 3q16 -131 16 -343v-508q0 -220 -16 -343q35 3 78 3q40 0 75 -3q-14 114 -14 343v275h20q210 0 403 -17q-1 15 -1 37q0 23 1 35q-178 -17 -403 -16h-20v194q0 218 15 274l4 15h16q217 0 490 -21q-1 11 -1 31q0 25 1 43
q-28 -2 -95 -2z" />
    <glyph glyph-name="f_t" unicode="ft" horiz-adv-x="1417" 
d="M203 788h-2l2 -2v2zM801 673h-319v-379q0 -272 21 -410l-116 116l-4 -6l116 -116q-28 6 -98 6l-101 -6l-116 116l-2 6q20 129 21 410v260q-22 -1 -38 -1l-116 115l-10 15q29 45 45 84q31 -4 119 -4v82q0 111 23.5 168t88.5 145q115 156 316 156q63 0 92 -19l2 -6
l116 -116q-25 -43 -58 -168l-22 -2l-59 59q-27 13 -60 13q-56 0 -95.5 -30t-57 -76.5t-17.5 -104.5q0 -16 6 -101h323q0 162 -15 247l5 7q29 2 54 8t39.5 11t37 16.5t34.5 15.5q9 0 14 -5l116 -115q5 -5 5 -17q-9 -111 -10 -168q78 1 123 4l10 -15l116 -115q-16 -40 -24 -84
q-42 4 -148 4h-78v-293q0 -69 -3 -159.5t-3 -113.5v-15q63 6 113 34l116 -116l25 -50q-103 -96 -258 -96q-70 0 -115 44l-115 116q-45 45 -45 117q0 23 3 142.5t3 189.5v200zM203 809h20v-399q0 -264 -17 -393q34 3 79 3t79 -3q-18 136 -18 393v399h475v-336
q0 -70 -3 -189.5t-3 -142.5q0 -63 38 -102t101 -39q137 0 233 81l-9 18q-62 -29 -152 -29q-88 0 -88 153q0 25 3 115t3 158v292v2v19h98q78 0 131 -3q6 28 17 55q-63 -3 -129 -3h-117v21q0 153 10 282q-7 -3 -22 -10.5t-25.5 -11.5t-26 -9.5t-33.5 -9.5t-38 -6
q12 -78 12 -235v-21h-475v41q0 27 -5 103t-5 94q0 96 48 163.5t142 67.5q81 0 127 -66q25 94 46 138q-29 10 -68 10q-191 0 -299 -147q-46 -62 -63.5 -91.5t-31.5 -82t-14 -127.5v-103h-20q-73 0 -106 3q-12 -27 -29 -55q60 3 135 3z" />
    <glyph glyph-name="t_t" unicode="tt" horiz-adv-x="1347" 
d="M1068 86q52 0 111 20l116 -116l25 -51q-118 -76 -237 -75q-77 0 -127 49l-116 116q-53 53 -54 147q0 23 3.5 142.5t3.5 189.5v165h-319v-293q0 -69 -3 -156.5t-3 -109.5v-9q43 6 93 34l115 -116l26 -57q-110 -102 -238 -102q-70 0 -115 44l-116 116q-45 45 -45 117
q0 23 3.5 142.5t3.5 189.5v197q-16 -1 -30 -1l-116 115l-10 15q29 45 45 84q29 -4 111 -4q0 63 4 145t4 117l4 6q30 4 52 11.5t49.5 20.5t41.5 19q9 0 14 -4q5 -5 5 -16l115 -116q-9 -111 -9 -183h318q0 63 4 145t4 117l4 6q31 4 52.5 11t49 20.5t41.5 19.5q9 0 14 -4
q5 -5 5 -16l116 -116q-9 -111 -10 -183q78 1 123 4l10 -15l116 -115q-16 -40 -24 -84q-42 4 -148 4h-78v-258q0 -69 -3 -159.5t-3 -113.5q0 -32 2 -56zM794 809h19v-301q0 -70 -3 -189.5t-3 -142.5q0 -86 46 -131t114 -45q108 0 211 63l-9 18q-77 -23 -154 -11
q-48 8 -66.5 54t-18.5 134q0 25 3 115t3 157v279h98q78 0 131 -3q6 28 17 55q-63 -3 -129 -3h-117v21q0 167 10 296q-7 -3 -32.5 -15.5t-45 -19t-47.5 -11.5q0 -28 -4 -108t-4 -142v-2v-19h-475v21q0 167 10 296q-9 -4 -27 -12.5t-29.5 -13.5t-30 -11t-38.5 -9
q0 -28 -4 -108t-4 -142v-21h-21q-66 0 -97 3q-12 -27 -29 -55q51 3 126 3h21v-336q0 -70 -3 -189.5t-3 -142.5q0 -63 38 -102t101 -39q114 0 213 87l-10 23q-56 -28 -131 -28q-88 0 -88 147q0 25 3 112t3 155v313h456z" />
    <glyph glyph-name="Q_u" unicode="Qu" horiz-adv-x="2668" 
d="M843 1142q-77 0 -147.5 -32.5t-130.5 -99t-96 -184.5t-36 -272q0 -245 115 -406q113 -79 249 -78q180 0 291.5 148.5t111.5 416.5q0 281 -105 439q-104 68 -252 68zM1944 95q6 0 14 -1q72 0 150.5 64.5t129.5 150.5v201q0 233 -18 369l4 6q37 -6 96.5 -6t96.5 6l4 -6
l116 -116q-18 -122 -19 -369v-117q0 -206 35 -393l-116 116l-4 -6l116 -116q-40 6 -91 6q-23 0 -71 -6q-14 0 -17 3l-96 96q-113 -114 -233 -113q-123 0 -192 69l-116 116q-76 76 -76 215v246q0 238 -19 369l4 6q37 -6 96.5 -6t96.5 6l4 -6l116 -116q-18 -122 -18 -369v-203
q-1 -55 7 -96zM2243 180v2l-9 6zM1410 -92q280 -111 566 -148l116 -115v-13q-135 -71 -192 -117q-182 51 -328 105t-272 117t-258 146q-81 -19 -170 -19q-280 0 -466 185l-116 116q-183 183 -184 470q0 301 186.5 507t461.5 206q282 0 468 -186l115 -116q190 -190 190 -488
q0 -74 -1 -119.5t-4 -116t-10.5 -121t-20 -107.5t-33 -103.5t-48.5 -82.5zM1084 49l-28 18l29 17q144 84 225 237t81 353q0 291 -182.5 472t-454.5 181q-266 0 -446.5 -199.5t-180.5 -492.5q0 -190 86 -337t228.5 -222.5t314.5 -75.5q87 0 165 19l9 2l7 -5
q195 -123 385.5 -205.5t456.5 -156.5q50 37 151 92q-248 37 -472.5 122t-373.5 181zM2217 200l12 18l33 -25l10 -178q44 6 70 5q35 0 71 -3q-31 185 -31 376v117q0 235 16 352q-40 -4 -77.5 -4t-77.5 4q16 -128 16 -352v-206l-3 -5q-53 -90 -136 -157.5t-162 -67.5
q-72 0 -115 49t-43 184v203q0 235 16 352q-40 -4 -77.5 -4t-77.5 4q16 -125 16 -352v-246q0 -115 58.5 -189.5t189.5 -74.5q81 0 159.5 58t132.5 142zM727 1278q231 0 362.5 -163t131.5 -480q0 -274 -117 -430t-307 -156q-207 0 -353.5 166t-146.5 455q0 305 127 456.5
t303 151.5z" />
    <glyph glyph-name="f_f" unicode="ff" horiz-adv-x="1327" 
d="M203 788h-2l2 -2v2zM772 673h-290v-379q0 -272 21 -410l-116 116l-4 -6l116 -116q-28 6 -98 6l-101 -6l-116 116l-2 6q20 129 21 410v260q-22 -1 -38 -1l-116 115l-10 15q29 45 45 84q31 -4 119 -4v61q0 111 23.5 168t88.5 145q115 156 316 156q63 0 92 -18l2 -7
l116 -115q-20 -35 -44 -119q19 51 88 144q115 156 315 156q63 0 92 -18l2 -7l116 -115q-25 -43 -57 -168l-23 -2l-58 58q-27 13 -60 13q-84 0 -127 -60t-43 -151q0 -14 6 -121q50 1 119 4l11 -15l115 -115q-16 -40 -24 -84q-42 4 -148 4h-69v-379q0 -272 20 -410l-116 116
l-4 -6l116 -116q-28 6 -98 6l-100 -6l-116 116l-2 6q21 129 20 410v263zM477 879h295v102q0 70 11 120l-22 -2l-59 58q-27 13 -60 13q-84 0 -127 -60t-43 -151q0 -16 5 -80zM203 809h20v-399q0 -264 -17 -393q34 3 79 3t79 -3q-18 136 -18 393v399h426h2h19v-399
q0 -264 -18 -393q34 3 79 3t79 -3q-18 135 -18 393v399h91q78 0 131 -3q6 28 16 56q-79 -3 -129 -4h-109v41q0 27 -5 113t-5 104q0 96 48 164t143 68q81 0 126 -66q25 94 46 138q-29 10 -68 10q-191 0 -299 -148q-46 -62 -63 -91t-31 -82t-14 -128v-123h-447v41q0 26 -5 92
t-5 84q0 97 48.5 164.5t141.5 67.5q81 0 127 -66q25 94 46 138q-29 10 -68 10q-191 0 -299 -148q-46 -62 -63.5 -91t-31.5 -82t-14 -128v-82h-20q-73 0 -106 3q-12 -27 -29 -55q60 3 135 3z" />
    <glyph glyph-name=".notdef" horiz-adv-x="1138" 
d="M0 0v1430h1024l116 -116v-1430l-908 -116l-116 116zM218 368l233 347l-233 347v-694zM614 470l-134 -368h380zM922 946l-215 -321l37 -50l-42 42l-13 -18l233 -347v694zM782 1209h-502l262 -358zM20 20h983l1 1389h-984v-1389zM512 770l-387 576h774zM549 715l393 587
v-1175zM126 82l386 577l386 -577h-772zM82 1302l393 -587l-393 -588v1175z" />
    <glyph glyph-name=".null" horiz-adv-x="0" 
 />
    <glyph glyph-name="nonmarkingreturn" horiz-adv-x="682" 
 />
    <glyph glyph-name="space" unicode=" " horiz-adv-x="512" 
 />
    <glyph glyph-name="exclam" unicode="!" horiz-adv-x="581" 
d="M231 1348q42 0 74 -32l116 -115q41 -41 41 -119q0 -58 -8.5 -116t-22.5 -134.5t-22 -144.5q-12 -97 -19 -183.5t-10 -133.5t-4 -56q-4 -41 -29 -41q-13 0 -20 7l-116 116q-6 6 -8 20q0 1 -10.5 146t-20.5 241q-7 71 -29 193t-22 202q0 76 34.5 113t75.5 37zM117 90v8
q27 76 110 111h9q45 -16 70 -42l116 -116q26 -26 40 -69l-116 116v-8l116 -116q-16 -49 -41.5 -74t-69.5 -36l-115 116h-9l116 -116q-48 11 -73 35l-115 116q-25 24 -38 75zM137 94q13 -47 31 -65.5t62 -28.5h3q38 10 58 29.5t35 64.5q-13 37 -33.5 58t-60.5 37
q-40 -17 -61 -37.5t-34 -57.5zM231 1327q-33 0 -61.5 -30.5t-28.5 -98.5q0 -77 22 -198t29 -195q7 -70 14 -156t11.5 -152t5.5 -79q0 -2 1 -4q1 -4 6 -4h1q2 0 3 0.5t3 5.5t3 16v1q1 7 3 38.5t4.5 73.5t9 113.5t16.5 146.5q8 65 30.5 192.5t22.5 200.5q0 66 -29 97.5
t-66 31.5z" />
    <glyph glyph-name="quotedbl" unicode="&#x22;" horiz-adv-x="802" 
d="M182 872q-53 326 -53 345q0 37 30.5 69.5t73.5 32.5q35 0 54 -19l103 -103q-2 18 -3 22q0 37 31 69.5t74 32.5q34 0 53 -19l116 -116q18 -18 18 -48q0 -15 -17 -107.5t-34 -178.5l-17 -85l61 -124l-116 116l-116 115q-16 97 -30 188l-57 -297l61 -124l-116 116zM199 896
l21 3q64 324 65 352q0 47 -52 47q-34 0 -58.5 -26t-24.5 -55q1 -25 49 -321zM457 898l21 3q64 324 65 352q0 47 -51 47q-34 0 -59 -26t-25 -55q1 -25 49 -321z" />
    <glyph glyph-name="numbersign" unicode="#" horiz-adv-x="1077" 
d="M477 506h107l19 124h-106zM843 854h64l116 -116l-16 -108h-197l-21 -124h63l116 -116l-17 -106l-194 -1l-62 -370h-71l-116 116l39 254h-106l-61 -370h-72l-115 116l40 255h-62l-116 115l15 107h198l20 124h-64l-115 115l18 109h197l59 371h74l116 -116l-43 -255h109
l57 371h72l116 -116zM677 766h196l10 68h-198l59 370h-30l-57 -370h-286l62 370h-33l-59 -370h-197l-11 -68h198l-45 -281h-198l-9 -65h197l-59 -371h30l61 371h281l-57 -371h30l62 371h194l10 65h-199zM601 485h-283l46 281h280z" />
    <glyph glyph-name="dollar" unicode="$" horiz-adv-x="1067" 
d="M587 -135l-9 -172q-18 -10 -76 -10l-116 116l5 79q-56 11 -103 29.5t-65 31.5l-19 13l-116 116l-4 6q31 127 39 186l18 2l116 -116q8 -18 19 -35q58 -35 125 -44l24 446q-61 36 -102 77l-116 116q-90 90 -90 216q0 139 108 230.5t241 96.5l9 163q27 10 75 10l116 -116
l-4 -79q85 -24 123 -63l1 -1l5 -6l115 -116q-28 -89 -36 -180l-21 -2l-116 116q-12 27 -26 49q-26 14 -55 22l-21 -377q90 -43 143 -97l116 -115q90 -90 90 -219q0 -75 -31.5 -147t-91.5 -123q-105 -90 -270 -103zM390 773q22 -13 48 -25l15 273q-81 -56 -81 -166
q0 -44 18 -82zM461 1169l1 2h-3zM683 395q-26 14 -65 30l-18 -323q102 61 102 185q1 62 -19 108zM452 0l18 2q158 12 258 98q56 48 86 116t30 138q0 59 -21 109t-51.5 84t-79 64.5t-90 49t-97.5 38.5l-15 5l27 484l24 -6q123 -33 196 -169q9 70 31 140q-71 62 -229 74l-20 1
l10 173q-20 -1 -35 -4l-9 -168h-19q-125 -4 -227 -91t-102 -216q0 -121 80 -197.5t219 -135.5l14 -5l-30 -541l-22 3q-169 24 -260 178q-8 -50 -31 -144q107 -72 290 -79l21 -1l-10 -180q21 1 34 4zM483 570l27 -10q100 -41 156.5 -100t56.5 -173q0 -109 -71.5 -172
t-173.5 -71l-24 -2zM457 717l-27 13q-194 89 -194 241q0 96 61 158.5t162 62.5h3h21z" />
    <glyph glyph-name="percent" unicode="%" horiz-adv-x="1507" 
d="M831 215q0 127 86.5 235.5t202.5 108.5q89 0 138 -49l116 -116q51 -51 51 -149q0 -79 -30.5 -166t-97 -154t-151.5 -67q-76 0 -128 52l-116 115q-71 71 -71 190zM797 1141q54 0 111.5 9t121 37t94.5 70l70 -34l116 -116l-897 -1249l-74 32l-116 116l672 937h-5
q-19 0 -43 3.5t-48 9.5t-46 14.5t-37 17.5q6 -21 6 -53q0 -76 -30 -162.5t-97.5 -155.5t-153.5 -69q-76 0 -127 51l-116 116q-69 69 -69 186q0 129 86 238.5t201 109.5q42 0 82.5 -15.5t60.5 -35.5l4 -4q115 -53 234 -53zM1243 374q-71 -14 -126 -113.5t-55 -194.5
q0 -15 1 -28q77 13 128.5 117.5t51.5 202.5v16zM538 1064q-71 -14 -125.5 -114t-54.5 -195q0 -14 1 -26q77 13 128.5 116t51.5 204q-1 7 -1 15zM221 870q0 109 64.5 220.5t154.5 111.5q28 0 53.5 -12.5t45.5 -49t20 -91.5q0 -69 -24 -145.5t-76 -136.5t-119 -60
q-45 0 -82 39.5t-37 123.5zM797 1120q-124 0 -242 55l-5 2l-2 4q-14 17 -53.5 32.5t-78.5 15.5q-104 0 -185 -102.5t-81 -225.5q0 -86 46 -151.5t130 -65.5q113 0 186.5 124t73.5 243q0 29 -6 47l-14 50l45 -27q27 -16 77.5 -29t85.5 -13q125 0 226 40l65 25l-810 -1129
l35 -16l873 1216l-33 17q-54 -60 -149.5 -86t-183.5 -26zM852 215q0 -90 47 -155.5t131 -65.5q113 0 185.5 121t72.5 245q0 178 -168 179q-106 0 -187 -101.5t-81 -222.5zM926 182q0 109 64.5 219.5t154.5 110.5q41 0 80 -35t39 -119q0 -67 -24 -143.5t-76.5 -137.5
t-119.5 -61q-47 0 -82.5 41t-35.5 125z" />
    <glyph glyph-name="ampersand" unicode="&#x26;" horiz-adv-x="1568" 
d="M408 79q46 -17 108 -18q70 0 123 29t82 62.5t92 119.5q-96 126 -205 287q-130 -78 -175 -159.5t-45 -195.5q0 -72 20 -125zM808 1151q-7 1 -14 1q-50 0 -103 -52t-53 -143q0 -18 26 -68q68 57 107.5 118t39.5 107q0 19 -3 37zM797 666q24 -38 35 -56l-48 48
q-11 -7 -23 -14l-116 116l8 -17l116 -115q21 -36 149 -199q165 253 190 456q20 -6 80 -6q68 0 88 6l116 -116q-32 -56 -154 -274t-156 -275q28 -36 45 -58l-50 49q-5 -9 -9 -13l69 -94q25 -14 43 -14q98 0 155 111l33 -17l116 -116q-33 -102 -88 -153t-113 -51
q-33 0 -55.5 3t-58 20.5t-69.5 50.5l-116 116q-4 4 -7 8q-74 -98 -157.5 -148t-201.5 -50q-210 0 -320 109l-115 116q-92 92 -93 251q0 111 92 212t295 216q-111 172 -110 301q0 101 89 190t232 89q116 0 194 -78l116 -116q66 -66 66 -156q0 -51 -35 -110.5t-95 -116
t-137 -105.5zM1137 105l-115 114q28 -40 57.5 -69t57.5 -45zM912 382l-16 -24l-17 23q-177 238 -243 352l-18 35l17 10q62 36 116.5 79.5t93 88t61 88.5t22.5 80q0 88 -70 150.5t-170 62.5q-69 0 -128 -25t-95.5 -63.5t-57 -83t-20.5 -86.5q0 -123 107 -290l12 -18l-19 -11
q-134 -75 -217.5 -144t-121 -133.5t-37.5 -132.5q0 -174 108.5 -257t282.5 -83q117 0 197.5 50.5t156.5 154.5l16 21l76 -97q33 -46 63.5 -74t60 -39t47.5 -13.5t48 -2.5q47 0 93.5 40.5t80.5 127.5q-60 -98 -161 -98q-77 0 -175 137l-78 106l8 12q18 27 72 122.5t126 225
t105 186.5q-19 -1 -50 -1q-40 0 -63 3q-31 -209 -213 -479zM611 825l-17 -12l-11 18q-81 133 -81 242q0 100 58.5 157.5t117.5 57.5q72 0 112.5 -49t40.5 -125q0 -65 -60 -144.5t-160 -144.5zM512 710l19 10l9 -18q17 -33 112.5 -172t176.5 -245l10 -12l-9 -13
q-40 -54 -57.5 -76.5t-50.5 -57.5t-58.5 -48.5t-63.5 -25t-84 -11.5q-115 0 -189.5 65.5t-74.5 212.5q0 125 54 216t206 175z" />
    <glyph glyph-name="quotesingle" unicode="'" horiz-adv-x="503" 
d="M162 872q-53 326 -53 345q0 36 30 69t74 33q34 0 53 -19l116 -116q18 -18 19 -49q0 -15 -17 -107t-34 -178l-17 -85l61 -124l-116 116zM179 896l21 3q64 324 64 352q0 47 -51 47q-23 0 -42.5 -13t-30.5 -31.5t-11 -36.5q2 -26 50 -321z" />
    <glyph glyph-name="parenleft" unicode="(" horiz-adv-x="729" 
d="M90 516q0 274 121 520t313 412l47 -37l116 -116q-311 -350 -311 -895q0 -540 311 -899l-47 -35l-116 116q-36 31 -69 65q-101 101 -175 220.5t-109 213t-55 196t-23 148.5t-3 91zM111 516q0 -47 3 -95t25.5 -157t62.5 -206.5t124 -222t199 -227.5l16 12
q-302 355 -301 896q0 145 24 280t57 226.5t79.5 177t77 127.5t64.5 81l-17 13q-119 -106 -210.5 -243t-147.5 -310.5t-56 -351.5z" />
    <glyph glyph-name="parenright" unicode=")" horiz-adv-x="729" 
d="M640 400q0 -274 -120.5 -520.5t-313.5 -411.5l-116 116l-47 37q311 350 311 895q0 541 -311 899l47 35q36 -31 70 -65l116 -116q101 -101 174.5 -220.5t108.5 -213t55 -196t23 -148.5t3 -91zM504 516q0 47 -3.5 95.5t-26 157t-62.5 206t-124 222t-199 227.5l-16 -12
q302 -355 302 -896q0 -145 -24.5 -280t-57 -226.5t-79 -177t-77.5 -127.5t-64 -81l16 -13q184 163 299.5 401.5t115.5 503.5z" />
    <glyph glyph-name="asterisk" unicode="*" horiz-adv-x="1001" 
d="M523 957q-3 -8 -9 -22.5t-9.5 -22.5t-9 -20.5t-9 -20t-9.5 -17.5t-11 -15.5t-11.5 -12.5t-13.5 -10.5t-15 -5.5t-17 -2q-26 0 -43 17l-116 116q-17 17 -17 40q0 52 64 97q-6 4 -11 8l-116 116q-17 17 -16 43q0 25 16 43.5t51 18.5q30 0 59 -17.5t65.5 -45t72.5 -42.5
q-4 40 -25.5 101t-21.5 88q0 33 17.5 56t43.5 23q30 0 49 -18l115 -116q15 -15 18 -38q20 9 41 9q33 0 52 -19l116 -116q18 -18 18 -43q0 -76 -141 -75q-48 0 -88 -5l115 -114q30 -30 30 -68q0 -26 -18.5 -42.5t-41.5 -16.5q-27 0 -48 21l-116 116q-5 5 -10 12zM440 1190v12
q2 34 20.5 103.5t18.5 93.5q0 51 -47 51q-16 0 -28.5 -16.5t-12.5 -42.5q0 -14 6 -35.5t14 -42t16 -50.5t11 -59zM470 1182q51 8 114 8q121 0 121 55q0 41 -50 41q-28 0 -82.5 -41.5t-102.5 -62.5zM448 1155l5 -7q22 -34 44.5 -90.5t40.5 -85t44 -28.5q15 0 27 11t12 28
q0 29 -22.5 49.5t-67.5 51t-75 63.5zM416 1142q-30 -31 -74 -59.5t-66 -49.5t-22 -52q0 -15 11 -26t28 -11q25 0 41.5 23.5t40 82t41.5 92.5zM422 1179l-12 4q-47 19 -103 61t-86 42q-47 0 -47 -41q0 -55 145 -55q53 0 91 -9z" />
    <glyph glyph-name="plus" unicode="+" horiz-adv-x="1193" 
d="M487 310h-236l-116 116v100h352v357h105l116 -116l59 -241h177l116 -116v-100h-240l4 -15l-16 15h-100v-356h-105l-116 116v240zM571 506v356h-63v-356h-352v-60h352v-356h63v356h353v60h-353z" />
    <glyph glyph-name="comma" unicode="," horiz-adv-x="565" 
d="M98 90v8q27 76 111 111h8q46 -17 75 -45l116 -116q57 -57 56 -170q0 -49 -13 -89.5t-28 -65.5t-50.5 -53.5t-55 -40.5t-66.5 -40l-116 116q-9 8 -12 11q-15 15 -14 32q128 86 152 152q-9 5 -16 12l-116 116q-20 20 -31 62zM118 94q12 -43 28.5 -56t64.5 -24q78 -1 78 -73
q0 -54 -40 -101.5t-118 -100.5q2 -3 7 -9q50 29 75 47t56.5 49.5t45 72.5t13.5 95q0 86 -29.5 129.5t-85.5 65.5q-40 -17 -61 -37.5t-34 -57.5z" />
    <glyph glyph-name="hyphen" unicode="-" horiz-adv-x="796" 
d="M677 367h-463q-12 0 -20 9l-116 116q-10 10 -10 26q0 25 16 50.5t35 25.5h469q11 0 18 -7q10 -10 10 -30l116 -116q0 -19 -18 -46.5t-37 -27.5zM561 504q6 0 20.5 21.5t14.5 31.5q0 16 -8 16h-469q-2 0 -9.5 -8t-14.5 -21.5t-7 -25.5q0 -14 10 -14h463z" />
    <glyph glyph-name="period" unicode="." horiz-adv-x="565" 
d="M111 90v8q14 41 39 66.5t71 44.5h8q45 -16 71 -42l116 -116q26 -26 40 -69l-116 116v-8l116 -116q-16 -49 -41.5 -74t-69.5 -36l-116 116h-8l116 -116q-48 11 -73 35l-116 116q-24 24 -37 75zM131 94q13 -47 31 -65.5t61 -28.5h4q25 7 41 17t29 28.5t23 48.5
q-13 37 -34 58t-61 37q-40 -17 -60.5 -37.5t-33.5 -57.5z" />
    <glyph glyph-name="slash" unicode="/" horiz-adv-x="776" 
d="M600 1323l116 -116l-485 -1444h-84l-116 116l485 1444h84zM572 1303h-41l-472 -1403h41z" />
    <glyph glyph-name="zero" unicode="0" horiz-adv-x="1067" 
d="M593 1054q-221 0 -221 -582q0 -68 4 -130.5t18.5 -142.5t39.5 -135q17 -4 35 -5q27 0 54.5 10.5t67.5 56.5t60 124q35 127 35 399q0 259 -61 401q-16 4 -32 4zM583 -136q-128 0 -222 93l-115 115q-81 81 -123.5 218t-42.5 302q0 291 118.5 474t278.5 183q117 0 195 -71
q7 -6 13 -13l116 -116q177 -177 177 -532q0 -170 -39 -302.5t-100.5 -205.5t-126.5 -109t-129 -36zM467 0q37 0 77 14.5t83 44t81 81t68 118.5t48 164t18 211q0 361 -184 529q-72 66 -181 67q-150 0 -263.5 -175t-113.5 -462q0 -257 98 -424.5t269 -167.5zM477 1190
q62 0 104 -38q57 -48 91.5 -176t34.5 -327q0 -275 -36 -405q-17 -63 -44.5 -106.5t-58 -63.5t-54.5 -27.5t-45 -7.5q-233 0 -233 549q-1 602 241 602z" />
    <glyph glyph-name="one" unicode="1" horiz-adv-x="1067" 
d="M783 271q0 -229 19 -387l-116 116l-4 -6l116 -116q-57 6 -98 6l-95 -6l-116 116l-2 6q16 133 17 387v508v30q-119 -19 -155 -23l-116 116l-12 59q68 21 151.5 55t163.5 67t134 50q9 0 11.5 -2.5t2.5 -7.5l116 -116q-16 -115 -17 -332v-520zM647 387v520q0 208 14 318
q-53 -18 -193.5 -76.5t-222.5 -85.5l5 -23q32 4 80 12.5t83 13.5t54 5q14 0 24.5 -6t16.5 -19.5t10 -24.5t5 -32.5t1 -32v-34v-27.5v-508q0 -242 -14 -371q46 4 74 4q31 0 80 -4q-17 150 -17 371z" />
    <glyph glyph-name="two" unicode="2" horiz-adv-x="1024" 
d="M530 1017q-99 0 -158 -47q-19 -15 -33.5 -34t-20 -29t-19.5 -42t-17 -41l-27 2l-116 116l-45 141q47 62 138 114t215 52q173 0 270 -97l116 -116q89 -89 89 -233q0 -149 -149 -349q-126 -170 -275 -317q162 1 337 17l115 -116q-10 -41 -10 -96q0 -24 7 -68
q-244 10 -356 10q-9 0 -388 -10l-116 116q-21 34 -20 80q0 14 3 26q4 4 71 66.5t104 99t100 101.5t114.5 128t92.5 125q78 117 78 275q0 58 -23 109q-38 17 -77 17zM300 134l-10 9q0 -5 3 -10q2 1 7 1zM414 1153q93 0 165 -75t72 -187q0 -164 -82 -286q-35 -52 -81 -109
t-84.5 -100t-92.5 -97.5t-83 -82.5t-79.5 -75t-59.5 -56q-1 -7 -2 -15q0 -31 13 -59q346 10 375 9q118 0 332 -9q-3 26 -3 46q0 41 5 74q-159 -14 -349 -14q-110 0 -166 -4l-14 -1l-6 12q-5 9 -4 19q0 29 42 70q68 66 103.5 101.5t99 109t126.5 158.5q145 195 145 337
q0 141 -89 225.5t-250 84.5q-114 0 -198 -46t-132 -104l37 -116q2 6 7.5 19t8.5 19t8.5 17.5t9 18t10 16.5t13 17t15 15.5t17.5 15.5q65 52 171 52z" />
    <glyph glyph-name="three" unicode="3" horiz-adv-x="1067" 
d="M428 59q35 0 75 12.5t86 41t76.5 91t30.5 148.5q0 64 -22 117q-66 30 -142 30q-61 0 -86 -5l-116 116v90q43 -6 76 -6q111 0 169 58q78 74 78 200q0 51 -17 96q-19 6 -37 6q-89 0 -144 -42.5t-93 -132.5l-31 3l-116 115l-43 131l6 7q131 115 324 114q164 0 257 -93
l116 -116q72 -72 72 -173q0 -94 -49 -169t-122 -116q8 -7 15 -13l116 -116q82 -82 81 -200q0 -96 -45 -174t-114.5 -123t-144.5 -68.5t-144 -23.5q-189 0 -305 98l-116 116l-6 6l45 154l30 2l116 -116q21 -45 25 -53q39 -12 99 -12zM601 658l-11 12v-11q5 0 11 -1zM630 537
q-1 1 -2 1q1 0 2 -1zM428 39q-48 0 -84.5 8.5t-60 21t-44.5 39t-32.5 48t-30.5 62.5h-3l-37 -128q110 -90 288 -90q92 0 186.5 37t168 125t73.5 207q0 111 -75 185.5t-189 84.5l-19 2v45l16 4q83 19 154.5 101t71.5 192q0 104 -84 175t-225 71q-181 0 -306 -106l34 -106h3
q26 57 59 94t81 58t110 21q74 0 132.5 -67.5t58.5 -170.5q0 -135 -84 -215q-66 -63 -184 -63q-26 0 -56 3v-44q24 2 66 2q128 0 214 -70q87 -74 87 -213q0 -92 -33 -158.5t-83 -97t-93 -44t-80 -13.5z" />
    <glyph glyph-name="four" unicode="4" horiz-adv-x="1067" 
d="M861 406h16q14 0 21 -9l116 -115q9 -9 9 -25q0 -11 -8.5 -27.5t-23 -29.5t-27.5 -13h-103q0 -125 13 -303l-116 116q0 -6 -4 -6l116 -116q-7 0 -37.5 3t-49.5 3l-96 -6l-116 116l-2 6q13 111 16 187h-305q-91 0 -113 22l-116 116q-8 8 -8 19q0 33 27 80q80 135 256 405.5
t270 399.5l8 8q37 -8 70 -8q16 0 43.5 4t36.5 4q1 0 1 -1q2 -2 3 -7l116 -116q-12 -114 -13 -303v-404zM361 406h225v348zM606 1118v-733h-474zM606 324v-21q0 -163 -14 -287q50 4 76 4q18 0 68 -5q-11 164 -11 288v21h20h103q8 0 23.5 19t15.5 30q0 12 -10 12h-152v541
q0 174 11 289q-45 -6 -62 -7q-27 0 -63 7q-45 -62 -119 -171.5t-149.5 -225t-146.5 -227.5t-109 -177q-24 -43 -24 -70q0 -20 101 -20h442z" />
    <glyph glyph-name="five" unicode="5" horiz-adv-x="1067" 
d="M530 -136q-179 0 -310 114l-116 116l-8 6l45 164l29 2l116 -116q6 -12 20 -37t21 -38q38 -14 91 -14q105 0 169 82.5t64 223.5q0 118 -37 198q-38 15 -82 15q-96 0 -254 -63l-116 116l-15 5l66 603q139 -12 233 -12q169 0 336 20l15 -6l116 -116l-33 -139
q-101 -12 -215 -12q-124 0 -260 18l-27 -221q47 5 91 5q154 0 254 -100l116 -116q108 -108 108 -276q0 -182 -117.5 -302t-299.5 -120zM414 0q174 0 285.5 113.5t111.5 287.5q0 96 -39.5 176.5t-118.5 130.5t-184 50q-135 0 -216 -30l-31 -11l49 416l21 -3q135 -18 257 -18
q105 0 198 11l25 104q-162 -19 -326 -19q-88 0 -215 11l-61 -561q147 58 246 59q114 0 185 -91.5t71 -258.5q0 -147 -69.5 -236.5t-184.5 -89.5q-54 0 -93 12t-68 42t-44.5 54t-43.5 76q-8 14 -11 21l-38 -138q124 -108 294 -108z" />
    <glyph glyph-name="six" unicode="6" horiz-adv-x="1067" 
d="M376 451q-2 -20 -2 -75q0 -191 57 -302q43 -19 91 -19q182 0 183 299q0 95 -32 166q-40 15 -90 15q-125 0 -207 -84zM935 1078q-227 -23 -360 -151q-85 -83 -137 -203q39 9 72 9q170 0 268 -98l116 -116q40 -40 65.5 -94.5t33.5 -95.5t8 -76q0 -48 -11 -97.5t-39 -102.5
t-70 -94t-111 -67t-154 -26q-166 0 -273 106l-116 116q-133 133 -133 410q0 324 219 542q103 104 221 153t279 58l116 -116zM797 1212l-2 18q-149 -11 -259.5 -58.5t-207.5 -145.5q-213 -213 -213 -528q0 -121 26.5 -212t65.5 -143.5t93 -86t101.5 -44t98.5 -10.5
q100 0 176 37t113.5 95.5t56 116.5t18.5 118q0 33 -7 71.5t-30.5 89t-60.5 89t-103.5 66.5t-152.5 28q-58 0 -128 -29.5t-102 -69.5l-46 -57l10 72q34 265 200 428q135 129 353 155zM240 569v7l5 6q88 90 222 90q80 0 135 -34t80 -89t34 -101.5t9 -93.5q0 -164 -55.5 -241.5
t-147.5 -77.5q-115 0 -199.5 103.5t-84.5 353.5q0 56 2 77z" />
    <glyph glyph-name="seven" unicode="7" horiz-adv-x="1067" 
d="M661 961q-280 -1 -416 -20l-116 116q10 77 10 100q0 10 -10 86q103 -14 573 -14q70 0 132 20l34 -20l116 -116q-107 -260 -199.5 -508.5t-134.5 -371t-125 -367.5l-149 -8l-116 115l-6 13q130 290 407 975zM707 1096l30 -1l-11 -27q-319 -788 -445 -1073l114 6
q230 685 448 1219l-12 7q-59 -19 -129 -19q-435 0 -549 12q6 -39 7 -63q0 -26 -7 -76q218 25 554 15z" />
    <glyph glyph-name="eight" unicode="8" horiz-adv-x="1067" 
d="M597 1066q-89 0 -139.5 -50.5t-50.5 -125.5q0 -60 24 -105l3 -3l64 -37q61 43 113.5 110t52.5 140q0 34 -8 64q-27 7 -59 7zM931 877q0 -131 -212 -277q36 -26 64 -53l116 -116q93 -93 93 -215q0 -47 -16.5 -96t-51.5 -94.5t-83.5 -81t-116.5 -57t-145 -21.5
q-196 0 -301 104l-116 116q-83 83 -82 213q0 127 135 246q58 51 121 99l-105 106q-94 94 -94 219q0 119 100.5 199.5t256.5 80.5q166 0 253 -88l116 -116q68 -68 68 -168zM467 49q92 0 166 53.5t74 186.5q0 71 -39 133q-12 9 -26 17l-94 60q-192 -128 -193 -316
q0 -65 22 -115q44 -19 90 -19zM467 29q-92 0 -170 67.5t-78 202.5q0 199 202 332l11 8l105 -67q190 -119 190 -283q0 -76 -25.5 -130.5t-67.5 -81t-83 -37.5t-84 -11zM795 993q0 104 -80 170t-221 66q-148 0 -242 -75.5t-94 -184.5q0 -168 170 -267l68 -38l-25 -19
q-78 -59 -142 -116q-60 -53 -94.5 -114.5t-34.5 -115.5q0 -141 99.5 -219t263.5 -78q180 0 286.5 104.5t106.5 225.5q0 155 -169 265l-151 99l26 17q233 155 233 280zM481 1202q102 0 152.5 -60.5t50.5 -146.5q0 -57 -33.5 -115t-68 -91t-72.5 -60l-11 -8l-76 44
q-153 99 -153 241q0 84 57.5 140t153.5 56z" />
    <glyph glyph-name="nine" unicode="9" horiz-adv-x="1067" 
d="M682 662q2 20 2 75q0 191 -57 302q-43 19 -91 19q-82 0 -132.5 -70.5t-50.5 -228.5q0 -95 32 -166q40 -15 90 -15q125 0 207 84zM123 35q227 23 360 151q85 83 137 203q-39 -9 -72 -9q-170 0 -268 98l-116 116q-58 58 -82.5 132.5t-24.5 133.5q0 61 19.5 124t60.5 124
t120 100t185 39q166 0 273 -106l115 -116q133 -133 134 -410q0 -324 -219 -542q-103 -104 -221 -153t-279 -58l-116 115zM145 17l2 -18q149 11 259.5 58t207.5 146q213 213 213 528q0 120 -26 212t-65.5 144t-93.5 85t-101.5 44t-98.5 11q-100 0 -176 -37t-113.5 -95.5
t-56 -116.5t-18.5 -118q0 -33 7 -71.5t30.5 -89t60.5 -89.5t103.5 -66.5t152.5 -27.5q38 0 83 13t85.5 36t61.5 50l46 57l-10 -73q-34 -265 -200 -427q-135 -129 -353 -155zM702 659v-7l-5 -5q-88 -90 -222 -90q-80 0 -135 34t-79.5 89t-34 101t-9.5 93q0 164 55.5 242
t147.5 78q115 0 200 -103.5t85 -353.5q-1 -57 -3 -78z" />
    <glyph glyph-name="colon" unicode=":" horiz-adv-x="565" 
d="M125 729v8q27 76 111 111h8q45 -16 71 -42l115 -116q26 -26 40 -69l-116 116v-8l116 -116q-16 -49 -41.5 -74.5t-68.5 -35.5l-116 115h-8l115 -115q-48 11 -72 35l-116 116q-25 24 -38 75zM125 190v9q27 76 111 110h8q45 -16 71 -42l115 -116q26 -26 40 -68l-116 116v-9
l116 -115q-16 -49 -41.5 -74.5t-68.5 -36.5l-116 116h-8l115 -116q-48 11 -72 35l-116 116q-25 24 -38 75zM145 194q13 -47 31 -65t62 -29h3q38 10 58 30t35 65q-13 37 -33.5 58t-60.5 36q-40 -17 -61 -37.5t-34 -57.5zM145 733q13 -47 31 -65.5t62 -28.5h3q38 10 58 29.5
t35 64.5q-13 37 -33.5 58t-60.5 36q-27 -11 -44.5 -23.5t-29.5 -29t-21 -41.5z" />
    <glyph glyph-name="semicolon" unicode=";" horiz-adv-x="565" 
d="M104 729v8q27 76 111 111h8q45 -16 71 -42l116 -116q26 -26 40 -69l-116 116v-8l116 -116q-16 -49 -41.5 -74t-69.5 -36l-116 115h-8l116 -115q-48 11 -73 35l-116 116q-25 24 -38 75zM98 90v8q27 76 111 111h8q46 -17 75 -45l116 -116q57 -57 56 -170q0 -49 -13 -89.5
t-28 -65.5t-50.5 -53.5t-55 -40.5t-66.5 -40l-116 116q-9 8 -12 11q-15 15 -14 32q128 86 152 152q-9 5 -16 12l-116 116q-20 20 -31 62zM118 94q12 -43 28.5 -56t64.5 -24q78 -1 78 -73q0 -54 -40 -101.5t-118 -100.5q2 -3 7 -9q50 29 75 47t56.5 49.5t45 72.5t13.5 95
q0 86 -29.5 129.5t-85.5 65.5q-40 -17 -61 -37.5t-34 -57.5zM125 733q9 -32 19 -49.5t27 -27.5t46 -17h4q38 10 58 29.5t35 64.5q-9 25 -20.5 42t-29.5 29.5t-45 22.5q-40 -17 -60.5 -37t-33.5 -57z" />
    <glyph glyph-name="less" unicode="&#x3c;" horiz-adv-x="1112" 
d="M625 352l274 -100l116 -116v-102l-799 290l-116 116v99l799 288l116 -115v-103zM190 490l689 249v59l-758 -274v-69l758 -276v59z" />
    <glyph glyph-name="equal" unicode="=" horiz-adv-x="1193" 
d="M944 651l116 -116v-100h-809l-116 116v100h809zM944 395l116 -116v-100h-809l-116 116v100h809zM924 375h-768v-60h768v60zM924 631h-768v-60h768v60z" />
    <glyph glyph-name="greater" unicode="&#x3e;" horiz-adv-x="1112" 
d="M649 447l-433 158l-116 116v102l799 -291l116 -115v-99l-799 -288l-116 115v103zM809 483l-688 -250v-58l758 274v69l-758 276v-59z" />
    <glyph glyph-name="question" unicode="?" horiz-adv-x="944" 
d="M515 1152q-141 0 -252 -193l-26 2l-116 116l-33 137l6 9q152 127 324 127q163 0 255 -92l116 -116q83 -83 83 -217q0 -46 -14.5 -89.5t-33.5 -73.5t-52.5 -63t-56.5 -51t-61 -45q-86 -64 -106 -102q-37 -71 -37 -150v-90q0 -21 -26 -21l-116 116q-15 0 -22 7q-5 5 -5 14
v94q0 59 5 100t38 107.5t94 122.5q65 60 94 111t29 120q0 58 -21 108q-31 12 -66 12zM254 90v8q27 76 111 111h8q45 -16 71 -42l115 -116q26 -26 40 -69l-116 116v-8l116 -116q-15 -49 -41 -74t-69 -36l-116 116h-8l115 -116q-48 11 -72 35l-116 116q-25 24 -38 75zM274 94
q13 -47 31 -65.5t62 -28.5h3q38 10 58 29.5t35 64.5q-13 37 -33.5 58t-60.5 37q-40 -17 -61 -37.5t-34 -57.5zM403 1288q96 0 158 -74t62 -182q0 -74 -31.5 -129t-98.5 -117q-45 -41 -73.5 -84t-40 -87t-14.5 -72.5t-3 -71.5v-94q3 -1 6.5 -0.5t6.5 0.5v90q0 84 39 159
q23 43 112 109q47 34 75.5 58t64 63t52.5 85t17 99q0 132 -84.5 210.5t-232.5 78.5q-161 0 -308 -120l27 -111q115 190 266 190z" />
    <glyph glyph-name="at" unicode="@" horiz-adv-x="1947" 
d="M831 146q17 -3 37 -3q53 0 121 77t115 190q61 147 61 237v12q-8 1 -17 1q-36 0 -89.5 -19.5t-94.5 -62.5q-139 -139 -140 -362q0 -39 7 -70zM1196 762l8 39l109 26l30 -10l116 -116l-123 -528q-3 -12 2 -32q108 29 163 128.5t55 293.5q0 216 -121 376q-176 135 -379 135
q-96 0 -188 -25t-177 -80.5t-149.5 -135.5t-102.5 -197.5t-38 -257.5q0 -132 38 -267t119 -242q166 -125 411 -125q242 0 411 135l27 -37l116 -116q-108 -83 -213 -124t-264 -41q-361 0 -589 227l-116 116q-220 220 -220 553q0 330 246.5 562t593.5 232q173 0 319.5 -57
t250.5 -161l116 -116q187 -187 187 -455q0 -80 -22.5 -156.5t-69.5 -148.5t-132 -126t-199 -76q15 -31 15 -35l-32 32q-70 -12 -150 -13q-31 0 -50 19l-83 83q-96 -98 -186 -97q-111 0 -176 65l-116 116q-74 74 -74 188q0 106 44 205.5t113 168.5t154 111t166 42
q82 0 133 -51zM1195 151q0 -1 -1 -2q1 -9 7 -15q7 -7 16 -7h2zM1085 267v1l-4 2zM1174 152q0 20 27 141l118 511l-7 2l-90 -22l-22 -105l-25 65q-12 31 -52 53t-87 22q-76 0 -157 -40t-147.5 -106.5t-109 -162t-42.5 -197.5q0 -34 10 -70t33 -75t71.5 -63.5t114.5 -24.5
q53 0 123.5 49.5t131.5 151.5l10 16l36 -18l-5 -17q-30 -93 -30 -123q0 -64 53 -63q125 0 225.5 31t163.5 80.5t105 116.5t59 134.5t17 139.5q0 281 -208 467t-529 186q-338 0 -579 -226.5t-241 -547.5q0 -326 218.5 -543t570.5 -217q63 0 118.5 7.5t98.5 19.5t85.5 32
t75 41t71.5 50l-3 3q-169 -127 -407 -126q-156 0 -282 50t-202.5 130t-128 184.5t-72 204.5t-20.5 201q0 143 40 264t105.5 203.5t153.5 139t183.5 83t193.5 26.5q102 0 211 -41t206 -117.5t158.5 -204.5t61.5 -284q0 -248 -92 -352.5t-268 -104.5q-12 0 -27.5 10.5
t-15.5 35.5zM1186 647q0 -95 -63 -245q-50 -119 -120 -199t-135 -80q-180 0 -180 209q0 232 145 377q31 32 72.5 53t72.5 28t54 7q31 0 59 -11t49 -30t33.5 -47.5t12.5 -61.5z" />
    <glyph glyph-name="A" unicode="A" horiz-adv-x="1402" 
d="M482 352q-59 -145 -102.5 -265t-67.5 -209q-25 6 -92 6q-47 0 -71 -6l-116 116q348 764 604 1354h57l116 -116q70 -167 197.5 -483.5t223 -548t140.5 -322.5q-35 6 -123 6q-68 0 -102 -6l-116 116q-38 140 -117 359q-96 2 -166 2q-120 0 -265 -3zM571 562q29 -1 50 -1
q87 0 213 3q-60 155 -127 316zM630 1061l-3 8h-4zM348 475l5 13h13q147 3 265 4q94 0 241 -4h13l5 -13q102 -273 155 -458q31 4 87.5 3.5t88.5 -2.5q-49 104 -141.5 330.5t-211.5 521.5t-187 457h-31q-248 -573 -583 -1307q14 1 37 0q50 0 78 -3q47 165 166 458zM853 572
l11 -28h-29q-127 -3 -214 -3q-33 0 -111.5 1.5t-103.5 2.5h-30l233 544h31l5 -12q113 -259 208 -505z" />
    <glyph glyph-name="B" unicode="B" horiz-adv-x="1376" 
d="M301 1321q55 0 141 3t119 3q262 0 374 -112l116 -116q78 -78 79 -205q0 -67 -37 -130t-97 -108q23 -17 42 -37l116 -115q96 -96 96 -243q0 -57 -13 -108t-48.5 -102.5t-90.5 -88.5t-146.5 -60.5t-208.5 -23.5q-98 0 -183.5 3t-142.5 3l-107 -6l-115 116l-2 6
q20 138 20 410v501q0 264 -20 410l4 6q34 -6 104 -6zM816 1101q-54 22 -125 22q-118 0 -152 -19.5t-34 -74.5v-269h44q138 0 212.5 51t74.5 174q0 66 -20 116zM891 512q-81 44 -196 44h-190v-469q35 -5 83 -5q203 0 273.5 66.5t70.5 189.5q0 99 -41 174zM301 1300
q-48 0 -86 4q18 -143 18 -393l1 -501q0 -255 -18 -393q38 3 85 3q57 0 142.5 -3t183.5 -3q141 0 242.5 32t151.5 88t71.5 114.5t21.5 128.5q0 256 -296 341l-51 14l47 24q37 18 70 45.5t57 60.5t38 71.5t14 76.5q0 297 -432 297q-31 0 -118 -3.5t-142 -3.5zM369 692h211
q180 0 276 -100t96 -254q0 -131 -77.5 -204t-286.5 -73q-219 0 -219 119v512zM369 1145q0 63 43 89t163 26q50 0 95.5 -12.5t89.5 -41t70 -85t26 -136.5q0 -246 -307 -246h-180v406z" />
    <glyph glyph-name="C" unicode="C" horiz-adv-x="1501" 
d="M778 1348q111 0 222.5 -22.5t167.5 -46.5l57 -24l4 -6l116 -116q-4 -17 -12.5 -50.5t-11 -44.5t-7 -34.5t-6.5 -45t-4 -52.5l-21 -2l-116 116q-12 24 -26 46q-109 69 -276 69q-53 0 -109.5 -18t-115 -62t-104 -107t-74.5 -162t-29 -218q0 -246 118 -414q103 -70 238 -70
q142 0 234 45t202 166l49 -39l116 -116q-211 -276 -504 -276q-289 0 -472 182l-116 116q-94 94 -143 220.5t-49 262.5q0 295 203 499t469 204zM778 1327q-258 0 -454.5 -197.5t-196.5 -484.5q0 -123 41 -236.5t119 -205.5t203.5 -147.5t279.5 -55.5q273 0 475 253l-18 14
q-71 -77 -134.5 -120t-136 -63.5t-167.5 -20.5q-121 0 -217.5 54t-155 143.5t-89 198t-30.5 225.5q0 122 30 224t77.5 167.5t108.5 111.5t120.5 65.5t116.5 19.5q294 0 420 -214q6 60 36 183q-202 86 -428 86z" />
    <glyph glyph-name="D" unicode="D" horiz-adv-x="1568" 
d="M301 1321q66 0 169 3t169 3q97 0 190 -25.5t171.5 -71.5t143.5 -111l116 -116q96 -96 149.5 -222.5t53.5 -265.5q0 -145 -42.5 -259t-109.5 -183t-158.5 -114t-179.5 -62t-181 -17q-114 0 -212.5 2t-162.5 2l-107 -6l-115 116l-2 6q20 138 20 410v501q0 264 -20 410l4 6
q34 -6 104 -6zM1016 1026q-135 95 -339 95q-86 0 -129 -16t-43 -66v-950q40 -3 107 -3q119 0 206 20.5t163 71.5t116 152.5t40 251.5q0 273 -121 444zM301 1300q-48 0 -86 4q18 -143 18 -393l1 -501q0 -255 -18 -393q38 3 85 3q65 0 163.5 -2t211.5 -2q92 0 177.5 16.5
t173.5 60t153 110.5t106 177t41 251q0 279 -201.5 477.5t-486.5 198.5q-66 0 -169 -3.5t-169 -3.5zM369 168v987q0 63 51 82.5t141 19.5q164 0 285 -59t186.5 -159.5t95 -214t29.5 -242.5q0 -154 -42 -259.5t-122 -159.5t-170 -75.5t-211 -21.5q-148 0 -195.5 20t-47.5 82z
" />
    <glyph glyph-name="E" unicode="E" horiz-adv-x="1216" 
d="M505 753q138 2 341 19l6 -6l116 -116q-6 -28 -6 -65.5t6 -65.5l-116 116l-6 -6l116 -116q-202 20 -457 20v-239q0 -89 4 -178q107 2 226 8t183 10l65 5l4 -8l116 -116q-4 -32 -4 -67q0 -7 4 -64l-116 116l-4 -6l116 -116q-50 6 -123 6h-559l-107 -6l-115 116l-2 6
q20 138 20 410v501q0 264 -20 410l4 6q35 -6 104 -6h539q74 0 123 6l4 -6l116 -116q-4 -56 -5 -78q0 -20 4 -53l-115 116l-4 -8l115 -116q-283 25 -557 24q-16 -56 -16 -294v-43zM369 410v260h20q236 0 440 -19q-3 25 -4 49q0 24 4 50q-219 -19 -440 -19h-20v180
q0 242 17 301l4 15h16q250 0 538 -23q-2 22 -2 39t3 62q-48 -4 -105 -5h-539q-48 0 -86 4q18 -143 18 -393l1 -501q0 -255 -18 -393q38 3 85 3h559q57 0 105 -4q-3 33 -2 47q0 24 2 54q-309 -23 -559 -23h-16l-4 15q-17 59 -17 301z" />
    <glyph glyph-name="F" unicode="F" horiz-adv-x="1146" 
d="M834 1321q80 0 129 6l4 -6l116 -116q-4 -57 -5 -70q0 -29 4 -61l-115 116l-4 -8l115 -116q-283 25 -557 24q-16 -56 -16 -294v-43q138 2 341 19l6 -6l116 -116q-6 -28 -6 -65.5t6 -65.5l-116 116l-6 -6l116 -116q-202 20 -457 20v-239q0 -264 20 -410l-115 116l-4 -6
l115 -116q-35 6 -104 6l-107 -6l-115 116l-2 6q20 138 20 410v501q0 264 -20 410l4 6q35 -6 104 -6h533zM834 1300h-533q-48 0 -86 4q18 -143 18 -393l1 -501q0 -255 -18 -393q38 3 85.5 3t85.5 -3q-18 143 -18 393v260h20q236 0 440 -19q-3 25 -4 49q0 24 4 50
q-219 -19 -440 -19h-20v180q0 242 17 301l4 15h16q251 0 539 -23q-2 28 -3 47q0 14 3 54q-47 -5 -111 -5z" />
    <glyph glyph-name="G" unicode="G" horiz-adv-x="1583" 
d="M1118 240q-6 283 -20 389l4 6q35 -6 104 -6l107 6l2 -6l116 -116q-20 -136 -21 -348l-116 116v-13l116 -116q0 -73 21 -98l-116 116v-6l116 -116q-220 -184 -545 -184q-285 0 -470 185l-116 116q-62 62 -105.5 139.5t-66 165t-22.5 179.5q0 164 61.5 299t164 220
t229.5 132.5t260 47.5q111 0 227.5 -22.5t178.5 -46.5l61 -24l4 -6l116 -116q-33 -139 -41 -247l-20 -2l-116 115q-13 22 -27 42q-131 94 -296 94q-210 0 -342.5 -158t-132.5 -423q0 -238 116 -403q113 -77 268 -77q219 0 301 78v88zM1139 240v-97l-7 -6q-89 -83 -315 -84
q-110 0 -200 38t-148 99.5t-98 143.5t-57 166t-17 170q0 272 138 437t358 165q135 0 250.5 -63t189.5 -175q8 88 36 207q-221 86 -448 86q-176 0 -331.5 -75.5t-259 -234.5t-103.5 -368q0 -268 177 -458.5t466 -190.5q309 0 520 170q-17 36 -16 98v13q0 204 18 331
q-38 -3 -86 -4q-48 0 -85 4q13 -101 18 -372z" />
    <glyph glyph-name="H" unicode="H" horiz-adv-x="1601" 
d="M1098 911q0 264 -21 410l4 6q37 -6 105 -6q70 0 106 6l2 -6l116 -116q-20 -136 -20 -409v-502q0 -263 20 -410l-116 116l-4 -6l116 -116q-37 6 -104 6q-69 0 -107 -6l-116 116l-2 6q20 138 21 410v132h-593v-248q0 -264 20 -410l-115 116l-4 -6l115 -116q-37 6 -104 6
q-69 0 -107 -6l-115 116l-2 6q20 138 20 410v501q0 264 -20 410l4 6q37 -6 104 -6q70 0 107 6l2 -6l115 -116q-20 -136 -20 -409v-48h593v163zM1118 911v-184h-749v184q0 257 18 393q-43 -4 -86 -4t-86 4q18 -143 18 -393l1 -501q0 -255 -18 -393q44 4 85 3q43 0 86 -3
q-18 143 -18 393v268h749v-268q0 -255 -18 -393q43 4 85.5 3.5t85.5 -3.5q-18 143 -18 393v501q0 257 18 393q-43 -4 -85 -4q-43 0 -86 4q18 -143 18 -393z" />
    <glyph glyph-name="I" unicode="I" horiz-adv-x="716" 
d="M213 911q0 264 -20 410l4 6q37 -6 104.5 -6t104.5 6l4 -6l115 -116q-20 -136 -20 -409v-502q0 -264 20 -410l-115 116l-4 -6l115 -116q-37 6 -104 6t-105 -6l-115 116l-4 6q20 138 20 410v501zM233 911l1 -501q0 -255 -18 -393q43 4 85.5 3.5t85.5 -3.5q-18 143 -18 393
v501q0 257 18 393q-43 -4 -86 -4t-86 4q18 -143 18 -393z" />
    <glyph glyph-name="J" unicode="J" horiz-adv-x="770" 
d="M287 195v716q0 264 -21 410l4 6q37 -6 105 -6q70 0 106 6l2 -6l116 -116q-21 -136 -20 -409v-672q0 -174 -23.5 -251.5t-105.5 -184.5q-121 -156 -324 -156q-63 0 -92 18l-116 116l-2 6q25 43 57 168l23 2l59 -58q27 -13 60 -13q57 0 94 37.5t52 109.5t20.5 131.5
t5.5 145.5zM307 195q0 -70 -2 -115t-12 -113.5t-28.5 -110.5t-57.5 -74t-92 -32q-42 0 -73.5 17.5t-53.5 48.5q-25 -94 -46 -138q29 -10 68 -10q192 0 308 148q81 106 102.5 178.5t21.5 245.5v671q0 257 18 393q-43 -4 -85 -4q-43 0 -86 4q18 -143 18 -393v-716z" />
    <glyph glyph-name="K" unicode="K" horiz-adv-x="1402" 
d="M213 911q0 264 -20 410l4 6q37 -6 104.5 -6t104.5 6l4 -6l115 -116q-20 -136 -20 -409v-9q221 206 513 540q27 -6 100 -6q72 0 105 6l115 -116q-157 -137 -341.5 -313.5t-280.5 -288.5l-116 116v-4l116 -116l643 -727q-39 6 -127 6q-92 0 -127 -6l-116 116
q-290 358 -465 559q-9 3 -19 4v-263q0 -264 20 -410l-115 116l-4 -6l115 -116q-37 6 -104 6t-105 -6l-115 116l-4 6q20 138 20 410v501zM369 911q0 257 18 393q-43 -4 -86 -4t-86 4q18 -143 18 -393l1 -501q0 -255 -18 -393q43 4 85.5 3.5t85.5 -3.5q-18 143 -18 393v501z
M413 689q18 -6 28 -14h1q113 -113 556 -659q38 5 118 4q49 0 77 -1l-613 694v20l5 5q179 208 577 563q-17 0 -44 -1q-62 0 -92 5q-341 -390 -578 -597q-14 -12 -35 -19z" />
    <glyph glyph-name="L" unicode="L" horiz-adv-x="1169" 
d="M507 796v-502q0 -80 4 -167q107 4 226 14.5t183 19.5l65 9l4 -8l116 -116q-4 -33 -4 -72q0 -33 4 -90l-116 116l-4 -6l116 -116q-50 6 -123 6h-559l-107 -6l-115 116l-2 6q20 139 20 410v501q0 264 -20 410l4 6q37 -6 104 -6q70 0 107 6l2 -6l116 -116q-21 -135 -21 -409
zM371 911q0 257 18 393q-43 -4 -86 -4t-86 4q18 -143 19 -393v-501q0 -255 -18 -393q38 4 85 3h559q59 0 106 -4q-3 48 -3 74q0 24 2 57q-309 -42 -559 -43h-16l-4 15q-17 59 -17 291v501z" />
    <glyph glyph-name="M" unicode="M" horiz-adv-x="1929" 
d="M395 1356h56l115 -116q70 -146 194 -434.5t195 -435.5l501 986h45l116 -116q94 -814 172 -1362q-31 6 -108 6q-70 0 -101 -6l-116 116q-39 476 -63 710q-219 -418 -396 -820h-39l-116 116q-63 134 -172.5 397t-163.5 382q-24 -154 -73 -479t-65 -422q-23 6 -61 6
q-45 0 -68 -6l-116 116q166 799 264 1362zM429 957q-5 9 -9 18h-9zM1372 961q0 3 -1 8h-7zM413 1335q-95 -545 -256 -1316q15 1 42 1q29 0 44 -2q14 89 67.5 441.5t80.5 519.5l3 17h39l6 -11q91 -180 229 -511.5t195 -453.5h12q206 468 471 958l6 12l37 -2l2 -17
q40 -324 92 -954q28 3 82 3q55 0 84 -2q-75 531 -166 1317h-14l-542 -1065l-18 35q-107 198 -259.5 553t-211.5 477h-25z" />
    <glyph glyph-name="N" unicode="N" horiz-adv-x="1585" 
d="M221 1321l4 6q16 -6 86 -6l29 4l116 -116l698 -903q8 11 9 59v546q0 264 -20 410l4 6q37 -6 71.5 -6t71.5 6l4 -6l116 -116q-12 -160 -19 -334.5t-9.5 -291t-6 -328.5t-6.5 -324q-3 -63 -39 -63q-41 0 -74 33l-116 116q-7 7 -14 16l-672 849q-7 -14 -6 -95v-489
q0 -264 20 -410l-116 116l-4 -6l116 -116q-37 6 -71.5 6t-71.5 -6l-116 116l-4 6q25 238 29.5 637t-9.5 684zM242 1303q13 -280 8.5 -663t-27.5 -623q27 3 53 3t53 -3q-18 144 -18 393v489q0 8 -0.5 23t-0.5 24.5t0.5 22t3 20.5t6 16t10.5 11.5t16 3.5q6 0 12 -1.5t12 -6
t10.5 -9t11 -12t11 -13.5t12.5 -16.5t13 -17.5l715 -903q30 -41 71 -41q16 0 19 44q2 112 5.5 319.5t6 323t9.5 287.5t19 330q-27 -3 -54 -4q-26 0 -53 4q18 -144 18 -393v-547q-1 -21 -1.5 -29t-4 -25t-12 -23.5t-22.5 -5.5q-11 1 -21.5 6.5t-22.5 19t-21 25.5t-25.5 34.5
t-27.5 36.5l-695 900q-14 -2 -20 -3q-42 0 -69 3z" />
    <glyph glyph-name="O" unicode="O" horiz-adv-x="1632" 
d="M843 1142q-77 0 -147.5 -32.5t-130.5 -99t-96 -184.5t-36 -272q0 -245 115 -406q113 -79 249 -78q180 0 291.5 148.5t111.5 416.5q0 281 -105 439q-104 68 -252 68zM1527 558q0 -308 -181.5 -501t-473.5 -193q-280 0 -466 185l-116 116q-183 183 -184 470
q0 301 186.5 507t461.5 206q282 0 468 -186l115 -116q190 -189 190 -488zM1391 674q0 291 -182.5 472t-454.5 181q-266 0 -446.5 -199.5t-180.5 -492.5q0 -190 86 -337t228.5 -222.5t314.5 -75.5q284 0 459.5 187t175.5 487zM727 1278q231 0 362.5 -163t131.5 -480
q0 -274 -117 -430t-307 -156q-207 0 -353.5 166t-146.5 455q0 305 127 456.5t303 151.5z" />
    <glyph glyph-name="P" unicode="P" horiz-adv-x="1259" 
d="M213 911q0 264 -20 410l4 6q37 -6 104 -6q33 0 147.5 7t139.5 7q256 0 380 -124l116 -115q95 -95 95 -237q0 -70 -27 -138.5t-83 -131t-157.5 -101.5t-234.5 -39q-108 0 -172 21v-176q0 -264 20 -410l-115 116l-4 -6l115 -116q-37 6 -104 6t-105 -6l-115 116l-4 6
q20 138 20 410v501zM840 1107q-59 24 -151 24q-72 0 -113 -10.5t-56 -29t-15 -50.5v-386q25 -1 46 -2q157 0 235 71t78 241q0 83 -24 142zM233 911l1 -501q0 -255 -18 -393q43 4 85.5 3.5t85.5 -3.5q-18 143 -18 393v204l26 -9q61 -19 166 -19q129 0 227.5 36.5t150.5 97
t77.5 125t25.5 130.5q0 59 -20.5 113.5t-67.5 108.5t-141 86t-225 32q-25 0 -139.5 -7.5t-147.5 -7.5q-43 0 -86 4q18 -143 18 -393zM369 1157q0 58 47.5 84.5t156.5 26.5q311 0 312 -303q0 -177 -85.5 -254.5t-248.5 -77.5q-129 0 -172 23l-10 6v495z" />
    <glyph glyph-name="Q" unicode="Q" horiz-adv-x="1632" 
d="M843 1142q-77 0 -147.5 -32.5t-130.5 -99t-96 -184.5t-36 -272q0 -245 115 -406q113 -79 249 -78q180 0 291.5 148.5t111.5 416.5q0 281 -105 439q-104 68 -252 68zM1442 -66q111 -56 217 -92l116 -116v-12q-134 -71 -193 -117q-91 52 -156.5 100.5t-135.5 96.5t-183 108
q-109 -38 -235 -38q-280 0 -466 185l-116 116q-183 183 -184 470q0 301 186.5 507t461.5 206q282 0 468 -186l115 -116q190 -190 190 -488q0 -19 0.5 -80t0 -87.5t-2 -83t-4.5 -87.5t-9 -78t-15.5 -79t-23 -67t-31.5 -62zM1138 83l-28 15l26 19q121 88 188 232t67 325
q0 291 -182.5 472t-454.5 181q-266 0 -446.5 -199.5t-180.5 -492.5q0 -190 86 -337t228.5 -222.5t314.5 -75.5q122 0 228 37l8 3l8 -4q144 -76 259.5 -161.5t205.5 -136.5q55 40 157 96q-94 34 -181 77.5t-188.5 104t-114.5 67.5zM727 1278q231 0 362.5 -163t131.5 -480
q0 -274 -117 -430t-307 -156q-207 0 -353.5 166t-146.5 455q0 305 127 456.5t303 151.5z" />
    <glyph glyph-name="R" unicode="R" horiz-adv-x="1343" 
d="M505 470v-176q0 -264 20 -410l-115 116l-4 -6l115 -116q-37 6 -104 6t-105 -6l-115 116l-4 6q20 138 20 410v501q0 264 -20 410l4 6q37 -6 104 -6q33 0 142.5 7t134.5 7q82 0 138 -4.5t127.5 -27.5t117.5 -66q5 -4 8 -8l116 -116q100 -100 100 -248q0 -80 -29 -147
t-73 -110t-103 -73q-45 -23 -124 -38q48 -64 214 -306t223 -307l-115 116l-4 -6l115 -116q-41 6 -123 6q-84 0 -122 -6l-116 116q-35 111 -195 366q-11 17 -34 55.5t-36 58.5q-72 -4 -158 -4zM695 1131q-96 0 -133 -7t-47 -22.5t-10 -60.5v-373h3q168 0 266 68.5t98 242.5
q0 70 -22 123q-66 29 -155 29zM580 1268q55 0 104 -12.5t99.5 -42t80 -90t29.5 -144.5q0 -332 -385 -332h-139v510q0 70 37.5 90.5t173.5 20.5zM369 606h20q104 0 189 6l10 1l7 -8q21 -24 43.5 -56t35.5 -53t40 -65t37 -60q142 -229 190 -355q37 4 110 4q55 0 84 -2
q-59 74 -209 293.5t-202 288.5l-20 26l32 6q76 15 119 38q194 97 194 311q0 145 -103 241q-61 57 -152.5 75t-215.5 18q-23 0 -133.5 -7.5t-143.5 -7.5q-43 0 -86 4q18 -143 18 -393l1 -501q0 -255 -18 -393q43 4 85.5 3.5t85.5 -3.5q-18 143 -18 393v196z" />
    <glyph glyph-name="S" unicode="S" horiz-adv-x="1150" 
d="M496 70q96 0 167.5 64.5t71.5 174.5q0 78 -29 135q-38 22 -95 46q-174 73 -254 154l-115 116q-98 98 -99 233q0 106 64.5 192.5t161.5 127.5q84 35 176 35q102 0 183 -23.5t105 -39.5t37 -29l4 -7l116 -116q-39 -129 -47 -204l-20 -2l-116 115q-14 32 -32 61
q-64 39 -131 39q-78 0 -125 -25q-40 -21 -67 -75t-27 -109q0 -57 22 -103q40 -23 112 -50q171 -64 260 -152l115 -116q107 -107 108 -257q0 -175 -127.5 -283t-319.5 -108q-106 0 -199.5 23t-133.5 46l-40 23l-116 116l-4 6q41 152 48 211l20 2l116 -116q10 -18 21 -36
q100 -69 189 -69zM496 49q-87 0 -181 60t-149 148q-9 -54 -41 -173q140 -84 354 -84q184 0 305 102.5t121 268.5q0 80 -30.5 145.5t-85.5 111.5t-110.5 76.5t-126.5 56.5q-41 15 -68 27t-68 37.5t-65.5 53.5t-43 72.5t-18.5 97.5q0 40 13 80t37 73t55 49q51 27 134 27
q84 0 160.5 -54t123.5 -144q11 65 40 165q-16 14 -41.5 29t-100 34t-165.5 19q-88 0 -169 -33q-91 -38 -151.5 -119.5t-60.5 -181.5q0 -72 27.5 -130.5t80 -102.5t105.5 -74t127 -61q120 -50 186 -119.5t66 -196.5q0 -119 -78 -189.5t-182 -70.5z" />
    <glyph glyph-name="T" unicode="T" horiz-adv-x="1220" 
d="M461 1089q-91 -3 -169 -9.5t-110 -12.5l-31 -5l-116 116l-4 8q6 47 0 135l4 6q49 -6 123 -6h790q74 0 123 6l4 -6l116 -116q-6 -88 0 -135l-116 116l-4 -8l116 -116q-140 29 -414 28q-16 -56 -16 -294v-502q0 -264 20 -410l-115 116l-5 -6l116 -116q-37 6 -104.5 6
t-104.5 -6l-115 116l-5 6q20 139 21 410v501q0 89 -4 178zM485 911v-501q0 -255 -18 -393q42 4 86 3q43 0 86 -3q-18 143 -18 393v501q0 242 17 301l4 15h15q238 0 396 -25q-3 42 1 103q-47 -4 -106 -5h-790q-58 0 -106 5q4 -61 1 -103q158 25 396 25h15l4 -15
q17 -59 17 -301z" />
    <glyph glyph-name="U" unicode="U" horiz-adv-x="1531" 
d="M1114 911q0 264 -20 410l4 6q37 -6 71.5 -6t71.5 6l4 -6l116 -116q-20 -135 -20 -409v-308q0 -144 -25.5 -252.5t-84 -195t-165.5 -131.5t-260 -45q-217 0 -346 129l-116 116q-131 131 -131 374v428q0 264 -20 410l4 6q37 -6 104.5 -6t104.5 6l4 -6l115 -116
q-20 -136 -20 -409v-361q0 -196 59 -303q71 -37 169 -38q100 0 172 29t112 71t62.5 109.5t28.5 125.5t6 138v344zM1135 911v-344q0 -80 -6.5 -140t-31 -131t-66.5 -116t-117.5 -75.5t-180.5 -30.5q-365 0 -364 477v360q0 257 18 393q-43 -4 -86 -4t-86 4q18 -143 18 -393
v-428q0 -116 31 -204.5t78 -140t111 -84t120.5 -43.5t116.5 -11q148 0 251 42.5t159 126t80 188.5t24 247v307q0 257 18 393q-27 -3 -52.5 -3.5t-52.5 3.5q18 -144 18 -393z" />
    <glyph glyph-name="V" unicode="V" horiz-adv-x="1406" 
d="M695 344q103 237 156 361.5t126.5 316.5t103.5 305q35 -6 93 -6q45 0 81 6l116 -116q-398 -871 -604 -1347h-57l-116 116q-68 162 -197 480.5t-224 547t-140 319.5q57 -6 123 -6q55 0 112 6l116 -116q106 -370 311 -867zM682 263l-5 -12l-31 -1l-5 13q-262 608 -388 1042
q-53 -5 -97 -5q-40 0 -89 4q49 -104 141 -328t212.5 -520.5t187.5 -455.5h30q204 470 584 1303q-28 -2 -48 -3q-38 0 -78 4q-12 -43 -28 -92.5t-38 -109.5t-41 -109.5t-49.5 -124t-49 -119.5t-54.5 -129t-51 -120t-54 -124.5t-49 -112.5z" />
    <glyph glyph-name="W" unicode="W" horiz-adv-x="2062" 
d="M697 325q163 376 229 539q-126 338 -176 463q35 -6 122 -6q78 0 113 6l116 -116q48 -214 259 -846q313 720 377 962q25 -6 102 -6q47 0 72 6l116 -116q-398 -870 -605 -1347h-57l-116 116q-87 244 -193 534l-289 -650h-57l-116 116q-68 162 -197 480.5t-224 547
t-140 319.5q35 -6 123 -6q68 0 102 6l116 -116q101 -355 323 -886zM1338 262l-6 -12h-32l-5 14q-263 775 -326 1040q-33 -4 -97 -4q-59 0 -91 3q54 -135 165 -431l2 -8l-3 -7q-55 -136 -261 -613l-5 -13l-31 1l-5 12q-275 633 -400 1060q-31 -4 -87.5 -4t-88.5 3
q49 -105 141.5 -328.5t212.5 -519.5t187 -455h30l344 774l17 -47q145 -392 265 -727h29q204 471 584 1301q-14 -1 -38 -1q-58 0 -87 4q-12 -44 -28 -93t-39 -111t-40.5 -109t-50 -125.5t-48.5 -118t-54.5 -130t-50.5 -118t-54.5 -125.5t-48.5 -112z" />
    <glyph glyph-name="X" unicode="X" horiz-adv-x="1304" 
d="M1271 -122q-37 6 -119 6t-119 -6l-115 116q-87 166 -259 424q-185 -284 -324 -540q-23 6 -86 6t-86 -6l-116 116l453 663l-443 670q35 -6 115 -6t117 6l116 -116q47 -97 234 -381q122 177 178.5 266t132.5 231q23 -6 86.5 -6t85.5 6l116 -116q-27 -38 -105.5 -144.5
t-166.5 -230t-171 -244.5q326 -503 476 -714zM1112 19q-139 198 -450 677l-8 12l8 11q76 112 150.5 216.5t165.5 228.5t100 137q-16 -1 -42 -1q-50 0 -75 4q-75 -138 -133.5 -230t-192.5 -285l-17 -25l-17 25q-26 40 -92.5 141.5t-97.5 149t-71.5 114t-62.5 111.5
q-36 -4 -105 -5q-48 0 -74 2l426 -645l-434 -637q18 1 43 0q51 0 75 -3q144 264 337 557l17 26l17 -26q23 -35 73 -109.5t77 -115t66 -102t71 -117.5t63 -114q37 4 107 4q49 1 76 -1z" />
    <glyph glyph-name="Y" unicode="Y" horiz-adv-x="1306" 
d="M798 468q5 -475 14 -590q-37 6 -102.5 6t-102.5 -6l-115 116q14 158 14 569q-61 104 -237.5 390t-235.5 374q51 -6 117 -6q63 0 116 6l116 -116q81 -158 268 -475q211 335 333 591q37 -6 86 -6q45 0 86 6l116 -116q-58 -89 -134 -203.5t-117.5 -177.5t-88 -135.5
t-78 -126t-55.5 -100.5zM662 583l-1 6l3 4q20 39 46.5 85t53.5 89.5t69.5 108.5t77.5 118.5t95.5 144.5t107.5 163q-25 -2 -45 -2q-38 0 -74 5q-129 -268 -353 -620l-18 -28l-17 29q-30 52 -113.5 194t-136.5 236t-103 189q-51 -5 -105 -5q-37 0 -76 3q76 -118 235.5 -376.5
t215.5 -352.5l2 -5v-6q0 -373 -12 -546q42 3 80 3q40 0 80 -3q-8 136 -12 566z" />
    <glyph glyph-name="Z" unicode="Z" horiz-adv-x="1388" 
d="M902 1199q0 5 -2.5 8t-8.5 3zM832 1090q-92 -4 -272 -18.5t-280 -19.5l-116 115l-4 7q4 33 4 67q0 23 -4 80l4 6q49 -6 125 -6h622q166 0 258 12q7 0 10 -3t3 -9l116 -116q0 -25 -62 -111l-670 -979q75 3 164 8t162.5 10.5t136 10t97.5 7.5l35 3l4 -7l116 -115
q-4 -33 -4 -68q0 -22 4 -80l-116 116l-4 -6l116 -116q-50 6 -145 6h-520q2 -4 3 -5l-6 5h-221l-178 -6l-116 116l-6 8q12 16 30.5 44t22.5 32zM383 90h-21v21q0 28 14 48l727 1063q49 68 56 90q-124 -11 -248 -12h-622q-59 0 -108 5q3 -43 3 -64q0 -22 -2 -52
q92 6 235.5 17.5t253.5 18t220 6.5q22 0 28.5 -19.5t-5.5 -37.5l-756 -1108q-4 -5 -9 -12t-12 -18t-13 -20q100 5 148 4h744q82 0 128 -4q-3 43 -3 64q0 22 2 52q-508 -42 -760 -42z" />
    <glyph glyph-name="bracketleft" unicode="[" horiz-adv-x="854" 
d="M225 -393v1833h441l115 -116v-62q-74 -5 -120 -11t-82 -18t-53.5 -25.5t-29 -41t-14 -55.5t-2.5 -78v-1251q0 -61 5 -92q57 -14 181 -24l115 -116v-59l-324 -116l-116 116zM246 -373h399v20q-103 9 -160 22.5t-90 44t-42 70.5t-9 114v1251q0 74 9 113.5t41.5 70t90 43.5
t160.5 21v22h-399v-1792z" />
    <glyph glyph-name="backslash" unicode="\" horiz-adv-x="712" 
d="M123 1430l116 -116l471 -1528h-101l-115 116l-471 1528h100zM108 1409h-58l459 -1487h57z" />
    <glyph glyph-name="bracketright" unicode="]" horiz-adv-x="854" 
d="M514 1440l116 -116v-1833h-440l-116 116v61q111 8 166 18.5t87.5 38t40 63.5t7.5 110v1251q0 61 -5 92q-57 14 -180 24l-116 115v60h440zM494 1419h-400v-20q46 -4 81 -8.5t65 -10.5t51.5 -15t38.5 -19t28 -25t18.5 -31t11.5 -38.5t5.5 -46.5t1.5 -56v-1251
q0 -74 -8.5 -114t-41.5 -70t-90 -43.5t-161 -21.5v-22h400v1792z" />
    <glyph glyph-name="asciicircum" unicode="^" horiz-adv-x="1175" 
d="M613 1017l-176 -424h-92l-116 116l260 622h86l116 -116l258 -622h-92l-116 116zM530 1268l225 -539h48l-241 582h-59l-243 -582h48z" />
    <glyph glyph-name="underscore" unicode="_" horiz-adv-x="1110" 
d="M987 -225l116 -116v-90h-977l-116 116v90h977zM967 -246h-936v-49h936v49z" />
    <glyph glyph-name="grave" unicode="`" horiz-adv-x="917" 
d="M365 1432l115 -116l144 -258q12 -25 12 -49q0 -8 -9.5 -15.5t-21.5 -7.5q-16 0 -59 41l-234 223l-115 116l4 23q63 47 133 47q15 0 31 -4zM351 1413q-11 2 -17 2q-60 0 -115 -38v-4l225 -215q38 -35 46 -36q6 0 10 5q0 19 -10 37z" />
    <glyph glyph-name="a" unicode="a" horiz-adv-x="1099" 
d="M635 98h-8l12 -12zM374 87q17 -3 36 -3q82 0 188 80q29 20 29 53l3 95l-53 -14q-113 -31 -158 -80.5t-45 -124.5v-6zM911 85q14 3 31 9l116 -116l16 -51q-60 -63 -164 -63q-73 0 -117 45l-63 63q-76 -63 -130.5 -85.5t-135.5 -22.5q-133 0 -199 67l-116 115
q-57 57 -57 155q0 104 91 182.5t249 114.5l191 43q14 4 14 24q0 70 -15 120q-26 6 -66 6q-117 0 -225 -174l-27 2l-116 116l-34 137l6 8q141 119 301 119q169 0 254 -85l116 -116q84 -84 84 -247q0 -6 -3 -140t-3 -169q0 -32 2 -57zM650 119l5 -15q30 -104 140 -104
q87 0 140 49l-6 19q-23 -6 -42 -6q-51 0 -74 21q-41 37 -40 175q0 35 2.5 169t2.5 140q0 311 -317 312q-151 0 -285 -112l29 -112q110 173 235 172q39 0 69 -7t67.5 -30.5t59 -81t21.5 -143.5q0 -35 -28 -44h-1l-191 -43q-153 -34 -238.5 -108.5t-85.5 -168.5
q0 -101 61.5 -151t173.5 -50q80 0 132 22.5t133 91.5l6 5h31zM656 488l-9 -271q0 -42 -37 -70q-112 -84 -200 -84q-74 0 -123 43.5t-49 102.5q0 53 19.5 94t68.5 75t129 55z" />
    <glyph glyph-name="b" unicode="b" horiz-adv-x="1146" 
d="M332 166q10 -12 21.5 -23.5t24.5 -22.5zM740 687q-36 14 -77 14q-60 0 -105.5 -27t-109.5 -94l92 -517q85 7 139.5 55.5t78.5 132.5t24 208q1 139 -42 228zM448 876q61 23 140 23q145 0 253 -108l115 -115q124 -124 124 -317q0 -125 -38.5 -223t-103 -156t-140.5 -87
t-158 -29q-62 0 -127.5 29t-114.5 71q-33 -62 -67 -100q-41 0 -57 16l-116 116q10 53 10 154v837q0 258 -25 395l4 7q92 6 179 41q9 0 13 -5l116 -116q5 -5 5 -16q-12 -160 -12 -385v-32zM311 1024q0 223 12 383q-75 -29 -157 -37q22 -141 22 -383v-837q0 -96 -8 -145
q4 -2 11 -3t15 -2q30 35 58 89l12 23l20 -17q46 -40 108.5 -67.5t119.5 -27.5q168 0 294 121t126 354q0 174 -106.5 289t-249.5 115q-153 0 -241 -96l-36 -39v280zM316 153l-5 6v546l6 6q66 68 115.5 97.5t114.5 29.5q113 0 184.5 -96.5t71.5 -282.5q0 -418 -291 -418
q-52 0 -106 33.5t-90 78.5z" />
    <glyph glyph-name="c" unicode="c" horiz-adv-x="993" 
d="M628 701q-106 0 -180 -98.5t-74 -261.5q0 -141 51 -237q46 -22 99 -22q123 0 219 86h9l39 -43l115 -116q-114 -145 -301 -145q-174 0 -284 110l-115 116q-128 128 -128 356q0 199 133 326t303 127q162 0 272 -57l5 -6l115 -116l-47 -168l-26 -2l-116 116q-5 8 -9 15
q-39 20 -80 20zM512 838q123 0 216 -151l39 141q-108 50 -253 51q-162 0 -289 -121t-127 -312q0 -206 106.5 -326t284.5 -120q169 0 275 124l-18 19q-97 -82 -222 -82q-127 0 -206.5 107.5t-79.5 288.5q0 170 78.5 275.5t195.5 105.5z" />
    <glyph glyph-name="d" unicode="d" horiz-adv-x="1200" 
d="M440 93q23 -7 47 -7q137 0 252 145v458q-34 12 -78 12q-43 0 -84 -14.5t-84 -51t-69 -113.5t-26 -185q0 -150 42 -244zM804 -52q-93 -84 -213 -84q-138 0 -238 99l-116 116q-133 133 -133 357q0 207 130.5 335t332.5 128q92 0 172 -45v133q0 293 -18 395l4 7q92 6 178 41
q9 0 14 -5t5 -16l115 -116q-18 -227 -18 -385v-631q0 -206 35 -393l-116 116l-4 -6l116 -116q-40 6 -91 6q-22 0 -71 -6q-14 0 -17 3zM744 114l-1 5h-4zM723 131l6 8h33l11 -124q45 6 70 5q35 0 71 -3q-31 185 -31 376v631q0 157 18 383q-75 -29 -157 -37q16 -108 16 -383
v-168l-31 17q-30 17 -81 30t-81 13q-195 0 -318.5 -122t-123.5 -321q0 -186 98.5 -311t251.5 -125q146 0 248 131zM760 224l-5 -5q-58 -73 -128 -113t-140 -40q-100 0 -162.5 100t-62.5 287q0 113 27.5 193.5t74 119.5t90.5 55.5t91 16.5q51 0 90 -16t67 -43t55 -70l3 -5
v-480z" />
    <glyph glyph-name="e" unicode="e" horiz-adv-x="1042" 
d="M803 213l41 -51l116 -116q-60 -82 -154.5 -132t-202.5 -50q-192 0 -306 113l-116 116q-11 11 -19 22q-92 111 -92 313q0 213 130 342t289 129q155 0 247 -92l116 -116q107 -107 108 -295q0 -35 -37 -35h-430q-4 -22 -5 -34l-34 34h-88q0 -157 35 -234q57 -27 121 -27
q177 0 281 113zM642 695q-19 6 -37 6q-37 0 -72 -142h100q29 0 29 29q-1 59 -20 107zM375 141l-76 76q15 -23 34 -42t42 -34zM801 182q-108 -102 -279 -102q-66 0 -132 29.5t-108 96.5q-52 83 -53 271v21h578q16 0 16 14q0 147 -79.5 257t-254.5 110q-152 0 -275.5 -123
t-123.5 -328q0 -195 88 -300q106 -128 309 -128q98 0 185 44t146 117zM232 539l4 23q13 78 46 136.5t74 86.5t74.5 40.5t58.5 12.5q72 0 132.5 -68t60.5 -182q0 -20 -13.5 -34.5t-35.5 -14.5h-401z" />
    <glyph glyph-name="f" unicode="f" horiz-adv-x="757" 
d="M203 879v79q0 170 112 314q57 74 148.5 116t187.5 42q59 0 92 -21l2 -6l116 -116q-30 -62 -57 -168l-23 -2l-55 56q-30 16 -63 16q-87 0 -139 -52.5t-52 -138.5q0 -8 7 -119q54 1 119 4l10 -15l116 -115q-16 -40 -24 -84q-42 4 -148 4h-70v-381q0 -270 21 -408l-116 116
l-4 -6l116 -116q-37 6 -98.5 6t-98.5 -6l-116 116l-4 6q20 129 21 408v262q-22 -1 -38 -1l-116 115l-10 15q29 45 45 84q31 -4 119 -4zM203 786v2h-2zM223 858h-20q-73 0 -106 3q-12 -27 -29 -55q60 3 133 3h22v-401q0 -262 -17 -391q40 4 78.5 3.5t79.5 -3.5
q-18 134 -18 391v401h90q78 0 131 -3q6 28 17 56q-78 -3 -129 -4h-109v39q0 41 -5 121t-5 96q0 94 57.5 152.5t153.5 58.5q78 0 126 -66q23 83 47 138q-31 12 -69 12q-92 0 -178.5 -40.5t-141.5 -109.5q-108 -137 -108 -301v-100z" />
    <glyph glyph-name="g" unicode="g" horiz-adv-x="1136" 
d="M915 476q0 -136 -88.5 -224.5t-251.5 -88.5q-98 0 -152 28q-53 -46 -60 -95h2q2 0 59 4q78 10 170 11q209 0 289 -68q8 -7 15 -14l116 -116q70 -70 71 -189q0 -105 -84.5 -181.5t-206.5 -111t-260 -34.5q-200 0 -297 96l-115 115q-56 56 -56 138q0 63 47 135
q39 30 137 84l-71 72q-48 48 -48 125q0 79 117 163l-56 57q-79 79 -79 206q0 143 107.5 227t240.5 84q69 0 125 -18q52 3 101.5 8.5t81 11t70.5 11t70 8.5l6 -7l116 -115q-6 -27 -6 -53t6 -54l-116 116l-6 -6l116 -116q-191 19 -206 21l28 -29q68 -67 68 -201zM796 -116
q-10 18 -24 32t-33 25zM813 -156q-50 16 -175 16q-10 0 -79 -3.5t-103 -3.5q-56 -30 -94.5 -81t-38.5 -101q0 -18 4 -35q78 -35 148 -35q141 0 242.5 51t101.5 141q0 27 -6 51zM402 368q30 -8 67 -8q92 0 131 57.5t39 164.5q0 68 -16 117q-25 6 -55 6q-87 0 -133.5 -59.5
t-46.5 -163.5q0 -67 14 -114zM659 582q0 -242 -190 -242q-217 0 -217 258q0 110 52 177t149 67q106 0 156 -70.5t50 -189.5zM778 592q0 151 -94 213l-66 44l79 -7q34 -3 195 -19q-3 19 -3 37t3 37q-29 -3 -79.5 -11t-106 -15t-119.5 -10h-3l-4 1q-53 17 -119 17
q-127 0 -227.5 -79t-100.5 -212q0 -161 135 -238l28 -17l-26 -18q-118 -81 -118 -153q0 -133 138 -157l56 -9l-49 -29q-11 -7 -48.5 -27t-67.5 -38t-53 -35q-42 -66 -42 -121q0 -109 100.5 -161t231.5 -52q101 0 194.5 20.5t169 58t121 97t45.5 131.5q0 120 -79 187
q-73 63 -275 63q-90 0 -167 -10h-2q-58 -4 -60 -4q-139 0 -140 117q0 71 69 130l10 9l13 -7q49 -26 142 -26q156 0 237.5 82t81.5 211zM186 -213q0 57 42 112.5t102 87.5l5 3h5q33 0 101.5 3t80.5 3q88 0 136.5 -6.5t91.5 -31.5q90 -53 90 -165q0 -102 -109.5 -157.5
t-255.5 -55.5q-45 0 -106.5 16.5t-122 66.5t-60.5 124z" />
    <glyph glyph-name="h" unicode="h" horiz-adv-x="1239" 
d="M348 721l4 -6l1 1zM555 579l25 -90l-61 61q-29 -26 -55 -58v-239q0 -228 18 -369l-115 116l-5 -6l116 -116q-37 6 -96 6t-96 -6l-116 116l-4 6q18 133 18 369v616q0 295 -18 397l4 7q92 6 178 41q9 0 14 -5t5 -16l115 -116q-18 -236 -18 -383l22 -79q109 68 221 68
q117 0 178 -61l115 -116q76 -76 76 -262q0 -33 -2 -103.5t-2 -103.5q0 -237 19 -369l-116 116l-4 -6l116 -116q-37 6 -96.5 6t-96.5 -6l-116 116l-4 6q18 124 19 369v200q0 53 -7 90q-12 1 -25 1q-98 0 -206 -81zM328 715v311q0 148 18 381q-75 -29 -157 -37
q16 -108 16 -385v-616q0 -225 -16 -352q40 4 77.5 3.5t77.5 -3.5q-16 133 -16 352v247l5 6q75 88 159.5 131.5t152.5 43.5q90 0 129 -51.5t39 -176.5v-200q0 -234 -16 -352q39 4 77 3q38 0 78 -3q-16 125 -16 352q0 33 2 103.5t2 102.5q0 160 -53 232t-180 72
q-44 0 -92.5 -12t-118.5 -54.5t-128 -111.5l-18 -20z" />
    <glyph glyph-name="i" unicode="i" horiz-adv-x="647" 
d="M164 1223q0 41 31.5 72.5t72.5 31.5t73 -31l116 -116q31 -31 31.5 -73t-31 -73.5t-73 -31.5t-73.5 32l-116 116q-31 32 -31 73zM184 481q0 272 -18 398l4 6q88 -6 178 2q12 0 15 -3l116 -116q3 -3 3 -18q-18 -173 -18 -352v-145q0 -224 18 -369l-115 116l-5 -6l116 -116
q-37 6 -96 6t-96 -6l-116 116l-4 6q18 137 18 369v112zM205 481v-112q0 -220 -16 -352q40 4 77.5 3.5t77.5 -3.5q-16 137 -16 352v145q0 179 18 352q-72 -7 -157 -3q16 -131 16 -382zM184 1222.5q0 -32.5 26 -58t58.5 -25.5t58 25.5t25.5 58t-25.5 58.5t-58 26t-58.5 -26
t-26 -58.5z" />
    <glyph glyph-name="j" unicode="j" horiz-adv-x="671" 
d="M184 1223q0 41 32 72.5t73 31.5t73 -31l116 -116q31 -32 31 -73.5t-31.5 -73t-73 -31.5t-72.5 32l-116 116q-32 32 -32 73zM489 398v-268q0 -222 -20.5 -333.5t-70.5 -188.5q-106 -166 -276 -166q-59 0 -88 18l-116 116l-2 6q8 31 8 182l33 9l85 -85q19 -7 38 -7
q41 0 68 38.5t39.5 116.5t17 159.5t4.5 201.5v284q0 272 -19 398l5 6q88 -6 178 2q12 0 15 -3l116 -116q3 -3 3 -18q-18 -173 -18 -352zM352 514q0 179 19 352q-72 -7 -158 -3q16 -131 16 -382v-284q0 -82 -1 -134.5t-5.5 -122.5t-14 -113.5t-25.5 -85.5t-42 -61.5
t-61 -19.5q-77 0 -135 93q0 -124 -7 -164q28 -11 68 -11q160 0 259 157q47 74 67 182t20 329v268zM205 1222.5q0 -32.5 25.5 -58t58.5 -25.5t58.5 25.5t25.5 58t-25.5 58.5t-58.5 26t-58.5 -26t-25.5 -58.5z" />
    <glyph glyph-name="k" unicode="k" horiz-adv-x="1144" 
d="M184 410v577q0 293 -18 395l4 7q92 6 178 41q9 0 14 -5t5 -16l115 -116q-18 -248 -18 -385v-365q66 57 153 154.5t145 181.5q168 0 207 6l4 -6l116 -116q-201 -170 -414 -391q68 -82 133.5 -154.5t109.5 -116.5t106.5 -107t107.5 -110l-116 116l-4 -6l116 -116
q-31 6 -123 6q-83 0 -135 -6l-116 116q-160 231 -227 309q-30 11 -63 11v-20q0 -275 18 -410l-115 116l-5 -6l116 -116q-37 6 -96 6t-96 -6l-116 116l-4 6q18 131 18 410zM205 410q0 -262 -16 -393q40 4 77.5 3.5t77.5 -3.5q-16 132 -16 393v41h21q68 -2 97 -28l1 -1
q64 -67 115 -130t83.5 -108.5t118.5 -168.5q59 5 125 5q37 0 81 -2q-28 29 -118.5 119.5t-158 164t-150.5 172.5l-11 14l12 14q178 185 376 358q-50 -2 -147 -2q-44 -62 -104.5 -133t-118.5 -129.5t-99 -89.5q-39 -29 -101 -35l-22 -2v555q0 138 18 383q-75 -29 -157 -37
q16 -108 16 -383v-577z" />
    <glyph glyph-name="l" unicode="l" horiz-adv-x="630" 
d="M184 410v577q0 293 -18 395l4 7q92 6 178 41q9 0 14 -5t5 -16l115 -116q-18 -248 -18 -385v-614q0 -275 18 -410l-115 116l-5 -6l116 -116q-37 6 -96 6t-96 -6l-116 116l-4 6q18 131 18 410zM205 410q0 -262 -16 -393q40 4 77.5 3.5t77.5 -3.5q-16 132 -16 393v614
q0 138 18 383q-75 -29 -157 -37q16 -108 16 -383v-577z" />
    <glyph glyph-name="m" unicode="m" horiz-adv-x="1767" 
d="M528 571l35 -82l-61 62q-29 -24 -54 -50v-248q0 -238 18 -369l-116 116l-4 -6l116 -116q-37 6 -96.5 6t-96.5 -6l-115 116l-4 6q18 124 18 369v112q0 283 -18 398l4 6q90 -8 165 6q6 0 9 -3q4 -4 4 -18l116 -115l10 -24q23 85 84 126.5t140 41.5q103 0 165 -62l76 -76
q144 138 322 138q123 0 183 -60l116 -116q71 -71 71 -265v-205q0 -237 18 -369l-115 116l-5 -6l116 -116q-37 6 -96 6t-96 -6l-116 116l-4 6q18 125 18 369v225q0 36 -5 64q-20 3 -43 2q-46 0 -82 -7t-83.5 -35.5t-94.5 -80.5q2 -25 2 -77v-207q0 -237 19 -369l-116 116
l-4 -6l116 -116q-37 6 -96.5 6t-96.5 -6l-116 116l-4 6q18 125 19 369v225q0 37 -6 66q-7 1 -14 0q-84 0 -202 -89zM311 712v157q-64 -10 -138 -6q16 -119 15 -382v-112q0 -233 -15 -352q40 4 77 3.5t77 -3.5q-16 125 -16 352v256l6 6q74 75 155 120.5t142 45.5
q156 0 156 -203v-225q0 -233 -16 -352q40 4 77.5 3.5t77.5 -3.5q-16 125 -16 352v206q0 52 -2 77l-1 8l6 7q70 77 135.5 103.5t139.5 26.5q92 0 138.5 -48.5t46.5 -154.5v-225q0 -233 -16 -352q40 4 77.5 3.5t77.5 -3.5q-16 125 -16 352v204q0 156 -46.5 231t-187.5 75
q-184 0 -331 -156l-28 -29l-7 40q-12 66 -65 105.5t-132 39.5q-162 0 -329 -178l-15 -16z" />
    <glyph glyph-name="n" unicode="n" horiz-adv-x="1218" 
d="M1058 253q0 -234 18 -369l-116 116l-4 -6l116 -116q-37 6 -96 6t-96 -6l-116 116l-4 6q18 138 18 369v200q0 53 -6 90q-12 1 -25 1q-63 0 -144 -41t-153 -127v-239q0 -237 18 -369l-116 116l-4 -6l116 -116q-37 6 -96 6t-96 -6l-116 116l-4 6q18 125 18 369v112
q0 283 -18 398l4 6q90 -8 166 6q6 0 8 -3q4 -4 4 -18l80 -80q132 109 278 109q117 0 178 -61l116 -116q76 -76 76 -262q0 -33 -2 -103.5t-2 -103.5zM339 716l-5 5l4 -6zM922 369q0 33 2 103.5t2 102.5q0 160 -53.5 232t-180.5 72q-73 0 -163.5 -39t-174.5 -139l-18 -20
l-23 34v154q-64 -10 -138 -6q16 -119 15 -382v-112q0 -233 -15 -352q40 4 77 3.5t77 -3.5q-16 125 -16 352v247l5 6q51 60 110.5 100.5t109 57.5t93.5 17q90 0 129 -51.5t39 -176.5v-200q0 -220 -16 -352q40 4 77.5 3.5t77.5 -3.5q-16 128 -16 352z" />
    <glyph glyph-name="o" unicode="o" horiz-adv-x="1138" 
d="M78 420q0 217 120.5 348t321.5 131q191 0 303 -112l116 -115q123 -123 123 -350q0 -204 -117 -331t-317 -127q-192 0 -311 119l-116 116q-123 123 -123 321zM622 701q-69 0 -119.5 -30.5t-77.5 -84.5t-39 -115t-12 -132q0 -151 55 -257q46 -21 101 -21q102 0 169 96.5
t67 243.5q0 190 -40 283q-44 17 -104 17zM506 838q70 0 120 -22.5t80.5 -59.5t49 -94.5t24.5 -119t6 -141.5q0 -154 -71.5 -257t-184.5 -103q-84 0 -145 41t-91 108t-43 132.5t-13 132.5q0 47 5 90.5t17 87.5t32.5 80t49.5 64.5t71 44.5t93 16zM98 420q0 -182 112 -301
t302 -119t302 121t112 317q0 205 -105.5 323t-300.5 118q-193 0 -307.5 -124t-114.5 -335z" />
    <glyph glyph-name="p" unicode="p" horiz-adv-x="1185" 
d="M332 721l4 -6l1 1zM751 681q-27 8 -58 8q-19 0 -41 -7t-45 -20t-45.5 -30.5t-43.5 -39.5l45 -103l-71 72q-28 -37 -44 -75v-412q37 -13 74 -13q78 0 133.5 35.5t83 95.5t38.5 122t12 132q-1 147 -38 235zM350 134l-3 3zM403 799q97 100 209 100q137 0 232 -95l116 -116
q124 -124 125 -331q0 -220 -117.5 -356.5t-317.5 -136.5q-119 0 -202 45v-90q0 -264 18 -410l-116 116l-4 -6l116 -116q-37 6 -96 6t-97 -6l-115 116l-4 6q18 138 18 409v547q0 283 -18 398l4 6q90 -8 165 6q6 0 9 -3q4 -4 4 -18zM311 715v154q-64 -10 -138 -6
q16 -119 15 -382v-547q0 -255 -16 -392q40 4 78 3q38 0 78 -3q-16 143 -17 392v125l30 -16q79 -43 194 -43q190 0 301.5 130t111.5 343q0 166 -91 286t-245 120q-144 0 -259 -175l-17 -26zM311 606l2 4q36 86 115.5 150.5t149.5 64.5q77 0 129.5 -46.5t77 -130t24.5 -202.5
q0 -72 -12 -135.5t-41 -128t-89 -103t-145 -38.5q-121 0 -206 99l-5 6v460z" />
    <glyph glyph-name="q" unicode="q" horiz-adv-x="1183" 
d="M750 885q63 -10 165 0l5 -6l115 -116q-18 -114 -18 -398v-546q0 -286 18 -410l-115 116l-5 -6l116 -116q-26 6 -96 6l-96 -6l-116 116l-4 6q18 111 18 355q-62 -16 -126 -16q-160 0 -262 103l-116 116q-66 66 -99.5 162t-33.5 197q0 200 123 328.5t303 128.5
q138 0 224 -14zM447 91q45 -21 98 -21q35 0 95 18t97 47v344q0 126 -3 218q-33 4 -80 4q-114 0 -186 -96.5t-72 -255.5t51 -258zM746 865q-85 14 -220 14q-172 0 -288.5 -122.5t-116.5 -314.5q0 -82 21.5 -157.5t65 -141t118 -104.5t170.5 -39q75 0 139.5 21t88.5 42l34 29
v-158q0 -277 -16 -392q32 3 77 3q44 0 77 -3q-16 122 -15 392v547q0 261 16 382q-98 -7 -151 2zM744 786l7 -6l1 -8q6 -56 6 -293v-354l-8 -6q-28 -21 -69 -38t-76.5 -24.5t-59.5 -7.5q-117 0 -201 99.5t-84 316.5q0 166 77 269.5t202 103.5q143 0 205 -52z" />
    <glyph glyph-name="r" unicode="r" horiz-adv-x="841" 
d="M503 523q-45 -78 -45 -164v-106q0 -229 18 -369l-116 116l-4 -6l116 -116q-37 6 -96 6t-96 -6l-116 116l-4 6q18 127 18 369v112q0 283 -18 398l4 6q90 -9 166 6q6 0 8 -3q4 -4 4 -18l78 -78q43 57 86.5 82t101.5 25q25 0 74 -14l8 -8l116 -116l-41 -152l-16 -4
q-31 29 -107 29q-65 0 -112 -68l44 -114zM322 673v196q-64 -10 -139 -6q16 -119 16 -382v-112q0 -230 -16 -352q40 4 77 3q38 0 78 -3q-16 133 -16 352v106q0 63 17.5 109.5t54.5 104.5q53 81 132 81q70 0 108 -24l33 122q-34 11 -59 11q-73 0 -123 -44.5t-119 -164.5
l-11 -19z" />
    <glyph glyph-name="s" unicode="s" horiz-adv-x="925" 
d="M102 207l31 2q22 -30 47 -56q92 -91 195 -92q84 0 136 45.5t52 124.5q0 11 -1 22q-32 12 -90 28q-129 35 -184 92l-116 116q-61 61 -61 160q0 119 92 184.5t217 65.5q158 0 276 -61l4 -7l116 -115l-41 -152l-28 -2l-100 99q-57 40 -119 40q-69 0 -112.5 -34t-43.5 -95
q0 -11 2 -21q31 -12 72 -23q147 -35 214 -101l116 -116q65 -65 65 -167q0 -48 -15.5 -92.5t-51.5 -89t-108.5 -71.5t-172.5 -27q-152 0 -310 55l-115 116zM119 187l-28 -139q147 -48 286 -48q96 0 164.5 25t102 67t47.5 83t14 85q0 106 -70 162.5t-193 85.5
q-206 50 -206 180q0 72 50 111t126 39q40 0 74.5 -12t65.5 -38t46.5 -42t43.5 -50l35 128q-116 54 -257 55q-119 0 -204 -60.5t-85 -169.5q0 -102 60 -152t171 -80q53 -15 85 -27t67.5 -33t52.5 -52t17 -74q0 -88 -59.5 -139t-149.5 -51q-140 0 -252 147z" />
    <glyph glyph-name="t" unicode="t" horiz-adv-x="811" 
d="M195 879q0 63 4 145t4 117l4 6q30 4 52 11.5t49.5 20.5t41.5 19q9 0 14 -4q5 -5 5 -16l115 -116q-9 -111 -9 -183q34 0 123 4l10 -15l116 -115q-16 -40 -24 -84q-42 4 -148 4h-78v-258q0 -69 -3 -159.5t-3 -113.5q0 -32 2 -56q52 0 111 20l116 -116l25 -51
q-118 -76 -238 -75q-77 0 -126 49l-116 116q-53 53 -54 147q0 23 3.5 143t3.5 189v162q-16 -1 -30 -1l-116 115l-10 15q29 45 45 84q29 -4 111 -4zM215 879v-21h-21q-66 0 -97 3q-12 -27 -29 -55q51 3 126 3h21v-301q0 -70 -3 -190t-3 -142q0 -59 23 -99.5t58 -58.5t79 -18
q108 0 211 63l-9 18q-77 -23 -154 -11q-48 8 -66.5 54t-18.5 134q0 24 3 114t3 158v279h98q78 0 131 -3q6 29 17 56q-87 -3 -129 -4h-117v21q0 167 10 296q-9 -4 -27 -12.5t-29.5 -13.5t-30 -11t-38.5 -9q0 -28 -4 -107.5t-4 -142.5z" />
    <glyph glyph-name="u" unicode="u" horiz-adv-x="1214" 
d="M457 95q6 0 14 -1q72 0 150.5 64.5t130.5 150.5v201q0 233 -19 369l4 6q37 -6 96.5 -6t96.5 6l4 -6l116 -116q-18 -122 -19 -369v-117q0 -206 35 -393l-116 116l-4 -6l116 -116q-40 6 -91 6q-23 0 -71 -6q-14 0 -17 3l-96 96q-113 -114 -233 -113q-123 0 -192 69
l-116 116q-76 76 -76 215v246q0 238 -18 369l4 6q37 -6 96 -6t96 6l4 -6l116 -116q-18 -122 -18 -369v-203q-1 -55 7 -96zM756 180v2l-8 6zM730 200l12 18l34 -25l10 -178q44 6 69 5q35 0 71 -3q-31 185 -31 376v117q0 235 16 352q-40 -4 -77.5 -4t-77.5 4q16 -128 16 -352
v-206l-3 -5q-53 -90 -135.5 -157.5t-162.5 -67.5q-72 0 -115 49t-43 184v203q0 235 16 352q-40 -4 -77.5 -4t-77.5 4q16 -125 16 -352v-246q0 -115 58.5 -189.5t189.5 -74.5q81 0 159.5 58t132.5 142z" />
    <glyph glyph-name="v" unicode="v" horiz-adv-x="1050" 
d="M403 -6q-231 604 -362 891q33 -6 108.5 -6t102.5 6l116 -116q128 -406 165 -507q45 109 118.5 334t96.5 289q18 -6 69 -6q59 0 78 6l116 -116q-253 -573 -367 -891q-18 6 -61 6q-8 0 9 -29t34.5 -59.5t8.5 -33.5l-116 116zM416 18q17 3 51 2q31 0 48 -2q111 309 346 841
q-17 -1 -44 -1q-37 0 -56 3q-26 -73 -73 -220t-88 -262t-82 -203l-6 -12h-30l-6 12q-29 66 -54 130.5t-54.5 152t-41 121.5t-48 151.5t-40.5 130.5q-29 -3 -88 -4q-48 0 -75 2q125 -278 341 -842z" />
    <glyph glyph-name="w" unicode="w" horiz-adv-x="1583" 
d="M410 -8q-199 518 -369 891q32 -6 109 -6q76 0 102 6l116 -116q123 -388 171 -518q53 123 144 379q-52 145 -89 257q33 -6 108.5 -6t102.5 6l116 -116q63 -292 129 -506q108 267 220 622q18 -6 69 -6q70 0 88 6l116 -116q-123 -271 -381 -891q-18 6 -75 6q-33 0 -54 -6
l-115 116q-31 86 -105 281q-46 -118 -146 -399q-19 6 -74 6q-8 0 8 -29t32.5 -59.5t7.5 -33.5l-116 116zM422 16q20 3 55 2q40 0 61 -2q116 326 178 478l20 48l18 -49q29 -79 88 -237t88 -238q14 2 41 2q42 0 63 -3q237 571 359 842q-22 -1 -54 -1q-35 0 -55 3
q-129 -408 -248 -685l-5 -12h-44l-5 13q-101 267 -193 684q-29 -3 -87 -3q-51 0 -78 2q34 -101 79 -225l2 -7l-2 -7q-110 -309 -175 -447l-5 -12h-39l-6 12q-21 48 -40 95.5t-39.5 104.5t-33 91t-35.5 104t-29.5 91t-33 104.5t-29.5 95.5q-29 -3 -88 -4q-48 0 -75 2
q160 -355 347 -842z" />
    <glyph glyph-name="x" unicode="x" horiz-adv-x="1046" 
d="M378 424l-329 461q45 -6 119 -6q61 0 111 6l115 -116q19 -32 56.5 -96t56.5 -95q33 45 68 97t74 111.5t66 98.5q29 -6 76 -6q57 0 92 6l116 -116l-337 -413q30 -44 100.5 -148.5t124.5 -181t109 -148.5q-56 6 -116 6q-64 0 -105 -6l-116 116q-25 39 -67 109l-54 90
q-38 -56 -103.5 -161t-97.5 -154q-35 6 -90 6q-40 0 -74 -6l-116 116zM403 423l-301 -404q17 1 29 1q38 0 80 -4q28 43 67.5 106.5t76 121t71.5 106.5l16 23l17 -23q28 -39 57.5 -84.5t50.5 -81t51 -85t52 -83.5q40 5 94 4q29 0 72 -2q-49 65 -99.5 138t-113 166t-93.5 138
l-9 13l315 387q-25 -1 -45 -2q-36 0 -67 4q-24 -35 -67.5 -101.5t-80.5 -120.5t-74 -102l-17 -22l-16 22q-36 50 -67 98.5t-76 126.5t-58 100q-46 -5 -100 -5q-38 0 -76 2z" />
    <glyph glyph-name="y" unicode="y" horiz-adv-x="1150" 
d="M57 885q29 -6 107 -6q74 0 100 6l116 -116q65 -200 196 -516q122 275 235 632q20 -6 80 -6q68 0 88 6l116 -116q-88 -178 -316 -691t-278 -679q-34 10 -100 10q-37 0 -72 -10l-116 116q147 248 242 465q-42 112 -398 905zM91 860q331 -733 383 -873l3 -8l-4 -8
q-86 -201 -219 -428q18 2 31 2q40 0 86 -7q56 172 255 621.5t318 699.5q-22 -1 -53 -1q-44 0 -66 3q-130 -404 -264 -690l-6 -12h-31l-5 13q-201 486 -269 690q-29 -3 -86 -4q-46 0 -73 2z" />
    <glyph glyph-name="z" unicode="z" horiz-adv-x="966" 
d="M485 654l-269 -16l-116 116l-4 6q4 33 4 63q0 2 -4 56l4 6q46 -6 115 -6h418q26 0 65 3t68 6t32 3q5 0 8 -2q3 -3 3 -10l116 -116q-14 -17 -62 -86l-247 -563l175 11l4 -6l115 -116q-4 -32 -4 -64q0 -3 4 -55l-115 116l-4 -6l115 -116q-46 6 -114 6h-276l-6 -13l-13 13
h-168l-166 -6l-116 116l-6 9q11 13 45 63zM278 82h-39l492 722q32 47 44 65q-99 -11 -142 -11h-418q-53 0 -97 4q3 -26 3 -39q0 -19 -3 -47q239 18 449 20l39 1l-503 -743q-3 -5 -8.5 -12.5t-9.5 -13.5l-8 -12q90 5 136 4h463q53 0 97 -4q-3 27 -3 39q0 19 2 48
q-268 -20 -494 -21z" />
    <glyph glyph-name="braceleft" unicode="{" horiz-adv-x="681" 
d="M480 1015l17 -340q4 -80 -18 -135t-60.5 -84.5t-101.5 -50.5l106 -107q81 -81 74 -219l-17 -305q-5 -88 22 -156q13 -3 26 -3l116 -116q9 -9 9 -24.5t-9 -24.5q-170 0 -241 71l-116 116q-77 77 -70 263l12 348q2 57 -12 101q-32 12 -72 16l-116 116q-25 25 0 49
q72 7 118.5 43.5t64 82.5t17.5 102l-12 377q-10 313 311 313l116 -116q9 -9 9 -24.5t-9 -24.5q-38 -11 -61 -23t-52 -39.5t-42 -79t-9 -126.5zM180 496l-14 14v-8q6 -3 14 -6zM344 1130q-4 76 9.5 130t42.5 84.5t55.5 45.5t64.5 26q2 5 1 11q-289 -6 -279 -292l12 -377
q0 -93 -50.5 -163t-160.5 -84q-4 -5 0 -10q75 -11 124 -47t69 -87.5t18 -119.5l-12 -348q-7 -174 55 -240.5t204 -71.5q9 0 20 -1q1 5 0 9q-79 7 -129.5 88.5t-43.5 207.5l16 305q6 113 -43.5 177.5t-158.5 109.5l-13 5v37l15 5q110 32 158 85.5t42 174.5z" />
    <glyph glyph-name="bar" unicode="|" horiz-adv-x="544" 
d="M382 -591h-100l-116 116v1905h100l116 -116v-1905zM246 -455v1864h-60v-1864h60z" />
    <glyph glyph-name="braceright" unicode="}" horiz-adv-x="681" 
d="M195 -119l-17 340q-6 118 39.5 178t140.5 92l-106 107q-81 81 -74 219l17 305q5 88 -22 156q-13 3 -26 3l-116 116q-10 8 -10.5 24.5t10.5 24.5q170 0 241 -71l116 -116q77 -77 70 -263l-12 -348q-2 -57 12 -101q32 -12 72 -17l116 -115q25 -25 0 -50
q-105 -10 -152.5 -74.5t-47.5 -152.5l12 -377q6 -164 -78.5 -238.5t-232.5 -74.5l-116 116q-10 10 -10.5 24.5t10.5 24.5q37 10 60.5 22.5t53 40t42 78.5t8.5 127zM215 -118q4 -76 -9.5 -130.5t-42.5 -85t-55.5 -45.5t-64.5 -26q-2 -5 -1 -11q289 6 280 292l-13 378
q0 92 50.5 162.5t160.5 84.5q4 5 0 10q-112 16 -163 83t-48 171l13 348q7 174 -55.5 240t-204.5 72h-20q-1 -5 0 -8q79 -7 129.5 -89t43.5 -207l-16 -305q-6 -113 44 -177.5t158 -109.5l13 -5v-38l-15 -4q-110 -32 -158 -85.5t-42 -174.5z" />
    <glyph glyph-name="asciitilde" unicode="~" horiz-adv-x="1034" 
d="M53 428q20 104 96 183t166 79q45 0 152 -65q106 -68 149 -68q53 0 113 34t90 103l35 -12l116 -116q-22 -77 -57 -130t-72.5 -76t-65 -31.5t-51.5 -8.5q-58 0 -154 68q-96 66 -151 66q-57 0 -123 -41.5t-100 -106.5l89 -110l-116 116zM86 469q41 54 102 87.5t115 33.5
q61 0 163 -69q90 -64 142 -64q20 0 43 6.5t56.5 25t65.5 64t54 111.5q-19 -33 -46.5 -59t-56.5 -40t-56 -21t-52 -7q-8 0 -16.5 1t-15.5 2.5t-17 5.5t-16 6t-17 8t-15.5 8.5t-16.5 9.5t-15 9t-16 10.5t-15 9.5q-101 62 -141 63q-71 0 -135 -58t-94 -143z" />
    <glyph glyph-name="uni00A0" unicode="&#xa0;" horiz-adv-x="512" 
 />
    <glyph glyph-name="exclamdown" unicode="&#xa1;" horiz-adv-x="581" 
d="M351 -585q-42 0 -73 31l-116 116q-41 41 -41 119q0 76 22.5 203.5t30.5 191.5q12 96 19.5 183t9.5 134t4 56q4 41 29 40q14 0 20 -7q6 -6 8 -19l116 -116q0 -2 10.5 -146.5t20.5 -240.5q7 -71 29 -193t22 -202q0 -52 -19 -87.5t-43 -49t-49 -13.5zM350 789v-9l116 -116
q-14 -41 -39.5 -66.5t-71.5 -43.5l-115 116h-9l116 -116q-45 16 -71 42l-115 116q-26 26 -40 68v8q29 90 110 111h9q48 -11 72 -35l116 -116q13 -13 45.5 -49.5t68.5 -81.5t40 -60l-116 116zM330 785q-13 47 -31 65t-62 29h-3q-38 -10 -58 -30t-35 -65q13 -37 33.5 -58
t60.5 -36q40 17 61 37.5t34 57.5zM236 -449q33 0 61.5 31t28.5 99q0 77 -22 198t-29 195q-6 55 -11.5 121.5t-9 115.5t-6.5 93t-4 56q-6 9 -8 9t-3 -0.5t-3 -6t-3 -15.5v-1q-1 -7 -3.5 -54t-10 -134t-19.5 -185q-8 -69 -22 -146t-22.5 -133.5t-8.5 -112.5q0 -66 29 -98
t66 -32z" />
    <glyph glyph-name="cent" unicode="&#xa2;" horiz-adv-x="1138" 
d="M523 1344h79l116 -116v-105q97 -16 160 -49l4 -6l116 -116l-48 -172l-27 -2l-116 116q-5 9 -11 18q-38 20 -78 21v-619q58 20 116 72h9l39 -44l116 -116q-57 -73 -125.5 -108.5t-154.5 -39.5v-222h-79l-116 116v136q-70 29 -123 82l-115 115q-131 131 -131 365
q0 180 108.5 303.5t260.5 152.5v218zM508 321q8 -4 15 -7v509q-69 -102 -69 -258q0 -145 54 -244zM544 284l-28 11q-91 36 -144.5 137t-53.5 249q0 141 54.5 240t143.5 133l28 11v-781zM544 1324v-215l-17 -4q-146 -27 -249.5 -144.5t-103.5 -290.5q0 -130 43.5 -229
t122.5 -156.5t185 -68.5l19 -2v-221h38v220l19 1q153 8 254 127l-18 20q-99 -84 -227 -84h-8l-20 1v792l21 -1q122 -3 215 -154l41 146q-109 51 -257 51h-20v212h-38z" />
    <glyph glyph-name="sterling" unicode="&#xa3;" horiz-adv-x="1138" 
d="M916 1072q-27 14 -61 15q-92 0 -173.5 -92.5t-81.5 -208.5v-40h158q9 0 13 -3q3 -3 3 -10l116 -116v-49q0 -13 -16.5 -20.5t-36.5 -7.5h-237q-2 -228 -87 -366q30 -11 66 -32t68.5 -33t75.5 -12q157 0 228 96l40 -23l115 -116q-41 -88 -121 -140.5t-185 -52.5
q-66 0 -118 20.5t-81 44.5t-79.5 44.5t-115.5 20.5q-93 0 -93 -53q0 -37 -24.5 -57t-63.5 -20q-34 0 -53 20l-116 115q-17 17 -16 41q0 49 111 109q142 104 154 394h-22l-115 116q-9 0 -12 2.5t-3 11.5v30q0 17 13.5 31.5t40.5 14.5h100v45q0 137 31.5 215t117.5 164
q156 156 388 156q60 0 93 -19l3 -7l115 -116q-28 -48 -58 -167l-23 -3zM463 902q0 124 87.5 222.5t189.5 98.5q79 0 126 -68q24 91 48 140q-32 10 -70 10q-224 0 -374 -150q-84 -84 -113.5 -157t-29.5 -207v-65h-120q-33 0 -33 -26v-24h153v-57q0 -175 -34 -297t-130 -192
l-1 -1q-102 -55 -102 -92q0 -17 13 -28.5t36 -11.5q68 0 68 56q0 20 11 36t37 27t66 11q69 0 122.5 -20t82.5 -44.5t78 -45t110 -20.5q94 0 166 44t114 121l-8 4q-79 -90 -233 -89q-53 0 -95 16t-68.5 35t-84.5 35t-140 16h-64l38 36q152 142 154 441v20h258q24 0 33 9v41
h-291v176z" />
    <glyph glyph-name="currency" unicode="&#xa4;" horiz-adv-x="1138" 
d="M625 147q-140 0 -251 84l-100 -124l-116 116l-95 93l125 100q-91 108 -90 254q0 141 79 242l-110 109l86 93l114 -114q109 77 242 77q143 0 254 -86l107 128l91 -96l115 -116l-128 -102q88 -106 89 -251q0 -131 -78 -238l113 -113l-84 -89l-114 114q-111 -81 -249 -81z
M737 837q-51 26 -107 26q-120 0 -198.5 -90t-78.5 -217q0 -93 40 -169q53 -27 116 -27q119 0 194.5 91t75.5 219q0 91 -42 167zM509 283q135 0 244 82l15 11l104 -116l54 57l-119 101l12 15q82 105 82 237q0 138 -84 238l-14 16l127 101l-59 63l-105 -126l-16 12
q-105 82 -241 82q-130 0 -236 -77l-15 -11l-105 116l-56 -61l121 -94l-14 -17q-86 -99 -86 -242q0 -138 86 -240l14 -17l-124 -98l62 -61l99 121l15 -12q106 -80 239 -80zM217 672q0 134 84 231t213 97q78 0 143.5 -44t104 -120t38.5 -166q0 -135 -81 -232.5t-210 -97.5
q-130 0 -211 97t-81 235z" />
    <glyph glyph-name="yen" unicode="&#xa5;" horiz-adv-x="1138" 
d="M109 532q-8 0 -9.5 2.5t-1.5 12.5v32q0 17 12 31.5t39 14.5h233q-39 72 -119.5 229t-151 293t-102.5 190q35 -7 119 -7q81 0 116 7l116 -116q114 -294 204 -473q29 50 56 103t55.5 118.5t47.5 110t53.5 130.5t51.5 127q23 -7 86 -7q60 0 86 7l116 -116
q-173 -302 -326 -596h124q8 0 13 -4q4 -4 3 -9l116 -116v-49q0 -14 -16.5 -22t-36.5 -8h-281q0 -5 0.5 -15.5t0.5 -15.5h201q8 0 13 -4q4 -4 3 -10l116 -116v-46q0 -14 -16.5 -22.5t-36.5 -8.5h-277q5 -220 12 -302q-33 7 -108 7q-72 0 -104 -7l-116 116q6 61 10 186h-185
l-116 116q-8 0 -9.5 2t-1.5 12v31q0 17 12 31.5t39 14.5h107l-31 31zM118 553h316v-21v-146l-1 -20h-284q-31 0 -31 -26v-24h315v-21q-3 -187 -10 -278q29 3 82 3q54 0 85 -3q-5 92 -10 278v21h297q27 0 33 10v40h-332v20q-1 49 -2 146v21h301q27 0 33 10v42h-329l15 30
q200 386 365 676q-18 -1 -47 -1q-50 0 -74 3q-10 -25 -53 -131.5t-58.5 -142t-49.5 -111.5t-63 -130t-63 -107l-18 -29l-17 30q-143 249 -287 622q-35 -5 -103 -4q-53 0 -81 2q45 -82 178 -341.5t175 -335.5l16 -30h-267q-31 0 -31 -26v-26z" />
    <glyph glyph-name="brokenbar" unicode="&#xa6;" horiz-adv-x="534" 
d="M264 1380l116 -115v-742h-98l-116 116v741h98zM264 330l116 -116v-741l-98 -1l-116 116v742h98zM244 309h-58v-700h58v700zM244 1360h-58v-701h58v701z" />
    <glyph glyph-name="section" unicode="&#xa7;" horiz-adv-x="1103" 
d="M418 677q-83 -82 -83 -168q0 -66 35 -124q48 -34 230 -127q48 -25 87 -55q83 82 83 168q0 66 -35 123q-49 34 -230 127q-48 26 -87 56zM256 834q-90 95 -90 223q0 109 94 200t240 91q66 0 128 -27t85.5 -45.5t70.5 -56.5l7 -11l115 -116l-34 -149l-29 -4l-116 116
q-25 43 -45 73q-41 22 -85 22q-73 0 -123.5 -47.5t-50.5 -120.5q0 -38 13 -71q17 -9 35 -16q199 -81 300 -182l116 -115q116 -116 116 -265q0 -173 -154 -288q90 -95 90 -222q0 -69 -39.5 -135t-118 -111t-176.5 -45q-40 0 -80 10.5t-63.5 20t-59 34t-43 31.5t-38.5 33
l-116 116l-6 10l34 150l29 4l116 -116q25 -43 45 -73q41 -22 85 -22q74 0 124 47t50 121q0 38 -13 70q-16 8 -35 17q-199 81 -300 181l-116 116q-116 116 -116 265q0 172 154 287zM271 848l16 -16l-19 -14q-146 -108 -145 -271q0 -68 27 -129t66 -104t97 -83t106 -64
t107 -48q177 -73 176 -221q0 -82 -56 -135.5t-138 -53.5t-141 56.5t-116 154.5l-31 -130q43 -37 68 -55.5t83 -42.5t118 -24q137 0 225.5 85t88.5 186q0 119 -85 208l-16 17l19 14q146 108 145 271q0 68 -26.5 128.5t-66 104t-97.5 83t-106 63.5t-107 48q-177 73 -176 222
q0 82 56.5 135t137.5 53q82 0 141 -56.5t117 -153.5l30 129q-33 28 -49.5 41t-54 36.5t-78.5 34t-87 10.5q-137 0 -225.5 -85t-88.5 -185q0 -120 85 -209zM288 807l12 13l15 -11q38 -29 84 -54q11 -6 58.5 -29.5t67 -34t63 -36t64.5 -43t53 -47.5t47 -57t27 -63t12 -74
q0 -95 -90 -183l-12 -12l-14 11q-38 29 -84 53q-15 7 -47.5 23.5t-52 26t-51.5 27.5t-53 31.5t-48.5 34t-45.5 38.5t-37.5 42.5t-31 48.5t-18.5 53t-7 60q0 94 89 182z" />
    <glyph glyph-name="dieresis" unicode="&#xa8;" horiz-adv-x="890" 
d="M102 1176q0 41 29 69.5t68 28.5t67 -28l116 -116q29 -29 29 -70q0 -40 -28.5 -68.5t-68 -28.5t-68.5 29l-115 115q-29 29 -29 69zM449 1176q0 41 28.5 69.5t67.5 28.5t67 -28l116 -116q29 -29 29 -70q0 -40 -28 -68.5t-68 -28.5t-68 29l-116 115q-28 29 -28 69zM469 1176
q0 -15 6 -29.5t16 -24.5t24 -16t30 -6q31 0 53.5 22t22.5 54q0 33 -23 55t-53.5 22t-53 -22t-22.5 -55zM123 1176q0 -31 22 -53.5t53.5 -22.5t53.5 22t22 54q0 33 -22.5 55t-53 22t-53 -22t-22.5 -55z" />
    <glyph glyph-name="copyright" unicode="&#xa9;" horiz-adv-x="1411" 
d="M899 442l116 -115q-35 -54 -99 -93t-143 -39q-136 0 -230 94l-116 116q-89 89 -89 211q0 131 94 225.5t230 94.5q82 0 133 -15.5t69 -15.5l116 -116l29 -159l-41 -9l-116 116q-5 14 -10 26q-31 10 -73 10q-76 0 -132 -58t-56 -194q0 -79 25 -139q32 -11 70 -11
q115 0 184 102zM764.5 -69q-239.5 0 -408.5 170l-116 116q-170 170 -170 409.5t170 408.5t409.5 169t408.5 -169l116 -116q169 -169 169 -408.5t-169.5 -409.5t-409 -170zM765 1025q-141 0 -260 -68.5t-187.5 -187t-68.5 -258.5q0 -166 97 -301q135 -98 303 -97
q213 0 363.5 150.5t150.5 363.5q0 167 -97 301q-134 97 -301 97zM649 1161q221 0 378 -156.5t157 -377.5t-157 -378t-378 -157q-223 0 -379.5 157t-156.5 378q0 222 156.5 378t379.5 156zM649.5 68q231.5 0 394 163.5t162.5 395t-162.5 394.5t-394 163t-395.5 -163
t-164 -394q0 -229 164 -394t395.5 -165zM871 438l-7 6q-75 -94 -188 -94q-111 0 -171.5 82t-60.5 205q0 143 62.5 207.5t146.5 64.5t133 -37.5t79 -110.5l4 1l-22 124q-8 1 -59 15t-126 14q-125 0 -214.5 -89t-89.5 -210q0 -115 86 -199.5t213 -84.5q67 0 123 30.5t91 75.5z
" />
    <glyph glyph-name="ordfeminine" unicode="&#xaa;" horiz-adv-x="722" 
d="M487 842q0 -26 9 -35q5 -5 12 -4.5t15 3.5zM284 804q36 10 81 44q16 13 16 32q-80 -26 -97 -76zM385 1131q-60 0 -113 -75l107 25q8 4 8 15q0 18 -2 35zM210 1039l-95 96l-23 90l4 4q94 76 187 76q104 0 156 -53l116 -116q52 -52 52 -154q0 -4 56 -177.5t56 -194.5
l-47 47q-40 -39 -87 -40q-35 0 -56 21l-43 44q-46 -38 -77.5 -51.5t-79.5 -13.5q-83 0 -125 42l-116 116q-35 35 -35 95q0 54 41.5 98t115.5 71zM391 797l-2 10h-8zM467 842q0 22 2 137t2 119q0 186 -188 186q-86 0 -168 -66l13 -51q67 100 142 101q137 0 138 -172
q0 -23 -20 -33l-2 -1l-117 -27q-62 -15 -106.5 -40.5t-66.5 -57t-22 -67.5q0 -117 139 -116q25 0 42 2.5t35 10.5t34.5 20.5t43.5 35.5l5 4h35l2 -18q6 -55 59 -55q44 0 85 47q-25 -18 -46 -19q-41 1 -41 60zM409 1060l-8 -180q0 -29 -24 -48q-70 -54 -125 -54q-49 0 -80 29
t-31 67q0 107 136 147z" />
    <glyph glyph-name="guillemotleft" unicode="&#xab;" horiz-adv-x="1226" 
d="M435 324q122 -138 260 -348q-4 -15 -18 -26t-31 -13l-116 116q-67 73 -123 130q-67 64 -140 129l-115 116v25q170 150 378 374q21 -2 37 -18q10 -10 13 -21l115 -115q-61 -92 -113 -164q136 124 317 318q21 -2 37 -18q10 -10 12 -21l116 -115q-138 -210 -260 -349
q122 -138 260 -348q-2 -10 -10 -18.5t-18 -13.5t-21 -7l-116 116q-67 73 -123 130q-67 64 -140 129l-115 115q-42 -53 -86 -103zM673 427l-12 13l12 14q118 134 252 337q-7 10 -19 14q-201 -216 -365 -362v-6q164 -146 365 -361q12 5 19 14q-134 203 -252 337zM304 427
l-12 13l12 14q118 134 252 337q-7 10 -19 14q-201 -216 -365 -362v-6q164 -146 365 -361q12 5 19 14q-134 203 -252 337z" />
    <glyph glyph-name="logicalnot" unicode="&#xac;" horiz-adv-x="1261" 
d="M989 615h-824l-116 116v90h1051l116 -116v-548l5 -116l-116 116l-116 115v343zM1010 293h69v508h-1009v-49h919h2h19v-459z" />
    <glyph glyph-name="uni00AD" unicode="&#xad;" horiz-adv-x="796" 
d="M677 367h-463q-12 0 -20 9l-116 116q-10 10 -10 26q0 25 16 50.5t35 25.5h469q11 0 18 -7q10 -10 10 -30l116 -116q0 -19 -18 -46.5t-37 -27.5zM561 504q6 0 20.5 21.5t14.5 31.5q0 16 -8 16h-469q-2 0 -9.5 -8t-14.5 -21.5t-7 -25.5q0 -14 10 -14h463z" />
    <glyph glyph-name="registered" unicode="&#xae;" horiz-adv-x="1411" 
d="M999 642q0 -57 -34 -96t-85 -56l56 -96q7 0 14 1l96 -95q118 142 117 327q0 167 -97 301q-134 97 -301 97q-183 0 -324 -114h245q102 0 155 -52l116 -116q42 -42 42 -101zM764.5 -69q-239.5 0 -408.5 170l-116 116q-170 170 -170 409.5t170 408.5t409.5 169t408.5 -169
l116 -116q169 -169 169 -408.5t-169.5 -409.5t-409 -170zM703 309q2 -8 5 -13l65 -66q-84 4 -121 4l-125 -4l-115 116l-4 4v35q0 8 20 10l35 4q27 4 26 43v369q0 24 -13 38q-13 13 -34 13h-22q-11 0 -14 4q-2 2 -3 6v7q-154 -151 -154 -368q0 -166 97 -301q135 -98 303 -97
q186 0 329 119q-46 6 -77 37l-116 116q-14 14 -25 33l-33 55q-16 1 -25 1v-131l75 -76v-33zM899 402l-37 36q7 -13 16.5 -21.5t20.5 -14.5zM702 644q64 17 68 102q-68 -4 -68 -51v-51zM649 1161q221 0 378 -156.5t157 -377.5t-157 -378t-378 -157q-223 0 -379.5 157
t-156.5 378q0 222 156.5 378t379.5 156zM649.5 68q231.5 0 394 163.5t162.5 395t-162.5 394.5t-394 163t-395.5 -163t-164 -394q0 -229 164 -394t395.5 -165zM791 758q0 -139 -140 -140h-86v193q0 72 103 72q123 0 123 -125zM862 758q0 51 -40 92t-136 41h-262v-8h18
q28 0 48 -19.5t20 -52.5v-369q0 -58 -45 -63l-35 -4h-2v-8q74 3 109 4q32 0 104 -4v7q-2 0 -5 1l-29 4q-42 6 -42 63v168h21q71 0 88 -12l3 -2l100 -168q36 -62 108 -61q25 0 48 6q-57 0 -88 55l-112 190l25 8q46 15 75 49t29 83z" />
    <glyph glyph-name="macron" unicode="&#xaf;" horiz-adv-x="927" 
d="M761 968h-500q-10 0 -16 6l-116 116q-8 8 -8 24q0 20 13 40t32 20h500q13 0 20 -8l116 -116q8 -8 8 -21q0 -20 -15 -40.5t-34 -20.5zM645 1104q8 0 18.5 14.5t10.5 26.5q0 8 -8 8h-500q-6 0 -15.5 -13.5t-9.5 -25.5q0 -8 3 -10h1h500z" />
    <glyph glyph-name="degree" unicode="&#xb0;" horiz-adv-x="661" 
d="M70 1075q0 86 60 145.5t144.5 59.5t143.5 -59l115 -116q60 -60 60 -146q0 -84 -59 -143t-144 -59q-86 0 -145 60l-116 116q-59 59 -59 142zM255 931q9 -1 19 -1q60 0 98 43.5t38 99.5q0 16 -4 33q-8 1 -16 1q-63 0 -100 -45t-37 -105q0 -13 2 -26zM90 1075
q0 -76 54.5 -129t130 -53t129 53t53.5 129q0 78 -53.5 131.5t-129 53.5t-130 -53.5t-54.5 -131.5zM430 1073q0 -63 -43 -113.5t-113 -50.5q-71 0 -114 50t-43 114q0 66 42.5 118t114.5 52q74 0 115 -53t41 -117z" />
    <glyph glyph-name="plusminus" unicode="&#xb1;" horiz-adv-x="1193" 
d="M944 139l116 -116v-100h-809l-116 116v100h457l-105 105v240h-236l-116 116v100h352v357h105l116 -116l59 -241h177l116 -115v-101h-240l4 -15l-16 15h-100v-345h236zM924 119h-768v-60h768v60zM571 680v356h-63v-356h-352v-59h352v-357h63v357h353v59h-353z" />
    <glyph glyph-name="two.superior" unicode="&#xb2;" horiz-adv-x="751" 
d="M261 1144h-26l-116 116l-23 86l4 4q68 62 191 61q104 0 166 -43q14 -10 25 -21l116 -116q42 -42 42 -108q0 -84 -106 -184l-82 -80q35 2 76 5l116 -116q-6 -29 -6 -71q0 -23 6 -51q-111 4 -188 4q-54 0 -260 -4l-116 115l-2 4q0 70 149 224l82 80q66 68 68 185
q-71 -10 -116 -90zM134 1281q57 91 149 91q42 0 76 -37q39 -38 38 -94q0 -131 -73 -207l-82 -80q-124 -127 -141 -192q187 4 239 4q68 0 164 -3q-2 17 -2 30q0 27 2 49q-124 -8 -178 -8h-109v20q0 20 18 43.5t60 65.5l109 106q100 94 100 170q0 73 -59 112q-56 39 -154 40
q-109 0 -172 -52z" />
    <glyph glyph-name="three.superior" unicode="&#xb3;" horiz-adv-x="755" 
d="M350 817q45 37 45 121v11h-5q-29 0 -41 -2l-116 116v51q138 6 149 120q-28 -6 -45 -21q-25 -19 -53 -71h-27l-116 115l-22 86l2 7q70 59 192 59q84 0 138 -31q14 -9 24 -19l116 -116q34 -34 35 -89q0 -106 -82 -149l73 -73q41 -41 42 -106q0 -106 -86 -162
q-72 -47 -183 -47q-106 0 -176 62l-116 116l-4 4l25 86l24 2l92 -92q18 -4 41 -4q43 -1 74 26zM386 1099l-5 5v-4q3 -1 5 -1zM363 801q-36 -31 -87 -31q-63 0 -97 30q-17 15 -45 63l-17 -58q63 -52 157 -51q104 0 171 43q77 49 77 145q0 62 -44 99q-38 33 -99 38l-19 2v39
l16 4q114 29 113 146q0 60 -49 91q-48 28 -127 28q-109 0 -172 -49l16 -61q27 46 51 66q36 29 97 29q40 0 71 -36v0q27 -35 27 -85q0 -143 -149 -158v-10h20q68 0 105 -38.5t37 -108.5q-1 -94 -53 -137z" />
    <glyph glyph-name="acute" unicode="&#xb4;" horiz-adv-x="813" 
d="M358 1440q12 4 29 4q63 0 113 -47l116 -116l6 -23l-236 -223q-39 -39 -61 -39q-12 0 -21 9l-116 116q-8 8 -8 18q0 20 24 57zM371 1422l-150 -237q-20 -32 -20 -46q0 -6 8 -6q14 0 47 33l227 215l-2 5q-44 38 -94 37q-7 1 -16 -1z" />
    <glyph glyph-name="uni00B5" unicode="&#xb5;" horiz-adv-x="1110" 
d="M323 -595q-33 0 -70 37l-116 116q-41 41 -41 96q0 49 16.5 155.5t16.5 174.5q0 27 -9 126t-9 164v385l-21 220q27 0 89.5 9t78.5 11l116 -116q6 -131 6 -196v-402q0 -67 11 -113q7 -1 15 0q79 0 150.5 38.5t107.5 92.5v676q29 0 86 9t67 11l116 -116v-638q4 8 7 17
l49 -23l116 -116q-32 -84 -71.5 -121.5t-114.5 -37.5q-57 0 -98 40l-72 72q-117 -112 -267 -112q-70 0 -112 42l-5 5q-9 0 -16.5 -5.5t-7.5 -13.5q0 -72 33 -199t33 -165q0 -41 -11.5 -69t-30 -41t-42.5 -13zM207 -459q63 0 63 103q0 33 -32.5 159.5t-32.5 204.5
q0 19 14.5 29t30.5 10h9l6 -7q9 -10 25 -19.5t36.5 -15t40.5 -5.5q158 0 281 137l36 39v-53q0 -52 34.5 -87.5t84.5 -35.5q64 0 97.5 29t62.5 100l-12 5q-36 -79 -81 -79q-35 0 -52 25.5t-19 55.5t-2 99v19v622q-100 -16 -113 -17v-662l-3 -6q-39 -58 -115 -99t-160 -41
q-162 0 -162 250v401q0 54 -5 174q-13 -2 -39.5 -6t-47.5 -7t-39 -4q18 -149 18 -200v-385q0 -63 9.5 -162.5t9.5 -127.5q0 -70 -16.5 -177.5t-16.5 -152.5q0 -47 33.5 -80t56.5 -33z" />
    <glyph glyph-name="paragraph" unicode="&#xb6;" horiz-adv-x="1347" 
d="M836 1321l202 6l2 -6l116 -116q-20 -136 -20 -409v-977q0 -264 20 -410l-116 116l-4 -6l116 -116q-133 6 -203 6l-200 -6l-116 116l-4 6q20 145 20 409v529q-209 11 -314 117l-116 116q-103 103 -102 289q0 135 100 237.5t289 102.5q88 0 201 -2t129 -2zM918 1133
q-50 -15 -51 -73v-1464q50 12 51 74v1463zM836 1300q-16 0 -129 2.5t-201 2.5q-180 0 -274.5 -96.5t-94.5 -223.5q0 -387 447 -387q35 0 61 6l25 5v-675q0 -250 -19 -394q121 5 183 5q60 0 184 -5q-18 145 -19 394v977q0 259 19 395q-121 -6 -182 -6zM731 1176
q0 49 28.5 73.5t74.5 24.5q104 0 104 -98v-1506q0 -98 -104 -98q-44 0 -73.5 25t-29.5 73v1506z" />
    <glyph glyph-name="periodcentered" unicode="&#xb7;" horiz-adv-x="626" 
d="M372 302q-47 0 -78 31l-116 116q-32 32 -33 79q0 43 33 77t78 34q44 0 78 -34l116 -116q33 -33 32 -76q0 -45 -31.5 -78t-78.5 -33zM256 438q39 0 64.5 27t25.5 63.5t-27.5 63t-62.5 26.5t-62.5 -27.5t-27.5 -62.5q0 -37 24.5 -63.5t65.5 -26.5z" />
    <glyph glyph-name="cedilla" unicode="&#xb8;" horiz-adv-x="1222" 
d="M765 -160l14 -12l116 -116q34 -34 34 -86q0 -66 -62.5 -108.5t-156.5 -42.5q-72 0 -152 34l-116 116q0 33 21 53q77 -29 119 -28q60 0 87 32q-12 -3 -27 -7l-116 116l-12 12l82 197h70l115 -116zM618 -176q43 0 66 -26t23 -66q0 -49 -36 -76t-89 -27q-44 0 -113 25
q-4 -7 -5 -16q64 -27 130 -27q88 0 143.5 38t55.5 93q0 47 -35 76.5t-90 29.5q-26 0 -49 -5l-37 -9l54 146h-26l-68 -163q29 7 76 7z" />
    <glyph glyph-name="one.superior" unicode="&#xb9;" horiz-adv-x="901" 
d="M614 834q0 -119 14 -204l-116 115l-2 -4l116 -115q-37 4 -78 4q-38 0 -74 -4l-116 115v4q12 74 13 205v217q-12 -1 -24 -3l-116 116l-2 47q66 16 275 82q3 0 4.5 -1.5t1.5 -4.5l116 -116q-12 -84 -12 -176v-277zM365 1272q-2 7 -6 10.5t-9 3.5zM477 950v277q0 81 9 155
q-168 -53 -235 -71v-8q43 4 99 4q19 0 28.5 -16.5t11 -32t1.5 -41.5v-267q0 -114 -9 -186q25 2 50 2q28 0 56 -2q-11 81 -11 186z" />
    <glyph glyph-name="ordmasculine" unicode="&#xba;" horiz-adv-x="829" 
d="M80 879q0 131 75.5 205.5t206.5 74.5q130 0 203 -72l116 -116q72 -72 72 -196q0 -113 -74 -191.5t-211 -78.5q-119 0 -199 79l-116 116q-73 74 -73 179zM466 992q-73 0 -112 -60t-39 -149q0 -52 17 -100q20 -5 43 -5q55 0 100 41t45 139q0 75 -19 130q-17 4 -35 4z
M350 1128q88 0 139.5 -71.5t51.5 -198.5q0 -106 -52.5 -153.5t-113.5 -47.5q-96 0 -146.5 75t-50.5 167q0 94 44 161.5t128 67.5zM100 879q0 -100 73 -169t179 -69q129 0 196.5 72.5t67.5 177.5q0 109 -61 178.5t-193 69.5q-125 0 -193.5 -68.5t-68.5 -191.5z" />
    <glyph glyph-name="guillemotright" unicode="&#xbb;" horiz-adv-x="1226" 
d="M793 440q-121 137 -261 348q8 35 50 39q102 -110 182 -190q95 -95 197 -184v-25l115 -116q-170 -150 -378 -375l-116 116q-21 2 -37 18q-10 10 -13 21q60 92 114 164q-136 -125 -317 -319l-116 116q-21 2 -37 18q-10 10 -12 21q139 211 260 348q-122 138 -260 349
q4 15 18 25.5t31 12.5q103 -110 182 -190q95 -95 197 -184v-25l104 -104q47 60 97 116zM439 454l12 -14l-12 -13q-118 -134 -252 -337q7 -9 19 -14q201 216 365 361v6q-164 146 -365 362q-12 -5 -19 -14q134 -203 252 -337zM808 454l12 -14l-12 -13q-118 -134 -252 -337
q7 -9 19 -14q201 216 365 361v6q-164 146 -365 362q-12 -5 -19 -14q134 -203 252 -337z" />
    <glyph glyph-name="onequarter" unicode="&#xbc;" horiz-adv-x="1466" 
d="M1141 1231l84 -17l116 -115l-938 -1342l-86 17l-116 115zM929 -99q-49 0 -59 9l-116 116q-2 2 -2 5q0 35 12 51q125 167 280 428v4q12 -4 54 -4q39 0 73 4l3 -4l115 -116q-10 -83 -10 -162v-190l92 -92q0 -10 -8 -29q-12 -20 -22 -20h-62q0 -79 10 -160l-115 116l-3 -4
l116 -116q-36 4 -73 4q-40 0 -76 -4l-116 116v4q3 21 5 40l-4 4h-94zM607 734q0 -119 15 -205l-116 116l-2 -4l116 -116q-37 4 -78 4q-38 0 -74 -4l-116 116v4q12 74 13 205v216q-13 -1 -24 -2l-116 116l-2 47q66 16 275 82q3 0 4.5 -1.5t1.5 -4.5l116 -116
q-12 -84 -13 -176v-277zM359 1171q-3 7 -6.5 11t-8.5 4zM471 850v276q0 81 9 156q-169 -53 -236 -71l1 -9q43 4 99 4q41 0 41 -90v-266q0 -114 -9 -186q25 2 50 2q28 0 56 -2q-11 81 -11 186zM798 68l257 404v-404h-257zM813 37h242v-21q0 -60 -10 -141q26 2 53 2t53 -2
q-8 72 -8 141v21h79q3 3 7 9q6 14 6 20v2h-92v280q0 70 8 143q-27 -2 -53 -2q-24 0 -41 2q-154 -256 -277 -421q-6 -8 -8 -30q14 -3 41 -3zM1150 1208l-914 -1304l42 -8l912 1304z" />
    <glyph glyph-name="onehalf" unicode="&#xbd;" horiz-adv-x="1466" 
d="M1090 1231l86 -17l115 -115l-940 -1342l-84 17l-115 115l446 638q-25 2 -52 2q-39 0 -74 -4l-116 116v4q12 74 13 205v216l-24 -2l-116 116l-2 47q66 16 275 82q3 0 4.5 -1.5t1.5 -4.5l116 -116q-12 -84 -13 -176v-277q0 -98 10 -173zM994 236h-26l-116 116l-23 86l5 4
q68 61 190 62q104 0 166 -43q14 -10 25 -21l116 -116q42 -42 42 -108q0 -84 -106 -184l-81 -80q30 2 76 5l115 -116q-6 -29 -6 -72q0 -23 6 -51q-111 4 -188 4q-54 0 -260 -4l-116 116l-2 4q0 70 150 223l81 80q66 68 68 186q-71 -11 -116 -91zM363 1171q-3 7 -6.5 11
t-8.5 4zM607 541l3 4l-100 100l-2 -4zM475 850v276q0 81 9 156q-169 -53 -235 -71v-9q43 4 99 4q41 0 41 -90v-266q0 -114 -9 -186q25 2 50 2q29 0 56 -2q-11 81 -11 186zM867 374q57 91 149 91q42 0 76 -37q38 -38 39 -94q0 -131 -74 -207l-82 -80q-124 -127 -141 -192
q187 4 239 4q70 0 164 -4q-2 16 -2 30q0 27 2 50q-124 -9 -178 -9h-109v21q0 20 18 43.5t60 64.5l109 107q100 94 100 170q0 73 -59 112q-56 39 -154 39q-110 0 -172 -51zM1099 1208l-913 -1305l40 -7l915 1304z" />
    <glyph glyph-name="threequarters" unicode="&#xbe;" horiz-adv-x="1466" 
d="M1151 1231l84 -17l116 -115l-938 -1342l-86 17l-116 115zM346 713q45 37 45 121v11h-5q-29 0 -41 -2l-116 115v52q138 6 149 120q-28 -6 -45 -21q-25 -18 -53 -72h-27l-116 116l-22 86l2 6q70 59 192 60q84 0 137 -31q14 -9 25 -20l116 -116q34 -35 35 -89
q0 -106 -82 -148l73 -74q41 -41 41 -105q0 -107 -86 -162q-72 -47 -182 -47q-106 0 -176 61l-116 116l-4 4l25 86l24 2l92 -92q18 -4 41 -4q43 0 74 27zM937 -95q-49 0 -59 9l-116 116q-2 2 -2 5q0 35 12 51q125 168 281 428v4q13 -4 53 -4q38 0 74 4l2 -4l116 -116
q-10 -83 -11 -162v-190l92 -92q0 -10 -8 -29q-12 -20 -22 -20h-62q0 -79 11 -160l-116 116l-2 -4l116 -116q-35 4 -74 4q-40 0 -76 -4l-116 116v4q3 21 5 40l-4 4h-94zM381 995l-4 4v-4h4zM807 72l256 404v-404h-256zM821 41h242v-21q0 -60 -10 -141q26 2 52.5 2t53.5 -2
q-8 72 -8 141v21h79q3 3 7 9q6 14 6 20v2h-92v280q0 70 8 144q-27 -2 -53 -2q-24 0 -41 1q-154 -256 -276 -421q-6 -8 -8 -30q12 -3 40 -3zM359 697q-36 -31 -87 -31q-63 0 -97 29q-17 15 -45 63l-17 -57q63 -52 157 -52q104 0 171 44q77 49 77 145q0 62 -44 99
q-38 33 -99 38l-19 2v38l16 4q114 29 113 146q0 60 -49 91q-48 28 -127 28q-109 0 -172 -49l16 -60q27 46 51 66q35 29 97 29q40 0 71 -36q27 -35 27 -85q0 -142 -149 -158v-10h20q68 0 105 -39t37 -108q-1 -94 -53 -137zM1160 1208l-914 -1304l42 -8l912 1304z" />
    <glyph glyph-name="questiondown" unicode="&#xbf;" horiz-adv-x="944" 
d="M432 -389q141 0 252 192l27 -2l115 -115l33 -138l-6 -8q-33 -27 -73.5 -52.5t-111 -50t-138.5 -24.5q-163 0 -255 92l-116 116q-83 83 -83 217q0 57 18.5 106.5t56 91t66 65.5t76.5 59q86 64 106 102q37 72 37 150v90q0 20 27 20q15 0 21 -6q5 -5 5 -14l116 -116v-94
q0 -43 -3 -74t-15 -77t-42 -91t-77 -88q-44 -40 -69 -72.5t-39.5 -72t-14.5 -86.5q0 -58 21 -108q32 -12 66 -12zM578 788v-8l115 -116q-14 -41 -39 -66.5t-71 -43.5l-116 116h-8l116 -116q-45 16 -71 42l-116 116q-26 26 -40 68v8q29 90 111 111h8q48 -11 73 -35l116 -116
q27 -27 87.5 -98t65.5 -93l-116 116zM557 785q-13 47 -31 65t-61 29h-4q-38 -10 -58 -30t-35 -65q13 -37 34 -58t61 -36q40 17 60.5 37.5t33.5 57.5zM432 -410q-97 0 -160 74.5t-63 181.5q0 74 31 129.5t98 117.5q45 41 74 83.5t40 86.5t14 72.5t3 72.5v93q-2 1 -6 1t-6 -1
v-89q0 -84 -39 -159q-23 -43 -113 -110q-47 -34 -75.5 -58t-63.5 -63t-52.5 -84.5t-17.5 -99.5q0 -133 85 -211t233 -78q161 0 307 120l-27 112q-115 -191 -262 -191z" />
    <glyph glyph-name="Agrave" unicode="&#xc0;" horiz-adv-x="1402" 
d="M524 1675l248 -172q10 -7 17 -14l116 -115q14 -14 14 -30q0 -12 -9.5 -21t-21.5 -9q-31 0 -88 24l-315 129l-116 116q63 61 155 92zM482 352q-59 -145 -102.5 -265t-67.5 -209q-25 6 -92 6q-47 0 -71 -6l-116 116q348 764 604 1354h57l116 -116q70 -167 197.5 -483.5
t223 -548t140.5 -322.5q-35 6 -123 6q-68 0 -102 -6l-116 116q-38 140 -117 359q-96 2 -166 2q-120 0 -265 -3zM571 562q29 -1 50 -1q87 0 213 3q-60 155 -127 316zM630 1061l-3 8h-4zM348 475l5 13h13q147 3 265 4q94 0 241 -4h13l5 -13q102 -273 155 -458q31 4 87.5 3.5
t88.5 -2.5q-49 104 -141.5 330.5t-211.5 521.5t-187 457h-31q-248 -573 -583 -1307q14 1 37 0q50 0 78 -3q47 165 166 458zM853 572l11 -28h-29q-127 -3 -214 -3q-33 0 -111.5 1.5t-103.5 2.5h-30l233 544h31l5 -12q113 -259 208 -505zM521 1652q-66 -24 -114 -62l285 -117
q54 -23 80 -23q10 0 10 10t-22 27z" />
    <glyph glyph-name="Aacute" unicode="&#xc1;" horiz-adv-x="1402" 
d="M752 1679q56 -26 92 -62q21 -21 35 -44l115 -116l-292 -118l108 -107q70 -167 197.5 -483.5t223 -548t140.5 -322.5q-35 6 -123 6q-68 0 -102 -6l-116 116q-38 140 -117 359q-96 2 -166 2q-119 0 -265 -3q-59 -145 -102.5 -265t-67.5 -209q-25 6 -92 6q-47 0 -71 -6
l-116 116q340 744 589 1320h-8q-13 0 -22 8l-116 116q-9 9 -9 22q0 23 31 43zM571 562q29 -1 50 -1q87 0 213 3q-60 155 -127 316zM630 1061l-3 8h-4zM348 475l5 13h13q147 3 265 4q94 0 241 -4h13l5 -13q102 -273 155 -458q31 4 87.5 3.5t88.5 -2.5q-49 104 -141.5 330.5
t-211.5 521.5t-187 457h-31q-248 -573 -583 -1307q14 1 37 0q50 0 78 -3q47 165 166 458zM853 572l11 -28h-29q-127 -3 -214 -3q-33 0 -111.5 1.5t-103.5 2.5h-30l233 544h31l5 -12q113 -259 208 -505zM754 1656l-245 -170q-22 -15 -22 -26q0 -10 11 -10q24 0 78 23l271 109
q-33 43 -93 74z" />
    <glyph glyph-name="Acircumflex" unicode="&#xc2;" horiz-adv-x="1402" 
d="M709 1649q29 -35 63 -69q63 -63 143 -124l116 -116l-32 -43q-126 58 -218 127q-60 -44 -118 -76h31l116 -116q70 -167 197.5 -483.5t223 -548t140.5 -322.5q-35 6 -123 6q-68 0 -102 -6l-116 116q-38 140 -117 359q-96 2 -166 2q-119 0 -265 -3q-59 -145 -102.5 -265
t-67.5 -209q-25 6 -92 6q-47 0 -71 -6l-116 116q344 754 596 1335q-31 -16 -67 -32l-116 116l-28 43q88 66 203 193h88zM571 562q29 -1 50 -1q87 0 213 3q-60 155 -127 316zM630 1061l-3 8h-4zM348 475l5 13h13q147 3 265 4q94 0 241 -4h13l5 -13q102 -273 155 -458
q31 4 87.5 3.5t88.5 -2.5q-49 104 -141.5 330.5t-211.5 521.5t-187 457h-31q-248 -573 -583 -1307q14 1 37 0q50 0 78 -3q47 165 166 458zM853 572l11 -28h-29q-127 -3 -214 -3q-33 0 -111.5 1.5t-103.5 2.5h-30l233 544h31l5 -12q113 -259 208 -505zM699 1628h-69
q-103 -112 -185 -176l9 -13q105 48 200 118l12 9l12 -10q84 -64 198 -117l11 13q-111 85 -188 176z" />
    <glyph glyph-name="Atilde" unicode="&#xc3;" horiz-adv-x="1402" 
d="M807 1524q35 0 58.5 22.5t43.5 83.5l49 -12l116 -116q-37 -184 -178 -184q-51 0 -131 53q-74 45 -111 45q-39 0 -61.5 -23t-38.5 -75l-49 10l-116 116q23 92 60.5 137t103 45t147.5 -57q60 -45 107 -45zM482 352q-59 -145 -102.5 -265t-67.5 -209q-25 6 -92 6
q-47 0 -71 -6l-116 116q348 764 604 1354h57l116 -116q70 -167 197.5 -483.5t223 -548t140.5 -322.5q-35 6 -123 6q-68 0 -102 -6l-116 116q-38 140 -117 359q-96 2 -166 2q-120 0 -265 -3zM571 562q29 -1 50 -1q87 0 213 3q-60 155 -127 316zM630 1061l-3 8h-4zM348 475
l5 13h13q147 3 265 4q94 0 241 -4h13l5 -13q102 -273 155 -458q31 4 87.5 3.5t88.5 -2.5q-49 104 -141.5 330.5t-211.5 521.5t-187 457h-31q-248 -573 -583 -1307q14 1 37 0q50 0 78 -3q47 165 166 458zM853 572l11 -28h-29q-127 -3 -214 -3q-33 0 -111.5 1.5t-103.5 2.5
h-30l233 544h31l5 -12q113 -259 208 -505zM807 1503q-53 0 -119 49q-76 53 -135 54q-53 0 -85 -34t-54 -112l11 -3q34 95 114 95q43 0 121 -48q75 -50 120 -50q117 0 154 149l-12 3q-38 -103 -115 -103z" />
    <glyph glyph-name="Adieresis" unicode="&#xc4;" horiz-adv-x="1402" 
d="M293 1452q0 39 27.5 65.5t66.5 26.5q38 0 65 -27l116 -116q27 -27 27 -65t-27 -65t-65 -27q-39 0 -67 28l-116 116q-27 27 -27 64zM856 1452q0 39 27.5 65.5t66.5 26.5q38 0 66 -27l115 -116q27 -27 27 -65t-26.5 -65t-65.5 -27t-67 28l-116 116q-27 27 -27 64zM482 352
q-59 -145 -102.5 -265t-67.5 -209q-25 6 -92 6q-47 0 -71 -6l-116 116q348 764 604 1354h57l116 -116q70 -167 197.5 -483.5t223 -548t140.5 -322.5q-35 6 -123 6q-68 0 -102 -6l-116 116q-38 140 -117 359q-96 2 -166 2q-120 0 -265 -3zM571 562q29 -1 50 -1q87 0 213 3
q-60 155 -127 316zM630 1061l-3 8h-4zM348 475l5 13h13q147 3 265 4q94 0 241 -4h13l5 -13q102 -273 155 -458q31 4 87.5 3.5t88.5 -2.5q-49 104 -141.5 330.5t-211.5 521.5t-187 457h-31q-248 -573 -583 -1307q14 1 37 0q50 0 78 -3q47 165 166 458zM853 572l11 -28h-29
q-127 -3 -214 -3q-33 0 -111.5 1.5t-103.5 2.5h-30l233 544h31l5 -12q113 -259 208 -505zM877 1452q0 -29 21.5 -50.5t52 -21.5t51 20.5t20.5 51.5t-20.5 51.5t-51 20.5t-52 -21.5t-21.5 -50.5zM313 1452q0 -29 21.5 -50.5t52.5 -21.5t51.5 20.5t20.5 51.5t-20.5 51.5
t-51.5 20.5t-52.5 -21.5t-21.5 -50.5z" />
    <glyph glyph-name="Aring" unicode="&#xc5;" horiz-adv-x="1402" 
d="M485 1462q0 35 15 66.5t39 54t57 36t68 13.5q76 0 129 -53l115 -116q49 -49 50 -117q0 -56 -36 -101t-92 -61q67 -160 192.5 -471.5t215.5 -529t133 -305.5q-35 6 -123 6q-68 0 -102 -6l-116 116q-38 140 -117 359q-96 2 -166 2q-119 0 -265 -3q-59 -145 -102.5 -265
t-67.5 -209q-25 6 -92 6q-47 0 -71 -6l-116 116q329 721 573 1281l-71 71q-50 49 -50 116zM677 1348q40 5 64 38t25 74q-27 -3 -47 -19t-31 -40.5t-11 -52.5zM571 562q29 -1 50 -1q87 0 213 3q-60 155 -127 316zM630 1061l-3 8h-4zM853 572l11 -28h-29q-127 -3 -214 -3
q-33 0 -111.5 1.5t-103.5 2.5h-30l233 544h31l5 -12q113 -259 208 -505zM506 1462q0 -50 33 -90t82 -53l23 -7l-9 -21q-243 -560 -568 -1271q14 1 37 0q50 0 78 -3q46 165 166 458l5 13h13q147 3 265 4q94 0 241 -4h13l5 -13q102 -273 155 -458q31 4 87.5 3.5t88.5 -2.5
q-48 102 -136.5 318.5t-206 507t-183.5 448.5l-8 21l22 6q49 14 80.5 54t31.5 89q0 62 -47 106t-110 44t-110.5 -44.5t-47.5 -105.5zM663.5 1597q55.5 0 89 -39.5t33.5 -95.5q0 -53 -33.5 -94t-89 -41t-89 41t-33.5 94q0 55 33.5 95t89 40z" />
    <glyph glyph-name="AE" unicode="&#xc6;" horiz-adv-x="1757" 
d="M570 455q-164 -340 -253 -577q-25 6 -93 6q-47 0 -71 -6l-116 116q52 99 127 247t134.5 265t132.5 255.5t153.5 281t165.5 279.5l4 5q35 -6 104 -6h436q74 0 123 6l4 -6l116 -116q-4 -56 -4 -63q0 -20 4 -54l-116 116l-4 -8l116 -116q-159 21 -375 21q-115 0 -148 -19
t-25 -81q30 -151 68 -318q166 2 370 19l7 -6l115 -116q-6 -28 -6 -57t6 -57l-115 116l-7 -7l116 -115q-171 17 -439 20q45 -192 89 -363l351 18l4 -8l116 -116q-4 -33 -4 -67q0 -2 4 -60l-116 116l-4 -6l116 -116q-50 6 -123 6h-281l-115 116h-3l115 -116h-109
q-68 0 -103 -6l-115 116q0 91 -69 463q-18 0 -41 1q-98 0 -242 -3zM674 664h12q48 0 127 1q-17 89 -37 193q-51 -94 -102 -194zM731 1087q0 1 -0.5 3t-0.5 3h-4zM834 669l4 -24h-24q-78 -1 -128 -2q-16 0 -185 4h-32l14 29q116 234 225 427l6 10h33l3 -16q50 -251 84 -428z
M436 579l6 12h12q144 3 242 3q67 0 136 -1l16 -1l3 -16q83 -440 90 -559q29 3 83 3h393q57 0 105 -4q-3 30 -2 43q0 23 2 55q-232 -14 -416 -20l-17 -1l-4 16q-57 210 -121 482l-6 26l26 -1q247 -3 422 -18q-3 22 -3 41.5t3 40.5q-218 -19 -442 -18l-16 -1l-4 16
q-54 233 -95 436v2q-7 53 15 81.5t80 36.5q35 5 98 5q190 0 357 -19q-2 22 -2 38q0 12 3 48q-48 -4 -106 -5h-436q-54 0 -95 5q-100 -162 -202 -346.5t-167.5 -311.5t-167.5 -328t-153 -299q13 1 36 0q52 0 79 -3q91 236 248 562z" />
    <glyph glyph-name="Ccedilla" unicode="&#xc7;" horiz-adv-x="1501" 
d="M898 -169q7 -5 14 -12l116 -115q34 -34 34 -86q0 -43 -28.5 -78t-78.5 -54.5t-112 -19.5q-72 0 -152 35l-116 116q0 33 21 53q77 -29 119 -28q60 0 87 32q-12 -3 -27 -7l-116 116l-12 12l39 94q-159 44 -272 157l-116 116q-94 94 -143 220.5t-49 262.5q0 295 203 499
t469 204q111 0 222.5 -22.5t167.5 -46.5l57 -24l4 -6l116 -116q-4 -17 -12.5 -50.5t-11 -44.5t-7 -34.5t-6.5 -45t-4 -52.5l-21 -2l-116 116q-12 24 -26 46q-109 69 -276 69q-53 0 -109.5 -18t-115 -62t-104 -107t-74.5 -162t-29 -218q0 -246 118 -414q103 -70 238 -70
q142 0 234 45t202 166l49 -39l116 -116q-101 -132 -220.5 -201t-259.5 -75zM752 -184q43 0 65.5 -26t22.5 -66q0 -49 -36 -76t-89 -27q-44 0 -113 25q-4 -7 -5 -16q65 -27 130 -27q88 0 143.5 38t55.5 93q0 47 -35 76.5t-90 29.5q-26 0 -49 -5l-37 -10l65 175h13
q259 10 452 253l-18 14q-71 -77 -134.5 -120t-136 -63.5t-167.5 -20.5q-121 0 -217.5 54t-155 143.5t-89 198t-30.5 225.5q0 122 30 224t77.5 167.5t108.5 111.5t120.5 65.5t116.5 19.5q294 0 420 -214q6 60 36 183q-202 86 -428 86q-258 0 -454.5 -197.5t-196.5 -484.5
q0 -118 38.5 -228.5t111 -201t188.5 -148.5t260 -66l29 -1l-79 -192q30 8 77 8z" />
    <glyph glyph-name="Egrave" unicode="&#xc8;" horiz-adv-x="1216" 
d="M502 1673l248 -172q10 -7 16 -14l116 -115q14 -14 14 -30q0 -12 -8 -20q45 2 75 5l4 -6l116 -116q-4 -56 -5 -78q0 -20 4 -53l-115 116l-4 -8l115 -116q-283 25 -557 24q-16 -56 -16 -294v-43q138 2 341 19l6 -6l116 -116q-6 -28 -6 -65.5t6 -65.5l-116 116l-6 -6
l116 -116q-202 20 -457 20v-239q0 -89 4 -178q107 2 226 8t183 10l65 5l4 -8l116 -116q-4 -32 -4 -67q0 -7 4 -64l-116 116l-4 -6l116 -116q-50 6 -123 6h-559l-107 -6l-115 116l-2 6q20 138 20 410v501q0 264 -20 410l4 6q35 -6 104 -6h517q-18 6 -41 15l-315 129l-116 116
q64 61 156 92zM499 1650q-66 -24 -115 -62l285 -117q54 -23 81 -23q10 0 10 10t-22 26zM369 410v260h20q236 0 440 -19q-3 25 -4 49q0 24 4 50q-219 -19 -440 -19h-20v180q0 242 17 301l4 15h16q250 0 538 -23q-2 22 -2 39t3 62q-48 -4 -105 -5h-539q-48 0 -86 4
q18 -143 18 -393l1 -501q0 -255 -18 -393q38 3 85 3h559q57 0 105 -4q-3 33 -2 47q0 24 2 54q-309 -23 -559 -23h-16l-4 15q-17 59 -17 301z" />
    <glyph glyph-name="Eacute" unicode="&#xc9;" horiz-adv-x="1216" 
d="M717 1679q56 -26 92 -62q21 -21 35 -44l116 -116l-295 -119q-27 -11 -46 -17h221q74 0 123 6l4 -6l116 -116q-4 -56 -5 -78q0 -20 4 -53l-115 116l-4 -8l115 -116q-283 25 -557 24q-16 -56 -16 -294v-43q138 2 341 19l6 -6l116 -116q-6 -28 -6 -65.5t6 -65.5l-116 116
l-6 -6l116 -116q-202 20 -457 20v-239q0 -89 4 -178q107 2 226 8t183 10l65 5l4 -8l116 -116q-4 -32 -4 -67q0 -7 4 -64l-116 116l-4 -6l116 -116q-50 6 -123 6h-559l-107 -6l-115 116l-2 6q20 138 20 410v501q0 264 -20 410l4 6q35 -6 104 -6h257l-1 1l-116 116q-9 9 -9 22
q0 22 31 43zM719 1656l-244 -170q-22 -15 -22 -26q0 -10 10 -10q24 0 78 23l272 109q-34 43 -94 74zM369 410v260h20q236 0 440 -19q-3 25 -4 49q0 24 4 50q-219 -19 -440 -19h-20v180q0 242 17 301l4 15h16q250 0 538 -23q-2 22 -2 39t3 62q-48 -4 -105 -5h-539
q-48 0 -86 4q18 -143 18 -393l1 -501q0 -255 -18 -393q38 3 85 3h559q57 0 105 -4q-3 33 -2 47q0 24 2 54q-309 -23 -559 -23h-16l-4 15q-17 59 -17 301z" />
    <glyph glyph-name="Ecircumflex" unicode="&#xca;" horiz-adv-x="1216" 
d="M649 1649q29 -35 63 -69q63 -63 144 -124l116 -116l-10 -13l5 -6l116 -116q-4 -56 -5 -78q0 -20 4 -53l-115 116l-4 -8l115 -116q-283 25 -557 24q-16 -56 -16 -294v-43q138 2 341 19l6 -6l116 -116q-6 -28 -6 -65.5t6 -65.5l-116 116l-6 -6l116 -116q-202 20 -457 20
v-239q0 -89 4 -178q107 2 226 8t183 10l65 5l4 -8l116 -116q-4 -32 -4 -67q0 -7 4 -64l-116 116l-4 -6l116 -116q-50 6 -123 6h-559l-107 -6l-115 116l-2 6q20 138 20 410v501q0 264 -20 410l4 6q35 -6 104 -6h178l-92 92l-29 43q88 66 203 193h88zM888 1322
q-93 47 -166 102q-83 -61 -169 -103h287q23 0 48 1zM369 410v260h20q236 0 440 -19q-3 25 -4 49q0 24 4 50q-219 -19 -440 -19h-20v180q0 242 17 301l4 15h16q250 0 538 -23q-2 22 -2 39t3 62q-48 -4 -105 -5h-539q-48 0 -86 4q18 -143 18 -393l1 -501q0 -255 -18 -393
q38 3 85 3h559q57 0 105 -4q-3 33 -2 47q0 24 2 54q-309 -23 -559 -23h-16l-4 15q-17 59 -17 301zM640 1628h-70q-103 -112 -184 -176l8 -13q105 48 200 118l12 9l13 -10q84 -64 198 -117l10 13q-110 85 -187 176z" />
    <glyph glyph-name="Edieresis" unicode="&#xcb;" horiz-adv-x="1216" 
d="M684 1538q0 40 29 69t69 29t69 -29l116 -116q29 -29 29 -69t-29 -69t-69 -29t-69 29l-116 116q-29 29 -29 69zM297 1538q0 40 29 69t69 29t69 -29l116 -116q29 -29 29 -69t-29 -69t-69 -29t-69 29l-116 116q-29 29 -29 69zM505 753q138 2 341 19l6 -6l116 -116
q-6 -28 -6 -65.5t6 -65.5l-116 116l-6 -6l116 -116q-202 20 -457 20v-239q0 -89 4 -178q107 2 226 8t183 10l65 5l4 -8l116 -116q-4 -32 -4 -67q0 -7 4 -64l-116 116l-4 -6l116 -116q-50 6 -123 6h-559l-107 -6l-115 116l-2 6q20 138 20 410v501q0 264 -20 410l4 6
q35 -6 104 -6h539q74 0 123 6l4 -6l116 -116q-4 -56 -5 -78q0 -20 4 -53l-115 116l-4 -8l115 -116q-283 25 -557 24q-16 -56 -16 -294v-43zM369 410v260h20q236 0 440 -19q-3 25 -4 49q0 24 4 50q-219 -19 -440 -19h-20v180q0 242 17 301l4 15h16q250 0 538 -23q-2 22 -2 39
t3 62q-48 -4 -105 -5h-539q-48 0 -86 4q18 -143 18 -393l1 -501q0 -255 -18 -393q38 3 85 3h559q57 0 105 -4q-3 33 -2 47q0 24 2 54q-309 -23 -559 -23h-16l-4 15q-17 59 -17 301zM317 1538q0 -31 23.5 -54.5t54.5 -23.5t54.5 23.5t23.5 54.5t-23.5 54.5t-54.5 23.5
t-54.5 -23.5t-23.5 -54.5zM705 1538q0 -31 23 -54.5t54 -23.5t54.5 23.5t23.5 54.5t-23.5 54.5t-54.5 23.5t-54 -23.5t-23 -54.5z" />
    <glyph glyph-name="Igrave" unicode="&#xcc;" horiz-adv-x="716" 
d="M213 911q0 264 -20 410l4 6q37 -6 104.5 -6t104.5 6l4 -6l115 -116q-20 -136 -20 -409v-502q0 -264 20 -410l-115 116l-4 -6l115 -116q-37 6 -104 6t-105 -6l-115 116l-4 6q20 138 20 410v501zM203 1673l248 -172q10 -7 16 -14l116 -115q14 -14 14 -30q0 -12 -9 -21
t-22 -9q-31 0 -88 24l-315 129l-116 116q64 61 156 92zM200 1650q-66 -24 -115 -62l285 -117q54 -23 81 -23q10 0 10 10t-22 26zM233 911l1 -501q0 -255 -18 -393q43 4 85.5 3.5t85.5 -3.5q-18 143 -18 393v501q0 257 18 393q-43 -4 -86 -4t-86 4q18 -143 18 -393z" />
    <glyph glyph-name="Iacute" unicode="&#xcd;" horiz-adv-x="716" 
d="M213 911q0 264 -20 410l4 6q22 -4 72 -5l-115 114q-9 9 -9 22q0 22 31 43l254 176q56 -26 93 -62q21 -21 34 -44l116 -116l-295 -119q-21 -9 -36 -14q44 2 64 5l4 -6l115 -116q-20 -136 -20 -409v-502q0 -264 20 -410l-115 116l-4 -6l115 -116q-37 6 -104 6t-105 -6
l-115 116l-4 6q20 138 20 410v501zM432 1654l-244 -170q-22 -15 -22 -26q0 -10 10 -10q24 0 78 23l272 109q-34 44 -94 74zM233 911l1 -501q0 -255 -18 -393q43 4 85.5 3.5t85.5 -3.5q-18 143 -18 393v501q0 257 18 393q-43 -4 -86 -4t-86 4q18 -143 18 -393z" />
    <glyph glyph-name="Icircumflex" unicode="&#xce;" horiz-adv-x="716" 
d="M342 1649q29 -35 63 -69q63 -63 144 -124l116 -116l-33 -43q-127 58 -217 127q-82 -60 -166 -102q30 -2 52 -1q68 0 105 6l4 -6l115 -116q-20 -136 -20 -409v-502q0 -264 20 -410l-115 116l-4 -6l115 -116q-37 6 -104 6t-105 -6l-115 116l-4 6q20 138 20 410v501
q0 245 -17 386l-116 116l-29 43q88 66 203 193h88zM233 911l1 -501q0 -255 -18 -393q43 4 85.5 3.5t85.5 -3.5q-18 143 -18 393v501q0 257 18 393q-43 -4 -86 -4t-86 4q18 -143 18 -393zM332 1628h-69q-103 -112 -184 -176l8 -13q105 48 200 118l12 9l12 -10
q84 -64 199 -117l10 13q-111 85 -188 176z" />
    <glyph glyph-name="Idieresis" unicode="&#xcf;" horiz-adv-x="716" 
d="M414 1536q0 41 28.5 69.5t69.5 28.5q40 0 69 -29l116 -116q29 -29 29 -69t-29 -69t-69 -29t-69 29l-116 116q-29 29 -29 69zM27 1536q0 41 29.5 69.5t68.5 28.5q40 0 69 -29l116 -116q29 -29 29 -69q0 -37 -25.5 -65.5t-62.5 -32.5q29 -1 50 -1q68 0 105 6l4 -6l115 -116
q-20 -136 -20 -409v-502q0 -264 20 -410l-115 116l-4 -6l115 -116q-37 6 -104 6t-105 -6l-115 116l-4 6q20 138 20 410v501q0 264 -20 410l4 6q8 -1 21 -2q-27 7 -46 26l-116 116q-29 29 -29 69zM233 911l1 -501q0 -255 -18 -393q43 4 85.5 3.5t85.5 -3.5q-18 143 -18 393
v501q0 257 18 393q-43 -4 -86 -4t-86 4q18 -143 18 -393zM47 1536q0 -31 23.5 -54.5t54.5 -23.5t54.5 23.5t23.5 54.5t-23.5 54.5t-54.5 23.5t-54.5 -23.5t-23.5 -54.5zM434 1536q0 -31 23.5 -54.5t54.5 -23.5t54.5 23.5t23.5 54.5t-23.5 54.5t-54.5 23.5t-54.5 -23.5
t-23.5 -54.5z" />
    <glyph glyph-name="Eth" unicode="&#xd0;" horiz-adv-x="1568" 
d="M301 1321q66 0 169 3t169 3q97 0 190 -25.5t171.5 -71.5t143.5 -111l116 -116q96 -96 149.5 -222.5t53.5 -265.5q0 -145 -42.5 -259t-109.5 -183t-158.5 -114t-179.5 -62t-181 -17q-114 0 -212.5 2t-162.5 2l-107 -6l-115 116l-2 6q20 138 20 410v62h-62l-116 116v80h178
v243q0 264 -20 410l4 6q34 -6 104 -6zM505 668h85l116 -116v-80h-201v-383q40 -3 107 -3q119 0 206 20.5t163 71.5t116 152.5t40 251.5q0 274 -121 444q-135 95 -339 95q-86 0 -129 -16t-43 -66v-371zM301 1300q-48 0 -86 4q18 -143 18 -393v-264h-178v-39h178l1 -198
q0 -255 -18 -393q38 3 85 3q65 0 163.5 -2t211.5 -2q92 0 177.5 16.5t173.5 60t153 110.5t106 177t41 251q0 279 -201.5 477.5t-486.5 198.5q-66 0 -169 -3.5t-169 -3.5zM369 168v440h200v39h-200v508q0 63 51 82.5t141 19.5q164 0 285 -59t186.5 -159.5t95 -214
t29.5 -242.5q0 -154 -42 -259.5t-122 -159.5t-170 -75.5t-211 -21.5q-148 0 -195.5 20t-47.5 82z" />
    <glyph glyph-name="Ntilde" unicode="&#xd1;" horiz-adv-x="1585" 
d="M854 1520q35 0 58.5 22.5t43.5 83.5l50 -12l115 -116q-37 -184 -178 -184q-51 0 -131 53q-74 45 -110 45q-26 0 -45 -11t-32 -32t-24 -55l-49 10l-116 116q23 92 61 137t103.5 45t147.5 -57q59 -45 106 -45zM221 1321l4 6q16 -6 86 -6l29 4l116 -116l698 -903q8 11 9 59
v546q0 264 -20 410l4 6q37 -6 71.5 -6t71.5 6l4 -6l116 -116q-12 -160 -19 -334.5t-9.5 -291t-6 -328.5t-6.5 -324q-3 -63 -39 -63q-41 0 -74 33l-116 116q-7 7 -14 16l-672 849q-7 -14 -6 -95v-489q0 -264 20 -410l-116 116l-4 -6l116 -116q-37 6 -71.5 6t-71.5 -6
l-116 116l-4 6q25 238 29.5 637t-9.5 684zM242 1303q13 -280 8.5 -663t-27.5 -623q27 3 53 3t53 -3q-18 144 -18 393v489q0 8 -0.5 23t-0.5 24.5t0.5 22t3 20.5t6 16t10.5 11.5t16 3.5q6 0 12 -1.5t12 -6t10.5 -9t11 -12t11 -13.5t12.5 -16.5t13 -17.5l715 -903
q30 -41 71 -41q16 0 19 44q2 112 5.5 319.5t6 323t9.5 287.5t19 330q-27 -3 -54 -4q-26 0 -53 4q18 -144 18 -393v-547q-1 -21 -1.5 -29t-4 -25t-12 -23.5t-22.5 -5.5q-11 1 -21.5 6.5t-22.5 19t-21 25.5t-25.5 34.5t-27.5 36.5l-695 900q-14 -2 -20 -3q-42 0 -69 3z
M854 1499q-53 0 -119 49q-76 53 -135 54q-53 0 -85 -34t-54 -113l11 -2q34 95 114 95q43 0 121 -48q75 -50 120 -50q117 0 154 149l-11 3q-39 -103 -116 -103z" />
    <glyph glyph-name="Ograve" unicode="&#xd2;" horiz-adv-x="1632" 
d="M843 1142q-77 0 -147.5 -32.5t-130.5 -99t-96 -184.5t-36 -272q0 -245 115 -406q113 -79 249 -78q180 0 291.5 148.5t111.5 416.5q0 281 -105 439q-104 68 -252 68zM1527 558q0 -308 -181.5 -501t-473.5 -193q-280 0 -466 185l-116 116q-183 183 -184 470
q0 301 186.5 507t461.5 206q282 0 468 -186l115 -116q190 -189 190 -488zM623 1677l247 -172q10 -7 17 -14l116 -115q14 -14 14 -30q0 -8 -4 -15t-11.5 -11t-15.5 -4q-31 0 -88 24l-315 129l-116 116q64 61 156 92zM619 1655q-66 -24 -114 -63l285 -117q54 -23 80 -23
q10 0 10.5 10t-21.5 27zM1391 674q0 291 -182.5 472t-454.5 181q-266 0 -446.5 -199.5t-180.5 -492.5q0 -190 86 -337t228.5 -222.5t314.5 -75.5q284 0 459.5 187t175.5 487zM727 1278q231 0 362.5 -163t131.5 -480q0 -274 -117 -430t-307 -156q-207 0 -353.5 166
t-146.5 455q0 305 127 456.5t303 151.5z" />
    <glyph glyph-name="Oacute" unicode="&#xd3;" horiz-adv-x="1632" 
d="M843 1142q-77 0 -147.5 -32.5t-130.5 -99t-96 -184.5t-36 -272q0 -245 115 -406q113 -79 249 -78q180 0 291.5 148.5t111.5 416.5q0 281 -105 439q-104 68 -252 68zM1527 558q0 -308 -181.5 -501t-473.5 -193q-280 0 -466 185l-116 116q-183 183 -184 470
q0 262 144.5 456t370.5 243l-104 104q-9 9 -9 22q0 23 31 43l254 176q56 -26 92 -62q21 -21 35 -44l115 -116l-271 -109q276 -4 458 -186l115 -116q190 -189 190 -488zM794 1656l-244 -170q-22 -15 -22 -26q0 -10 11 -10q24 0 78 23l271 109q-34 43 -94 74zM1391 674
q0 291 -182.5 472t-454.5 181q-266 0 -446.5 -199.5t-180.5 -492.5q0 -190 86 -337t228.5 -222.5t314.5 -75.5q284 0 459.5 187t175.5 487zM727 1278q231 0 362.5 -163t131.5 -480q0 -274 -117 -430t-307 -156q-207 0 -353.5 166t-146.5 455q0 305 127 456.5t303 151.5z" />
    <glyph glyph-name="Ocircumflex" unicode="&#xd4;" horiz-adv-x="1632" 
d="M795 1649q29 -35 63 -69q63 -63 143 -124l116 -116l-32 -43q-127 59 -218 127q-60 -44 -118 -76h5q282 0 468 -186l115 -116q190 -190 190 -488q0 -308 -181.5 -501t-473.5 -193q-280 0 -466 185l-116 116q-183 183 -184 470q0 172 65 319.5t180.5 245.5t262.5 132
l-82 81l-28 43q88 68 203 193h88zM843 1142q-77 0 -147.5 -32.5t-130.5 -99t-96 -184.5t-36 -272q0 -245 115 -406q113 -79 249 -78q180 0 291.5 148.5t111.5 416.5q0 281 -105 439q-104 68 -252 68zM1391 674q0 291 -182.5 472t-454.5 181q-266 0 -446.5 -199.5
t-180.5 -492.5q0 -190 86 -337t228.5 -222.5t314.5 -75.5q284 0 459.5 187t175.5 487zM727 1278q231 0 362.5 -163t131.5 -480q0 -274 -117 -430t-307 -156q-207 0 -353.5 166t-146.5 455q0 305 127 456.5t303 151.5zM785 1628h-69q-103 -112 -185 -176l9 -13
q105 48 200 118l12 9l12 -10q84 -64 198 -117l11 13q-111 85 -188 176z" />
    <glyph glyph-name="Otilde" unicode="&#xd5;" horiz-adv-x="1632" 
d="M870 1520q35 0 58.5 22.5t44.5 83.5l49 -12l116 -116q-35 -177 -167 -184q145 -47 251 -152l115 -116q190 -190 190 -488q0 -308 -181.5 -501t-473.5 -193q-280 0 -466 185l-116 116q-183 183 -184 470q0 248 131 436.5t340 250.5l-9 2l-115 116q23 92 60.5 137t103 45
t147.5 -57q59 -45 106 -45zM843 1142q-77 0 -147.5 -32.5t-130.5 -99t-96 -184.5t-36 -272q0 -245 115 -406q113 -79 249 -78q180 0 291.5 148.5t111.5 416.5q0 281 -105 439q-104 68 -252 68zM878 1337q-21 11 -49 30q-74 45 -111 45q-65 0 -94 -78q63 13 130 14
q63 0 124 -11zM1391 674q0 291 -182.5 472t-454.5 181q-266 0 -446.5 -199.5t-180.5 -492.5q0 -190 86 -337t228.5 -222.5t314.5 -75.5q284 0 459.5 187t175.5 487zM727 1278q231 0 362.5 -163t131.5 -480q0 -274 -117 -430t-307 -156q-207 0 -353.5 166t-146.5 455
q0 305 127 456.5t303 151.5zM870 1499q-53 0 -118 49q-76 53 -136 54q-53 0 -85 -34t-53 -113l10 -2q34 95 114 95q43 0 122 -48q75 -50 120 -50q117 0 154 149l-12 3q-39 -103 -116 -103z" />
    <glyph glyph-name="Odieresis" unicode="&#xd6;" horiz-adv-x="1632" 
d="M193 1452q0 39 27.5 65.5t66.5 26.5q38 0 65 -27l116 -116q27 -27 27 -65q0 -29 -17 -53q129 64 276 65q282 0 468 -186l115 -116q190 -190 190 -488q0 -308 -181.5 -501t-473.5 -193q-280 0 -466 185l-116 116q-183 183 -184 470q0 194 82 354.5t223 254.5h-8
q-39 0 -68 28l-116 116q-26 27 -26 64zM1141 1452q0 39 26.5 65.5t65.5 26.5q38 0 65 -27l116 -116q27 -27 27 -65t-27 -65t-65.5 -27t-65.5 27l-115 116q-27 27 -27 65zM843 1142q-77 0 -147.5 -32.5t-130.5 -99t-96 -184.5t-36 -272q0 -245 115 -406q113 -79 249 -78
q180 0 291.5 148.5t111.5 416.5q0 281 -105 439q-104 68 -252 68zM1391 674q0 291 -182.5 472t-454.5 181q-266 0 -446.5 -199.5t-180.5 -492.5q0 -190 86 -337t228.5 -222.5t314.5 -75.5q284 0 459.5 187t175.5 487zM727 1278q231 0 362.5 -163t131.5 -480
q0 -274 -117 -430t-307 -156q-207 0 -353.5 166t-146.5 455q0 305 127 456.5t303 151.5zM1161 1452q0 -31 20.5 -51.5t51.5 -20.5t51.5 20.5t20.5 51.5t-20.5 51.5t-51.5 20.5t-51.5 -20.5t-20.5 -51.5zM213 1452q0 -29 21.5 -50.5t52 -21.5t51 20.5t20.5 51.5t-20.5 51.5
t-51 20.5t-52 -21.5t-21.5 -50.5z" />
    <glyph glyph-name="multiply" unicode="&#xd7;" horiz-adv-x="1193" 
d="M842 241l20 -20l116 -116l-72 -71l-115 116l-384 -116l-116 116l-74 71l252 250l-252 252l74 72l250 -252l250 252l71 -72l116 -116zM581 471l252 252l-42 43l-250 -252l-250 252l-45 -43l252 -252l-252 -250l45 -43l250 250l250 -250l42 43z" />
    <glyph glyph-name="Oslash" unicode="&#xd8;" horiz-adv-x="1632" 
d="M337 -142q-28 0 -50 21l-116 116q-19 19 -24 44l121 149q-162 180 -162 447q0 301 186.5 507t461.5 206q207 0 370 -107l86 107q31 0 53 -23l116 -116q17 -17 21 -39l-84 -104l21 -20q189 -189 190 -488q0 -308 -181.5 -501t-473.5 -193q-240 0 -416 140zM843 1142
q-77 0 -147.5 -32.5t-130.5 -99t-96 -184.5t-36 -272q0 -77 12 -148l574 706q-79 30 -176 30zM532 159l-88 89q19 -25 41.5 -47.5t46.5 -41.5zM564 137q107 -68 233 -67q180 0 291.5 148.5t111.5 416.5q0 143 -27 254zM1105 1097l15 -24q100 -162 101 -438q0 -274 -117 -430
t-307 -156q-106 0 -203 48t-167 139l-9 12zM727 1278q205 0 329 -124l13 -13l-684 -843l-15 29q-73 147 -73 343q0 305 127 456.5t303 151.5zM212 -5l125 154l16 -13q170 -136 403 -136q284 0 459.5 186.5t175.5 487.5q0 308 -205 493l-14 13l90 111q-11 29 -43 35l-91 -112
l-15 10q-158 103 -359 103q-266 0 -446.5 -199.5t-180.5 -492.5q0 -259 157 -434l11 -13l-125 -154q6 -14 17 -25t25 -14z" />
    <glyph glyph-name="Ugrave" unicode="&#xd9;" horiz-adv-x="1531" 
d="M1114 911q0 264 -20 410l4 6q37 -6 71.5 -6t71.5 6l4 -6l116 -116q-20 -135 -20 -409v-308q0 -144 -25.5 -252.5t-84 -195t-165.5 -131.5t-260 -45q-217 0 -346 129l-116 116q-131 131 -131 374v428q0 264 -20 410l4 6q37 -6 104.5 -6t104.5 6l4 -6l115 -116
q-20 -136 -20 -409v-361q0 -196 59 -303q71 -37 169 -38q100 0 172 29t112 71t62.5 109.5t28.5 125.5t6 138v344zM688 1675l248 -172q10 -7 17 -14l115 -115q14 -14 15 -30q0 -12 -9.5 -21t-21.5 -9q-31 0 -88 24l-316 129l-116 116q64 61 156 92zM685 1652
q-66 -24 -114 -62l285 -117q54 -23 80 -23q10 0 10 10t-22 27zM1135 911v-344q0 -80 -6.5 -140t-31 -131t-66.5 -116t-117.5 -75.5t-180.5 -30.5q-365 0 -364 477v360q0 257 18 393q-43 -4 -86 -4t-86 4q18 -143 18 -393v-428q0 -116 31 -204.5t78 -140t111 -84t120.5 -43.5
t116.5 -11q148 0 251 42.5t159 126t80 188.5t24 247v307q0 257 18 393q-27 -3 -52.5 -3.5t-52.5 3.5q18 -144 18 -393z" />
    <glyph glyph-name="Uacute" unicode="&#xda;" horiz-adv-x="1531" 
d="M1114 911q0 264 -20 410l4 6q37 -6 71.5 -6t71.5 6l4 -6l116 -116q-20 -135 -20 -409v-308q0 -144 -25.5 -252.5t-84 -195t-165.5 -131.5t-260 -45q-217 0 -346 129l-116 116q-131 131 -131 374v428q0 264 -20 410l4 6q37 -6 104.5 -6t104.5 6l4 -6l115 -116
q-20 -136 -20 -409v-361q0 -196 59 -303q71 -37 169 -38q100 0 172 29t112 71t62.5 109.5t28.5 125.5t6 138v344zM870 1677q56 -26 93 -62l116 -116q20 -20 34 -44l-295 -119q-57 -25 -86 -24q-13 0 -22 8l-115 116q-9 9 -9 22q0 22 30 43zM872 1654l-244 -170
q-22 -15 -22 -26q0 -10 10 -10q24 0 79 23l271 109q-34 44 -94 74zM1135 911v-344q0 -80 -6.5 -140t-31 -131t-66.5 -116t-117.5 -75.5t-180.5 -30.5q-365 0 -364 477v360q0 257 18 393q-43 -4 -86 -4t-86 4q18 -143 18 -393v-428q0 -116 31 -204.5t78 -140t111 -84
t120.5 -43.5t116.5 -11q148 0 251 42.5t159 126t80 188.5t24 247v307q0 257 18 393q-27 -3 -52.5 -3.5t-52.5 3.5q18 -144 18 -393z" />
    <glyph glyph-name="Ucircumflex" unicode="&#xdb;" horiz-adv-x="1531" 
d="M819 1649q29 -35 63 -69q63 -63 144 -124l116 -116l-13 -17q20 -2 40 -2q35 0 72 6l4 -6l116 -116q-20 -135 -20 -409v-308q0 -144 -25.5 -252.5t-84 -195t-165.5 -131.5t-260 -45q-217 0 -346 129l-116 116q-131 131 -131 374v428q0 264 -20 410l4 6q37 -6 104.5 -6
t104.5 6l4 -6l115 -116q-20 -136 -20 -409v-361q0 -196 59 -303q71 -37 169 -38q100 0 172 29t112 71t62.5 109.5t28.5 125.5t6 138v344q0 250 -18 392q-117 55 -204 121q-103 -75 -219 -127l-116 116l-29 43q88 68 203 193h88zM810 1628h-70q-103 -112 -184 -176l8 -13
q105 48 200 118l12 9l13 -10q84 -64 198 -117l10 13q-110 85 -187 176zM1135 911v-344q0 -80 -6.5 -140t-31 -131t-66.5 -116t-117.5 -75.5t-180.5 -30.5q-365 0 -364 477v360q0 257 18 393q-43 -4 -86 -4t-86 4q18 -143 18 -393v-428q0 -116 31 -204.5t78 -140t111 -84
t120.5 -43.5t116.5 -11q148 0 251 42.5t159 126t80 188.5t24 247v307q0 257 18 393q-27 -3 -52.5 -3.5t-52.5 3.5q18 -144 18 -393z" />
    <glyph glyph-name="Udieresis" unicode="&#xdc;" horiz-adv-x="1531" 
d="M492 1452q0 39 26.5 65.5t65.5 26.5q38 0 65 -27l116 -116q27 -27 27 -65t-27 -65t-65.5 -27t-65.5 27l-116 116q-26 27 -26 65zM848 1452q0 39 26.5 65.5t65.5 26.5q38 0 65 -27l116 -116q27 -27 27 -65q0 -7 -1 -14q11 -1 22 -1q35 0 72 6l4 -6l116 -116
q-20 -135 -20 -409v-308q0 -144 -25.5 -252.5t-84 -195t-165.5 -131.5t-260 -45q-217 0 -346 129l-116 116q-131 131 -131 374v428q0 264 -20 410l4 6q37 -6 104.5 -6t104.5 6l4 -6l115 -116q-20 -136 -20 -409v-361q0 -196 59 -303q71 -37 169 -38q100 0 172 29t112 71
t62.5 109.5t28.5 125.5t6 138v344q0 214 -13 345q-21 -12 -45 -12q-38 0 -65 27l-116 116q-27 27 -27 65zM1135 911v-344q0 -80 -6.5 -140t-31 -131t-66.5 -116t-117.5 -75.5t-180.5 -30.5q-365 0 -364 477v360q0 257 18 393q-43 -4 -86 -4t-86 4q18 -143 18 -393v-428
q0 -116 31 -204.5t78 -140t111 -84t120.5 -43.5t116.5 -11q148 0 251 42.5t159 126t80 188.5t24 247v307q0 257 18 393q-27 -3 -52.5 -3.5t-52.5 3.5q18 -144 18 -393zM868 1452q0 -31 20.5 -51.5t51.5 -20.5t51.5 20.5t20.5 51.5t-20.5 51.5t-51.5 20.5t-51.5 -20.5
t-20.5 -51.5zM512 1452q0 -31 20.5 -51.5t51 -20.5t51 20.5t20.5 51.5t-20.5 51.5t-51 20.5t-51 -20.5t-20.5 -51.5z" />
    <glyph glyph-name="Yacute" unicode="&#xdd;" horiz-adv-x="1292" 
d="M798 468q5 -475 14 -590q-37 6 -102.5 6t-102.5 -6l-115 116q14 158 14 569q-61 104 -237.5 390t-235.5 374q51 -6 117 -6q63 0 116 6l116 -116q81 -158 268 -475q211 335 333 591q37 -6 86 -6q45 0 86 6l116 -116q-58 -89 -134 -203.5t-117.5 -177.5t-88 -135.5
t-78 -126t-55.5 -100.5zM737 1679q56 -26 93 -62q20 -21 34 -44l116 -116l-295 -119q-57 -25 -86 -24q-13 0 -22 8l-115 116q-9 9 -9 22q0 23 30 43zM739 1656l-244 -170q-22 -15 -22 -26q0 -10 10 -10q25 0 79 23l271 109q-34 43 -94 74zM662 583l-1 6l3 4q20 39 46.5 85
t53.5 89.5t69.5 108.5t77.5 118.5t95.5 144.5t107.5 163q-25 -2 -45 -2q-38 0 -74 5q-129 -268 -353 -620l-18 -28l-17 29q-30 52 -113.5 194t-136.5 236t-103 189q-51 -5 -105 -5q-37 0 -76 3q76 -118 235.5 -376.5t215.5 -352.5l2 -5v-6q0 -373 -12 -546q42 3 80 3
q40 0 80 -3q-8 136 -12 566z" />
    <glyph glyph-name="Thorn" unicode="&#xde;" horiz-adv-x="1230" 
d="M213 911q0 264 -20 410l4 6q37 -6 104.5 -6t104.5 6l4 -6l115 -116q-8 -54 -13 -128h57q240 0 361 -120l116 -116q100 -100 100 -254q0 -49 -15.5 -101t-52.5 -106.5t-91 -97t-140 -70t-190 -27.5q-30 0 -56 1q20 -22 20 -24l-24 24q-60 3 -91 12q3 -191 19 -314
l-115 116l-4 -6l115 -116q-37 6 -104 6t-105 -6l-115 116l-4 6q20 138 20 410v501zM803 857q-51 20 -120 20q-96 0 -178 -21v-60v-411h25q299 0 299 317q0 92 -26 155zM384 374l-15 4v16v16v501v61v16l15 4q85 22 183 22q119 0 201 -68.5t82 -243.5q0 -338 -320 -337
q-109 -1 -146 9zM233 911l1 -501q0 -255 -18 -393q43 4 85.5 3.5t85.5 -3.5q-15 119 -18 297v27l27 -7q41 -12 145 -12q125 0 221 38.5t147.5 99t76 122t24.5 121t-18.5 114.5t-62.5 112.5t-137.5 92.5t-222.5 35q-106 0 -177 -4l-22 -1l1 22q4 140 16 230q-43 -4 -86 -4
t-86 4q18 -143 18 -393z" />
    <glyph glyph-name="germandbls" unicode="&#xdf;" horiz-adv-x="1230" 
d="M822 -136q-66 0 -126.5 20.5t-86.5 36.5l-115 116l-2 6q14 25 38 119l23 2q10 -18 31 -39q63 -63 123 -64q135 0 135 238q0 194 -153 382l-18 14l-116 116v27q104 80 144 153.5t40 184.5q0 29 -4 53q-18 3 -40 3q-44 0 -78.5 -14.5t-56.5 -33.5t-37.5 -58t-23.5 -68.5
t-11.5 -85t-4.5 -87.5t-1 -96v-495q0 -283 19 -410l-116 116l-4 -6l116 -116q-37 6 -96.5 6t-96.5 -6l-116 116l-4 6q18 125 19 410v268l-111 111q-8 0 -13 5t-3 11l14 53q6 20 47 21q45 0 55.5 17t10.5 81q0 121 38 213t99 141t126.5 74t131.5 25q155 0 240 -85l116 -116
q63 -63 63 -143q0 -113 -43.5 -191.5t-146.5 -158.5l16 -16l116 -115q179 -179 179 -387q0 -159 -68 -248q-83 -106 -248 -106zM711 829l-13 13v-4q7 -5 13 -9zM707 0q155 0 231 98q64 83 63 236q0 148 -89 272.5t-225 214.5l-9 6v25l8 6q107 81 151 157t44 187
q0 76 -72 141.5t-211 65.5q-49 0 -98 -13.5t-99.5 -45t-89.5 -79.5t-63.5 -124t-24.5 -170q0 -66 -16.5 -92.5t-69.5 -26.5q-20 0 -26 -3q0 -1 -1 -2l-12 -44h80q45 0 45 -49v-350q0 -268 -16 -393q40 4 78 3q38 0 77 -3q-16 124 -16 393v495q0 76 1 111t7 102.5t20.5 101
t39 73.5t66.5 57.5t100 17.5q88 0 134 -51t46 -141q0 -113 -41.5 -190.5t-143.5 -157.5v-7q129 -101 208 -243t79 -279q0 -258 -155 -258q-44 0 -89 29.5t-72 67.5q-16 -65 -29 -91q95 -47 190 -47z" />
    <glyph glyph-name="agrave" unicode="&#xe0;" horiz-adv-x="1099" 
d="M401 1374l116 -116l144 -258q12 -25 12 -49q0 -8 -9.5 -15t-21.5 -7q-16 0 -59 41l-116 115l-234 224l5 22q63 47 133 47q14 0 30 -4zM635 98h-8l12 -12zM374 87q17 -3 36 -3q82 0 188 80q29 20 29 53l3 95l-53 -14q-113 -31 -158 -80.5t-45 -124.5v-6zM911 85q14 3 31 9
l116 -116l16 -51q-60 -63 -164 -63q-73 0 -117 45l-63 63q-76 -63 -130.5 -85.5t-135.5 -22.5q-133 0 -199 67l-116 115q-57 57 -57 155q0 104 91 182.5t249 114.5l191 43q14 4 14 24q0 70 -15 120q-26 6 -66 6q-117 0 -225 -174l-27 2l-116 116l-34 137l6 8
q141 119 301 119q169 0 254 -85l116 -116q84 -84 84 -247q0 -6 -3 -140t-3 -169q0 -32 2 -57zM650 119l5 -15q30 -104 140 -104q87 0 140 49l-6 19q-23 -6 -42 -6q-51 0 -74 21q-41 37 -40 175q0 35 2.5 169t2.5 140q0 311 -317 312q-151 0 -285 -112l29 -112
q110 173 235 172q39 0 69 -7t67.5 -30.5t59 -81t21.5 -143.5q0 -35 -28 -44h-1l-191 -43q-153 -34 -238.5 -108.5t-85.5 -168.5q0 -101 61.5 -151t173.5 -50q80 0 132 22.5t133 91.5l6 5h31zM656 488l-9 -271q0 -42 -37 -70q-112 -84 -200 -84q-74 0 -123 43.5t-49 102.5
q0 53 19.5 94t68.5 75t129 55zM388 1356q-11 2 -17 2q-61 0 -115 -38v-4l225 -216q38 -35 45 -35q6 0 11 4q0 19 -10 38z" />
    <glyph glyph-name="aacute" unicode="&#xe1;" horiz-adv-x="1099" 
d="M500 1374q12 4 28 4q63 0 113 -47l116 -116l6 -22l-236 -223q-39 -39 -61 -39l-116 116q-12 0 -21 9q-8 8 -7 17q0 20 23 57zM635 98h-8l12 -12zM374 87q17 -3 36 -3q82 0 188 80q29 20 29 53l3 95l-53 -14q-113 -31 -158 -80.5t-45 -124.5v-6zM911 85q14 3 31 9
l116 -116l16 -51q-60 -63 -164 -63q-73 0 -117 45l-63 63q-76 -63 -130.5 -85.5t-135.5 -22.5q-133 0 -199 67l-116 115q-57 57 -57 155q0 104 91 182.5t249 114.5l191 43q14 4 14 24q0 70 -15 120q-26 6 -66 6q-117 0 -225 -174l-27 2l-116 116l-34 137l6 8
q141 119 301 119q169 0 254 -85l116 -116q84 -84 84 -247q0 -6 -3 -140t-3 -169q0 -32 2 -57zM650 119l5 -15q30 -104 140 -104q87 0 140 49l-6 19q-23 -6 -42 -6q-51 0 -74 21q-41 37 -40 175q0 35 2.5 169t2.5 140q0 311 -317 312q-151 0 -285 -112l29 -112
q110 173 235 172q39 0 69 -7t67.5 -30.5t59 -81t21.5 -143.5q0 -35 -28 -44h-1l-191 -43q-153 -34 -238.5 -108.5t-85.5 -168.5q0 -101 61.5 -151t173.5 -50q80 0 132 22.5t133 91.5l6 5h31zM656 488l-9 -271q0 -42 -37 -70q-112 -84 -200 -84q-74 0 -123 43.5t-49 102.5
q0 53 19.5 94t68.5 75t129 55zM513 1356l-151 -236q-20 -32 -20 -47q0 -6 8 -6q14 0 47 33l227 215l-1 5q-44 38 -95 38q-6 0 -15 -2z" />
    <glyph glyph-name="acircumflex" unicode="&#xe2;" horiz-adv-x="1099" 
d="M492 1323l115 -116q67 -109 207 -264l-43 -29q-130 97 -195 162l-22 22q-90 -93 -219 -184l-116 116l-41 29q147 164 211 264h103zM635 98h-8l12 -12zM374 87q17 -3 36 -3q82 0 188 80q29 20 29 53l3 95l-53 -14q-113 -31 -158 -80.5t-45 -124.5v-6zM911 85q14 3 31 9
l116 -116l16 -51q-60 -63 -164 -63q-73 0 -117 45l-63 63q-76 -63 -130.5 -85.5t-135.5 -22.5q-133 0 -199 67l-116 115q-57 57 -57 155q0 104 91 182.5t249 114.5l191 43q14 4 14 24q0 70 -15 120q-26 6 -66 6q-117 0 -225 -174l-27 2l-116 116l-34 137l6 8
q141 119 301 119q169 0 254 -85l116 -116q84 -84 84 -247q0 -6 -3 -140t-3 -169q0 -32 2 -57zM650 119l5 -15q30 -104 140 -104q87 0 140 49l-6 19q-23 -6 -42 -6q-51 0 -74 21q-41 37 -40 175q0 35 2.5 169t2.5 140q0 311 -317 312q-151 0 -285 -112l29 -112
q110 173 235 172q39 0 69 -7t67.5 -30.5t59 -81t21.5 -143.5q0 -35 -28 -44h-1l-191 -43q-153 -34 -238.5 -108.5t-85.5 -168.5q0 -101 61.5 -151t173.5 -50q80 0 132 22.5t133 91.5l6 5h31zM656 488l-9 -271q0 -42 -37 -70q-112 -84 -200 -84q-74 0 -123 43.5t-49 102.5
q0 53 19.5 94t68.5 75t129 55zM480 1303h-80q-62 -95 -191 -241l10 -7q118 85 205 174l14 15l15 -15q71 -75 203 -174l11 8q-122 137 -187 240z" />
    <glyph glyph-name="atilde" unicode="&#xe3;" horiz-adv-x="1099" 
d="M580 1167q35 0 58.5 22.5t43.5 84.5l49 -12l116 -116q-37 -184 -178 -185q-51 0 -131 54q-74 45 -111 45q-39 0 -61.5 -23.5t-38.5 -75.5l-49 11l-116 115q22 93 60.5 138t103.5 45q66 0 147 -58q60 -45 107 -45zM635 98h-8l12 -12zM374 87q17 -3 36 -3q82 0 188 80
q29 20 29 53l3 95l-53 -14q-113 -31 -158 -80.5t-45 -124.5v-6zM911 85q14 3 31 9l116 -116l16 -51q-60 -63 -164 -63q-73 0 -117 45l-63 63q-76 -63 -130.5 -85.5t-135.5 -22.5q-133 0 -199 67l-116 115q-57 57 -57 155q0 104 91 182.5t249 114.5l191 43q14 4 14 24
q0 70 -15 120q-26 6 -66 6q-117 0 -225 -174l-27 2l-116 116l-34 137l6 8q141 119 301 119q169 0 254 -85l116 -116q84 -84 84 -247q0 -6 -3 -140t-3 -169q0 -32 2 -57zM650 119l5 -15q30 -104 140 -104q87 0 140 49l-6 19q-23 -6 -42 -6q-51 0 -74 21q-41 37 -40 175
q0 35 2.5 169t2.5 140q0 311 -317 312q-151 0 -285 -112l29 -112q110 173 235 172q39 0 69 -7t67.5 -30.5t59 -81t21.5 -143.5q0 -35 -28 -44h-1l-191 -43q-153 -34 -238.5 -108.5t-85.5 -168.5q0 -101 61.5 -151t173.5 -50q80 0 132 22.5t133 91.5l6 5h31zM656 488l-9 -271
q0 -42 -37 -70q-112 -84 -200 -84q-74 0 -123 43.5t-49 102.5q0 53 19.5 94t68.5 75t129 55zM580 1147q-53 0 -119 49q-76 53 -135 53q-53 0 -85.5 -34t-53.5 -112l10 -2q34 95 114 95q43 0 122 -48q75 -50 120 -50q117 0 154 149l-12 2q-38 -102 -115 -102z" />
    <glyph glyph-name="adieresis" unicode="&#xe4;" horiz-adv-x="1099" 
d="M170 1176q0 41 28.5 69.5t67.5 28.5t67 -28l116 -116q29 -29 29 -70q0 -40 -28 -68.5t-68 -28.5t-68 29l-116 115q-28 29 -28 69zM516 1176q0 41 28.5 69.5t67.5 28.5t67 -28l116 -116q29 -29 29 -70q0 -40 -28 -68.5t-68 -28.5t-68 29l-116 115q-28 29 -28 69zM635 98
h-8l12 -12zM374 87q17 -3 36 -3q82 0 188 80q29 20 29 53l3 95l-53 -14q-113 -31 -158 -80.5t-45 -124.5v-6zM911 85q14 3 31 9l116 -116l16 -51q-60 -63 -164 -63q-73 0 -117 45l-63 63q-76 -63 -130.5 -85.5t-135.5 -22.5q-133 0 -199 67l-116 115q-57 57 -57 155
q0 104 91 182.5t249 114.5l191 43q14 4 14 24q0 70 -15 120q-26 6 -66 6q-117 0 -225 -174l-27 2l-116 116l-34 137l6 8q141 119 301 119q169 0 254 -85l116 -116q84 -84 84 -247q0 -6 -3 -140t-3 -169q0 -32 2 -57zM650 119l5 -15q30 -104 140 -104q87 0 140 49l-6 19
q-23 -6 -42 -6q-51 0 -74 21q-41 37 -40 175q0 35 2.5 169t2.5 140q0 311 -317 312q-151 0 -285 -112l29 -112q110 173 235 172q39 0 69 -7t67.5 -30.5t59 -81t21.5 -143.5q0 -35 -28 -44h-1l-191 -43q-153 -34 -238.5 -108.5t-85.5 -168.5q0 -101 61.5 -151t173.5 -50
q80 0 132 22.5t133 91.5l6 5h31zM656 488l-9 -271q0 -42 -37 -70q-112 -84 -200 -84q-74 0 -123 43.5t-49 102.5q0 53 19.5 94t68.5 75t129 55zM537 1176q0 -31 22.5 -53.5t53 -22.5t53 22.5t22.5 53.5q0 33 -22.5 55t-53 22t-53 -22t-22.5 -55zM190 1176q0 -31 23 -53.5
t53.5 -22.5t53 22.5t22.5 53.5q0 33 -22.5 55t-53 22t-53.5 -22t-23 -55z" />
    <glyph glyph-name="aring" unicode="&#xe5;" horiz-adv-x="1099" 
d="M252 1192q0 70 53 120t125 50q76 0 129 -53l116 -116q49 -49 49 -117q0 -69 -52.5 -119.5t-125.5 -50.5q-75 0 -129 54l-116 116q-49 49 -49 116zM635 98h-8l12 -12zM444 1078q40 5 64 38t24 74q-40 -5 -63.5 -37t-24.5 -75zM374 87q17 -3 36 -3q82 0 188 80q29 20 29 53
l3 95l-53 -14q-113 -31 -158 -80.5t-45 -124.5v-6zM911 85q14 3 31 9l116 -116l16 -51q-60 -63 -164 -63q-73 0 -117 45l-63 63q-76 -63 -130.5 -85.5t-135.5 -22.5q-133 0 -199 67l-116 115q-57 57 -57 155q0 104 91 182.5t249 114.5l191 43q14 4 14 24q0 70 -15 120
q-26 6 -66 6q-117 0 -225 -174l-27 2l-116 116l-34 137l6 8q141 119 301 119q169 0 254 -85l116 -116q84 -84 84 -247q0 -6 -3 -140t-3 -169q0 -32 2 -57zM650 119l5 -15q30 -104 140 -104q87 0 140 49l-6 19q-23 -6 -42 -6q-51 0 -74 21q-41 37 -40 175q0 35 2.5 169
t2.5 140q0 311 -317 312q-151 0 -285 -112l29 -112q110 173 235 172q39 0 69 -7t67.5 -30.5t59 -81t21.5 -143.5q0 -35 -28 -44h-1l-191 -43q-153 -34 -238.5 -108.5t-85.5 -168.5q0 -101 61.5 -151t173.5 -50q80 0 132 22.5t133 91.5l6 5h31zM656 488l-9 -271
q0 -42 -37 -70q-112 -84 -200 -84q-74 0 -123 43.5t-49 102.5q0 53 19.5 94t68.5 75t129 55zM272 1191.5q0 -61.5 47.5 -105.5t110.5 -44q66 0 112 44t46 105.5t-47 105.5t-110.5 44t-111 -44t-47.5 -105.5zM429 1327q55 0 89.5 -39.5t34.5 -95.5q0 -53 -34 -94t-89 -41
t-89 41t-34 94q0 55 33.5 95t88.5 40z" />
    <glyph glyph-name="ae" unicode="&#xe6;" horiz-adv-x="1521" 
d="M530 691q-64 0 -125.5 -52.5t-106.5 -129.5l-27 2l-115 116l-33 137l6 8q152 127 303.5 127t236.5 -85l50 -50q105 135 285 135q141 0 232 -92l116 -115q42 -42 64.5 -92t22.5 -83q0 -102 -53 -147q-18 -10 -42 -16t-64 -9t-70.5 -4t-97.5 -2.5t-109 -2.5q-1 -22 -3 -39
l-38 37q-40 -2 -80 -3q0 -131 46 -222q42 -19 92 -19q133 0 252 139l116 -115l41 -58q-30 -55 -79.5 -98.5t-113 -68.5t-129.5 -25q-160 0 -253 92l-45 46q-146 -138 -304 -138q-176 0 -253 77l-116 116q-56 56 -56 150q0 130 135 213.5t391 101.5q-1 104 -19 163
q-25 6 -57 6zM364 83q14 -1 29 -1q59 0 114.5 32.5t76.5 90.5q11 30 17 102q-237 -51 -237 -206q-1 -10 0 -18zM1139 689q-11 2 -22 2q-34 0 -56.5 -21.5t-32.5 -54t-15 -81.5q79 2 108.5 19t29.5 74q0 28 -12 62zM414 827q118 0 164.5 -75t48.5 -230v-19l-19 -1
q-252 -18 -380 -97.5t-128 -197.5q0 -207 289 -207q151 0 293 136l16 15l14 -17q24 -30 38 -44t48 -40t82 -38t111 -12q90 0 171 47.5t127 123.5l-19 26q-117 -127 -250 -127q-125 0 -200 104.5t-75 271.5v20l20 1q83 5 181 7.5t148 3.5t95.5 6.5t68.5 17.5q44 40 45 131
q0 70 -78 158t-221 88q-175 0 -275 -135l-19 -26l-15 28q-73 133 -263 133q-143 0 -287 -120l27 -112q46 76 109.5 128t132.5 52zM769 508l-24 -1l3 23q13 136 80 216.5t173 80.5q78 0 124 -67.5t46 -132.5q0 -28 -6.5 -48t-17.5 -32t-32 -19.5t-42.5 -10.5t-57 -4t-68.5 -1
t-83 -0.5t-95 -3.5zM604 461l23 2v-23q0 -176 -24 -242q-23 -64 -84 -100.5t-126 -36.5q-166 0 -166 156q0 63 36 111.5t122 84.5t219 48z" />
    <glyph glyph-name="ccedilla" unicode="&#xe7;" horiz-adv-x="993" 
d="M623 -156q7 -5 14 -12l116 -116q34 -34 35 -86q0 -66 -62.5 -108.5t-157.5 -42.5q-72 0 -151 34l-116 116q0 33 21 54q77 -29 118 -29q60 0 88 33q-12 -3 -27 -8l-116 116l-12 12l41 100q-52 26 -93 67l-115 116q-128 128 -128 356q0 199 133 326t303 127q162 0 272 -57
l5 -6l115 -116l-47 -168l-26 -2l-116 116q-5 8 -9 15q-39 20 -80 20q-106 0 -180 -98.5t-74 -261.5q0 -141 51 -237q46 -22 99 -22q123 0 219 86h9l39 -43l115 -116q-107 -136 -275 -145zM477 -172q43 0 65.5 -25.5t22.5 -66.5q0 -49 -35.5 -76t-89.5 -27q-44 0 -112 25
q-4 -7 -6 -16q64 -27 131 -27q88 0 143 38t55 93q0 47 -34.5 77t-90.5 30q-26 0 -48 -6l-38 -9l61 162l13 1q151 8 250 123l-18 19q-97 -82 -222 -82q-127 0 -206.5 107.5t-79.5 288.5q0 170 78.5 275.5t195.5 105.5q123 0 216 -151l39 141q-108 50 -253 51
q-162 0 -289 -121t-127 -312q0 -193 94 -311.5t255 -132.5l28 -3l-75 -178q30 7 77 7z" />
    <glyph glyph-name="egrave" unicode="&#xe8;" horiz-adv-x="1042" 
d="M430 1374l116 -116l143 -258q12 -25 13 -49q0 -8 -9.5 -15t-21.5 -7q-16 0 -60 41l-115 115l-234 224l4 22q63 47 133 47q14 0 31 -4zM803 213l41 -51l116 -116q-60 -82 -154.5 -132t-202.5 -50q-192 0 -306 113l-116 116q-11 11 -19 22q-92 111 -92 313q0 213 130 342
t289 129q155 0 247 -92l116 -116q107 -107 108 -295q0 -35 -37 -35h-430q-4 -22 -5 -34l-34 34h-88q0 -157 35 -234q57 -27 121 -27q177 0 281 113zM642 695q-19 6 -37 6q-37 0 -72 -142h100q29 0 29 29q-1 59 -20 107zM375 141l-76 76q15 -23 34 -42t42 -34zM801 182
q-108 -102 -279 -102q-66 0 -132 29.5t-108 96.5q-52 83 -53 271v21h578q16 0 16 14q0 147 -79.5 257t-254.5 110q-152 0 -275.5 -123t-123.5 -328q0 -195 88 -300q106 -128 309 -128q98 0 185 44t146 117zM232 539l4 23q13 78 46 136.5t74 86.5t74.5 40.5t58.5 12.5
q72 0 132.5 -68t60.5 -182q0 -20 -13.5 -34.5t-35.5 -14.5h-401zM417 1356q-10 2 -18 2q-61 0 -114 -38l-1 -4l226 -216q38 -35 45 -35q6 0 10 4q-1 19 -10 38z" />
    <glyph glyph-name="eacute" unicode="&#xe9;" horiz-adv-x="1042" 
d="M553 1374q12 4 29 4q63 0 112 -47l116 -116l6 -22l-235 -223q-39 -39 -62 -39l-116 116q-12 0 -20 9q-8 8 -8 17q0 20 23 57zM803 213l41 -51l116 -116q-60 -82 -154.5 -132t-202.5 -50q-192 0 -306 113l-116 116q-11 11 -19 22q-92 111 -92 313q0 213 130 342t289 129
q155 0 247 -92l116 -116q107 -107 108 -295q0 -35 -37 -35h-430q-4 -22 -5 -34l-34 34h-88q0 -157 35 -234q57 -27 121 -27q177 0 281 113zM642 695q-19 6 -37 6q-37 0 -72 -142h100q29 0 29 29q-1 59 -20 107zM375 141l-76 76q15 -23 34 -42t42 -34zM801 182
q-108 -102 -279 -102q-66 0 -132 29.5t-108 96.5q-52 83 -53 271v21h578q16 0 16 14q0 147 -79.5 257t-254.5 110q-152 0 -275.5 -123t-123.5 -328q0 -195 88 -300q106 -128 309 -128q98 0 185 44t146 117zM232 539l4 23q13 78 46 136.5t74 86.5t74.5 40.5t58.5 12.5
q72 0 132.5 -68t60.5 -182q0 -20 -13.5 -34.5t-35.5 -14.5h-401zM566 1356l-151 -236q-20 -32 -20 -47q0 -6 8 -6q14 0 48 33l226 215l-1 5q-43 37 -94 38q-7 0 -16 -2z" />
    <glyph glyph-name="ecircumflex" unicode="&#xea;" horiz-adv-x="1042" 
d="M528 1323l116 -116q67 -109 207 -264l-43 -29q-130 97 -195 162l-22 22q-90 -93 -219 -184l-41 29l-116 116q148 165 211 264h102zM803 213l41 -51l116 -116q-60 -82 -154.5 -132t-202.5 -50q-192 0 -306 113l-116 116q-11 11 -19 22q-92 111 -92 313q0 213 130 342
t289 129q155 0 247 -92l116 -116q107 -107 108 -295q0 -35 -37 -35h-430q-4 -22 -5 -34l-34 34h-88q0 -157 35 -234q57 -27 121 -27q177 0 281 113zM642 695q-19 6 -37 6q-37 0 -72 -142h100q29 0 29 29q-1 59 -20 107zM375 141l-76 76q15 -23 34 -42t42 -34zM801 182
q-108 -102 -279 -102q-66 0 -132 29.5t-108 96.5q-52 83 -53 271v21h578q16 0 16 14q0 147 -79.5 257t-254.5 110q-152 0 -275.5 -123t-123.5 -328q0 -195 88 -300q106 -128 309 -128q98 0 185 44t146 117zM232 539l4 23q13 78 46 136.5t74 86.5t74.5 40.5t58.5 12.5
q72 0 132.5 -68t60.5 -182q0 -20 -13.5 -34.5t-35.5 -14.5h-401zM517 1303h-80q-62 -96 -191 -241l10 -7q118 85 204 174l15 15l15 -15q70 -75 203 -174l11 8q-122 137 -187 240z" />
    <glyph glyph-name="edieresis" unicode="&#xeb;" horiz-adv-x="1042" 
d="M203 1176q0 41 28.5 69.5t67.5 28.5t67 -28l116 -116q29 -29 29 -70q0 -40 -28 -68.5t-68 -28.5t-68 29l-116 115q-28 29 -28 69zM549 1176q0 41 28.5 69.5t67.5 28.5t67 -28l116 -116q29 -29 29 -70q0 -40 -28 -68.5t-68 -28.5t-68 29l-116 115q-28 29 -28 69zM803 213
l41 -51l116 -116q-60 -82 -154.5 -132t-202.5 -50q-192 0 -306 113l-116 116q-11 11 -19 22q-92 111 -92 313q0 213 130 342t289 129q155 0 247 -92l116 -116q107 -107 108 -295q0 -35 -37 -35h-430q-4 -22 -5 -34l-34 34h-88q0 -157 35 -234q57 -27 121 -27q177 0 281 113z
M642 695q-19 6 -37 6q-37 0 -72 -142h100q29 0 29 29q-1 59 -20 107zM375 141l-76 76q15 -23 34 -42t42 -34zM801 182q-108 -102 -279 -102q-66 0 -132 29.5t-108 96.5q-52 83 -53 271v21h578q16 0 16 14q0 147 -79.5 257t-254.5 110q-152 0 -275.5 -123t-123.5 -328
q0 -195 88 -300q106 -128 309 -128q98 0 185 44t146 117zM232 539l4 23q13 78 46 136.5t74 86.5t74.5 40.5t58.5 12.5q72 0 132.5 -68t60.5 -182q0 -20 -13.5 -34.5t-35.5 -14.5h-401zM569 1176q0 -31 22.5 -53.5t53.5 -22.5t53.5 22t22.5 54q0 21 -10.5 38.5t-28 28
t-37.5 10.5q-31 0 -53.5 -22t-22.5 -55zM223 1176q0 -31 22.5 -53.5t53.5 -22.5t53.5 22t22.5 53.5t-22.5 54.5t-53.5 23t-53.5 -22t-22.5 -55z" />
    <glyph glyph-name="igrave" unicode="&#xec;" horiz-adv-x="647" 
d="M225 1374l116 -116l144 -258q12 -25 12 -49q0 -8 -9.5 -15t-21.5 -7q-16 0 -59 41l-234 223l-116 116l4 22q63 47 134 47q14 0 30 -4zM184 481q0 272 -18 398l4 6q88 -6 178 2q12 0 15 -3l116 -116q3 -3 3 -18q-18 -173 -18 -352v-145q0 -224 18 -369l-115 116l-5 -6
l116 -116q-37 6 -96 6t-96 -6l-116 116l-4 6q18 137 18 369v112zM205 481v-112q0 -220 -16 -352q40 4 77.5 3.5t77.5 -3.5q-16 137 -16 352v145q0 179 18 352q-72 -7 -157 -3q16 -131 16 -382zM212 1356q-11 2 -17 2q-61 0 -115 -38l-1 -4l226 -216q38 -35 45 -35q6 0 10 4
q0 19 -9 38z" />
    <glyph glyph-name="iacute" unicode="&#xed;" horiz-adv-x="647" 
d="M356 1374q12 4 29 4q63 0 113 -47l116 -116l6 -22l-236 -223q-39 -39 -61 -39l-116 116q-12 0 -21 9q-8 8 -8 17q0 20 24 57zM184 481q0 272 -18 398l4 6q88 -6 178 2q12 0 15.5 -3.5t3.5 -17.5l115 -116q-18 -173 -18 -352v-145q0 -224 18 -369l-115 116l-5 -6l116 -116
q-37 6 -96 6t-96 -6l-116 116l-4 6q18 137 18 369v112zM205 481v-112q0 -220 -16 -352q40 4 77.5 3.5t77.5 -3.5q-16 137 -16 352v145q0 179 18 352q-72 -7 -157 -3q16 -131 16 -382zM369 1356l-150 -236q-20 -32 -20 -47q0 -6 8 -6q14 0 47 33l227 215l-2 5q-44 38 -94 38
q-7 0 -16 -2z" />
    <glyph glyph-name="icircumflex" unicode="&#xee;" horiz-adv-x="647" 
d="M330 1323l116 -116q67 -109 206 -264l-43 -29q-130 97 -195 162l-22 22q-90 -93 -219 -184l-41 29l-116 116q147 164 211 264h103zM184 481q0 272 -18 398l4 6q88 -6 178 2q12 0 15 -3l116 -116q3 -3 3 -18q-18 -173 -18 -352v-145q0 -224 18 -369l-115 116l-5 -6
l116 -116q-37 6 -96 6t-96 -6l-116 116l-4 6q18 137 18 369v112zM205 481v-112q0 -220 -16 -352q40 4 77.5 3.5t77.5 -3.5q-16 137 -16 352v145q0 179 18 352q-72 -7 -157 -3q16 -131 16 -382zM318 1303h-79q-62 -96 -192 -241l10 -7q118 85 205 174l15 15l14 -15
q71 -75 203 -174l12 8q-123 137 -188 240z" />
    <glyph glyph-name="idieresis" unicode="&#xef;" horiz-adv-x="647" 
d="M10 1176q0 41 29 69.5t67.5 28.5t67.5 -28l115 -116q29 -29 30 -70q0 -40 -28.5 -68.5t-68.5 -28.5t-68 29l-116 115q-28 29 -28 69zM356 1176q0 41 29 69.5t68 28.5t67 -28l116 -116q29 -29 29 -70q0 -40 -28.5 -68.5t-68 -28.5t-68.5 29l-115 115q-29 29 -29 69z
M184 481q0 272 -18 398l4 6q88 -6 178 2q12 0 15 -3l116 -116q3 -3 3 -18q-18 -173 -18 -352v-145q0 -224 18 -369l-115 116l-5 -6l116 -116q-37 6 -96 6t-96 -6l-116 116l-4 6q18 137 18 369v112zM205 481v-112q0 -220 -16 -352q40 4 77.5 3.5t77.5 -3.5q-16 137 -16 352
v145q0 179 18 352q-72 -7 -157 -3q16 -131 16 -382zM377 1176q0 -31 22.5 -53.5t53 -22.5t53 22.5t22.5 53.5q0 33 -22.5 55t-53 22t-53 -22t-22.5 -55zM31 1176q0 -31 22.5 -53.5t52.5 -22.5q31 0 53.5 22t22.5 53.5t-22.5 54.5t-53 23t-53 -22t-22.5 -55z" />
    <glyph glyph-name="eth" unicode="&#xf0;" horiz-adv-x="1128" 
d="M516 63q94 0 166 86.5t72 307.5q0 128 -22 227q-46 15 -104 15q-74 0 -127 -32.5t-80 -87t-39 -112.5t-12 -122q0 -153 61 -262q41 -20 85 -20zM70 426q0 125 45 222t115.5 148.5t143 77t142.5 25.5q86 0 158 -29q-36 86 -90 171l-202 -135l-116 116l-45 65l208 141
q-23 18 -55 41l-116 115l39 46q111 -59 217 -146l217 146l116 -116l45 -66l-199 -133l37 -37q320 -320 320 -708q0 -125 -38 -224.5t-102.5 -159.5t-144.5 -91t-168 -31q-160 0 -275 115l-116 115q-65 65 -100.5 153.5t-35.5 178.5zM90 426q0 -104 46.5 -200.5t138.5 -161
t206 -64.5q84 0 160 29.5t138 86.5t98 152.5t36 216.5q0 381 -313 694l-55 55l203 135l-22 32l-213 -142l-12 9q-98 79 -199 136l-14 -16q85 -61 130 -108l50 -50l-218 -148l22 -32l222 149l11 -15q124 -155 188 -306l18 -45l-45 18q-68 27 -150 28q-66 0 -135.5 -24
t-137 -74t-110.5 -142t-43 -213zM516 43q-123 0 -203 120t-80 298q0 66 12.5 126t41 118.5t87 94.5t138.5 36q151 0 225 -94l2 -3l2 -4q34 -120 33 -278q0 -227 -78 -320.5t-180 -93.5z" />
    <glyph glyph-name="ntilde" unicode="&#xf1;" horiz-adv-x="1218" 
d="M700 1167q24 0 41 8.5t32.5 32.5t29.5 66l49 -12l116 -116q-37 -184 -178 -185q-51 0 -131 54q-74 45 -111 45q-39 0 -62 -23.5t-38 -75.5l-50 11l-115 115q22 93 60.5 138t102.5 45q66 0 148 -58q59 -45 106 -45zM1058 253q0 -234 18 -369l-116 116l-4 -6l116 -116
q-37 6 -96 6t-96 -6l-116 116l-4 6q18 138 18 369v200q0 53 -6 90q-12 1 -25 1q-63 0 -144 -41t-153 -127v-239q0 -237 18 -369l-116 116l-4 -6l116 -116q-37 6 -96 6t-96 -6l-116 116l-4 6q18 125 18 369v112q0 283 -18 398l4 6q90 -8 166 6q6 0 8 -3q4 -4 4 -18l80 -80
q132 109 278 109q117 0 178 -61l116 -116q76 -76 76 -262q0 -33 -2 -103.5t-2 -103.5zM339 716l-5 5l4 -6zM922 369q0 33 2 103.5t2 102.5q0 160 -53.5 232t-180.5 72q-73 0 -163.5 -39t-174.5 -139l-18 -20l-23 34v154q-64 -10 -138 -6q16 -119 15 -382v-112
q0 -233 -15 -352q40 4 77 3.5t77 -3.5q-16 125 -16 352v247l5 6q51 60 110.5 100.5t109 57.5t93.5 17q90 0 129 -51.5t39 -176.5v-200q0 -220 -16 -352q40 4 77.5 3.5t77.5 -3.5q-16 128 -16 352zM700 1147q-53 0 -118 49q-76 53 -136 53q-53 0 -85 -34t-53 -112l10 -2
q34 95 114 95q43 0 122 -48q75 -50 120 -50q117 0 154 149l-12 2q-39 -102 -116 -102z" />
    <glyph glyph-name="ograve" unicode="&#xf2;" horiz-adv-x="1138" 
d="M479 1374l116 -116l143 -258q12 -25 13 -49q0 -8 -9.5 -15t-21.5 -7q-16 0 -59 41l-116 115l-234 224l4 22q63 47 134 47q14 0 30 -4zM78 420q0 217 120.5 348t321.5 131q191 0 303 -112l116 -115q123 -123 123 -350q0 -204 -117 -331t-317 -127q-192 0 -311 119
l-116 116q-123 123 -123 321zM622 701q-69 0 -119.5 -30.5t-77.5 -84.5t-39 -115t-12 -132q0 -151 55 -257q46 -21 101 -21q102 0 169 96.5t67 243.5q0 190 -40 283q-44 17 -104 17zM506 838q70 0 120 -22.5t80.5 -59.5t49 -94.5t24.5 -119t6 -141.5q0 -154 -71.5 -257
t-184.5 -103q-84 0 -145 41t-91 108t-43 132.5t-13 132.5q0 47 5 90.5t17 87.5t32.5 80t49.5 64.5t71 44.5t93 16zM98 420q0 -182 112 -301t302 -119t302 121t112 317q0 205 -105.5 323t-300.5 118q-193 0 -307.5 -124t-114.5 -335zM466 1356q-10 2 -17 2q-61 0 -115 -38
l-1 -4l226 -216q38 -35 45 -35q6 0 10 4q0 18 -10 38z" />
    <glyph glyph-name="oacute" unicode="&#xf3;" horiz-adv-x="1138" 
d="M573 1374q12 4 29 4q63 0 113 -47l116 -116l6 -22l-236 -223q-39 -39 -61 -39q-12 0 -21 9l-116 116q-8 8 -8 17q0 20 24 57zM78 420q0 217 120.5 348t321.5 131q191 0 303 -112l116 -115q123 -123 123 -350q0 -204 -117 -331t-317 -127q-192 0 -311 119l-116 116
q-123 123 -123 321zM622 701q-69 0 -119.5 -30.5t-77.5 -84.5t-39 -115t-12 -132q0 -151 55 -257q46 -21 101 -21q102 0 169 96.5t67 243.5q0 190 -40 283q-44 17 -104 17zM506 838q70 0 120 -22.5t80.5 -59.5t49 -94.5t24.5 -119t6 -141.5q0 -154 -71.5 -257t-184.5 -103
q-84 0 -145 41t-91 108t-43 132.5t-13 132.5q0 47 5 90.5t17 87.5t32.5 80t49.5 64.5t71 44.5t93 16zM98 420q0 -182 112 -301t302 -119t302 121t112 317q0 205 -105.5 323t-300.5 118q-193 0 -307.5 -124t-114.5 -335zM586 1356l-150 -236q-20 -32 -20 -47q0 -6 8 -6
q14 0 47 33l227 215l-1 5q-44 38 -95 38q-7 0 -16 -2z" />
    <glyph glyph-name="ocircumflex" unicode="&#xf4;" horiz-adv-x="1138" 
d="M567 1323l116 -116q67 -109 207 -264l-43 -29q-130 97 -195 162l-22 22q-90 -93 -219 -184l-116 116l-41 29q148 165 211 264h102zM78 420q0 217 120.5 348t321.5 131q191 0 303 -112l116 -115q123 -123 123 -350q0 -204 -117 -331t-317 -127q-192 0 -311 119l-116 116
q-123 123 -123 321zM622 701q-69 0 -119.5 -30.5t-77.5 -84.5t-39 -115t-12 -132q0 -151 55 -257q46 -21 101 -21q102 0 169 96.5t67 243.5q0 190 -40 283q-44 17 -104 17zM506 838q70 0 120 -22.5t80.5 -59.5t49 -94.5t24.5 -119t6 -141.5q0 -154 -71.5 -257t-184.5 -103
q-84 0 -145 41t-91 108t-43 132.5t-13 132.5q0 47 5 90.5t17 87.5t32.5 80t49.5 64.5t71 44.5t93 16zM98 420q0 -182 112 -301t302 -119t302 121t112 317q0 205 -105.5 323t-300.5 118q-193 0 -307.5 -124t-114.5 -335zM556 1303h-80q-62 -95 -191 -241l10 -7
q118 85 204 174l15 15l15 -15q70 -74 203 -174l11 8q-122 137 -187 240z" />
    <glyph glyph-name="otilde" unicode="&#xf5;" horiz-adv-x="1138" 
d="M643 1167q35 0 58.5 22.5t43.5 84.5l50 -12l115 -116q-37 -184 -178 -185q-51 0 -131 54q-74 45 -110 45q-39 0 -62 -23.5t-39 -75.5l-49 11l-116 115q22 93 61 138t103 45q66 0 148 -58q59 -45 106 -45zM78 420q0 217 120.5 348t321.5 131q191 0 303 -112l116 -115
q123 -123 123 -350q0 -204 -117 -331t-317 -127q-192 0 -311 119l-116 116q-123 123 -123 321zM622 701q-69 0 -119.5 -30.5t-77.5 -84.5t-39 -115t-12 -132q0 -151 55 -257q46 -21 101 -21q102 0 169 96.5t67 243.5q0 190 -40 283q-44 17 -104 17zM506 838q70 0 120 -22.5
t80.5 -59.5t49 -94.5t24.5 -119t6 -141.5q0 -154 -71.5 -257t-184.5 -103q-84 0 -145 41t-91 108t-43 132.5t-13 132.5q0 47 5 90.5t17 87.5t32.5 80t49.5 64.5t71 44.5t93 16zM98 420q0 -182 112 -301t302 -119t302 121t112 317q0 205 -105.5 323t-300.5 118
q-193 0 -307.5 -124t-114.5 -335zM643 1147q-53 0 -118 49q-76 53 -136 53q-35 0 -60.5 -14.5t-44.5 -46.5t-34 -85l11 -2q34 95 114 95q43 0 121 -48q75 -50 120 -50q117 0 154 149l-11 2q-39 -102 -116 -102z" />
    <glyph glyph-name="odieresis" unicode="&#xf6;" horiz-adv-x="1138" 
d="M229 1176q0 41 29 69.5t68 28.5t67 -28l116 -116q29 -29 29 -70q0 -20 -7.5 -38t-20.5 -30.5t-31 -20.5t-38 -8q-40 0 -68 29l-115 115q-29 29 -29 69zM575 1176q0 41 29 69.5t68 28.5t67 -28l116 -116q29 -29 29 -70q0 -40 -28 -68.5t-68 -28.5t-69 29l-115 115
q-29 29 -29 69zM78 420q0 217 120.5 348t321.5 131q191 0 303 -112l116 -115q123 -123 123 -350q0 -204 -117 -331t-317 -127q-192 0 -311 119l-116 116q-123 123 -123 321zM622 701q-69 0 -119.5 -30.5t-77.5 -84.5t-39 -115t-12 -132q0 -151 55 -257q46 -21 101 -21
q102 0 169 96.5t67 243.5q0 190 -40 283q-44 17 -104 17zM506 838q70 0 120 -22.5t80.5 -59.5t49 -94.5t24.5 -119t6 -141.5q0 -154 -71.5 -257t-184.5 -103q-84 0 -145 41t-91 108t-43 132.5t-13 132.5q0 47 5 90.5t17 87.5t32.5 80t49.5 64.5t71 44.5t93 16zM98 420
q0 -182 112 -301t302 -119t302 121t112 317q0 205 -105.5 323t-300.5 118q-193 0 -307.5 -124t-114.5 -335zM596 1176q0 -31 22.5 -53.5t53 -22.5t53.5 22.5t23 53.5q0 33 -23 55t-53.5 22t-53 -22t-22.5 -55zM250 1176q0 -31 22.5 -53.5t53 -22.5t53 22.5t22.5 53.5
q0 33 -22.5 55t-53 22t-53 -22t-22.5 -55z" />
    <glyph glyph-name="divide" unicode="&#xf7;" horiz-adv-x="1193" 
d="M447 751v7q23 64 93 93h7q38 -14 59 -35l116 -116q22 -22 33 -58l-116 116v-7l116 -115q-13 -41 -34.5 -62.5t-58.5 -30.5l-115 116h-7l116 -116q-41 9 -61 29l-116 116q-21 20 -32 63zM447 203v6q23 64 93 93h7q38 -14 59 -35l116 -116q22 -22 33 -58l-116 116v-6
l116 -116q-7 -21 -15 -36.5t-19.5 -26.5t-25.5 -18t-33 -12l-115 116h-7l115 -116q-41 9 -60 29l-116 116q-21 21 -32 64zM944 526l116 -116v-100h-809l-116 116v100h809zM924 506h-768v-60h768v60zM467 206q10 -38 24.5 -52.5t51.5 -23.5q21 6 34 14t23 22.5t19 39.5
q-19 54 -76 75q-57 -23 -76 -75zM467 754q10 -38 24.5 -52t51.5 -23q31 9 47 24t29 52q-19 54 -76 75q-57 -24 -76 -76z" />
    <glyph glyph-name="oslash" unicode="&#xf8;" horiz-adv-x="1138" 
d="M868 930l64 -47l116 -116l-93 -113q107 -122 107 -332q0 -204 -117 -331t-317 -127q-151 0 -260 76l-92 -113l-116 116l-62 53l93 113q-114 122 -113 311q0 217 120.5 348t321.5 131q156 0 261 -75zM622 701q-69 0 -119.5 -30.5t-77.5 -84.5t-39 -115t-12 -132v-9
l303 367q-26 4 -55 4zM394 102l-56 57q12 -17 26 -31.5t30 -25.5zM473 67q27 -6 57 -6q102 0 169 96.5t67 243.5v23zM748 690l11 -36q28 -90 27 -253q0 -154 -71.5 -257t-184.5 -103q-133 0 -209 106l-9 13zM506 838q145 0 213 -99l8 -12l-437 -531l-13 32q-40 100 -39 227
q0 47 5 90.5t17 87.5t32.5 80t49.5 64.5t71 44.5t93 16zM872 902l-88 -106l-15 11q-99 71 -249 72q-193 0 -307.5 -124t-114.5 -335q0 -181 108 -297l13 -13l-92 -112l30 -26l92 111l15 -11q103 -72 248 -72q190 0 302 121t112 317q0 202 -102 319l-11 13l89 109z" />
    <glyph glyph-name="ugrave" unicode="&#xf9;" horiz-adv-x="1214" 
d="M467 1374l116 -116l143 -258q12 -24 12 -49q0 -8 -9 -15t-21 -7l-116 115q-16 0 -60 41l-233 224l4 22q63 47 133 47q15 0 31 -4zM457 95q6 0 14 -1q72 0 150.5 64.5t130.5 150.5v201q0 233 -19 369l4 6q37 -6 96.5 -6t96.5 6l4 -6l116 -116q-18 -122 -19 -369v-117
q0 -206 35 -393l-116 116l-4 -6l116 -116q-40 6 -91 6q-23 0 -71 -6q-14 0 -17 3l-96 96q-113 -114 -233 -113q-123 0 -192 69l-116 116q-76 76 -76 215v246q0 238 -18 369l4 6q37 -6 96 -6t96 6l4 -6l116 -116q-18 -122 -18 -369v-203q-1 -55 7 -96zM756 180v2l-8 6z
M730 200l12 18l34 -25l10 -178q44 6 69 5q35 0 71 -3q-31 185 -31 376v117q0 235 16 352q-40 -4 -77.5 -4t-77.5 4q16 -128 16 -352v-206l-3 -5q-53 -90 -135.5 -157.5t-162.5 -67.5q-72 0 -115 49t-43 184v203q0 235 16 352q-40 -4 -77.5 -4t-77.5 4q16 -125 16 -352v-246
q0 -115 58.5 -189.5t189.5 -74.5q81 0 159.5 58t132.5 142zM454 1356q-11 2 -18 2q-61 0 -114 -38l-1 -4l226 -216q38 -35 45 -35q6 0 10 4q0 19 -10 38z" />
    <glyph glyph-name="uacute" unicode="&#xfa;" horiz-adv-x="1214" 
d="M627 1374q12 4 28 4q63 0 113 -47l116 -116l6 -22l-236 -223q-39 -39 -61 -39l-116 116q-12 0 -21 9q-8 8 -7 17q0 20 23 57zM457 95q6 0 14 -1q72 0 150.5 64.5t130.5 150.5v201q0 233 -19 369l4 6q37 -6 96.5 -6t96.5 6l4 -6l116 -116q-18 -122 -19 -369v-117
q0 -206 35 -393l-116 116l-4 -6l116 -116q-40 6 -91 6q-23 0 -71 -6q-14 0 -17 3l-96 96q-113 -114 -233 -113q-123 0 -192 69l-116 116q-76 76 -76 215v246q0 238 -18 369l4 6q37 -6 96 -6t96 6l4 -6l116 -116q-18 -122 -18 -369v-203q-1 -55 7 -96zM756 180v2l-8 6z
M730 200l12 18l34 -25l10 -178q44 6 69 5q35 0 71 -3q-31 185 -31 376v117q0 235 16 352q-40 -4 -77.5 -4t-77.5 4q16 -128 16 -352v-206l-3 -5q-53 -90 -135.5 -157.5t-162.5 -67.5q-72 0 -115 49t-43 184v203q0 235 16 352q-40 -4 -77.5 -4t-77.5 4q16 -125 16 -352v-246
q0 -115 58.5 -189.5t189.5 -74.5q81 0 159.5 58t132.5 142zM640 1356l-151 -236q-20 -32 -20 -47q0 -6 8 -6q14 0 47 33l227 215l-1 5q-44 38 -95 38q-6 0 -15 -2z" />
    <glyph glyph-name="ucircumflex" unicode="&#xfb;" horiz-adv-x="1214" 
d="M575 1323l116 -116q67 -109 207 -264l-43 -29q-130 97 -195 162l-22 22q-90 -92 -219 -184l-41 29l-116 116q147 164 211 264h102zM457 95q6 0 14 -1q72 0 150.5 64.5t130.5 150.5v201q0 233 -19 369l4 6q37 -6 96.5 -6t96.5 6l4 -6l116 -116q-18 -122 -19 -369v-117
q0 -206 35 -393l-116 116l-4 -6l116 -116q-40 6 -91 6q-23 0 -71 -6q-14 0 -17 3l-96 96q-113 -114 -233 -113q-123 0 -192 69l-116 116q-76 76 -76 215v246q0 238 -18 369l4 6q37 -6 96 -6t96 6l4 -6l116 -116q-18 -122 -18 -369v-203q-1 -55 7 -96zM756 180v2l-8 6z
M730 200l12 18l34 -25l10 -178q44 6 69 5q35 0 71 -3q-31 185 -31 376v117q0 235 16 352q-40 -4 -77.5 -4t-77.5 4q16 -128 16 -352v-206l-3 -5q-53 -90 -135.5 -157.5t-162.5 -67.5q-72 0 -115 49t-43 184v203q0 235 16 352q-40 -4 -77.5 -4t-77.5 4q16 -125 16 -352v-246
q0 -115 58.5 -189.5t189.5 -74.5q81 0 159.5 58t132.5 142zM564 1303h-80q-62 -95 -191 -241l10 -7q118 85 205 174l14 15l15 -15q70 -74 203 -174l11 8q-122 137 -187 240z" />
    <glyph glyph-name="udieresis" unicode="&#xfc;" horiz-adv-x="1214" 
d="M270 1176q0 41 29 69.5t68 28.5t67 -28l116 -116q29 -29 29 -70q0 -40 -28.5 -68.5t-68.5 -28.5t-68 29l-116 115q-28 29 -28 69zM616 1176q0 41 29 69.5t68 28.5t67 -28l116 -116q29 -29 29 -70q0 -40 -28 -68.5t-68 -28.5t-69 29l-115 115q-29 29 -29 69zM457 95
q6 0 14 -1q72 0 150.5 64.5t130.5 150.5v201q0 233 -19 369l4 6q37 -6 96.5 -6t96.5 6l4 -6l116 -116q-18 -122 -19 -369v-117q0 -206 35 -393l-116 116l-4 -6l116 -116q-40 6 -91 6q-23 0 -71 -6q-14 0 -17 3l-96 96q-113 -114 -233 -113q-123 0 -192 69l-116 116
q-76 76 -76 215v246q0 238 -18 369l4 6q37 -6 96 -6t96 6l4 -6l116 -116q-18 -122 -18 -369v-203q-1 -55 7 -96zM756 180v2l-8 6zM730 200l12 18l34 -25l10 -178q44 6 69 5q35 0 71 -3q-31 185 -31 376v117q0 235 16 352q-40 -4 -77.5 -4t-77.5 4q16 -128 16 -352v-206
l-3 -5q-53 -90 -135.5 -157.5t-162.5 -67.5q-72 0 -115 49t-43 184v203q0 235 16 352q-40 -4 -77.5 -4t-77.5 4q16 -125 16 -352v-246q0 -115 58.5 -189.5t189.5 -74.5q81 0 159.5 58t132.5 142zM637 1176q0 -31 22.5 -53.5t53 -22.5t53 22.5t22.5 53.5q0 33 -22.5 55
t-53 22t-53 -22t-22.5 -55zM291 1176q0 -31 22.5 -53.5t53 -22.5t53 22.5t22.5 53.5q0 33 -22.5 55t-53 22t-53 -22t-22.5 -55z" />
    <glyph glyph-name="yacute" unicode="&#xfd;" horiz-adv-x="1150" 
d="M629 1374q12 4 28 4q63 0 113 -47l116 -116l6 -22l-235 -223q-39 -39 -62 -39q-12 0 -21 9l-116 116q-8 8 -7 17q0 20 23 57zM57 885q29 -6 107 -6q74 0 100 6l116 -116q65 -200 196 -516q122 275 235 632q20 -6 80 -6q68 0 88 6l116 -116q-88 -178 -316 -691t-278 -679
q-34 10 -100 10q-37 0 -72 -10l-116 116q147 248 242 465q-42 112 -398 905zM91 860q331 -733 383 -873l3 -8l-4 -8q-86 -201 -219 -428q18 2 31 2q40 0 86 -7q56 172 255 621.5t318 699.5q-22 -1 -53 -1q-44 0 -66 3q-130 -404 -264 -690l-6 -12h-31l-5 13
q-201 486 -269 690q-29 -3 -86 -4q-46 0 -73 2zM642 1356l-151 -236q-20 -32 -20 -47q0 -6 8 -6q14 0 47 33l227 215l-1 5q-44 38 -95 38q-6 0 -15 -2z" />
    <glyph glyph-name="thorn" unicode="&#xfe;" horiz-adv-x="1169" 
d="M450 -181q0 -272 20 -410l-116 116l-4 -6l116 -116q-28 6 -98 6l-101 -6l-115 116l-2 6q20 129 20 409v1053q0 272 -20 385l4 6q24 2 44 5.5t42 10.5t31.5 10t35 13.5t29.5 12.5q9 0 13 -5q5 -5 5 -16l116 -116q-20 -163 -20 -385v-53q72 44 154 44q132 0 238 -106
l116 -116q60 -60 95.5 -142t35.5 -170q0 -222 -135 -361.5t-320 -139.5q-101 0 -184 45v-90zM732 666q-32 12 -65 13q-58 0 -121.5 -45.5t-95.5 -122.5v-444q26 -7 58 -8q78 0 133 31.5t83 86.5t40 115.5t12 133.5q0 148 -44 240zM375 106l-41 41q10 -12 20 -22t21 -19z
M313 -66v125l31 -16q79 -43 174 -43q176 0 305 134t129 347q0 156 -105.5 277t-242.5 121q-61 0 -115.5 -27.5t-85.5 -59t-54 -68.5l-40 -65l4 144v221q0 221 20 382q-96 -40 -161 -47q18 -117 18 -372v-1053q0 -264 -17 -392q34 3 79 3q44 0 79 -3q-18 135 -18 392z
M313 631l2 4q34 83 102.5 131.5t133.5 48.5q43 0 83 -19t78 -60t61.5 -121t23.5 -189q0 -74 -13 -137t-43 -122.5t-89.5 -93.5t-143.5 -34q-111 0 -190 95l-5 6v491z" />
    <glyph glyph-name="ydieresis" unicode="&#xff;" horiz-adv-x="1150" 
d="M270 1176q0 41 29 69.5t68 28.5t67 -28l116 -116q29 -29 29 -70q0 -40 -28.5 -68.5t-68.5 -28.5t-68 29l-116 115q-28 29 -28 69zM616 1176q0 41 29 69.5t68 28.5t67 -28l116 -116q29 -29 29 -70q0 -40 -28 -68.5t-68 -28.5t-69 29l-115 115q-29 29 -29 69zM57 885
q29 -6 107 -6q74 0 100 6l116 -116q65 -200 196 -516q122 275 235 632q20 -6 80 -6q68 0 88 6l116 -116q-88 -178 -316 -691t-278 -679q-34 10 -100 10q-37 0 -72 -10l-116 116q147 248 242 465q-42 112 -398 905zM91 860q331 -733 383 -873l3 -8l-4 -8q-86 -201 -219 -428
q18 2 31 2q40 0 86 -7q56 172 255 621.5t318 699.5q-22 -1 -53 -1q-44 0 -66 3q-130 -404 -264 -690l-6 -12h-31l-5 13q-201 486 -269 690q-29 -3 -86 -4q-46 0 -73 2zM637 1176q0 -31 22.5 -53.5t53 -22.5t53 22.5t22.5 53.5q0 33 -22.5 55t-53 22t-53 -22t-22.5 -55z
M291 1176q0 -31 22.5 -53.5t53 -22.5t53 22.5t22.5 53.5q0 33 -22.5 55t-53 22t-53 -22t-22.5 -55z" />
    <glyph glyph-name="Amacron" unicode="&#x100;" horiz-adv-x="1402" 
d="M1025 1371h-500l-115 116q-11 0 -18 7q-9 9 -9 24q0 18 14.5 38.5t30.5 20.5h502q12 0 20 -8l116 -116q8 -8 8 -21q0 -20 -15 -40.5t-34 -20.5zM482 352q-59 -145 -102.5 -265t-67.5 -209q-25 6 -92 6q-47 0 -71 -6l-116 116q348 764 604 1354h57l116 -116
q70 -167 197.5 -483.5t223 -548t140.5 -322.5q-35 6 -123 6q-68 0 -102 -6l-116 116q-38 140 -117 359q-96 2 -166 2q-120 0 -265 -3zM571 562q29 -1 50 -1q87 0 213 3q-60 155 -127 316zM630 1061l-3 8h-4zM348 475l5 13h13q147 3 265 4q94 0 241 -4h13l5 -13
q102 -273 155 -458q31 4 87.5 3.5t88.5 -2.5q-49 104 -141.5 330.5t-211.5 521.5t-187 457h-31q-248 -573 -583 -1307q14 1 37 0q50 0 78 -3q47 165 166 458zM853 572l11 -28h-29q-127 -3 -214 -3q-33 0 -111.5 1.5t-103.5 2.5h-30l233 544h31l5 -12q113 -259 208 -505z
M909 1507q8 0 18.5 14.5t10.5 26.5q0 8 -8 8h-502q-4 0 -14.5 -13.5t-10.5 -24.5q0 -10 7 -11h499z" />
    <glyph glyph-name="amacron" unicode="&#x101;" horiz-adv-x="1099" 
d="M796 986h-500q-11 0 -18 7l-115 116q-9 9 -9 24q0 18 14 38.5t31 20.5h501q12 0 21 -8l116 -116q8 -8 8 -20.5t-6.5 -26.5t-18 -24.5t-24.5 -10.5zM635 98h-8l12 -12zM374 87q17 -3 36 -3q82 0 188 80q29 20 29 53l3 95l-53 -14q-113 -31 -158 -80.5t-45 -124.5v-6z
M911 85q14 3 31 9l116 -116l16 -51q-60 -63 -164 -63q-73 0 -117 45l-63 63q-76 -63 -130.5 -85.5t-135.5 -22.5q-133 0 -199 67l-116 115q-57 57 -57 155q0 104 91 182.5t249 114.5l191 43q14 4 14 24q0 70 -15 120q-26 6 -66 6q-117 0 -225 -174l-27 2l-116 116l-34 137
l6 8q141 119 301 119q169 0 254 -85l116 -116q84 -84 84 -247q0 -6 -3 -140t-3 -169q0 -32 2 -57zM650 119l5 -15q30 -104 140 -104q87 0 140 49l-6 19q-23 -6 -42 -6q-51 0 -74 21q-41 37 -40 175q0 35 2.5 169t2.5 140q0 311 -317 312q-151 0 -285 -112l29 -112
q110 173 235 172q39 0 69 -7t67.5 -30.5t59 -81t21.5 -143.5q0 -35 -28 -44h-1l-191 -43q-153 -34 -238.5 -108.5t-85.5 -168.5q0 -101 61.5 -151t173.5 -50q80 0 132 22.5t133 91.5l6 5h31zM656 488l-9 -271q0 -42 -37 -70q-112 -84 -200 -84q-74 0 -123 43.5t-49 102.5
q0 53 19.5 94t68.5 75t129 55zM680 1122q7 0 18 14.5t11 26.5q0 8 -9 8h-501q-4 0 -14.5 -13t-10.5 -25q0 -10 6 -11h500z" />
    <glyph glyph-name="Abreve" unicode="&#x102;" horiz-adv-x="1402" 
d="M934 1647l116 -116q-4 -53 -29.5 -97.5t-64 -73.5t-86.5 -45t-99 -16q-15 0 -30 2l69 -69q70 -167 197.5 -483.5t223 -548t140.5 -322.5q-35 6 -123 6q-68 0 -102 -6l-116 116q-38 140 -117 359q-96 2 -166 2q-119 0 -265 -3q-59 -145 -102.5 -265t-67.5 -209
q-25 6 -92 6q-47 0 -71 -6l-116 116q345 755 596 1336q-40 19 -69 49l-115 115q-61 61 -68 153h57l106 -106q52 -19 115 -19q80 0 145.5 33.5t76.5 91.5h57zM571 562q29 -1 50 -1q87 0 213 3q-60 155 -127 316zM630 1061l-3 8h-4zM348 475l5 13h13q147 3 265 4q94 0 241 -4
h13l5 -13q102 -273 155 -458q31 4 87.5 3.5t88.5 -2.5q-49 104 -141.5 330.5t-211.5 521.5t-187 457h-31q-248 -573 -583 -1307q14 1 37 0q50 0 78 -3q47 165 166 458zM853 572l11 -28h-29q-127 -3 -214 -3q-33 0 -111.5 1.5t-103.5 2.5h-30l233 544h31l5 -12
q113 -259 208 -505zM911 1626h-19q-20 -59 -88.5 -92t-148.5 -33q-84 0 -150 32t-86 93h-19q14 -87 84 -138.5t171 -51.5q45 0 87.5 13t77 37t59 60t32.5 80z" />
    <glyph glyph-name="abreve" unicode="&#x103;" horiz-adv-x="1099" 
d="M201 1325l116 -116q6 -27 16 -50q42 -18 89 -18q83 0 144.5 49t76.5 135l55 -25l116 -115q-12 -85 -55.5 -149.5t-101.5 -96t-119 -31.5q-108 0 -182 74l-116 115q-73 73 -95 203zM635 98h-8l12 -12zM374 87q17 -3 36 -3q82 0 188 80q29 20 29 53l3 95l-53 -14
q-113 -31 -158 -80.5t-45 -124.5v-6zM911 85q14 3 31 9l116 -116l16 -51q-60 -63 -164 -63q-73 0 -117 45l-63 63q-76 -63 -130.5 -85.5t-135.5 -22.5q-133 0 -199 67l-116 115q-57 57 -57 155q0 104 91 182.5t249 114.5l191 43q14 4 14 24q0 70 -15 120q-26 6 -66 6
q-117 0 -225 -174l-27 2l-116 116l-34 137l6 8q141 119 301 119q169 0 254 -85l116 -116q84 -84 84 -247q0 -6 -3 -140t-3 -169q0 -32 2 -57zM650 119l5 -15q30 -104 140 -104q87 0 140 49l-6 19q-23 -6 -42 -6q-51 0 -74 21q-41 37 -40 175q0 35 2.5 169t2.5 140
q0 311 -317 312q-151 0 -285 -112l29 -112q110 173 235 172q39 0 69 -7t67.5 -30.5t59 -81t21.5 -143.5q0 -35 -28 -44h-1l-191 -43q-153 -34 -238.5 -108.5t-85.5 -168.5q0 -101 61.5 -151t173.5 -50q80 0 132 22.5t133 91.5l6 5h31zM656 488l-9 -271q0 -42 -37 -70
q-112 -84 -200 -84q-74 0 -123 43.5t-49 102.5q0 53 19.5 94t68.5 75t129 55zM187 1297l-19 -9q23 -117 90 -180.5t164 -63.5q85 0 159 65t95 179l-18 8q-22 -82 -87.5 -129t-148.5 -47t-146.5 48t-88.5 129z" />
    <glyph glyph-name="Aogonek" unicode="&#x104;" horiz-adv-x="1402" 
d="M1116 -334l116 -116q-42 -52 -96.5 -83t-106.5 -31q-77 0 -120 43l-116 116q-42 42 -41 112q0 169 262 344q-40 133 -101 302q-96 2 -166 2q-119 0 -265 -3q-59 -145 -102.5 -265t-67.5 -209q-25 6 -92 6q-47 0 -71 -6l-116 116q348 764 604 1354h57l116 -116
q70 -167 197.5 -483.5t223 -548t140.5 -322.5q-35 6 -123 6q-17 0 -49 -2.5t-48 -2.5q-46 -46 -73.5 -80t-47.5 -72.5t-25 -77.5q40 16 76 54l6 -2zM571 562q29 -1 50 -1q87 0 213 3q-60 155 -127 316zM630 1061l-3 8h-4zM853 572l11 -28h-29q-127 -3 -214 -3
q-33 0 -111.5 1.5t-103.5 2.5h-30l233 544h31l5 -12q113 -259 208 -505zM1089 -334l-7 9q-59 -54 -109 -54q-47 0 -77 33.5t-30 75.5q0 75 37 137t117 142l6 6h9q15 0 47 2.5t51 2.5q57 0 88 -2q-49 104 -141.5 330.5t-211.5 521.5t-187 457h-31q-248 -573 -583 -1307
q14 1 37 0q50 0 78 -3q46 165 166 458l5 13h13q147 3 265 4q94 0 241 -4h13l5 -13q89 -238 143 -418l5 -15l-13 -8q-253 -169 -253 -327q0 -63 37 -99t104 -36q90 0 176 94z" />
    <glyph glyph-name="aogonek" unicode="&#x105;" horiz-adv-x="1099" 
d="M911 -313l116 -116q-28 -34 -61.5 -60t-70 -40.5t-71.5 -14.5q-77 0 -120 44l-116 115q-42 42 -41 113q0 80 58 161q-57 -25 -141 -25q-133 0 -199 67l-116 115q-57 57 -57 155q0 104 91 182.5t249 114.5l191 43q14 4 14 24q0 70 -15 120q-26 6 -66 6q-117 0 -225 -174
l-27 2l-116 116l-34 137l6 8q141 119 301 119q169 0 254 -85l116 -116q84 -84 84 -247q0 -6 -3 -140t-3 -169q0 -32 2 -57q14 3 31 9l116 -116l16 -51q-60 -63 -163 -63q-99 -106 -111 -195q40 16 77 55l6 -3zM639 86l-4 12h-8zM374 87q17 -3 36 -3q82 0 188 80q29 20 29 53
l3 95l-53 -14q-113 -31 -158 -80.5t-45 -124.5v-6zM656 488l-9 -271q0 -42 -37 -70q-112 -84 -200 -84q-74 0 -123 43.5t-49 102.5q0 53 19.5 94t68.5 75t129 55zM885 -313l-8 9q-59 -54 -109 -54q-47 0 -77 33t-29 75q0 66 29 122.5t90 121.5l6 6h9q86 0 139 49l-6 19
q-23 -6 -42 -6q-51 0 -74 21q-41 37 -40 175q0 35 2.5 169t2.5 140q0 311 -317 312q-151 0 -285 -112l29 -112q110 173 235 172q39 0 69 -7t67.5 -30.5t59 -81t21.5 -143.5q0 -35 -28 -44h-1l-191 -43q-153 -34 -238.5 -108.5t-85.5 -168.5q0 -101 61.5 -151t173.5 -50
q80 0 132 22.5t133 91.5l6 5h31l5 -15q18 -61 66 -87l26 -14l-23 -20q-157 -131 -157 -255q0 -63 37 -99.5t105 -36.5q90 1 176 95z" />
    <glyph glyph-name="Cacute" unicode="&#x106;" horiz-adv-x="1501" 
d="M874 1679q56 -26 93 -62l116 -116q20 -20 34 -44l-276 -111q61 -4 123.5 -14.5t107 -23t80.5 -25t54 -20.5l19 -8l4 -6l116 -116q-4 -17 -12.5 -50.5t-11 -44.5t-7 -34.5t-6.5 -45t-4 -52.5l-21 -2l-116 116q-12 24 -26 46q-109 69 -276 69q-53 0 -109.5 -18t-115 -62
t-104 -107t-74.5 -162t-29 -218q0 -246 118 -414q103 -70 238 -70q142 0 234 45t202 166l49 -39l116 -116q-211 -276 -504 -276q-289 0 -472 182l-116 116q-94 94 -143 220.5t-49 262.5q0 271 173.5 467t415.5 230l-96 96q-9 9 -9 22q0 23 31 43zM778 1327
q-258 0 -454.5 -197.5t-196.5 -484.5q0 -123 41 -236.5t119 -205.5t203.5 -147.5t279.5 -55.5q273 0 475 253l-18 14q-71 -77 -134.5 -120t-136 -63.5t-167.5 -20.5q-121 0 -217.5 54t-155 143.5t-89 198t-30.5 225.5q0 122 30 224t77.5 167.5t108.5 111.5t120.5 65.5
t116.5 19.5q294 0 420 -214q6 60 36 183q-202 86 -428 86zM876 1656l-244 -170q-22 -15 -22 -26q0 -10 11 -10q25 0 78 23l271 109q-34 43 -94 74z" />
    <glyph glyph-name="cacute" unicode="&#x107;" horiz-adv-x="993" 
d="M549 1374q12 4 29 4q63 0 112 -47l116 -116l6 -22l-235 -223q-39 -39 -62 -39l-116 116q-12 0 -20 9q-8 8 -8 17q0 20 23 57zM628 701q-106 0 -180 -98.5t-74 -261.5q0 -141 51 -237q46 -22 99 -22q123 0 219 86h9l39 -43l115 -116q-114 -145 -301 -145q-174 0 -284 110
l-115 116q-128 128 -128 356q0 199 133 326t303 127q162 0 272 -57l5 -6l115 -116l-47 -168l-26 -2l-116 116q-5 8 -9 15q-39 20 -80 20zM512 838q123 0 216 -151l39 141q-108 50 -253 51q-162 0 -289 -121t-127 -312q0 -206 106.5 -326t284.5 -120q169 0 275 124l-18 19
q-97 -82 -222 -82q-127 0 -206.5 107.5t-79.5 288.5q0 170 78.5 275.5t195.5 105.5zM562 1356l-151 -236q-20 -32 -20 -47q0 -6 8 -6q14 0 47 33l227 215l-1 5q-44 38 -94 38q-7 0 -16 -2z" />
    <glyph glyph-name="Ccircumflex" unicode="&#x108;" horiz-adv-x="1501" 
d="M774 1651q29 -35 63 -69q63 -63 144 -124l116 -116l-26 -34q42 -11 80.5 -24t55.5 -21l18 -8l4 -6l116 -116q-4 -17 -12.5 -50.5t-11 -44.5t-7 -34.5t-6.5 -45t-4 -52.5l-21 -2l-116 116q-12 24 -26 46q-109 69 -276 69q-53 0 -109.5 -18t-115 -62t-104 -107t-74.5 -162
t-29 -218q0 -246 118 -414q103 -70 238 -70q142 0 234 45t202 166l49 -39l116 -116q-211 -276 -504 -276q-289 0 -472 182l-116 116q-94 94 -143 220.5t-49 262.5q0 244 143 430t356 248l-93 92l-29 43q88 66 203 193h88zM720 1345q29 3 58 3q118 0 242 -27q-97 48 -173 105
q-64 -46 -127 -81zM778 1327q-258 0 -454.5 -197.5t-196.5 -484.5q0 -123 41 -236.5t119 -205.5t203.5 -147.5t279.5 -55.5q273 0 475 253l-18 14q-71 -77 -134.5 -120t-136 -63.5t-167.5 -20.5q-121 0 -217.5 54t-155 143.5t-89 198t-30.5 225.5q0 122 30 224t77.5 167.5
t108.5 111.5t120.5 65.5t116.5 19.5q294 0 420 -214q6 60 36 183q-202 86 -428 86zM765 1630h-70q-103 -112 -184 -176l8 -13q105 49 200 118l12 9l12 -10q84 -64 199 -117l10 13q-110 85 -187 176z" />
    <glyph glyph-name="ccircumflex" unicode="&#x109;" horiz-adv-x="993" 
d="M535 1323l115 -116q67 -109 207 -264l-43 -29q-131 97 -195 162l-22 22q-90 -93 -219 -184l-41 29l-116 116q147 164 211 264h103zM626 701q-68 0 -125.5 -42t-93 -125.5t-35.5 -192.5q0 -141 51 -237q46 -22 99 -22q123 0 219 86h9l39 -43l115 -116q-114 -145 -301 -145
q-174 0 -284 110l-115 116q-128 128 -128 356q0 199 133 326t303 127q162 0 272 -57l4 -6l116 -116l-47 -168l-26 -2l-116 116q-5 8 -9 15q-39 20 -80 20zM510 838q123 0 216 -151l39 141q-108 50 -253 51q-162 0 -289 -121t-127 -312q0 -207 106.5 -326.5t284.5 -119.5
q168 0 275 124l-18 19q-97 -82 -222 -82q-127 0 -206.5 107.5t-79.5 288.5q0 170 78.5 275.5t195.5 105.5zM523 1303h-80q-62 -95 -191 -241l10 -7q118 85 205 174l15 15l14 -15q70 -75 203 -174l11 8q-122 137 -187 240z" />
    <glyph glyph-name="Cdotaccent" unicode="&#x10a;" horiz-adv-x="1501" 
d="M623 1599.5q0 43.5 31.5 75t74.5 31.5t75 -32l116 -116q32 -32 31.5 -74.5t-32 -74.5t-74.5 -32t-75 32l-116 116q-31 31 -31 74.5zM778 1348q111 0 222.5 -22.5t167.5 -46.5l57 -24l4 -6l116 -116q-4 -17 -12.5 -50.5t-11 -44.5t-7 -34.5t-6.5 -45t-4 -52.5l-21 -2
l-116 116q-12 24 -26 46q-109 69 -276 69q-53 0 -109.5 -18t-115 -62t-104 -107t-74.5 -162t-29 -218q0 -246 118 -414q103 -70 238 -70q142 0 234 45t202 166l49 -39l116 -116q-211 -276 -504 -276q-289 0 -472 182l-116 116q-94 94 -143 220.5t-49 262.5q0 295 203 499
t469 204zM778 1327q-258 0 -454.5 -197.5t-196.5 -484.5q0 -123 41 -236.5t119 -205.5t203.5 -147.5t279.5 -55.5q273 0 475 253l-18 14q-71 -77 -134.5 -120t-136 -63.5t-167.5 -20.5q-121 0 -217.5 54t-155 143.5t-89 198t-30.5 225.5q0 122 30 224t77.5 167.5
t108.5 111.5t120.5 65.5t116.5 19.5q294 0 420 -214q6 60 36 183q-202 86 -428 86zM643 1600q0 -34 26 -60.5t60 -26.5q35 0 60.5 26t25.5 60t-26 60.5t-60 26.5q-22 0 -42 -12t-32 -32t-12 -42z" />
    <glyph glyph-name="cdotaccent" unicode="&#x10b;" horiz-adv-x="993" 
d="M393 1223q0 41 32 72.5t73 31.5t73 -31l115 -116q31 -31 31.5 -73t-31 -73.5t-73 -31.5t-72.5 32l-116 116q-32 32 -32 73zM628 701q-106 0 -180 -98.5t-74 -261.5q0 -141 51 -237q46 -22 99 -22q123 0 219 86h9l39 -43l115 -116q-114 -145 -301 -145q-174 0 -284 110
l-115 116q-128 128 -128 356q0 199 133 326t303 127q162 0 272 -57l5 -6l115 -116l-47 -168l-26 -2l-116 116q-5 8 -9 15q-39 20 -80 20zM512 838q123 0 216 -151l39 141q-108 50 -253 51q-162 0 -289 -121t-127 -312q0 -206 106.5 -326t284.5 -120q169 0 275 124l-18 19
q-97 -82 -222 -82q-127 0 -206.5 107.5t-79.5 288.5q0 170 78.5 275.5t195.5 105.5zM414 1222.5q0 -32.5 25.5 -58t58 -25.5t58.5 25.5t26 58t-26 58.5t-58.5 26t-58 -26t-25.5 -58.5z" />
    <glyph glyph-name="Ccaron" unicode="&#x10c;" horiz-adv-x="1501" 
d="M671 1441q-34 30 -80 65l-116 116l33 41q123 -53 217 -125q116 82 219 125l116 -116l31 -41q-90 -69 -180 -167q37 -5 74.5 -12t67.5 -14.5t58 -15.5t48 -15.5t35.5 -13.5t22.5 -9l8 -4l4 -6l116 -116q-4 -17 -12.5 -50.5t-11 -44.5t-7 -34.5t-6.5 -45t-4 -52.5l-116 116
l-21 -2q-12 24 -26 46q-109 69 -276 69q-53 0 -109.5 -18t-115 -62t-104 -107t-74.5 -162t-29 -218q0 -246 118 -414q103 -70 238 -70q142 0 234 45t202 166l49 -39l116 -116q-211 -276 -504 -276q-289 0 -472 182l-116 116q-94 94 -143 220.5t-49 262.5q0 145 55 275.5
t145.5 222t210 146.5t245.5 58l-80 80q-6 8 -11 14zM778 1327q-258 0 -454.5 -197.5t-196.5 -484.5q0 -123 41 -236.5t119 -205.5t203.5 -147.5t279.5 -55.5q273 0 475 253l-18 14q-71 -77 -134.5 -120t-136 -63.5t-167.5 -20.5q-121 0 -217.5 54t-155 143.5t-89 198
t-30.5 225.5q0 122 30 224t77.5 167.5t108.5 111.5t120.5 65.5t116.5 19.5q294 0 420 -214q6 60 36 183q-202 86 -428 86zM692 1448h69q93 105 185 178l-9 12q-93 -41 -200 -117l-12 -8l-12 9q-87 66 -199 116l-10 -13q118 -92 188 -177z" />
    <glyph glyph-name="ccaron" unicode="&#x10d;" horiz-adv-x="993" 
d="M442 1028q-78 127 -206 266l40 27q130 -97 196 -162l22 -22q78 80 221 184l39 -27l116 -116q-138 -154 -209 -266l3 -29q73 -16 122 -41l5 -6l115 -116l-47 -168l-26 -2l-116 116q-5 8 -9 15q-39 20 -80 20q-106 0 -180 -98.5t-74 -261.5q0 -141 51 -237q46 -22 99 -22
q123 0 219 86h9l39 -43l115 -116q-114 -145 -301 -145q-174 0 -284 110l-115 116q-128 128 -128 356q0 199 133 326t303 127q30 0 60 -3l-16 16zM512 838q123 0 216 -151l39 141q-108 50 -253 51q-162 0 -289 -121t-127 -312q0 -206 106.5 -326t284.5 -120q169 0 275 124
l-18 19q-97 -82 -222 -82q-127 0 -206.5 107.5t-79.5 288.5q0 170 78.5 275.5t195.5 105.5zM454 1049h80q68 105 189 242l-8 5q-132 -96 -207 -174l-15 -15l-14 16q-71 75 -203 173l-9 -6q114 -126 187 -241z" />
    <glyph glyph-name="Dcaron" unicode="&#x10e;" horiz-adv-x="1568" 
d="M301 1321q66 0 169 3t169 3q30 0 60 -2l-103 102q-5 6 -11 14q-35 30 -80 65l-116 116l33 41q123 -53 217 -125q117 82 219 125l116 -116l31 -41q-101 -77 -205 -194l1 -3q199 -46 343 -190l116 -116q96 -96 149.5 -222.5t53.5 -265.5q0 -145 -42.5 -259t-109.5 -183
t-158.5 -114t-179.5 -62t-181 -17q-114 0 -212.5 2t-162.5 2l-107 -6l-115 116l-2 6q20 138 20 410v501q0 264 -20 410l4 6q34 -6 104 -6zM1016 1026q-135 95 -339 95q-86 0 -129 -16t-43 -66v-950q40 -3 107 -3q119 0 206 20.5t163 71.5t116 152.5t40 251.5q0 273 -121 444
zM301 1300q-48 0 -86 4q18 -143 18 -393l1 -501q0 -255 -18 -393q38 3 85 3q65 0 163.5 -2t211.5 -2q92 0 177.5 16.5t173.5 60t153 110.5t106 177t41 251q0 279 -201.5 477.5t-486.5 198.5q-66 0 -169 -3.5t-169 -3.5zM369 168v987q0 63 51 82.5t141 19.5q164 0 285 -59
t186.5 -159.5t95 -214t29.5 -242.5q0 -154 -42 -259.5t-122 -159.5t-170 -75.5t-211 -21.5q-148 0 -195.5 20t-47.5 82zM606 1448h69q94 105 185 178l-9 12q-93 -41 -200 -117l-12 -8l-12 9q-87 66 -199 116l-10 -13q118 -92 188 -177z" />
    <glyph glyph-name="dcaron" unicode="&#x10f;" horiz-adv-x="1257" 
d="M1092 1430q46 0 78 -33l116 -116q45 -45 44 -117q0 -66 -55.5 -136t-153.5 -81l-99 100q-2 -67 -3 -139v-631q0 -206 35 -393l-116 116l-4 -6l116 -116q-40 6 -91 6q-22 0 -71 -6q-14 0 -17 3l-67 67q-93 -84 -213 -84q-138 0 -238 99l-116 116q-133 133 -133 357
q0 207 130.5 335t332.5 128q92 0 172 -45v133q0 293 -18 395l4 7q92 6 178 41q9 0 14 -5t5 -16l87 -87q-7 15 -8 38q0 27 24 48.5t67 21.5zM1119 1207l-82 81q-9 -116 -13 -181q72 29 95 100zM440 93q23 -7 47 -7q137 0 252 145v458q-34 12 -78 12q-43 0 -84 -14.5t-84 -51
t-69 -113.5t-26 -185q0 -150 42 -244zM744 114l-1 5h-4zM723 131l6 8h33l11 -124q45 6 70 5q35 0 71 -3q-31 185 -31 376v631q0 157 18 383q-75 -29 -157 -37q16 -108 16 -383v-168l-31 17q-30 17 -81 30t-81 13q-195 0 -318.5 -122t-123.5 -321q0 -186 98.5 -311
t251.5 -125q146 0 248 131zM760 224l-5 -5q-58 -73 -128 -113t-140 -40q-100 0 -162.5 100t-62.5 287q0 113 27.5 193.5t74 119.5t90.5 55.5t91 16.5q51 0 90 -16t67 -43t55 -70l3 -5v-480zM1092 1409q-35 0 -52.5 -15.5t-17.5 -33.5q0 -12 2 -20.5t8 -17.5t21.5 -14
t42.5 -5q23 0 36 -19.5t13 -44.5q0 -41 -29 -84t-80 -66q50 13 87.5 48.5t54 73t16.5 69.5q0 53 -28.5 91t-73.5 38z" />
    <glyph glyph-name="Dcroat" unicode="&#x110;" horiz-adv-x="1568" 
d="M301 1321q66 0 169 3t169 3q97 0 190 -25.5t171.5 -71.5t143.5 -111l116 -116q96 -96 149.5 -222.5t53.5 -265.5q0 -145 -42.5 -259t-109.5 -183t-158.5 -114t-179.5 -62t-181 -17q-114 0 -212.5 2t-162.5 2l-107 -6l-115 116l-2 6q20 138 20 410v62h-62l-116 116v82h178
v241q0 264 -20 410l4 6q34 -6 104 -6zM505 670h200l115 -116v-82h-315v-383q40 -3 107 -3q119 0 206 20.5t163 71.5t116 152.5t40 251.5q0 274 -121 444q-135 95 -339 95q-86 0 -129 -16t-43 -66v-369zM301 1300q-48 0 -86 4q18 -143 18 -393v-262h-178v-41h178l1 -198
q0 -255 -18 -393q38 3 85 3q65 0 163.5 -2t211.5 -2q92 0 177.5 16.5t173.5 60t153 110.5t106 177t41 251q0 279 -201.5 477.5t-486.5 198.5q-66 0 -169 -3.5t-169 -3.5zM369 168v440h315v41h-315v506q0 63 51 82.5t141 19.5q164 0 285 -59t186.5 -159.5t95 -214
t29.5 -242.5q0 -154 -42 -259.5t-122 -159.5t-170 -75.5t-211 -21.5q-148 0 -195.5 20t-47.5 82z" />
    <glyph glyph-name="dcroat" unicode="&#x111;" horiz-adv-x="1200" 
d="M1100 1171l116 -115l2 -80h-198q-1 -32 -1 -68v-631q0 -206 35 -393l-116 116l-4 -6l116 -116q-40 6 -91 6q-22 0 -71 -6q-14 0 -17 3l-67 67q-93 -84 -213 -84q-138 0 -238 99l-116 116q-133 133 -133 357q0 207 130.5 335t332.5 128q92 0 172 -45v122h-130l-115 116v79
h243q-4 139 -16 211l4 7q92 6 178 41q9 0 14 -5t5 -16l115 -116q-6 -77 -9 -122h72zM744 114l-1 5h-4zM440 93q23 -7 47 -7q137 0 252 145v458q-34 12 -78 12q-43 0 -84 -14.5t-84 -51t-69 -113.5t-26 -185q0 -150 42 -244zM760 224l-5 -5q-58 -73 -128 -113t-140 -40
q-100 0 -162.5 100t-62.5 287q0 113 27.5 193.5t74 119.5t90.5 55.5t91 16.5q51 0 90 -16t67 -43t55 -70l3 -5v-480zM1080 1151h-195l1 21q3 87 15 235q-75 -29 -157 -37q11 -73 14 -198v-21h-244v-39h245v-20q1 -50 1 -105v-168l-31 17q-30 17 -81 30t-81 13
q-195 0 -318.5 -122t-123.5 -321q0 -186 98.5 -311t251.5 -125q146 0 248 131l6 8h33l11 -124q45 6 70 5q35 0 71 -3q-31 185 -31 376v631v68l1 20h197z" />
    <glyph glyph-name="Emacron" unicode="&#x112;" horiz-adv-x="1216" 
d="M904 1385h-499q-11 0 -18 7l-116 116q-9 9 -9 24q0 18 14.5 38.5t30.5 20.5h502q12 0 20 -7l116 -116q8 -8 9 -21q0 -20 -15.5 -41t-34.5 -21zM505 753q138 2 341 19l6 -6l116 -116q-6 -28 -6 -65.5t6 -65.5l-116 116l-6 -6l116 -116q-202 20 -457 20v-239q0 -89 4 -178
q107 2 226 8t183 10l65 5l4 -8l116 -116q-4 -32 -4 -67q0 -7 4 -64l-116 116l-4 -6l116 -116q-50 6 -123 6h-559l-107 -6l-115 116l-2 6q20 138 20 410v501q0 264 -20 410l4 6q35 -6 104 -6h539q74 0 123 6l4 -6l116 -116q-4 -56 -5 -78q0 -20 4 -53l-115 116l-4 -8
l115 -116q-283 25 -557 24q-16 -56 -16 -294v-43zM369 410v260h20q236 0 440 -19q-3 25 -4 49q0 24 4 50q-219 -19 -440 -19h-20v180q0 242 17 301l4 15h16q250 0 538 -23q-2 22 -2 39t3 62q-48 -4 -105 -5h-539q-48 0 -86 4q18 -143 18 -393l1 -501q0 -255 -18 -393
q38 3 85 3h559q57 0 105 -4q-3 33 -2 47q0 24 2 54q-309 -23 -559 -23h-16l-4 15q-17 59 -17 301zM788 1522q8 0 18.5 14t10.5 27q0 8 -8 8h-502q-4 0 -14 -13.5t-10 -25.5q0 -10 6 -10h499z" />
    <glyph glyph-name="emacron" unicode="&#x113;" horiz-adv-x="1042" 
d="M826 986h-499l-116 116q-11 0 -18 7q-9 9 -9 24q0 18 14.5 38.5t30.5 20.5h502q12 0 20 -8l116 -116q8 -8 8.5 -20.5t-6 -26.5t-18.5 -24.5t-25 -10.5zM803 213l41 -51l116 -116q-60 -82 -154.5 -132t-202.5 -50q-192 0 -306 113l-116 116q-11 11 -19 22q-92 111 -92 313
q0 213 130 342t289 129q155 0 247 -92l116 -116q107 -107 108 -295q0 -35 -37 -35h-430q-4 -22 -5 -34l-34 34h-88q0 -157 35 -234q57 -27 121 -27q177 0 281 113zM642 695q-19 6 -37 6q-37 0 -72 -142h100q29 0 29 29q-1 59 -20 107zM375 141l-76 76q15 -23 34 -42t42 -34z
M801 182q-108 -102 -279 -102q-66 0 -132 29.5t-108 96.5q-52 83 -53 271v21h578q16 0 16 14q0 147 -79.5 257t-254.5 110q-152 0 -275.5 -123t-123.5 -328q0 -195 88 -300q106 -128 309 -128q98 0 185 44t146 117zM232 539l4 23q13 78 46 136.5t74 86.5t74.5 40.5
t58.5 12.5q72 0 132.5 -68t60.5 -182q0 -20 -13.5 -34.5t-35.5 -14.5h-401zM711 1122q7 0 17.5 14.5t10.5 26.5q0 8 -8 8h-502q-4 0 -14 -13t-10 -25q0 -10 6 -11h500z" />
    <glyph glyph-name="Ebreve" unicode="&#x114;" horiz-adv-x="1216" 
d="M852 1645l116 -116q-4 -49 -26 -90.5t-55.5 -70.5t-76.5 -47h30q74 0 123 6l4 -6l116 -116q-4 -56 -5 -78q0 -20 4 -53l-115 116l-4 -8l115 -116q-283 25 -557 24q-16 -56 -16 -294v-43q138 2 341 19l6 -6l116 -116q-6 -28 -6 -65.5t6 -65.5l-116 116l-6 -6l116 -116
q-202 20 -457 20v-239q0 -89 4 -178q107 2 226 8t183 10l65 5l4 -8l116 -116q-4 -32 -4 -67q0 -7 4 -64l-116 116l-4 -6l116 -116q-50 6 -123 6h-559l-107 -6l-115 116l-2 6q20 138 20 410v501q0 264 -20 410l4 6q35 -6 104 -6h262q-49 20 -85 56l-115 115q-61 61 -68 153
h57l106 -106q52 -19 115 -19q80 0 145.5 33.5t76.5 91.5h57zM369 410v260h20q236 0 440 -19q-3 25 -4 49q0 24 4 50q-219 -19 -440 -19h-20v180q0 242 17 301l4 15h16q250 0 538 -23q-2 22 -2 39t3 62q-48 -4 -105 -5h-539q-48 0 -86 4q18 -143 18 -393l1 -501
q0 -255 -18 -393q38 3 85 3h559q57 0 105 -4q-3 33 -2 47q0 24 2 54q-309 -23 -559 -23h-16l-4 15q-17 59 -17 301zM829 1624h-19q-13 -40 -51.5 -69t-86 -42.5t-99.5 -13.5q-84 0 -150 32t-86 93h-19q14 -87 84 -138.5t171 -51.5q93 0 166.5 51.5t89.5 138.5z" />
    <glyph glyph-name="ebreve" unicode="&#x115;" horiz-adv-x="1042" 
d="M246 1327l116 -116q6 -27 16 -50q42 -18 89 -18q82 0 144.5 49t76.5 135l55 -24l116 -116q-12 -85 -55.5 -149.5t-101 -96t-119.5 -31.5q-108 0 -182 74l-116 116q-73 73 -95 203zM803 213l41 -51l116 -116q-60 -82 -154.5 -132t-202.5 -50q-192 0 -306 113l-116 116
q-11 11 -19 22q-92 111 -92 313q0 213 130 342t289 129q155 0 247 -92l116 -116q107 -107 108 -295q0 -35 -37 -35h-430q-4 -22 -5 -34l-34 34h-88q0 -157 35 -234q57 -27 121 -27q177 0 281 113zM642 695q-19 6 -37 6q-37 0 -72 -142h100q29 0 29 29q-1 59 -20 107z
M375 141l-76 76q15 -23 34 -42t42 -34zM801 182q-108 -102 -279 -102q-66 0 -132 29.5t-108 96.5q-52 83 -53 271v21h578q16 0 16 14q0 147 -79.5 257t-254.5 110q-152 0 -275.5 -123t-123.5 -328q0 -195 88 -300q106 -128 309 -128q98 0 185 44t146 117zM232 539l4 23
q13 78 46 136.5t74 86.5t74.5 40.5t58.5 12.5q72 0 132.5 -68t60.5 -182q0 -20 -13.5 -34.5t-35.5 -14.5h-401zM232 1299l-19 -9q23 -117 90 -180t164 -63q40 0 80 15.5t75 45.5t61.5 77t37.5 105l-18 8q-22 -82 -87.5 -129t-148.5 -47t-146.5 48t-88.5 129z" />
    <glyph glyph-name="Edotaccent" unicode="&#x116;" horiz-adv-x="1216" 
d="M459 1599q0 43 31.5 75t74.5 32t75 -32l116 -116q32 -32 32 -74.5t-32 -74.5t-75 -32t-75 32l-116 116q-31 31 -31 74zM505 753q138 2 341 19l6 -6l116 -116q-6 -28 -6 -65.5t6 -65.5l-116 116l-6 -6l116 -116q-202 20 -457 20v-239q0 -89 4 -178q107 2 226 8t183 10
l65 5l4 -8l116 -116q-4 -32 -4 -67q0 -7 4 -64l-116 116l-4 -6l116 -116q-50 6 -123 6h-559l-107 -6l-115 116l-2 6q20 138 20 410v501q0 264 -20 410l4 6q35 -6 104 -6h539q74 0 123 6l4 -6l116 -116q-4 -56 -5 -78q0 -20 4 -53l-115 116l-4 -8l115 -116q-283 25 -557 24
q-16 -56 -16 -294v-43zM369 410v260h20q236 0 440 -19q-3 25 -4 49q0 24 4 50q-219 -19 -440 -19h-20v180q0 242 17 301l4 15h16q250 0 538 -23q-2 22 -2 39t3 62q-48 -4 -105 -5h-539q-48 0 -86 4q18 -143 18 -393l1 -501q0 -255 -18 -393q38 3 85 3h559q57 0 105 -4
q-3 33 -2 47q0 24 2 54q-309 -23 -559 -23h-16l-4 15q-17 59 -17 301zM479 1599.5q0 -34.5 25.5 -60.5t60.5 -26q34 0 60 26t26 60q0 22 -11.5 42.5t-31.5 32.5t-43 12q-35 0 -60.5 -26t-25.5 -60.5z" />
    <glyph glyph-name="edotaccent" unicode="&#x117;" horiz-adv-x="1042" 
d="M367 1223q0 27 14.5 51t38.5 38.5t51 14.5q41 0 73 -31l116 -116q31 -31 31 -73t-31.5 -73.5t-73 -31.5t-72.5 32l-116 116q-31 32 -31 73zM803 213l41 -51l116 -116q-60 -82 -154.5 -132t-202.5 -50q-192 0 -306 113l-116 116q-11 11 -19 22q-92 111 -92 313
q0 213 130 342t289 129q155 0 247 -92l116 -116q107 -107 108 -295q0 -35 -37 -35h-430q-4 -22 -5 -34l-34 34h-88q0 -157 35 -234q57 -27 121 -27q177 0 281 113zM642 695q-19 6 -37 6q-37 0 -72 -142h100q29 0 29 29q-1 59 -20 107zM375 141l-76 76q15 -23 34 -42t42 -34z
M801 182q-108 -102 -279 -102q-66 0 -132 29.5t-108 96.5q-52 83 -53 271v21h578q16 0 16 14q0 147 -79.5 257t-254.5 110q-152 0 -275.5 -123t-123.5 -328q0 -195 88 -300q106 -128 309 -128q98 0 185 44t146 117zM232 539l4 23q13 78 46 136.5t74 86.5t74.5 40.5
t58.5 12.5q72 0 132.5 -68t60.5 -182q0 -20 -13.5 -34.5t-35.5 -14.5h-401zM387 1223q0 -33 25.5 -58.5t58.5 -25.5t58.5 25.5t25.5 58t-25.5 58.5t-58.5 26q-21 0 -40.5 -12t-31.5 -31.5t-12 -40.5z" />
    <glyph glyph-name="Eogonek" unicode="&#x118;" horiz-adv-x="1216" 
d="M820 -575q-91 0 -143 53l-116 116q-47 47 -47 121q0 82 68 169h-165l-107 -6l-115 116l-2 6q20 138 20 410v501q0 264 -20 410l4 6q35 -6 104 -6h539q74 0 123 6l4 -6l116 -116q-4 -56 -5 -78q0 -20 4 -53l-115 116l-4 -8l115 -116q-283 25 -557 24q-16 -56 -16 -294v-43
q138 2 341 19l6 -6l116 -116q-6 -28 -6 -65.5t6 -65.5l-116 116l-6 -6l116 -116q-202 20 -457 20v-239q0 -89 4 -178q107 2 226 8t183 10l65 5l4 -8l116 -116q-4 -32 -4 -67q0 -7 4 -64l-116 116l-4 -6l116 -116q-36 4 -86 6q-109 -7 -184.5 -91t-75.5 -167v-5h3
q74 0 143 74l31 -17l116 -115q-34 -67 -99 -102.5t-127 -35.5zM705 -438q51 0 104.5 26t88.5 77q-67 -64 -142 -64q-61 0 -100.5 41t-39.5 100q0 34 13 71t38 72.5t58.5 64.5t78 48t92.5 22h2q36 -1 67 -4q-3 33 -2 47q0 24 2 54q-309 -23 -559 -23h-16l-4 15
q-17 58 -17 301v260h20q236 0 440 -19q-3 25 -4 49q0 24 4 50q-219 -19 -440 -19h-20v180q0 242 17 301l4 15h16q250 0 538 -23q-2 22 -2 39t3 62q-48 -4 -105 -5h-539q-48 0 -86 4q18 -143 18 -393l1 -501q0 -255 -18 -393q38 3 85 3h497l-69 -38q-87 -48 -140.5 -124
t-53.5 -143q0 -72 46.5 -112.5t123.5 -40.5z" />
    <glyph glyph-name="eogonek" unicode="&#x119;" horiz-adv-x="1042" 
d="M803 213l41 -51l116 -116q-33 -46 -80 -83l4 -3q-85 -83 -125 -139t-49 -119q40 16 76 54l7 -2l28 -35l116 -115q-42 -52 -96.5 -83.5t-106.5 -31.5q-77 0 -120 43l-116 116q-42 41 -41 112q0 58 30 116q-116 27 -190 101l-116 116q-11 11 -19 22q-92 111 -92 313
q0 213 130 342t289 129q155 0 247 -92l116 -116q107 -107 108 -295q0 -35 -37 -35h-430q-4 -22 -5 -34l-34 34h-88q0 -157 35 -234q57 -27 121 -27q177 0 281 113zM642 695q-19 6 -37 6q-37 0 -72 -142h100q29 0 29 29q-1 59 -20 107zM375 141l-76 76q15 -23 34 -42t42 -34z
M801 182q-108 -102 -279 -102q-66 0 -132 29.5t-108 96.5q-52 83 -53 271v21h578q16 0 16 14q0 147 -79.5 257t-254.5 110q-152 0 -275.5 -123t-123.5 -328q0 -195 88 -300q106 -128 309 -128q40 0 82 8l66 14l-48 -48q-110 -109 -110 -214q0 -63 37 -99t104 -36
q90 0 176 95l-7 8q-59 -54 -109 -54q-47 0 -77 33t-30 76q0 78 39.5 141.5t126.5 149.5l-6 4l20 17q37 30 67 66zM232 539l4 23q13 78 46 136.5t74 86.5t74.5 40.5t58.5 12.5q72 0 132.5 -68t60.5 -182q0 -20 -13.5 -34.5t-35.5 -14.5h-401z" />
    <glyph glyph-name="Ecaron" unicode="&#x11a;" horiz-adv-x="1216" 
d="M538 1441q-35 30 -80 65l-116 116l33 41q123 -53 217 -125q117 82 219 125l116 -116l31 -41q-98 -75 -197 -185h79q74 0 123 6l4 -6l116 -116q-4 -56 -5 -78q0 -20 4 -53l-115 116l-4 -8l115 -116q-283 25 -557 24q-16 -56 -16 -294v-43q138 2 341 19l6 -6l116 -116
q-6 -28 -6 -65.5t6 -65.5l-116 116l-6 -6l116 -116q-202 20 -457 20v-239q0 -89 4 -178q107 2 226 8t183 10l65 5l4 -8l116 -116q-4 -32 -4 -67q0 -7 4 -64l-116 116l-4 -6l116 -116q-50 6 -123 6h-559l-107 -6l-115 116l-2 6q20 138 20 410v501q0 264 -20 410l4 6
q35 -6 104 -6h354l-106 106q-5 7 -11 14zM369 410v260h20q236 0 440 -19q-3 25 -4 49q0 24 4 50q-219 -19 -440 -19h-20v180q0 242 17 301l4 15h16q250 0 538 -23q-2 22 -2 39t3 62q-48 -4 -105 -5h-539q-48 0 -86 4q18 -143 18 -393l1 -501q0 -255 -18 -393q38 3 85 3h559
q57 0 105 -4q-3 33 -2 47q0 24 2 54q-309 -23 -559 -23h-16l-4 15q-17 59 -17 301zM559 1448h69q94 105 185 178l-9 12q-93 -41 -200 -117l-13 -8l-12 9q-87 66 -198 116l-10 -13q118 -92 188 -177z" />
    <glyph glyph-name="ecaron" unicode="&#x11b;" horiz-adv-x="1042" 
d="M408 1026q-78 127 -207 266l41 27q130 -97 195 -162l22 -22q77 79 221 184l39 -27l116 -116q-138 -154 -209 -266l4 -35q61 -23 106 -68l116 -116q107 -107 108 -295q0 -35 -37 -35h-430q-4 -22 -5 -34l-34 34h-88q0 -157 35 -234q57 -27 121 -27q177 0 281 113l41 -51
l116 -116q-60 -82 -154.5 -132t-202.5 -50q-192 0 -306 113l-116 116q-11 11 -19 22q-92 111 -92 313q0 213 130 342t289 129q24 0 48 -2l-14 13zM642 695q-19 6 -37 6q-37 0 -72 -142h100q29 0 29 29q-1 59 -20 107zM375 141l-76 76q15 -23 34 -42t42 -34zM801 182
q-108 -102 -279 -102q-66 0 -132 29.5t-108 96.5q-52 83 -53 271v21h578q16 0 16 14q0 147 -79.5 257t-254.5 110q-152 0 -275.5 -123t-123.5 -328q0 -195 88 -300q106 -128 309 -128q98 0 185 44t146 117zM232 539l4 23q13 78 46 136.5t74 86.5t74.5 40.5t58.5 12.5
q72 0 132.5 -68t60.5 -182q0 -20 -13.5 -34.5t-35.5 -14.5h-401zM419 1047h80q68 105 189 242l-8 5q-132 -96 -207 -174l-14 -15l-15 16q-71 75 -203 173l-9 -6q114 -126 187 -241z" />
    <glyph glyph-name="Gcircumflex" unicode="&#x11c;" horiz-adv-x="1583" 
d="M788 1649q29 -35 64 -69q63 -63 143 -124l116 -116l-19 -25q52 -12 101 -26.5t72 -23.5l23 -10l4 -6l116 -116q-33 -139 -41 -247l-20 -2l-116 115q-13 22 -27 42q-131 94 -296 94q-210 0 -342.5 -158t-132.5 -423q0 -238 116 -403q113 -77 268 -77q219 0 301 78v88
q-6 283 -20 389l4 6q35 -6 104 -6l107 6l2 -6l116 -116q-20 -136 -21 -348l-116 116v-13l116 -116q0 -73 21 -98l-116 116v-6l116 -116q-220 -184 -545 -184q-285 0 -470 185l-116 116q-62 62 -105.5 139.5t-66 165t-22.5 179.5q0 260 146 435.5t367 235.5l-93 93l-28 43
q88 66 202 193h88zM1008 1332q-81 42 -147 92q-65 -47 -127 -82q44 5 87 6q90 0 187 -16zM1139 240v-97l-7 -6q-89 -83 -315 -84q-110 0 -200 38t-148 99.5t-98 143.5t-57 166t-17 170q0 272 138 437t358 165q135 0 250.5 -63t189.5 -175q8 88 36 207q-221 86 -448 86
q-176 0 -331.5 -75.5t-259 -234.5t-103.5 -368q0 -268 177 -458.5t466 -190.5q309 0 520 170q-17 36 -16 98v13q0 204 18 331q-38 -3 -86 -4q-48 0 -85 4q13 -101 18 -372zM779 1628h-70q-103 -112 -184 -176l9 -13q105 48 199 118l13 9l12 -10q84 -64 198 -117l11 13
q-111 85 -188 176z" />
    <glyph glyph-name="gcircumflex" unicode="&#x11d;" horiz-adv-x="1136" 
d="M522 1321l116 -116q68 -110 207 -264l-43 -29q-130 97 -196 162l-21 22q-90 -93 -219 -184l-116 116l-41 29q148 165 211 264h102zM915 476q0 -136 -88.5 -224.5t-251.5 -88.5q-98 0 -152 28q-53 -46 -60 -95h2q2 0 59 4q78 10 170 11q209 0 289 -68q8 -7 15 -14
l116 -116q70 -70 71 -189q0 -105 -84.5 -181.5t-206.5 -111t-260 -34.5q-200 0 -297 96l-115 115q-56 56 -56 138q0 63 47 135q39 30 137 84l-71 72q-48 48 -48 125q0 79 117 163l-56 57q-79 79 -79 206q0 143 107.5 227t240.5 84q69 0 125 -18q52 3 101.5 8.5t81 11
t70.5 11t70 8.5l6 -7l116 -115q-6 -27 -6 -53t6 -54l-116 116l-6 -6l116 -116q-191 19 -206 21l28 -29q68 -67 68 -201zM796 -116q-10 18 -24 32t-33 25zM813 -156q-50 16 -175 16q-10 0 -79 -3.5t-103 -3.5q-56 -30 -94.5 -81t-38.5 -101q0 -18 4 -35q78 -35 148 -35
q141 0 242.5 51t101.5 141q0 27 -6 51zM402 368q30 -8 67 -8q92 0 131 57.5t39 164.5q0 68 -16 117q-25 6 -55 6q-87 0 -133.5 -59.5t-46.5 -163.5q0 -67 14 -114zM659 582q0 -242 -190 -242q-217 0 -217 258q0 110 52 177t149 67q106 0 156 -70.5t50 -189.5zM778 592
q0 151 -94 213l-66 44l79 -7q34 -3 195 -19q-3 19 -3 37t3 37q-29 -3 -79.5 -11t-106 -15t-119.5 -10h-3l-4 1q-53 17 -119 17q-127 0 -227.5 -79t-100.5 -212q0 -161 135 -238l28 -17l-26 -18q-118 -81 -118 -153q0 -133 138 -157l56 -9l-49 -29q-11 -7 -48.5 -27
t-67.5 -38t-53 -35q-42 -66 -42 -121q0 -109 100.5 -161t231.5 -52q101 0 194.5 20.5t169 58t121 97t45.5 131.5q0 120 -79 187q-73 63 -275 63q-90 0 -167 -10h-2q-58 -4 -60 -4q-139 0 -140 117q0 71 69 130l10 9l13 -7q49 -26 142 -26q156 0 237.5 82t81.5 211zM186 -213
q0 57 42 112.5t102 87.5l5 3h5q33 0 101.5 3t80.5 3q88 0 136.5 -6.5t91.5 -31.5q90 -53 90 -165q0 -102 -109.5 -157.5t-255.5 -55.5q-45 0 -106.5 16.5t-122 66.5t-60.5 124zM511 1300h-80q-62 -96 -191 -240l10 -7q118 85 204 174l15 15l15 -16q71 -75 203 -173l11 8
q-122 136 -187 239z" />
    <glyph glyph-name="Gbreve" unicode="&#x11e;" horiz-adv-x="1583" 
d="M1040 1651l116 -116q-6 -70 -45.5 -122.5t-101.5 -80.5q72 -12 141.5 -31t103.5 -32l34 -14l4 -6l116 -116q-33 -139 -41 -247l-20 -2l-116 115q-13 22 -27 42q-131 94 -296 94q-210 0 -342.5 -158t-132.5 -423q0 -238 116 -403q113 -77 268 -77q219 0 301 78v88
q-6 283 -20 389l4 6q35 -6 104 -6l107 6l2 -6l116 -116q-20 -136 -21 -348l-116 116v-13l116 -116q0 -73 21 -98l-116 116v-6l116 -116q-220 -184 -545 -184q-285 0 -470 185l-116 116q-62 62 -105.5 139.5t-66 165t-22.5 179.5q0 148 51.5 273.5t138 211t196 138.5
t230.5 69q-31 17 -55 42l-116 115q-61 61 -68 153h58l105 -106q52 -19 116 -19q80 0 145.5 33.5t75.5 91.5h57zM1139 240v-97l-7 -6q-89 -83 -315 -84q-110 0 -200 38t-148 99.5t-98 143.5t-57 166t-17 170q0 272 138 437t358 165q135 0 250.5 -63t189.5 -175q8 88 36 207
q-221 86 -448 86q-176 0 -331.5 -75.5t-259 -234.5t-103.5 -368q0 -268 177 -458.5t466 -190.5q309 0 520 170q-17 36 -16 98v13q0 204 18 331q-38 -3 -86 -4q-48 0 -85 4q13 -101 18 -372zM1017 1630h-18q-13 -40 -51.5 -69t-86.5 -42.5t-99 -13.5q-84 0 -150 32t-87 93
h-19q14 -87 84.5 -138.5t171.5 -51.5q93 0 166 51.5t89 138.5z" />
    </font>
</defs>
</svg>
