<?xml version="1.0" standalone="no"?>
<!DOCTYPE svg PUBLIC "-//W3C//DTD SVG 1.1//EN" "http://www.w3.org/Graphics/SVG/1.1/DTD/svg11.dtd" >
<!--
2003-08-29: Created.
2004-07-25: v(1.0) release candidate
2005-12-28: v(1.1.0) stable
2006-01-01: v(2.0.0) stable
2006-09-05: v(2.2.0) stable
2006-12-04: v(2.3.0) stable
2007-03-11: v(2.4.0) stable
2007-12-00: v(2.7.0) stable
2008-06-00: v(2.8.14) stable

-->
<svg>
<metadata>
Created by FontForge 20120601 at Mon Jul  2 00:09:39 2012
 By Gillian Tiefenlicht
Linux Libertine by Philipp H. Poll,
Open Font under Terms of following Free Software Licenses:
GPL (General Public License) with font-exception and OFL (Open Font License).
Created with FontForge (http://fontforge.sf.net)
Sept 2003, 2004, 2005, 2006, 2007, 2008, 2009, 2010, 2011,2012
</metadata>
<defs>
<font id="LinBiolinumO" horiz-adv-x="0" >
  <font-face 
    font-family="Linux Biolinum O"
    font-weight="400"
    font-stretch="normal"
    units-per-em="1000"
    panose-1="2 0 5 3 0 0 0 0 0 0"
    ascent="754"
    descent="-246"
    x-height="432"
    cap-height="648"
    bbox="-1082 -268 6171 893"
    underline-thickness="40"
    underline-position="-98"
    stemh="44"
    stemv="80"
    unicode-range="U+0020-FFFD"
  />
<missing-glyph horiz-adv-x="500" 
d="M50 603v-508l170 254zM80 50h340l-170 254zM280 349l170 -254v508zM250 394l170 253h-340zM0 0v698h500v-698h-500z" />
    <glyph glyph-name="ellipsis" unicode="&#x2e;&#x2e;&#x2e;" horiz-adv-x="749" 
d="M54 44v4c9.2 26.5 23.8 41.8 54 54h4c29 -10.5 44.8 -25.8 54 -54v-4c-10.2 -32.2 -25.8 -47 -54 -54h-4c-31.2 7 -45.2 20.5 -54 54zM319 44v4c9.20001 26.5 23.8 41.8 54 54h4c29 -10.5 44.8 -25.8 54 -54v-4c-10.2 -32.2 -25.8 -47 -54 -54h-4
c-31.2 7 -45.2 20.5 -54 54zM583 44v4c9.20001 26.5 23.8 41.8 54 54h4c29 -10.5 44.8 -25.8 54 -54v-4c-10.2 -32.2 -25.8 -47 -54 -54h-4c-31.2 7 -45.2 20.5 -54 54z" />
    <glyph glyph-name="exclamdbl" unicode="&#x21;&#x21;" horiz-adv-x="411" 
d="M297 660c27 0 56 -23 56 -73c0 -65 -16 -107 -26 -193c-13 -108 -14 -168 -16 -182c-1 -11 -4 -20 -14 -20c-11 0 -13 7 -14 13c-2 21 -7 111 -15 189c-9 88 -25 123 -25 193c0 54 32 73 54 73zM241 46v4c9.2 26.5 23.8 41.8 54 54h4c29 -10.5 44.8 -25.8 54 -54v-4
c-10.2 -32.2 -25.8 -47 -54 -54h-4c-31.2 7 -45.2 20.5 -54 54zM113 658c27 0 56 -23 56 -73c0 -65 -16 -107 -26 -193c-13 -108 -14 -168 -16 -182c-1 -11 -4 -20 -14 -20c-11 0 -13 7 -14 13c-2 21 -7 111 -15 189c-9 88 -25 123 -25 193c0 54 32 73 54 73zM57 44v4
c9.2 26.5 23.8 41.8 54 54h4c29 -10.5 44.8 -25.8 54 -54v-4c-10.2 -32.2 -25.8 -47 -54 -54h-4c-31.2 7 -45.2 20.5 -54 54z" />
    <glyph glyph-name="question_question" unicode="&#x3f;&#x3f;" horiz-adv-x="781" 
d="M571 619c-56 0 -97 -49 -123 -94l-13 1l-16 67l3 4c24.5 20.5 85.5 62 158 62c102 0 165 -60 165 -151c0 -79 -59 -123 -106 -157c-23 -17 -43 -33 -52 -50c-13 -25 -18 -49 -18 -73v-44c0 -7 -5 -10 -13 -10s-13 3 -13 10v46c0 43 2 102 67 161c40 37 60 66 60 113
c0 65 -42 115 -99 115zM500 44v4c9.20001 26.5 23.8 41.8 54 54h4c29 -10.5 44.8 -25.8 54 -54v-4c-10.2 -32.2 -25.8 -47 -54 -54h-4c-31.2 7 -45.2 20.5 -54 54zM195 619c-56 0 -97 -49 -123 -94l-13 1l-16 67l3 4c24.5 20.5 85.5 62 158 62c102 0 165 -60 165 -151
c0 -79 -59 -123 -106 -157c-23 -17 -43 -33 -52 -50c-13 -25 -18 -49 -18 -73v-44c0 -7 -5 -10 -13 -10s-13 3 -13 10v46c0 43 2 102 67 161c40 37 60 66 60 113c0 65 -42 115 -99 115zM124 44v4c9.2 26.5 23.8 41.8 54 54h4c29 -10.5 44.8 -25.8 54 -54v-4
c-10.2 -32.2 -25.8 -47 -54 -54h-4c-31.2 7 -45.2 20.5 -54 54z" />
    <glyph glyph-name="question_exclam" unicode="&#x3f;&#x21;" horiz-adv-x="594" 
d="M480 660c27 0 56 -23 56 -73c0 -65 -16 -107 -26 -193c-13 -108 -14 -168 -16 -182c-1 -11 -4 -20 -14 -20c-11 0 -13 7 -14 13c-2 21 -7 111 -15 189c-9 88 -25 123 -25 193c0 54 32 73 54 73zM424 46v4c9.20001 26.5 23.8 41.8 54 54h4c29 -10.5 44.8 -25.8 54 -54v-4
c-10.2 -32.2 -25.8 -47 -54 -54h-4c-31.2 7 -45.2 20.5 -54 54zM195 619c-56 0 -97 -49 -123 -94l-13 1l-16 67l3 4c24.5 20.5 85.5 62 158 62c102 0 165 -60 165 -151c0 -79 -59 -123 -106 -157c-23 -17 -43 -33 -52 -50c-13 -25 -18 -49 -18 -73v-44c0 -7 -5 -10 -13 -10
s-13 3 -13 10v46c0 43 2 102 67 161c40 37 60 66 60 113c0 65 -42 115 -99 115zM124 44v4c9.2 26.5 23.8 41.8 54 54h4c29 -10.5 44.8 -25.8 54 -54v-4c-10.2 -32.2 -25.8 -47 -54 -54h-4c-31.2 7 -45.2 20.5 -54 54z" />
    <glyph glyph-name="exclam_question" unicode="&#x21;&#x3f;" horiz-adv-x="587" 
d="M113 658c27 0 56 -23 56 -73c0 -65 -16 -107 -26 -193c-13 -108 -14 -168 -16 -182c-1 -11 -4 -20 -14 -20c-11 0 -13 7 -14 13c-2 21 -7 111 -15 189c-9 88 -25 123 -25 193c0 54 32 73 54 73zM57 44v4c9.2 26.5 23.8 41.8 54 54h4c29 -10.5 44.8 -25.8 54 -54v-4
c-10.2 -32.2 -25.8 -47 -54 -54h-4c-31.2 7 -45.2 20.5 -54 54zM377 617c-56 0 -97 -49 -123 -94l-13 1l-16 67l3 4c24.5 20.5 85.5 62 158 62c102 0 165 -60 165 -151c0 -79 -59 -123 -106 -157c-23 -17 -43 -33 -52 -50c-13 -25 -18 -49 -18 -73v-44c0 -7 -5 -10 -13 -10
s-13 3 -13 10v46c0 43 2 102 67 161c40 37 60 66 60 113c0 65 -42 115 -99 115zM306 42v4c9.20001 26.5 23.8 41.8 54 54h4c29 -10.5 44.8 -25.8 54 -54v-4c-10.2 -32.2 -25.8 -47 -54 -54h-4c-31.2 7 -45.2 20.5 -54 54z" />
    <glyph glyph-name="centigrade" unicode="&#xb0;C" horiz-adv-x="794" 
d="M529 610c107 0 191 -40 191 -40l2 -2c-9.5 -31.5 -14.5 -59.5 -18 -100l-9 -1c-37 72 -100 100 -179 100c-72 0 -183 -73 -183 -254c0 -138 55 -276 191 -276c82 0 131 19 193 88l21 -15c-60 -78 -128 -120 -213 -120c-189 0 -287 150 -287 307c0 188 142 313 291 313z
M210 557c0 33 -21 73 -66 73c-43 0 -67 -37 -67 -73c0 -35 25 -70 67 -70c41 0 66 36 66 70zM44 558c0 56 45 100 100 100s99 -44 99 -100c0 -55 -44 -99 -99 -99s-100 44 -100 99z" />
    <glyph glyph-name="fahrenheit" unicode="&#xb0;F" horiz-adv-x="723" 
d="M626 600c21 0 42 0 56 2l1 -2c-1 -13 -1 -23 -1 -30c0 -8 0 -15 1 -23l-1 -3s-132 11 -249 11c-6 -22 -7 -116 -7 -131v-85c103 0 154 4 206 9l2 -3c-2 -8 -2 -17 -2 -25c0 -7 0 -18 2 -26l-2 -3c-61 6 -164 9 -206 9v-124c0 -66 1 -126 8 -176l-1 -3s-17 3 -47 3
c-31 0 -48 -3 -48 -3l-1 3c7 47 9 110 9 176v248c0 66 -2 125 -9 176l2 2s17 -2 47 -2h240zM210 557c0 33 -21 73 -66 73c-43 0 -67 -37 -67 -73c0 -35 25 -70 67 -70c41 0 66 36 66 70zM44 558c0 56 45 100 100 100s99 -44 99 -100c0 -55 -44 -99 -99 -99s-100 44 -100 99z
" />
    <glyph glyph-name="f_f" unicode="ff" horiz-adv-x="592" 
d="M99 385h-1c-23 0 -56 -0.700012 -74 -2l-5 7c9.7 15 15.3 24.7 22 41c13.2 -1.79999 36.3 -2 58 -2v30c0 78 19 104 55 153s91 76 154 76c19 0 37 -4 45 -9l1 -3c-11 -19 -21 -55 -28 -82l-11 -1c-11 20 -29 35 -58 35c-57.3 0 -83 -47.8 -83 -103c0 -18 5 -60.5 5 -86
v-10h198v50c0 78 19 104 55 153s91 76 154 76c19 0 37 -4 45 -9l1 -3c-11 -19 -21 -55 -28 -82l-11 -1c-11 20 -29 35 -58 35c-57.3 0 -83 -47.8 -83 -103c0 -18 5 -80.5 5 -106v-10h43c23 0 53.2 1.20001 70 2l5 -7c-6 -14.7 -9 -25 -12 -41c-13.3 1.29999 -48 2 -72 2h-34
v-185c0 -75.2 1.5 -143 10 -200l-2 -3s-13.7 3 -48 3c-35 0 -49 -3 -49 -3l-1 3c8.5 53.5 10 125.5 10 200v185h-198v-185c0 -75.2 1.5 -143 10 -200l-2 -3s-13.7 3 -48 3c-35 0 -49 -3 -49 -3l-1 3c8.5 53.5 10 125.5 10 200v185z" />
    <glyph glyph-name="f_t" unicode="ft" horiz-adv-x="636" 
d="M99 385h-1c-23 0 -56 -0.700012 -74 -2l-5 7c9.7 15 15.3 24.7 22 41c13.2 -1.79999 36.3 -2 58 -2v40c0 78 19 104 55 153s91 76 154 76c19 0 37 -4 45 -9l1 -3c-11 -19 -21 -55 -28 -82l-11 -1c-11 20 -29 35 -58 35c-57.3 0 -83 -47.8 -83 -103c0 -18 5 -70.5 5 -96
v-10h212c0 58 0 79 -7 121l2 3c40.5 3 55.9 15 81 25c6.29999 0 9 -2.70001 9 -10c-4.5 -58 -5 -64.2 -5 -139h47c23 0 56 1 70 2l5 -7c-6 -14.7 -9 -25 -12 -41c-13.3 1.29999 -48 2 -72 2h-38v-143c0 -60 -3 -103 -3 -133c0 -41 6 -65 33 -65c26 0 52 2.4 78.7 17.7
l12.3 -24.7c-38.7 -36 -84 -47 -126 -47c-46 0 -78 32 -78 79c0 30 3 102 3 162v154h-212v-185c0 -75.2 1.5 -143 10 -200l-2 -3s-13.7 3 -48 3c-35 0 -49 -3 -49 -3l-1 3c8.5 53.5 10 125.5 10 200v185z" />
    <glyph glyph-name="Q_u" unicode="Qu" horiz-adv-x="1247" 
d="M355 614c-96 0 -200 -77 -200 -287c0 -192 114 -293 234 -293c114 0 197 97 197 276c0 208 -90 304 -231 304zM1091 92c-33 -51 -89 -102 -151 -102c-99 0 -131 70 -131 139v120c0 76 -1 123 -9 180l2 3c12 -2 35 -3 47 -3s35 1 47 3l2 -3c-8 -53 -9 -105 -9 -180v-99
c0 -93 32.5 -104 67 -104c49 0 106.5 53.5 137 105v98c0 76 -1.19995 122.8 -9 180l2 3c12 -2 35 -3 47 -3s35 1 47 3l2 -3c-8 -53 -9 -105 -9 -180v-57c0 -75 9 -149 17 -192l-2 -3c-13 2 -31.9 3 -44.5 3c-14.5 0 -26.2 -1.3 -39.5 -3c-2.80005 0 -4 1 -4 3l-5 89z
M534.7 32.2c88.1 -56.5 248.5 -126 430.3 -149.2v-6c-36 -19 -75 -42 -94 -57c-177.8 49.4 -292.3 99.8 -418.8 179.5c-26.1 -6.3 -53.9 -9.5 -83.2 -9.5c-172 0 -317 123 -317 320c0 196 137 348 316 348c180 0 321 -131 321 -329c0 -134.4 -58.2 -241.1 -154.3 -296.8z
" />
    <glyph glyph-name="t_t" unicode="tt" horiz-adv-x="602" 
d="M387 385h-212v-143c0 -60 -3 -100 -3 -130c0 -41 6 -62 33 -62c26 0 42 2.4 68.7 17.7l12.3 -27.7c-38.7 -36 -74 -50 -116 -50c-46 0 -78 32 -78 79c0 30 3 102 3 162v154c-22.8 -0.100006 -53.8 -0.700012 -71 -2l-5 7c9.7 15 15.3 24.7 22 41
c12.4 -1.60001 33.5 -1.89999 54 -2c0 58 4 89.5 4 128l2 3c32.5 4.5 44.9 15 70 25c6.3 0 9 -2.70001 9 -10c-4.5 -58 -5 -71.2 -5 -146h212c0 58 4 89.5 4 128l2 3c32.5 4.5 44.9 15 70 25c6.29999 0 9 -2.70001 9 -10c-4.5 -58 -5 -71.2 -5 -146h47c23 0 56 1 70 2l5 -7
c-6 -14.7 -9 -25 -12 -41c-13.3 1.29999 -48 2 -72 2h-38v-126c0 -60 -3 -103 -3 -133c0 -54.1 9.29999 -78.2 33 -82c25 -4 48 -3 78.7 7.7l12.3 -24.7c-42 -27 -74 -37 -116 -37c-46 0 -88 31 -88 96c0 30 3 102 3 162v137z" />
    <glyph glyph-name="exclam" unicode="!" horiz-adv-x="228" 
d="M113 658c27 0 56 -23 56 -73c0 -65 -16 -107 -26 -193c-13 -108 -14 -168 -16 -182c-1 -11 -4 -20 -14 -20c-11 0 -13 7 -14 13c-2 21 -7 111 -15 189c-9 88 -25 123 -25 193c0 54 32 73 54 73zM57 44v4c9.2 26.5 23.8 41.8 54 54h4c29 -10.5 44.8 -25.8 54 -54v-4
c-10.2 -32.2 -25.8 -47 -54 -54h-4c-31.2 7 -45.2 20.5 -54 54z" />
    <glyph glyph-name="quotedbl" unicode="&#x22;" horiz-adv-x="336" 
d="M215 427c0 0 -26 159 -26 168c0 22 21 50 51 50c26 0 35 -17 35 -33s-33 -181 -33 -181zM89 426c0 0 -26 159 -26 168c0 22 21 50 51 50c26 0 35 -17 35 -33s-33 -181 -33 -181z" />
    <glyph glyph-name="numbersign" unicode="#" horiz-adv-x="470" 
d="M285 247l18 117h-117l-19 -117h118zM339 364l-20 -117h97l-8 -52h-95l-30 -181h-35l28 181h-117l-30 -181h-35l29 181h-96l7 52h97l19 117h-97l9 53h96l29 181h36l-30 -181h119l28 181h35l-29 -181h97l-8 -53h-96z" />
    <glyph glyph-name="dollar" unicode="$" horiz-adv-x="465" 
d="M214 365.3l11.4 206.7h-1.39999c-61 0 -99 -42 -99 -98c0 -58.1 48.5 -90.1 89 -108.7zM245.1 264l-12.7 -232.5c58 4.6 110.6 39.7 110.6 108.5c0 77 -45.9 102.9 -97.9 124zM230.1 -9.2l-4.60001 -84c-7.3 -4.2 -26.9 -5.10001 -36.9 -5.10001l4.79999 88.6
c-101.7 3.9 -150.4 42.7 -150.4 42.7l-2 3c7 28 15 58 19 91l9 1c23.8 -50.3 70.1 -87.3 126.7 -95.4l13.5 245.9c-76.3 32.3 -152.2 78 -152.2 171.5c0 95.8 90.7 157.1 170.4 159.9l4.40001 79.6c9.2 3.5 24.2 5 37 5l-4.79999 -85.6c89 -6.70001 120 -40.9 120 -40.9
l2 -3c-9 -28 -15 -55 -18 -88l-10 -1c-20.7 45.4 -50.9 79.3 -96.2 91.3l-11.9 -216.6c77.8 -28 172.1 -71.1 172.1 -177.7c0 -47.4 -20.4 -98.1 -60 -132c-34.8 -29.8 -84.5 -46.5 -131.9 -50.2z" />
    <glyph glyph-name="percent" unicode="%" horiz-adv-x="680" 
d="M462 89c0 -56 28 -71 48 -71c59 0 97 97 97 157c0 56 -33 65 -48 65c-52 0 -97 -89 -97 -151zM406 105c0 80 62 168 141 168c43 0 92 -19 92 -97c0 -72 -47 -189 -136 -189c-65 0 -97 61 -97 118zM389 557c45 0 127 12 160 57l34 -17l-438 -610l-36 16l383 534
c-41 -16 -82 -20 -114 -20c-25 0 -65 10 -85 22c2 -7 3 -16 3 -26c0 -68 -47 -189 -137 -189c-66 0 -96 62 -96 116c0 82 63 170 140 170c30 0 61 -14 72 -27c58 -27 95 -26 114 -26zM118 425c0 -56 29 -70 48 -70c59 0 97 95 97 157c0 53 -29 65 -48 65
c-52 0 -97 -90 -97 -152z" />
    <glyph glyph-name="parenleft" unicode="(" horiz-adv-x="300" 
d="M44 252c0 186 93 353 212 455l23 -18c-32 -36 -152 -174 -152 -437s119 -401 152 -439l-23 -17c-208 180 -212 411 -212 456z" />
    <glyph glyph-name="parenright" unicode=")" horiz-adv-x="300" 
d="M256 252c0 -186 -93 -353 -212 -455l-23 18c32 36 152 174 152 437s-119 401 -152 439l23 17c208 -180 212 -411 212 -456z" />
    <glyph glyph-name="asterisk" unicode="*" horiz-adv-x="433" 
d="M198 567c-13 3 -27 4 -42 4c-49 0 -81 7 -81 37c0 14 9 30 33 30c34 0 52 -33 96 -51c-4 39 -23 66 -23 92c0 21 12 39 30 39s33 -11 33 -35c0 -27 -17 -67 -19 -97c46 20 62 52 95 52c27 0 34 -20 34 -30c0 -30 -35 -37 -69 -37c-19 0 -37 -1 -55 -4
c34 -37 83 -47 83 -87c0 -18 -15 -29 -29 -29c-39 0 -46 65 -71 104c-25 -45 -32 -104 -70 -104c-17 0 -29 13 -29 28c0 43 51 51 84 88z" />
    <glyph glyph-name="plus" unicode="+" horiz-adv-x="527" 
d="M289 257h172v-49h-172v-174h-51v174h-172v49h172v174h51v-174z" />
    <glyph glyph-name="slash" unicode="/" horiz-adv-x="323" 
d="M293 646l-237 -705h-41l237 705h41z" />
    <glyph glyph-name="one" unicode="1" horiz-adv-x="465" 
d="M326 189c0 -79 2 -129 9 -189l-2 -3s-28 3 -48 3c-18 0 -46 -3 -46 -3l-1 3c7 57 8 111 8 189v248c0 36 0 76 -18 76c-20 0 -69 -11 -114 -16l-6 29c78 24 154 63 219 84c4 0 7 0 7 -5c-2 -14 -8 -54 -8 -162v-254z" />
    <glyph glyph-name="two" unicode="2" horiz-adv-x="465" 
d="M222 553c-28 0 -57 -7 -77 -23c-25.4 -20.3 -30.3 -41 -44.1 -71l-13.1 1l-21.7 69c22.8 30 81.2 81 172.2 81c111.6 0 175.4 -66.4 175.4 -161.5c0 -56.6 -35.7 -120.8 -72.6 -170.5c-66.1 -89 -113.1 -134 -161.7 -181c-7.39999 -7.1 -17.7 -17.7 -17.7 -27
c0 -2 0.400009 -3.4 1.2 -5c27.4 2 46.6 2 81.7 2c96 0 126.6 3 182.9 8c-3.70001 -15.2 -4.89999 -30.8 -4.89999 -47c0 -10.9 1.60001 -22.6 3.10001 -33c-71.4 3 -101.7 5 -173.7 5c-73 0 -115.5 -3 -189.3 -5c-5.2 8.6 -10.1 24.3 -10.1 39.4
c0 4.6 0.600002 8.9 1.8 12.6c49.1 46.7 163.6 147 235.3 254c26.1 39 38.1 92.2 38.1 133.9c0 70.1 -53.4 118.1 -105.8 118.1z" />
    <glyph glyph-name="three" unicode="3" horiz-adv-x="465" 
d="M209 29c36 0 131 22 131 143c0 39 -13 74 -39 96c-28 23 -66 32 -98 32c-9 0 -30 0 -42 -2v44c14 -2 25 -3 37 -3c34 0 63 9 83 28c23 22 38 54 38 98c0 65 -44 106 -83 106c-60 0 -92 -29 -116 -85l-15 1l-21 64l3 3c25 22 81 56 158 56c99 0 161 -58 161 -130
c0 -83 -66 -141 -118 -153v-5c77 -7 138 -63 138 -142c0 -132 -134 -190 -219 -190c-80 0 -123 26 -149 48l-3 3l22 75l15 1c27 -58 38 -88 117 -88z" />
    <glyph glyph-name="four" unicode="4" horiz-adv-x="465" 
d="M286 148h-206c-36 0 -59 5 -59 20c0 10 3 21 13 39c52 89 196 309 257 393c0 1 4 4 4 4s18 -4 34 -4c15 0 30 4 39 4c1 0 2 -2 2 -4c-5 -46 -6 -115 -6 -148v-254h64c10 0 15 -7 15 -16c0 -11 -15 -34 -29 -34h-50c0 -58 2 -90 6 -148c0 -1 -1 -3 -2 -3c-9 0 -26 3 -42 3
s-47 -3 -47 -3l-1 3c6 51 8 71 8 148zM286 512l-203 -314h203v314z" />
    <glyph glyph-name="five" unicode="5" horiz-adv-x="465" 
d="M202 -10c-76 0 -126 34 -151 56l-4 3l22 80l14 1c33 -60 46 -100 121 -100c68 0 114 57 114 149c0 109 -50 161 -115 161c-46.6 0 -84.1 -15 -124 -31l-7 2.5l32 294.5c34 -3 77 -6 114 -6c53 0 107 3 164 10l7 -3l-16 -68c-41 -5 -75 -6 -105 -6c-47 0 -90 4 -127 9
l-21 -177c22 8 68 15 109 15c112 0 177 -87 177 -184c0 -118 -85 -206 -204 -206z" />
    <glyph glyph-name="six" unicode="6" horiz-adv-x="465" 
d="M127 277c-1 -10 -1 -27 -1 -37c0 -178 76 -213 129 -213c48 0 89 36 89 146c0 49 -15 145 -116 145c-22 0 -62 -1 -101 -41zM400 583c-69 -7 -125 -25 -176 -74c-48 -47 -84 -118 -95 -203c24 30 80 52 120 52c156 0 183 -130 183 -178c0 -72 -42 -189 -188 -189
c-77 0 -198 42 -198 252c0 97 34 192 107 265c68 69 141 97 244 103z" />
    <glyph glyph-name="seven" unicode="7" horiz-adv-x="465" 
d="M345 525c-65.5 2 -209 1.5 -282 -9c2 15 5 34 5 49s-3 27 -5 42c43 -6 131 -7 280 -7c31 0 49 5 64 10l17 -10c-112 -273 -167 -439 -224 -609l-73 -4l-3 6c67 150 143 339 221 532z" />
    <glyph glyph-name="nine" unicode="9" horiz-adv-x="465" 
d="M333 323c1 10 1 27 1 37c0 178 -76 213 -129 213c-48 0 -89 -36 -89 -146c0 -49 15 -145 116 -145c22 0 62 1 101 41zM60 17c69 7 125 25 176 74c48 47 84 118 95 203c-24 -30 -80 -52 -120 -52c-156 0 -183 130 -183 178c0 72 42 189 188 189c77 0 198 -42 198 -252
c0 -97 -34 -192 -107 -265c-68 -69 -141 -97 -244 -103z" />
    <glyph glyph-name="colon" unicode=":" horiz-adv-x="220" 
d="M61 356v4c9.2 26.5 23.8 41.8 54 54h4c29 -10.5 44.8 -25.8 54 -54v-4c-10.2 -32.2 -25.8 -47 -54 -54h-4c-31.2 7 -45.2 20.5 -54 54zM61 93v4c9.2 26.5 23.8 41.8 54 54h4c29 -10.5 44.8 -25.8 54 -54v-4c-10.2 -32.2 -25.8 -47 -54 -54h-4c-31.2 7 -45.2 20.5 -54 54z
" />
    <glyph glyph-name="less" unicode="&#x3c;" horiz-adv-x="487" 
d="M122 239l317 -116v-50l-390 142v48l390 141v-50z" />
    <glyph glyph-name="equal" unicode="=" horiz-adv-x="527" 
d="M461 318v-49h-395v49h395zM461 193v-49h-395v49h395z" />
    <glyph glyph-name="greater" unicode="&#x3e;" horiz-adv-x="487" 
d="M366 236l-317 116v50l390 -142v-48l-390 -141v50z" />
    <glyph glyph-name="question" unicode="?" horiz-adv-x="405" 
d="M195 619c-56 0 -97 -49 -123 -94l-13 1l-16 67l3 4c24.5 20.5 85.5 62 158 62c102 0 165 -60 165 -151c0 -79 -59 -123 -106 -157c-23 -17 -43 -33 -52 -50c-13 -25 -18 -49 -18 -73v-44c0 -7 -5 -10 -13 -10s-13 3 -13 10v46c0 43 2 102 67 161c40 37 60 66 60 113
c0 65 -42 115 -99 115zM124 44v4c9.2 26.5 23.8 41.8 54 54h4c29 -10.5 44.8 -25.8 54 -54v-4c-10.2 -32.2 -25.8 -47 -54 -54h-4c-31.2 7 -45.2 20.5 -54 54z" />
    <glyph glyph-name="at" unicode="@" horiz-adv-x="895" 
d="M569 316c0 38 -29 63 -65 63c-17 0 -60 -9 -90 -40c-51 -51 -68 -115 -68 -177c0 -48 15 -92 78 -92c35 0 84 57 115 130c13 31 30 82 30 116zM583 74c0 -10 9 -12 11 -12c102 0 166 47 166 213c0 206 -176 306 -301 306c-152 0 -320 -103 -320 -340
c0 -150 76 -366 334 -366c85 0 147 23 201 66l13 -18c-60 -46 -120 -81 -233 -81c-239 0 -395 168 -395 381c0 215 185 388 410 388c215 0 370 -142 370 -329c0 -114 -70 -255 -288 -255c-29 0 -36 25 -36 41c0 15 7 38 15 63l-2 1c-44 -74 -98 -103 -133 -103
c-100 0 -122 84 -122 124c0 143 127 257 233 257c33 0 67 -17 77 -43l5 24l53 13l15 -5l-60 -258c-6 -27 -13 -60.5 -13 -67z" />
    <glyph glyph-name="A" unicode="A" horiz-adv-x="629" 
d="M407.3 275.5c-26.9 69.7 -60.2 151.9 -101.3 246.3h-2l-105.4 -245.9c22 -1.19998 75.5 -2.89999 104.4 -2.89999c29.7 0 71.3 1 104.3 2.5zM179 228.3c-35.7 -87.5 -66.6 -170 -83 -231.3c-12 3 -34 3 -45 3s-23 0 -35 -3c101 221 199 439 295 661h28
c92 -219 224 -560 274 -661c-17 3 -43 3 -60 3s-33 0 -50 -3c-6.10001 22.2 -28.7 100.2 -77.7 231.3c-24.3 1.7 -79.3 2.7 -117.3 2.7c-34.5 0 -104 -1 -129 -2.7z" />
    <glyph glyph-name="B" unicode="B" horiz-adv-x="616" 
d="M190 559v-188h78c83 0 140 25 140 110c0 102 -71 124 -127 124c-81 0 -91 -12.7 -91 -46zM190 328v-240c0 -33 27 -48 97 -48c144.2 0 168 55.9 168 125c0 90 -55 163 -172 163h-93zM147 645c50 0 92 3 127 3c186 0 221 -88 221 -155c0 -55 -42 -108 -93 -133
c87 -25 152 -80 152 -176c0 -86 -49 -187 -248 -187c-89 0 -97 3 -159 3c-35 0 -52 -3 -52 -3l-1 3c8 54 10 125 10 200v245c0 75 -2 143 -10 200l2 3s17 -3 51 -3z" />
    <glyph glyph-name="C" unicode="C" horiz-adv-x="677" 
d="M380 658c122 0 218 -50 218 -50l2 -3c-11 -42.5 -14.4 -60 -18 -111l-12 -1c-41 82 -114 118 -204 118c-82 0 -211 -74 -211 -277c0 -156 93.2 -293 220 -293c93 0 153 26 224 104l7 -3c3.5 -9 5.5 -31 6.09998 -42.5c-66.8 -80.8 -153.7 -109.5 -246.1 -109.5
c-215 0 -314 152 -314 325c0 197 159 343 328 343z" />
    <glyph glyph-name="D" unicode="D" horiz-adv-x="710" 
d="M190 82c0 -32 11 -40 109 -40c141 0 256 40 256 242c0 154 -65 320 -281 320c-49 0 -84 -5 -84 -40v-482zM147 645c64 0 101 3 165 3c192 0 346 -154 346 -340c0 -246 -187 -310 -328 -310c-103 0 -112 2 -183 2c-35 0 -52 -3 -52 -3l-1 3c8 54 10 125 10 200v245
c0 75 -2 143 -10 200l2 3s17 -3 51 -3z" />
    <glyph glyph-name="E" unicode="E" horiz-adv-x="538" 
d="M190 200c0 -17 1 -120 8 -144c134 0 282 12 282 12l2 -4c-1 -8 -2 -23 -2 -33s1 -17 2 -31l-2 -3c-16 2 -39 3 -60 3h-273c-35 0 -52 -3 -52 -3l-1 3c8 54 10 125 10 200v245c0 75 -2 143 -10 200l2 3s17 -3 51 -3h263c21 0 44 1 60 3l2 -3c-1 -14 -2 -30 -2 -38
c0 -9 1 -18 2 -26l-2 -4s-138 12 -272 12c-7 -24 -8 -127 -8 -144v-78c118 0 164 5 223 10l3 -3c-2 -9 -3 -23 -3 -32s1 -23 3 -32l-3 -3c-69 7 -175 10 -223 10v-117z" />
    <glyph glyph-name="F" unicode="F" horiz-adv-x="504" 
d="M407 645c24 0 47 1 63 3l2 -3c-1 -14 -2 -26 -2 -34c0 -9 1 -22 2 -30l-2 -4s-138 12 -272 12c-7 -24 -8 -127 -8 -144v-78c118 0 164 5 223 10l3 -3c-2 -9 -3 -23 -3 -32s1 -23 3 -32l-3 -3c-69 7 -175 10 -223 10v-117c0 -75 2 -143 10 -200l-2 -3s-17 3 -51 3
c-35 0 -52 -3 -52 -3l-1 3c8 54 10 125 10 200v245c0 75 -2 143 -10 200l2 3s17 -3 51 -3h260z" />
    <glyph glyph-name="G" unicode="G" horiz-adv-x="717" 
d="M546 117c0 75 -2 133 -10 190l2 3s17 -3 51 -3c35 0 52 3 52 3l1 -3c-8 -53 -10 -95 -10 -170v-6c0 -11 1.29999 -37.3 10 -48v-3c-67.5 -56.6 -149.5 -90 -266 -90c-201 0 -324 154 -324 327c0 220 177 341 349 341c122 0 228 -50 228 -50l2 -3
c-10.7 -38 -16.4 -65 -20 -116l-12 -1c-45 76 -122 126 -212 126c-135 0 -232 -112 -232 -287c0 -132 66 -293 244 -293c54 0 113 6 147 38v45z" />
    <glyph glyph-name="grave" unicode="`" horiz-adv-x="392" 
d="M178 699l70 -126c5 -10 6 -17 6 -24c0 -5 -7 -11 -15 -11c-6 0 -13 5 -29 20l-114 109l2 11c8 6 31 23 65 23c5 0 11 -1 15 -2z" />
    <glyph glyph-name="ograve" unicode="&#xf2;" horiz-adv-x="500" 
d="M234 671l70 -126c5 -10 6 -17 6 -24c0 -5 -7 -11 -15 -11c-6 0 -13 5 -29 20l-114 109l2 11c8 6 31 23 65 23c5 0 11 -1 15 -2zM38 205c0 142 85 234 216 234c135 0 208 -89 208 -225c0 -131 -80 -224 -212 -224c-133 0 -212 95 -212 215zM247 399
c-94 0 -121 -90 -121 -177c0 -77 27 -192 133 -192c67 0 115 70.9 115 166c0 121 -21 203 -127 203z" />
    <glyph glyph-name="oacute" unicode="&#xf3;" horiz-adv-x="500" 
d="M280 671c3 1 9 2 14 2c6.39999 0 32 -1 55 -23l3 -11l-115 -109c-15 -15 -23 -19 -30 -19s-14 6 -14 13c0 11.2 3.3 15.2 11.4 28zM38 205c0 142 85 234 216 234c135 0 208 -89 208 -225c0 -131 -80 -224 -212 -224c-133 0 -212 95 -212 215zM247 399
c-94 0 -121 -90 -121 -177c0 -77 27 -192 133 -192c67 0 115 70.9 115 166c0 121 -21 203 -127 203z" />
    <glyph glyph-name="ocircumflex" unicode="&#xf4;" horiz-adv-x="500" 
d="M277 646c29 -47 65 -89 101 -129l-21 -14c-39 29 -72 54 -106 90c-37 -38 -69 -63 -107 -90l-20 14c36 40 74 83 103 129h50zM38 205c0 142 85 234 216 234c135 0 208 -89 208 -225c0 -131 -80 -224 -212 -224c-133 0 -212 95 -212 215zM247 399
c-94 0 -121 -90 -121 -177c0 -77 27 -192 133 -192c67 0 115 70.9 115 166c0 121 -21 203 -127 203z" />
    <glyph glyph-name="otilde" unicode="&#xf5;" horiz-adv-x="500" 
d="M314 570c22 0 36 10 50 52l24 -6c-12 -60 -41 -90 -87 -90c-22 0 -43 12 -64 26c-18 11 -37 22 -54 22c-26 0 -39 -15 -49 -48l-24 5c14 59 37 89 80 89c30 0 52 -14 72 -28c16 -12 33 -22 52 -22zM38 205c0 142 85 234 216 234c135 0 208 -89 208 -225
c0 -131 -80 -224 -212 -224c-133 0 -212 95 -212 215zM247 399c-94 0 -121 -90 -121 -177c0 -77 27 -192 133 -192c67 0 115 70.9 115 166c0 121 -21 203 -127 203z" />
    <glyph glyph-name="odieresis" unicode="&#xf6;" horiz-adv-x="500" 
d="M112 574c0 26 21 48 47 48s47 -22 47 -48s-21 -47 -47 -47s-47 21 -47 47zM281 574c0 26 21 48 47 48s47 -22 47 -48s-21 -47 -47 -47s-47 21 -47 47zM38 205c0 142 85 234 216 234c135 0 208 -89 208 -225c0 -131 -80 -224 -212 -224c-133 0 -212 95 -212 215zM247 399
c-94 0 -121 -90 -121 -177c0 -77 27 -192 133 -192c67 0 115 70.9 115 166c0 121 -21 203 -127 203z" />
    <glyph glyph-name="divide" unicode="&#xf7;" horiz-adv-x="527" 
d="M218.3 366.9v3.30002c7.8 22.2 19.8 35 45.2 45.3h3.39999c24.3 -8.79999 37.5 -21.6 45.3 -45.3v-3.30002c-8.60001 -27 -21.6 -39.4 -45.3 -45.3h-3.39999c-26.2 5.89999 -37.9 17.2 -45.2 45.3zM218.3 98.9v3.3c7.8 22.2 19.8 35 45.2 45.3h3.39999
c24.3 -8.8 37.5 -21.6 45.3 -45.3v-3.3c-8.60001 -27 -21.6 -39.4 -45.3 -45.3h-3.39999c-26.2 5.9 -37.9 17.2 -45.2 45.3zM461 257v-49h-395v49h395z" />
    <glyph glyph-name="ugrave" unicode="&#xf9;" horiz-adv-x="537" 
d="M228 671l70 -126c5 -10 6 -17 6 -24c0 -5 -7 -11 -15 -11c-6 0 -13 5 -29 20l-114 109l2 11c8 6 31 23 65 23c5 0 11 -1 15 -2zM365 92c-33 -51 -89 -102 -151 -102c-99 0 -131 70 -131 139v120c0 76 -1 123 -9 180l2 3c12 -2 35 -3 47 -3s35 1 47 3l2 -3
c-8 -53 -9 -105 -9 -180v-99c0 -93 32.5 -104 67 -104c49 0 106.5 53.5 137 105v98c0 76 -1.20001 122.8 -9 180l2 3c12 -2 35 -3 47 -3s35 1 47 3l2 -3c-8 -53 -9 -105 -9 -180v-57c0 -75 9 -149 17 -192l-2 -3c-13 2 -31.9 3 -44.5 3c-14.5 0 -26.2 -1.3 -39.5 -3
c-2.79999 0 -4 1 -4 3l-5 89z" />
    <glyph glyph-name="uacute" unicode="&#xfa;" horiz-adv-x="537" 
d="M306 671c3 1 9 2 14 2c6.39999 0 32 -1 55 -23l3 -11l-115 -109c-15 -15 -23 -19 -30 -19s-14 6 -14 13c0 11.2 3.3 15.2 11.4 28zM365 92c-33 -51 -89 -102 -151 -102c-99 0 -131 70 -131 139v120c0 76 -1 123 -9 180l2 3c12 -2 35 -3 47 -3s35 1 47 3l2 -3
c-8 -53 -9 -105 -9 -180v-99c0 -93 32.5 -104 67 -104c49 0 106.5 53.5 137 105v98c0 76 -1.20001 122.8 -9 180l2 3c12 -2 35 -3 47 -3s35 1 47 3l2 -3c-8 -53 -9 -105 -9 -180v-57c0 -75 9 -149 17 -192l-2 -3c-13 2 -31.9 3 -44.5 3c-14.5 0 -26.2 -1.3 -39.5 -3
c-2.79999 0 -4 1 -4 3l-5 89z" />
    <glyph glyph-name="ucircumflex" unicode="&#xfb;" horiz-adv-x="537" 
d="M281 646c29 -47 65 -89 101 -129l-21 -14c-39 29 -72 54 -106 90c-37 -38 -69 -63 -107 -90l-20 14c36 40 74 83 103 129h50zM365 92c-33 -51 -89 -102 -151 -102c-99 0 -131 70 -131 139v120c0 76 -1 123 -9 180l2 3c12 -2 35 -3 47 -3s35 1 47 3l2 -3
c-8 -53 -9 -105 -9 -180v-99c0 -93 32.5 -104 67 -104c49 0 106.5 53.5 137 105v98c0 76 -1.20001 122.8 -9 180l2 3c12 -2 35 -3 47 -3s35 1 47 3l2 -3c-8 -53 -9 -105 -9 -180v-57c0 -75 9 -149 17 -192l-2 -3c-13 2 -31.9 3 -44.5 3c-14.5 0 -26.2 -1.3 -39.5 -3
c-2.79999 0 -4 1 -4 3l-5 89z" />
    <glyph glyph-name="ebreve" unicode="&#x115;" horiz-adv-x="453" 
d="M120 648c11 -53 54 -90 108 -90c52 0 98 32 108 90l27 -12c-12 -86 -76 -135 -135 -135c-70 0 -121 50 -135 135zM125 273h184c10 0 14 5 14 14c0 75 -44.5 112 -84 112c-31.5 0 -97 -22 -114 -126zM392 104l20 -25c-38 -52 -102 -89 -174 -89
c-67.4 0 -124.6 24.7 -159 66c-33.5 40.2 -45 96.3 -45 153c0 147 102 230 205 230c132 0 173 -105 173 -189c0 -11 -7 -17 -18 -17h-272c0 -58.1 6.39999 -98.9 24 -127c27.5 -44 74.8 -57 109 -57c55 0 102 17 137 55z" />
    <glyph glyph-name="Edotaccent" unicode="&#x116;" horiz-adv-x="538" 
d="M224 781c0 28 24 52 52 52s52 -24 52 -52s-24 -52 -52 -52s-52 24 -52 52zM190 200c0 -17 1 -120 8 -144c134 0 282 12 282 12l2 -4c-1 -8 -2 -23 -2 -33s1 -17 2 -31l-2 -3c-16 2 -39 3 -60 3h-273c-35 0 -52 -3 -52 -3l-1 3c8 54 10 125 10 200v245
c0 75 -2 143 -10 200l2 3s17 -3 51 -3h263c21 0 44 1 60 3l2 -3c-1 -14 -2 -30 -2 -38c0 -9 1 -18 2 -26l-2 -4s-138 12 -272 12c-7 -24 -8 -127 -8 -144v-78c118 0 164 5 223 10l3 -3c-2 -9 -3 -23 -3 -32s1 -23 3 -32l-3 -3c-69 7 -175 10 -223 10v-117z" />
    <glyph glyph-name="edotaccent" unicode="&#x117;" horiz-adv-x="453" 
d="M179 597c0 27 24 51 51 51s51 -24 51 -51s-24 -51 -51 -51s-51 24 -51 51zM125 273h184c10 0 14 5 14 14c0 75 -44.5 112 -84 112c-31.5 0 -97 -22 -114 -126zM392 104l20 -25c-38 -52 -102 -89 -174 -89c-67.4 0 -124.6 24.7 -159 66c-33.5 40.2 -45 96.3 -45 153
c0 147 102 230 205 230c132 0 173 -105 173 -189c0 -11 -7 -17 -18 -17h-272c0 -58.1 6.39999 -98.9 24 -127c27.5 -44 74.8 -57 109 -57c55 0 102 17 137 55z" />
    <glyph glyph-name="Eogonek" unicode="&#x118;" horiz-adv-x="538" 
d="M344 -224c-53 0 -93 31 -93 85c0 47.5 40 105.6 100.2 139h-204.2c-35 0 -52 -3 -52 -3l-1 3c8 54 10 125 10 200v245c0 75 -2 143 -10 200l2 3s17 -3 51 -3h263c21 0 44 1 60 3l2 -3c-1 -14 -2 -30 -2 -38c0 -9 1 -18 2 -26l-2 -4s-138 12 -272 12
c-7 -24 -8 -127 -8 -144v-78c118 0 164 5 223 10l3 -3c-2 -9 -3 -23 -3 -32s1 -23 3 -32l-3 -3c-69 7 -175 10 -223 10v-117c0 -17 1 -120 8 -144c134 0 282 12 282 12l2 -4c-1 -8 -2 -23 -2 -33s1 -17 2 -31l-2 -3c-11.5 1.4 -26.5 2.4 -41.8 2.8
c-75.7 -4.7 -127.2 -76.5 -127.2 -125.8c0 -32 22 -59 58 -59c30 0 50 15 70 36l15 -8c-24 -47 -74 -67 -110 -67z" />
    <glyph glyph-name="eogonek" unicode="&#x119;" horiz-adv-x="453" 
d="M125 273h184c10 0 14 5 14 14c0 75 -44.5 112 -84 112c-31.5 0 -97 -22 -114 -126zM392 104l20 -25c-10.9 -15 -24 -28.6 -38.8 -40.6l1.79999 -1.4c-55 -54 -86 -90 -86 -143c0 -21 16 -43 42 -43c17 0 39 15 53 30l3 -1l14 -17c-27 -33 -65 -56 -99 -56
c-49 0 -79 29 -79 76c0 41.4 24.1 79 56.6 111.2c-13.5 -2.7 -27.4 -4.2 -41.6 -4.2c-67.4 0 -124.6 24.7 -159 66c-33.5 40.2 -45 96.3 -45 153c0 147 102 230 205 230c132 0 173 -105 173 -189c0 -11 -7 -17 -18 -17h-272c0 -58.1 6.39999 -98.9 24 -127
c27.5 -44 74.8 -57 109 -57c55 0 102 17 137 55z" />
    <glyph glyph-name="Ecaron" unicode="&#x11a;" horiz-adv-x="538" 
d="M268 697c-30 37 -65 67 -101 95l16 20c39 -17 73 -36 106 -61c37 26 69 45 107 61l15 -20c-38 -29 -70 -61 -100 -95h-43zM190 200c0 -17 1 -120 8 -144c134 0 282 12 282 12l2 -4c-1 -8 -2 -23 -2 -33s1 -17 2 -31l-2 -3c-16 2 -39 3 -60 3h-273c-35 0 -52 -3 -52 -3
l-1 3c8 54 10 125 10 200v245c0 75 -2 143 -10 200l2 3s17 -3 51 -3h263c21 0 44 1 60 3l2 -3c-1 -14 -2 -30 -2 -38c0 -9 1 -18 2 -26l-2 -4s-138 12 -272 12c-7 -24 -8 -127 -8 -144v-78c118 0 164 5 223 10l3 -3c-2 -9 -3 -23 -3 -32s1 -23 3 -32l-3 -3
c-69 7 -175 10 -223 10v-117z" />
    <glyph glyph-name="ecaron" unicode="&#x11b;" horiz-adv-x="453" 
d="M199 501c-29 47 -66 92 -101 130l20 13c39 -29 72 -54 106 -90c37 38 71 63 108 90l19 -13c-35 -39 -73 -84 -102 -130h-50zM125 273h184c10 0 14 5 14 14c0 75 -44.5 112 -84 112c-31.5 0 -97 -22 -114 -126zM392 104l20 -25c-38 -52 -102 -89 -174 -89
c-67.4 0 -124.6 24.7 -159 66c-33.5 40.2 -45 96.3 -45 153c0 147 102 230 205 230c132 0 173 -105 173 -189c0 -11 -7 -17 -18 -17h-272c0 -58.1 6.39999 -98.9 24 -127c27.5 -44 74.8 -57 109 -57c55 0 102 17 137 55z" />
    <glyph glyph-name="Gcircumflex" unicode="&#x11c;" horiz-adv-x="717" 
d="M385 805c30 -36 65 -67 101 -94l-16 -21c-39 18 -73 37 -106 62c-37 -27 -69 -45 -107 -62l-14 21c37 28 68 60 99 94h43zM546 117c0 75 -2 133 -10 190l2 3s17 -3 51 -3c35 0 52 3 52 3l1 -3c-8 -53 -10 -95 -10 -170v-6c0 -11 1.29999 -37.3 10 -48v-3
c-67.5 -56.6 -149.5 -90 -266 -90c-201 0 -324 154 -324 327c0 220 177 341 349 341c122 0 228 -50 228 -50l2 -3c-10.7 -38 -16.4 -65 -20 -116l-12 -1c-45 76 -122 126 -212 126c-135 0 -232 -112 -232 -287c0 -132 66 -293 244 -293c54 0 113 6 147 38v45z" />
    <glyph glyph-name="gcircumflex" unicode="&#x11d;" horiz-adv-x="499" 
d="M255 645c29 -47 65 -89 101 -129l-21 -14c-39 29 -72 54 -106 90c-37 -38 -69 -63 -107 -90l-20 14c36 40 74 83 103 129h50zM101 -104c0 -68 66 -90 131 -90c86 0 168 32 168 93c0 26 -10 55 -39 72c-27.4 16.1 -58 17 -106 17c-13.8 0 -59.5 -3 -89 -3
c-35 -19 -65 -55.9 -65 -89zM390 285c0 -78.8 -62 -149 -166 -149c-30.1 0 -61 7 -74 14c-22 -19 -27 -36 -27 -56c0 -43 30 -47 58 -47c5 0 15 1 29 2c23 3 63 5 80 5c35 0 103.5 -1 141 -33c28 -23.9 42 -54.9 42 -99c0 -93.7 -92.9 -159 -249 -159
c-106 0 -192 34.3 -192 113c0 18.7 10.5 47 23 66c25.9 20 57 39.3 84.9 50.7c-53.9 9.3 -77.9 45.3 -77.9 86.3c0 34 35 63 64 83c-28 16 -71 50 -71 125c0 99.1 91 152 170 152c21.5 0 43.4 -3 61.3 -8.60001c74.6 3.89999 109.9 14.5 157.7 18.6l3 -3
c-2 -9 -3 -17 -3 -26s1 -17 3 -26l-3 -3c-41.2 4.20001 -74.3 8 -104.4 10.4c23.4 -15.4 50.4 -47.4 50.4 -116.4zM312 284c0 71 -26 117 -91 117c-58 0 -88 -43 -88 -109c0 -69 22 -116 94 -116c60 0 85 47.3 85 108z" />
    <glyph glyph-name="Gbreve" unicode="&#x11e;" horiz-adv-x="717" 
d="M508 806c-6 -71 -70 -113 -136 -113c-73 0 -131 43 -136 113h28c8 -39 55 -61 108 -61c49 0 101 22 108 61h28zM546 117c0 75 -2 133 -10 190l2 3s17 -3 51 -3c35 0 52 3 52 3l1 -3c-8 -53 -10 -95 -10 -170v-6c0 -11 1.29999 -37.3 10 -48v-3
c-67.5 -56.6 -149.5 -90 -266 -90c-201 0 -324 154 -324 327c0 220 177 341 349 341c122 0 228 -50 228 -50l2 -3c-10.7 -38 -16.4 -65 -20 -116l-12 -1c-45 76 -122 126 -212 126c-135 0 -232 -112 -232 -287c0 -132 66 -293 244 -293c54 0 113 6 147 38v45z" />
    <glyph glyph-name="gbreve" unicode="&#x11f;" horiz-adv-x="499" 
d="M112 644c11 -53 54 -90 108 -90c52 0 98 32 108 90l27 -12c-12 -86 -76 -135 -135 -135c-70 0 -121 50 -135 135zM101 -104c0 -68 66 -90 131 -90c86 0 168 32 168 93c0 26 -10 55 -39 72c-27.4 16.1 -58 17 -106 17c-13.8 0 -59.5 -3 -89 -3c-35 -19 -65 -55.9 -65 -89z
M390 285c0 -78.8 -62 -149 -166 -149c-30.1 0 -61 7 -74 14c-22 -19 -27 -36 -27 -56c0 -43 30 -47 58 -47c5 0 15 1 29 2c23 3 63 5 80 5c35 0 103.5 -1 141 -33c28 -23.9 42 -54.9 42 -99c0 -93.7 -92.9 -159 -249 -159c-106 0 -192 34.3 -192 113c0 18.7 10.5 47 23 66
c25.9 20 57 39.3 84.9 50.7c-53.9 9.3 -77.9 45.3 -77.9 86.3c0 34 35 63 64 83c-28 16 -71 50 -71 125c0 99.1 91 152 170 152c21.5 0 43.4 -3 61.3 -8.60001c74.6 3.89999 109.9 14.5 157.7 18.6l3 -3c-2 -9 -3 -17 -3 -26s1 -17 3 -26l-3 -3
c-41.2 4.20001 -74.3 8 -104.4 10.4c23.4 -15.4 50.4 -47.4 50.4 -116.4zM312 284c0 71 -26 117 -91 117c-58 0 -88 -43 -88 -109c0 -69 22 -116 94 -116c60 0 85 47.3 85 108z" />
    <glyph glyph-name="Gdotaccent" unicode="&#x120;" horiz-adv-x="717" 
d="M324 781c0 28 24 52 52 52s52 -24 52 -52s-24 -52 -52 -52s-52 24 -52 52zM546 117c0 75 -2 133 -10 190l2 3s17 -3 51 -3c35 0 52 3 52 3l1 -3c-8 -53 -10 -95 -10 -170v-6c0 -11 1.29999 -37.3 10 -48v-3c-67.5 -56.6 -149.5 -90 -266 -90c-201 0 -324 154 -324 327
c0 220 177 341 349 341c122 0 228 -50 228 -50l2 -3c-10.7 -38 -16.4 -65 -20 -116l-12 -1c-45 76 -122 126 -212 126c-135 0 -232 -112 -232 -287c0 -132 66 -293 244 -293c54 0 113 6 147 38v45z" />
    <glyph glyph-name="gdotaccent" unicode="&#x121;" horiz-adv-x="499" 
d="M173 597c0 27 24 51 51 51s51 -24 51 -51s-24 -51 -51 -51s-51 24 -51 51zM101 -104c0 -68 66 -90 131 -90c86 0 168 32 168 93c0 26 -10 55 -39 72c-27.4 16.1 -58 17 -106 17c-13.8 0 -59.5 -3 -89 -3c-35 -19 -65 -55.9 -65 -89zM390 285c0 -78.8 -62 -149 -166 -149
c-30.1 0 -61 7 -74 14c-22 -19 -27 -36 -27 -56c0 -43 30 -47 58 -47c5 0 15 1 29 2c23 3 63 5 80 5c35 0 103.5 -1 141 -33c28 -23.9 42 -54.9 42 -99c0 -93.7 -92.9 -159 -249 -159c-106 0 -192 34.3 -192 113c0 18.7 10.5 47 23 66c25.9 20 57 39.3 84.9 50.7
c-53.9 9.3 -77.9 45.3 -77.9 86.3c0 34 35 63 64 83c-28 16 -71 50 -71 125c0 99.1 91 152 170 152c21.5 0 43.4 -3 61.3 -8.60001c74.6 3.89999 109.9 14.5 157.7 18.6l3 -3c-2 -9 -3 -17 -3 -26s1 -17 3 -26l-3 -3c-41.2 4.20001 -74.3 8 -104.4 10.4
c23.4 -15.4 50.4 -47.4 50.4 -116.4zM312 284c0 71 -26 117 -91 117c-58 0 -88 -43 -88 -109c0 -69 22 -116 94 -116c60 0 85 47.3 85 108z" />
    <glyph glyph-name="Gcommaaccent" unicode="&#x122;" horiz-adv-x="717" 
d="M375 -62c38 0 62 -34 62 -86c0 -60 -49 -90 -106 -99c-6 6 -8 15 -8 24c49 11 75 35 75 53c0 20 -13 24 -31 26c-17 3 -42 12 -42 39c0 24 21 43 50 43zM546 117c0 75 -2 133 -10 190l2 3s17 -3 51 -3c35 0 52 3 52 3l1 -3c-8 -53 -10 -95 -10 -170v-6
c0 -11 1.29999 -37.3 10 -48v-3c-67.5 -56.6 -149.5 -90 -266 -90c-201 0 -324 154 -324 327c0 220 177 341 349 341c122 0 228 -50 228 -50l2 -3c-10.7 -38 -16.4 -65 -20 -116l-12 -1c-45 76 -122 126 -212 126c-135 0 -232 -112 -232 -287c0 -132 66 -293 244 -293
c54 0 113 6 147 38v45z" />
    <glyph glyph-name="gcommaaccent" unicode="&#x123;" horiz-adv-x="499" 
d="M228 511c-39 0 -62 37 -62 73c0 24 7 46 23 66c16.9 21.1 45 38 83 43c4 -4 5 -13 5 -20c-57 -12 -77 -44 -77 -67c0 -19.6 4.8 -13 29 -13c40 0 50 -24 50 -41c0 -16 -16 -41 -51 -41zM101 -104c0 -68 66 -90 131 -90c86 0 168 32 168 93c0 26 -10 55 -39 72
c-27.4 16.1 -58 17 -106 17c-13.8 0 -59.5 -3 -89 -3c-35 -19 -65 -55.9 -65 -89zM390 285c0 -78.8 -62 -149 -166 -149c-30.1 0 -61 7 -74 14c-22 -19 -27 -36 -27 -56c0 -43 30 -47 58 -47c5 0 15 1 29 2c23 3 63 5 80 5c35 0 103.5 -1 141 -33c28 -23.9 42 -54.9 42 -99
c0 -93.7 -92.9 -159 -249 -159c-106 0 -192 34.3 -192 113c0 18.7 10.5 47 23 66c25.9 20 57 39.3 84.9 50.7c-53.9 9.3 -77.9 45.3 -77.9 86.3c0 34 35 63 64 83c-28 16 -71 50 -71 125c0 99.1 91 152 170 152c21.5 0 43.4 -3 61.3 -8.60001
c74.6 3.89999 109.9 14.5 157.7 18.6l3 -3c-2 -9 -3 -17 -3 -26s1 -17 3 -26l-3 -3c-41.2 4.20001 -74.3 8 -104.4 10.4c23.4 -15.4 50.4 -47.4 50.4 -116.4zM312 284c0 71 -26 117 -91 117c-58 0 -88 -43 -88 -109c0 -69 22 -116 94 -116c60 0 85 47.3 85 108z" />
    <glyph glyph-name="Hcircumflex" unicode="&#x124;" horiz-adv-x="726" 
d="M536 445c0 75 -2 143 -10 200l2 3c12 -2 39 -3 51 -3s40 1 52 3l1 -3c-8 -53 -10 -125 -10 -200v-245c0 -75 2 -143 10 -200l-2 -3c-12 2 -39 3 -51 3s-40 -1 -52 -3l-1 3c8 54 10 125 10 200v121h-346v-121c0 -75 2 -143 10 -200l-2 -3c-12 2 -39 3 -51 3s-40 -1 -52 -3
l-1 3c8 54 10 125 10 200v245c0 75 -2 143 -10 200l2 3c12 -2 39 -3 51 -3s40 1 52 3l1 -3c-8 -53 -10 -125 -10 -200v-80h346v80zM368 803c30 -36 65 -67 101 -94l-16 -21c-39 18 -73 37 -106 62c-37 -27 -69 -45 -107 -62l-14 21c37 28 68 60 99 94h43z" />
    <glyph glyph-name="hcircumflex" unicode="&#x125;" horiz-adv-x="549" 
d="M286 832c30 -36 65 -67 101 -94l-16 -21c-39 18 -73 37 -106 62c-37 -27 -69 -45 -107 -62l-14 21c37 28 68 60 99 94h43zM170 352l2 -3c64 75 135 90 173 90c90 0 124 -54 124 -158c0 -32 -2 -69 -2 -101c0 -76 1 -122.8 9 -180l-2 -3c-12 2 -35 3 -47 3s-35 -1 -47 -3
l-2 3c8 53.8 9 105 9 180v98c0 81 -21 101 -72 101c-35.5 0 -94 -22 -145 -82v-117c0 -76 1.5 -122.8 9 -180l-2 -3c-12 2 -35 3 -47 3s-35 -1 -47 -3l-2 3c7.8 56 9 105.5 9 180v301c0 76 -1.3 151.3 -9 194l2 3c40.5 3 61.9 10 87 20c6.3 0 9 -3 9 -10
c-4.8 -61.5 -9 -113 -9 -187v-149z" />
    <glyph glyph-name="Hbar" unicode="&#x126;" horiz-adv-x="726" 
d="M191.7 546h342.5c-1.5 35.7 -4 68.9 -8.20001 99l2 3c12 -2 39 -3 51 -3s40 1 52 3l1 -3c-4.29999 -28.4 -6.79999 -62.2 -8.29999 -99h53.3v-34h-54.3c-0.5 -21.8 -0.700012 -44.2 -0.700012 -67v-245c0 -75 2 -143 10 -200l-2 -3c-12 2 -39 3 -51 3s-40 -1 -52 -3l-1 3
c8 54 10 125 10 200v121h-346v-121c0 -75 2 -143 10 -200l-2 -3c-12 2 -39 3 -51 3s-40 -1 -52 -3l-1 3c8 54 10 125 10 200v245c0 23 -0.199997 45.4 -0.699997 67h-62.3v34h61.2c-1.5 35.7 -4 68.9 -8.2 99l2 3c12 -2 39 -3 51 -3s40 1 52 3l1 -3
c-4.3 -28.4 -6.8 -62.2 -8.3 -99zM190.7 512c-0.5 -21.8 -0.699997 -44.2 -0.699997 -67v-80h346v80c0 23 -0.200012 45.4 -0.700012 67h-344.6z" />
    <glyph glyph-name="hbar" unicode="&#x127;" horiz-adv-x="549" 
d="M170 352l2 -3c64 75 135 90 173 90c90 0 124 -54 124 -158c0 -32 -2 -69 -2 -101c0 -76 1 -122.8 9 -180l-2 -3c-12 2 -35 3 -47 3s-35 -1 -47 -3l-2 3c8 53.8 9 105 9 180v98c0 81 -21 101 -72 101c-35.5 0 -94 -22 -145 -82v-117c0 -76 1.5 -122.8 9 -180l-2 -3
c-12 2 -35 3 -47 3s-35 -1 -47 -3l-2 3c7.8 56 9 105.5 9 180v301c0 16.5 0 32.9 -0.199997 49h-63.8v39h63.1c-1.1 42.5 -3.5 80.2 -8.1 106l2 3c40.5 3 61.9 10 87 20c6.3 0 9 -3 9 -10c-3.2 -40.9 -6.10001 -77.4 -7.7 -119h169.7v-39h-170.8
c-0.0999908 -9.29999 -0.199997 -18.9 -0.199997 -29v-149z" />
    <glyph glyph-name="Itilde" unicode="&#x128;" horiz-adv-x="294" 
d="M213 741c22 0 36 10 50 52l24 -6c-12 -60 -41 -90 -87 -90c-22 0 -43 12 -64 26c-18 11 -37 22 -54 22c-26 0 -39 -15 -49 -48l-24 5c14 59 37 89 80 89c30 0 52 -14 72 -28c16 -12 33 -22 52 -22zM104 445c0 75 -2 143 -10 200l2 3c12 -2 39 -3 51 -3s39 1 51 3l2 -3
c-8 -53 -10 -125 -10 -200v-245c0 -75 2 -143 10 -200l-2 -3c-12 2 -39 3 -51 3s-39 -1 -51 -3l-2 3c8 54 10 125 10 200v245z" />
    <glyph glyph-name="itilde" unicode="&#x129;" horiz-adv-x="260" 
d="M195.1 570c19.8 0 32.4 10 45 52l21.6 -6c-10.8 -60 -36.9 -90 -78.3 -90c-19.8 0 -38.7 12 -57.6 26c-16.2 11 -33.3 22 -48.6 22c-23.4 0 -35.1 -15 -44.1 -48l-21.6 5c12.6 59 33.3 89 72 89c27 0 46.8 -14 64.8 -28c14.4 -12 29.7 -22 46.8 -22zM90 235
c0 75 -2.7 151.2 -9 194l2 3c21.2 -1.70001 64.3 -1.29999 87 1c7.8 0 9 -1 9 -10c-6.5 -61 -9 -97 -9 -172v-71c0 -76 1.8 -123.2 9 -180l-2 -3c-12 2 -35 3 -47 3s-35 -1 -47 -3l-2 3c7.2 54 9 105 9 180v55z" />
    <glyph glyph-name="Imacron" unicode="&#x12a;" horiz-adv-x="294" 
d="M265 733h-244c-9 0 -13 8 -13 15c0 12 11 29 22 29h245c10 0 14 -8 14 -14c0 -12 -11 -30 -24 -30zM104 445c0 75 -2 143 -10 200l2 3c12 -2 39 -3 51 -3s39 1 51 3l2 -3c-8 -53 -10 -125 -10 -200v-245c0 -75 2 -143 10 -200l-2 -3c-12 2 -39 3 -51 3s-39 -1 -51 -3
l-2 3c8 54 10 125 10 200v245z" />
    <glyph glyph-name="imacron" unicode="&#x12b;" horiz-adv-x="260" 
d="M239.9 538h-219.6c-8.1 0 -11.7 8 -11.7 15c0 12 9.9 29 19.8 29h220.5c9 0 12.6 -8 12.6 -14c0 -12 -9.89999 -30 -21.6 -30zM90 235c0 75 -2.7 151.2 -9 194l2 3c21.2 -1.70001 64.3 -1.29999 87 1c7.8 0 9 -1 9 -10c-6.5 -61 -9 -97 -9 -172v-71
c0 -76 1.8 -123.2 9 -180l-2 -3c-12 2 -35 3 -47 3s-35 -1 -47 -3l-2 3c7.2 54 9 105 9 180v55z" />
    <glyph glyph-name="Ibreve" unicode="&#x12c;" horiz-adv-x="294" 
d="M285 805c-6 -71 -70 -113 -136 -113c-73 0 -131 43 -136 113h28c8 -39 55 -61 108 -61c49 0 101 22 108 61h28zM104 445c0 75 -2 143 -10 200l2 3c12 -2 39 -3 51 -3s39 1 51 3l2 -3c-8 -53 -10 -125 -10 -200v-245c0 -75 2 -143 10 -200l-2 -3c-12 2 -39 3 -51 3
s-39 -1 -51 -3l-2 3c8 54 10 125 10 200v245z" />
    <glyph glyph-name="ibreve" unicode="&#x12d;" horiz-adv-x="260" 
d="M39.2 650c9.9 -53 48.6 -90 97.2 -90c46.8 0 88.2 32 97.2 90l24.3 -12c-10.8 -86 -68.4 -135 -121.5 -135c-63 0 -108.9 50 -121.5 135zM90 235c0 75 -2.7 151.2 -9 194l2 3c21.2 -1.70001 64.3 -1.29999 87 1c7.8 0 9 -1 9 -10c-6.5 -61 -9 -97 -9 -172v-71
c0 -76 1.8 -123.2 9 -180l-2 -3c-12 2 -35 3 -47 3s-35 -1 -47 -3l-2 3c7.2 54 9 105 9 180v55z" />
    <glyph glyph-name="Iogonek" unicode="&#x12e;" horiz-adv-x="294" 
d="M92 -225c-53 0 -93 31 -93 85c0 46.6 38.6 103.5 96.9 137.1l-1.9 2.9c8 54 10 125 10 200v245c0 75 -2 143 -10 200l2 3c12 -2 39 -3 51 -3s39 1 51 3l2 -3c-8 -53 -10 -125 -10 -200v-245c0 -75 2 -143 10 -200l-2 -3c-3.7 0.6 -8.8 1.2 -14.5 1.6
c-74.3 -6.2 -124.5 -76.9 -124.5 -125.6c0 -32 22 -59 58 -59c30 0 51 15 70 36l15 -8c-24 -47 -74 -67 -110 -67z" />
    <glyph glyph-name="iogonek" unicode="&#x12f;" horiz-adv-x="260" 
d="M70 -225c-54 0 -93 31 -93 85c0 48.6 41.4 108.5 104.2 141.4c7 53.5 8.8 104.2 8.8 178.6v55c0 75 -2.7 151.2 -9 194l2 3c21.2 -1.70001 64.3 -1.29999 87 1c7.8 0 9 -1 9 -10c-6.5 -61 -9 -97 -9 -172v-71c0 -76 1.8 -123.2 9 -180l-2 -3c-4 0.7 -9.3 1.3 -15 1.7
c-75 -5.4 -125 -76.6 -125 -125.7c0 -32 22 -59 58 -59c29 0 50 15 69 36l16 -8c-24 -47 -75 -67 -110 -67zM80 597c0 27 24 51 51 51s51 -24 51 -51s-24 -51 -51 -51s-51 24 -51 51z" />
    <glyph glyph-name="Idotaccent" unicode="&#x130;" horiz-adv-x="294" 
d="M97 781c0 28 24 52 52 52s52 -24 52 -52s-24 -52 -52 -52s-52 24 -52 52zM104 445c0 75 -2 143 -10 200l2 3c12 -2 39 -3 51 -3s39 1 51 3l2 -3c-8 -53 -10 -125 -10 -200v-245c0 -75 2 -143 10 -200l-2 -3c-12 2 -39 3 -51 3s-39 -1 -51 -3l-2 3c8 54 10 125 10 200v245
z" />
    <glyph glyph-name="afii10057" unicode="&#x408;" horiz-adv-x="385" 
d="M210 258v187c0 75 -2 143 -10 200l2 3s17 -3 51 -3c35 0 52 3 52 3l1 -3c-8 -53 -10 -125 -10 -200v-165c0 -114.5 -10 -145 -63 -214c-41 -54 -95 -76 -158 -76c-19 0 -37 4 -45 9l-1 3c11 19 21 55 28 82l11 1c11 -20 29 -35 58 -35c79 0 84 120 84 208z" />
    <glyph glyph-name="afii10061" unicode="&#x40c;" horiz-adv-x="632" 
d="M427 820c28.6 -13.3 49.3 -30.7 62 -52l-144 -58c-21 -9 -33 -12 -42 -12s-15 7 -15 15c0 7 2 12 15 21zM104 445c0 75 -2 143 -10 200l2 3c12 -2 39 -3 51 -3s39 1 51 3l2 -3c-8 -53 -10 -125 -10 -200v-88c91.1 1.79999 95.7 86 157 174c43.3 62.1 102 127 180 127
c27 0 31 -3 57 -10l5 -6l-29 -91l-12 -3c-20 14 -37 21 -65 21c-23 0 -59 -19 -95 -67c-44.4 -59.2 -60 -142 -103 -162v-3c72 -12 92 -40 144 -100c85 -97 83 -148 167 -237l-3 -4c-13 2 -52 4 -77 4c-26 0 -26 -2 -49 -4c-48 77 -68 121 -96 173
c-41.6 77.3 -71.5 135 -181 142.8v-111.8c0 -75 2 -143 10 -200l-2 -3c-12 2 -39 3 -51 3s-39 -1 -51 -3l-2 3c8 54 10 125 10 200v245z" />
    <glyph glyph-name="uni040D" unicode="&#x40d;" horiz-adv-x="728" 
d="M104 445c0 75 -2 143 -10 200l2 3c12 -2 39 -3 51 -3s39 1 51 3l2 -3c-8 -53 -10 -125 -10 -200v-245c0 -44.6 0.699997 -86.8 3 -125.6l335.1 569.8c0 0.299988 -0.0999756 0.5 -0.0999756 0.799988l2 3c12 -2 39 -3 51 -3s39 1 51 3l2 -3c-8 -53 -10 -125 -10 -200
v-245c0 -75 2 -143 10 -200l-2 -3c-12 2 -39 3 -51 3s-39 -1 -51 -3l-2 3c8 54 10 125 10 200v245c0 44.3 -0.700012 86.2 -2.90002 124.8l-335.1 -569.8l-2 -3c-12 2 -39 3 -51 3s-39 -1 -51 -3l-2 3c8 54 10 125 10 200v245zM299 818l121 -84c11 -8 15 -14 15 -21
c0 -8 -7 -15 -15 -15s-22 3 -43 12l-154 63c18.3 17.7 41.8 33.4 76 45z" />
    <glyph glyph-name="afii10062" unicode="&#x40e;" horiz-adv-x="580" 
d="M310 728c33 0 56 17 56 34c0 5 -1 11 -1 13c0 15 10 30 33 30c27 0 37 -14 37 -33c0 -52 -59 -75 -125 -75s-125 23 -125 75c0 19 10 33 37 33c23 0 33 -15 33 -30c0 -2 -1 -8 -1 -13c0 -17 23 -34 56 -34zM120.7 115.1c5.60001 -30.1 32 -68.1 74.3 -68.1
c42.7 0 58.9 34.1 83.6 91.3c-86.3 201.6 -192.9 429.5 -232.6 509.7c17 -3 43 -3 60 -3s38 0 55 3c8.60001 -30 63.1 -177.9 162.2 -405.5c61.2 144.4 125.6 303.9 152.8 405.5c12 -3 39 -3 50 -3s23 0 35 3l-219 -487c-48.1 -106.9 -98 -183 -188 -183
c-44 0 -94.9 18.8 -114.2 42v4.2c21.1 20 47.7 62.1 67 93.8z" />
    <glyph glyph-name="afii10020" unicode="&#x413;" horiz-adv-x="481" 
d="M185 445v-245c0 -75 2 -147 10 -200l-1 -3s-17 3 -52 3c-34 0 -52 -3 -52 -3l-2 3c8 57 11 125 11 200v245c0 75 -2 146 -10 200l1 3s18 -3 52 -3h273c21 0 44 1 60 3l2 -3c-1 -14 -2 -19 -2 -29s1 -25 2 -33l-2 -4s-148 12 -282 12c-7 -24 -8 -129 -8 -146z" />
    <glyph glyph-name="afii10021" unicode="&#x414;" horiz-adv-x="708" 
d="M425 44c18 0 25 6 28 15c7 24 8 124 8 141v245c0 17 -1 119 -8 143c-7 9 -11 13 -26 13h-114c-27 0 -37 -10 -39 -35c-8 -101 -23 -205 -35 -273c-22 -117 -47 -216 -47 -237c0 -12 13 -12 27 -12h206zM178 0c-80 0 -92 -65 -103 -138l-2 -3h-32l-2 3l-12 149
c0 10 5 18 30 21c20.1 2.4 41 0 55 15c26 26 44 98 76 254c22 114 34 217 34 280c0 22 -3 44 -6 64l1 3s27 -3 61 -3h226c34 0 52 3 52 3l1 -3c-8 -54 -10 -125 -10 -200v-245c0 -110 7 -165 41 -168c25 -2 30 -11 30 -21l-12 -149l-2 -3h-32l-2 3c-11 73 -23 138 -103 138
h-289z" />
    <glyph glyph-name="afii10024" unicode="&#x416;" horiz-adv-x="924" 
d="M249 169c-26 -52 -45 -96 -91 -173c-22 2 -22 4 -47 4c-23 0 -60 -2 -73 -4l-3 4c80 89 78 140 159 237c50 60 68 88 137 100v3c-41 20 -56 103 -98 162c-34 48 -68 67 -90 67c-27 0 -43 -7 -62 -21l-11 3l-28 91l5 6c25 7 28 10 54 10c74 0 130 -65 171 -127
c57.4 -86.6 62.7 -169.4 145 -173.8v87.8c0 75 -2 143 -10 200l2 3c12 -2 39 -3 51 -3s39 1 51 3l2 -3c-8 -53 -10 -125 -10 -200v-88c86.1 1.89999 90.7 86 149 174c41 62 97 127 171 127c26 0 29 -3 54 -10l5 -6l-28 -91l-11 -3c-19 14 -35 21 -62 21
c-22 0 -56 -19 -90 -67c-42 -59 -57 -142 -98 -162v-3c69 -12 87 -40 137 -100c81 -97 79 -148 159 -237l-3 -4c-13 2 -50 4 -73 4c-25 0 -25 -2 -47 -4c-46 77 -65 121 -91 173c-39.6 77.3 -68.4 134.9 -172 142.8v-111.8c0 -75 2 -143 10 -200l-2 -3c-12 2 -39 3 -51 3
s-39 -1 -51 -3l-2 3c8 54 10 125 10 200v111.5c-100.3 -9.10001 -128.9 -66.2 -168 -142.5z" />
    <glyph glyph-name="afii10025" unicode="&#x417;" horiz-adv-x="542" 
d="M248 25c70 0 157 43 157 151c0 51 -39 160 -156 160h-73c-11 0 -18 7 -18 18s7 19 18 19h47c119 0 152 78 152 133c0 67 -64 118 -126 118c-123 0 -146 -74 -170 -155l-30 2l20 175c87 0 122 12 182 12c93 0 204 -47 204 -142c0 -79 -43 -129 -115 -156
c71 -20 157 -61 157 -168c0 -151 -134 -204 -252 -204c-81 0 -130 31 -161 55c-27 21 -48 48 -48 75c0 26 11 47 34 47c28 0 38 -13 49 -45c21 -61 53 -95 129 -95z" />
    <glyph glyph-name="afii10026" unicode="&#x418;" horiz-adv-x="728" 
d="M104 445c0 75 -2 143 -10 200l2 3c12 -2 39 -3 51 -3s39 1 51 3l2 -3c-8 -53 -10 -125 -10 -200v-245c0 -44.6 0.699997 -86.8 3 -125.6l335.1 569.8c0 0.299988 -0.0999756 0.5 -0.0999756 0.799988l2 3c12 -2 39 -3 51 -3s39 1 51 3l2 -3c-8 -53 -10 -125 -10 -200
v-245c0 -75 2 -143 10 -200l-2 -3c-12 2 -39 3 -51 3s-39 -1 -51 -3l-2 3c8 54 10 125 10 200v245c0 44.3 -0.700012 86.2 -2.90002 124.8l-335.1 -569.8l-2 -3c-12 2 -39 3 -51 3s-39 -1 -51 -3l-2 3c8 54 10 125 10 200v245z" />
    <glyph glyph-name="afii10027" unicode="&#x419;" horiz-adv-x="728" 
d="M350 728c33 0 56 17 56 34c0 5 -1 11 -1 13c0 15 10 30 33 30c27 0 37 -14 37 -33c0 -52 -59 -75 -125 -75s-125 23 -125 75c0 19 10 33 37 33c23 0 33 -15 33 -30c0 -2 -1 -8 -1 -13c0 -17 23 -34 56 -34zM104 445c0 75 -2 143 -10 200l2 3c12 -2 39 -3 51 -3s39 1 51 3
l2 -3c-8 -53 -10 -125 -10 -200v-245c0 -44.6 0.699997 -86.8 3 -125.6l335.1 569.8c0 0.299988 -0.0999756 0.5 -0.0999756 0.799988l2 3c12 -2 39 -3 51 -3s39 1 51 3l2 -3c-8 -53 -10 -125 -10 -200v-245c0 -75 2 -143 10 -200l-2 -3c-12 2 -39 3 -51 3s-39 -1 -51 -3
l-2 3c8 54 10 125 10 200v245c0 44.3 -0.700012 86.2 -2.90002 124.8l-335.1 -569.8l-2 -3c-12 2 -39 3 -51 3s-39 -1 -51 -3l-2 3c8 54 10 125 10 200v245z" />
    <glyph glyph-name="afii10033" unicode="&#x41f;" horiz-adv-x="708" 
d="M564 645c34 0 52 3 52 3l1 -3c-8 -54 -10 -125 -10 -200v-245c0 -75 3 -143 11 -200l-2 -3s-18 3 -52 3c-35 0 -52 -3 -52 -3l-1 3c8 53 10 125 10 200v245c0 17 -1 119 -8 143c-7 9 -11 13 -26 13h-266c-15 0 -19 -4 -26 -13c-7 -24 -8 -126 -8 -143v-245
c0 -75 2 -147 10 -200l-1 -3s-17 3 -52 3c-34 0 -52 -3 -52 -3l-2 3c8 57 11 125 11 200v245c0 75 -2 146 -10 200l1 3s18 -3 52 -3h420z" />
    <glyph glyph-name="afii10034" unicode="&#x420;" horiz-adv-x="559" 
d="M190 565v-236c13 -7 54 -10 79 -10c97 0 153 37 153 152c0 119 -73 138 -142 138c-72 0 -90 -15 -90 -44zM104 445c0 75 -2 143 -10 200l2 3c12 -2 39 -3 51 -3c30 0 114 7 140 7c185 0 232 -102 232 -176c0 -85 -63 -200 -245 -200c-35 0 -62 3 -84 10v-86
c0 -75 2 -143 10 -200l-2 -3c-12 2 -39 3 -51 3s-39 -1 -51 -3l-2 3c8 54 10 125 10 200v245z" />
    <glyph glyph-name="afii10035" unicode="&#x421;" horiz-adv-x="677" 
d="M380 658c122 0 218 -50 218 -50l2 -3c-11 -42.5 -14.4 -60 -18 -111l-12 -1c-41 82 -114 118 -204 118c-82 0 -211 -74 -211 -277c0 -156 93.2 -293 220 -293c93 0 153 26 224 104l7 -3c3.5 -9 5.5 -31 6.09998 -42.5c-66.8 -80.8 -153.7 -109.5 -246.1 -109.5
c-215 0 -314 152 -314 325c0 197 159 343 328 343z" />
    <glyph glyph-name="afii10036" unicode="&#x422;" horiz-adv-x="540" 
d="M227 445c0 17 -1 120 -8 144c-134 0 -202 -14 -202 -14l-2 4c2 15 2 38 0 66l2 3c16 -2 39 -3 60 -3h386c21 0 44 1 60 3l2 -3c-2 -28 -2 -51 0 -66l-2 -4s-68 14 -202 14c-7 -24 -8 -127 -8 -144v-245c0 -75 2 -143 10 -200l-2 -3c-12 2 -39 3 -51 3s-39 -1 -51 -3l-2 3
c8 54 10 125 10 200v245z" />
    <glyph glyph-name="afii10037" unicode="&#x423;" horiz-adv-x="580" 
d="M120.7 115.1c5.60001 -30.1 32 -68.1 74.3 -68.1c42.7 0 58.9 34.1 83.6 91.3c-86.3 201.6 -192.9 429.5 -232.6 509.7c17 -3 43 -3 60 -3s38 0 55 3c8.60001 -30 63.1 -177.9 162.2 -405.5c61.2 144.4 125.6 303.9 152.8 405.5c12 -3 39 -3 50 -3s23 0 35 3l-219 -487
c-48.1 -106.9 -98 -183 -188 -183c-44 0 -94.9 18.8 -114.2 42v4.2c21.1 20 47.7 62.1 67 93.8z" />
    <glyph glyph-name="afii10039" unicode="&#x425;" horiz-adv-x="581" 
d="M564 -3c-18 3 -40 3 -58 3s-40 0 -58 -3c-52.3 100.4 -109.7 181.3 -173.6 277.9c-56.3 -85.7 -114.3 -179.8 -167.4 -277.9c-11 3 -30 3 -42 3c-11 0 -31 0 -42 -3l221 324l-216 327c17 -3 39 -3 56 -3s39 0 57 3c28.8 -59.8 95.5 -156.8 161 -257.2
c83.6 121 107.8 157 162 257.2c11 -3 31 -3 42 -3s31 0 42 3c-43.2 -60.8 -125.1 -168.4 -216.5 -302.6c86.8 -133.5 151.5 -234 232.5 -348.4z" />
    <glyph glyph-name="afii10040" unicode="&#x426;" horiz-adv-x="702" 
d="M607 200c0 -110 6.20001 -165 40 -168c24.9 -2.2 30 -11.3 30 -21l-12 -149l-2 -3h-32l-2 3c-10.9 72.6 -23.3 138 -103 138h-382c-34 0 -52 -3 -52 -3l-1 3c8 54 10 125 10 200v245c0 75 -3 143 -11 200l2 3s18 -3 52 -3c35 0 52 3 52 3l1 -3c-8 -53 -10 -125 -10 -200
v-245c0 -17 1 -117 8 -141c3 -9 10 -15 28 -15h262c18 0 25 6 28 15c7 24 8 124 8 141v245c0 75 -2 147 -10 200l1 3s17 -3 52 -3c34 0 52 3 52 3l2 -3c-8 -57 -11 -125 -11 -200v-245z" />
    <glyph glyph-name="afii10041" unicode="&#x427;" horiz-adv-x="633" 
d="M180 445v-28c0 -82 40 -109 112 -109c28.2 0 89.7 3.79999 152 43.7v93.3c0 75 -2 143 -10 200l2 3c12 -2 39 -3 51 -3s39 1 51 3l2 -3c-8 -53 -10 -125 -10 -200v-245c0 -75 2 -143 10 -200l-2 -3c-12 2 -39 3 -51 3s-39 -1 -51 -3l-2 3c8 54 10 125 10 200v107.6
c-71.1 -48.3 -137.3 -63.6 -194 -63.6c-114 0 -156 79 -156 178v23c0 75 -2 143 -10 200l2 3s17 -3 51 -3c35 0 52 3 52 3l1 -3c-8 -53 -10 -125 -10 -200z" />
    <glyph glyph-name="afii10042" unicode="&#x428;" horiz-adv-x="960" 
d="M859 200c0.299988 -75 2 -143 10 -200l-2 -3s-17 3 -51 3h-669c-35 0 -53 -3 -53 -3l-1 3c8 54 10 125 10 200v245c0 75 -3 143 -11 200l2 3s18 -3 52 -3c35 0 52 3 52 3l1 -3c-8 -53 -10 -125 -10 -200v-245c0 -17 1 -117 8 -141c3 -9 10 -15 28 -15h176
c18 0 25 6 28 15c7 24 8 124 8 141v245c0 75 -3 143 -11 200l2 3s18 -3 52 -3c35 0 52 3 52 3l1 -3c-8 -53 -10 -125 -10 -200v-245c0 -17 1 -117 8 -141c3 -9 10 -15 28 -15h178c18 0 25 6 28 15c7 24 8 124 8 141v245c0 75 -2 147 -10 200l1 3s17 -3 52 -3c34 0 52 3 52 3
l2 -3c-8 -57 -11 -125 -11 -200v-245z" />
    <glyph glyph-name="afii10043" unicode="&#x429;" horiz-adv-x="948" 
d="M147 0c-35 0 -53 -3 -53 -3l-1 3c8 54 10 125 10 200v245c0 75 -3 143 -11 200l2 3s18 -3 52 -3c35 0 52 3 52 3l1 -3c-8 -53 -10 -125 -10 -200v-245c0 -17 1 -117 8 -141c3 -9 10 -15 28 -15h176c18 0 25 6 28 15c7 24 8 124 8 141v245c0 75 -3 143 -11 200l2 3
s18 -3 52 -3c35 0 52 3 52 3l1 -3c-8 -53 -10 -125 -10 -200v-245c0 -17 1 -117 8 -141c3 -9 10 -15 28 -15h178c18 0 25 6 28 15c7 24 8 124 8 141v245c0 75 -2 147 -10 200l1 3s17 -3 52 -3c34 0 52 3 52 3l2 -3c-8 -57 -11 -125 -11 -200v-245
c0 -110 6.20001 -165 40 -168c24.9 -2.2 30 -11.3 30 -21l-12 -149l-2 -3h-32l-2 3c-10.9 72.6 -23.3 138 -103 138h-631z" />
    <glyph glyph-name="afii10044" unicode="&#x42a;" horiz-adv-x="723" 
d="M348 329v-245c0 -33 2 -51 57 -51c152 0 182 76 182 150c0 71 -26 146 -154 146h-85zM302 645c38 0 55 3 55 3l1 -3c-8 -53 -7.89999 -125 -10 -200v-72h78c216 0 262 -70 261 -190c-1.40002 -167 -137 -185 -258 -185c-36 0 -93 2 -122 2c-34 0 -54 -3 -54 -3l-1 3
c8 54 10 125 10 200v245c-0.200012 17 -1 112 -8 136c-134 0 -202 -12 -202 -12l-2 4c2 15 2 44 0 72l2 3c16 -2 39 -3 60 -3h190z" />
    <glyph glyph-name="afii10045" unicode="&#x42b;" horiz-adv-x="786" 
d="M596 446c0 75 -2 143 -10 200l2 3c12 -2 39 -3 51 -3s39 1 51 3l2 -3c-8 -53 -10 -125 -10 -200v-245c0 -75 2 -143 10 -200l-2 -3c-12 2 -39 3 -51 3s-39 -1 -51 -3l-2 3c8 54 10 125 10 200v245zM148 0c-34 0 -54 -3 -54 -3l-1 3c8 54 10 125 10 200v245
c0 75 -3 143 -11 200l2 3s18 -3 52 -3c35 0 52 3 52 3l1 -3c-8 -53 -10 -125 -10 -200v-72h78c246 0 261 -101 261 -190c0 -169 -134 -183 -278 -185c-36 -0.5 -73 2 -102 2zM189 329v-245c0 -33 2 -51 57 -51c152 0 182 78 182 150c0 67 -26 146 -154 146h-85z" />
    <glyph glyph-name="afii10046" unicode="&#x42c;" horiz-adv-x="558" 
d="M148 0c-34 0 -54 -3 -54 -3l-1 3c8 54 10 125 10 200v245c0 75 -3 143 -11 200l2 3s18 -3 52 -3c35 0 52 3 52 3l1 -3c-8 -53 -10 -125 -10 -200v-72h78c246 0 261 -101 261 -190c0 -169 -134 -183 -278 -185c-36 -0.5 -73 2 -102 2zM189 329v-245c0 -33 2 -51 57 -51
c152 0 182 78 182 150c0 67 -26 146 -154 146h-85z" />
    <glyph glyph-name="afii10047" unicode="&#x42d;" horiz-adv-x="604" 
d="M472 307c-55 -34 -99 -34 -112 -34c-62 0 -105 38 -164 38c-38 0 -54 -16 -62 -16c-4 0 -9 3 -9 12c0 25 63 53 122 53c66 0 95 -31 153 -31c29 0 52 6 71 15c-10 206 -119 277 -200 277c-95 0 -173 -81 -199 -167l-30 4c11 53 19 100 21 155c58 3 111 45 216 45
c165 0 282 -108 282 -325c0 -220 -116 -345 -286 -345c-86 0 -142 31 -173 55c-27 21 -48 52 -48 79c0 26 12 43 30 43c29 0 41 -13 51 -45c24 -72 79 -99 151 -99c127 0 185 148 186 286z" />
    <glyph glyph-name="afii10048" unicode="&#x42e;" horiz-adv-x="905" 
d="M572 614c-84 0 -191 -77 -191 -287c0 -192 93 -295 201 -295c103 0 188 99 188 278c0 208 -73 304 -198 304zM104 445c0 75 -2 143 -10 200l2 3c12 -2 39 -3 51 -3s39 1 51 3l2 -3c-8 -53 -10 -125 -10 -200v-99h96c13 179 131 312 287 312c183 0 293 -131 293 -329
c0 -200 -100 -339 -292 -341c-158 -1.6 -287 120 -289 314h-95v-102c0 -75 2 -143 10 -200l-2 -3c-12 2 -39 3 -51 3s-39 -1 -51 -3l-2 3c8 54 10 125 10 200v245z" />
    <glyph glyph-name="afii10049" unicode="&#x42f;" horiz-adv-x="561" 
d="M297 613c-61 0 -129 -17 -129 -135c0 -125 67 -148 164 -148h48v239c0 29 -12 44 -83 44zM219.2 300c-20.2 5.10001 -35.1 11.3 -48.2 18c-54 27 -100 79 -100 161c0 50 17 91 53 125c48 45 111 48 174 48c25 0 95 -7 125 -7c34 0 51 3 51 3l2 -3
c-8 -57 -10 -125 -10 -200v-245c0 -75 2 -146 10 -200l-1 -3s-17 3 -52 3c-34 0 -51 -3 -51 -3l-2 3c8 57 10 125 10 200v86c-24.9 0 -46.8 0.600006 -66.1 1.60001c-28.5 -32.9 -57.5 -72.7 -84.9 -111.6c-51 -72 -96 -145 -107 -179c-19 3 -49 3 -68 3c-20 0 -32 0 -52 -3
l-2 3c50.1 56.7 155.4 215.9 219.2 300z" />
    <glyph glyph-name="afii10089" unicode="&#x447;" horiz-adv-x="510" 
d="M68 291c0 75.5 -3 85 -11 138l1 3s14 -3 49 -3c34 0 48 3 48 3l2 -3c-8 -57 -9 -61 -9 -136c0 -78 7 -112 69 -112c48 0 84.5 11.5 116 42v27c0 71 -1 125 -10 179l2 3c12 -2 36 -3 48 -3s36 1 48 3l2 -3c-9 -57 -9 -104 -10 -179v-71c0 -75 1 -122 10 -179l-2 -3
c-12 2 -36 3 -48 3s-36 -1 -48 -3l-2 3c9 53.9 10 104.8 10 178.5c-38.1 -28 -70 -41.5 -129 -41.5c-98 0 -136 48 -136 154z" />
    <glyph glyph-name="afii10090" unicode="&#x448;" horiz-adv-x="807" 
d="M709 200c0 -74.5 2 -146 10 -200l-1 -3s-18 3 -52 3h-526c-34 0 -52 -3 -52 -3l-1 3c8 54 10 125 10 200v50c0 75 -1 122 -10 179l2 3s14 -3 48 -3c35 0 49 3 49 3l1 -3c-9 -54 -10 -105 -10 -179v-50c0 -17 1 -122 8 -146c7 -9 11 -13 26 -13h118c15 0 19 4 26 13
c7 24 8 129 8 146v50c0 75 -1 122 -10 179l2 3s14 -3 48 -3c35 0 49 3 49 3l1 -3c-9 -54 -10 -105 -10 -179v-50c0 -17 1 -122 8 -146c7 -9 11 -13 26 -13h132c15 0 5 4 12 13c7 24 8 129 8 146v49c0 76 -1.5 123 -10 180l2 3s14.7 -3 49 -3c35 0 49 3 49 3l1 -3
c-8.5 -53.5 -11 -104.9 -11 -180v-49z" />
    <glyph glyph-name="afii10091" unicode="&#x449;" horiz-adv-x="813" 
d="M140 0c-34 0 -52 -3 -52 -3l-1 3c8 54 10 125 10 200v50c0 75 -1 122 -10 179l2 3s14 -3 48 -3c35 0 49 3 49 3l1 -3c-9 -54 -10 -105 -10 -179v-50c0 -17 1 -122 8 -146c7 -9 11 -13 26 -13h118c15 0 19 4 26 13c7 24 8 129 8 146v50c0 75 -1 122 -10 179l2 3
s14 -3 48 -3c35 0 49 3 49 3l1 -3c-9 -54 -10 -105 -10 -179v-50c0 -17 1 -122 8 -146c7 -9 11 -13 26 -13h132c15 0 5 4 12 13c7 24 8 129 8 146v49c0 76 -1.5 123 -10 180l2 3s14.7 -3 49 -3c35 0 49 3 49 3l1 -3c-8.5 -53.5 -11 -104.9 -11 -180v-49
c0 -110 6.20001 -165 40 -168c24.9 -2.2 30 -11.3 30 -21l-12 -136l-2 -3h-32l-2 3c-10.9 72.6 -23.3 125 -103 125h-488z" />
    <glyph glyph-name="afii10092" unicode="&#x44a;" horiz-adv-x="545" 
d="M428 126c0 53 -17 93 -88 93h-67v-140c0 -35 17 -45 63 -45c50 0 92 10 92 92zM193 250c0 71 -3 124 -3 124c-125 0 -156 -11 -156 -11l-2 3c2 14 2 37 0 63l2 2c15 -1 36 -2 55 -2h144c34 0 48 3 48 3l2 -3c-9 -57 -10 -95 -10 -170v-3h77c96 0 164 -26 164 -120
c0 -84 -62 -138 -173 -138c-42.1 0 -65.9 2 -108 2c-35 0 -49 -3 -49 -3l-1 3c9 54 10 105 10 179v71z" />
    <glyph glyph-name="afii10093" unicode="&#x44b;" horiz-adv-x="681" 
d="M506 250c0 71 -1 125 -10 179l2 3c12 -2 36 -3 48 -3s36 1 48 3l2 -3c-9 -57 -9 -104 -10 -179v-71c0 -75 1 -122 10 -179l-2 -3c-12 2 -36 3 -48 3s-36 -1 -48 -3l-2 3c9 54 10 105 10 179v71zM336 126c0 53 -17 93 -88 93h-67v-140c0 -35 17 -45 63 -45
c50 0 92 10 92 92zM181 259v-3h77c96 0 164 -26 164 -120c0 -84 -62 -138 -173 -138c-42.1 0 -65.9 2 -108 2c-35 0 -49 -3 -49 -3l-1 3c9 54 10 105 10 179v71c0 71 -1 125 -10 179l1 3s14 -3 49 -3c34 0 48 3 48 3l2 -3c-9 -57 -10 -95 -10 -170z" />
    <glyph glyph-name="afii10094" unicode="&#x44c;" horiz-adv-x="453" 
d="M336 126c0 53 -17 93 -88 93h-67v-140c0 -35 17 -45 63 -45c50 0 92 10 92 92zM181 259v-3h77c96 0 164 -26 164 -120c0 -84 -62 -138 -173 -138c-42.1 0 -65.9 2 -108 2c-35 0 -49 -3 -49 -3l-1 3c9 54 10 105 10 179v71c0 71 -1 125 -10 179l1 3s14 -3 49 -3
c34 0 48 3 48 3l2 -3c-9 -57 -10 -95 -10 -170z" />
    <glyph glyph-name="afii10095" unicode="&#x44d;" horiz-adv-x="434" 
d="M300.5 245c-9 92.5 -57.1 154 -116.5 154c-44.1 0 -85 -29 -106 -74l-13 1l-23 82l2 3c31 16 89 28 139 28c129 0 207 -85 207 -221c0 -139.1 -100 -228 -201 -228c-50 0 -114 12 -145 28l-2 3l23 82l13 1c21 -45 57.9 -74 102 -74c70.5 0 118.5 61.5 121.8 171h-166.8
c-3 0 -4 1 -4 4l7 36c0.699997 3.8 2 4 4 4h158.5z" />
    <glyph glyph-name="afii10096" unicode="&#x44e;" horiz-adv-x="686" 
d="M454 399c-74 0 -101 -86 -101 -173c0 -77 18 -196 112 -196c41 0 99 33 99 165c0 146 -32 204 -110 204zM93 250c0 71 -1 125 -10 179l2 3c12 -2 36 -3 48 -3s36 1 48 3l2 -3c-9 -57 -9 -104 -10 -179v-13h96c10 119 75 202 190 202c144 0 190 -118 190 -222
c0 -100 -45 -227 -184 -227c-128 0 -195 107 -197 208h-95v-19c0 -75 1 -122 10 -179l-2 -3c-12 2 -36 3 -48 3s-36 -1 -48 -3l-2 3c9 54 10 105 10 179v71z" />
    <glyph glyph-name="afii10097" unicode="&#x44f;" horiz-adv-x="444" 
d="M283 230v132c0 32 -30 36 -69 36c-74 0 -91 -30 -91 -77c0 -50 23 -91 80 -91h80zM163.7 194.1c-4.8 0 -9.7 -0.100006 -14.7 -0.100006c-65 0 -111 50 -111 116c0 57 21 122 163 122c37 0 74.4 -3 122 -3c35 0 48 3 48 3l2 -3c-9 -54 -10 -105 -10 -178v-73
c0 -70 1 -124 10 -178l-1 -3s-14 3 -49 3c-34 0 -48 -3 -48 -3l-2 3c9 57 10 95 10 169v25.6c-58.9 -7.40001 -71.8 -33.2 -96 -81.6c-18 -35 -31 -64 -61 -116c-14 2 -47 3 -63 3s-41 -1 -49 -3l-2 3c53 59 65 94 119 158c12.1 14.7 22.4 26.6 32.7 36.1z" />
    <glyph glyph-name="uni04D0" unicode="&#x4d0;" horiz-adv-x="629" 
d="M407.3 275.5c-26.9 69.7 -60.2 151.9 -101.3 246.3h-2l-105.4 -245.9c22 -1.19998 75.5 -2.89999 104.4 -2.89999c29.7 0 71.3 1 104.3 2.5zM179 228.3c-35.7 -87.5 -66.6 -170 -83 -231.3c-12 3 -34 3 -45 3s-23 0 -35 -3c101 221 199 439 295 661h28
c92 -219 224 -560 274 -661c-17 3 -43 3 -60 3s-33 0 -50 -3c-6.10001 22.2 -28.7 100.2 -77.7 231.3c-24.3 1.7 -79.3 2.7 -117.3 2.7c-34.5 0 -104 -1 -129 -2.7zM319 729c33 0 56 17 56 34c0 5 -1 11 -1 13c0 15 10 30 33 30c27 0 37 -14 37 -33c0 -52 -59 -75 -125 -75
s-125 23 -125 75c0 19 10 33 37 33c23 0 33 -15 33 -30c0 -2 -1 -8 -1 -13c0 -17 23 -34 56 -34z" />
    <glyph glyph-name="uni04D1" unicode="&#x4d1;" horiz-adv-x="481" 
d="M355 590c0 -55 -58 -87 -122 -87c-65 0 -120 33 -120 87c0 18 16 33 39 33c22 0 34 -14 34 -30c0 -3 0 -5 -1 -8s-1 -6 -1 -8c0 -22 20 -43 50 -43c29 0 50 20 50 42c0 3 0 6 -1 9c-1 2 -1 4 -1 7c0 17 17 31 35 31c24 0 38 -14 38 -33zM310 225l-85 -23
c-78 -21 -99 -55 -99 -100c0 -31 29 -61 74 -61c30 0 64 18 92 39c8 6 14 13 14 26zM310.1 48h-4.10001c-53 -45 -81 -58 -136 -58c-74 0 -125 34 -125 108c0 68 64 122 166 145l93 21c3 1 7 5 7 12c0 113 -60 118 -96 118c-48 0 -82 -40 -110 -85l-13 1l-17 67l3 4
c25 21 71 58 147 58s165 -27 165 -162c0 -11 -2.79999 -122 -2.79999 -151c0 -44.5 6.5 -68.7 16.7 -78c6.10001 -5.6 19.4 -7.5 29.3 -7.5c7.59998 0 16.1 1.4 27 5.2l7.39999 -24.7c-23.6 -25 -54.4 -31 -79.6 -31c-36.6 0 -66.5 18.9 -77.9 58z" />
    <glyph glyph-name="uni04D2" unicode="&#x4d2;" horiz-adv-x="629" 
d="M194 757c0 26 21 48 47 48s47 -22 47 -48s-21 -47 -47 -47s-47 21 -47 47zM363 757c0 26 21 48 47 48s47 -22 47 -48s-21 -47 -47 -47s-47 21 -47 47zM407.3 275.5c-26.9 69.7 -60.2 151.9 -101.3 246.3h-2l-105.4 -245.9c22 -1.19998 75.5 -2.89999 104.4 -2.89999
c29.7 0 71.3 1 104.3 2.5zM179 228.3c-35.7 -87.5 -66.6 -170 -83 -231.3c-12 3 -34 3 -45 3s-23 0 -35 -3c101 221 199 439 295 661h28c92 -219 224 -560 274 -661c-17 3 -43 3 -60 3s-33 0 -50 -3c-6.10001 22.2 -28.7 100.2 -77.7 231.3c-24.3 1.7 -79.3 2.7 -117.3 2.7
c-34.5 0 -104 -1 -129 -2.7z" />
    <glyph glyph-name="uni04D3" unicode="&#x4d3;" horiz-adv-x="481" 
d="M91 574c0 26 21 48 47 48s47 -22 47 -48s-21 -47 -47 -47s-47 21 -47 47zM260 574c0 26 21 48 47 48s47 -22 47 -48s-21 -47 -47 -47s-47 21 -47 47zM310 225l-85 -23c-78 -21 -99 -55 -99 -100c0 -31 29 -61 74 -61c30 0 64 18 92 39c8 6 14 13 14 26zM310.1 48
h-4.10001c-53 -45 -81 -58 -136 -58c-74 0 -125 34 -125 108c0 68 64 122 166 145l93 21c3 1 7 5 7 12c0 113 -60 118 -96 118c-48 0 -82 -40 -110 -85l-13 1l-17 67l3 4c25 21 71 58 147 58s165 -27 165 -162c0 -11 -2.79999 -122 -2.79999 -151
c0 -44.5 6.5 -68.7 16.7 -78c6.10001 -5.6 19.4 -7.5 29.3 -7.5c7.59998 0 16.1 1.4 27 5.2l7.39999 -24.7c-23.6 -25 -54.4 -31 -79.6 -31c-36.6 0 -66.5 18.9 -77.9 58z" />
    <glyph glyph-name="uni04D4" unicode="&#x4d4;" horiz-adv-x="802" 
d="M222 278.5c-51.4 -106.7 -96.5 -209.4 -124 -281.5c-12 3 -34 3 -45 3s-23 0 -35 -3c106 203 203 413 348 648.7l0.200012 -0.400024l1.79999 2.70001s17 -3 51 -3h213c21 0 44 1 60 3l2 -3c-1 -14 -2 -23 -2 -31c0 -9 1 -18 2 -26l-2 -4s-77.3 10.3 -183 10.3
c-75.5 0 -89.8 -9 -84.6 -48.8c14.2 -70.4 30.2 -143.1 46.3 -212.5c112.1 0.200012 166.8 5.10001 224.3 10l3 -3c-2 -9 -3 -19 -3 -28s1 -19 3 -28l-3 -3c-61.3 6.20001 -159.6 9.29999 -214.5 9.89999c21.5 -91 42.5 -174 59 -235.1c99.8 3.4 212.5 10.2 212.5 10.2l2 -4
c-1 -8 -2 -23 -2 -33s1 -15 2 -29l-2 -3c-16 2 -39 3 -60 3h-137h-1.5h-53.5c-17 0 -33 0 -50 -3c0 35.7 -13.4 120.3 -44.1 282.4c-22.2 0.399994 -44.6 0.600006 -65.9 0.600006c-31.3 0 -80.7 -0.700012 -118 -1.5zM397.2 324.7c-11.5 60 -25 129.2 -40.7 208.8h-2
c-36.3 -64 -74 -135.9 -109.5 -207.8c29.6 -0.600006 65.2 -1.70001 90 -1.70001c17.9 0 40.1 0.299988 62.2 0.700012z" />
    <glyph glyph-name="uni04D5" unicode="&#x4d5;" horiz-adv-x="687" 
d="M296 215c-133 -12 -175 -58 -175 -109c0 -45 24 -66 71 -66c36 0 79 21 93 60c6.39999 17.9 11 65 11 115zM375 258c140 8 187 -13 187 48c0 32 -25 88 -73 88c-63 0 -106 -51 -114 -136zM202 394c-44.5 0 -87 -44 -113 -89l-13 1l-16 67l3 4c24.5 20.5 75.5 62 148 62
c24 0 100 -3 137 -70c33 45 85 70 142 70c114 0 156 -96 156 -130c0 -30.9 -6 -55 -26 -72c-35.7 -19.7 -110.5 -11.6 -246 -19c0 -106 49 -174 124 -174c54 0 93 33 123 68l20 -28c-29 -54 -91 -94 -157 -94c-91 0 -124 44 -144 69c-46 -44 -95 -69 -150 -69
c-105 0 -151 43 -151 111c0 83 87 142 257 154c-1.20001 93.6 -21.2 139 -94 139z" />
    <glyph glyph-name="uni04D6" unicode="&#x4d6;" horiz-adv-x="538" 
d="M190 200c0 -17 1 -120 8 -144c134 0 282 12 282 12l2 -4c-1 -8 -2 -23 -2 -33s1 -17 2 -31l-2 -3c-16 2 -39 3 -60 3h-273c-35 0 -52 -3 -52 -3l-1 3c8 54 10 125 10 200v245c0 75 -2 143 -10 200l2 3s17 -3 51 -3h263c21 0 44 1 60 3l2 -3c-1 -14 -2 -30 -2 -38
c0 -9 1 -18 2 -26l-2 -4s-138 12 -272 12c-7 -24 -8 -127 -8 -144v-78c118 0 164 5 223 10l3 -3c-2 -9 -3 -23 -3 -32s1 -23 3 -32l-3 -3c-69 7 -175 10 -223 10v-117zM274 729c33 0 56 17 56 34c0 5 -1 11 -1 13c0 15 10 30 33 30c27 0 37 -14 37 -33
c0 -52 -59 -75 -125 -75s-125 23 -125 75c0 19 10 33 37 33c23 0 33 -15 33 -30c0 -2 -1 -8 -1 -13c0 -17 23 -34 56 -34z" />
    <glyph glyph-name="uni04D7" unicode="&#x4d7;" horiz-adv-x="453" 
d="M347 590c0 -55 -58 -87 -122 -87c-65 0 -120 33 -120 87c0 18 16 33 39 33c22 0 34 -14 34 -30c0 -3 0 -5 -1 -8s-1 -6 -1 -8c0 -22 20 -43 50 -43c29 0 50 20 50 42c0 3 0 6 -1 9c-1 2 -1 4 -1 7c0 17 17 31 35 31c24 0 38 -14 38 -33zM125 273h184c10 0 14 5 14 14
c0 75 -44.5 112 -84 112c-31.5 0 -97 -22 -114 -126zM392 104l20 -25c-38 -52 -102 -89 -174 -89c-67.4 0 -124.6 24.7 -159 66c-33.5 40.2 -45 96.3 -45 153c0 147 102 230 205 230c132 0 173 -105 173 -189c0 -11 -7 -17 -18 -17h-272c0 -58.1 6.39999 -98.9 24 -127
c27.5 -44 74.8 -57 109 -57c55 0 102 17 137 55z" />
    <glyph glyph-name="uni04D8" unicode="&#x4d8;" horiz-adv-x="644" 
d="M515 314c0 156 -93.1 293 -219.9 293c-93 0 -153 -26 -224 -104l-7 3c-3.5 9 -5.5 31 -6.1 42.5c66.8 80.8 153.7 109.5 246.1 109.5c215 0 313.9 -152 313.9 -325c0 -195 -109 -343 -302 -343c-192 0 -270 138 -281 280h479c1 11 1 30 1 44zM127 226
c31 -130 98 -196 196 -196c106 0 164 96 182 196h-378z" />
    <glyph glyph-name="afii10846" unicode="&#x4d9;" horiz-adv-x="453" 
d="M303 155h-184c-10 0 -14 -5 -14 -14c0 -75 44.5 -112 84 -112c31.5 0 97 22 114 126zM36 324l-20 25c38 52 102 89 174 89c67.4 0 124.6 -24.7 159 -66c33.5 -40.2 45 -96.3 45 -153c0 -147 -102 -230 -205 -230c-132 0 -173 105 -173 189c0 11 7 17 18 17h272
c0 58.1 -6.39999 98.9 -24 127c-27.5 44 -74.8 57 -109 57c-55 0 -102 -17 -137 -55z" />
    <glyph glyph-name="uni04DA" unicode="&#x4da;" horiz-adv-x="644" 
d="M352 752c0 26 22 48 48 48s48 -22 48 -48s-22 -48 -48 -48s-48 22 -48 48zM163 752c0 26 22 48 48 48s48 -22 48 -48s-22 -48 -48 -48s-48 22 -48 48zM515 314c0 156 -93.1 293 -219.9 293c-93 0 -153 -26 -224 -104l-7 3c-3.5 9 -5.5 31 -6.1 42.5
c66.8 80.8 153.7 109.5 246.1 109.5c215 0 313.9 -152 313.9 -325c0 -195 -109 -343 -302 -343c-192 0 -270 138 -281 280h479c1 11 1 30 1 44zM127 226c31 -130 98 -196 196 -196c106 0 164 96 182 196h-378z" />
    <glyph glyph-name="uni04DB" unicode="&#x4db;" horiz-adv-x="453" 
d="M83 572c0 26 21 48 47 48s47 -22 47 -48s-21 -47 -47 -47s-47 21 -47 47zM252 572c0 26 21 48 47 48s47 -22 47 -48s-21 -47 -47 -47s-47 21 -47 47zM303 155h-184c-10 0 -14 -5 -14 -14c0 -75 44.5 -112 84 -112c31.5 0 97 22 114 126zM36 324l-20 25
c38 52 102 89 174 89c67.4 0 124.6 -24.7 159 -66c33.5 -40.2 45 -96.3 45 -153c0 -147 -102 -230 -205 -230c-132 0 -173 105 -173 189c0 11 7 17 18 17h272c0 58.1 -6.39999 98.9 -24 127c-27.5 44 -74.8 57 -109 57c-55 0 -102 -17 -137 -55z" />
    <glyph glyph-name="uni04E0" unicode="&#x4e0;" horiz-adv-x="608" 
d="M291 -170c115 0 174 112 174 212c0 147 -136 208 -205 208c-16 0 -27 0 -41 -3l213 332c4.89999 7.70001 2 12 -3 12c-100.5 0 -218.5 -9.5 -355 -21l-2 3c1 8 2 23 2 33s-1 25 -2 39l2 3c16 -2 39 -3 61 -3h304c31 0 109.5 3.79999 126 6c4.5 0 6 -2 6 -6
c0 -11 -11.1 -25.3 -30 -54l-199 -302c145 -12 226 -105 226 -244c0 -128.5 -84 -262 -282 -262c-122 0 -229 37 -229 37l-2 3c11 42.5 14.4 72 18 123l29.5 4c41 -82 122 -120 188.5 -120z" />
    <glyph glyph-name="uni04E1" unicode="&#x4e1;" horiz-adv-x="409" 
d="M76 100l-8 11l199 268l-101 -3c-24 -1 -48 -2 -73 -3l-71 -5l-2 3c1 11 2 21 2 31l-2 27l2 3c15 -2 34 -3 56 -3h224c27 0 59 3 74 3c3 0 7 -2 7 -4c0 -4 -4.39999 -13.7 -25 -41l-173.2 -229c10 1 22.2 2 33.2 2c99 0 164 -64 164 -170c0 -113 -70 -212 -207 -212
c-64 0 -108 17 -147 46c10 20 17 46 21 76l13 1c26 -48 62 -85 115 -85c72 0 125 73 125 168c0 83 -38 130 -116 130c-47 0 -76 -4 -110 -14z" />
    <glyph glyph-name="uni04E6" unicode="&#x4e6;" horiz-adv-x="741" 
d="M398 752c0 26 22 48 48 48s48 -22 48 -48s-22 -48 -48 -48s-48 22 -48 48zM209 752c0 26 22 48 48 48s48 -22 48 -48s-22 -48 -48 -48s-48 22 -48 48zM355 614c-96 0 -200 -77 -200 -287c0 -192 114 -293 234 -293c114 0 197 97 197 276c0 208 -90 304 -231 304zM689 329
c0 -200 -129 -339 -320 -339c-172 0 -317 123 -317 320c0 196 137 348 316 348c180 0 321 -131 321 -329z" />
    <glyph glyph-name="uni04E7" unicode="&#x4e7;" horiz-adv-x="500" 
d="M38 205c0 142 85 234 216 234c135 0 208 -89 208 -225c0 -131 -80 -224 -212 -224c-133 0 -212 95 -212 215zM247 399c-94 0 -121 -90 -121 -177c0 -77 27 -192 133 -192c67 0 115 70.9 115 166c0 121 -21 203 -127 203zM124 574c0 26 21 48 47 48s47 -22 47 -48
s-21 -47 -47 -47s-47 21 -47 47zM293 574c0 26 21 48 47 48s47 -22 47 -48s-21 -47 -47 -47s-47 21 -47 47z" />
    <glyph glyph-name="uni04E8" unicode="&#x4e8;" horiz-adv-x="741" 
d="M689 329c0 -200 -129 -339 -320 -339c-172 0 -317 123 -317 320c0 196 137 348 316 348c180 0 321 -131 321 -329zM585.8 326c-43.8 -46.6 -98.9 -60 -139.8 -60c-92 0 -116 46 -191 46c-24.5 0 -65.7 -3.5 -98.8 -18.1c12.3 -170.5 119.9 -259.9 232.8 -259.9
c114 0 197 97 197 276c0 5.39999 -0.0999756 10.7 -0.200012 16zM583.6 366c-15.1 169.3 -100.9 248 -228.6 248c-94.3 0 -196.3 -74.3 -199.9 -275.9c38 21.8 86.5 31.9 117.9 31.9c98 0 128 -47 191 -47c34.8 0 87.2 15.1 119.6 43z" />
    <glyph glyph-name="uni04E9" unicode="&#x4e9;" horiz-adv-x="500" 
d="M38 205c0 142 85 234 216 234c135 0 208 -89 208 -225c0 -131 -80 -224 -212 -224c-133 0 -212 95 -212 215zM373.8 214.9c-21.6 -13.8 -62.7 -35.9 -99.8 -35.9c-43 0 -77 28 -112 28c-7.7 0 -23.4 -2.89999 -35.4 -5c4.50001 -75.4 35.2 -172 132.4 -172
c67 0 115 70.9 115 166c0 6.39999 -0.100006 12.7 -0.200012 18.9zM372.7 242.1c-5.80002 95.3 -33.8 156.9 -125.7 156.9c-90.9 0 -119.2 -84.2 -120.9 -168.5c23.1 10 59.6 18.5 86.9 18.5c45 0 67 -20 105 -20c20 0 40 6.60001 54.7 13.1z" />
    <glyph glyph-name="uni04EA" unicode="&#x4ea;" horiz-adv-x="741" 
d="M415 754c0 26 22 48 48 48s48 -22 48 -48s-22 -48 -48 -48s-48 22 -48 48zM226 754c0 26 22 48 48 48s48 -22 48 -48s-22 -48 -48 -48s-48 22 -48 48zM689 329c0 -200 -129 -339 -320 -339c-172 0 -317 123 -317 320c0 196 137 348 316 348c180 0 321 -131 321 -329z
M585.8 326c-43.8 -46.6 -98.9 -60 -139.8 -60c-92 0 -116 46 -191 46c-24.5 0 -65.7 -3.5 -98.8 -18.1c12.3 -170.5 119.9 -259.9 232.8 -259.9c114 0 197 97 197 276c0 5.39999 -0.0999756 10.7 -0.200012 16zM583.6 366c-15.1 169.3 -100.9 248 -228.6 248
c-94.3 0 -196.3 -74.3 -199.9 -275.9c38 21.8 86.5 31.9 117.9 31.9c98 0 128 -47 191 -47c34.8 0 87.2 15.1 119.6 43z" />
    <glyph glyph-name="uni04EB" unicode="&#x4eb;" horiz-adv-x="500" 
d="M38 205c0 142 85 234 216 234c135 0 208 -89 208 -225c0 -131 -80 -224 -212 -224c-133 0 -212 95 -212 215zM126 572c0 26 21 48 47 48s47 -22 47 -48s-21 -47 -47 -47s-47 21 -47 47zM295 572c0 26 21 48 47 48s47 -22 47 -48s-21 -47 -47 -47s-47 21 -47 47z
M373.8 214.9c-21.6 -13.8 -62.7 -35.9 -99.8 -35.9c-43 0 -77 28 -112 28c-7.7 0 -23.4 -2.89999 -35.4 -5c4.50001 -75.4 35.2 -172 132.4 -172c67 0 115 70.9 115 166c0 6.39999 -0.100006 12.7 -0.200012 18.9zM372.7 242.1c-5.80002 95.3 -33.8 156.9 -125.7 156.9
c-90.9 0 -119.2 -84.2 -120.9 -168.5c23.1 10 59.6 18.5 86.9 18.5c45 0 67 -20 105 -20c20 0 40 6.60001 54.7 13.1z" />
    <glyph glyph-name="uni04EF" unicode="&#x4ef;" horiz-adv-x="506" 
d="M28 432c14 -3 39 -3 52 -3c14 0 36 0 49 3c37.4 -114.2 84.5 -225.5 133.7 -344.4h2c48.6 103.6 95.3 231.4 131.3 344.4c10 -3 29 -3 39 -3s33 0 43 3c-33 -67 -252 -544 -290 -669c-10 3 -39 5 -49 5s-25 -2 -35 -5c45.2 75.3 86 152.3 118 227
c-35.4 95.1 -154.2 353.2 -194 442zM377 538h-244c-9 0 -13 8 -13 15c0 12 11 29 22 29h245c10 0 14 -8 14 -14c0 -12 -11 -30 -24 -30z" />
    <glyph glyph-name="uni04F1" unicode="&#x4f1;" horiz-adv-x="506" 
d="M28 432c14 -3 39 -3 52 -3c14 0 36 0 49 3c37.4 -114.2 84.5 -225.5 133.7 -344.4h2c48.6 103.6 95.3 231.4 131.3 344.4c10 -3 29 -3 39 -3s33 0 43 3c-33 -67 -252 -544 -290 -669c-10 3 -39 5 -49 5s-25 -2 -35 -5c45.2 75.3 86 152.3 118 227
c-35.4 95.1 -154.2 353.2 -194 442zM141 574c0 26 21 48 47 48s47 -22 47 -48s-21 -47 -47 -47s-47 21 -47 47zM310 574c0 26 21 48 47 48s47 -22 47 -48s-21 -47 -47 -47s-47 21 -47 47z" />
    <glyph glyph-name="uni04F3" unicode="&#x4f3;" horiz-adv-x="506" 
d="M28 432c14 -3 39 -3 52 -3c14 0 36 0 49 3c37.4 -114.2 84.5 -225.5 133.7 -344.4h2c48.6 103.6 95.3 231.4 131.3 344.4c10 -3 29 -3 39 -3s33 0 43 3c-33 -67 -252 -544 -290 -669c-10 3 -39 5 -49 5s-25 -2 -35 -5c45.2 75.3 86 152.3 118 227
c-35.4 95.1 -154.2 353.2 -194 442zM454 615c0 -6 -1 -13 -7 -19l-114 -110c-2 -2 -4 -2 -6 -2c-5 0 -14 5 -14 13c0 1 0 3 1 4l78 139c5 9 12 12 24 12c21 0 38 -18.4 38 -37zM322 621c0 -5 -1 -11 -5 -16l-102 -121c-2 -2 -5 -3 -8 -3c-6 0 -14 5 -14 13c0 1 0 2 1 3
l64 146c6 13 22 14 26 14c20.9 0 38 -15.5 38 -36z" />
    <glyph glyph-name="uni1E00" unicode="&#x1e00;" horiz-adv-x="629" 
d="M308 -76c-31 0 -50 -26 -50 -56c0 -28 19 -56 50 -56s50 28 50 56c0 31 -20 56 -50 56zM221 -132c0 46 41 83 87 83s87 -36 87 -83c0 -45 -39 -83 -87 -83c-46 0 -87 37 -87 83zM407.3 275.5c-26.9 69.7 -60.2 151.9 -101.3 246.3h-2l-105.4 -245.9
c22 -1.19998 75.5 -2.89999 104.4 -2.89999c29.7 0 71.3 1 104.3 2.5zM179 228.3c-35.7 -87.5 -66.6 -170 -83 -231.3c-12 3 -34 3 -45 3s-23 0 -35 -3c101 221 199 439 295 661h28c92 -219 224 -560 274 -661c-17 3 -43 3 -60 3s-33 0 -50 -3
c-6.10001 22.2 -28.7 100.2 -77.7 231.3c-24.3 1.7 -79.3 2.7 -117.3 2.7c-34.5 0 -104 -1 -129 -2.7z" />
    <glyph glyph-name="uni1E01" unicode="&#x1e01;" horiz-adv-x="481" 
d="M224 -77c-31 0 -50 -26 -50 -56c0 -28 19 -56 50 -56s50 28 50 56c0 31 -20 56 -50 56zM137 -133c0 46 41 83 87 83s87 -36 87 -83c0 -45 -39 -83 -87 -83c-46 0 -87 37 -87 83zM310 225l-85 -23c-78 -21 -99 -55 -99 -100c0 -31 29 -61 74 -61c30 0 64 18 92 39
c8 6 14 13 14 26zM310.1 48h-4.10001c-53 -45 -81 -58 -136 -58c-74 0 -125 34 -125 108c0 68 64 122 166 145l93 21c3 1 7 5 7 12c0 113 -60 118 -96 118c-48 0 -82 -40 -110 -85l-13 1l-17 67l3 4c25 21 71 58 147 58s165 -27 165 -162c0 -11 -2.79999 -122 -2.79999 -151
c0 -44.5 6.5 -68.7 16.7 -78c6.10001 -5.6 19.4 -7.5 29.3 -7.5c7.59998 0 16.1 1.4 27 5.2l7.39999 -24.7c-23.6 -25 -54.4 -31 -79.6 -31c-36.6 0 -66.5 18.9 -77.9 58z" />
    <glyph glyph-name="uni1E02" unicode="&#x1e02;" horiz-adv-x="616" 
d="M190 559v-188h78c83 0 140 25 140 110c0 102 -71 124 -127 124c-81 0 -91 -12.7 -91 -46zM190 328v-240c0 -33 27 -48 97 -48c144.2 0 168 55.9 168 125c0 90 -55 163 -172 163h-93zM147 645c50 0 92 3 127 3c186 0 221 -88 221 -155c0 -55 -42 -108 -93 -133
c87 -25 152 -80 152 -176c0 -86 -49 -187 -248 -187c-89 0 -97 3 -159 3c-35 0 -52 -3 -52 -3l-1 3c8 54 10 125 10 200v245c0 75 -2 143 -10 200l2 3s17 -3 51 -3zM224 781c0 28 24 52 52 52s52 -24 52 -52s-24 -52 -52 -52s-52 24 -52 52z" />
    <glyph glyph-name="uni1E03" unicode="&#x1e03;" horiz-adv-x="504" 
d="M254 597c0 27 24 51 51 51s51 -24 51 -51s-24 -51 -51 -51s-51 24 -51 51zM162 81c20 -25 57 -51 88 -51c95 0 132 70 132 194c0 124.7 -53.9 175 -115 175c-41 0 -66 -19 -105 -59v-259zM162 500v-111c34 37 77 50 125 50c97 0 184 -85 184 -207
c0 -170 -113 -242 -215 -242c-43 0 -89 24 -118 49c-10.5 -20 -22 -37 -33 -49c-10.5 0 -22 2 -28 8c4.2 21.8 5 36 5 75v409c0 76 -4.3 150.3 -12 193l2 3c40.5 3 61.9 10 87 20c6.3 0 9 -3 9 -10c-4.7 -61.3 -6 -114 -6 -188z" />
    <glyph glyph-name="uni1E04" unicode="&#x1e04;" horiz-adv-x="616" 
d="M219 -158c0 27 24 51 51 51s51 -24 51 -51s-24 -51 -51 -51s-51 24 -51 51zM190 559v-188h78c83 0 140 25 140 110c0 102 -71 124 -127 124c-81 0 -91 -12.7 -91 -46zM190 328v-240c0 -33 27 -48 97 -48c144.2 0 168 55.9 168 125c0 90 -55 163 -172 163h-93zM147 645
c50 0 92 3 127 3c186 0 221 -88 221 -155c0 -55 -42 -108 -93 -133c87 -25 152 -80 152 -176c0 -86 -49 -187 -248 -187c-89 0 -97 3 -159 3c-35 0 -52 -3 -52 -3l-1 3c8 54 10 125 10 200v245c0 75 -2 143 -10 200l2 3s17 -3 51 -3z" />
    <glyph glyph-name="uni1E05" unicode="&#x1e05;" horiz-adv-x="504" 
d="M174 -158c0 27 24 51 51 51s51 -24 51 -51s-24 -51 -51 -51s-51 24 -51 51zM162 81c20 -25 57 -51 88 -51c95 0 132 70 132 194c0 124.7 -53.9 175 -115 175c-41 0 -66 -19 -105 -59v-259zM162 500v-111c34 37 77 50 125 50c97 0 184 -85 184 -207
c0 -170 -113 -242 -215 -242c-43 0 -89 24 -118 49c-10.5 -20 -22 -37 -33 -49c-10.5 0 -22 2 -28 8c4.2 21.8 5 36 5 75v409c0 76 -4.3 150.3 -12 193l2 3c40.5 3 61.9 10 87 20c6.3 0 9 -3 9 -10c-4.7 -61.3 -6 -114 -6 -188z" />
    <glyph glyph-name="uni1E06" unicode="&#x1e06;" horiz-adv-x="616" 
d="M393 -106h-245c-8 0 -12 8 -12 15c0 12 10 29 22 29h245c9 0 13 -7 13 -14c0 -12 -10 -30 -23 -30zM190 559v-188h78c83 0 140 25 140 110c0 102 -71 124 -127 124c-81 0 -91 -12.7 -91 -46zM190 328v-240c0 -33 27 -48 97 -48c144.2 0 168 55.9 168 125
c0 90 -55 163 -172 163h-93zM147 645c50 0 92 3 127 3c186 0 221 -88 221 -155c0 -55 -42 -108 -93 -133c87 -25 152 -80 152 -176c0 -86 -49 -187 -248 -187c-89 0 -97 3 -159 3c-35 0 -52 -3 -52 -3l-1 3c8 54 10 125 10 200v245c0 75 -2 143 -10 200l2 3s17 -3 51 -3z
" />
    <glyph glyph-name="uni1E07" unicode="&#x1e07;" horiz-adv-x="504" 
d="M363 -110h-245c-8 0 -12 8 -12 15c0 12 10 29 22 29h245c9 0 13 -7 13 -14c0 -12 -10 -30 -23 -30zM162 81c20 -25 57 -51 88 -51c95 0 132 70 132 194c0 124.7 -53.9 175 -115 175c-41 0 -66 -19 -105 -59v-259zM162 500v-111c34 37 77 50 125 50c97 0 184 -85 184 -207
c0 -170 -113 -242 -215 -242c-43 0 -89 24 -118 49c-10.5 -20 -22 -37 -33 -49c-10.5 0 -22 2 -28 8c4.2 21.8 5 36 5 75v409c0 76 -4.3 150.3 -12 193l2 3c40.5 3 61.9 10 87 20c6.3 0 9 -3 9 -10c-4.7 -61.3 -6 -114 -6 -188z" />
    <glyph glyph-name="uni1E08" unicode="&#x1e08;" horiz-adv-x="677" 
d="M427 820c28.6 -13.3 49.3 -30.7 62 -52l-144 -58c-21 -9 -33 -12 -42 -12s-15 7 -15 15c0 7 2 12 15 21zM367 -100c-19 0 -29 -1 -45 -6l-6 6l37.6 90.2c-206.4 5.8 -301.6 155.2 -301.6 324.8c0 197 159 343 328 343c122 0 218 -50 218 -50l2 -3
c-11 -42.5 -14.4 -60 -18 -111l-12 -1c-41 82 -114 118 -204 118c-82 0 -211 -74 -211 -277c0 -156 93.2 -293 220 -293c93 0 153 26 224 104l7 -3c3.5 -9 5.5 -31 6.09998 -42.5c-61.5 -74.4 -140 -104.6 -224.1 -108.9l-23 -61.6c8 2 17 3 26 3c40 0 71 -24 71 -62
c0 -43 -46 -74 -107 -74c-32 0 -49 6 -74 17c0 12 3 19 10 26c27 -10 38 -14 58 -14c30 0 51 14 51 40c0 21 -10 35 -33 35z" />
    <glyph glyph-name="uni1E09" unicode="&#x1e09;" horiz-adv-x="429" 
d="M300 671c3 1 9 2 14 2c6.39999 0 32 -1 55 -23l3 -11l-115 -109c-15 -15 -23 -19 -30 -19s-14 6 -14 13c0 11.2 3.3 15.2 11.4 28zM233 -94c-19 0 -29 -1 -45 -6l-6 6l35.4 85c-109.6 9.9 -179.4 96.3 -179.4 227c0 136 109 221 213 221c50 0 102 -12 133 -28l2 -3
l-23 -82l-13 -1c-26.5 45.5 -61.5 74 -100 74c-66 0 -124 -66 -124 -176c0 -117 57 -183 130 -183c37.2 0 69 8 107 42h4l19 -21c-37.1 -47.4 -80.4 -68 -134.4 -70.7l-20.6 -55.3c8 2 17 3 26 3c40 0 71 -24 71 -62c0 -43 -46 -74 -107 -74c-32 0 -49 6 -74 17
c0 12 3 19 10 26c27 -10 38 -14 58 -14c30 0 51 14 51 40c0 21 -10 35 -33 35z" />
    <glyph glyph-name="uni1E0A" unicode="&#x1e0a;" horiz-adv-x="710" 
d="M244 781c0 28 24 52 52 52s52 -24 52 -52s-24 -52 -52 -52s-52 24 -52 52zM190 82c0 -32 11 -40 109 -40c141 0 256 40 256 242c0 154 -65 320 -281 320c-49 0 -84 -5 -84 -40v-482zM147 645c64 0 101 3 165 3c192 0 346 -154 346 -340c0 -246 -187 -310 -328 -310
c-103 0 -112 2 -183 2c-35 0 -52 -3 -52 -3l-1 3c8 54 10 125 10 200v245c0 75 -2 143 -10 200l2 3s17 -3 51 -3z" />
    <glyph glyph-name="uni1E0B" unicode="&#x1e0b;" horiz-adv-x="530" 
d="M181 597c0 27 24 51 51 51s51 -24 51 -51s-24 -51 -51 -51s-51 24 -51 51zM361 113v228c-24 38 -48 58 -95 58c-48.4 0 -128 -28 -128 -178c0 -125 46 -179 100 -179c40.5 0 86.5 24.5 123 71zM361 58c-36 -46.5 -81 -68 -129 -68c-108 0 -181 100 -181 223
c0 136 95.8 226 226 226c20 0 61 -9 84 -22v65c0 76 -1.29999 150.3 -9 193l2 3c40.5 3 61.9 10 87 20c6.29999 0 9 -3 9 -10c-5 -61.7 -9 -114 -9 -188v-308c0 -75 9 -149 17 -192l-2 -3c-13 2 -31.9 3 -44.5 3c-14.5 0 -21.2 -1.3 -34.5 -3c-6 0 -9 1 -9 3l-5 58h-2z" />
    <glyph glyph-name="uni1E0C" unicode="&#x1e0c;" horiz-adv-x="710" 
d="M239 -158c0 27 24 51 51 51s51 -24 51 -51s-24 -51 -51 -51s-51 24 -51 51zM190 82c0 -32 11 -40 109 -40c141 0 256 40 256 242c0 154 -65 320 -281 320c-49 0 -84 -5 -84 -40v-482zM147 645c64 0 101 3 165 3c192 0 346 -154 346 -340c0 -246 -187 -310 -328 -310
c-103 0 -112 2 -183 2c-35 0 -52 -3 -52 -3l-1 3c8 54 10 125 10 200v245c0 75 -2 143 -10 200l2 3s17 -3 51 -3z" />
    <glyph glyph-name="uni1E0D" unicode="&#x1e0d;" horiz-adv-x="530" 
d="M235 -158c0 27 24 51 51 51s51 -24 51 -51s-24 -51 -51 -51s-51 24 -51 51zM361 113v228c-24 38 -48 58 -95 58c-48.4 0 -128 -28 -128 -178c0 -125 46 -179 100 -179c40.5 0 86.5 24.5 123 71zM361 58c-36 -46.5 -81 -68 -129 -68c-108 0 -181 100 -181 223
c0 136 95.8 226 226 226c20 0 61 -9 84 -22v65c0 76 -1.29999 150.3 -9 193l2 3c40.5 3 61.9 10 87 20c6.29999 0 9 -3 9 -10c-5 -61.7 -9 -114 -9 -188v-308c0 -75 9 -149 17 -192l-2 -3c-13 2 -31.9 3 -44.5 3c-14.5 0 -21.2 -1.3 -34.5 -3c-6 0 -9 1 -9 3l-5 58h-2z" />
    <glyph glyph-name="uni1E0E" unicode="&#x1e0e;" horiz-adv-x="710" 
d="M400 -105h-245c-8 0 -12 8 -12 15c0 12 10 29 22 29h245c9 0 13 -7 13 -14c0 -12 -10 -30 -23 -30zM190 82c0 -32 11 -40 109 -40c141 0 256 40 256 242c0 154 -65 320 -281 320c-49 0 -84 -5 -84 -40v-482zM147 645c64 0 101 3 165 3c192 0 346 -154 346 -340
c0 -246 -187 -310 -328 -310c-103 0 -112 2 -183 2c-35 0 -52 -3 -52 -3l-1 3c8 54 10 125 10 200v245c0 75 -2 143 -10 200l2 3s17 -3 51 -3z" />
    <glyph glyph-name="uni1E0F" unicode="&#x1e0f;" horiz-adv-x="530" 
d="M402 -109h-245c-8 0 -12 8 -12 15c0 12 10 29 22 29h245c9 0 13 -7 13 -14c0 -12 -10 -30 -23 -30zM361 113v228c-24 38 -48 58 -95 58c-48.4 0 -128 -28 -128 -178c0 -125 46 -179 100 -179c40.5 0 86.5 24.5 123 71zM361 58c-36 -46.5 -81 -68 -129 -68
c-108 0 -181 100 -181 223c0 136 95.8 226 226 226c20 0 61 -9 84 -22v65c0 76 -1.29999 150.3 -9 193l2 3c40.5 3 61.9 10 87 20c6.29999 0 9 -3 9 -10c-5 -61.7 -9 -114 -9 -188v-308c0 -75 9 -149 17 -192l-2 -3c-13 2 -31.9 3 -44.5 3c-14.5 0 -21.2 -1.3 -34.5 -3
c-6 0 -9 1 -9 3l-5 58h-2z" />
    <glyph glyph-name="uni1E10" unicode="&#x1e10;" horiz-adv-x="710" 
d="M190 82c0 -32 11 -40 109 -40c141 0 256 40 256 242c0 154 -65 320 -281 320c-49 0 -84 -5 -84 -40v-482zM147 645c64 0 101 3 165 3c192 0 346 -154 346 -340c0 -246 -187 -310 -328 -310c-103 0 -112 2 -183 2c-35 0 -52 -3 -52 -3l-1 3c8 54 10 125 10 200v245
c0 75 -2 143 -10 200l2 3s17 -3 51 -3zM320 -41c38 0 62 -34 62 -86c0 -60 -49 -90 -106 -99c-6 6 -8 15 -8 24c49 11 75 35 75 53c0 20 -13 24 -31 26c-17 3 -42 12 -42 39c0 24 21 43 50 43z" />
    <glyph glyph-name="uni1E11" unicode="&#x1e11;" horiz-adv-x="530" 
d="M361 113v228c-24 38 -48 58 -95 58c-48.4 0 -128 -28 -128 -178c0 -125 46 -179 100 -179c40.5 0 86.5 24.5 123 71zM361 58c-36 -46.5 -81 -68 -129 -68c-108 0 -181 100 -181 223c0 136 95.8 226 226 226c20 0 61 -9 84 -22v65c0 76 -1.29999 150.3 -9 193l2 3
c40.5 3 61.9 10 87 20c6.29999 0 9 -3 9 -10c-5 -61.7 -9 -114 -9 -188v-308c0 -75 9 -149 17 -192l-2 -3c-13 2 -31.9 3 -44.5 3c-14.5 0 -21.2 -1.3 -34.5 -3c-6 0 -9 1 -9 3l-5 58h-2zM230 -41c38 0 62 -34 62 -86c0 -60 -49 -90 -106 -99c-6 6 -8 15 -8 24
c49 11 75 35 75 53c0 20 -13 24 -31 26c-17 3 -42 12 -42 39c0 24 21 43 50 43z" />
    <glyph glyph-name="uni1E12" unicode="&#x1e12;" horiz-adv-x="710" 
d="M292 -57c29 -47 65 -89 101 -129l-21 -14c-39 29 -72 54 -106 90c-37 -38 -69 -63 -107 -90l-20 14c36 40 74 83 103 129h50zM190 82c0 -32 11 -40 109 -40c141 0 256 40 256 242c0 154 -65 320 -281 320c-49 0 -84 -5 -84 -40v-482zM147 645c64 0 101 3 165 3
c192 0 346 -154 346 -340c0 -246 -187 -310 -328 -310c-103 0 -112 2 -183 2c-35 0 -52 -3 -52 -3l-1 3c8 54 10 125 10 200v245c0 75 -2 143 -10 200l2 3s17 -3 51 -3z" />
    <glyph glyph-name="uni1E13" unicode="&#x1e13;" horiz-adv-x="530" 
d="M292 -57c29 -47 65 -89 101 -129l-21 -14c-39 29 -72 54 -106 90c-37 -38 -69 -63 -107 -90l-20 14c36 40 74 83 103 129h50zM361 113v228c-24 38 -48 58 -95 58c-48.4 0 -128 -28 -128 -178c0 -125 46 -179 100 -179c40.5 0 86.5 24.5 123 71zM361 58
c-36 -46.5 -81 -68 -129 -68c-108 0 -181 100 -181 223c0 136 95.8 226 226 226c20 0 61 -9 84 -22v65c0 76 -1.29999 150.3 -9 193l2 3c40.5 3 61.9 10 87 20c6.29999 0 9 -3 9 -10c-5 -61.7 -9 -114 -9 -188v-308c0 -75 9 -149 17 -192l-2 -3c-13 2 -31.9 3 -44.5 3
c-14.5 0 -21.2 -1.3 -34.5 -3c-6 0 -9 1 -9 3l-5 58h-2z" />
    <glyph glyph-name="uni1E14" unicode="&#x1e14;" horiz-adv-x="538" 
d="M20.9 831.1l93.2 -73.9c8.5 -7 11.5 -12.3 11.5 -18.5c0 -7 -5.3 -13.2 -11.5 -13.2c-6.2 0 -16.9 2.59998 -33.1 10.5l-118.6 55.5c14.1 15.6 32.2 29.4 58.5 39.6zM190 200c0 -17 1 -120 8 -144c134 0 282 12 282 12l2 -4c-1 -8 -2 -23 -2 -33s1 -17 2 -31l-2 -3
c-16 2 -39 3 -60 3h-273c-35 0 -52 -3 -52 -3l-1 3c8 54 10 125 10 200v245c0 75 -2 143 -10 200l2 3s17 -3 51 -3h263c21 0 44 1 60 3l2 -3c-1 -14 -2 -30 -2 -38c0 -9 1 -18 2 -26l-2 -4s-138 12 -272 12c-7 -24 -8 -127 -8 -144v-78c118 0 164 5 223 10l3 -3
c-2 -9 -3 -23 -3 -32s1 -23 3 -32l-3 -3c-69 7 -175 10 -223 10v-117zM420 701h-244c-9 0 -13 8 -13 15c0 12 11 29 22 29h245c10 0 14 -8 14 -14c0 -12 -11 -30 -24 -30z" />
    <glyph glyph-name="uni1E15" unicode="&#x1e15;" horiz-adv-x="453" 
d="M212.2 765.2l56 -113.4c4 -9 4.79999 -15.3 4.79999 -21.6c0 -4.5 -5.60001 -9.90002 -12 -9.90002c-4.79999 0 -10.4 4.5 -23.2 18l-91.2 98.1l1.59999 9.89996c6.40001 5.40002 24.8 20.7 52 20.7c4 0 8.8 -0.900024 12 -1.79999zM347 538h-244c-9 0 -13 8 -13 15
c0 12 11 29 22 29h245c10 0 14 -8 14 -14c0 -12 -11 -30 -24 -30zM125 273h184c10 0 14 5 14 14c0 75 -44.5 112 -84 112c-31.5 0 -97 -22 -114 -126zM392 104l20 -25c-38 -52 -102 -89 -174 -89c-67.4 0 -124.6 24.7 -159 66c-33.5 40.2 -45 96.3 -45 153
c0 147 102 230 205 230c132 0 173 -105 173 -189c0 -11 -7 -17 -18 -17h-272c0 -58.1 6.39999 -98.9 24 -127c27.5 -44 74.8 -57 109 -57c55 0 102 17 137 55z" />
    <glyph glyph-name="uni1E16" unicode="&#x1e16;" horiz-adv-x="538" 
d="M535.1 831.9c22.1 -11.7 38 -27 47.8 -45.8l-110.9 -51.1c-16.2 -7.90002 -25.5 -10.5 -32.4 -10.5s-11.5 6.20001 -11.5 13.2c0 6.20001 1.5 10.6 11.5 18.5zM190 200c0 -17 1 -120 8 -144c134 0 282 12 282 12l2 -4c-1 -8 -2 -23 -2 -33s1 -17 2 -31l-2 -3
c-16 2 -39 3 -60 3h-273c-35 0 -52 -3 -52 -3l-1 3c8 54 10 125 10 200v245c0 75 -2 143 -10 200l2 3s17 -3 51 -3h263c21 0 44 1 60 3l2 -3c-1 -14 -2 -30 -2 -38c0 -9 1 -18 2 -26l-2 -4s-138 12 -272 12c-7 -24 -8 -127 -8 -144v-78c118 0 164 5 223 10l3 -3
c-2 -9 -3 -23 -3 -32s1 -23 3 -32l-3 -3c-69 7 -175 10 -223 10v-117zM363 701h-244c-9 0 -13 8 -13 15c0 12 11 29 22 29h245c10 0 14 -8 14 -14c0 -12 -11 -30 -24 -30z" />
    <glyph glyph-name="uni1E17" unicode="&#x1e17;" horiz-adv-x="453" 
d="M264.4 759.2c2.39999 0.899963 7.20001 1.79999 11.2 1.79999c5.10001 0 25.6 -0.900024 44 -20.7l2.39999 -9.89996l-92 -98.1c-12 -13.5 -18.4 -17.1 -24 -17.1s-11.2 5.39996 -11.2 11.7c0 10.1 2.7 13.7 9.2 25.2zM347 538h-244c-9 0 -13 8 -13 15c0 12 11 29 22 29
h245c10 0 14 -8 14 -14c0 -12 -11 -30 -24 -30zM125 273h184c10 0 14 5 14 14c0 75 -44.5 112 -84 112c-31.5 0 -97 -22 -114 -126zM392 104l20 -25c-38 -52 -102 -89 -174 -89c-67.4 0 -124.6 24.7 -159 66c-33.5 40.2 -45 96.3 -45 153c0 147 102 230 205 230
c132 0 173 -105 173 -189c0 -11 -7 -17 -18 -17h-272c0 -58.1 6.39999 -98.9 24 -127c27.5 -44 74.8 -57 109 -57c55 0 102 17 137 55z" />
    <glyph glyph-name="uni1E18" unicode="&#x1e18;" horiz-adv-x="538" 
d="M300 -57c29 -47 65 -89 101 -129l-21 -14c-39 29 -72 54 -106 90c-37 -38 -69 -63 -107 -90l-20 14c36 40 74 83 103 129h50zM190 200c0 -17 1 -120 8 -144c134 0 282 12 282 12l2 -4c-1 -8 -2 -23 -2 -33s1 -17 2 -31l-2 -3c-16 2 -39 3 -60 3h-273c-35 0 -52 -3 -52 -3
l-1 3c8 54 10 125 10 200v245c0 75 -2 143 -10 200l2 3s17 -3 51 -3h263c21 0 44 1 60 3l2 -3c-1 -14 -2 -30 -2 -38c0 -9 1 -18 2 -26l-2 -4s-138 12 -272 12c-7 -24 -8 -127 -8 -144v-78c118 0 164 5 223 10l3 -3c-2 -9 -3 -23 -3 -32s1 -23 3 -32l-3 -3
c-69 7 -175 10 -223 10v-117z" />
    <glyph glyph-name="uni1E19" unicode="&#x1e19;" horiz-adv-x="453" 
d="M247 -57c29 -47 65 -89 101 -129l-21 -14c-39 29 -72 54 -106 90c-37 -38 -69 -63 -107 -90l-20 14c36 40 74 83 103 129h50zM125 273h184c10 0 14 5 14 14c0 75 -44.5 112 -84 112c-31.5 0 -97 -22 -114 -126zM392 104l20 -25c-38 -52 -102 -89 -174 -89
c-67.4 0 -124.6 24.7 -159 66c-33.5 40.2 -45 96.3 -45 153c0 147 102 230 205 230c132 0 173 -105 173 -189c0 -11 -7 -17 -18 -17h-272c0 -58.1 6.39999 -98.9 24 -127c27.5 -44 74.8 -57 109 -57c55 0 102 17 137 55z" />
    <glyph glyph-name="uni1E1A" unicode="&#x1e1a;" horiz-adv-x="538" 
d="M336 -120c22 0 36 10 50 52l24 -6c-12 -60 -41 -90 -87 -90c-22 0 -43 12 -64 26c-18 11 -37 22 -54 22c-26 0 -39 -15 -49 -48l-24 5c14 59 37 89 80 89c30 0 52 -14 72 -28c16 -12 33 -22 52 -22zM190 200c0 -17 1 -120 8 -144c134 0 282 12 282 12l2 -4
c-1 -8 -2 -23 -2 -33s1 -17 2 -31l-2 -3c-16 2 -39 3 -60 3h-273c-35 0 -52 -3 -52 -3l-1 3c8 54 10 125 10 200v245c0 75 -2 143 -10 200l2 3s17 -3 51 -3h263c21 0 44 1 60 3l2 -3c-1 -14 -2 -30 -2 -38c0 -9 1 -18 2 -26l-2 -4s-138 12 -272 12c-7 -24 -8 -127 -8 -144
v-78c118 0 164 5 223 10l3 -3c-2 -9 -3 -23 -3 -32s1 -23 3 -32l-3 -3c-69 7 -175 10 -223 10v-117z" />
    <glyph glyph-name="uni1E1B" unicode="&#x1e1b;" horiz-adv-x="453" 
d="M288 -118c22 0 36 10 50 52l24 -6c-12 -60 -41 -90 -87 -90c-22 0 -43 12 -64 26c-18 11 -37 22 -54 22c-26 0 -39 -15 -49 -48l-24 5c14 59 37 89 80 89c30 0 52 -14 72 -28c16 -12 33 -22 52 -22zM125 273h184c10 0 14 5 14 14c0 75 -44.5 112 -84 112
c-31.5 0 -97 -22 -114 -126zM392 104l20 -25c-38 -52 -102 -89 -174 -89c-67.4 0 -124.6 24.7 -159 66c-33.5 40.2 -45 96.3 -45 153c0 147 102 230 205 230c132 0 173 -105 173 -189c0 -11 -7 -17 -18 -17h-272c0 -58.1 6.39999 -98.9 24 -127c27.5 -44 74.8 -57 109 -57
c55 0 102 17 137 55z" />
    <glyph glyph-name="uni1E1C" unicode="&#x1e1c;" horiz-adv-x="538" 
d="M436 805c-6 -71 -70 -113 -136 -113c-73 0 -131 43 -136 113h28c8 -39 55 -61 108 -61c49 0 101 22 108 61h28zM275 -96c-19 0 -29 -1 -45 -6l-6 6l40 96h-117c-35 0 -52 -3 -52 -3l-1 3c8 54 10 125 10 200v245c0 75 -2 143 -10 200l2 3s17 -3 51 -3h263c21 0 44 1 60 3
l2 -3c-1 -14 -2 -30 -2 -38c0 -9 1 -18 2 -26l-2 -4s-138 12 -272 12c-7 -24 -8 -127 -8 -144v-78c118 0 164 5 223 10l3 -3c-2 -9 -3 -23 -3 -32s1 -23 3 -32l-3 -3c-69 7 -175 10 -223 10v-117c0 -17 1 -120 8 -144c134 0 282 12 282 12l2 -4c-1 -8 -2 -23 -2 -33
s1 -17 2 -31l-2 -3c-16 2 -39 3 -60 3h-122l-25 -67c8 2 17 3 26 3c40 0 71 -24 71 -62c0 -43 -46 -74 -107 -74c-32 0 -49 6 -74 17c0 12 3 19 10 26c27 -10 38 -14 58 -14c30 0 51 14 51 40c0 21 -10 35 -33 35z" />
    <glyph glyph-name="uni1E1D" unicode="&#x1e1d;" horiz-adv-x="453" 
d="M112 648c11 -53 54 -90 108 -90c52 0 98 32 108 90l27 -12c-12 -86 -76 -135 -135 -135c-70 0 -121 50 -135 135zM229 -101c-19 0 -29 -1 -45 -6l-6 6l38.3 91.9c-57.9 4.7 -106.7 28.3 -137.3 65.1c-33.5 40.2 -45 96.3 -45 153c0 147 102 230 205 230
c132 0 173 -105 173 -189c0 -11 -7 -17 -18 -17h-272c0 -58.1 6.39999 -98.9 24 -127c27.5 -44 74.8 -57 109 -57c55 0 102 17 137 55l20 -25c-35.8 -49 -94.7 -84.7 -161.7 -88.6l-23.3 -62.4c8 2 17 3 26 3c40 0 71 -24 71 -62c0 -43 -46 -74 -107 -74c-32 0 -49 6 -74 17
c0 12 3 19 10 26c27 -10 38 -14 58 -14c30 0 51 14 51 40c0 21 -10 35 -33 35zM125 273h184c10 0 14 5 14 14c0 75 -44.5 112 -84 112c-31.5 0 -97 -22 -114 -126z" />
    <glyph glyph-name="uni1E1E" unicode="&#x1e1e;" horiz-adv-x="504" 
d="M234 781c0 28 24 52 52 52s52 -24 52 -52s-24 -52 -52 -52s-52 24 -52 52zM407 645c24 0 47 1 63 3l2 -3c-1 -14 -2 -26 -2 -34c0 -9 1 -22 2 -30l-2 -4s-138 12 -272 12c-7 -24 -8 -127 -8 -144v-78c118 0 164 5 223 10l3 -3c-2 -9 -3 -23 -3 -32s1 -23 3 -32l-3 -3
c-69 7 -175 10 -223 10v-117c0 -75 2 -143 10 -200l-2 -3s-17 3 -51 3c-35 0 -52 -3 -52 -3l-1 3c8 54 10 125 10 200v245c0 75 -2 143 -10 200l2 3s17 -3 51 -3h260z" />
    <glyph glyph-name="uni1E1F" unicode="&#x1e1f;" horiz-adv-x="314" 
d="M184 781c0 28 24 52 52 52s52 -24 52 -52s-24 -52 -52 -52s-52 24 -52 52zM99 429v39c0 58 17 105 55 153c37.7 47.7 101 77 164 77c19 0 37 -5 45 -10l1 -3c-10.3 -21.3 -21 -55 -28 -82l-11 -1c-11 20 -32.3 35 -58 35c-57.3 0 -93 -37.8 -93 -93c0 -18 5 -70 5 -106
v-9h43c23 0 53.2 1.20001 70 2l5 -7c-6 -14.7 -9 -25 -12 -41c-13.3 1.29999 -48 2 -72 2h-34v-186c0 -75 1.5 -142 10 -199l-2 -3c-12 2 -36 3 -48 3s-36 -1 -48 -3l-2 3c8.5 53.5 10 124 10 199v186h-1c-23 0 -56 -0.700012 -74 -2l-5 7c9.7 15 15.3 24.7 22 41
c13.2 -1.79999 36.3 -2 58 -2z" />
    <glyph glyph-name="uni1E20" unicode="&#x1e20;" horiz-adv-x="717" 
d="M483 733h-244c-9 0 -13 8 -13 15c0 12 11 29 22 29h245c10 0 14 -8 14 -14c0 -12 -11 -30 -24 -30zM546 117c0 75 -2 133 -10 190l2 3s17 -3 51 -3c35 0 52 3 52 3l1 -3c-8 -53 -10 -95 -10 -170v-6c0 -11 1.29999 -37.3 10 -48v-3c-67.5 -56.6 -149.5 -90 -266 -90
c-201 0 -324 154 -324 327c0 220 177 341 349 341c122 0 228 -50 228 -50l2 -3c-10.7 -38 -16.4 -65 -20 -116l-12 -1c-45 76 -122 126 -212 126c-135 0 -232 -112 -232 -287c0 -132 66 -293 244 -293c54 0 113 6 147 38v45z" />
    <glyph glyph-name="uni1E21" unicode="&#x1e21;" horiz-adv-x="499" 
d="M358 538h-244c-9 0 -13 8 -13 15c0 12 11 29 22 29h245c10 0 14 -8 14 -14c0 -12 -11 -30 -24 -30zM101 -104c0 -68 66 -90 131 -90c86 0 168 32 168 93c0 26 -10 55 -39 72c-27.4 16.1 -58 17 -106 17c-13.8 0 -59.5 -3 -89 -3c-35 -19 -65 -55.9 -65 -89zM390 285
c0 -78.8 -62 -149 -166 -149c-30.1 0 -61 7 -74 14c-22 -19 -27 -36 -27 -56c0 -43 30 -47 58 -47c5 0 15 1 29 2c23 3 63 5 80 5c35 0 103.5 -1 141 -33c28 -23.9 42 -54.9 42 -99c0 -93.7 -92.9 -159 -249 -159c-106 0 -192 34.3 -192 113c0 18.7 10.5 47 23 66
c25.9 20 57 39.3 84.9 50.7c-53.9 9.3 -77.9 45.3 -77.9 86.3c0 34 35 63 64 83c-28 16 -71 50 -71 125c0 99.1 91 152 170 152c21.5 0 43.4 -3 61.3 -8.60001c74.6 3.89999 109.9 14.5 157.7 18.6l3 -3c-2 -9 -3 -17 -3 -26s1 -17 3 -26l-3 -3
c-41.2 4.20001 -74.3 8 -104.4 10.4c23.4 -15.4 50.4 -47.4 50.4 -116.4zM312 284c0 71 -26 117 -91 117c-58 0 -88 -43 -88 -109c0 -69 22 -116 94 -116c60 0 85 47.3 85 108z" />
    <glyph glyph-name="uni1E22" unicode="&#x1e22;" horiz-adv-x="726" 
d="M304 781c0 28 24 52 52 52s52 -24 52 -52s-24 -52 -52 -52s-52 24 -52 52zM536 445c0 75 -2 143 -10 200l2 3c12 -2 39 -3 51 -3s40 1 52 3l1 -3c-8 -53 -10 -125 -10 -200v-245c0 -75 2 -143 10 -200l-2 -3c-12 2 -39 3 -51 3s-40 -1 -52 -3l-1 3c8 54 10 125 10 200
v121h-346v-121c0 -75 2 -143 10 -200l-2 -3c-12 2 -39 3 -51 3s-40 -1 -52 -3l-1 3c8 54 10 125 10 200v245c0 75 -2 143 -10 200l2 3c12 -2 39 -3 51 -3s40 1 52 3l1 -3c-8 -53 -10 -125 -10 -200v-80h346v80z" />
    <glyph glyph-name="uni1E23" unicode="&#x1e23;" horiz-adv-x="549" 
d="M237 597c0 27 24 51 51 51s51 -24 51 -51s-24 -51 -51 -51s-51 24 -51 51zM170 352l2 -3c64 75 135 90 173 90c90 0 124 -54 124 -158c0 -32 -2 -69 -2 -101c0 -76 1 -122.8 9 -180l-2 -3c-12 2 -35 3 -47 3s-35 -1 -47 -3l-2 3c8 53.8 9 105 9 180v98
c0 81 -21 101 -72 101c-35.5 0 -94 -22 -145 -82v-117c0 -76 1.5 -122.8 9 -180l-2 -3c-12 2 -35 3 -47 3s-35 -1 -47 -3l-2 3c7.8 56 9 105.5 9 180v301c0 76 -1.3 151.3 -9 194l2 3c40.5 3 61.9 10 87 20c6.3 0 9 -3 9 -10c-4.8 -61.5 -9 -113 -9 -187v-149z" />
    <glyph glyph-name="uni1E24" unicode="&#x1e24;" horiz-adv-x="726" 
d="M536 445c0 75 -2 143 -10 200l2 3c12 -2 39 -3 51 -3s40 1 52 3l1 -3c-8 -53 -10 -125 -10 -200v-245c0 -75 2 -143 10 -200l-2 -3c-12 2 -39 3 -51 3s-40 -1 -52 -3l-1 3c8 54 10 125 10 200v121h-346v-121c0 -75 2 -143 10 -200l-2 -3c-12 2 -39 3 -51 3s-40 -1 -52 -3
l-1 3c8 54 10 125 10 200v245c0 75 -2 143 -10 200l2 3c12 -2 39 -3 51 -3s40 1 52 3l1 -3c-8 -53 -10 -125 -10 -200v-80h346v80zM303 -158c0 27 24 51 51 51s51 -24 51 -51s-24 -51 -51 -51s-51 24 -51 51z" />
    <glyph glyph-name="uni1E25" unicode="&#x1e25;" horiz-adv-x="549" 
d="M209 -159c0 27 24 51 51 51s51 -24 51 -51s-24 -51 -51 -51s-51 24 -51 51zM170 352l2 -3c64 75 135 90 173 90c90 0 124 -54 124 -158c0 -32 -2 -69 -2 -101c0 -76 1 -122.8 9 -180l-2 -3c-12 2 -35 3 -47 3s-35 -1 -47 -3l-2 3c8 53.8 9 105 9 180v98
c0 81 -21 101 -72 101c-35.5 0 -94 -22 -145 -82v-117c0 -76 1.5 -122.8 9 -180l-2 -3c-12 2 -35 3 -47 3s-35 -1 -47 -3l-2 3c7.8 56 9 105.5 9 180v301c0 76 -1.3 151.3 -9 194l2 3c40.5 3 61.9 10 87 20c6.3 0 9 -3 9 -10c-4.8 -61.5 -9 -113 -9 -187v-149z" />
    <glyph glyph-name="uni1E26" unicode="&#x1e26;" horiz-adv-x="726" 
d="M536 445c0 75 -2 143 -10 200l2 3c12 -2 39 -3 51 -3s40 1 52 3l1 -3c-8 -53 -10 -125 -10 -200v-245c0 -75 2 -143 10 -200l-2 -3c-12 2 -39 3 -51 3s-40 -1 -52 -3l-1 3c8 54 10 125 10 200v121h-346v-121c0 -75 2 -143 10 -200l-2 -3c-12 2 -39 3 -51 3s-40 -1 -52 -3
l-1 3c8 54 10 125 10 200v245c0 75 -2 143 -10 200l2 3c12 -2 39 -3 51 -3s40 1 52 3l1 -3c-8 -53 -10 -125 -10 -200v-80h346v80zM396 750c0 26 22 48 48 48s48 -22 48 -48s-22 -48 -48 -48s-48 22 -48 48zM207 750c0 26 22 48 48 48s48 -22 48 -48s-22 -48 -48 -48
s-48 22 -48 48z" />
    <glyph glyph-name="uni1E27" unicode="&#x1e27;" horiz-adv-x="549" 
d="M345 572c0 25 20 46 45 46s46 -21 46 -46s-21 -45 -46 -45s-45 20 -45 45zM208 572c0 25 20 46 45 46s45 -21 45 -46s-20 -45 -45 -45s-45 20 -45 45zM170 352l2 -3c64 75 135 90 173 90c90 0 124 -54 124 -158c0 -32 -2 -69 -2 -101c0 -76 1 -122.8 9 -180l-2 -3
c-12 2 -35 3 -47 3s-35 -1 -47 -3l-2 3c8 53.8 9 105 9 180v98c0 81 -21 101 -72 101c-35.5 0 -94 -22 -145 -82v-117c0 -76 1.5 -122.8 9 -180l-2 -3c-12 2 -35 3 -47 3s-35 -1 -47 -3l-2 3c7.8 56 9 105.5 9 180v301c0 76 -1.3 151.3 -9 194l2 3c40.5 3 61.9 10 87 20
c6.3 0 9 -3 9 -10c-4.8 -61.5 -9 -113 -9 -187v-149z" />
    <glyph glyph-name="uni1E28" unicode="&#x1e28;" horiz-adv-x="726" 
d="M536 445c0 75 -2 143 -10 200l2 3c12 -2 39 -3 51 -3s40 1 52 3l1 -3c-8 -53 -10 -125 -10 -200v-245c0 -75 2 -143 10 -200l-2 -3c-12 2 -39 3 -51 3s-40 -1 -52 -3l-1 3c8 54 10 125 10 200v121h-346v-121c0 -75 2 -143 10 -200l-2 -3c-3.39999 0.6 -8 1.1 -13.1 1.5
l-22.9 -61.5c8 2 17 3 26 3c40 0 71 -24 71 -62c0 -43 -46 -74 -107 -74c-32 0 -49 6 -74 17c0 12 3 19 10 26c27 -10 38 -14 58 -14c30 0 51 14 51 40c0 21 -10 35 -33 35c-19 0 -29 -1 -45 -6l-6 6l38.3 92h-4.3c-12 0 -40 -1 -52 -3l-1 3c8 54 10 125 10 200v245
c0 75 -2 143 -10 200l2 3c12 -2 39 -3 51 -3s40 1 52 3l1 -3c-8 -53 -10 -125 -10 -200v-80h346v80z" />
    <glyph glyph-name="uni1E29" unicode="&#x1e29;" horiz-adv-x="549" 
d="M135 -90c-19 0 -29 -1 -45 -6l-6 6l37.4 89.9c-12.4 -0.3 -28.9 -1.3 -38.4 -2.9l-2 3c7.8 56 9 105.5 9 180v301c0 76 -1.3 151.3 -9 194l2 3c40.5 3 61.9 10 87 20c6.3 0 9 -3 9 -10c-4.8 -61.5 -9 -113 -9 -187v-149l2 -3c64 75 135 90 173 90c90 0 124 -54 124 -158
c0 -32 -2 -69 -2 -101c0 -76 1 -122.8 9 -180l-2 -3c-12 2 -35 3 -47 3s-35 -1 -47 -3l-2 3c8 53.8 9 105 9 180v98c0 81 -21 101 -72 101c-35.5 0 -94 -22 -145 -82v-117c0 -76 1.5 -122.8 9 -180l-2 -3c-5.60001 0.9 -13.5 1.6 -21.6 2.1l-22.4 -60.1c8 2 17 3 26 3
c40 0 71 -24 71 -62c0 -43 -46 -74 -107 -74c-32 0 -49 6 -74 17c0 12 3 19 10 26c27 -10 38 -14 58 -14c30 0 51 14 51 40c0 21 -10 35 -33 35z" />
    <glyph glyph-name="uni1E2A" unicode="&#x1e2a;" horiz-adv-x="726" 
d="M536 445c0 75 -2 143 -10 200l2 3c12 -2 39 -3 51 -3s40 1 52 3l1 -3c-8 -53 -10 -125 -10 -200v-245c0 -75 2 -143 10 -200l-2 -3c-12 2 -39 3 -51 3s-40 -1 -52 -3l-1 3c8 54 10 125 10 200v121h-346v-121c0 -75 2 -143 10 -200l-2 -3c-12 2 -39 3 -51 3s-40 -1 -52 -3
l-1 3c8 54 10 125 10 200v245c0 75 -2 143 -10 200l2 3c12 -2 39 -3 51 -3s40 1 52 3l1 -3c-8 -53 -10 -125 -10 -200v-80h346v80zM236 -52c11 -53 54 -90 108 -90c52 0 98 32 108 90l27 -12c-12 -86 -76 -135 -135 -135c-70 0 -121 50 -135 135z" />
    <glyph glyph-name="uni1E2B" unicode="&#x1e2b;" horiz-adv-x="549" 
d="M171 -62c11 -53 54 -90 108 -90c52 0 98 32 108 90l27 -12c-12 -86 -76 -135 -135 -135c-70 0 -121 50 -135 135zM170 352l2 -3c64 75 135 90 173 90c90 0 124 -54 124 -158c0 -32 -2 -69 -2 -101c0 -76 1 -122.8 9 -180l-2 -3c-12 2 -35 3 -47 3s-35 -1 -47 -3l-2 3
c8 53.8 9 105 9 180v98c0 81 -21 101 -72 101c-35.5 0 -94 -22 -145 -82v-117c0 -76 1.5 -122.8 9 -180l-2 -3c-12 2 -35 3 -47 3s-35 -1 -47 -3l-2 3c7.8 56 9 105.5 9 180v301c0 76 -1.3 151.3 -9 194l2 3c40.5 3 61.9 10 87 20c6.3 0 9 -3 9 -10
c-4.8 -61.5 -9 -113 -9 -187v-149z" />
    <glyph glyph-name="uni1E2C" unicode="&#x1e2c;" horiz-adv-x="294" 
d="M216 -120c22 0 36 10 50 52l24 -6c-12 -60 -41 -90 -87 -90c-22 0 -43 12 -64 26c-18 11 -37 22 -54 22c-26 0 -39 -15 -49 -48l-24 5c14 59 37 89 80 89c30 0 52 -14 72 -28c16 -12 33 -22 52 -22zM104 445c0 75 -2 143 -10 200l2 3c12 -2 39 -3 51 -3s39 1 51 3l2 -3
c-8 -53 -10 -125 -10 -200v-245c0 -75 2 -143 10 -200l-2 -3c-12 2 -39 3 -51 3s-39 -1 -51 -3l-2 3c8 54 10 125 10 200v245z" />
    <glyph glyph-name="uni1E2D" unicode="&#x1e2d;" horiz-adv-x="260" 
d="M213 -120c22 0 36 10 50 52l24 -6c-12 -60 -41 -90 -87 -90c-22 0 -43 12 -64 26c-18 11 -37 22 -54 22c-26 0 -39 -15 -49 -48l-24 5c14 59 37 89 80 89c30 0 52 -14 72 -28c16 -12 33 -22 52 -22zM80 597c0 27 24 51 51 51s51 -24 51 -51s-24 -51 -51 -51
s-51 24 -51 51zM90 235c0 75 -2.7 151.2 -9 194l2 3c21.2 -1.70001 64.3 -1.29999 87 1c7.8 0 9 -1 9 -10c-6.5 -61 -9 -97 -9 -172v-71c0 -76 1.8 -123.2 9 -180l-2 -3c-12 2 -35 3 -47 3s-35 -1 -47 -3l-2 3c7.2 54 9 105 9 180v55z" />
    <glyph glyph-name="uni1E2E" unicode="&#x1e2e;" horiz-adv-x="294" 
d="M202 750c0 26 22 48 48 48s48 -22 48 -48s-22 -48 -48 -48s-48 22 -48 48zM13 750c0 26 22 48 48 48s48 -22 48 -48s-22 -48 -48 -48s-48 22 -48 48zM104 445c0 75 -2 143 -10 200l2 3c12 -2 39 -3 51 -3s39 1 51 3l2 -3c-8 -53 -10 -125 -10 -200v-245
c0 -75 2 -143 10 -200l-2 -3c-12 2 -39 3 -51 3s-39 -1 -51 -3l-2 3c8 54 10 125 10 200v245zM225.1 889.9c22.1 -11.7 38 -27 47.8 -45.8l-110.9 -51.1c-16.2 -7.90002 -25.5 -10.5 -32.4 -10.5c-6.90001 0 -11.5 6.20001 -11.5 13.2c0 6.20001 1.5 10.6 11.5 18.5z" />
    <glyph glyph-name="uni1E2F" unicode="&#x1e2f;" horiz-adv-x="260" 
d="M188 740c2.3 0.900024 6.8 1.79999 10.7 1.79999c4.90001 0 24.7 -0.799988 42.4 -20.2l2.29999 -9.69995l-88.6 -95.9c-11.5 -13.2 -17.6 -16.8 -23 -16.8c-5.4 0 -10.8 5.29999 -10.8 11.5c0 9.89996 2.5 13.3 8.8 24.6zM5 574c0 26 21 48 47 48s47 -22 47 -48
s-21 -47 -47 -47s-47 21 -47 47zM174 574c0 26 21 48 47 48s47 -22 47 -48s-21 -47 -47 -47s-47 21 -47 47zM90 235c0 75 -2.7 151.2 -9 194l2 3c21.2 -1.70001 64.3 -1.29999 87 1c7.8 0 9 -1 9 -10c-6.5 -61 -9 -97 -9 -172v-71c0 -76 1.8 -123.2 9 -180l-2 -3
c-12 2 -35 3 -47 3s-35 -1 -47 -3l-2 3c7.2 54 9 105 9 180v55z" />
    <glyph glyph-name="uni1E30" unicode="&#x1e30;" horiz-adv-x="629" 
d="M427 820c28.6 -13.3 49.3 -30.7 62 -52l-144 -58c-21 -9 -33 -12 -42 -12s-15 7 -15 15c0 7 2 12 15 21zM104 445c0 75 -2 143 -10 200l2 3c12 -2 39 -3 51 -3s39 1 51 3l2 -3c-8 -53 -10 -125 -10 -200v-100.9c5.10001 0.5 15.1 2.79999 22 8.89999
c88 77 196 193 285 295c13 -3 36 -3 49 -3c15 0 35 0 51 3c-88 -77 -236 -215 -304 -294v-2l314 -355c-19 3 -43 3 -62 3c-17 0 -45 0 -62 -3c-90 111 -233 284 -274 325c-4.8 4 -13.9 6 -19 6.70001v-128.7c0 -75 2 -143 10 -200l-2 -3c-12 2 -39 3 -51 3s-39 -1 -51 -3
l-2 3c8 54 10 125 10 200v245z" />
    <glyph glyph-name="uni1E31" unicode="&#x1e31;" horiz-adv-x="503" 
d="M347 671c3 1 9 2 14 2c6.39999 0 32 -1 55 -23l3 -11l-115 -109c-15 -15 -23 -19 -30 -19s-14 6 -14 13c0 11.2 3.29999 15.2 11.4 28zM90 200v282c0 76 -1.3 150.3 -9 193l2 3c40.5 3 61.9 10 87 20c6.3 0 9 -3 9 -10c-4.7 -63.3 -9 -113 -9 -188v-259.9
c13 1.09999 31.3 5.2 44 14.9c39.6 30.5 114.9 111.5 158 174c27 0 82 0 101 3l2 -3c-65 -55.1 -162.6 -150.1 -202 -191c95.4 -115.2 148.6 -159.4 223 -238l-2 -3c-9 1.8 -43.3 3 -60 3c-17 0 -50.7 -1.2 -66 -3c-68 98 -92 134 -157 202c-8.60001 7.7 -32.8 10.8 -41 11
v-10c0 -75.2 1.2 -143 9 -200l-2 -3c-12 2 -35 3 -47 3s-35 -1 -47 -3l-2 3c7.5 53.5 9 125.5 9 200z" />
    <glyph glyph-name="uni1E32" unicode="&#x1e32;" horiz-adv-x="629" 
d="M275 -158c0 27 24 51 51 51s51 -24 51 -51s-24 -51 -51 -51s-51 24 -51 51zM104 445c0 75 -2 143 -10 200l2 3c12 -2 39 -3 51 -3s39 1 51 3l2 -3c-8 -53 -10 -125 -10 -200v-100.9c5.10001 0.5 15.1 2.79999 22 8.89999c88 77 196 193 285 295c13 -3 36 -3 49 -3
c15 0 35 0 51 3c-88 -77 -236 -215 -304 -294v-2l314 -355c-19 3 -43 3 -62 3c-17 0 -45 0 -62 -3c-90 111 -233 284 -274 325c-4.8 4 -13.9 6 -19 6.70001v-128.7c0 -75 2 -143 10 -200l-2 -3c-12 2 -39 3 -51 3s-39 -1 -51 -3l-2 3c8 54 10 125 10 200v245z" />
    <glyph glyph-name="uni1E33" unicode="&#x1e33;" horiz-adv-x="503" 
d="M201 -158c0 27 24 51 51 51s51 -24 51 -51s-24 -51 -51 -51s-51 24 -51 51zM90 200v282c0 76 -1.3 150.3 -9 193l2 3c40.5 3 61.9 10 87 20c6.3 0 9 -3 9 -10c-4.7 -63.3 -9 -113 -9 -188v-259.9c13 1.09999 31.3 5.2 44 14.9c39.6 30.5 114.9 111.5 158 174
c27 0 82 0 101 3l2 -3c-65 -55.1 -162.6 -150.1 -202 -191c95.4 -115.2 148.6 -159.4 223 -238l-2 -3c-9 1.8 -43.3 3 -60 3c-17 0 -50.7 -1.2 -66 -3c-68 98 -92 134 -157 202c-8.60001 7.7 -32.8 10.8 -41 11v-10c0 -75.2 1.2 -143 9 -200l-2 -3c-12 2 -35 3 -47 3
s-35 -1 -47 -3l-2 3c7.5 53.5 9 125.5 9 200z" />
    <glyph glyph-name="uni1E34" unicode="&#x1e34;" horiz-adv-x="629" 
d="M456 -106h-245c-8 0 -12 8 -12 15c0 12 10 29 22 29h245c9 0 13 -7 13 -14c0 -12 -10 -30 -23 -30zM104 445c0 75 -2 143 -10 200l2 3c12 -2 39 -3 51 -3s39 1 51 3l2 -3c-8 -53 -10 -125 -10 -200v-100.9c5.10001 0.5 15.1 2.79999 22 8.89999c88 77 196 193 285 295
c13 -3 36 -3 49 -3c15 0 35 0 51 3c-88 -77 -236 -215 -304 -294v-2l314 -355c-19 3 -43 3 -62 3c-17 0 -45 0 -62 -3c-90 111 -233 284 -274 325c-4.8 4 -13.9 6 -19 6.70001v-128.7c0 -75 2 -143 10 -200l-2 -3c-12 2 -39 3 -51 3s-39 -1 -51 -3l-2 3c8 54 10 125 10 200
v245z" />
    <glyph glyph-name="uni1E35" unicode="&#x1e35;" horiz-adv-x="503" 
d="M380 -107h-245c-8 0 -12 8 -12 15c0 12 10 29 22 29h245c9 0 13 -7 13 -14c0 -12 -10 -30 -23 -30zM90 200v282c0 76 -1.3 150.3 -9 193l2 3c40.5 3 61.9 10 87 20c6.3 0 9 -3 9 -10c-4.7 -63.3 -9 -113 -9 -188v-259.9c13 1.09999 31.3 5.2 44 14.9
c39.6 30.5 114.9 111.5 158 174c27 0 82 0 101 3l2 -3c-65 -55.1 -162.6 -150.1 -202 -191c95.4 -115.2 148.6 -159.4 223 -238l-2 -3c-9 1.8 -43.3 3 -60 3c-17 0 -50.7 -1.2 -66 -3c-68 98 -92 134 -157 202c-8.60001 7.7 -32.8 10.8 -41 11v-10c0 -75.2 1.2 -143 9 -200
l-2 -3c-12 2 -35 3 -47 3s-35 -1 -47 -3l-2 3c7.5 53.5 9 125.5 9 200z" />
    <glyph glyph-name="uni1E36" unicode="&#x1e36;" horiz-adv-x="515" 
d="M226 -158c0 27 24 51 51 51s51 -24 51 -51s-24 -51 -51 -51s-51 24 -51 51zM191 445v-245c0 -17 1 -115 8 -139c134 0 282 22 282 22l2 -4c-1 -8 -2 -25 -2 -35s1 -30 2 -44l-2 -3c-16 2 -39 3 -60 3h-273c-34 0 -52 -3 -52 -3l-1 3c8 54 10 125 10 200v245
c0 75 -2 143 -10 200l2 3c12 -2 39 -3 51 -3s40 1 52 3l1 -3c-8 -53 -10 -125 -10 -200z" />
    <glyph glyph-name="uni1E37" unicode="&#x1e37;" horiz-adv-x="252" 
d="M90 200v282c0 76 -1.3 150.3 -9 193l2 3c40.5 3 61.9 10 87 20c6.3 0 9 -3 9 -10c-4.7 -63.3 -9 -113 -9 -188v-300c0 -75.2 1.2 -143 9 -200l-2 -3c-12 2 -35 3 -47 3s-35 -1 -47 -3l-2 3c7.5 53.5 9 125.5 9 200zM81 -158c0 27 24 51 51 51s51 -24 51 -51
s-24 -51 -51 -51s-51 24 -51 51z" />
    <glyph glyph-name="uni1E38" unicode="&#x1e38;" horiz-adv-x="515" 
d="M267 733h-244c-9 0 -13 8 -13 15c0 12 11 29 22 29h245c10 0 14 -8 14 -14c0 -12 -11 -30 -24 -30zM226 -158c0 27 24 51 51 51s51 -24 51 -51s-24 -51 -51 -51s-51 24 -51 51zM191 445v-245c0 -17 1 -115 8 -139c134 0 282 22 282 22l2 -4c-1 -8 -2 -25 -2 -35
s1 -30 2 -44l-2 -3c-16 2 -39 3 -60 3h-273c-34 0 -52 -3 -52 -3l-1 3c8 54 10 125 10 200v245c0 75 -2 143 -10 200l2 3c12 -2 39 -3 51 -3s40 1 52 3l1 -3c-8 -53 -10 -125 -10 -200z" />
    <glyph glyph-name="uni1E39" unicode="&#x1e39;" horiz-adv-x="252" 
d="M90 200v282c0 76 -1.3 150.3 -9 193l2 3c40.5 3 61.9 10 87 20c6.3 0 9 -3 9 -10c-4.7 -63.3 -9 -113 -9 -188v-300c0 -75.2 1.2 -143 9 -200l-2 -3c-12 2 -35 3 -47 3s-35 -1 -47 -3l-2 3c7.5 53.5 9 125.5 9 200zM81 -158c0 27 24 51 51 51s51 -24 51 -51
s-24 -51 -51 -51s-51 24 -51 51zM241 756h-244c-9 0 -13 8 -13 15c0 12 11 29 22 29h245c10 0 14 -8 14 -14c0 -12 -11 -30 -24 -30z" />
    <glyph glyph-name="uni1E3A" unicode="&#x1e3a;" horiz-adv-x="515" 
d="M388 -112h-245c-8 0 -12 8 -12 15c0 12 10 29 22 29h245c9 0 13 -7 13 -14c0 -12 -10 -30 -23 -30zM191 445v-245c0 -17 1 -115 8 -139c134 0 282 22 282 22l2 -4c-1 -8 -2 -25 -2 -35s1 -30 2 -44l-2 -3c-16 2 -39 3 -60 3h-273c-34 0 -52 -3 -52 -3l-1 3
c8 54 10 125 10 200v245c0 75 -2 143 -10 200l2 3c12 -2 39 -3 51 -3s40 1 52 3l1 -3c-8 -53 -10 -125 -10 -200z" />
    <glyph glyph-name="uni1E3B" unicode="&#x1e3b;" horiz-adv-x="252" 
d="M90 200v282c0 76 -1.3 150.3 -9 193l2 3c40.5 3 61.9 10 87 20c6.3 0 9 -3 9 -10c-4.7 -63.3 -9 -113 -9 -188v-300c0 -75.2 1.2 -143 9 -200l-2 -3c-12 2 -35 3 -47 3s-35 -1 -47 -3l-2 3c7.5 53.5 9 125.5 9 200zM247 -112h-245c-8 0 -12 8 -12 15c0 12 10 29 22 29
h245c9 0 13 -7 13 -14c0 -12 -10 -30 -23 -30z" />
    <glyph glyph-name="uni1E3C" unicode="&#x1e3c;" horiz-adv-x="515" 
d="M307 -57c29 -47 65 -89 101 -129l-21 -14c-39 29 -72 54 -106 90c-37 -38 -69 -63 -107 -90l-20 14c36 40 74 83 103 129h50zM191 445v-245c0 -17 1 -115 8 -139c134 0 282 22 282 22l2 -4c-1 -8 -2 -25 -2 -35s1 -30 2 -44l-2 -3c-16 2 -39 3 -60 3h-273
c-34 0 -52 -3 -52 -3l-1 3c8 54 10 125 10 200v245c0 75 -2 143 -10 200l2 3c12 -2 39 -3 51 -3s40 1 52 3l1 -3c-8 -53 -10 -125 -10 -200z" />
    <glyph glyph-name="uni1E3D" unicode="&#x1e3d;" horiz-adv-x="252" 
d="M90 200v282c0 76 -1.3 150.3 -9 193l2 3c40.5 3 61.9 10 87 20c6.3 0 9 -3 9 -10c-4.7 -63.3 -9 -113 -9 -188v-300c0 -75.2 1.2 -143 9 -200l-2 -3c-12 2 -35 3 -47 3s-35 -1 -47 -3l-2 3c7.5 53.5 9 125.5 9 200zM158 -57c29 -47 65 -89 101 -129l-21 -14
c-39 29 -72 54 -106 90c-37 -38 -69 -63 -107 -90l-20 14c36 40 74 83 103 129h50z" />
    <glyph glyph-name="uni1E3E" unicode="&#x1e3e;" horiz-adv-x="886" 
d="M517 820c28.6 -13.3 49.3 -30.7 62 -52l-144 -58c-21 -9 -33 -12 -42 -12s-15 7 -15 15c0 7 2 12 15 21zM193 662h33c73.8 -171.8 145.3 -332 224 -495.7l8.39999 -0.300003l242.6 496h25c28 -243 58 -451 94 -665c-15 3 -41 3 -56 3s-34 0 -49 -3
c-14.7 165.8 -34.3 318.2 -55.5 475.9l-3.5 0.100006c-79 -157 -150 -308.8 -222 -473h-19c-64 155 -134.2 317 -209.8 476.2h-4.39999c-24.5 -151.1 -58.8 -374.2 -73.8 -479.2c-11 3 -19 3 -30 3c-12 0 -22 0 -33 -3c39 187 94 463 129 665z" />
    <glyph glyph-name="uni1E3F" unicode="&#x1e3f;" horiz-adv-x="807" 
d="M388 671c3 1 9 2 14 2c6.39999 0 32 -1 55 -23l3 -11l-115 -109c-15 -15 -23 -19 -30 -19s-14 6 -14 13c0 11.2 3.29999 15.2 11.4 28zM162 352l3 -3c47 50 106 90 168 90c56 0 97 -31 106 -79c57 60 115 79 169 79c108 0 124 -70 124 -159v-100c0 -76 1 -123 9 -180
l-2 -3c-12 2 -35 3 -47 3s-35 -1 -47 -3l-2 3c8 54 9 105 9 180v110c0 67 -26 89 -80 89c-39 0 -79 -7 -127 -60c1 -12 1 -24 1 -38v-101c0 -76 1 -123 9 -180l-2 -3c-12 2 -35 3 -47 3s-35 -1 -47 -3l-2 3c8 54 9 105 9 180v110c0 67 -28 89 -66 89c-35 0 -91 -30 -138 -78
v-121c0 -76 1 -123 9 -180l-2 -3c-12 2 -35 3 -47 3s-35 -1 -47 -3l-2 3c8 54 9 105 9 180v55c0 75 -2 150.7 -9 194l2 3c22.7 -2.29999 58.5 -1.5 81 3c4.7 0 6 -2.29999 6 -10v-73z" />
    <glyph glyph-name="uni1E40" unicode="&#x1e40;" horiz-adv-x="886" 
d="M413 781c0 28 24 52 52 52s52 -24 52 -52s-24 -52 -52 -52s-52 24 -52 52zM193 662h33c73.8 -171.8 145.3 -332 224 -495.7l8.39999 -0.300003l242.6 496h25c28 -243 58 -451 94 -665c-15 3 -41 3 -56 3s-34 0 -49 -3c-14.7 165.8 -34.3 318.2 -55.5 475.9l-3.5 0.100006
c-79 -157 -150 -308.8 -222 -473h-19c-64 155 -134.2 317 -209.8 476.2h-4.39999c-24.5 -151.1 -58.8 -374.2 -73.8 -479.2c-11 3 -19 3 -30 3c-12 0 -22 0 -33 -3c39 187 94 463 129 665z" />
    <glyph glyph-name="uni1E41" unicode="&#x1e41;" horiz-adv-x="807" 
d="M317 597c0 27 24 51 51 51s51 -24 51 -51s-24 -51 -51 -51s-51 24 -51 51zM162 352l3 -3c47 50 106 90 168 90c56 0 97 -31 106 -79c57 60 115 79 169 79c108 0 124 -70 124 -159v-100c0 -76 1 -123 9 -180l-2 -3c-12 2 -35 3 -47 3s-35 -1 -47 -3l-2 3c8 54 9 105 9 180
v110c0 67 -26 89 -80 89c-39 0 -79 -7 -127 -60c1 -12 1 -24 1 -38v-101c0 -76 1 -123 9 -180l-2 -3c-12 2 -35 3 -47 3s-35 -1 -47 -3l-2 3c8 54 9 105 9 180v110c0 67 -28 89 -66 89c-35 0 -91 -30 -138 -78v-121c0 -76 1 -123 9 -180l-2 -3c-12 2 -35 3 -47 3
s-35 -1 -47 -3l-2 3c8 54 9 105 9 180v55c0 75 -2 150.7 -9 194l2 3c22.7 -2.29999 58.5 -1.5 81 3c4.7 0 6 -2.29999 6 -10v-73z" />
    <glyph glyph-name="uni1E42" unicode="&#x1e42;" horiz-adv-x="886" 
d="M345 -158c0 27 24 51 51 51s51 -24 51 -51s-24 -51 -51 -51s-51 24 -51 51zM193 662h33c73.8 -171.8 145.3 -332 224 -495.7l8.39999 -0.300003l242.6 496h25c28 -243 58 -451 94 -665c-15 3 -41 3 -56 3s-34 0 -49 -3c-14.7 165.8 -34.3 318.2 -55.5 475.9
l-3.5 0.100006c-79 -157 -150 -308.8 -222 -473h-19c-64 155 -134.2 317 -209.8 476.2h-4.39999c-24.5 -151.1 -58.8 -374.2 -73.8 -479.2c-11 3 -19 3 -30 3c-12 0 -22 0 -33 -3c39 187 94 463 129 665z" />
    <glyph glyph-name="uni1E43" unicode="&#x1e43;" horiz-adv-x="807" 
d="M316 -158c0 27 24 51 51 51s51 -24 51 -51s-24 -51 -51 -51s-51 24 -51 51zM162 352l3 -3c47 50 106 90 168 90c56 0 97 -31 106 -79c57 60 115 79 169 79c108 0 124 -70 124 -159v-100c0 -76 1 -123 9 -180l-2 -3c-12 2 -35 3 -47 3s-35 -1 -47 -3l-2 3
c8 54 9 105 9 180v110c0 67 -26 89 -80 89c-39 0 -79 -7 -127 -60c1 -12 1 -24 1 -38v-101c0 -76 1 -123 9 -180l-2 -3c-12 2 -35 3 -47 3s-35 -1 -47 -3l-2 3c8 54 9 105 9 180v110c0 67 -28 89 -66 89c-35 0 -91 -30 -138 -78v-121c0 -76 1 -123 9 -180l-2 -3
c-12 2 -35 3 -47 3s-35 -1 -47 -3l-2 3c8 54 9 105 9 180v55c0 75 -2 150.7 -9 194l2 3c22.7 -2.29999 58.5 -1.5 81 3c4.7 0 6 -2.29999 6 -10v-73z" />
    <glyph glyph-name="uni1E44" unicode="&#x1e44;" horiz-adv-x="718" 
d="M304 781c0 28 24 52 52 52s52 -24 52 -52s-24 -52 -52 -52s-52 24 -52 52zM108 645l2 3s8 -3 42 -3c4.5 0 14 2 14 2l343 -444c43.3 -56.1 57.6 -79.4 59 -25v267c0 75.3 -2 143 -10 200l2 3c12 -2 23 -3 35 -3s23 1 35 3l2 -3c-16 -222 -15 -396 -20 -624
c-1 -19 -5 -31 -19 -31c-16 0 -32 9 -43 24l-349 441c-37.1 48 -39 45 -39 -16v-239c0 -75 2 -143 10 -200l-2 -3c-12 2 -23 3 -35 3s-23 -1 -35 -3l-2 3c16 159 19 455 10 645z" />
    <glyph glyph-name="uni1E45" unicode="&#x1e45;" horiz-adv-x="539" 
d="M231 597c0 27 24 51 51 51s51 -24 51 -51s-24 -51 -51 -51s-51 24 -51 51zM460 180c0 -76 1.20001 -123 9 -180l-2 -3c-12 2 -35 3 -47 3s-35 -1 -47 -3l-2 3c7.20001 53.8 9 105 9 180v98c0 81 -21 101 -72 101c-36 0 -94 -22 -145 -82v-117c0 -76 1 -123 9 -180l-2 -3
c-12 2 -35 3 -47 3s-35 -1 -47 -3l-2 3c8 54 9 105 9 180v55c0 75 -2 150.7 -9 194l2 3c22.7 -2.29999 58.5 -1.5 81 3c4.7 0 5.8 -2.29999 6 -10v-73l2 -3c64 75 135 90 173 90c90 0 124 -54 124 -158c0 -32 -2 -69 -2 -101z" />
    <glyph glyph-name="uni1E46" unicode="&#x1e46;" horiz-adv-x="718" 
d="M299 -158c0 27 24 51 51 51s51 -24 51 -51s-24 -51 -51 -51s-51 24 -51 51zM108 645l2 3s8 -3 42 -3c4.5 0 14 2 14 2l343 -444c43.3 -56.1 57.6 -79.4 59 -25v267c0 75.3 -2 143 -10 200l2 3c12 -2 23 -3 35 -3s23 1 35 3l2 -3c-16 -222 -15 -396 -20 -624
c-1 -19 -5 -31 -19 -31c-16 0 -32 9 -43 24l-349 441c-37.1 48 -39 45 -39 -16v-239c0 -75 2 -143 10 -200l-2 -3c-12 2 -23 3 -35 3s-23 -1 -35 -3l-2 3c16 159 19 455 10 645z" />
    <glyph glyph-name="uni1E47" unicode="&#x1e47;" horiz-adv-x="539" 
d="M210 -158c0 27 24 51 51 51s51 -24 51 -51s-24 -51 -51 -51s-51 24 -51 51zM460 180c0 -76 1.20001 -123 9 -180l-2 -3c-12 2 -35 3 -47 3s-35 -1 -47 -3l-2 3c7.20001 53.8 9 105 9 180v98c0 81 -21 101 -72 101c-36 0 -94 -22 -145 -82v-117c0 -76 1 -123 9 -180l-2 -3
c-12 2 -35 3 -47 3s-35 -1 -47 -3l-2 3c8 54 9 105 9 180v55c0 75 -2 150.7 -9 194l2 3c22.7 -2.29999 58.5 -1.5 81 3c4.7 0 5.8 -2.29999 6 -10v-73l2 -3c64 75 135 90 173 90c90 0 124 -54 124 -158c0 -32 -2 -69 -2 -101z" />
    <glyph glyph-name="uni1E48" unicode="&#x1e48;" horiz-adv-x="718" 
d="M473 -112h-245c-8 0 -12 8 -12 15c0 12 10 29 22 29h245c9 0 13 -7 13 -14c0 -12 -10 -30 -23 -30zM108 645l2 3s8 -3 42 -3c4.5 0 14 2 14 2l343 -444c43.3 -56.1 57.6 -79.4 59 -25v267c0 75.3 -2 143 -10 200l2 3c12 -2 23 -3 35 -3s23 1 35 3l2 -3
c-16 -222 -15 -396 -20 -624c-1 -19 -5 -31 -19 -31c-16 0 -32 9 -43 24l-349 441c-37.1 48 -39 45 -39 -16v-239c0 -75 2 -143 10 -200l-2 -3c-12 2 -23 3 -35 3s-23 -1 -35 -3l-2 3c16 159 19 455 10 645z" />
    <glyph glyph-name="uni1E49" unicode="&#x1e49;" horiz-adv-x="539" 
d="M375 -112h-245c-8 0 -12 8 -12 15c0 12 10 29 22 29h245c9 0 13 -7 13 -14c0 -12 -10 -30 -23 -30zM460 180c0 -76 1.20001 -123 9 -180l-2 -3c-12 2 -35 3 -47 3s-35 -1 -47 -3l-2 3c7.20001 53.8 9 105 9 180v98c0 81 -21 101 -72 101c-36 0 -94 -22 -145 -82v-117
c0 -76 1 -123 9 -180l-2 -3c-12 2 -35 3 -47 3s-35 -1 -47 -3l-2 3c8 54 9 105 9 180v55c0 75 -2 150.7 -9 194l2 3c22.7 -2.29999 58.5 -1.5 81 3c4.7 0 5.8 -2.29999 6 -10v-73l2 -3c64 75 135 90 173 90c90 0 124 -54 124 -158c0 -32 -2 -69 -2 -101z" />
    <glyph glyph-name="uni1E4A" unicode="&#x1e4a;" horiz-adv-x="718" 
d="M376 -57c29 -47 65 -89 101 -129l-21 -14c-39 29 -72 54 -106 90c-37 -38 -69 -63 -107 -90l-20 14c36 40 74 83 103 129h50zM108 645l2 3s8 -3 42 -3c4.5 0 14 2 14 2l343 -444c43.3 -56.1 57.6 -79.4 59 -25v267c0 75.3 -2 143 -10 200l2 3c12 -2 23 -3 35 -3
s23 1 35 3l2 -3c-16 -222 -15 -396 -20 -624c-1 -19 -5 -31 -19 -31c-16 0 -32 9 -43 24l-349 441c-37.1 48 -39 45 -39 -16v-239c0 -75 2 -143 10 -200l-2 -3c-12 2 -23 3 -35 3s-23 -1 -35 -3l-2 3c16 159 19 455 10 645z" />
    <glyph glyph-name="uni1E4B" unicode="&#x1e4b;" horiz-adv-x="539" 
d="M290 -57c29 -47 65 -89 101 -129l-21 -14c-39 29 -72 54 -106 90c-37 -38 -69 -63 -107 -90l-20 14c36 40 74 83 103 129h50zM460 180c0 -76 1.20001 -123 9 -180l-2 -3c-12 2 -35 3 -47 3s-35 -1 -47 -3l-2 3c7.20001 53.8 9 105 9 180v98c0 81 -21 101 -72 101
c-36 0 -94 -22 -145 -82v-117c0 -76 1 -123 9 -180l-2 -3c-12 2 -35 3 -47 3s-35 -1 -47 -3l-2 3c8 54 9 105 9 180v55c0 75 -2 150.7 -9 194l2 3c22.7 -2.29999 58.5 -1.5 81 3c4.7 0 5.8 -2.29999 6 -10v-73l2 -3c64 75 135 90 173 90c90 0 124 -54 124 -158
c0 -32 -2 -69 -2 -101z" />
    <glyph glyph-name="uni1E4C" unicode="&#x1e4c;" horiz-adv-x="741" 
d="M608.1 804.9c22.1 -11.7 38 -27 47.8 -45.8l-110.9 -51.1c-16.2 -7.90002 -25.5 -10.5 -32.4 -10.5c-6.89996 0 -11.5 6.20001 -11.5 13.2c0 6.20001 1.5 10.6 11.5 18.5zM355 614c-96 0 -200 -77 -200 -287c0 -192 114 -293 234 -293c114 0 197 97 197 276
c0 208 -90 304 -231 304zM689 329c0 -200 -129 -339 -320 -339c-172 0 -317 123 -317 320c0 196 137 348 316 348c180 0 321 -131 321 -329zM400.7 744.8c18.7 0 30.6 11 42.5 57.2l20.3 -6.59998c-10.2 -66 -34.8 -99 -73.9 -99c-18.7 0 -36.6 13.2 -54.4 28.6
c-15.3 12.1 -31.4 24.2 -45.9 24.2c-22.1 0 -33.1 -16.5 -41.6 -52.8l-20.5 5.5c11.9 64.9 31.5 97.9 68 97.9c25.5 0 44.3 -15.4 61.3 -30.8c13.6 -13.2 28 -24.2 44.2 -24.2z" />
    <glyph glyph-name="uni1E4D" unicode="&#x1e4d;" horiz-adv-x="500" 
d="M314 548c22 0 36 10 50 52l24 -6c-12 -60 -41 -90 -87 -90c-22 0 -43 12 -64 26c-18 11 -37 22 -54 22c-26 0 -39 -15 -49 -48l-24 5c14 59 37 89 80 89c30 0 52 -14 72 -28c16 -12 33 -22 52 -22zM38 205c0 142 85 234 216 234c135 0 208 -89 208 -225
c0 -131 -80 -224 -212 -224c-133 0 -212 95 -212 215zM247 399c-94 0 -121 -90 -121 -177c0 -77 27 -192 133 -192c67 0 115 70.9 115 166c0 121 -21 203 -127 203zM351 750c2.29999 0.900024 6.79999 1.79999 10.7 1.79999c4.89999 0 24.7 -0.799988 42.4 -20.2
l2.29999 -9.69995l-88.6 -95.9c-11.5 -13.2 -17.6 -16.8 -23 -16.8c-5.39999 0 -10.8 5.29999 -10.8 11.5c0 9.89996 2.5 13.3 8.79999 24.6z" />
    <glyph glyph-name="uni1E4E" unicode="&#x1e4e;" horiz-adv-x="741" 
d="M107 752c0 25 21 46 45 46c25 0 46 -21 46 -46c0 -24 -21 -45 -46 -45c-24 0 -45 21 -45 45zM516 752c0 25 21 46 46 46s45 -21 45 -46c0 -24 -20 -45 -45 -45s-46 21 -46 45zM405.7 744.8c18.7 0 30.6 11 42.5 57.2l20.3 -6.59998c-10.2 -66 -34.8 -99 -73.9 -99
c-18.7 0 -36.6 13.2 -54.4 28.6c-15.3 12.1 -31.4 24.2 -45.9 24.2c-22.1 0 -33.1 -16.5 -41.6 -52.8l-20.5 5.5c11.9 64.9 31.5 97.9 68 97.9c25.5 0 44.3 -15.4 61.3 -30.8c13.6 -13.2 28 -24.2 44.2 -24.2zM355 614c-96 0 -200 -77 -200 -287c0 -192 114 -293 234 -293
c114 0 197 97 197 276c0 208 -90 304 -231 304zM689 329c0 -200 -129 -339 -320 -339c-172 0 -317 123 -317 320c0 196 137 348 316 348c180 0 321 -131 321 -329z" />
    <glyph glyph-name="uni1E4F" unicode="&#x1e4f;" horiz-adv-x="500" 
d="M314 548c22 0 36 10 50 52l24 -6c-12 -60 -41 -90 -87 -90c-22 0 -43 12 -64 26c-18 11 -37 22 -54 22c-26 0 -39 -15 -49 -48l-24 5c14 59 37 89 80 89c30 0 52 -14 72 -28c16 -12 33 -22 52 -22zM38 205c0 142 85 234 216 234c135 0 208 -89 208 -225
c0 -131 -80 -224 -212 -224c-133 0 -212 95 -212 215zM247 399c-94 0 -121 -90 -121 -177c0 -77 27 -192 133 -192c67 0 115 70.9 115 166c0 121 -21 203 -127 203zM120 681c0 26 21 48 47 48s47 -22 47 -48s-21 -47 -47 -47s-47 21 -47 47zM289 681c0 26 21 48 47 48
s47 -22 47 -48s-21 -47 -47 -47s-47 21 -47 47z" />
    <glyph glyph-name="uni1E50" unicode="&#x1e50;" horiz-adv-x="741" 
d="M95.9 805.1l93.2 -73.9c8.5 -7 11.5 -12.3 11.5 -18.5c0 -7 -5.3 -13.2 -11.5 -13.2c-6.20001 0 -16.9 2.59998 -33.1 10.5l-118.6 55.5c14.1 15.6 32.2 29.4 58.5 39.6zM355 614c-96 0 -200 -77 -200 -287c0 -192 114 -293 234 -293c114 0 197 97 197 276
c0 208 -90 304 -231 304zM689 329c0 -200 -129 -339 -320 -339c-172 0 -317 123 -317 320c0 196 137 348 316 348c180 0 321 -131 321 -329zM450.8 733h-207.3c-7.7 0 -11.1 8 -11.1 15c0 12 9.40001 29 18.7 29h208.2c8.5 0 11.9 -8 11.9 -14c0 -12 -9.30002 -30 -20.4 -30
z" />
    <glyph glyph-name="uni1E51" unicode="&#x1e51;" horiz-adv-x="500" 
d="M370 538h-244c-9 0 -13 8 -13 15c0 12 11 29 22 29h245c10 0 14 -8 14 -14c0 -12 -11 -30 -24 -30zM38 205c0 142 85 234 216 234c135 0 208 -89 208 -225c0 -131 -80 -224 -212 -224c-133 0 -212 95 -212 215zM247 399c-94 0 -121 -90 -121 -177c0 -77 27 -192 133 -192
c67 0 115 70.9 115 166c0 121 -21 203 -127 203zM213.9 758l53.9 -110.8c3.80002 -8.79999 4.60001 -15 4.60001 -21.2c0 -4.40002 -5.39999 -9.59998 -11.6 -9.59998c-4.59998 0 -9.99998 4.39996 -22.3 17.6l-87.8 95.9l1.60001 9.69995c6.2 5.30005 23.8 20.2 50 20.2
c3.8 0 8.5 -0.899963 11.6 -1.79999z" />
    <glyph glyph-name="uni1E52" unicode="&#x1e52;" horiz-adv-x="741" 
d="M603.1 804.9c22.1 -11.7 38 -27 47.8 -45.8l-110.9 -51.1c-16.2 -7.90002 -25.5 -10.5 -32.4 -10.5s-11.5 6.20001 -11.5 13.2c0 6.20001 1.5 10.6 11.5 18.5zM355 614c-96 0 -200 -77 -200 -287c0 -192 114 -293 234 -293c114 0 197 97 197 276c0 208 -90 304 -231 304z
M689 329c0 -200 -129 -339 -320 -339c-172 0 -317 123 -317 320c0 196 137 348 316 348c180 0 321 -131 321 -329zM428.8 733h-207.3c-7.7 0 -11.1 8 -11.1 15c0 12 9.40001 29 18.7 29h208.2c8.5 0 11.9 -8 11.9 -14c0 -12 -9.30002 -30 -20.4 -30z" />
    <glyph glyph-name="uni1E53" unicode="&#x1e53;" horiz-adv-x="500" 
d="M370 538h-244c-9 0 -13 8 -13 15c0 12 11 29 22 29h245c10 0 14 -8 14 -14c0 -12 -11 -30 -24 -30zM38 205c0 142 85 234 216 234c135 0 208 -89 208 -225c0 -131 -80 -224 -212 -224c-133 0 -212 95 -212 215zM247 399c-94 0 -121 -90 -121 -177c0 -77 27 -192 133 -192
c67 0 115 70.9 115 166c0 121 -21 203 -127 203zM273 767c2.29999 0.900024 6.79999 1.79999 10.7 1.79999c4.89999 0 24.7 -0.799988 42.4 -20.2l2.29999 -9.69995l-88.6 -95.9c-11.5 -13.2 -17.6 -16.8 -23 -16.8c-5.40001 0 -10.8 5.29999 -10.8 11.5
c0 9.89996 2.5 13.3 8.8 24.6z" />
    <glyph glyph-name="uni1E54" unicode="&#x1e54;" horiz-adv-x="559" 
d="M427 820c28.6 -13.3 49.3 -30.7 62 -52l-144 -58c-21 -9 -33 -12 -42 -12s-15 7 -15 15c0 7 2 12 15 21zM190 565v-236c13 -7 54 -10 79 -10c97 0 153 37 153 152c0 119 -73 138 -142 138c-72 0 -90 -15 -90 -44zM104 445c0 75 -2 143 -10 200l2 3c12 -2 39 -3 51 -3
c30 0 114 7 140 7c185 0 232 -102 232 -176c0 -85 -63 -200 -245 -200c-35 0 -62 3 -84 10v-86c0 -75 2 -143 10 -200l-2 -3c-12 2 -39 3 -51 3s-39 -1 -51 -3l-2 3c8 54 10 125 10 200v245z" />
    <glyph glyph-name="uni1E55" unicode="&#x1e55;" horiz-adv-x="523" 
d="M313 671c3 1 9 2 14 2c6.39999 0 32 -1 55 -23l3 -11l-115 -109c-15 -15 -23 -19 -30 -19s-14 6 -14 13c0 11.2 3.3 15.2 11.4 28zM162 294v-219c35 -41 77 -45 93 -45c107 0 130 106 130 188c0 113 -35 175 -103 175c-39 0 -98 -46 -120 -99zM162 352l2 -3
c46 70 96 90 135 90c112 0 174 -102 174 -208c0 -140.9 -80 -241 -212 -241c-36 0 -73 8 -99 22v-44c0 -75.2 1.8 -143 9 -200l-2 -3c-12 2 -35 3 -47 3s-35 -1 -47 -3l-2 3c7.2 53.8 9 125.5 9 200v267c0 75 -2 150.7 -9 194l2 3c22.7 -2.29999 58.5 -1.5 81 3
c4.7 0 6 -2.29999 6 -10v-73z" />
    <glyph glyph-name="uni1E56" unicode="&#x1e56;" horiz-adv-x="559" 
d="M233 781c0 28 24 52 52 52s52 -24 52 -52s-24 -52 -52 -52s-52 24 -52 52zM190 565v-236c13 -7 54 -10 79 -10c97 0 153 37 153 152c0 119 -73 138 -142 138c-72 0 -90 -15 -90 -44zM104 445c0 75 -2 143 -10 200l2 3c12 -2 39 -3 51 -3c30 0 114 7 140 7
c185 0 232 -102 232 -176c0 -85 -63 -200 -245 -200c-35 0 -62 3 -84 10v-86c0 -75 2 -143 10 -200l-2 -3c-12 2 -39 3 -51 3s-39 -1 -51 -3l-2 3c8 54 10 125 10 200v245z" />
    <glyph glyph-name="uni1E57" unicode="&#x1e57;" horiz-adv-x="523" 
d="M209 597c0 27 24 51 51 51s51 -24 51 -51s-24 -51 -51 -51s-51 24 -51 51zM162 294v-219c35 -41 77 -45 93 -45c107 0 130 106 130 188c0 113 -35 175 -103 175c-39 0 -98 -46 -120 -99zM162 352l2 -3c46 70 96 90 135 90c112 0 174 -102 174 -208
c0 -140.9 -80 -241 -212 -241c-36 0 -73 8 -99 22v-44c0 -75.2 1.8 -143 9 -200l-2 -3c-12 2 -35 3 -47 3s-35 -1 -47 -3l-2 3c7.2 53.8 9 125.5 9 200v267c0 75 -2 150.7 -9 194l2 3c22.7 -2.29999 58.5 -1.5 81 3c4.7 0 6 -2.29999 6 -10v-73z" />
    <glyph glyph-name="uni1E58" unicode="&#x1e58;" horiz-adv-x="600" 
d="M224 781c0 28 24 52 52 52s52 -24 52 -52s-24 -52 -52 -52s-52 24 -52 52zM190 286v-86c0 -75 2 -143 10 -200l-2 -3c-12 2 -39 3 -51 3s-39 -1 -51 -3l-2 3c8 54 10 125 10 200v245c0 75 -2 143 -10 200l2 3c12 -2 39 -3 51 -3c30 0 110 7 135 7c63 0 139 -3 187 -48
c36 -34 53 -75 53 -125c0 -82 -46 -134 -100 -161c-14 -7.20001 -33.8 -13.7 -60.5 -19c63.3 -84.3 163.6 -242.5 213.5 -299l-2 -3c-20 3 -40 3 -60 3c-19 0 -41 0 -60 -3c-11 34 -59 121 -95 179c-25.5 41.1 -47.1 80.2 -75.2 113.1c-27 -2 -57.8 -3.10001 -92.8 -3.10001
zM283 609c-90 0 -93 -5 -93 -44v-239h58c97 0 178 30 178 152c0 108 -82 131 -143 131z" />
    <glyph glyph-name="uni1E59" unicode="&#x1e59;" horiz-adv-x="355" 
d="M149 597c0 27 24 51 51 51s51 -24 51 -51s-24 -51 -51 -51s-51 24 -51 51zM167 334l3 -2c44 76 73 107 127 107c18 0 19 -2 36 -7l4 -4l-20 -74l-8 -2c-13 12 -32 14 -52 14c-19 0 -41.5 -12.7 -56 -35c-21.5 -33 -34 -57 -34 -99v-52c0 -76 1.5 -123 9 -180l-2 -3
c-12 2 -35 3 -47 3s-35 -1 -47 -3l-2 3c7.8 53.8 9 105 9 180v55c0 75 -2 150.7 -9 194l2 3c22.7 -2.29999 58.5 -1.5 81 3c4.7 0 6 -2.29999 6 -10v-91z" />
    <glyph glyph-name="uni1E5A" unicode="&#x1e5a;" horiz-adv-x="600" 
d="M242 -158c0 27 24 51 51 51s51 -24 51 -51s-24 -51 -51 -51s-51 24 -51 51zM190 286v-86c0 -75 2 -143 10 -200l-2 -3c-12 2 -39 3 -51 3s-39 -1 -51 -3l-2 3c8 54 10 125 10 200v245c0 75 -2 143 -10 200l2 3c12 -2 39 -3 51 -3c30 0 110 7 135 7c63 0 139 -3 187 -48
c36 -34 53 -75 53 -125c0 -82 -46 -134 -100 -161c-14 -7.20001 -33.8 -13.7 -60.5 -19c63.3 -84.3 163.6 -242.5 213.5 -299l-2 -3c-20 3 -40 3 -60 3c-19 0 -41 0 -60 -3c-11 34 -59 121 -95 179c-25.5 41.1 -47.1 80.2 -75.2 113.1c-27 -2 -57.8 -3.10001 -92.8 -3.10001
zM283 609c-90 0 -93 -5 -93 -44v-239h58c97 0 178 30 178 152c0 108 -82 131 -143 131z" />
    <glyph glyph-name="uni1E5B" unicode="&#x1e5b;" horiz-adv-x="355" 
d="M75 -158c0 27 24 51 51 51s51 -24 51 -51s-24 -51 -51 -51s-51 24 -51 51zM167 334l3 -2c44 76 73 107 127 107c18 0 19 -2 36 -7l4 -4l-20 -74l-8 -2c-13 12 -32 14 -52 14c-19 0 -41.5 -12.7 -56 -35c-21.5 -33 -34 -57 -34 -99v-52c0 -76 1.5 -123 9 -180l-2 -3
c-12 2 -35 3 -47 3s-35 -1 -47 -3l-2 3c7.8 53.8 9 105 9 180v55c0 75 -2 150.7 -9 194l2 3c22.7 -2.29999 58.5 -1.5 81 3c4.7 0 6 -2.29999 6 -10v-91z" />
    <glyph glyph-name="uni1E5C" unicode="&#x1e5c;" horiz-adv-x="600" 
d="M387 733h-244c-9 0 -13 8 -13 15c0 12 11 29 22 29h245c10 0 14 -8 14 -14c0 -12 -11 -30 -24 -30zM242 -158c0 27 24 51 51 51s51 -24 51 -51s-24 -51 -51 -51s-51 24 -51 51zM190 286v-86c0 -75 2 -143 10 -200l-2 -3c-12 2 -39 3 -51 3s-39 -1 -51 -3l-2 3
c8 54 10 125 10 200v245c0 75 -2 143 -10 200l2 3c12 -2 39 -3 51 -3c30 0 110 7 135 7c63 0 139 -3 187 -48c36 -34 53 -75 53 -125c0 -82 -46 -134 -100 -161c-14 -7.20001 -33.8 -13.7 -60.5 -19c63.3 -84.3 163.6 -242.5 213.5 -299l-2 -3c-20 3 -40 3 -60 3
c-19 0 -41 0 -60 -3c-11 34 -59 121 -95 179c-25.5 41.1 -47.1 80.2 -75.2 113.1c-27 -2 -57.8 -3.10001 -92.8 -3.10001zM283 609c-90 0 -93 -5 -93 -44v-239h58c97 0 178 30 178 152c0 108 -82 131 -143 131z" />
    <glyph glyph-name="uni1E5D" unicode="&#x1e5d;" horiz-adv-x="355" 
d="M307 541h-244c-9 0 -13 8 -13 15c0 12 11 29 22 29h245c10 0 14 -8 14 -14c0 -12 -11 -30 -24 -30zM75 -158c0 27 24 51 51 51s51 -24 51 -51s-24 -51 -51 -51s-51 24 -51 51zM167 334l3 -2c44 76 73 107 127 107c18 0 19 -2 36 -7l4 -4l-20 -74l-8 -2
c-13 12 -32 14 -52 14c-19 0 -41.5 -12.7 -56 -35c-21.5 -33 -34 -57 -34 -99v-52c0 -76 1.5 -123 9 -180l-2 -3c-12 2 -35 3 -47 3s-35 -1 -47 -3l-2 3c7.8 53.8 9 105 9 180v55c0 75 -2 150.7 -9 194l2 3c22.7 -2.29999 58.5 -1.5 81 3c4.7 0 6 -2.29999 6 -10v-91z" />
    <glyph glyph-name="uni1E5E" unicode="&#x1e5e;" horiz-adv-x="600" 
d="M433 -107h-245c-8 0 -12 8 -12 15c0 12 10 29 22 29h245c9 0 13 -7 13 -14c0 -12 -10 -30 -23 -30zM190 286v-86c0 -75 2 -143 10 -200l-2 -3c-12 2 -39 3 -51 3s-39 -1 -51 -3l-2 3c8 54 10 125 10 200v245c0 75 -2 143 -10 200l2 3c12 -2 39 -3 51 -3c30 0 110 7 135 7
c63 0 139 -3 187 -48c36 -34 53 -75 53 -125c0 -82 -46 -134 -100 -161c-14 -7.20001 -33.8 -13.7 -60.5 -19c63.3 -84.3 163.6 -242.5 213.5 -299l-2 -3c-20 3 -40 3 -60 3c-19 0 -41 0 -60 -3c-11 34 -59 121 -95 179c-25.5 41.1 -47.1 80.2 -75.2 113.1
c-27 -2 -57.8 -3.10001 -92.8 -3.10001zM283 609c-90 0 -93 -5 -93 -44v-239h58c97 0 178 30 178 152c0 108 -82 131 -143 131z" />
    <glyph glyph-name="uni1E5F" unicode="&#x1e5f;" horiz-adv-x="355" 
d="M274 -105h-245c-8 0 -12 8 -12 15c0 12 10 29 22 29h245c9 0 13 -7 13 -14c0 -12 -10 -30 -23 -30zM167 334l3 -2c44 76 73 107 127 107c18 0 19 -2 36 -7l4 -4l-20 -74l-8 -2c-13 12 -32 14 -52 14c-19 0 -41.5 -12.7 -56 -35c-21.5 -33 -34 -57 -34 -99v-52
c0 -76 1.5 -123 9 -180l-2 -3c-12 2 -35 3 -47 3s-35 -1 -47 -3l-2 3c7.8 53.8 9 105 9 180v55c0 75 -2 150.7 -9 194l2 3c22.7 -2.29999 58.5 -1.5 81 3c4.7 0 6 -2.29999 6 -10v-91z" />
    <glyph glyph-name="uni1E60" unicode="&#x1e60;" horiz-adv-x="506" 
d="M174 781c0 28 24 52 52 52s52 -24 52 -52s-24 -52 -52 -52s-52 24 -52 52zM242 34c59 0 117 42 117 117c0 85 -52 118 -117 145c-83 35 -172 84 -172 189c0 73 51 131 110 156c29 12 59 17 86 17c117 0 159 -45 159 -45l2 -3c-9 -30 -19 -64 -23 -100l-10 -1
c-27 62 -81 105 -136 105c-23 0 -44 -3 -61 -12c-26 -14 -46 -54 -46 -90c0 -83 71 -112 122 -131c80.9 -30.2 179 -84 179 -200s-95 -191 -218 -191c-117 0 -182 45 -182 45l-2 3c8 30 19 67 23 103l10 1c31 -59 103 -108 159 -108z" />
    <glyph glyph-name="uni1E61" unicode="&#x1e61;" horiz-adv-x="396" 
d="M50 101l15 1c28 -39 70 -72 118 -72c53 0 92 30 92 83c0 49 -43 65 -101 81c-60.3 16.6 -120 43 -120 123c0 83 77 122 151 122c51 0 106 -15 135 -30l2 -3l-20 -74l-14 -1c-23 27 -55 68 -107 68c-43 0 -76 -22 -76 -63c0 -50 55.2 -68.9 93 -78
c71 -17 136 -49 136 -131c0 -55 -32 -137 -170 -137c-38 0 -94 7 -151 27zM143 597c0 27 24 51 51 51s51 -24 51 -51s-24 -51 -51 -51s-51 24 -51 51z" />
    <glyph glyph-name="uni1E62" unicode="&#x1e62;" horiz-adv-x="506" 
d="M177 -158c0 27 24 51 51 51s51 -24 51 -51s-24 -51 -51 -51s-51 24 -51 51zM242 34c59 0 117 42 117 117c0 85 -52 118 -117 145c-83 35 -172 84 -172 189c0 73 51 131 110 156c29 12 59 17 86 17c117 0 159 -45 159 -45l2 -3c-9 -30 -19 -64 -23 -100l-10 -1
c-27 62 -81 105 -136 105c-23 0 -44 -3 -61 -12c-26 -14 -46 -54 -46 -90c0 -83 71 -112 122 -131c80.9 -30.2 179 -84 179 -200s-95 -191 -218 -191c-117 0 -182 45 -182 45l-2 3c8 30 19 67 23 103l10 1c31 -59 103 -108 159 -108z" />
    <glyph glyph-name="uni1E63" unicode="&#x1e63;" horiz-adv-x="396" 
d="M50 101l15 1c28 -39 70 -72 118 -72c53 0 92 30 92 83c0 49 -43 65 -101 81c-60.3 16.6 -120 43 -120 123c0 83 77 122 151 122c51 0 106 -15 135 -30l2 -3l-20 -74l-14 -1c-23 27 -55 68 -107 68c-43 0 -76 -22 -76 -63c0 -50 55.2 -68.9 93 -78
c71 -17 136 -49 136 -131c0 -55 -32 -137 -170 -137c-38 0 -94 7 -151 27zM139 -158c0 27 24 51 51 51s51 -24 51 -51s-24 -51 -51 -51s-51 24 -51 51z" />
    <glyph glyph-name="uni1E64" unicode="&#x1e64;" horiz-adv-x="506" 
d="M69 742c0 27 24 51 51 51s51 -24 51 -51s-24 -51 -51 -51s-51 24 -51 51zM427 820c28.6 -13.3 49.3 -30.7 62 -52l-144 -58c-21 -9 -33 -12 -42 -12s-15 7 -15 15c0 7 2 12 15 21zM242 34c59 0 117 42 117 117c0 85 -52 118 -117 145c-83 35 -172 84 -172 189
c0 73 51 131 110 156c29 12 59 17 86 17c117 0 159 -45 159 -45l2 -3c-9 -30 -19 -64 -23 -100l-10 -1c-27 62 -81 105 -136 105c-23 0 -44 -3 -61 -12c-26 -14 -46 -54 -46 -90c0 -83 71 -112 122 -131c80.9 -30.2 179 -84 179 -200s-95 -191 -218 -191
c-117 0 -182 45 -182 45l-2 3c8 30 19 67 23 103l10 1c31 -59 103 -108 159 -108z" />
    <glyph glyph-name="uni1E65" unicode="&#x1e65;" horiz-adv-x="396" 
d="M50 101l15 1c28 -39 70 -72 118 -72c53 0 92 30 92 83c0 49 -43 65 -101 81c-60.3 16.6 -120 43 -120 123c0 83 77 122 151 122c51 0 106 -15 135 -30l2 -3l-20 -74l-14 -1c-23 27 -55 68 -107 68c-43 0 -76 -22 -76 -63c0 -50 55.2 -68.9 93 -78
c71 -17 136 -49 136 -131c0 -55 -32 -137 -170 -137c-38 0 -94 7 -151 27zM240 671c3 1 9 2 14 2c6.39999 0 32 -1 55 -23l3 -11l-115 -109c-15 -15 -23 -19 -30 -19s-14 6 -14 13c0 11.2 3.3 15.2 11.4 28zM51.5 637.3c0 24.3 21.6 45.9 45.9 45.9
c24.3 0 45.9 -21.6 45.9 -45.9s-21.6 -45.9 -45.9 -45.9c-24.3 0 -45.9 21.6 -45.9 45.9z" />
    <glyph glyph-name="uni1E66" unicode="&#x1e66;" horiz-adv-x="506" 
d="M-13 746c0 27 24 51 51 51s51 -24 51 -51s-24 -51 -51 -51s-51 24 -51 51zM215 697c-30 37 -65 67 -101 95l16 20c39 -17 73 -36 106 -61c37 26 69 45 107 61l15 -20c-38 -29 -70 -61 -100 -95h-43zM242 34c59 0 117 42 117 117c0 85 -52 118 -117 145
c-83 35 -172 84 -172 189c0 73 51 131 110 156c29 12 59 17 86 17c117 0 159 -45 159 -45l2 -3c-9 -30 -19 -64 -23 -100l-10 -1c-27 62 -81 105 -136 105c-23 0 -44 -3 -61 -12c-26 -14 -46 -54 -46 -90c0 -83 71 -112 122 -131c80.9 -30.2 179 -84 179 -200
s-95 -191 -218 -191c-117 0 -182 45 -182 45l-2 3c8 30 19 67 23 103l10 1c31 -59 103 -108 159 -108z" />
    <glyph glyph-name="uni1E67" unicode="&#x1e67;" horiz-adv-x="396" 
d="M50 101l15 1c28 -39 70 -72 118 -72c53 0 92 30 92 83c0 49 -43 65 -101 81c-60.3 16.6 -120 43 -120 123c0 83 77 122 151 122c51 0 106 -15 135 -30l2 -3l-20 -74l-14 -1c-23 27 -55 68 -107 68c-43 0 -76 -22 -76 -63c0 -50 55.2 -68.9 93 -78
c71 -17 136 -49 136 -131c0 -55 -32 -137 -170 -137c-38 0 -94 7 -151 27zM169 502c-29 47 -66 92 -101 130l20 13c39 -29 72 -54 106 -90c37 38 71 63 108 90l19 -13c-35 -39 -73 -84 -102 -130h-50zM149.5 646.3c0 24.3 21.6 45.9 45.9 45.9c24.3 0 45.9 -21.6 45.9 -45.9
s-21.6 -45.9 -45.9 -45.9c-24.3 0 -45.9 21.6 -45.9 45.9z" />
    <glyph glyph-name="uni1E68" unicode="&#x1e68;" horiz-adv-x="506" 
d="M174 781c0 28 24 52 52 52s52 -24 52 -52s-24 -52 -52 -52s-52 24 -52 52zM177 -158c0 27 24 51 51 51s51 -24 51 -51s-24 -51 -51 -51s-51 24 -51 51zM242 34c59 0 117 42 117 117c0 85 -52 118 -117 145c-83 35 -172 84 -172 189c0 73 51 131 110 156
c29 12 59 17 86 17c117 0 159 -45 159 -45l2 -3c-9 -30 -19 -64 -23 -100l-10 -1c-27 62 -81 105 -136 105c-23 0 -44 -3 -61 -12c-26 -14 -46 -54 -46 -90c0 -83 71 -112 122 -131c80.9 -30.2 179 -84 179 -200s-95 -191 -218 -191c-117 0 -182 45 -182 45l-2 3
c8 30 19 67 23 103l10 1c31 -59 103 -108 159 -108z" />
    <glyph glyph-name="uni1E69" unicode="&#x1e69;" horiz-adv-x="396" 
d="M50 101l15 1c28 -39 70 -72 118 -72c53 0 92 30 92 83c0 49 -43 65 -101 81c-60.3 16.6 -120 43 -120 123c0 83 77 122 151 122c51 0 106 -15 135 -30l2 -3l-20 -74l-14 -1c-23 27 -55 68 -107 68c-43 0 -76 -22 -76 -63c0 -50 55.2 -68.9 93 -78
c71 -17 136 -49 136 -131c0 -55 -32 -137 -170 -137c-38 0 -94 7 -151 27zM139 -158c0 27 24 51 51 51s51 -24 51 -51s-24 -51 -51 -51s-51 24 -51 51zM139 597c0 27 24 51 51 51s51 -24 51 -51s-24 -51 -51 -51s-51 24 -51 51z" />
    <glyph glyph-name="uni1E6A" unicode="&#x1e6a;" horiz-adv-x="540" 
d="M222 781c0 28 24 52 52 52s52 -24 52 -52s-24 -52 -52 -52s-52 24 -52 52zM227 445c0 17 -1 120 -8 144c-134 0 -202 -14 -202 -14l-2 4c2 15 2 38 0 66l2 3c16 -2 39 -3 60 -3h386c21 0 44 1 60 3l2 -3c-2 -28 -2 -51 0 -66l-2 -4s-68 14 -202 14
c-7 -24 -8 -127 -8 -144v-245c0 -75 2 -143 10 -200l-2 -3c-12 2 -39 3 -51 3s-39 -1 -51 -3l-2 3c8 54 10 125 10 200v245z" />
    <glyph glyph-name="uni1E6B" unicode="&#x1e6b;" horiz-adv-x="340" 
d="M80 706c0 27 24 51 51 51s51 -24 51 -51s-24 -51 -51 -51s-51 24 -51 51zM95 429c0 58 2 93.3 4 128l2 3c32.5 4.5 44.9 15 70 25c6.3 0 9 -2.70001 9 -10c-4.5 -58 -5 -71.2 -5 -146h47c23 0 52 1.29999 70 2l5 -7c-6 -14.7 -9 -25 -12 -41c-13.3 1.29999 -48 2 -72 2
h-38v-126c0 -60 -3 -103 -3 -133c0 -54.1 9.3 -78.2 33 -82c25 -4 48 -3 78.7 7.7l12.3 -24.7c-42 -27 -74 -37 -116 -37c-46 0 -88 31 -88 96c0 30 3 102 3 162v137c-22.8 -0.100006 -53.8 -0.700012 -71 -2l-5 7c9.7 15 15.3 24.7 22 41
c12.4 -1.60001 33.5 -1.89999 54 -2z" />
    <glyph glyph-name="uni1E6C" unicode="&#x1e6c;" horiz-adv-x="540" 
d="M222 -158c0 27 24 51 51 51s51 -24 51 -51s-24 -51 -51 -51s-51 24 -51 51zM227 445c0 17 -1 120 -8 144c-134 0 -202 -14 -202 -14l-2 4c2 15 2 38 0 66l2 3c16 -2 39 -3 60 -3h386c21 0 44 1 60 3l2 -3c-2 -28 -2 -51 0 -66l-2 -4s-68 14 -202 14
c-7 -24 -8 -127 -8 -144v-245c0 -75 2 -143 10 -200l-2 -3c-12 2 -39 3 -51 3s-39 -1 -51 -3l-2 3c8 54 10 125 10 200v245z" />
    <glyph glyph-name="uni1E6D" unicode="&#x1e6d;" horiz-adv-x="340" 
d="M131 -158c0 27 24 51 51 51s51 -24 51 -51s-24 -51 -51 -51s-51 24 -51 51zM95 429c0 58 2 93.3 4 128l2 3c32.5 4.5 44.9 15 70 25c6.3 0 9 -2.70001 9 -10c-4.5 -58 -5 -71.2 -5 -146h47c23 0 52 1.29999 70 2l5 -7c-6 -14.7 -9 -25 -12 -41c-13.3 1.29999 -48 2 -72 2
h-38v-126c0 -60 -3 -103 -3 -133c0 -54.1 9.3 -78.2 33 -82c25 -4 48 -3 78.7 7.7l12.3 -24.7c-42 -27 -74 -37 -116 -37c-46 0 -88 31 -88 96c0 30 3 102 3 162v137c-22.8 -0.100006 -53.8 -0.700012 -71 -2l-5 7c9.7 15 15.3 24.7 22 41
c12.4 -1.60001 33.5 -1.89999 54 -2z" />
    <glyph glyph-name="uni1E6E" unicode="&#x1e6e;" horiz-adv-x="540" 
d="M390 -112h-245c-8 0 -12 8 -12 15c0 12 10 29 22 29h245c9 0 13 -7 13 -14c0 -12 -10 -30 -23 -30zM227 445c0 17 -1 120 -8 144c-134 0 -202 -14 -202 -14l-2 4c2 15 2 38 0 66l2 3c16 -2 39 -3 60 -3h386c21 0 44 1 60 3l2 -3c-2 -28 -2 -51 0 -66l-2 -4
s-68 14 -202 14c-7 -24 -8 -127 -8 -144v-245c0 -75 2 -143 10 -200l-2 -3c-12 2 -39 3 -51 3s-39 -1 -51 -3l-2 3c8 54 10 125 10 200v245z" />
    <glyph glyph-name="uni1E6F" unicode="&#x1e6f;" horiz-adv-x="340" 
d="M281 -112h-245c-8 0 -12 8 -12 15c0 12 10 29 22 29h245c9 0 13 -7 13 -14c0 -12 -10 -30 -23 -30zM95 429c0 58 2 93.3 4 128l2 3c32.5 4.5 44.9 15 70 25c6.3 0 9 -2.70001 9 -10c-4.5 -58 -5 -71.2 -5 -146h47c23 0 52 1.29999 70 2l5 -7c-6 -14.7 -9 -25 -12 -41
c-13.3 1.29999 -48 2 -72 2h-38v-126c0 -60 -3 -103 -3 -133c0 -54.1 9.3 -78.2 33 -82c25 -4 48 -3 78.7 7.7l12.3 -24.7c-42 -27 -74 -37 -116 -37c-46 0 -88 31 -88 96c0 30 3 102 3 162v137c-22.8 -0.100006 -53.8 -0.700012 -71 -2l-5 7c9.7 15 15.3 24.7 22 41
c12.4 -1.60001 33.5 -1.89999 54 -2z" />
    <glyph glyph-name="uni1E70" unicode="&#x1e70;" horiz-adv-x="540" 
d="M300 -58c29 -47 65 -89 101 -129l-21 -14c-39 29 -72 54 -106 90c-37 -38 -69 -63 -107 -90l-20 14c36 40 74 83 103 129h50zM227 445c0 17 -1 120 -8 144c-134 0 -202 -14 -202 -14l-2 4c2 15 2 38 0 66l2 3c16 -2 39 -3 60 -3h386c21 0 44 1 60 3l2 -3
c-2 -28 -2 -51 0 -66l-2 -4s-68 14 -202 14c-7 -24 -8 -127 -8 -144v-245c0 -75 2 -143 10 -200l-2 -3c-12 2 -39 3 -51 3s-39 -1 -51 -3l-2 3c8 54 10 125 10 200v245z" />
    <glyph glyph-name="uni1E71" unicode="&#x1e71;" horiz-adv-x="340" 
d="M198 -57c29 -47 65 -89 101 -129l-21 -14c-39 29 -72 54 -106 90c-37 -38 -69 -63 -107 -90l-20 14c36 40 74 83 103 129h50zM95 429c0 58 2 93.3 4 128l2 3c32.5 4.5 44.9 15 70 25c6.3 0 9 -2.70001 9 -10c-4.5 -58 -5 -71.2 -5 -146h47c23 0 52 1.29999 70 2l5 -7
c-6 -14.7 -9 -25 -12 -41c-13.3 1.29999 -48 2 -72 2h-38v-126c0 -60 -3 -103 -3 -133c0 -54.1 9.3 -78.2 33 -82c25 -4 48 -3 78.7 7.7l12.3 -24.7c-42 -27 -74 -37 -116 -37c-46 0 -88 31 -88 96c0 30 3 102 3 162v137c-22.8 -0.100006 -53.8 -0.700012 -71 -2l-5 7
c9.7 15 15.3 24.7 22 41c12.4 -1.60001 33.5 -1.89999 54 -2z" />
    <glyph glyph-name="uni1E72" unicode="&#x1e72;" horiz-adv-x="692" 
d="M201 -112c0 26 21 48 47 48s47 -22 47 -48s-21 -47 -47 -47s-47 21 -47 47zM370 -112c0 26 21 48 47 48s47 -22 47 -48s-21 -47 -47 -47s-47 21 -47 47zM544 445c0 75 -2 143 -10 200l2 3c12 -2 23 -3 35 -3s23 1 35 3l2 -3c-8 -53 -10 -125 -10 -200v-150
c0 -178 -56 -305 -261 -305c-90 0 -233 42 -233 246v209c0 75 -2 143 -10 200l2 3c12 -2 39 -3 51 -3s39 1 51 3l2 -3c-8 -53 -10 -125 -10 -200v-176c0 -54 0 -223 168 -223c169 0 186 119 186 231v168z" />
    <glyph glyph-name="uni1E73" unicode="&#x1e73;" horiz-adv-x="537" 
d="M121 -112c0 26 21 48 47 48s47 -22 47 -48s-21 -47 -47 -47s-47 21 -47 47zM290 -112c0 26 21 48 47 48s47 -22 47 -48s-21 -47 -47 -47s-47 21 -47 47zM365 92c-33 -51 -89 -102 -151 -102c-99 0 -131 70 -131 139v120c0 76 -1 123 -9 180l2 3c12 -2 35 -3 47 -3
s35 1 47 3l2 -3c-8 -53 -9 -105 -9 -180v-99c0 -93 32.5 -104 67 -104c49 0 106.5 53.5 137 105v98c0 76 -1.20001 122.8 -9 180l2 3c12 -2 35 -3 47 -3s35 1 47 3l2 -3c-8 -53 -9 -105 -9 -180v-57c0 -75 9 -149 17 -192l-2 -3c-13 2 -31.9 3 -44.5 3
c-14.5 0 -26.2 -1.3 -39.5 -3c-2.79999 0 -4 1 -4 3l-5 89z" />
    <glyph glyph-name="uni1E74" unicode="&#x1e74;" horiz-adv-x="692" 
d="M402 -120c22 0 36 10 50 52l24 -6c-12 -60 -41 -90 -87 -90c-22 0 -43 12 -64 26c-18 11 -37 22 -54 22c-26 0 -39 -15 -49 -48l-24 5c14 59 37 89 80 89c30 0 52 -14 72 -28c16 -12 33 -22 52 -22zM544 445c0 75 -2 143 -10 200l2 3c12 -2 23 -3 35 -3s23 1 35 3l2 -3
c-8 -53 -10 -125 -10 -200v-150c0 -178 -56 -305 -261 -305c-90 0 -233 42 -233 246v209c0 75 -2 143 -10 200l2 3c12 -2 39 -3 51 -3s39 1 51 3l2 -3c-8 -53 -10 -125 -10 -200v-176c0 -54 0 -223 168 -223c169 0 186 119 186 231v168z" />
    <glyph glyph-name="uni1E75" unicode="&#x1e75;" horiz-adv-x="537" 
d="M321 -120c22 0 36 10 50 52l24 -6c-12 -60 -41 -90 -87 -90c-22 0 -43 12 -64 26c-18 11 -37 22 -54 22c-26 0 -39 -15 -49 -48l-24 5c14 59 37 89 80 89c30 0 52 -14 72 -28c16 -12 33 -22 52 -22zM365 92c-33 -51 -89 -102 -151 -102c-99 0 -131 70 -131 139v120
c0 76 -1 123 -9 180l2 3c12 -2 35 -3 47 -3s35 1 47 3l2 -3c-8 -53 -9 -105 -9 -180v-99c0 -93 32.5 -104 67 -104c49 0 106.5 53.5 137 105v98c0 76 -1.20001 122.8 -9 180l2 3c12 -2 35 -3 47 -3s35 1 47 3l2 -3c-8 -53 -9 -105 -9 -180v-57c0 -75 9 -149 17 -192l-2 -3
c-13 2 -31.9 3 -44.5 3c-14.5 0 -26.2 -1.3 -39.5 -3c-2.79999 0 -4 1 -4 3l-5 89z" />
    <glyph glyph-name="uni1E76" unicode="&#x1e76;" horiz-adv-x="692" 
d="M359 -58c29 -47 65 -89 101 -129l-21 -14c-39 29 -72 54 -106 90c-37 -38 -69 -63 -107 -90l-20 14c36 40 74 83 103 129h50zM544 445c0 75 -2 143 -10 200l2 3c12 -2 23 -3 35 -3s23 1 35 3l2 -3c-8 -53 -10 -125 -10 -200v-150c0 -178 -56 -305 -261 -305
c-90 0 -233 42 -233 246v209c0 75 -2 143 -10 200l2 3c12 -2 39 -3 51 -3s39 1 51 3l2 -3c-8 -53 -10 -125 -10 -200v-176c0 -54 0 -223 168 -223c169 0 186 119 186 231v168z" />
    <glyph glyph-name="uni1E77" unicode="&#x1e77;" horiz-adv-x="537" 
d="M276 -57c29 -47 65 -89 101 -129l-21 -14c-39 29 -72 54 -106 90c-37 -38 -69 -63 -107 -90l-20 14c36 40 74 83 103 129h50zM365 92c-33 -51 -89 -102 -151 -102c-99 0 -131 70 -131 139v120c0 76 -1 123 -9 180l2 3c12 -2 35 -3 47 -3s35 1 47 3l2 -3
c-8 -53 -9 -105 -9 -180v-99c0 -93 32.5 -104 67 -104c49 0 106.5 53.5 137 105v98c0 76 -1.20001 122.8 -9 180l2 3c12 -2 35 -3 47 -3s35 1 47 3l2 -3c-8 -53 -9 -105 -9 -180v-57c0 -75 9 -149 17 -192l-2 -3c-13 2 -31.9 3 -44.5 3c-14.5 0 -26.2 -1.3 -39.5 -3
c-2.79999 0 -4 1 -4 3l-5 89z" />
    <glyph glyph-name="uni1E78" unicode="&#x1e78;" horiz-adv-x="692" 
d="M405.6 741.8c18.7 0 30.6 11 42.5 57.2l20.4 -6.59998c-10.2 -66 -34.9 -99 -74 -99c-18.7 0 -36.5 13.2 -54.3 28.6c-15.3 12.1 -31.5 24.2 -46 24.2c-22.1 0 -33.1 -16.5 -41.6 -52.8l-20.4 5.5c11.9 64.9 31.5 97.9 68 97.9c25.5 0 44.2 -15.4 61.2 -30.8
c13.6 -13.2 28.1 -24.2 44.2 -24.2zM544 445c0 75 -2 143 -10 200l2 3c12 -2 23 -3 35 -3s23 1 35 3l2 -3c-8 -53 -10 -125 -10 -200v-150c0 -178 -56 -305 -261 -305c-90 0 -233 42 -233 246v209c0 75 -2 143 -10 200l2 3c12 -2 39 -3 51 -3s39 1 51 3l2 -3
c-8 -53 -10 -125 -10 -200v-176c0 -54 0 -223 168 -223c169 0 186 119 186 231v168zM637 830c28.6 -13.3 49.3 -30.7 62 -52l-144 -58c-21 -9 -33 -12 -42 -12s-15 7 -15 15c0 7 2 12 15 21z" />
    <glyph glyph-name="uni1E79" unicode="&#x1e79;" horiz-adv-x="537" 
d="M321 778c2.29999 0.900024 6.79999 1.79999 10.7 1.79999c4.89999 0 24.7 -0.799988 42.4 -20.2l2.29999 -9.69995l-88.6 -95.9c-11.5 -13.2 -17.6 -16.8 -23 -16.8c-5.39999 0 -10.8 5.29999 -10.8 11.5c0 9.89996 2.5 13.3 8.79999 24.6zM333 570c22 0 36 10 50 52
l24 -6c-12 -60 -41 -90 -87 -90c-22 0 -43 12 -64 26c-18 11 -37 22 -54 22c-26 0 -39 -15 -49 -48l-24 5c14 59 37 89 80 89c30 0 52 -14 72 -28c16 -12 33 -22 52 -22zM365 92c-33 -51 -89 -102 -151 -102c-99 0 -131 70 -131 139v120c0 76 -1 123 -9 180l2 3
c12 -2 35 -3 47 -3s35 1 47 3l2 -3c-8 -53 -9 -105 -9 -180v-99c0 -93 32.5 -104 67 -104c49 0 106.5 53.5 137 105v98c0 76 -1.20001 122.8 -9 180l2 3c12 -2 35 -3 47 -3s35 1 47 3l2 -3c-8 -53 -9 -105 -9 -180v-57c0 -75 9 -149 17 -192l-2 -3c-13 2 -31.9 3 -44.5 3
c-14.5 0 -26.2 -1.3 -39.5 -3c-2.79999 0 -4 1 -4 3l-5 89z" />
    <glyph glyph-name="space" unicode=" " horiz-adv-x="250" 
 />
    <glyph glyph-name="ampersand" unicode="&#x26;" horiz-adv-x="710" 
d="M255 338c-103 -57 -122 -111 -122 -182c0 -98 56 -126 119 -126c71 0 96 36 145 103c-57 75 -131 184 -142 205zM293 411c64 42 103 97 103 133c0 45 -24 75 -65 75c-26 0 -76 -29 -76 -95c0 -23 10 -67 38 -113zM437 192c71 105 96 174 104 240c10 -3 29 -3 39 -3
s33 0 43 3c-39 -67 -135.7 -245 -158 -279l34 -46c31 -44 61 -63 77 -63c33 0 56 15 76 54l16 -8c-23 -70 -63 -100 -98 -100c-31 0 -68 2 -115 67l-29 37c-46 -63 -96 -104 -181 -104c-107 0 -201 48 -201 176c0 72 57 135 189 209c-38 59 -54 109 -54 147
c0 59 57 136 157 136c70 0 127 -51 127 -114c0 -55 -65 -125 -148 -173l4 -8c18 -31 72 -109 118 -171z" />
    <glyph glyph-name="quotesingle" unicode="'" horiz-adv-x="190" 
d="M79 426c0 0 -26 159 -26 168c0 22 21 50 51 50c26 0 35 -17 35 -33s-33 -181 -33 -181z" />
    <glyph glyph-name="comma" unicode="," horiz-adv-x="220" 
d="M48 44v4c9.2 26.5 23.8 41.8 54 54h4c36.2 -13.1 64 -40.2 64 -105c0 -82 -50 -109.3 -104 -141c-6.8 5.89999 -13 11 -13 21c49 33 78 61 78 94c0 24.5 -16.5 26 -29 26c-31.2 7 -45.2 13.5 -54 47z" />
    <glyph glyph-name="hyphen" unicode="-" horiz-adv-x="333" 
d="M274 236h-226c-9 0 -15 8 -15 17c0 16 13 37 25 37h229c10 0 14 -9 14 -18c0 -11 -14 -36 -27 -36z" />
    <glyph glyph-name="period" unicode="." horiz-adv-x="220" 
d="M54 44v4c9.2 26.5 23.8 41.8 54 54h4c29 -10.5 44.8 -25.8 54 -54v-4c-10.2 -32.2 -25.8 -47 -54 -54h-4c-31.2 7 -45.2 20.5 -54 54z" />
    <glyph glyph-name="zero" unicode="0" horiz-adv-x="465" 
d="M233 571c-46 0 -108 -37 -108 -284c0 -87 11 -258 104 -258c18 0 67 10 89 93c14 51 17 103 17 195c0 134 -27 212 -58 238c-11 10 -27 16 -44 16zM228 -10c-124 0 -189 137 -189 299c0 197 94 321 194 321c36 0 68 -10 95 -35c36 -33 93 -110 93 -266
c0 -234 -116 -319 -193 -319z" />
    <glyph glyph-name="I" unicode="I" horiz-adv-x="294" 
d="M104 445c0 75 -2 143 -10 200l2 3c12 -2 39 -3 51 -3s39 1 51 3l2 -3c-8 -53 -10 -125 -10 -200v-245c0 -75 2 -143 10 -200l-2 -3c-12 2 -39 3 -51 3s-39 -1 -51 -3l-2 3c8 54 10 125 10 200v245z" />
    <glyph glyph-name="J" unicode="J" horiz-adv-x="320" 
d="M140 95v350c0 75 -2 143 -10 200l2 3c12 -2 39 -3 51 -3s40 1 52 3l1 -3c-8 -53 -10 -125 -10 -200v-328c0 -114.5 -10 -144 -63 -213c-42 -54 -95 -76 -158 -76c-19 0 -37 4 -45 9l-1 3c11 19 21 55 28 82l11 1c11 -20 29 -35 58 -35c79 0 84 119 84 207z" />
    <glyph glyph-name="K" unicode="K" horiz-adv-x="629" 
d="M104 445c0 75 -2 143 -10 200l2 3c12 -2 39 -3 51 -3s39 1 51 3l2 -3c-8 -53 -10 -125 -10 -200v-100.9c5.10001 0.5 15.1 2.79999 22 8.89999c88 77 196 193 285 295c13 -3 36 -3 49 -3c15 0 35 0 51 3c-88 -77 -236 -215 -304 -294v-2l314 -355c-19 3 -43 3 -62 3
c-17 0 -45 0 -62 -3c-90 111 -233 284 -274 325c-4.8 4 -13.9 6 -19 6.70001v-128.7c0 -75 2 -143 10 -200l-2 -3c-12 2 -39 3 -51 3s-39 -1 -51 -3l-2 3c8 54 10 125 10 200v245z" />
    <glyph glyph-name="L" unicode="L" horiz-adv-x="515" 
d="M191 445v-245c0 -17 1 -115 8 -139c134 0 282 22 282 22l2 -4c-1 -8 -2 -25 -2 -35s1 -30 2 -44l-2 -3c-16 2 -39 3 -60 3h-273c-34 0 -52 -3 -52 -3l-1 3c8 54 10 125 10 200v245c0 75 -2 143 -10 200l2 3c12 -2 39 -3 51 -3s40 1 52 3l1 -3c-8 -53 -10 -125 -10 -200z
" />
    <glyph glyph-name="M" unicode="M" horiz-adv-x="886" 
d="M193 662h33c73.8 -171.8 145.3 -332 224 -495.7l8.39999 -0.300003l242.6 496h25c28 -243 58 -451 94 -665c-15 3 -41 3 -56 3s-34 0 -49 -3c-14.7 165.8 -34.3 318.2 -55.5 475.9l-3.5 0.100006c-79 -157 -150 -308.8 -222 -473h-19c-64 155 -134.2 317 -209.8 476.2
h-4.39999c-24.5 -151.1 -58.8 -374.2 -73.8 -479.2c-11 3 -19 3 -30 3c-12 0 -22 0 -33 -3c39 187 94 463 129 665z" />
    <glyph glyph-name="N" unicode="N" horiz-adv-x="718" 
d="M108 645l2 3s8 -3 42 -3c4.5 0 14 2 14 2l343 -444c43.3 -56.1 57.6 -79.4 59 -25v267c0 75.3 -2 143 -10 200l2 3c12 -2 23 -3 35 -3s23 1 35 3l2 -3c-16 -222 -15 -396 -20 -624c-1 -19 -5 -31 -19 -31c-16 0 -32 9 -43 24l-349 441c-37.1 48 -39 45 -39 -16v-239
c0 -75 2 -143 10 -200l-2 -3c-12 2 -23 3 -35 3s-23 -1 -35 -3l-2 3c16 159 19 455 10 645z" />
    <glyph glyph-name="O" unicode="O" horiz-adv-x="741" 
d="M355 614c-96 0 -200 -77 -200 -287c0 -192 114 -293 234 -293c114 0 197 97 197 276c0 208 -90 304 -231 304zM689 329c0 -200 -129 -339 -320 -339c-172 0 -317 123 -317 320c0 196 137 348 316 348c180 0 321 -131 321 -329z" />
    <glyph glyph-name="P" unicode="P" horiz-adv-x="559" 
d="M190 565v-236c13 -7 54 -10 79 -10c97 0 153 37 153 152c0 119 -73 138 -142 138c-72 0 -90 -15 -90 -44zM104 445c0 75 -2 143 -10 200l2 3c12 -2 39 -3 51 -3c30 0 114 7 140 7c185 0 232 -102 232 -176c0 -85 -63 -200 -245 -200c-35 0 -62 3 -84 10v-86
c0 -75 2 -143 10 -200l-2 -3c-12 2 -39 3 -51 3s-39 -1 -51 -3l-2 3c8 54 10 125 10 200v245z" />
    <glyph glyph-name="Q" unicode="Q" horiz-adv-x="741" 
d="M355 614c-96 0 -200 -77 -200 -287c0 -192 114 -293 234 -293c114 0 197 97 197 276c0 208 -90 304 -231 304zM560.7 49.2c57.6 -31.8 139.6 -88.9 249.3 -126.2v-6c-36 -19 -75 -42 -94 -57c-110.7 62.9 -102.3 80.3 -232.2 148.8c-34.9 -12.3 -73.4 -18.8 -114.8 -18.8
c-172 0 -317 123 -317 320c0 196 137 348 316 348c180 0 321 -131 321 -329c0 -121.7 -47.8 -220.9 -128.3 -279.8z" />
    <glyph glyph-name="R" unicode="R" horiz-adv-x="600" 
d="M190 286v-86c0 -75 2 -143 10 -200l-2 -3c-12 2 -39 3 -51 3s-39 -1 -51 -3l-2 3c8 54 10 125 10 200v245c0 75 -2 143 -10 200l2 3c12 -2 39 -3 51 -3c30 0 110 7 135 7c63 0 139 -3 187 -48c36 -34 53 -75 53 -125c0 -82 -46 -134 -100 -161
c-14 -7.20001 -33.8 -13.7 -60.5 -19c63.3 -84.3 163.6 -242.5 213.5 -299l-2 -3c-20 3 -40 3 -60 3c-19 0 -41 0 -60 -3c-11 34 -59 121 -95 179c-25.5 41.1 -47.1 80.2 -75.2 113.1c-27 -2 -57.8 -3.10001 -92.8 -3.10001zM283 609c-90 0 -93 -5 -93 -44v-239h58
c97 0 178 30 178 152c0 108 -82 131 -143 131z" />
    <glyph glyph-name="S" unicode="S" horiz-adv-x="506" 
d="M242 34c59 0 117 42 117 117c0 85 -52 118 -117 145c-83 35 -172 84 -172 189c0 73 51 131 110 156c29 12 59 17 86 17c117 0 159 -45 159 -45l2 -3c-9 -30 -19 -64 -23 -100l-10 -1c-27 62 -81 105 -136 105c-23 0 -44 -3 -61 -12c-26 -14 -46 -54 -46 -90
c0 -83 71 -112 122 -131c80.9 -30.2 179 -84 179 -200s-95 -191 -218 -191c-117 0 -182 45 -182 45l-2 3c8 30 19 67 23 103l10 1c31 -59 103 -108 159 -108z" />
    <glyph glyph-name="T" unicode="T" horiz-adv-x="540" 
d="M227 445c0 17 -1 120 -8 144c-134 0 -202 -14 -202 -14l-2 4c2 15 2 38 0 66l2 3c16 -2 39 -3 60 -3h386c21 0 44 1 60 3l2 -3c-2 -28 -2 -51 0 -66l-2 -4s-68 14 -202 14c-7 -24 -8 -127 -8 -144v-245c0 -75 2 -143 10 -200l-2 -3c-12 2 -39 3 -51 3s-39 -1 -51 -3l-2 3
c8 54 10 125 10 200v245z" />
    <glyph glyph-name="U" unicode="U" horiz-adv-x="692" 
d="M544 445c0 75 -2 143 -10 200l2 3c12 -2 23 -3 35 -3s23 1 35 3l2 -3c-8 -53 -10 -125 -10 -200v-150c0 -178 -56 -305 -261 -305c-90 0 -233 42 -233 246v209c0 75 -2 143 -10 200l2 3c12 -2 39 -3 51 -3s39 1 51 3l2 -3c-8 -53 -10 -125 -10 -200v-176
c0 -54 0 -223 168 -223c169 0 186 119 186 231v168z" />
    <glyph glyph-name="V" unicode="V" horiz-adv-x="631" 
d="M324 132.3c71.7 166 169.6 387.1 204 515.7c11.4 -2 34 -3 45 -3c9 0 28 1 40 3c-101 -221 -199 -436 -295 -658h-28c-92 219 -224 557 -274 658c16.8 -1.79999 44 -3 60 -3c15.4 0 38.4 1.20001 55 3c9.89999 -34.6 59.8 -211.9 191 -515.7h2z" />
    <glyph glyph-name="W" unicode="W" horiz-adv-x="951" 
d="M644 132c72 166 170 387 204 516c12 -3 39 -3 50 -3s23 0 35 3c-101 -221 -199 -436 -295 -658h-28c-38.6 108.6 -87 241.5 -131.5 361.6l-160.5 -361.6h-28c-92 219 -224 557 -274 658c17 -3 43 -3 60 -3s33 0 50 3c10 -35 62 -214 197 -525h2
c39 90.4 86.4 198.3 127.3 299.1c-36.9 98.8 -68.6 182.2 -86.3 225.9c17 -3 43 -3 60 -3s38 0 55 3c14 -63 58 -213 161 -516h2z" />
    <glyph glyph-name="X" unicode="X" horiz-adv-x="581" 
d="M564 -3c-18 3 -40 3 -58 3s-40 0 -58 -3c-52.3 100.4 -109.7 181.3 -173.6 277.9c-56.3 -85.7 -114.3 -179.8 -167.4 -277.9c-11 3 -30 3 -42 3c-11 0 -31 0 -42 -3l221 324l-216 327c17 -3 39 -3 56 -3s39 0 57 3c28.8 -59.8 95.5 -156.8 161 -257.2
c83.6 121 107.8 157 162 257.2c11 -3 31 -3 42 -3s31 0 42 3c-43.2 -60.8 -125.1 -168.4 -216.5 -302.6c86.8 -133.5 151.5 -234 232.5 -348.4z" />
    <glyph glyph-name="Y" unicode="Y" horiz-adv-x="582" 
d="M333 285c1 -99 3 -240 7 -288c-12 2 -38 3 -50 3s-38 -1 -50 -3c5 55 7 180 7 278c-38 65 -191 313 -231 373c17 -2 40 -3 57 -3s40 1 57 3c54 -105 112 -199 175 -308c58 91 125 203 175 308c12 -2 29 -3 42 -3c12 0 29 1 42 3c-121 -185 -190 -283 -231 -363z" />
    <glyph glyph-name="Z" unicode="Z" horiz-adv-x="622" 
d="M187 54c131 0 380 21 380 21l2 -3c-1 -8 -2 -23 -2 -33s1 -25 2 -39l-2 -3c-16 2 -35.2 3 -71 3h-363c-30 0 -87 -3 -87 -3l-3 4c11 14 20 29 26 37l369 541c5.20001 7.59998 2 12 -3 12c-100.5 0 -218.5 -9.5 -355 -21l-2 3c1 8 2 23 2 33s-1 25 -2 39l2 3
c16 -2 39 -3 61 -3h304c31 0 109.5 3.79999 126 6c4.5 0 6 -2 6 -6c0 -11 -10 -26 -30 -54l-355 -519c-4.7 -6.9 -5 -13 -5 -18z" />
    <glyph glyph-name="bracketleft" unicode="[" horiz-adv-x="361" 
d="M110 -192v895h215v-30c-137 -10 -147 -25 -147 -112v-611c0 -87 9 -102 147 -113v-29h-215z" />
    <glyph glyph-name="backslash" unicode="\" horiz-adv-x="292" 
d="M60 698l230 -746h-49l-230 746h49z" />
    <glyph glyph-name="bracketright" unicode="]" horiz-adv-x="361" 
d="M251 703v-895h-215v30c137 10 147 25 147 112v611c0 87 -9 102 -147 113v29h215z" />
    <glyph glyph-name="uni02C4" unicode="&#x2c4;" horiz-adv-x="518" 
d="M259 593l-102 -247h-45l127 304h42l126 -304h-45z" />
    <glyph glyph-name="underscore" unicode="_" horiz-adv-x="486" 
d="M482 -110v-44h-477v44h477z" />
    <glyph glyph-name="a" unicode="a" horiz-adv-x="481" 
d="M310 225l-85 -23c-78 -21 -99 -55 -99 -100c0 -31 29 -61 74 -61c30 0 64 18 92 39c8 6 14 13 14 26zM310.1 48h-4.10001c-53 -45 -81 -58 -136 -58c-74 0 -125 34 -125 108c0 68 64 122 166 145l93 21c3 1 7 5 7 12c0 113 -60 118 -96 118c-48 0 -82 -40 -110 -85l-13 1
l-17 67l3 4c25 21 71 58 147 58s165 -27 165 -162c0 -11 -2.79999 -122 -2.79999 -151c0 -44.5 6.5 -68.7 16.7 -78c6.10001 -5.6 19.4 -7.5 29.3 -7.5c7.59998 0 16.1 1.4 27 5.2l7.39999 -24.7c-23.6 -25 -54.4 -31 -79.6 -31c-36.6 0 -66.5 18.9 -77.9 58z" />
    <glyph glyph-name="b" unicode="b" horiz-adv-x="504" 
d="M162 81c20 -25 57 -51 88 -51c95 0 132 70 132 194c0 124.7 -53.9 175 -115 175c-41 0 -66 -19 -105 -59v-259zM162 500v-111c34 37 77 50 125 50c97 0 184 -85 184 -207c0 -170 -113 -242 -215 -242c-43 0 -89 24 -118 49c-10.5 -20 -22 -37 -33 -49
c-10.5 0 -22 2 -28 8c4.2 21.8 5 36 5 75v409c0 76 -4.3 150.3 -12 193l2 3c40.5 3 61.9 10 87 20c6.3 0 9 -3 9 -10c-4.7 -61.3 -6 -114 -6 -188z" />
    <glyph glyph-name="c" unicode="c" horiz-adv-x="429" 
d="M250 399c-66 0 -124 -66 -124 -176c0 -117 57 -183 130 -183c37.2 0 69 8 107 42h4l19 -21c-40 -51 -87 -71 -147 -71c-122 0 -201 88.9 -201 228c0 136 109 221 213 221c50 0 102 -12 133 -28l2 -3l-23 -82l-13 -1c-26.5 45.5 -61.5 74 -100 74z" />
    <glyph glyph-name="d" unicode="d" horiz-adv-x="530" 
d="M361 113v228c-24 38 -48 58 -95 58c-48.4 0 -128 -28 -128 -178c0 -125 46 -179 100 -179c40.5 0 86.5 24.5 123 71zM361 58c-36 -46.5 -81 -68 -129 -68c-108 0 -181 100 -181 223c0 136 95.8 226 226 226c20 0 61 -9 84 -22v65c0 76 -1.29999 150.3 -9 193l2 3
c40.5 3 61.9 10 87 20c6.29999 0 9 -3 9 -10c-5 -61.7 -9 -114 -9 -188v-308c0 -75 9 -149 17 -192l-2 -3c-13 2 -31.9 3 -44.5 3c-14.5 0 -21.2 -1.3 -34.5 -3c-6 0 -9 1 -9 3l-5 58h-2z" />
    <glyph glyph-name="e" unicode="e" horiz-adv-x="453" 
d="M125 273h184c10 0 14 5 14 14c0 75 -44.5 112 -84 112c-31.5 0 -97 -22 -114 -126zM392 104l20 -25c-38 -52 -102 -89 -174 -89c-67.4 0 -124.6 24.7 -159 66c-33.5 40.2 -45 96.3 -45 153c0 147 102 230 205 230c132 0 173 -105 173 -189c0 -11 -7 -17 -18 -17h-272
c0 -58.1 6.39999 -98.9 24 -127c27.5 -44 74.8 -57 109 -57c55 0 102 17 137 55z" />
    <glyph glyph-name="f" unicode="f" horiz-adv-x="314" 
d="M99 429v39c0 58 17 105 55 153c37.7 47.7 101 77 164 77c19 0 37 -5 45 -10l1 -3c-10.3 -21.3 -21 -55 -28 -82l-11 -1c-11 20 -32.3 35 -58 35c-57.3 0 -93 -37.8 -93 -93c0 -18 5 -70 5 -106v-9h43c23 0 53.2 1.20001 70 2l5 -7c-6 -14.7 -9 -25 -12 -41
c-13.3 1.29999 -48 2 -72 2h-34v-186c0 -75 1.5 -142 10 -199l-2 -3c-12 2 -36 3 -48 3s-36 -1 -48 -3l-2 3c8.5 53.5 10 124 10 199v186h-1c-23 0 -56 -0.700012 -74 -2l-5 7c9.7 15 15.3 24.7 22 41c13.2 -1.79999 36.3 -2 58 -2z" />
    <glyph glyph-name="g" unicode="g" horiz-adv-x="499" 
d="M101 -104c0 -68 66 -90 131 -90c86 0 168 32 168 93c0 26 -10 55 -39 72c-27.4 16.1 -58 17 -106 17c-13.8 0 -59.5 -3 -89 -3c-35 -19 -65 -55.9 -65 -89zM390 285c0 -78.8 -62 -149 -166 -149c-30.1 0 -61 7 -74 14c-22 -19 -27 -36 -27 -56c0 -43 30 -47 58 -47
c5 0 15 1 29 2c23 3 63 5 80 5c35 0 103.5 -1 141 -33c28 -23.9 42 -54.9 42 -99c0 -93.7 -92.9 -159 -249 -159c-106 0 -192 34.3 -192 113c0 18.7 10.5 47 23 66c25.9 20 57 39.3 84.9 50.7c-53.9 9.3 -77.9 45.3 -77.9 86.3c0 34 35 63 64 83c-28 16 -71 50 -71 125
c0 99.1 91 152 170 152c21.5 0 43.4 -3 61.3 -8.60001c74.6 3.89999 109.9 14.5 157.7 18.6l3 -3c-2 -9 -3 -17 -3 -26s1 -17 3 -26l-3 -3c-41.2 4.20001 -74.3 8 -104.4 10.4c23.4 -15.4 50.4 -47.4 50.4 -116.4zM312 284c0 71 -26 117 -91 117c-58 0 -88 -43 -88 -109
c0 -69 22 -116 94 -116c60 0 85 47.3 85 108z" />
    <glyph glyph-name="h" unicode="h" horiz-adv-x="549" 
d="M170 352l2 -3c64 75 135 90 173 90c90 0 124 -54 124 -158c0 -32 -2 -69 -2 -101c0 -76 1 -122.8 9 -180l-2 -3c-12 2 -35 3 -47 3s-35 -1 -47 -3l-2 3c8 53.8 9 105 9 180v98c0 81 -21 101 -72 101c-35.5 0 -94 -22 -145 -82v-117c0 -76 1.5 -122.8 9 -180l-2 -3
c-12 2 -35 3 -47 3s-35 -1 -47 -3l-2 3c7.8 56 9 105.5 9 180v301c0 76 -1.3 151.3 -9 194l2 3c40.5 3 61.9 10 87 20c6.3 0 9 -3 9 -10c-4.8 -61.5 -9 -113 -9 -187v-149z" />
    <glyph glyph-name="i" unicode="i" horiz-adv-x="260" 
d="M80 597c0 27 24 51 51 51s51 -24 51 -51s-24 -51 -51 -51s-51 24 -51 51zM90 235c0 75 -2.7 151.2 -9 194l2 3c21.2 -1.70001 64.3 -1.29999 87 1c7.8 0 9 -1 9 -10c-6.5 -61 -9 -97 -9 -172v-71c0 -76 1.8 -123.2 9 -180l-2 -3c-12 2 -35 3 -47 3s-35 -1 -47 -3l-2 3
c7.2 54 9 105 9 180v55z" />
    <glyph glyph-name="j" unicode="j" horiz-adv-x="272" 
d="M90 597c0 27 24 51 51 51s51 -24 51 -51s-24 -51 -51 -51s-51 24 -51 51zM182 251v-131c0 -150 -13.4 -207 -44 -255c-28 -44 -72 -81 -135 -81c-19 0 -35 4 -43 9l-1 3c4 15 4 62 4 89l16 4c11 -20 31 -45 60 -45c56 0 63 115.4 63 252v139c0 75 -2.7 151.2 -9 194l2 3
c21.2 -1.70001 64.3 -1.29999 87 1c7.8 0 9 -1 9 -10c-6.5 -61 -9 -97 -9 -172z" />
    <glyph glyph-name="k" unicode="k" horiz-adv-x="503" 
d="M90 200v282c0 76 -1.3 150.3 -9 193l2 3c40.5 3 61.9 10 87 20c6.3 0 9 -3 9 -10c-4.7 -63.3 -9 -113 -9 -188v-259.9c13 1.09999 31.3 5.2 44 14.9c39.6 30.5 114.9 111.5 158 174c27 0 82 0 101 3l2 -3c-65 -55.1 -162.6 -150.1 -202 -191
c95.4 -115.2 148.6 -159.4 223 -238l-2 -3c-9 1.8 -43.3 3 -60 3c-17 0 -50.7 -1.2 -66 -3c-68 98 -92 134 -157 202c-8.60001 7.7 -32.8 10.8 -41 11v-10c0 -75.2 1.2 -143 9 -200l-2 -3c-12 2 -35 3 -47 3s-35 -1 -47 -3l-2 3c7.5 53.5 9 125.5 9 200z" />
    <glyph glyph-name="l.superior" unicode="&#x2e1;" horiz-adv-x="226" 
d="M81 619c0 47.3 -1.7 81 -5 101l1 1c19.3 1.29999 42 7.29999 68 18c3.3 0 5 -1.70001 5 -5c-3.3 -28.7 -5 -62.7 -5 -102v-161c0 -47.3 1.7 -83 5 -107l-1 -2c-11.3 1.29999 -23.3 2 -36 2s-24.7 -0.700012 -36 -2l-1 2c3.3 22 5 57.7 5 107v148z" />
    <glyph glyph-name="m" unicode="m" horiz-adv-x="807" 
d="M162 352l3 -3c47 50 106 90 168 90c56 0 97 -31 106 -79c57 60 115 79 169 79c108 0 124 -70 124 -159v-100c0 -76 1 -123 9 -180l-2 -3c-12 2 -35 3 -47 3s-35 -1 -47 -3l-2 3c8 54 9 105 9 180v110c0 67 -26 89 -80 89c-39 0 -79 -7 -127 -60c1 -12 1 -24 1 -38v-101
c0 -76 1 -123 9 -180l-2 -3c-12 2 -35 3 -47 3s-35 -1 -47 -3l-2 3c8 54 9 105 9 180v110c0 67 -28 89 -66 89c-35 0 -91 -30 -138 -78v-121c0 -76 1 -123 9 -180l-2 -3c-12 2 -35 3 -47 3s-35 -1 -47 -3l-2 3c8 54 9 105 9 180v55c0 75 -2 150.7 -9 194l2 3
c22.7 -2.29999 58.5 -1.5 81 3c4.7 0 6 -2.29999 6 -10v-73z" />
    <glyph glyph-name="n" unicode="n" horiz-adv-x="539" 
d="M460 180c0 -76 1.20001 -123 9 -180l-2 -3c-12 2 -35 3 -47 3s-35 -1 -47 -3l-2 3c7.20001 53.8 9 105 9 180v98c0 81 -21 101 -72 101c-36 0 -94 -22 -145 -82v-117c0 -76 1 -123 9 -180l-2 -3c-12 2 -35 3 -47 3s-35 -1 -47 -3l-2 3c8 54 9 105 9 180v55
c0 75 -2 150.7 -9 194l2 3c22.7 -2.29999 58.5 -1.5 81 3c4.7 0 5.8 -2.29999 6 -10v-73l2 -3c64 75 135 90 173 90c90 0 124 -54 124 -158c0 -32 -2 -69 -2 -101z" />
    <glyph glyph-name="o" unicode="o" horiz-adv-x="500" 
d="M38 205c0 142 85 234 216 234c135 0 208 -89 208 -225c0 -131 -80 -224 -212 -224c-133 0 -212 95 -212 215zM247 399c-94 0 -121 -90 -121 -177c0 -77 27 -192 133 -192c67 0 115 70.9 115 166c0 121 -21 203 -127 203z" />
    <glyph glyph-name="p" unicode="p" horiz-adv-x="523" 
d="M162 294v-219c35 -41 77 -45 93 -45c107 0 130 106 130 188c0 113 -35 175 -103 175c-39 0 -98 -46 -120 -99zM162 352l2 -3c46 70 96 90 135 90c112 0 174 -102 174 -208c0 -140.9 -80 -241 -212 -241c-36 0 -73 8 -99 22v-44c0 -75.2 1.8 -143 9 -200l-2 -3
c-12 2 -35 3 -47 3s-35 -1 -47 -3l-2 3c7.2 53.8 9 125.5 9 200v267c0 75 -2 150.7 -9 194l2 3c22.7 -2.29999 58.5 -1.5 81 3c4.7 0 6 -2.29999 6 -10v-73z" />
    <glyph glyph-name="q" unicode="q" horiz-adv-x="522" 
d="M357 376c-21.7 18 -50.3 23 -94 23c-74 0 -126 -68 -126 -172c0 -151 71 -193 129 -193c19 0 68 12 94 32v168c0 100 -3 142 -3 142zM366 432c18.3 -3 58.3 -2.29999 81 0l2 -3c-7 -43.3 -9 -119 -9 -194v-267c0 -75.2 0.5 -143 9 -200l-2 -3s-12.7 3 -47 3
c-35 0 -47 -3 -47 -3l-2 3c8.5 53.5 9 126 9 200v55c-15 -13 -61 -33 -118 -33c-138 0 -193 121.7 -193 226c0 132 92 223 208 223c34 0 90.9 -4 109 -7z" />
    <glyph glyph-name="r" unicode="r" horiz-adv-x="355" 
d="M167 334l3 -2c44 76 73 107 127 107c18 0 19 -2 36 -7l4 -4l-20 -74l-8 -2c-13 12 -32 14 -52 14c-19 0 -41.5 -12.7 -56 -35c-21.5 -33 -34 -57 -34 -99v-52c0 -76 1.5 -123 9 -180l-2 -3c-12 2 -35 3 -47 3s-35 -1 -47 -3l-2 3c7.8 53.8 9 105 9 180v55
c0 75 -2 150.7 -9 194l2 3c22.7 -2.29999 58.5 -1.5 81 3c4.7 0 6 -2.29999 6 -10v-91z" />
    <glyph glyph-name="s.superior" unicode="&#x2e2;" horiz-adv-x="276" 
d="M60 435c17.3 -33.3 39.7 -50 67 -50c30.7 0 46 14.3 46 43c0 23.3 -17.3 40 -52 50c-49.3 14 -74 41.3 -74 82c0 21.3 10 39.3 30 54s44.3 22 73 22c31.3 0 56.7 -5.29999 76 -16l1 -2l-12 -56h-10c-14.7 30.7 -33.7 46 -57 46c-26.7 0 -40 -12 -40 -36
c0 -22 13 -36 39 -42c60.7 -14 91 -44 91 -90c0 -20 -9.3 -38 -28 -54c-21.3 -18.7 -50.7 -28 -88 -28c-26 0 -54 5.70001 -84 17l10 59z" />
    <glyph glyph-name="t" unicode="t" horiz-adv-x="340" 
d="M95 429c0 58 2 93.3 4 128l2 3c32.5 4.5 44.9 15 70 25c6.3 0 9 -2.70001 9 -10c-4.5 -58 -5 -71.2 -5 -146h47c23 0 52 1.29999 70 2l5 -7c-6 -14.7 -9 -25 -12 -41c-13.3 1.29999 -48 2 -72 2h-38v-126c0 -60 -3 -103 -3 -133c0 -54.1 9.3 -78.2 33 -82
c25 -4 48 -3 78.7 7.7l12.3 -24.7c-42 -27 -74 -37 -116 -37c-46 0 -88 31 -88 96c0 30 3 102 3 162v137c-22.8 -0.100006 -53.8 -0.700012 -71 -2l-5 7c9.7 15 15.3 24.7 22 41c12.4 -1.60001 33.5 -1.89999 54 -2z" />
    <glyph glyph-name="u" unicode="u" horiz-adv-x="537" 
d="M365 92c-33 -51 -89 -102 -151 -102c-99 0 -131 70 -131 139v120c0 76 -1 123 -9 180l2 3c12 -2 35 -3 47 -3s35 1 47 3l2 -3c-8 -53 -9 -105 -9 -180v-99c0 -93 32.5 -104 67 -104c49 0 106.5 53.5 137 105v98c0 76 -1.20001 122.8 -9 180l2 3c12 -2 35 -3 47 -3
s35 1 47 3l2 -3c-8 -53 -9 -105 -9 -180v-57c0 -75 9 -149 17 -192l-2 -3c-13 2 -31.9 3 -44.5 3c-14.5 0 -26.2 -1.3 -39.5 -3c-2.79999 0 -4 1 -4 3l-5 89z" />
    <glyph glyph-name="v" unicode="v" horiz-adv-x="462" 
d="M202 -3c-56 146 -115 288 -182 435c16 -3 42 -3 58 -3c14 0 37 0 50 3c36.3 -114.7 68.7 -227.4 118.8 -341.9h2c45.9 98 80.7 228.8 121.2 341.9c9 -3 24 -3 34 -3s29 0 38 3c-65 -147 -127 -289 -179 -435c-9 3 -20 3 -30 3s-21 0 -31 -3z" />
    <glyph glyph-name="w" unicode="w" horiz-adv-x="722" 
d="M205 -4c-56 146 -118 288 -185 435c16 -3 42 -3 58 -3c14 0 37 0 50 3c36.3 -114.7 69.7 -227.4 119.8 -341.9h6c29 61.9 56.2 136.9 83 212.2c-17.2 45.7 -33.1 89.7 -46.8 130.7c16 -3 42 -3 58 -3c14 0 37 0 50 3c23 -106 54 -232 95.8 -341.9h8
c41.2 95.9 86.2 223.9 123.2 341.9c9 -3 24 -3 34 -3s34 0 43 3c-57 -125 -137 -317 -186 -435c-9 3 -27 3 -37 3s-16 0 -26 -3c-28.5 77.6 -60.4 158.6 -90.4 236.7c-32.2 -78.5 -61.2 -160.8 -88.6 -237.7c-9 3 -26 3 -36 3s-23 0 -33 -3z" />
    <glyph glyph-name="x.superior" unicode="&#x2e3;" horiz-adv-x="327" 
d="M20 632c6.7 -1.29999 22.7 -2 48 -2c22.7 0 37.7 0.700012 45 2c15.3 -25.3 34.3 -54 57 -86c27.3 35.3 48.7 64 64 86c4.7 -1.29999 16 -2 34 -2c14.7 0 24 0.700012 28 2l-101 -118l8 -11c25.3 -36.7 60 -83.7 104 -141c-6 1.29999 -20.3 2 -43 2
c-25.3 0 -41 -0.700012 -47 -2c-12.7 20.7 -34.7 52.7 -66 96l-67 -96c-4 1.29999 -13 2 -27 2c-18.7 0 -30.3 -0.700012 -35 -2l104 130z" />
    <glyph glyph-name="y" unicode="y" horiz-adv-x="506" 
d="M28 432c14 -3 39 -3 52 -3c14 0 36 0 49 3c37.4 -114.2 84.5 -225.5 133.7 -344.4h2c48.6 103.6 95.3 231.4 131.3 344.4c10 -3 29 -3 39 -3s33 0 43 3c-33 -67 -252 -544 -290 -669c-10 3 -39 5 -49 5s-25 -2 -35 -5c45.2 75.3 86 152.3 118 227
c-35.4 95.1 -154.2 353.2 -194 442z" />
    <glyph glyph-name="z" unicode="z" horiz-adv-x="416" 
d="M135.9 45c121.6 0.700001 250.1 11 250.1 11l2 -3c-1 -8 -2 -17 -2 -26s1 -14 2 -27l-2 -3c-15 2 -36 3 -56 3h-226c-28.5 0 -81 -3 -81 -3l-3 4.5c8 9.2 14 18.5 22 30.5l235 351.7c-114.6 -1.60001 -228 -10.7 -228 -10.7l-2 3c1 8 2 17 2 26s-1 14 -2 27l2 3
c15 -2 36 -3 56 -3h204c29 0 75.7 6.29999 80.7 6.29999c4 0 5.29999 -2.29999 5.29999 -6.29999c-6 -7 -13 -16.6 -30 -42z" />
    <glyph glyph-name="braceleft" unicode="{" horiz-adv-x="277" 
d="M178 552l8 -166c4.3 -89 -37.8 -117.8 -105 -137v-4c67.8 -28.2 109.4 -67.7 105 -150l-8 -149c-4.5 -84 36 -134 80 -134c6 -6 6 -18 0 -24c-101 0 -157 33 -152 163l6 170c2 61 -24.5 105 -98 114c-8 8 -9 15 0 24c74 7 98 61 98 111l-6 184c-4 113 62 153 152 153
c6 -6 6 -18 0 -24c-38 -11 -85 -28.1 -80 -131z" />
    <glyph glyph-name="bar" unicode="|" horiz-adv-x="210" 
d="M130 -232h-49v930h49v-930z" />
    <glyph glyph-name="braceright" unicode="}" horiz-adv-x="277" 
d="M95 -58l-8 166c-4.3 89 37.8 117.8 105 137v4c-67.8 28.2 -109.4 67.7 -105 150l8 149c4.5 84 -36 134 -80 134c-6 6 -6 18 0 24c101 0 157 -33 152 -163l-6 -170c-2 -61 24.5 -105 98 -114c8 -8 9 -15 0 -24c-74 -7 -98 -61 -98 -111l6 -184c4 -113 -62 -153 -152 -153
c-6 6 -6 18 0 24c38 11 85 28.1 80 131z" />
    <glyph glyph-name="asciitilde" unicode="~" horiz-adv-x="449" 
d="M26 209c13 65 67 128 128 128c23 0 48 -16 74 -32c25 -16 51 -33 73 -33c28 0 77 17 99 67l17 -6c-31 -107 -96 -120 -120 -120c-26 0 -51 16 -75 33c-25 17 -49 32 -74 32c-35 0 -86 -28 -109 -72z" />
    <glyph glyph-name="uni00A0" unicode="&#xa0;" horiz-adv-x="250" 
 />
    <glyph glyph-name="exclamdown" unicode="&#xa1;" horiz-adv-x="228" 
d="M115 -229c-27 0 -56 23 -56 73c0 65 16 107 26 193c13 108 14 168 16 182c1 11 4 20 14 20c11 0 13 -7 14 -13c2 -21 7 -111 15 -189c9 -88 25 -123 25 -193c0 -54 -32 -73 -54 -73zM171 385v-4c-9.2 -26.5 -23.8 -41.8 -54 -54h-4c-29 10.5 -44.8 25.8 -54 54v4
c10.2 32.2 25.8 47 54 54h4c31.2 -7 45.2 -20.5 54 -54z" />
    <glyph glyph-name="cent" unicode="&#xa2;" horiz-adv-x="500" 
d="M255.5 656.4h38.6v-103.3c50.7 -0.199951 103.3 -12.4 134.7 -28.6l2 -3.09998l-23.5 -83.8l-13.3 -1c-26.6 45.6 -61.4 74.5 -99.9 75.6v-366.8h3.89999c38 0 70.5 8.20001 109.3 42.9h4.10001l19.4 -21.5c-37.8 -48.2 -81.8 -69.3 -136.7 -72.2v-108.2h-38.6v109.1
c-110.3 11.5 -180.3 99.4 -180.3 231.8c0 122.7 86.8 204.8 180.3 222.3v106.8zM255.5 153.3v352.1c-51.1 -19.7 -90.4 -81.4 -90.4 -173c0 -95.7 37.3 -158 90.4 -179.1z" />
    <glyph glyph-name="sterling" unicode="&#xa3;" horiz-adv-x="500" 
d="M236.2 440.6v-76.1h134c5.69998 0 7.89999 -2.29999 7.89999 -6.79999v-23.8c0 -9.10001 -14.7 -13.7 -26.1 -13.7h-115.8c-1.09999 -128.3 -42.1 -188.5 -78.4 -222.6h5.7c122.6 0 118.2 -50 189.7 -50c31.8 0 82.8 8.1 111.2 46.7l19.3 -11.4
c-26.1 -55.6 -79.4 -94.3 -149.8 -94.3c-96.5 0 -97.7 63.6 -192 63.6c-37.5 0 -45.4 -14.7 -45.4 -26.1c0 -25 -19.3 -37.5 -43.1 -37.5c-20.4 0 -34.1 12.6 -34.1 29.6c0 20.4 25 37.4 54.5 53.3c63.6 46.6 76.1 132.9 76.1 230.6v18.1h-68.1
c-5.7 0 -6.9 1.09998 -6.9 6.79999v14.8c0 9.10001 6.9 22.7 26.2 22.7h48.8v21.6c0 90.8 18.2 130.6 72.7 185.1c56.8 56.8 126 76.1 189.6 76.1c19.3 0 37.5 -4.59998 45.4 -9.09998l1.19998 -3.40002c-11.4 -19.3 -21.6 -54.5 -28.4 -81.8l-11.4 -1.09998
c-11.4 19.3 -29.5 35.2 -57.9 35.2c-57.9 0 -124.9 -69.3 -124.9 -146.5z" />
    <glyph glyph-name="currency" unicode="&#xa4;" horiz-adv-x="500" 
d="M115.8 328.2c0 -82.9 52.3 -152.2 132.9 -152.2c79.5 0 131.7 70.4 131.7 151c0 85.2 -59 151.1 -129.4 151.1c-79.5 0 -135.2 -69.3 -135.2 -149.9zM248.7 128.3c-45.4 0 -86.4 13.6 -122.7 40.9l-48.8 -60.2l-46.5 45.4l61.3 48.9c-29.5 35.2 -44.3 77.1 -44.3 123.7
c0 48.8 14.8 90.9 44.3 125l-59.1 46.5l42 45.4l52.3 -57.9c37.5 27.3 77.2 39.8 121.5 39.8c46.6 0 87.5 -13.7 123.8 -42.1l52.2 62.5l44.3 -46.6l-62.5 -49.9c28.4 -34.1 43.2 -75 43.2 -122.7c0 -45.4 -14.7 -86.3 -42 -121.5l59 -49.9l-40.9 -43.2l-52.2 57.9
c-37.5 -28.4 -78.3 -42 -124.9 -42z" />
    <glyph glyph-name="yen" unicode="&#xa5;" horiz-adv-x="500" 
d="M53.4 260c-5.7 0 -5.7 1.20001 -5.7 6.89999v15.9c0 9.10001 5.7 22.6 25 22.6h113.6c-48.4 89.5 -145.5 286 -181.8 347.5c17 -3.40002 41 -3.40002 58 -3.40002s39.7 0 56.7 3.40002c43.1 -111.7 79.8 -200.7 142.5 -310.1c57.4 90.8 93.4 190.5 142.6 310.1
c11.4 -3.40002 28.4 -3.40002 42 -3.40002c12.5 0 29.5 0 42 3.40002c-96.8 -169.4 -147.8 -269.6 -188.2 -347.5h146.2c4.5 0 7.90002 -2.19998 7.90002 -6.69998v-23.9c0 -10.2 -14.7 -14.8 -26.1 -14.8h-136.8c0.300018 -22.9 0.600006 -47.1 1 -71.5h154
c4.5 0 7.90002 -2.3 7.90002 -6.8v-22.7c0 -10.2 -14.7 -14.8 -26.1 -14.8h-134.9c1.39999 -62.8 3.39999 -120.3 5.5 -147.6c-15.9 3.4 -37.5 3.4 -52.3 3.4c-14.8 0 -35.2 0 -51.1 -3.4c3.3 32.2 5 87.6 5.89999 147.6h-147.8c-5.7 0 -5.7 1.10001 -5.7 6.8v14.8
c0 9.09999 5.7 22.7 25 22.7h129c0.199997 24.2 0.300003 48.4 0.400009 71.5h-148.7z" />
    <glyph glyph-name="brokenbar" unicode="&#xa6;" horiz-adv-x="205" 
d="M129 674v-362h-48v362h48zM129 161v-362h-48v362h48z" />
    <glyph glyph-name="section" unicode="&#xa7;" horiz-adv-x="483" 
d="M147.5 387c-20.1 -19.8 -40.5 -51.3 -40.5 -82c0 -94 110 -140 186 -179c16.2 -8.4 30.3 -17.5 42.5 -27c20.1 19.8 40.5 51.3 40.5 82c0 94 -110 140 -186 179c-16.2 8.39999 -30.3 17.5 -42.5 27zM125.1 407.3c-31.8 33.6 -44.1 71.6 -44.1 108.7c0 66 63 142 163 142
c69 0 112 -40 139 -63l3 -5l-17 -73l-14 -2c-29 50 -65 103 -120 103c-47 0 -85 -34 -85 -82c0 -47 29 -78 80 -99c81 -33 203 -95 203 -218c0 -60.6 -33.5 -109.3 -75.1 -140.3c31.8 -33.6 44.1 -71.6 44.1 -108.7c0 -66 -63 -142 -163 -142c-69 0 -112 40 -139 63l-3 5
l17 73l14 2c29 -50 65 -103 120 -103c47 0 85 34 85 82c0 47 -29 78 -80 99c-81 33 -203 95 -203 218c0 60.6 33.5 109.3 75.1 140.3z" />
    <glyph glyph-name="dieresis" unicode="&#xa8;" horiz-adv-x="379" 
d="M50 574c0 26 21 48 47 48s47 -22 47 -48s-21 -47 -47 -47s-47 21 -47 47zM219 574c0 26 21 48 47 48s47 -22 47 -48s-21 -47 -47 -47s-47 21 -47 47z" />
    <glyph glyph-name="copyright" unicode="&#xa9;" horiz-adv-x="633" 
d="M439 216c-20 -31 -63 -64 -118 -64c-89 0 -156 70 -156 149c0 84 70 156 158 156c70 0 70 -15 99 -15l14 -78l-20 -4c-17 46 -40 74 -97 74c-40 0 -92 -25 -92 -123c0 -73 35 -130 103 -130c51 0 79 34 90 50zM317 23c-157 0 -283 128 -283 283c0 156 127 282 283 282
s282 -126 282 -282s-126 -283 -282 -283zM317 557c-140 0 -252 -112 -252 -251c0 -138 112 -251 252 -251c138 0 251 112 251 251s-112 251 -251 251z" />
    <glyph glyph-name="ordfeminine" unicode="&#xaa;" horiz-adv-x="297" 
d="M189 504l-51 -15c-48 -14 -59 -34 -59 -62c0 -19 16 -37 44 -37c19 0 38 11 55 24c5 4 8 8 8 16zM238 411c0 -12 3 -19 10 -19c9 0 18 9 24 13l2 -1l10 -13c-20 -25 -35 -33 -55 -33c-31 0 -38 26 -39 36h-4c-33 -28 -48 -36 -82 -36c-46 0 -78 21 -78 67
c0 42 40 75 103 90l56 13c2 1 4 3 4 7c0 70 -35 74 -57 74c-30 0 -51 -27 -68 -55h-8l-11 44l2 2c16 13 44 37 91 37s102 -17 102 -101c0 -7 -2 -107 -2 -125z" />
    <glyph glyph-name="guillemotleft" unicode="&#xab;" horiz-adv-x="543" 
d="M156 215c37.5 -42.5 75 -91 127 -170c-2.5 -10 -13.5 -17.8 -24 -19c-79.5 85.5 -129.5 134 -185 183v12c55.5 49 105.5 97.5 185 183c10.5 -1.20001 21.5 -9 24 -19c-52 -79 -89.5 -127.5 -127 -170zM336 215c37.5 -42.5 75 -91 127 -170c-2.5 -10 -13.5 -17.8 -24 -19
c-79.5 85.5 -129.5 134 -185 183v12c55.5 49 105.5 97.5 185 183c10.5 -1.20001 21.5 -9 24 -19c-52 -79 -89.5 -127.5 -127 -170z" />
    <glyph glyph-name="logicalnot" unicode="&#xac;" horiz-adv-x="560" 
d="M483 133v224h-459v44h513v-268h-54z" />
    <glyph glyph-name="uni00AD" unicode="&#xad;" horiz-adv-x="333" 
d="M274 236h-226c-9 0 -15 8 -15 17c0 16 13 37 25 37h229c10 0 14 -9 14 -18c0 -11 -14 -36 -27 -36z" />
    <glyph glyph-name="registered" unicode="&#xae;" horiz-adv-x="633" 
d="M431 370c0 -39 -27 -64 -58 -74l48 -82c11 -18.8 27 -24 43 -21l4 -17c-12 -5 -24 -7 -36 -7c-20 0 -44 6 -61 35l-48 80c-4 3 -32 4 -37 4v-72c0 -13 4 -19.9 12 -21l14 -2c8 -1 11 -1 11 -6v-16l-2 -2s-41 2 -59 2c-20 0 -61 -2 -61 -2l-2 2v17c0 4 3 4 10 5l17 2
c8 1 13 8 13 21v180c0 17 -11 25 -23 25h-11c-7 0 -8 2 -8 5v17l2 2h136c75 0 96 -45 96 -75zM376 370c0 34 -16 51 -50 51c-25 0 -40 -7 -40 -25v-84h32c30 0 58 7 58 58zM317 23c-157 0 -283 128 -283 283c0 156 127 282 283 282s282 -126 282 -282s-126 -283 -282 -283z
M317 557c-140 0 -252 -112 -252 -251c0 -138 112 -251 252 -251c138 0 251 112 251 251s-112 251 -251 251z" />
    <glyph glyph-name="macron" unicode="&#xaf;" horiz-adv-x="397" 
d="M315 529h-244c-9 0 -12 8 -12 15c0 12 10 29 22 29h244c10 0 14 -8 14 -14c0 -12 -11 -30 -24 -30z" />
    <glyph glyph-name="degree" unicode="&#xb0;" horiz-adv-x="267" 
d="M200 524c0 33 -21 73 -66 73c-43 0 -67 -37 -67 -73c0 -35 25 -70 67 -70c41 0 66 36 66 70zM34 525c0 56 45 100 100 100s99 -44 99 -100c0 -55 -44 -99 -99 -99s-100 44 -100 99z" />
    <glyph glyph-name="plusminus" unicode="&#xb1;" horiz-adv-x="527" 
d="M289 342h172v-49h-172v-174h-51v174h-172v49h172v174h51v-174zM461 68v-49h-395v49h395z" />
    <glyph glyph-name="two.superior" unicode="&#xb2;" horiz-adv-x="311" 
d="M71 615h-13l-11 42l2 2c22 20 53 30 93 30c34 0 61 -7 81 -21c22 -14.7 33 -35.7 33 -63s-17.3 -57.3 -52 -90l-53 -52c-23.3 -23.3 -35 -38.7 -35 -46h43c20 0 53 1.70001 99 5c-2 -9.29999 -3 -21 -3 -35c0 -7.29999 1 -15.7 3 -25c-35.3 1.29999 -66 2 -92 2
c-19.3 0 -61.7 -0.700012 -127 -2l-1 2c0 22.7 24.3 59 73 109l40 39c22 22.7 33 54 33 94c0 15.3 -5.3 28.3 -16 39c-9.3 10 -19.3 15 -30 15c-28 0 -50.3 -15 -67 -45z" />
    <glyph glyph-name="three.superior" unicode="&#xb3;" horiz-adv-x="313" 
d="M171 399c14.7 12 22 31.7 22 59c0 41.3 -19.7 62 -59 62c-9.3 0 -16 -0.299988 -20 -1v25c48.7 2 73 24.7 73 68c0 14 -3.7 25.7 -11 35c-8 9.29999 -17 14 -27 14c-18 0 -31.7 -4 -41 -12c-8 -6 -16.7 -17.7 -26 -35h-13l-11 42l1 3c22.7 19.3 54 29 94 29
c27.3 0 49.7 -5 67 -15c19.3 -12 29 -29.7 29 -53c0 -43.3 -21 -70.3 -63 -81v-2c22 -2 40 -9 54 -21c16.7 -14 25 -32.7 25 -56c0 -34.7 -14 -61 -42 -79c-23.3 -15.3 -53 -23 -89 -23c-34.7 0 -63.3 10 -86 30l-2 2l12 42l12 1c10.7 -18.7 18.7 -30.3 24 -35
c9.3 -8 23 -12 41 -12c14 0 26 4.29999 36 13z" />
    <glyph glyph-name="acute" unicode="&#xb4;" horiz-adv-x="341" 
d="M175 703c3 1 9 2 14 2c6.39999 0 32 -1 55 -23l3 -11l-115 -109c-15 -15 -23 -19 -30 -19s-14 6 -14 13c0 11.2 3.3 15.2 11.4 28z" />
    <glyph glyph-name="uni00B5" unicode="&#xb5;" horiz-adv-x="486" 
d="M101 -234c-16 0 -54 24 -54 65c0 51 16 98 16 161c0 33 -9 84 -9 142v188c0 28 -10 107 -10 107c23 0 54 7 82 10c0 0 3 -64 3 -96v-196c0 -65 16 -112 69 -112c54 0 104 31 126 64v330c24 0 50 7 75 10v-315c0 -63 0 -87 26 -87c13 0 23 15 34 42l24 -11
c-19 -50 -39 -78 -91 -78c-38 0 -68 31 -68 70c-40 -44 -84 -70 -145 -70c-22 0 -46 10 -57 23c-6 0 -12 -4 -12 -9c0 -65 32 -135 32 -178c0 -41 -18 -60 -41 -60z" />
    <glyph glyph-name="paragraph" unicode="&#xb6;" horiz-adv-x="602" 
d="M367 574v-735c0 -27 17 -38 40 -38s41 7 41 38v735c0 31 -18 38 -41 38s-40 -11 -40 -38zM408 645c35 0 99 3 99 3l1 -3c-8 -53 -10 -125 -10 -200v-477c0 -75 2 -143 10 -200l-2 -3s-65 3 -99 3s-98 -3 -98 -3l-2 3c8 57 10 125 10 200v317c-9 -2 -17 -3 -32 -3
c-146 0 -228 65 -228 199c0 79 58 166 190 166c75 0 134 -2 161 -2z" />
    <glyph glyph-name="periodcentered" unicode="&#xb7;" horiz-adv-x="250" 
d="M69 251v4c9.2 26.5 23.8 41.8 54 54h4c29 -10.5 44.8 -25.8 54 -54v-4c-10.2 -32.2 -25.8 -47 -54 -54h-4c-31.2 7 -45.2 20.5 -54 54z" />
    <glyph glyph-name="cedilla" unicode="&#xb8;" horiz-adv-x="541" 
d="M302 -96c-19 0 -29 -1 -45 -6l-6 6l40 96h34l-25 -67c8 2 17 3 26 3c40 0 71 -24 71 -62c0 -43 -46 -74 -107 -74c-32 0 -49 6 -74 17c0 12 3 19 10 26c27 -10 38 -14 58 -14c30 0 51 14 51 40c0 21 -10 35 -33 35z" />
    <glyph glyph-name="one.superior" unicode="&#xb9;" horiz-adv-x="384" 
d="M243 464c0 -38.7 2.3 -72 7 -100l-1 -2c-12 1.29999 -24.7 2 -38 2c-12.7 0 -24.7 -0.700012 -36 -2v2c4 24 6 57.3 6 100v130c0 22.7 -3.3 34 -10 34c-23.3 0 -42.7 -1 -58 -3l-1 23c22 5.29999 66.7 18.7 134 40c2 0 3 -1 3 -3c-4 -27.3 -6 -56 -6 -86v-135z" />
    <glyph glyph-name="ordmasculine" unicode="&#xba;" horiz-adv-x="349" 
d="M39 429c0 85 52 137 138 137c98 0 134 -64 134 -131c0 -68 -45 -132 -139 -132c-74 0 -133 54 -133 126zM171 541c-50 0 -74 -48 -74 -102c0 -49 26 -108 86 -108c27 0 71 16 71 88c0 80 -33 122 -83 122z" />
    <glyph glyph-name="guillemotright" unicode="&#xbb;" horiz-adv-x="543" 
d="M387 215c-37.5 42.5 -75 91 -127 170c2.5 10 13.5 17.8 24 19c79.5 -85.5 129.5 -134 185 -183v-12c-55.5 -49 -105.5 -97.5 -185 -183c-10.5 1.2 -21.5 9 -24 19c52 79 89.5 127.5 127 170zM207 215c-37.5 42.5 -75 91 -127 170c2.5 10 13.5 17.8 24 19
c79.5 -85.5 129.5 -134 185 -183v-12c-55.5 -49 -105.5 -97.5 -185 -183c-10.5 1.2 -21.5 9 -24 19c52 79 89.5 127.5 127 170z" />
    <glyph glyph-name="onequarter" unicode="&#xbc;" horiz-adv-x="660" 
d="M557 601l41 -8l-458 -655l-42 8zM397 8c-19.3 0 -29.3 2.3 -30 7c0 11.3 2 19.7 6 25c40.7 54.7 86.3 124.3 137 209v2c4 -1.3 12.7 -2 26 -2c12.7 0 24.7 0.699997 36 2l1 -2c-3.29999 -26.7 -5 -53 -5 -79v-127h38c4.70001 0 7 -3.7 7 -11c0 -3.3 -1.29999 -8 -4 -14
c-4 -6.7 -7.70001 -10 -11 -10h-30c0 -26 1.70001 -52 5 -78l-1 -2c-11.3 1.3 -23.3 2 -36 2c-13.3 0 -25.7 -0.699997 -37 -2v2c4 30 6 56 6 78h-108zM408 43h97v153zM240 415c0 -38.7 2.3 -72 7 -100l-1 -2c-12 1.29999 -24.7 2 -38 2c-12.7 0 -24.7 -0.700012 -36 -2v2
c4 24 6 57.3 6 100v130c0 22.7 -3.3 34 -10 34c-23.3 0 -42.7 -1 -58 -3l-1 23c22 5.29999 66.7 18.7 134 40c2 0 3 -1 3 -3c-4 -27.3 -6 -56 -6 -86v-135z" />
    <glyph glyph-name="onehalf" unicode="&#xbd;" horiz-adv-x="660" 
d="M532 601l42 -8l-459 -655l-41 8zM429 172h-13l-11 42l2 2c22 20 53 30 93 30c34 0 61 -7 81 -21c22 -14.7 33 -35.7 33 -63s-17.3 -57.3 -52 -90l-53 -52c-23.3 -23.3 -35 -38.7 -35 -46h43c20 0 53 1.7 99 5c-2 -9.3 -3 -21 -3 -35c0 -7.3 1 -15.7 3 -25
c-35.3 1.3 -66 2 -92 2c-19.3 0 -61.7 -0.699997 -127 -2l-1 2c0 22.7 24.3 59 73 109l40 39c22 22.7 33 54 33 94c0 15.3 -5.29999 28.3 -16 39c-9.29999 10 -19.3 15 -30 15c-28 0 -50.3 -15 -67 -45zM242 415c0 -38.7 2.3 -72 7 -100l-1 -2c-12 1.29999 -24.7 2 -38 2
c-12.7 0 -24.7 -0.700012 -36 -2v2c4 24 6 57.3 6 100v130c0 22.7 -3.3 34 -10 34c-23.3 0 -42.7 -1 -58 -3l-1 23c22 5.29999 66.7 18.7 134 40c2 0 3 -1 3 -3c-4 -27.3 -6 -56 -6 -86v-135z" />
    <glyph glyph-name="threequarters" unicode="&#xbe;" horiz-adv-x="660" 
d="M562 601l41 -8l-458 -655l-42 8zM169 348c14.7 12 22 31.7 22 59c0 41.3 -19.7 62 -59 62c-9.3 0 -16 -0.299988 -20 -1v25c48.7 2 73 24.7 73 68c0 14 -3.7 25.7 -11 35c-8 9.29999 -17 14 -27 14c-18 0 -31.7 -4 -41 -12c-8 -6 -16.7 -17.7 -26 -35h-13l-11 42l1 3
c22.7 19.3 54 29 94 29c27.3 0 49.7 -5 67 -15c19.3 -12 29 -29.7 29 -53c0 -43.3 -21 -70.3 -63 -81v-2c22 -2 40 -9 54 -21c16.7 -14 25 -32.7 25 -56c0 -34.7 -14 -61 -42 -79c-23.3 -15.3 -53 -23 -89 -23c-34.7 0 -63.3 10 -86 30l-2 2l12 42l12 1
c10.7 -18.7 18.7 -30.3 24 -35c9.3 -8 23 -12 41 -12c14 0 26 4.29999 36 13zM401 10c-19.3 0 -29.3 2.3 -30 7c0 11.3 2 19.7 6 25c40.7 54.7 86.3 124.3 137 209v2c4 -1.3 12.7 -2 26 -2c12.7 0 24.7 0.699997 36 2l1 -2c-3.29999 -26.7 -5 -53 -5 -79v-127h38
c4.70001 0 7 -3.7 7 -11c0 -3.3 -1.29999 -8 -4 -14c-4 -6.7 -7.70001 -10 -11 -10h-30c0 -26 1.70001 -52 5 -78l-1 -2c-11.3 1.3 -23.3 2 -36 2c-13.3 0 -25.7 -0.699997 -37 -2v2c4 30 6 56 6 78h-108zM412 45h97v153z" />
    <glyph glyph-name="questiondown" unicode="&#xbf;" horiz-adv-x="405" 
d="M211 -190c56 0 97 49 123 94l13 -1l16 -67l-3 -4c-24.5 -20.5 -85.5 -62 -158 -62c-102 0 -165 60 -165 151c0 79 59 123 106 157c23 17 43 33 52 50c13 25 18 49 18 73v44c0 7 5 10 13 10s13 -3 13 -10v-46c0 -43 -2 -102 -67 -161c-40 -37 -60 -66 -60 -113
c0 -65 42 -115 99 -115zM282 385v-4c-9.20001 -26.5 -23.8 -41.8 -54 -54h-4c-29 10.5 -44.8 25.8 -54 54v4c10.2 32.2 25.8 47 54 54h4c31.2 -7 45.2 -20.5 54 -54z" />
    <glyph glyph-name="Agrave" unicode="&#xc0;" horiz-adv-x="629" 
d="M256 818l121 -84c11 -8 15 -14 15 -21c0 -8 -7 -15 -15 -15s-22 3 -43 12l-154 63c18.3 17.7 41.8 33.4 76 45zM407.3 275.5c-26.9 69.7 -60.2 151.9 -101.3 246.3h-2l-105.4 -245.9c22 -1.19998 75.5 -2.89999 104.4 -2.89999c29.7 0 71.3 1 104.3 2.5zM179 228.3
c-35.7 -87.5 -66.6 -170 -83 -231.3c-12 3 -34 3 -45 3s-23 0 -35 -3c101 221 199 439 295 661h28c92 -219 224 -560 274 -661c-17 3 -43 3 -60 3s-33 0 -50 -3c-6.10001 22.2 -28.7 100.2 -77.7 231.3c-24.3 1.7 -79.3 2.7 -117.3 2.7c-34.5 0 -104 -1 -129 -2.7z" />
    <glyph glyph-name="Aacute" unicode="&#xc1;" horiz-adv-x="629" 
d="M367 820c28.6 -13.3 49.3 -30.7 62 -52l-144 -58c-21 -9 -33 -12 -42 -12s-15 7 -15 15c0 7 2 12 15 21zM407.3 275.5c-26.9 69.7 -60.2 151.9 -101.3 246.3h-2l-105.4 -245.9c22 -1.19998 75.5 -2.89999 104.4 -2.89999c29.7 0 71.3 1 104.3 2.5zM179 228.3
c-35.7 -87.5 -66.6 -170 -83 -231.3c-12 3 -34 3 -45 3s-23 0 -35 -3c101 221 199 439 295 661h28c92 -219 224 -560 274 -661c-17 3 -43 3 -60 3s-33 0 -50 -3c-6.10001 22.2 -28.7 100.2 -77.7 231.3c-24.3 1.7 -79.3 2.7 -117.3 2.7c-34.5 0 -104 -1 -129 -2.7z" />
    <glyph glyph-name="Acircumflex" unicode="&#xc2;" horiz-adv-x="629" 
d="M346 805c30 -36 65 -67 101 -94l-16 -21c-39 18 -73 37 -106 62c-37 -27 -69 -45 -107 -62l-14 21c37 28 68 60 99 94h43zM407.3 275.5c-26.9 69.7 -60.2 151.9 -101.3 246.3h-2l-105.4 -245.9c22 -1.19998 75.5 -2.89999 104.4 -2.89999c29.7 0 71.3 1 104.3 2.5z
M179 228.3c-35.7 -87.5 -66.6 -170 -83 -231.3c-12 3 -34 3 -45 3s-23 0 -35 -3c101 221 199 439 295 661h28c92 -219 224 -560 274 -661c-17 3 -43 3 -60 3s-33 0 -50 -3c-6.10001 22.2 -28.7 100.2 -77.7 231.3c-24.3 1.7 -79.3 2.7 -117.3 2.7c-34.5 0 -104 -1 -129 -2.7
z" />
    <glyph glyph-name="Atilde" unicode="&#xc3;" horiz-adv-x="629" 
d="M394 744c22 0 36 10 50 52l24 -6c-12 -60 -41 -90 -87 -90c-22 0 -43 12 -64 26c-18 11 -37 22 -54 22c-26 0 -39 -15 -49 -48l-24 5c14 59 37 89 80 89c30 0 52 -14 72 -28c16 -12 33 -22 52 -22zM407.3 275.5c-26.9 69.7 -60.2 151.9 -101.3 246.3h-2l-105.4 -245.9
c22 -1.19998 75.5 -2.89999 104.4 -2.89999c29.7 0 71.3 1 104.3 2.5zM179 228.3c-35.7 -87.5 -66.6 -170 -83 -231.3c-12 3 -34 3 -45 3s-23 0 -35 -3c101 221 199 439 295 661h28c92 -219 224 -560 274 -661c-17 3 -43 3 -60 3s-33 0 -50 -3
c-6.10001 22.2 -28.7 100.2 -77.7 231.3c-24.3 1.7 -79.3 2.7 -117.3 2.7c-34.5 0 -104 -1 -129 -2.7z" />
    <glyph glyph-name="Adieresis" unicode="&#xc4;" horiz-adv-x="629" 
d="M143 709c0 25 21 45 46 45s45 -20 45 -45s-20 -45 -45 -45s-46 20 -46 45zM418 709c0 25 21 45 46 45s45 -20 45 -45s-20 -45 -45 -45s-46 20 -46 45zM407.3 275.5c-26.9 69.7 -60.2 151.9 -101.3 246.3h-2l-105.4 -245.9c22 -1.19998 75.5 -2.89999 104.4 -2.89999
c29.7 0 71.3 1 104.3 2.5zM179 228.3c-35.7 -87.5 -66.6 -170 -83 -231.3c-12 3 -34 3 -45 3s-23 0 -35 -3c101 221 199 439 295 661h28c92 -219 224 -560 274 -661c-17 3 -43 3 -60 3s-33 0 -50 -3c-6.10001 22.2 -28.7 100.2 -77.7 231.3c-24.3 1.7 -79.3 2.7 -117.3 2.7
c-34.5 0 -104 -1 -129 -2.7z" />
    <glyph glyph-name="Aring" unicode="&#xc5;" horiz-adv-x="629" 
d="M324 770c-31 0 -50 -26 -50 -56c0 -28 19 -56 50 -56s50 28 50 56c0 31 -20 56 -50 56zM237 714c0 46 41 83 87 83s87 -36 87 -83c0 -36.9 -26.3 -69.1 -62.2 -79.5c91.3 -219.1 216 -540 264.2 -637.5c-17 3 -43 3 -60 3s-33 0 -50 -3
c-6.10001 22.2 -28.7 100.2 -77.7 231.3c-24.3 1.7 -79.3 2.7 -117.3 2.7c-34.5 0 -104 -1 -129 -2.7c-35.7 -87.5 -66.6 -170 -83 -231.3c-12 3 -34 3 -45 3s-23 0 -35 -3c97.4 213.1 192 423.4 284.7 637.2c-35.7 9.89996 -63.7 41.8 -63.7 79.8zM407.3 275.5
c-26.9 69.7 -60.2 151.9 -101.3 246.3h-2l-105.4 -245.9c22 -1.19998 75.5 -2.89999 104.4 -2.89999c29.7 0 71.3 1 104.3 2.5z" />
    <glyph glyph-name="AE" unicode="&#xc6;" horiz-adv-x="802" 
d="M222 278.5c-51.4 -106.7 -96.5 -209.4 -124 -281.5c-12 3 -34 3 -45 3s-23 0 -35 -3c106 203 203 413 348 648.7l0.200012 -0.400024l1.79999 2.70001s17 -3 51 -3h213c21 0 44 1 60 3l2 -3c-1 -14 -2 -23 -2 -31c0 -9 1 -18 2 -26l-2 -4s-77.3 10.3 -183 10.3
c-75.5 0 -89.8 -9 -84.6 -48.8c14.2 -70.4 30.2 -143.1 46.3 -212.5c112.1 0.200012 166.8 5.10001 224.3 10l3 -3c-2 -9 -3 -19 -3 -28s1 -19 3 -28l-3 -3c-61.3 6.20001 -159.6 9.29999 -214.5 9.89999c21.5 -91 42.5 -174 59 -235.1c99.8 3.4 212.5 10.2 212.5 10.2l2 -4
c-1 -8 -2 -23 -2 -33s1 -15 2 -29l-2 -3c-16 2 -39 3 -60 3h-137h-1.5h-53.5c-17 0 -33 0 -50 -3c0 35.7 -13.4 120.3 -44.1 282.4c-22.2 0.399994 -44.6 0.600006 -65.9 0.600006c-31.3 0 -80.7 -0.700012 -118 -1.5zM397.2 324.7c-11.5 60 -25 129.2 -40.7 208.8h-2
c-36.3 -64 -74 -135.9 -109.5 -207.8c29.6 -0.600006 65.2 -1.70001 90 -1.70001c17.9 0 40.1 0.299988 62.2 0.700012z" />
    <glyph glyph-name="Ccedilla" unicode="&#xc7;" horiz-adv-x="677" 
d="M367 -100c-19 0 -29 -1 -45 -6l-6 6l37.6 90.2c-206.4 5.8 -301.6 155.2 -301.6 324.8c0 197 159 343 328 343c122 0 218 -50 218 -50l2 -3c-11 -42.5 -14.4 -60 -18 -111l-12 -1c-41 82 -114 118 -204 118c-82 0 -211 -74 -211 -277c0 -156 93.2 -293 220 -293
c93 0 153 26 224 104l7 -3c3.5 -9 5.5 -31 6.09998 -42.5c-61.5 -74.4 -140 -104.6 -224.1 -108.9l-23 -61.6c8 2 17 3 26 3c40 0 71 -24 71 -62c0 -43 -46 -74 -107 -74c-32 0 -49 6 -74 17c0 12 3 19 10 26c27 -10 38 -14 58 -14c30 0 51 14 51 40c0 21 -10 35 -33 35z
" />
    <glyph glyph-name="Egrave" unicode="&#xc8;" horiz-adv-x="538" 
d="M190 200c0 -17 1 -120 8 -144c134 0 282 12 282 12l2 -4c-1 -8 -2 -23 -2 -33s1 -17 2 -31l-2 -3c-16 2 -39 3 -60 3h-273c-35 0 -52 -3 -52 -3l-1 3c8 54 10 125 10 200v245c0 75 -2 143 -10 200l2 3s17 -3 51 -3h263c21 0 44 1 60 3l2 -3c-1 -14 -2 -30 -2 -38
c0 -9 1 -18 2 -26l-2 -4s-138 12 -272 12c-7 -24 -8 -127 -8 -144v-78c118 0 164 5 223 10l3 -3c-2 -9 -3 -23 -3 -32s1 -23 3 -32l-3 -3c-69 7 -175 10 -223 10v-117zM245 817l121 -84c11 -8 15 -14 15 -21c0 -8 -7 -15 -15 -15s-22 3 -43 12l-154 63
c18.3 17.7 41.8 33.4 76 45z" />
    <glyph glyph-name="Eacute" unicode="&#xc9;" horiz-adv-x="538" 
d="M190 200c0 -17 1 -120 8 -144c134 0 282 12 282 12l2 -4c-1 -8 -2 -23 -2 -33s1 -17 2 -31l-2 -3c-16 2 -39 3 -60 3h-273c-35 0 -52 -3 -52 -3l-1 3c8 54 10 125 10 200v245c0 75 -2 143 -10 200l2 3s17 -3 51 -3h263c21 0 44 1 60 3l2 -3c-1 -14 -2 -30 -2 -38
c0 -9 1 -18 2 -26l-2 -4s-138 12 -272 12c-7 -24 -8 -127 -8 -144v-78c118 0 164 5 223 10l3 -3c-2 -9 -3 -23 -3 -32s1 -23 3 -32l-3 -3c-69 7 -175 10 -223 10v-117zM350 820c28.6 -13.3 49.3 -30.7 62 -52l-144 -58c-21 -9 -33 -12 -42 -12s-15 7 -15 15c0 7 2 12 15 21z
" />
    <glyph glyph-name="Ecircumflex" unicode="&#xca;" horiz-adv-x="538" 
d="M317 805c30 -36 65 -67 101 -94l-16 -21c-39 18 -73 37 -106 62c-37 -27 -69 -45 -107 -62l-14 21c37 28 68 60 99 94h43zM190 200c0 -17 1 -120 8 -144c134 0 282 12 282 12l2 -4c-1 -8 -2 -23 -2 -33s1 -17 2 -31l-2 -3c-16 2 -39 3 -60 3h-273c-35 0 -52 -3 -52 -3
l-1 3c8 54 10 125 10 200v245c0 75 -2 143 -10 200l2 3s17 -3 51 -3h263c21 0 44 1 60 3l2 -3c-1 -14 -2 -30 -2 -38c0 -9 1 -18 2 -26l-2 -4s-138 12 -272 12c-7 -24 -8 -127 -8 -144v-78c118 0 164 5 223 10l3 -3c-2 -9 -3 -23 -3 -32s1 -23 3 -32l-3 -3
c-69 7 -175 10 -223 10v-117z" />
    <glyph glyph-name="Edieresis" unicode="&#xcb;" horiz-adv-x="538" 
d="M334 751c0 26 22 48 48 48s48 -22 48 -48s-22 -48 -48 -48s-48 22 -48 48zM145 751c0 26 22 48 48 48s48 -22 48 -48s-22 -48 -48 -48s-48 22 -48 48zM190 200c0 -17 1 -120 8 -144c134 0 282 12 282 12l2 -4c-1 -8 -2 -23 -2 -33s1 -17 2 -31l-2 -3c-16 2 -39 3 -60 3
h-273c-35 0 -52 -3 -52 -3l-1 3c8 54 10 125 10 200v245c0 75 -2 143 -10 200l2 3s17 -3 51 -3h263c21 0 44 1 60 3l2 -3c-1 -14 -2 -30 -2 -38c0 -9 1 -18 2 -26l-2 -4s-138 12 -272 12c-7 -24 -8 -127 -8 -144v-78c118 0 164 5 223 10l3 -3c-2 -9 -3 -23 -3 -32
s1 -23 3 -32l-3 -3c-69 7 -175 10 -223 10v-117z" />
    <glyph glyph-name="Igrave" unicode="&#xcc;" horiz-adv-x="294" 
d="M104 445c0 75 -2 143 -10 200l2 3c12 -2 39 -3 51 -3s39 1 51 3l2 -3c-8 -53 -10 -125 -10 -200v-245c0 -75 2 -143 10 -200l-2 -3c-12 2 -39 3 -51 3s-39 -1 -51 -3l-2 3c8 54 10 125 10 200v245zM99 817l121 -84c11 -8 15 -14 15 -21c0 -8 -7 -15 -15 -15s-22 3 -43 12
l-154 63c18.3 17.7 41.8 33.4 76 45z" />
    <glyph glyph-name="Iacute" unicode="&#xcd;" horiz-adv-x="294" 
d="M104 445c0 75 -2 143 -10 200l2 3c12 -2 39 -3 51 -3s39 1 51 3l2 -3c-8 -53 -10 -125 -10 -200v-245c0 -75 2 -143 10 -200l-2 -3c-12 2 -39 3 -51 3s-39 -1 -51 -3l-2 3c8 54 10 125 10 200v245zM210 819c28.6 -13.3 49.3 -30.7 62 -52l-144 -58
c-21 -9 -33 -12 -42 -12s-15 7 -15 15c0 7 2 12 15 21z" />
    <glyph glyph-name="Icircumflex" unicode="&#xce;" horiz-adv-x="294" 
d="M167 805c30 -36 65 -67 101 -94l-16 -21c-39 18 -73 37 -106 62c-37 -27 -69 -45 -107 -62l-14 21c37 28 68 60 99 94h43zM104 445c0 75 -2 143 -10 200l2 3c12 -2 39 -3 51 -3s39 1 51 3l2 -3c-8 -53 -10 -125 -10 -200v-245c0 -75 2 -143 10 -200l-2 -3
c-12 2 -39 3 -51 3s-39 -1 -51 -3l-2 3c8 54 10 125 10 200v245z" />
    <glyph glyph-name="Idieresis" unicode="&#xcf;" horiz-adv-x="294" 
d="M202 750c0 26 22 48 48 48s48 -22 48 -48s-22 -48 -48 -48s-48 22 -48 48zM13 750c0 26 22 48 48 48s48 -22 48 -48s-22 -48 -48 -48s-48 22 -48 48zM104 445c0 75 -2 143 -10 200l2 3c12 -2 39 -3 51 -3s39 1 51 3l2 -3c-8 -53 -10 -125 -10 -200v-245
c0 -75 2 -143 10 -200l-2 -3c-12 2 -39 3 -51 3s-39 -1 -51 -3l-2 3c8 54 10 125 10 200v245z" />
    <glyph glyph-name="Eth" unicode="&#xd0;" horiz-adv-x="710" 
d="M190 82c0 -32 11 -40 109 -40c141 0 256 40 256 242c0 154 -65 320 -281 320c-49 0 -84 -5 -84 -40v-238h98v-39h-98v-205zM147 645c64 0 101 3 165 3c192 0 346 -154 346 -340c0 -246 -187 -310 -328 -310c-103 0 -112 2 -183 2c-35 0 -52 -3 -52 -3l-1 3
c8 54 10 125 10 200v87h-87v39h87v119c0 75 -2 143 -10 200l2 3s17 -3 51 -3z" />
    <glyph glyph-name="Ntilde" unicode="&#xd1;" horiz-adv-x="718" 
d="M417 742c22 0 36 10 50 52l24 -6c-12 -60 -41 -90 -87 -90c-22 0 -43 12 -64 26c-18 11 -37 22 -54 22c-26 0 -39 -15 -49 -48l-24 5c14 59 37 89 80 89c30 0 52 -14 72 -28c16 -12 33 -22 52 -22zM108 645l2 3s8 -3 42 -3c4.5 0 14 2 14 2l343 -444
c43.3 -56.1 57.6 -79.4 59 -25v267c0 75.3 -2 143 -10 200l2 3c12 -2 23 -3 35 -3s23 1 35 3l2 -3c-16 -222 -15 -396 -20 -624c-1 -19 -5 -31 -19 -31c-16 0 -32 9 -43 24l-349 441c-37.1 48 -39 45 -39 -16v-239c0 -75 2 -143 10 -200l-2 -3c-12 2 -23 3 -35 3
s-23 -1 -35 -3l-2 3c16 159 19 455 10 645z" />
    <glyph glyph-name="Ograve" unicode="&#xd2;" horiz-adv-x="741" 
d="M355 614c-96 0 -200 -77 -200 -287c0 -192 114 -293 234 -293c114 0 197 97 197 276c0 208 -90 304 -231 304zM689 329c0 -200 -129 -339 -320 -339c-172 0 -317 123 -317 320c0 196 137 348 316 348c180 0 321 -131 321 -329zM304 819l121 -84c11 -8 15 -14 15 -21
c0 -8 -7 -15 -15 -15s-22 3 -43 12l-154 63c18.3 17.7 41.8 33.4 76 45z" />
    <glyph glyph-name="Oacute" unicode="&#xd3;" horiz-adv-x="741" 
d="M355 614c-96 0 -200 -77 -200 -287c0 -192 114 -293 234 -293c114 0 197 97 197 276c0 208 -90 304 -231 304zM689 329c0 -200 -129 -339 -320 -339c-172 0 -317 123 -317 320c0 196 137 348 316 348c180 0 321 -131 321 -329zM387 820c28.6 -13.3 49.3 -30.7 62 -52
l-144 -58c-21 -9 -33 -12 -42 -12s-15 7 -15 15c0 7 2 12 15 21z" />
    <glyph glyph-name="Ocircumflex" unicode="&#xd4;" horiz-adv-x="741" 
d="M388 805c30 -36 65 -67 101 -94l-16 -21c-39 18 -73 37 -106 62c-37 -27 -69 -45 -107 -62l-14 21c37 28 68 60 99 94h43zM355 614c-96 0 -200 -77 -200 -287c0 -192 114 -293 234 -293c114 0 197 97 197 276c0 208 -90 304 -231 304zM689 329
c0 -200 -129 -339 -320 -339c-172 0 -317 123 -317 320c0 196 137 348 316 348c180 0 321 -131 321 -329z" />
    <glyph glyph-name="Otilde" unicode="&#xd5;" horiz-adv-x="741" 
d="M425 742c22 0 36 10 50 52l24 -6c-12 -60 -41 -90 -87 -90c-22 0 -43 12 -64 26c-18 11 -37 22 -54 22c-26 0 -39 -15 -49 -48l-24 5c14 59 37 89 80 89c30 0 52 -14 72 -28c16 -12 33 -22 52 -22zM355 614c-96 0 -200 -77 -200 -287c0 -192 114 -293 234 -293
c114 0 197 97 197 276c0 208 -90 304 -231 304zM689 329c0 -200 -129 -339 -320 -339c-172 0 -317 123 -317 320c0 196 137 348 316 348c180 0 321 -131 321 -329z" />
    <glyph glyph-name="Odieresis" unicode="&#xd6;" horiz-adv-x="741" 
d="M94 709c0 25 21 45 46 45s45 -20 45 -45s-20 -45 -45 -45s-46 20 -46 45zM557 709c0 25 20 45 45 45s45 -20 45 -45s-20 -45 -45 -45s-45 20 -45 45zM355 614c-96 0 -200 -77 -200 -287c0 -192 114 -293 234 -293c114 0 197 97 197 276c0 208 -90 304 -231 304zM689 329
c0 -200 -129 -339 -320 -339c-172 0 -317 123 -317 320c0 196 137 348 316 348c180 0 321 -131 321 -329z" />
    <glyph glyph-name="multiply" unicode="&#xd7;" horiz-adv-x="527" 
d="M298 230l123 -122l-35 -35l-122 122l-122 -122l-36 35l123 122l-123 123l36 35l122 -123l122 123l35 -35z" />
    <glyph glyph-name="Oslash" unicode="&#xd8;" horiz-adv-x="741" 
d="M108 -13c-19 0 -33 17 -36 32l59 72.6c-48.9 54.4 -79 128.7 -79 218.4c0 196 137 348 316 348c67.6 0 129.6 -18.5 180.8 -52l42.2 52c19 0 33.7 -15.1 36 -30l-41 -50.7c63.7 -57.8 103 -143.7 103 -248.3c0 -200 -129 -339 -320 -339c-76.5 0 -147.6 24.3 -203 68.6z
M355 614c-96 0 -200 -77 -200 -287c0 -64.8 13 -119.2 34.8 -162.9l318.8 392.4c-39 38.8 -91.4 57.5 -153.6 57.5zM538.5 518.6l-321.9 -397.5c44.3 -57.6 107.5 -87.1 172.4 -87.1c114 0 197 97 197 276c0 90.2 -16.9 159.2 -47.5 208.6z" />
    <glyph glyph-name="Ugrave" unicode="&#xd9;" horiz-adv-x="692" 
d="M544 445c0 75 -2 143 -10 200l2 3c12 -2 23 -3 35 -3s23 1 35 3l2 -3c-8 -53 -10 -125 -10 -200v-150c0 -178 -56 -305 -261 -305c-90 0 -233 42 -233 246v209c0 75 -2 143 -10 200l2 3c12 -2 39 -3 51 -3s39 1 51 3l2 -3c-8 -53 -10 -125 -10 -200v-176
c0 -54 0 -223 168 -223c169 0 186 119 186 231v168zM336 818l121 -84c11 -8 15 -14 15 -21c0 -8 -7 -15 -15 -15s-22 3 -43 12l-154 63c18.3 17.7 41.8 33.4 76 45z" />
    <glyph glyph-name="Uacute" unicode="&#xda;" horiz-adv-x="692" 
d="M544 445c0 75 -2 143 -10 200l2 3c12 -2 23 -3 35 -3s23 1 35 3l2 -3c-8 -53 -10 -125 -10 -200v-150c0 -178 -56 -305 -261 -305c-90 0 -233 42 -233 246v209c0 75 -2 143 -10 200l2 3c12 -2 39 -3 51 -3s39 1 51 3l2 -3c-8 -53 -10 -125 -10 -200v-176
c0 -54 0 -223 168 -223c169 0 186 119 186 231v168zM425 819c28.6 -13.3 49.3 -30.7 62 -52l-144 -58c-21 -9 -33 -12 -42 -12s-15 7 -15 15c0 7 2 12 15 21z" />
    <glyph glyph-name="Ucircumflex" unicode="&#xdb;" horiz-adv-x="692" 
d="M544 445c0 75 -2 143 -10 200l2 3c12 -2 23 -3 35 -3s23 1 35 3l2 -3c-8 -53 -10 -125 -10 -200v-150c0 -178 -56 -305 -261 -305c-90 0 -233 42 -233 246v209c0 75 -2 143 -10 200l2 3c12 -2 39 -3 51 -3s39 1 51 3l2 -3c-8 -53 -10 -125 -10 -200v-176
c0 -54 0 -223 168 -223c169 0 186 119 186 231v168zM400 805c30 -36 65 -67 101 -94l-16 -21c-39 18 -73 37 -106 62c-37 -27 -69 -45 -107 -62l-14 21c37 28 68 60 99 94h43z" />
    <glyph glyph-name="Udieresis" unicode="&#xdc;" horiz-adv-x="692" 
d="M240 709c0 25 20 45 45 45s45 -20 45 -45s-20 -45 -45 -45s-45 20 -45 45zM414 709c0 25 20 45 45 45s45 -20 45 -45s-20 -45 -45 -45s-45 20 -45 45zM544 445c0 75 -2 143 -10 200l2 3c12 -2 23 -3 35 -3s23 1 35 3l2 -3c-8 -53 -10 -125 -10 -200v-150
c0 -178 -56 -305 -261 -305c-90 0 -233 42 -233 246v209c0 75 -2 143 -10 200l2 3c12 -2 39 -3 51 -3s39 1 51 3l2 -3c-8 -53 -10 -125 -10 -200v-176c0 -54 0 -223 168 -223c169 0 186 119 186 231v168z" />
    <glyph glyph-name="Yacute" unicode="&#xdd;" horiz-adv-x="575" 
d="M333 285c1 -99 3 -240 7 -288c-12 2 -38 3 -50 3s-38 -1 -50 -3c5 55 7 180 7 278c-38 65 -191 313 -231 373c17 -2 40 -3 57 -3s40 1 57 3c54 -105 112 -199 175 -308c58 91 125 203 175 308c12 -2 29 -3 42 -3c12 0 29 1 42 3c-121 -185 -190 -283 -231 -363zM360 820
c28.6 -13.3 49.3 -30.7 62 -52l-144 -58c-21 -9 -33 -12 -42 -12s-15 7 -15 15c0 7 2 12 15 21z" />
    <glyph glyph-name="Thorn" unicode="&#xde;" horiz-adv-x="545" 
d="M104 445c0 75 -2 143 -10 200l2 3c12 -2 39 -3 51 -3s39 1 51 3l2 -3c-5.10001 -33.9 -7.7 -75.5 -9 -120.8c34.9 1.79999 68.5 1.79999 87 1.79999c185 0 225 -112 225 -183c0 -75 -61 -196 -239 -196c-33.3 0 -58.4 1.8 -73.7 6.3
c0.800003 -56.6 3.39999 -108.4 9.7 -153.3l-2 -3c-12 2 -39 3 -51 3s-39 -1 -51 -3l-2 3c8 54 10 125 10 200v245zM190 192.4c10.3 -2.7 33.5 -4.39999 69 -4.39999c72 0 146 26 146 155c0 120 -69 142 -128 142c-18.4 0 -64.9 -4.70001 -86.9 -10.4
c-0.100006 -9.80002 -0.100006 -19.7 -0.100006 -29.6v-245v-7.60001z" />
    <glyph glyph-name="germandbls" unicode="&#xdf;" horiz-adv-x="545" 
d="M345 -10c-50.5 0 -96 23 -104 28l-1 3c11 19 12 31 19 58l11 1c11 -20 46 -50 75 -50c37 0 66 23 66 116c0 87 -56 186 -140 250v13c67 52 90 92 90 165c0 54 -25 84 -78 84c-104 0 -104 -108 -104 -216v-242c0 -75 0.699997 -143 9 -200l-2 -3c-12 2 -35 3 -47 3
s-35 -1 -47 -3l-2 3c8 54.3 9 125 9 200v171c0 12 -3 14 -12 14h-42c-5 0 -9.2 3.70001 -8 8l7 26c1.9 7 5.3 10 23 10c31 0 32 9.89999 32 48c0 165 114 221 193 221c104 0 148 -63 148 -111c0 -77 -29 -123 -99 -176v-2c79 -52 158 -137 158 -246
c0 -51.4 -11.4 -92.5 -33.3 -121c-27.1 -35.3 -69.8 -52 -120.7 -52z" />
    <glyph glyph-name="agrave" unicode="&#xe0;" horiz-adv-x="481" 
d="M196 671l70 -126c5 -10 6 -17 6 -24c0 -5 -7 -11 -15 -11c-6 0 -13 5 -29 20l-114 109l2 11c8 6 31 23 65 23c5 0 11 -1 15 -2zM310 225l-85 -23c-78 -21 -99 -55 -99 -100c0 -31 29 -61 74 -61c30 0 64 18 92 39c8 6 14 13 14 26zM310.1 48h-4.10001
c-53 -45 -81 -58 -136 -58c-74 0 -125 34 -125 108c0 68 64 122 166 145l93 21c3 1 7 5 7 12c0 113 -60 118 -96 118c-48 0 -82 -40 -110 -85l-13 1l-17 67l3 4c25 21 71 58 147 58s165 -27 165 -162c0 -11 -2.79999 -122 -2.79999 -151c0 -44.5 6.5 -68.7 16.7 -78
c6.10001 -5.6 19.4 -7.5 29.3 -7.5c7.59998 0 16.1 1.4 27 5.2l7.39999 -24.7c-23.6 -25 -54.4 -31 -79.6 -31c-36.6 0 -66.5 18.9 -77.9 58z" />
    <glyph glyph-name="aacute" unicode="&#xe1;" horiz-adv-x="481" 
d="M244 671c3 1 9 2 14 2c6.39999 0 32 -1 55 -23l3 -11l-115 -109c-15 -15 -23 -19 -30 -19s-14 6 -14 13c0 11.2 3.3 15.2 11.4 28zM310 225l-85 -23c-78 -21 -99 -55 -99 -100c0 -31 29 -61 74 -61c30 0 64 18 92 39c8 6 14 13 14 26zM310.1 48h-4.10001
c-53 -45 -81 -58 -136 -58c-74 0 -125 34 -125 108c0 68 64 122 166 145l93 21c3 1 7 5 7 12c0 113 -60 118 -96 118c-48 0 -82 -40 -110 -85l-13 1l-17 67l3 4c25 21 71 58 147 58s165 -27 165 -162c0 -11 -2.79999 -122 -2.79999 -151c0 -44.5 6.5 -68.7 16.7 -78
c6.10001 -5.6 19.4 -7.5 29.3 -7.5c7.59998 0 16.1 1.4 27 5.2l7.39999 -24.7c-23.6 -25 -54.4 -31 -79.6 -31c-36.6 0 -66.5 18.9 -77.9 58z" />
    <glyph glyph-name="acircumflex" unicode="&#xe2;" horiz-adv-x="481" 
d="M250 646c29 -47 65 -89 101 -129l-21 -14c-39 29 -72 54 -106 90c-37 -38 -69 -63 -107 -90l-20 14c36 40 74 83 103 129h50zM310 225l-85 -23c-78 -21 -99 -55 -99 -100c0 -31 29 -61 74 -61c30 0 64 18 92 39c8 6 14 13 14 26zM310.1 48h-4.10001
c-53 -45 -81 -58 -136 -58c-74 0 -125 34 -125 108c0 68 64 122 166 145l93 21c3 1 7 5 7 12c0 113 -60 118 -96 118c-48 0 -82 -40 -110 -85l-13 1l-17 67l3 4c25 21 71 58 147 58s165 -27 165 -162c0 -11 -2.79999 -122 -2.79999 -151c0 -44.5 6.5 -68.7 16.7 -78
c6.10001 -5.6 19.4 -7.5 29.3 -7.5c7.59998 0 16.1 1.4 27 5.2l7.39999 -24.7c-23.6 -25 -54.4 -31 -79.6 -31c-36.6 0 -66.5 18.9 -77.9 58z" />
    <glyph glyph-name="atilde" unicode="&#xe3;" horiz-adv-x="481" 
d="M283 570c22 0 36 10 50 52l24 -6c-12 -60 -41 -90 -87 -90c-22 0 -43 12 -64 26c-18 11 -37 22 -54 22c-26 0 -39 -15 -49 -48l-24 5c14 59 37 89 80 89c30 0 52 -14 72 -28c16 -12 33 -22 52 -22zM310 225l-85 -23c-78 -21 -99 -55 -99 -100c0 -31 29 -61 74 -61
c30 0 64 18 92 39c8 6 14 13 14 26zM310.1 48h-4.10001c-53 -45 -81 -58 -136 -58c-74 0 -125 34 -125 108c0 68 64 122 166 145l93 21c3 1 7 5 7 12c0 113 -60 118 -96 118c-48 0 -82 -40 -110 -85l-13 1l-17 67l3 4c25 21 71 58 147 58s165 -27 165 -162
c0 -11 -2.79999 -122 -2.79999 -151c0 -44.5 6.5 -68.7 16.7 -78c6.10001 -5.6 19.4 -7.5 29.3 -7.5c7.59998 0 16.1 1.4 27 5.2l7.39999 -24.7c-23.6 -25 -54.4 -31 -79.6 -31c-36.6 0 -66.5 18.9 -77.9 58z" />
    <glyph glyph-name="adieresis" unicode="&#xe4;" horiz-adv-x="481" 
d="M91 574c0 26 21 48 47 48s47 -22 47 -48s-21 -47 -47 -47s-47 21 -47 47zM260 574c0 26 21 48 47 48s47 -22 47 -48s-21 -47 -47 -47s-47 21 -47 47zM310 225l-85 -23c-78 -21 -99 -55 -99 -100c0 -31 29 -61 74 -61c30 0 64 18 92 39c8 6 14 13 14 26zM310.1 48
h-4.10001c-53 -45 -81 -58 -136 -58c-74 0 -125 34 -125 108c0 68 64 122 166 145l93 21c3 1 7 5 7 12c0 113 -60 118 -96 118c-48 0 -82 -40 -110 -85l-13 1l-17 67l3 4c25 21 71 58 147 58s165 -27 165 -162c0 -11 -2.79999 -122 -2.79999 -151
c0 -44.5 6.5 -68.7 16.7 -78c6.10001 -5.6 19.4 -7.5 29.3 -7.5c7.59998 0 16.1 1.4 27 5.2l7.39999 -24.7c-23.6 -25 -54.4 -31 -79.6 -31c-36.6 0 -66.5 18.9 -77.9 58z" />
    <glyph glyph-name="aring" unicode="&#xe5;" horiz-adv-x="481" 
d="M210 638c-31 0 -50 -26 -50 -56c0 -28 19 -56 50 -56s50 28 50 56c0 31 -20 56 -50 56zM123 582c0 46 41 83 87 83s87 -36 87 -83c0 -45 -39 -83 -87 -83c-46 0 -87 37 -87 83zM310 225l-85 -23c-78 -21 -99 -55 -99 -100c0 -31 29 -61 74 -61c30 0 64 18 92 39
c8 6 14 13 14 26zM310.1 48h-4.10001c-53 -45 -81 -58 -136 -58c-74 0 -125 34 -125 108c0 68 64 122 166 145l93 21c3 1 7 5 7 12c0 113 -60 118 -96 118c-48 0 -82 -40 -110 -85l-13 1l-17 67l3 4c25 21 71 58 147 58s165 -27 165 -162c0 -11 -2.79999 -122 -2.79999 -151
c0 -44.5 6.5 -68.7 16.7 -78c6.10001 -5.6 19.4 -7.5 29.3 -7.5c7.59998 0 16.1 1.4 27 5.2l7.39999 -24.7c-23.6 -25 -54.4 -31 -79.6 -31c-36.6 0 -66.5 18.9 -77.9 58z" />
    <glyph glyph-name="ae" unicode="&#xe6;" horiz-adv-x="687" 
d="M296 215c-133 -12 -175 -58 -175 -109c0 -45 24 -66 71 -66c36 0 79 21 93 60c6.39999 17.9 11 65 11 115zM375 258c140 8 187 -13 187 48c0 32 -25 88 -73 88c-63 0 -106 -51 -114 -136zM202 394c-44.5 0 -87 -44 -113 -89l-13 1l-16 67l3 4c24.5 20.5 75.5 62 148 62
c24 0 100 -3 137 -70c33 45 85 70 142 70c114 0 156 -96 156 -130c0 -30.9 -6 -55 -26 -72c-35.7 -19.7 -110.5 -11.6 -246 -19c0 -106 49 -174 124 -174c54 0 93 33 123 68l20 -28c-29 -54 -91 -94 -157 -94c-91 0 -124 44 -144 69c-46 -44 -95 -69 -150 -69
c-105 0 -151 43 -151 111c0 83 87 142 257 154c-1.20001 93.6 -21.2 139 -94 139z" />
    <glyph glyph-name="ccedilla" unicode="&#xe7;" horiz-adv-x="429" 
d="M233 -94c-19 0 -29 -1 -45 -6l-6 6l35.4 85c-109.6 9.9 -179.4 96.3 -179.4 227c0 136 109 221 213 221c50 0 102 -12 133 -28l2 -3l-23 -82l-13 -1c-26.5 45.5 -61.5 74 -100 74c-66 0 -124 -66 -124 -176c0 -117 57 -183 130 -183c37.2 0 69 8 107 42h4l19 -21
c-37.1 -47.4 -80.4 -68 -134.4 -70.7l-20.6 -55.3c8 2 17 3 26 3c40 0 71 -24 71 -62c0 -43 -46 -74 -107 -74c-32 0 -49 6 -74 17c0 12 3 19 10 26c27 -10 38 -14 58 -14c30 0 51 14 51 40c0 21 -10 35 -33 35z" />
    </font>
</defs>
</svg>
