<?xml version="1.0" standalone="no"?>
<!DOCTYPE svg PUBLIC "-//W3C//DTD SVG 1.1//EN" "http://www.w3.org/Graphics/SVG/1.1/DTD/svg11.dtd" >
<!--
2003-08-29: Created.
2004-07-25: v(1.0) release candidate
2005-12-28: v(1.1.0) stable
2006-01-01: v(2.0.0) stable
2006-09-05: v(2.2.0) stable
2006-12-04: v(2.3.0) stable
2007-03-11: v(2.4.0) stable
2007-12-00: v(2.7.0) stable
2008-06-00: v(2.8.14) stable

-->
<svg>
<metadata>
Created by FontForge 20120601 at Mon Jul  2 00:09:39 2012
 By Gillian Tiefenlicht
Linux Libertine by Philipp H. Poll,
Open Font under Terms of following Free Software Licenses:
GPL (General Public License) with font-exception and OFL (Open Font License).
Created with FontForge (http://fontforge.sf.net)
Sept 2003, 2004, 2005, 2006, 2007, 2008, 2009, 2010, 2011,2012
</metadata>
<defs>
<font id="LinLibertineO" horiz-adv-x="0" >
  <font-face 
    font-family="Linux Libertine O"
    font-weight="400"
    font-stretch="normal"
    units-per-em="1000"
    panose-1="2 0 5 3 0 0 0 0 0 0"
    ascent="754"
    descent="-246"
    x-height="431"
    cap-height="647"
    bbox="-1082 -256 6171 1125"
    underline-thickness="40"
    underline-position="-98"
    stemh="36"
    stemv="79"
    unicode-range="U+0020-1D550"
  />
<missing-glyph horiz-adv-x="500" 
d="M50 603v-508l170 254zM80 50h340l-170 254zM280 349l170 -254v508zM250 394l170 253h-340zM0 0v698h500v-698h-500z" />
    <glyph glyph-name="ellipsis" unicode="&#x2e;&#x2e;&#x2e;" horiz-adv-x="749" 
d="M57 43c0 29 24 53 53 53s53 -24 53 -53s-24 -53 -53 -53s-53 24 -53 53zM322 43c0 29 24 53 53 53s53 -24 53 -53s-24 -53 -53 -53s-53 24 -53 53zM586 43c0 29 24 53 53 53s53 -24 53 -53s-24 -53 -53 -53s-53 24 -53 53z" />
    <glyph glyph-name="exclamdbl" unicode="&#x21;&#x21;" horiz-adv-x="472" 
d="M328 660c24 0 53 -19 53 -73c0 -65 -14 -107 -24 -193c-13 -108 -13 -168 -15 -182c-1 -11 -4 -20 -14 -20s-13 7 -14 13c-2 21 -8 111 -16 189c-9 88 -23 123 -23 193c0 54 29 73 53 73zM275 45c0 29 24 53 53 53s53 -24 53 -53s-24 -53 -53 -53s-53 24 -53 53zM144 658
c24 0 53 -19 53 -73c0 -65 -14 -107 -24 -193c-13 -108 -13 -168 -15 -182c-1 -11 -4 -20 -14 -20s-13 7 -14 13c-2 21 -8 111 -16 189c-9 88 -23 123 -23 193c0 54 29 73 53 73zM91 43c0 29 24 53 53 53s53 -24 53 -53s-24 -53 -53 -53s-53 24 -53 53z" />
    <glyph glyph-name="question_question" unicode="&#x3f;&#x3f;" horiz-adv-x="811" 
d="M490 572c0 -15 2 -21 6 -26s6 -11 6 -24c0 -23 -20 -35 -39 -35c-16 0 -41 8 -41 43c0 38 21 66 51 90c29 25 71 39 124 39c102 0 168 -60 168 -151c0 -79 -62 -123 -109 -157c-23 -17 -43 -33 -52 -50c-13 -25 -14 -49 -14 -73v-44c0 -7 -9 -10 -17 -10s-16 3 -16 10v46
c0 43 5 102 70 161c40 37 55 66 55 113c0 65 -38 122 -95 122s-97 -24 -97 -54zM520 43c0 29 24 53 53 53s53 -24 53 -53s-24 -53 -53 -53s-53 24 -53 53zM114 572c0 -15 2 -21 6 -26s6 -11 6 -24c0 -23 -20 -35 -39 -35c-16 0 -41 8 -41 43c0 38 21 66 51 90
c29 25 71 39 124 39c102 0 168 -60 168 -151c0 -79 -62 -123 -109 -157c-23 -17 -43 -33 -52 -50c-13 -25 -14 -49 -14 -73v-44c0 -7 -9 -10 -17 -10s-16 3 -16 10v46c0 43 5 102 70 161c40 37 55 66 55 113c0 65 -38 122 -95 122s-97 -24 -97 -54zM144 43c0 29 24 53 53 53
s53 -24 53 -53s-24 -53 -53 -53s-53 24 -53 53z" />
    <glyph glyph-name="question_exclam" unicode="&#x3f;&#x21;" horiz-adv-x="675" 
d="M531 660c24 0 53 -19 53 -73c0 -65 -14 -107 -24 -193c-13 -108 -13 -168 -15 -182c-1 -11 -4 -20 -14 -20s-13 7 -14 13c-2 21 -8 111 -16 189c-9 88 -23 123 -23 193c0 54 29 73 53 73zM478 45c0 29 24 53 53 53s53 -24 53 -53s-24 -53 -53 -53s-53 24 -53 53zM114 572
c0 -15 2 -21 6 -26s6 -11 6 -24c0 -23 -20 -35 -39 -35c-16 0 -41 8 -41 43c0 38 21 66 51 90c29 25 71 39 124 39c102 0 168 -60 168 -151c0 -79 -62 -123 -109 -157c-23 -17 -43 -33 -52 -50c-13 -25 -14 -49 -14 -73v-44c0 -7 -9 -10 -17 -10s-16 3 -16 10v46
c0 43 5 102 70 161c40 37 55 66 55 113c0 65 -38 122 -95 122s-97 -24 -97 -54zM144 43c0 29 24 53 53 53s53 -24 53 -53s-24 -53 -53 -53s-53 24 -53 53z" />
    <glyph glyph-name="exclam_question" unicode="&#x21;&#x3f;" horiz-adv-x="637" 
d="M144 658c24 0 53 -19 53 -73c0 -65 -14 -107 -24 -193c-13 -108 -13 -168 -15 -182c-1 -11 -4 -20 -14 -20s-13 7 -14 13c-2 21 -8 111 -16 189c-9 88 -23 123 -23 193c0 54 29 73 53 73zM91 43c0 29 24 53 53 53s53 -24 53 -53s-24 -53 -53 -53s-53 24 -53 53zM316 570
c0 -15 2 -21 6 -26s6 -11 6 -24c0 -23 -20 -35 -39 -35c-16 0 -41 8 -41 43c0 38 21 66 51 90c29 25 71 39 124 39c102 0 168 -60 168 -151c0 -79 -62 -123 -109 -157c-23 -17 -43 -33 -52 -50c-13 -25 -14 -49 -14 -73v-44c0 -7 -9 -10 -17 -10s-16 3 -16 10v46
c0 43 5 102 70 161c40 37 55 66 55 113c0 65 -38 122 -95 122s-97 -24 -97 -54zM346 41c0 29 24 53 53 53s53 -24 53 -53s-24 -53 -53 -53s-53 24 -53 53z" />
    <glyph glyph-name="centigrade" unicode="&#xb0;C" horiz-adv-x="804" 
d="M544 -10c-85.7 0 -159.2 33.7 -207 82c-55.9 56.5 -84 133.8 -84 212c0 193 125 326 284 326c138 0 168 -32 197 -38c13.3 -51.8 17.4 -101.1 20 -150c-7.90002 -5.5 -18 -6 -29 -4c-26 93 -78 158 -186 158c-79 0 -196 -66 -196 -278c0 -137 83 -265 208 -265
c85 0 125 22 191 105c12 -1.8 21 -7.39999 25 -15c-60 -88 -126 -133 -223 -133zM209 508c0 33 -20 72 -65 72c-43 0 -66 -36 -66 -72c0 -35 24 -69 66 -69c41 0 65 35 65 69zM44 509c0 56 45 101 100 101s99 -45 99 -101c0 -55 -44 -100 -99 -100s-100 45 -100 100z" />
    <glyph glyph-name="fahrenheit" unicode="&#xb0;F" horiz-adv-x="802" 
d="M570 278h-93v-156c0 -83 17 -88 87 -91c6 -6 6 -27 0 -33c-50 1 -79 2 -129 2c-51 0 -81 -1 -130 -2c-6 6 -6 27 0 33c70 3 87 8 87 91v356c0 83 -17 88 -87 91c-6 6 -6 27 0 33c50 -1 129 -2 129 -2h255.3c24.7 0 29.5 0.599976 47 4c2.40002 0 3.60004 -0.700012 4 -3
c1.40002 -7.59998 16.5 -104 21.7 -145c-8 -3 -19 -5 -31 -5c-22 69 -47 109 -153 109h-65c-24 0 -36 -10 -36 -34v-210h93c85 0 88 13 91 68c6 6 27 6 33 0c-1 -30 -2 -52 -2 -86s1 -53 2 -88c-6 -6 -27 -6 -33 0c-3 45 -6 68 -91 68zM209 508c0 33 -20 72 -65 72
c-43 0 -66 -36 -66 -72c0 -35 24 -69 66 -69c41 0 65 35 65 69zM44 509c0 56 45 101 100 101s99 -45 99 -101c0 -55 -44 -100 -99 -100s-100 45 -100 100z" />
    <glyph glyph-name="f_f" unicode="ff" horiz-adv-x="582" 
d="M447 122c0 -83 11 -87 79 -91c6 -6 6 -27 0 -33c-43 1 -86 2 -118 2c-34.3 0 -66 -1 -95 -2c-6 6 -6 27 0 33c44 4 55 8 55 91v268h-199v-268c0 -83 13 -87 59 -91c6 -6 6 -27 0 -33c-32 1 -65.7 2 -98 2c-36.3 0 -72 -1 -105 -2c-6 6 -6 27 0 33c54 4 65 8 65 91v268
h-67c-4 0 -5 1 -5 6v13c0 8 5 20 23 20h49c0 122 33 193 102 233c21 12 47 19 74 19c80 0 125 -34 138 -58c34 53 91 75 128 75c74 0 120 -33 120 -74c0 -20 -15 -35 -35 -35c-27 0 -37 19 -47 40c-9 20 -30 34 -54 34c-22 0 -48 -9 -62 -82c-6 -34 -7 -79 -7 -99v-53h108
c5 0 8 -2 8 -6v-20c0 -9 -14 -13 -24 -13h-92v-268zM378 564c-1.5 -1.20001 -3.79999 -2 -6 -2c-26 0 -35 20 -44 40c-10.7 24.9 -29.3 49 -64 49c-15 0 -60 -11 -81 -91c-6 -19 -14 -54 -14 -122v-9h199v40c0 19.7 1 59 10 95z" />
    <glyph glyph-name="f_i" unicode="fi" horiz-adv-x="560" 
d="M470 122c0 -83 11 -87 72 -91c6 -6 6 -27 0 -33c-37 1 -76.2 2 -111 2c-36.1 0 -72 -1 -107 -2c-6 6 -6 27 0 33c55 4 67 8 67 91v197c0 51 -8 71 -39 71h-179v-268c0 -83 10 -87 74 -91c6 -6 6 -27 0 -33c-33 1 -78 2 -113 2c-35.2 0 -71 -1 -105 -2c-6 6 -6 27 0 33
c54 4 65 8 65 91v268h-67c-4 0 -5 1 -5 6v13c0 8 5 20 23 20h49v15c0 78 9 139 51 188c41 47.8 96.2 66 142 66c93 0 178 -47.6 178 -110c0 -21 -21 -41 -43 -41c-31 0 -52.3 15.3 -62 65c-8 41 -42.5 52 -85 52c-68 0 -102 -83.5 -102 -178v-57h197c35 0 64 1 94 13
c4 0 10 -2 10 -6c0 0 -4 -64 -4 -103v-211z" />
    <glyph glyph-name="f_l" unicode="fl" horiz-adv-x="540" 
d="M452 122c0 -83 14 -87 70 -91c6 -6 6 -27 0 -33c-32 1 -66 2 -109 2c-39 0 -69 -1 -99 -2c-6 6 -6 27 0 33c50 3 59 8 59 91v441c0 8.70001 0.700012 19.7 1 25c-12 4 -22 14 -28 27c-13 33 -49 49 -79 49c-33 0 -96 -34 -96 -188v-47h110c5 0 8 -2 8 -6v-20
c0 -9 -14 -13 -23 -13h-93v-268c0 -83 13 -86 69 -91c6 -6 6 -27 0 -33c-35 1 -71.7 2 -108 2c-34.3 0 -71 -1 -105 -2c-6 6 -6 27 0 33c54 4 65 8 65 91v268h-67c-4 0 -5 1 -5 6v13c0 8 5 20 23 20h51v30c0 166 103 239 187 239c35 0 81 -8 103 -23c16.3 4 40.7 15 54 23
c9 0 13 -3 13 -10c0 0 -1 -40 -1 -105v-461z" />
    <glyph glyph-name="f_f_i" unicode="ffi" horiz-adv-x="829" 
d="M380 565c-2 -2 -5 -2 -7 -2c-26 0 -35 18 -43 39c-12 35 -37 51 -62 51c-15 0 -69 -12 -90 -92c-6 -19 -11 -52 -11 -120v-12h202v40c0 22.3 2 60 11 96zM660 122v217c0 40 -2 51 -28 51h-184v-268c0 -83 9 -87 64 -91c6 -6 6 -27 0 -33c-34 1 -70 2 -103 2
c-34 0 -66 -1 -95 -2c-6 6 -6 27 0 33c44 4 55 8 55 91v268h-200v-268c0 -83 13 -87 59 -91c6 -6 6 -27 0 -33c-31 1 -64.3 2 -98 2c-33 0 -69 -1 -105 -2c-6 6 -6 27 0 33c54 4 65 8 65 91v268h-67c-4 0 -5 1 -5 6v13c0 8 5 20 23 20h51c0 122 26 193 95 233
c21 13 56 19 83 19c80 0 123 -33 136 -58c27 35 85 75 151 75c37 0 73 -10 98 -27c37 -25 72 -64 72 -101c0 -21 -21 -39 -42 -39c-32 0 -50 25 -59 79c-7.20001 43.1 -48 55 -81 55s-97 -25 -97 -179v-57h194c35 0 65 1 95 13c3 0 4 -1.10001 4 -3c0 0 -2 -59 -2 -89v-228
c0 -83 14 -87 70 -91c6 -6 6 -27 0 -33c-36 1 -75 2 -109 2s-67 -1 -99 -2c-6 6 -6 27 0 33c50 3 59 8 59 91z" />
    <glyph glyph-name="f_f_l" unicode="ffl" horiz-adv-x="815" 
d="M380 562h-2c-25 0 -35 15 -41 29c-11 26 -40 55 -80 55c-31 0 -63 -26 -79 -86c-6 -19 -9 -54 -9 -122v-9h200v40c1 20 3 57 11 93zM727 122c0 -83 14 -87 70 -91c6 -6 6 -27 0 -33c-43 1 -66 2 -109 2c-39 0 -57 -1 -99 -2c-6 6 -6 27 0 33c50 3 59 8 59 91v441
c0 4 2 21 1 25c-12 4 -22 14 -28 27c-13 33 -53 49 -83 49c-26 0 -72 -27 -82 -83c-6 -34 -8 -79 -8 -99v-53h108c5 0 8 -2 8 -6v-20c0 -9 -14 -13 -24 -13h-92v-268c0 -83 9 -87 64 -91c6 -6 6 -27 0 -33c-43 1 -63 2 -103 2c-37 0 -53 -1 -95 -2c-6 6 -6 27 0 33
c44 4 55 8 55 91v268h-200v-268c0 -83 13 -87 59 -91c6 -6 6 -27 0 -33c-43 1 -60 2 -98 2c-41 0 -63 -1 -105 -2c-6 6 -6 27 0 33c54 4 65 8 65 91v268h-67c-4 0 -5 1 -5 6v13c0 8 5 20 23 20h49c0 82 7 121 26 157c24.4 46.3 78 95 145 95c79 0 129 -34 142 -53
c17 31 82 70 138 70c35 0 98 -8 120 -23c23.7 4.70001 42.2 18.3 54 23c9 0 13 -3 13 -10c0 0 -1 -40 -1 -105v-461z" />
    <glyph glyph-name="longs_t" unicode="&#x17f;t" horiz-adv-x="561" 
d="M169 122c0 -83 11 -88 72 -91c6 -6 6 -27 0 -33c-43 1 -68 2 -111 2c-44 0 -70 -1 -112 -2c-6 6 -6 27 0 33c61 3 72 8 72 91v257c0 12 1 16 -13 16h-44c-4 0 -5 1 -5 5v9c0 8 5 20 23 20c31 0 39 21 40 48c10 171 108 221 182 221c105 0 150 -52 150 -148v-121h110
c5 0 8 -2 8 -6v-20c0 -9 -14 -13 -24 -13h-94v-253c0 -62 6 -92 33 -92c26 0 45 8 71 28c10 -1 16 -6.7 18 -17c-38 -44 -79 -66 -124 -66c-46 0 -73 28 -73 99v301h-60c-3 0 -5 1 -5 4v31c0 3 1 4 4 4h46c27 0 32 15 32 116c0 79 -29 120 -98 120c-33 0 -98 -37 -98 -179
v-364z" />
    <glyph glyph-name="f_b" unicode="fb" horiz-adv-x="778" 
d="M94 122v268h-67c-4 0 -5 1 -5 6v13c0 8 5 20 23 20h49v43c0 156 115 228 199 228c35 0 61 -10 83 -25c13 3 41 12 57 23c8 0 12 -3 12 -10c0 0 -3 -40 -3 -105v-184c0 -9 3.70001 -10.7 10 -5c31 28 69.1 45 112 45c87 0 177 -75 177 -197c0 -159 -119 -252 -221 -252
c-35.3 0 -65.1 5.5 -88 24.8c-11 9.2 -17 9.2 -27.3 -2.8c-7.70001 -8.9 -17.6 -18.2 -23.7 -24c-12 0 -17 4 -22 12c4.20001 21.8 4 32 4 71v488c0 5 0 28 -1 32c-39.6 13.2 -24.8 75 -88 75c-33 0 -101 -23 -101 -177v-60h108c5 0 8 -2 8 -6v-20c0 -9 -14 -13 -23 -13h-93
v-268c0 -83 11 -87 79 -91c6 -6 6 -27 0 -33c-43 1 -72 2 -118 2c-41 0 -63 -1 -105 -2c-6 6 -6 27 0 33c54 4 65 8 65 91zM459 363c-12.9 -11.4 -17 -21 -17 -42v-250c20 -25 41 -47 72 -47c95 0 141 86 141 200c0 97 -50 171 -111 171c-29 0 -59 -9 -85 -32z" />
    <glyph glyph-name="f_f_h" unicode="ffh" horiz-adv-x="1052" 
d="M368 567l-3 -2c-50 0 -39 57 -74 79c-16 10 -24 12 -35 12c-15 0 -57 -13 -78 -93c-6 -19 -11 -55 -11 -123v-11h191v43c1 20 1 59 10 95zM626.2 671.7c13 3 46.8 15.3 62.8 26.3c8 0 12 -3 12 -10c0 0 -3 -35 -3 -100v-234c67 67 136 83 175 83c72 0 97 -52 97 -155
v-206c0 -29 10.7 -39.6 43 -43l19 -2c5 -0.5 9 -3 9 -8v-23l-2 -2s-69 2 -108 2c-35 0 -103 -2 -103 -2l-2 2v23c0 5 3 7.6 7 8l20 2c32.8 3.3 43 14 43 43v198c0 81 -21 116 -67 116c-29 0 -72 -17 -131 -73v-241c0 -29 12.5 -39.8 43 -43l19 -2c4 -0.4 8 -3 8 -8v-23
l-2 -2s-68 2 -107 2c-36 0 -96 -2 -96 -2l-1 2v23c0 5 2.09998 7.1 7 8l11 2c36.4 6.6 43 14 43 43v502v11h-6c-28 0 -37 22 -47 43c-10 20 -36 36 -60 36c-22 0 -56 -11 -70 -84c-6 -34 -7 -79 -7 -99v-56h110c5 0 8 -2 8 -6v-20c0 -9 -14 -13 -24 -13h-94v-314
c0 -29 7.60001 -39.3 43 -43l19 -2c5 -0.5 8 -3 8 -8v-23l-2 -2s-68 2 -107 2c-36 0 -104 -2 -104 -2l-2 2v23c0 5 3 7.5 8 8l19 2c32.4 3.4 43 14 43 43v314h-191v-314c0 -29 9.60001 -39.5 43 -43l19 -2c4 -0.4 8 -3 8 -8v-23l-2 -2s-68 2 -107 2c-36 0 -104 -2 -104 -2
l-2 2v23c0 5 3 7.5 8 8l19 2c34.4 3.6 43 14 43 43v314h-69c-4 0 -5 1 -5 6v13c0 8 5 20 23 20h51c0 122 26 195 95 236c21 12 44 19 71 19c80 0 123 -34 136 -59c34 54 95 78 131 78c68.6 0 95 -24.5 101.2 -31.3z" />
    <glyph glyph-name="f_f_j" unicode="ffj" horiz-adv-x="794" 
d="M368 567l-3 -2c-50 0 -39 57 -74 79c-16 10 -24 12 -35 12c-15 0 -57 -13 -78 -93c-6 -19 -11 -55 -11 -123v-11h191v43c1 20 1 59 10 95zM718 109c0 -161 -26 -261 -73 -299c-37 -31 -71 -31 -91 -31c-18 0 -52 14 -52 44c0 18 19 30 30 30c26 0 36 -12 44 -22
c6 -9 12 -16 23 -16c44 0 44 152 44 260v263c0 40 -3 52 -29 52h-181v-315c0 -29 13.2 -40.1 43 -42l32 -2c4 -0.200001 8 -3 8 -8v-23l-2 -2s-81 2 -120 2c-36 0 -104 -2 -104 -2l-2 2v23c0 5 3 7.5 8 8l19 2c32.4 3.4 43 13 43 42v315h-191v-315
c0 -29 9.60001 -38.5 43 -42l19 -2c4 -0.4 8 -3 8 -8v-23l-2 -2s-68 2 -107 2c-36 0 -104 -2 -104 -2l-2 2v23c0 5 3 7.5 8 8l19 2c34.4 3.6 43 13 43 42v315h-69c-4 0 -5 1 -5 6v13c0 8 5 20 23 20h51c0 122 26 196 95 236c21 12 44 19 71 19c80 0 123 -34 136 -59
c27 35 85 75 151 75c37 0 64 -10 89 -27c37 -24 71 -63 71 -100c0 -21 -20 -39 -40 -39c-32 0 -48 24 -60 79c-8 42 -39 54 -72 54s-100 -24 -100 -178v-60h189c35 0 67 13 80 13h16v-333z" />
    <glyph glyph-name="f_f_k" unicode="ffk" horiz-adv-x="1018" 
d="M368 567l-3 -2c-50 0 -39 54 -74 76c-16 10 -24 12 -35 12c-15 0 -57 -10 -78 -90c-6 -19 -11 -55 -11 -123v-11h191v43c1 20 1 59 10 95zM697 210.9v-134.9c0 -29 11.6 -39.7 43 -43l19 -2c5 -0.5 9 -3 9 -8v-23l-2 -2s-69 2 -108 2c-35 0 -103 -2 -103 -2l-2 2v23
c0 5 3 7.5 8 8l19 2c33.4 3.5 43 14 43 43v499v11c-26 2 -35 23 -45 43s-32 34 -56 34c-22 0 -68 -9 -82 -82c-6 -34 -7 -76 -7 -96v-56h110c5 0 8 -2 8 -6v-20c0 -9 -14 -13 -24 -13h-94v-314c0 -29 9.60001 -39.5 43 -43l19 -2c4 -0.4 8 -3 8 -8v-23l-2 -2s-68 2 -107 2
c-36 0 -104 -2 -104 -2l-2 2v23c0 5 3 7.5 8 8l19 2c34.4 3.6 43 14 43 43v314h-191v-314c0 -29 7.60001 -39.3 43 -43l19 -2c4 -0.4 8 -3 8 -8v-23l-2 -2s-68 2 -107 2c-36 0 -104 -2 -104 -2l-2 2v23c0 5 3 7.5 8 8l19 2c36.4 3.8 43 14 43 43v314h-69c-4 0 -5 1 -5 6v13
c0 8 5 20 23 20h51c0 122 26 192 95 233c21 12 44 19 71 19c80 0 123 -34 136 -58c27 55 89 75 146 75c32 0 62 -8 82 -20c19 4 33 8 53 17h22v-458.4c44.1 21.4 77.5 51.7 131 110.4c15 16 20 29 20 39c0 8 -5 16 -29 16h-4c-5 0 -8 4 -8 8v19l3 2s47 -2 83 -2
c39 0 93 2 93 2l4 -2v-19c0 -5 -7 -8 -11 -8h-7c-27 0 -72 -22 -96 -48l-76 -84c-3 -3 -5 -7 -5 -11s2 -9 5 -13l118 -169c19 -27 49 -46 75 -46h3c6 0 12 -3 12 -8v-22l-2 -3s-50 2 -89 2c-36 0 -62 -2 -62 -2l-3 4v21c0 12 -3 25 -23 54l-73 99c-14 19 -26 36 -49 36
c-3.20001 0 -6.5 -0.399994 -10 -1.10001z" />
    <glyph glyph-name="f_f_t" unicode="fft" horiz-adv-x="859" 
d="M368 564c-1 -1 -4 -2 -7 -2c-25 0 -34 19 -43 40c-2.89999 7.20001 -18.2 46 -62 46c-15 0 -57 -8 -78 -88c-6 -19 -9 -51 -9 -119v-12h187v48c0 17 2 55 13 86zM90 122v268h-67c-4 0 -5 1 -5 6v13c0 8 5 20 23 20h49c0 122 28 193 97 233c21 12 44 19 71 19
c78.6 0 121.5 -32.8 135.3 -56.7c31.2 51.4 77.8 73.7 117.7 73.7c41 0 66 -12 86 -30c15 -13 26 -29 26 -46s-9 -38 -35 -38c-27 0 -41 14 -46 41c-4 20 -14 41 -38 41c-53 0 -69 -72 -69 -192v-45l197 0.100006c0 82.9 0.0999756 92.1 -2 114.9c-0.599976 7 8 9 14 12.7
l58 26.3c9 0 13 -3 13 -10c0 0 -4 -40 -4 -105v-39h120c5 0 8 -2 8 -6v-20c0 -9 -14 -13 -24 -13h-104v-253c0 -62 6 -92 33 -92c26 0 56 8 82 28c10 -1 16 -6.7 18 -17c-39 -44 -89 -66 -135 -66s-77 28 -77 99v301h-197v-268c0 -83 11 -87 79 -91c6 -6 6 -27 0 -33
c-43 1 -72 2 -118 2c-37 0 -53 -1 -95 -2c-6 6 -6 27 0 33c44 4 55 8 55 91v268h-187v-268c0 -83 13 -87 59 -91c6 -6 6 -27 0 -33c-43 1 -60 2 -98 2c-41 0 -63 -1 -105 -2c-6 6 -6 27 0 33c54 4 65 8 65 91z" />
    <glyph glyph-name="f_h" unicode="fh" horiz-adv-x="790" 
d="M436 356c66 67 136 83 175 83c72 0 97 -52 97 -155v-208c0 -29 8.59998 -39.4 43 -43l19 -2c4 -0.4 8 -3 8 -8v-23l-2 -2s-68 2 -107 2c-36 0 -104 -2 -104 -2l-2 2v23c0 5 3 7.5 8 8l19 2c35.4 3.7 43 14 43 43v200c0 81 -20 116 -67 116c-28 0 -71 -17 -130 -73v-243
c0 -29 10.6 -39.6 43 -43l19 -2c4 -0.4 8 -3 8 -8v-23l-2 -2s-68 2 -108 2c-35 0 -103 -2 -103 -2l-2 2v23c0 5 3 7.5 8 8l19 2c33.4 3.5 43 14 43 43v500c0 4 0 8 -1 12c-12 4 -22 14 -28 27c-13 33 -32 49 -62 49c-33 0 -103 -21 -103 -175v-60h110c5 0 8 -2 8 -6v-20
c0 -9 -14 -13 -23 -13h-95v-314c0 -29 7.7 -39.1 43 -43l18 -2c4 -0.4 8 -3 8 -8v-23l-2 -2s-67 2 -106 2c-36 0 -104 -2 -104 -2l-2 2v23c0 5 3 7.5 8 8l19 2c34.4 3.6 43 14 43 43v314h-69c-4 0 -5 1 -5 6v13c0 8 5 20 23 20h51v43c0 156 113 226 197 226
c35 0 61 -8 83 -23c14 5 28 11 42 20h22v-339z" />
    <glyph glyph-name="f_j" unicode="fj" horiz-adv-x="529" 
d="M452 106c0 -162 -26 -258 -73 -296c-37 -31 -71 -31 -91 -31c-18 0 -52 14 -52 44c0 18 19 30 30 30c26 0 36 -12 44 -22c6 -9 12 -16 23 -16c44 0 44 152 44 260v264c0 40 -3 51 -29 51h-181v-314c0 -29 5.3 -40.7 43 -43l33 -2c4 -0.200001 8 -3 8 -8v-23l-2 -2
s-82 2 -121 2c-36 0 -104 -2 -104 -2l-2 2v23c0 5 3 7.5 8 8l19 2c30.5 3.2 43 14 43 43v314h-69c-4 0 -5 1 -5 6v13c0 8 5 20 23 20h51v18c0 197 104 251 188 251c38 0 64 -10 89 -27c37 -25 70 -64 70 -101c0 -20 -20 -38 -40 -38c-31 0 -48 24 -59 78
c-9 43 -40 55 -72 55c-33 0 -101 -22 -101 -176v-60h189c35 0 67 15 81 15h15v-338z" />
    <glyph glyph-name="f_k" unicode="fk" horiz-adv-x="761" 
d="M436 210v-134c0 -29 10.6 -39.6 43 -43l19 -2c4 -0.4 8 -3 8 -8v-23l-2 -2s-68 2 -108 2c-35 0 -103 -2 -103 -2l-2 2v23c0 5 3 7.5 8 8l19 2c37.4 3.9 43 14 43 43v500c0 4 0 8 -1 12c-12 4 -22 14 -28 27c-13 33 -32 49 -62 49c-33 0 -103 -24 -103 -178v-57h110
c5 0 8 -2 8 -6v-20c0 -9 -14 -13 -23 -13h-95v-314c0 -29 5.7 -38.9 43 -43l18 -2c4 -0.4 8 -3 8 -8v-23l-2 -2s-67 2 -106 2c-36 0 -104 -2 -104 -2l-2 2v23c0 5 3 7.5 8 8l19 2c32.4 3.4 43 14 43 43v314h-69c-4 0 -5 1 -5 6v13c0 8 5 20 23 20h51v39
c0 157 113 230 197 230c35 0 61 -8 83 -23c14 5 25 13 42 20h22v-460c45 22 78 52 134 112c15 16 20 29 20 39c0 8 -6 16 -29 16h-4c-5 0 -9 4 -9 8v19l3 2s48 -2 83 -2c39 0 94 2 94 2l3 -2v-19c0 -5 -6 -8 -10 -8h-8c-26 0 -71 -22 -95 -48l-77 -84c-2 -3 -4 -6 -4 -10
c0 -5 2 -10 5 -14l118 -169c18 -27 49 -46 74 -46h3c7 0 13 -3 13 -8v-23l-2 -2c-26 2 -54 2 -89 2c-23 0 -47 -1 -62 -2l-3 2v23c0 12 -3 25 -23 54l-73 99c-14 19 -26 36 -49 36c-4 0 -9 -1 -13 -2z" />
    <glyph glyph-name="f_t" unicode="ft" horiz-adv-x="596" 
d="M175 390v-268c0 -83 11 -87 79 -91c6 -6 6 -27 0 -33c-40 1 -83 2 -118 2s-71 -1 -105 -2c-6 6 -6 27 0 33c54 4 65 8 65 91v268h-69c-4 0 -5 1 -5 6v13c0 8 5 20 23 20h51v40c0 88 8 141 38 181c24 32 70 48 99 48c38 0 68 -9 88 -24s29 -32 29 -48
c0 -21 -14 -36 -33 -36c-20 0 -31.8 10.6 -39 28c-12 29 -26 46 -54 46c-15.5 0 -37 -14 -45 -38c-7.5 -22.5 -4 -73 -4 -140v-57l194 0.100006c0 82.9 0.100006 92.1 -2 114.9c-0.600006 7 8 9 14 12.7l58 26.3c9 0 13 -3 13 -10c0 0 -4 -40 -4 -105v-39h120c5 0 8 -2 8 -6
v-20c0 -9 -14 -13 -24 -13h-104v-253c0 -62 6 -92 33 -92c26 0 56 8 82 28c10 -1 16 -6.7 18 -17c-39 -44 -89 -66 -135 -66s-77 28 -77 99v301h-194z" />
    <glyph glyph-name="Q_u" unicode="Qu" horiz-adv-x="1251" 
d="M572 -122c90 -35 141 -49 217 -49c50 0 130 22 196 59l17 -18c-63 -59 -164 -96 -268 -96c-84 0 -156 15 -231 46c-118 48 -176 67 -245 67c-9.3 0 -30 -5.4 -49.2 -20.3c-11 -12.6 -21.2 -25.9 -30.8 -39.7l-40 20c29 40 69 80 116 114c16.1 11.8 33.4 22.6 51.2 31.9
c-149.6 19.6 -268.2 137.7 -268.2 317.1c0 193.9 113.3 348 307 348c179 0 322 -122 322 -329c0 -84 -22 -156.3 -61.8 -213c-45.7 -65.1 -114.6 -109.1 -200.3 -122c-34.2 -9.3 -79.3 -30.4 -120.9 -60c-3.29999 -2.3 -6.60001 -4.7 -9.79999 -7.1
c9.69998 1.3 19.9 2.1 30.8 2.1c30 0 140 -1 268 -51zM331 622c-99 0 -198 -85 -198 -295c0 -192 115 -301 237 -301c114 0 200 105 200 284c0 202 -107 312 -239 312zM938 -10c-99 0 -129 67 -129 136v192c0 65 -14 76 -62 80c-6 6 -6 27 0 33c34 -1 70 -2 102 -2
c15 0 30 1 35 2c5 0 8 -3 8 -6c0 0 -4 -73 -4 -103v-182c0 -89 50 -103 80 -103c25 0 63 16 100 48c14 12 16 20 16 39v193c0 66 -13 78 -62 81c-6 6 -6 27 0 33c34 -1 70 -2 102 -2c15 0 30 1 35 2c5 0 8 -3 8 -6c0 0 -4 -73 -4 -103v-192c0 -49 9 -68 73 -73
c6 -6 6 -21 0 -27c-61 -7 -96 -22 -118 -40c-6.5 -2.5 -11 -3 -19 0c0 0 -8.5 33.5 -11 59c-0.699951 7 -10 5 -15 1c-49 -40 -96 -60 -135 -60z" />
    <glyph glyph-name="T_h" unicode="Th" horiz-adv-x="1048" 
d="M350 122c0 -83 17 -88 97 -91c6 -6 6 -27 0 -33c-50 1 -84.8 2 -139 2c-54.6 0 -91 -1 -140 -2c-6 6 -6 27 0 33c80 3 97 8 97 91v385c0 61 -10 99 -47 99h-49c-66 0 -112 -26 -132 -106c-12 0 -24 1 -34 5c11 48 21 100 25 145c0 1 2 3 4 3c38 -3 156 -8 233 -8h86
c51.9 0 135.3 2 196.7 4.5c58.4 2.40002 98 29.6 120.3 38.5c9 0 13 -3 13 -10c0 0 -3.79999 -40 -4 -105l-0.799988 -215c-0.100037 -14 6.39996 -3.79999 9.79999 0c61 68 120.9 81 170 81c35 0 66.2 -12 83 -34c23.3 -30.5 27 -79 27 -134v-149c0 -82 11 -86 67 -91
c5 -6 5 -27 0 -33c-43 1 -65 2 -106 2c-40 0 -60 -1 -102 -2c-5 6 -5 27 0 33c52 5 62 9 62 91v152c0 30 -2 57.2 -12 77c-11.6 22.9 -32.6 36 -53 36c-39.4 0 -90 -21.7 -128 -59c-8 -8.70001 -17 -21 -17 -42.1v-163.9c0 -83 9 -87 59.8 -91c6 -6 6 -27 0 -33
c-42.1 1 -59.8 2 -98.8 2c-43 0 -68.6 -1 -109.8 -2c-6 6 -6 27 0 33c58 4 69.8 8 69.8 91v421c0 76 -105 63 -180 63h-22c-36 0 -46 -38 -46 -102v-382z" />
    <glyph glyph-name="longs_s" unicode="&#x17f;s" horiz-adv-x="589" 
d="M93 477c10 171 94 221 173 221c88 0 147 -56 147 -103c0 -21 -12 -34 -31 -34c-32 0 -49 37 -60 69c-9 24 -35 35 -68 35s-87 -25 -87 -179v-414c0 -29 5.39999 -40 43 -43l25 -2c4 -0.299999 8 -3 8 -8v-19l-2 -2s-74 2 -113 2c-36 0 -104 -2 -104 -2l-2 2v19
c0 5 3 7.5 8 8l19 2c32.4 3.4 43 14 43 43v307c0 12 -1 16 -15 16h-44c-4 0 -5 1 -5 5v9c0 8 5 20 23 20c31 0 41 21 42 48zM281 140l27 1c3 -25 15 -72 36 -96c10 -11 27 -29 64 -29c33 0 78 31 78 77c0 43 -19 71 -99 105c-73 32 -106 54 -106 129c0 63 55 115 134 115
c49 0 82 -9 113 -25c6 -32 9 -66 11 -102l-27 -1c-21 82 -76 98 -97 98c-38 0 -72 -21 -72 -70c0 -40 14 -59 68 -79c81 -30 142 -67 142 -147c0 -95 -97 -128 -142 -128c-35 0 -55 4 -80 11c-7 1 -13 2 -19 2s-14 -1 -24 -3c0 42 -3 93 -7 142z" />
    <glyph glyph-name="longs_h" unicode="&#x17f;h" horiz-adv-x="780" 
d="M362 675c13 3 39 12 55 23c8 0 12 -3 12 -10c0 0 -3 -35 -3 -100v-229c67 67 125 83 164 83c73 0 108 -55 108 -158v-212c0 -29 10.6 -39.6 43 -43l19 -2c5 -0.5 9 -3 9 -8v-19l-2 -2s-69 2 -108 2c-35 0 -103 -2 -103 -2l-2 2v19c0 5 3 7.5 8 8l19 2
c34.4 3.6 43 14 43 43v223c0 81 -22 100 -78 100c-29 0 -72 -26 -120 -73v-250c0 -29 12.4 -40.3 43 -43l23 -2c5 -0.4 8 -3 8 -8v-19l-1 -2s-73 2 -112 2c-36 0 -94 -2 -94 -2l-1 2v19c0 5 2.10001 6.9 7 8l9 2c32 7.1 43 14 43 43v504v12c-13 4 -22 14 -29 27
c-13 33 -32 49 -62 49c-32 0 -93 -24 -93 -178v-414c0 -29 5.7 -38.9 43 -43l18 -2c4 -0.4 8 -3 8 -8v-19l-2 -2s-67 2 -106 2c-36 0 -104 -2 -104 -2l-2 2v19c0 5 3 7.5 8 8l19 2c34.4 3.6 43 14 43 43v307c0 12 -1 16 -15 16h-44c-4 0 -5 1 -5 5v9c0 8 5 20 23 20
c31 0 41 22 41 49c4 150 105 220 187 220c35 0 61 -7 83 -23z" />
    <glyph glyph-name="t_t" unicode="tt" horiz-adv-x="614" 
d="M90 390h-59c-4 0 -5 1 -5 6v13c0 8 4 20 18 20l46 0.100006c0 82.9 0.0999985 82.1 -2 104.9c-0.599998 7 8 9 14 12.7l58 26.3c9 0 13 -3 13 -10c0 0 -4 -40 -4 -105v-29c105.5 0 168.8 -0.100006 211 0.100006c0 82.9 0.100006 92.1 -2 114.9c-0.600006 7 8 9 14 12.7
l58 26.3c9 0 13 -3 13 -10c0 0 -4 -40 -4 -105v-39h120c5 0 8 -2 8 -6v-20c0 -9 -14 -13 -24 -13h-104v-253c0 -62 6 -92 33 -92c26 0 56 8 82 28c10 -1 16 -6.7 18 -17c-39 -44 -89 -66 -135 -66s-77 28 -77 99v301h-211v-253c0 -62 6 -92 33 -92c28 0 56 15 71 28
c9 -1 13.3 -5.4 16 -15c-26 -39 -72 -68 -122 -68c-47 0 -77 28 -77 99v301z" />
    <glyph glyph-name="longs_i" unicode="&#x17f;i" horiz-adv-x="535" 
d="M93 477c10 171 104 221 183 221c38 0 60 -10 85 -27c37 -25 70 -64 70 -101c0 -20 -20 -38 -39 -38c-32 0 -49 24 -60 78c-9 43 -36 55 -68 55c-33 0 -97 -25 -97 -179v-410c0 -29 9.39999 -40.3 43 -43l25 -2c4 -0.299999 8 -3 8 -8v-23l-2 -2s-74 2 -113 2
c-36 0 -104 -2 -104 -2l-2 2v23c0 5 3 7.5 8 8l19 2c38.4 4 43 14 43 43v303c0 12 -1 16 -15 16h-44c-4 0 -5 1 -5 5v9c0 8 5 20 23 20c31 0 41 21 42 48zM452 122c0 -83 11 -87 72 -91c6 -6 6 -27 0 -33c-33 1 -71 2 -111 2s-79 -1 -112 -2c-6 6 -6 27 0 33
c61 5 72 8 72 91v195c0 57 -10.5 62.9 -65 68c-2 6 -4 22 -2 28c69 9 108.5 18 137 29c8 0 13 -3 13 -7c0 0 -4 -64 -4 -113.7v-199.3z" />
    <glyph glyph-name="longs_longs" unicode="&#x17f;&#x17f;" horiz-adv-x="559" 
d="M385 623c8 23 49 75 116 75c41 0 63 -12 83 -30c15 -13 26 -29 26 -46s-9 -38 -35 -38c-27 0 -41 14 -46 41c-4 20 -10 39 -34 39c-54 0 -72 -70 -72 -190v-398c0 -29 11.2 -41.1 43 -43l33 -2c4 -0.200001 8 -3 8 -8v-23l-2 -2s-82 2 -121 2c-35 0 -103 -2 -103 -2l-2 2
v23c0 5 3 7.5 8 8l19 2c33.4 3.5 43 14 43 43v303c0 12 -1 16 -16 16h-43c-5 0 -6 1 -6 5v9c0 8 6 20 23 20c31 0 42 21 42 48c0 22 2 56 10 87c-2 -1 -4 -2 -6 -2c-26 0 -39 19 -44 40c-5 20 -20 51 -57 51c-34 0 -85 -35 -85 -224v-353c0 -29 11.9 -38.6 43 -43l14 -2
c4.89999 -0.700001 8 -3 8 -8v-23l-2 -2s-63 2 -102 2c-36 0 -104 -2 -104 -2l-2 2v23c0 5 3 7.5 8 8l19 2c30.5 3.2 43 14 43 43v303c0 12 -1 16 -15 16h-44c-4 0 -5 1 -5 5v9c0 8 5 20 23 20c31 0 41 21 43 48c6 93 31 148 90 185c21 13 43 19 69 19c61 0 102 -23 132 -58
z" />
    <glyph glyph-name="longs_longs_i" unicode="&#x17f;&#x17f;i" horiz-adv-x="791" 
d="M532 698c38 0 60 -10 85 -27c37 -25 71 -64 71 -101c0 -20 -21 -38 -40 -38c-32 0 -48 24 -60 78c-8 43 -35 55 -68 55s-97 -25 -97 -179v-414c0 -29 11.2 -41.1 43 -43l33 -2c4 -0.200001 8 -3 8 -8v-19l-2 -2s-82 2 -121 2c-35 0 -103 -2 -103 -2l-2 2v19
c0 5 3 7.5 8 8l19 2c33.4 3.5 43 14 43 43v307c0 12 -1 16 -16 16h-43c-5 0 -6 1 -6 5v9c0 8 6 20 23 20c31 0 42 21 42 48c0 22 2 56 10 87c-2 -1 -4 -2 -6 -2c-26 0 -39 19 -44 40c-5 20 -20 51 -57 51c-34 0 -85 -35 -85 -224v-357c0 -29 10 -38.3 43 -43l14 -2
c4.89999 -0.700001 8 -3 8 -8v-19l-2 -2s-63 2 -102 2c-36 0 -104 -2 -104 -2l-2 2v19c0 5 3 7.5 8 8l19 2c36.4 3.8 43 14 43 43v307c0 12 -1 16 -15 16h-44c-4 0 -5 1 -5 5v9c0 8 5 20 23 20c31 0 41 21 43 48c6 93 31 148 90 185c21 13 43 19 69 19c61 0 102 -23 132 -58
c38 53 80 75 147 75zM708 122c0 -83 11 -87 72 -91c6 -6 6 -27 0 -33c-33 1 -71 2 -111 2s-79 -1 -112 -2c-6 6 -6 27 0 33c61 5 72 8 72 91v195c0 57 -10.5 62.9 -65 68c-2 6 -4 22 -2 28c69 9 108.5 18 137 29c8 0 13 -3 13 -7c0 0 -4 -64 -4 -113.7v-199.3z" />
    <glyph glyph-name="longs_l" unicode="&#x17f;l" horiz-adv-x="517" 
d="M167 486v-414c0 -29 8.2 -39.1 43 -43l18 -2c4 -0.4 8 -3 8 -8v-19l-2 -2s-67 4 -106 4c-36 0 -104 -4 -104 -4l-2 2v19c0 5 3 7.5 8 8l19 2c34.7 3.7 43 14 43 43v307c0 12 -1 16 -15 16h-44c-4 0 -5 1 -5 5v9c0 8 5 20 23 20c31 0 41 22 41 49c4 150 105 220 187 220
c35 0 61 -8 83 -23c12.7 3 39 12 55 23c7.70001 0 12 -3 12 -10c0 0 -3 -35.3 -3 -100.3v-515.7c0 -29 11.4 -40.3 43 -43l23 -2c5 -0.4 8 -3 8 -8v-19l-1 -2s-73 2 -112 2c-36 0 -94 -2 -94 -2l-1 2v19c0 5 2 7.4 7 8l9 1c33.3 3.7 43 15 43 44v504v12c-13 4 -22 14 -29 27
c-13 33 -32 49 -62 49c-32 0 -93 -24 -93 -178z" />
    <glyph glyph-name="f_f.short" unicode="f&#xe0e0;" horiz-adv-x="595" 
d="M381 564c-2 -1 -6 -2 -9 -2c-24 0 -35 20 -44 40c-6 14 -13 30 -28 39c-17 10 -25 12 -37 12c-16 0 -60 -13 -82 -93c-6 -19 -12 -54 -12 -122v-9h202v40c0 20.3 1 59 10 95zM450 122c0 -83 11 -87 79 -91c6 -6 6 -27 0 -33c-43 1 -86 2 -118 2c-34.3 0 -66 -1 -95 -2
c-6 6 -6 27 0 33c44 4 55 8 55 91v268h-202v-268c0 -83 13 -87 59 -91c6 -6 6 -27 0 -33c-32 1 -65.7 2 -98 2c-36.3 0 -72 -1 -105 -2c-6 6 -6 27 0 33c54 4 65 8 65 91v268h-67c-4 0 -5 1 -5 6v13c0 8 5 20 24 20h48c0 122 27 193 100 233c22 12 47 19 75 19
c80 0 125 -29 140 -51c4 7 9 14 14 20c25 32 63 48 94 48c40 0 72 -9 93 -24s31 -32 31 -48c0 -21 -15 -36 -35 -36c-21 0 -33 11 -41 28c-13 29 -27 46 -57 46c-16 0 -35 -14 -43 -38c-8 -23 -11 -73 -11 -140v-57h116c5 0 8 -2 8 -6v-20c0 -9 -14 -13 -25 -13h-99v-268z
" />
    <glyph glyph-name="Q_u.sc" unicode="Q&#xe065;" horiz-adv-x="1289" 
d="M572 -122c90 -35 141 -49 217 -49c50 0 130 22 196 59l17 -18c-63 -59 -164 -96 -268 -96c-84 0 -156 15 -231 46c-118 48 -176 67 -245 67c-9.3 0 -30 -5.4 -49.2 -20.3c-11 -12.6 -21.2 -25.9 -30.8 -39.7l-40 20c29 40 69 80 116 114c16.1 11.8 33.4 22.6 51.2 31.9
c-149.6 19.6 -268.2 137.7 -268.2 317.1c0 193.9 113.3 348 307 348c179 0 322 -122 322 -329c0 -84 -22 -156.3 -61.8 -213c-45.7 -65.1 -114.6 -109.1 -200.3 -122c-34.2 -9.3 -79.3 -30.4 -120.9 -60c-3.29999 -2.3 -6.60001 -4.7 -9.79999 -7.1
c9.69998 1.3 19.9 2.1 30.8 2.1c30 0 140 -1 268 -51zM1140 338c0 83 -11 87 -72 91c-6 6 -6 27 0 33c30 -1 65 -2 95 -2s66 1 96 2c6 -6 6 -27 0 -33c-61 -5 -72 -8 -72 -91v-114c0 -146 -41 -234 -196 -234c-109.5 0 -182 41 -182 191v157c0 83 -11 87 -72 91
c-6 6 -6 27 0 33c36 -1 75.4 -2 111 -2c32.5 0 73 1 112 2c6 -6 6 -27 0 -33c-61 -5 -72 -8 -72 -91v-136c0 -93 21 -171 120 -171c132 0 132 94 132 180v127zM331 622c-99 0 -198 -85 -198 -295c0 -192 115 -301 237 -301c114 0 200 105 200 284c0 202 -107 312 -239 312z
" />
    <glyph glyph-name="q.sc_u.sc" unicode="&#xe061;&#xe065;" horiz-adv-x="1101" 
d="M956 338c0 83 -11 87 -72 91c-3 3 -4.5 9.70001 -4.5 16.5s1.5 13.5 4.5 16.5c30 -1 65 -2 95 -2s66 1 96 2c3 -3 4.5 -9.70001 4.5 -16.5s-1.5 -13.5 -4.5 -16.5c-61 -5 -72 -8 -72 -91v-114c0 -146 -68 -234 -223 -234c-85 0 -155 41 -155 191v157c0 83 -11 87 -72 91
c-3 3 -4.5 9.70001 -4.5 16.5s1.5 13.5 4.5 16.5c43 -1 68 -2 111 -2c44 0 70 1 112 2c3 -3 4.5 -9.70001 4.5 -16.5s-1.5 -13.5 -4.5 -16.5c-61 -5 -72 -8 -72 -91v-136c0 -93 13 -179 120 -179c132 0 132 102 132 188v127zM212 -86c-12 0 -43 -10 -59 -47l-31 15
c25.2 35.9 75.4 78.9 130.5 108.8c-124.3 9.6 -216.5 102.5 -216.5 231.2c0 147 107 248 246 248c130 0 244 -93 244 -235c0 -111.8 -65 -212.5 -187.5 -238.5c-26.5 -8.2 -70.6 -23.3 -107.6 -48.1c1.3 0.199997 4.10001 0.299999 8 0.299999c14.7 0 44.4 -1.6 60.1 -5.7
c152.9 -40 142.8 -68.7 247.8 -68.7c90.3 0 212.4 47.5 250.2 73.7l12.5 -9.5c-37.6 -39.5 -176.9 -97.5 -301.8 -97.5c-136.8 0 -214.5 73 -295.7 73zM273 437c-75 0 -150 -68 -150 -203c0 -123 69 -211 166 -211c89 0 150 75 150 198c0 134 -77 216 -166 216z" />
    <glyph glyph-name="exclam" unicode="!" horiz-adv-x="288" 
d="M144 658c24 0 53 -19 53 -73c0 -65 -14 -107 -24 -193c-13 -108 -13 -168 -15 -182c-1 -11 -4 -20 -14 -20s-13 7 -14 13c-2 21 -8 111 -16 189c-9 88 -23 123 -23 193c0 54 29 73 53 73zM91 43c0 29 24 53 53 53s53 -24 53 -53s-24 -53 -53 -53s-53 24 -53 53z" />
    <glyph glyph-name="quotedbl" unicode="&#x22;" horiz-adv-x="336" 
d="M215 427c0 0 -26 159 -26 168c0 22 21 50 51 50c26 0 35 -17 35 -33s-33 -181 -33 -181zM89 426c0 0 -26 159 -26 168c0 22 21 50 51 50c26 0 35 -17 35 -33s-33 -181 -33 -181z" />
    <glyph glyph-name="numbersign" unicode="#" horiz-adv-x="465" 
d="M279 245l18 115h-113l-19 -115h114zM335 360l-19 -115h95l-7 -53h-94l-30 -178h-38l27 178h-112l-29 -178h-37l28 178h-93l8 53h94l18 115h-93l8 53h93l29 179h38l-30 -179h114l28 179h38l-29 -179h96l-8 -53h-95z" />
    <glyph glyph-name="dollar" unicode="$" horiz-adv-x="465" 
d="M207.1 366.7l11.6 211.3c-54.4 -0.799988 -100.7 -50.4 -100.7 -102c0 -53.7 43.9 -87 89.1 -109.3zM238.3 267.6l-13.4 -243.6c72.8 0.700001 114.1 40.7 114.1 115c0 78.4 -50.5 108.2 -100.7 128.6zM371 585c10 -49 14 -75 17 -120c-8 -7 -20 -6 -31 -6
c-16.3 52.2 -39.1 102.3 -101.8 115.6l-12.3 -223.7c18.3 -7.29999 34.8 -13 46.1 -17.9c67 -29 128 -73 128 -162c0 -59 -34 -117 -87 -150c-29.9 -18.7 -67.8 -28.7 -106.9 -29.9l-4.60001 -84.3c-7.3 -4.2 -26.9 -5.10001 -36.9 -5.10001l4.89999 90.2
c-61.3 4 -86.8 20.1 -138.5 20.1c-11 46 -15 69 -19 141c9 5 19 7 30 3c18.1 -80 62.1 -120.1 129.4 -129.7l14 255.1c-5.7 2.20001 -11.2 4.39999 -16.4 6.60001c-72 31 -135 76 -135 163c0 96.3 78.6 155.8 169.4 158.9l4.40001 79.6c9.2 3.5 24.2 5 37 5l-4.69998 -85.2
c62.3 -3.39996 66.4 -18.1 113.9 -24.3z" />
    <glyph glyph-name="percent" unicode="%" horiz-adv-x="637" 
d="M433 83c0 -52 25 -64 44 -64c55 0 88 89 88 145c0 52 -28 61 -42 61c-49 0 -90 -84 -90 -142zM378 98c0 82 60 158 134 158c40 0 86 -18 86 -91c0 -67 -44 -177 -127 -177c-61 0 -93 57 -93 110zM364 521c42 0 119 12 150 54l32 -16l-410 -571l-34 15l359 500
c-38 -15 -77 -19 -107 -19c-23 0 -61 10 -80 21c2 -7 3 -16 3 -25c0 -64 -44 -177 -128 -177c-62 0 -92 58 -92 109c0 88.1 61 159 133 159c28 0 57 -13 67 -25c54 -25 89 -25 107 -25zM111 398c0 -52 26 -64 44 -64c55 0 89 87 89 145c0 50 -25 61 -43 61
c-49 0 -90 -84 -90 -142z" />
    <glyph glyph-name="parenleft" unicode="(" horiz-adv-x="298" 
d="M44 252c0 186 93 353 212 455c11.4 -0.799988 17.6 -7.70001 21 -18c-32 -36 -150 -174 -150 -437s117 -401 150 -439c-3 -8 -11 -15 -21 -17c-208 180 -212 411 -212 456z" />
    <glyph glyph-name="parenright" unicode=")" horiz-adv-x="298" 
d="M254 252c0 -186 -93 -353 -212 -455c-11.4 0.800003 -17.6 7.7 -21 18c32 36 150 174 150 437s-117 401 -150 439c3 8 11 15 21 17c208 -180 212 -411 212 -456z" />
    <glyph glyph-name="asterisk" unicode="*" horiz-adv-x="369" 
d="M168 547c-13 3 -27 4 -42 4c-49 0 -81 7 -81 37c0 14 9 30 33 30c34 0 52 -33 96 -51c-4 39 -23 66 -23 92c0 21 12 39 30 39s33 -11 33 -35c0 -27 -17 -67 -19 -97c46 20 62 52 95 52c27 0 34 -20 34 -30c0 -30 -35 -37 -69 -37c-19 0 -37 -1 -55 -4
c34 -37 83 -47 83 -87c0 -18 -15 -29 -29 -29c-39 0 -46 65 -71 104c-25 -45 -32 -104 -70 -104c-17 0 -29 13 -29 28c0 43 51 51 84 88z" />
    <glyph glyph-name="plus" unicode="+" horiz-adv-x="550" 
d="M250 435c0 13 23 27 33 27c8 0 17 -4 17 -14v-172h176c10 0 14 -9 14 -17c0 -10 -14 -33 -27 -33h-163v-160c0 -12 -19 -25 -34 -25c-8 0 -16 6 -16 15v170h-175c-9 0 -15 8 -15 16c0 15 13 34 25 34h165v159z" />
    <glyph glyph-name="slash" unicode="/" horiz-adv-x="323" 
d="M293 646l-237 -705h-41l237 705h41z" />
    <glyph glyph-name="one" unicode="1" horiz-adv-x="465" 
d="M288 122c0 -83 17 -88 87 -91c6 -6 6 -27 0 -33c-50 1 -74.4 2 -122 2c-54.2 0 -90 -1 -139 -2c-6 6 -6 27 0 33c70 3 97 8 97 91v326c0 34 -3.5 58 -20 58c-19 0 -41.5 -6 -87 -25c-9 6.10001 -13.4 15.6 -15 27c88 41 140.7 65.7 196 100c3.5 0 6 -0.200012 6 -5
c-1.70001 -13 -3 -74 -3 -134v-347z" />
    <glyph glyph-name="two" unicode="2" horiz-adv-x="465" 
d="M61 468c0 60 69 142 180 142c81 0 169 -44 169 -152c0 -76 -43 -120 -100 -175l-101 -97c-5 -5 -74 -73 -74 -121h178c36 0 53 25 70 96c10 2 23 0 29 -5c-1 -30 -11 -105 -24 -158c0 0 -46 2 -78 2h-175c-32 0 -83 -2 -83 -2c0 59 16 107 114 207l74 73
c59 60 82 112 82 176c0 96 -51 121 -87 121c-73 0 -99 -36 -99 -61c0 -8 6 -17 8 -24s4 -13 4 -21c0 -22.1 -30 -40 -47 -40c-21 0 -40 18 -40 39z" />
    <glyph glyph-name="three" unicode="3" horiz-adv-x="465" 
d="M215 575c-26 0 -95 -12 -95 -76c0 -19 -4 -52 -39 -52c-24 0 -34 20 -34 34c0 33 42 129 189 129c52.3 0 87.2 -16.9 109 -39c24.3 -24.6 31.3 -49.1 31.3 -79.1c0 -52.7 -23 -94.3 -105.3 -132.9l1 -2c59 -10 141 -49 141 -158c0 -132 -106 -209 -225 -209
c-60 0 -144 27 -144 67c0 16 21 35 42 35c20 0 33 -12 43 -26c12 -18 21 -41 72 -41c35 0 124 27 124 160c0 113 -74 129 -131 129c-13 0 -31 0 -48 -2l-5 32c99.1 14.1 157.1 90.5 157.1 140.7c0 64.3 -39.9 90.3 -83.1 90.3z" />
    <glyph glyph-name="four" unicode="4" horiz-adv-x="465" 
d="M271 507c-69 -94.2 -139.7 -205.8 -191 -288h191v288zM430 219c11 0 15 -6 15 -16c0 -12 -15 -31 -29 -31h-69v-92c0 -47 21 -45 70 -49c6 -6 6 -27 0 -33c-32 1 -69.6 2 -109 2c-46 0 -86 -1 -118 -2c-6 6 -6 27 0 33c43 3 81 3 81 49v92h-204c-30 0 -36 27 -39 42
c91.5 143 208 307.5 271 385c3.70001 4.5 9 11 16 11h32l2 -2c-1.70001 -7.79999 -2 -47 -2 -97v-292h83z" />
    <glyph glyph-name="five" unicode="5" horiz-adv-x="465" 
d="M319 189c0 109 -51 152 -116 152c-36 0 -74 -4 -127 -24l34 288c35 -3 71 -5 108 -5c53 0 107 5 164 11l7 -4l-16 -68c-41 -4 -75 -6 -105 -6c-48 0 -80 5 -117 9l-20 -167c18 7 55 16 98 16c112 0 179 -87 179 -184c0 -126 -88 -218 -212 -218c-57 0 -142 34 -142 75
c0 20 19 37 38 37c21 0 38 -15 51 -32c15 -20 28 -45 66 -45c60 0 110 70 110 165z" />
    <glyph glyph-name="six" unicode="6" horiz-adv-x="465" 
d="M135.2 307c-5.89999 -28.8 -8.2 -55.5 -8.2 -78c0 -171 57 -205 120 -205c49 0 91 50 91 160c0 50 -22 146 -120 146c-17.4 0 -50 -1.39999 -82.8 -23zM144.3 343.3c29.8 13.7 68.7 21.7 94.7 21.7c136 0 182 -77 182 -163s-54 -213 -185 -213c-77 0 -192 40 -192 243
c0 79 31 170 93 242c56 65 118 107 219 137c8 -5 12 -14 12 -26c-133 -49.8 -196.6 -150.8 -223.7 -241.7z" />
    <glyph glyph-name="seven" unicode="7" horiz-adv-x="465" 
d="M170 535c-32 0 -65 -7 -87 -87c-11 -1.29999 -21.1 -0.100006 -32 3c8 52 19 112 20 160c0 3 1 3 4 3c18 -4 16 -14 50 -14h206c38 0 60 6 77 11l16 -12c-112 -273 -167 -439 -224 -609l-68 -3l-8 7c68 152 147 347 225 541h-179z" />
    <glyph glyph-name="nine" unicode="9" horiz-adv-x="465" 
d="M335.8 292c5.90002 28.8 8.20001 55.5 8.20001 78c0 171 -57 205 -120 205c-49 0 -91 -50 -91 -160c0 -50 22 -146 120 -146c17.4 0 50 1.39999 82.8 23zM326.7 255.7c-29.8 -13.7 -68.7 -21.7 -94.7 -21.7c-136 0 -182 77 -182 163s54 213 185 213
c77 0 192 -40 192 -243c0 -79 -31 -170 -93 -242c-56 -65 -118 -107 -219 -137c-8 5 -12 14 -12 26c133 49.8 196.6 150.8 223.7 241.7z" />
    <glyph glyph-name="colon" unicode=":" horiz-adv-x="236" 
d="M70 355c0 29 24 53 53 53s53 -24 53 -53s-24 -53 -53 -53s-53 24 -53 53zM70 72c0 29 24 53 53 53s53 -24 53 -53s-24 -53 -53 -53s-53 24 -53 53z" />
    <glyph glyph-name="less" unicode="&#x3c;" horiz-adv-x="550" 
d="M138 239l317 -116c13 -14 14 -44 0 -50l-390 142c-9.3 14.7 -9.3 30.7 0 48l390 141c14 -6 13 -36 0 -50z" />
    <glyph glyph-name="equal" unicode="=" horiz-adv-x="550" 
d="M464 309h-389c-9 0 -15 8 -15 16c0 15 13 34 25 34h392c10 0 14 -9 14 -17c0 -10 -14 -33 -27 -33zM464 143h-389c-9 0 -15 8 -15 16c0 15 13 34 25 34h392c10 0 14 -9 14 -17c0 -10 -14 -33 -27 -33z" />
    <glyph glyph-name="greater" unicode="&#x3e;" horiz-adv-x="550" 
d="M412 236l-317 116c-13 14 -14 44 0 50l390 -142c9.29999 -14.7 9.29999 -30.7 0 -48l-390 -141c-14 6 -13 36 0 50z" />
    <glyph glyph-name="question" unicode="?" horiz-adv-x="435" 
d="M114 572c0 -15 2 -21 6 -26s6 -11 6 -24c0 -23 -20 -35 -39 -35c-16 0 -41 8 -41 43c0 38 21 66 51 90c29 25 71 39 124 39c102 0 168 -60 168 -151c0 -79 -62 -123 -109 -157c-23 -17 -43 -33 -52 -50c-13 -25 -14 -49 -14 -73v-44c0 -7 -9 -10 -17 -10s-16 3 -16 10v46
c0 43 5 102 70 161c40 37 55 66 55 113c0 65 -38 122 -95 122s-97 -24 -97 -54zM144 43c0 29 24 53 53 53s53 -24 53 -53s-24 -53 -53 -53s-53 24 -53 53z" />
    <glyph glyph-name="at" unicode="@" horiz-adv-x="895" 
d="M569 316c0 38 -29 63 -65 63c-17 0 -60 -9 -90 -40c-51 -51 -68 -115 -68 -177c0 -48 15 -92 78 -92c35 0 84 57 115 130c13 31 30 82 30 116zM583 74c0 -10 9 -12 11 -12c102 0 165 47 165 213c0 206 -175 305 -300 305c-152 0 -320 -102 -320 -339
c0 -150 76 -366 334 -366c85 0 147 23 201 66l13 -18c-60 -46 -120 -81 -233 -81c-239 0 -395 168 -395 381c0 215 185 388 410 388c215 0 370 -142 370 -329c0 -114 -70 -255 -288 -255c-29 0 -36 25 -36 41c0 15 7 38 15 63l-2 1c-44 -74 -98 -103 -133 -103
c-100 0 -122 84 -122 124c0 143 127 257 233 257c33 0 67 -17 77 -43l5 24l53 13l15 -5l-60 -258c-6 -27 -13 -60.5 -13 -67z" />
    <glyph glyph-name="A" unicode="A" horiz-adv-x="695" 
d="M263 283h177l-94 272h-6l-102.2 -258.7c-3.8 -10.3 3.2 -13.3 25.2 -13.3zM155 79c-15.6 -41.1 31.4 -45.4 69 -48c6 -6 6 -27 0 -33c-37 1 -87 2 -128 2c-30.3 0 -63 -1 -89 -2c-6 6 -6 27 0 33c43.5 3 74 9 100 71l227 536c13 0 40 11 55 20l206 -572
c17.4 -48.2 51.2 -51.5 90 -55c6 -6 6 -27 0 -33c-35 1 -73 2 -114 2c-39 0 -94 -1 -131 -2c-6 6 -6 27 0 33c47.6 3.4 85.8 6.5 74 41l-58 169h-211c-24 0 -30 -4 -35 -17z" />
    <glyph glyph-name="B" unicode="B" horiz-adv-x="588" 
d="M191 550v-184h74c83 0 142 30 142 115c0 102 -73 132 -129 132c-87 0 -87 -10 -87 -63zM191 332v-214c0 -61 13 -87 83 -87c152 0 180 61 180 134c0 90 -57 167 -194 167h-69zM148 645c36 0 90 2 125 2c186 0 215 -87 215 -154c0 -54.3 -44.9 -105.6 -95 -131v-2
c87 -25 154 -80 154 -176c0 -86 -53 -186 -252 -186c-84 0 -110.3 2 -146 2c-37.1 0 -91 -1 -130 -2c-6 6 -6 27 0 33c70 3 87 8 87 91v401c0 83 -17 88 -87 91c-6 6 -6 27 0 33c39 -1 93.3 -2 129 -2z" />
    <glyph glyph-name="C" unicode="C" horiz-adv-x="646" 
d="M357 -10c-215 0 -320 146.2 -320 320c0 104.3 39.6 202.2 106 263c59 54 130 85 215 85c123 0 168 -40 219 -45c10 -55 17 -103 22 -155c-11.3 -6 -21 -9 -33 -5c-26 86 -81 168 -219 168c-52 0 -110 -28 -159.6 -89c-36.5 -44.9 -59.4 -116.7 -59.4 -203
c0 -146 93.4 -298 228 -298c93 0 161 31 232 109c11 0 18 -6 23 -15c-68 -89 -157 -135 -254 -135z" />
    <glyph glyph-name="D" unicode="D" horiz-adv-x="701" 
d="M191 84c0 -32 11 -52 109 -52c141 0 262 50 262 252c0 154 -71 329 -287 329c-49 0 -84 -14 -84 -49v-480zM148 645c39 0 94 2 165 2c192 0 345 -153 345 -339c0 -246 -186 -310 -327 -310c-103 0 -145 2 -182 2c-37.7 0 -91 -1 -130 -2c-6 6 -6 27 0 33c70 3 87 8 87 91
v401c0 83 -17 88 -87 91c-6 6 -6 27 0 33c40 -1 93.3 -2 129 -2z" />
    <glyph glyph-name="E" unicode="E" horiz-adv-x="557" 
d="M281 361c85 0 88 13 91 68c6 6 27 6 33 0c-1 -24 -2 -58 -2 -86c0 -34.3 1 -62 2 -88c-6 -6 -27 -6 -33 0c-3 45 -6 68 -91 68h-91v-221c0 -47 14 -63 56 -63h116c76 0 111 59 131 131c13.1 3.2 24.6 0.899994 35 -5c-8 -51 -23 -117 -37 -167c0 0 -80 2 -128 2h-215
c-33 0 -93 -1 -130 -2c-6 6 -6 27 0 33c70 3 87 8 87 91v401c0 83 -17 88 -87 91c-6 6 -6 27 0 33c40 -1 98.5 -2 129 -2h255c24 0 32 1 49 4c3 0 4 -1 4 -3c2 -8 17 -104 22 -145c-9.79999 -4.70001 -20.6 -6.79999 -33 -5c-22 69 -38 109 -113 109h-75
c-54 0 -66 -20 -66 -64v-180h91z" />
    <glyph glyph-name="F" unicode="F" horiz-adv-x="485" 
d="M283 323h-93v-201c0 -83 17 -88 87 -91c6 -6 6 -27 0 -33c-35 1 -84 2 -129 2s-95 -1 -130 -2c-6 6 -6 27 0 33c70 3 87 8 87 91v401c0 83 -17 88 -87 91c-6 6 -6 27 0 33c40 -1 97 -2 129 -2h255.3c24.7 0 29.5 0.599976 47 4c2.40002 0 3.60001 -0.700012 4 -3
c1.40002 -7.59998 16.5 -104 21.7 -145c-8 -3 -19 -5 -31 -5c-22 69 -47 109 -153 109h-45c-44 0 -56 -10 -56 -64v-180h93c85 0 88 13 91 68c6 6 27 6 33 0c-1 -26 -2 -52.5 -2 -86c0 -34.3 1 -63 2 -88c-6 -6 -27 -6 -33 0c-3 45 -6 68 -91 68z" />
    <glyph glyph-name="G" unicode="G" horiz-adv-x="685" 
d="M377 658c111 0 148 -35 208 -45c16 -72 20.5 -112 23 -154c-11.3 -4.70001 -21.7 -6.70001 -33 -6c-26 86 -67 169 -212 169c-116.5 0 -230 -120 -230 -295c0 -132 84 -301 242 -301c54 0 121 6 155 38v153c0 40.1 -27.1 43.8 -82 48c-6 6 -6 30 0 36
c44 -1 90.5 -2 124 -2c40 0 65 1 89 2c6 -6 6 -30 0 -36c-29 -3 -46 -12.8 -46 -48v-116c0 -11 5 -19 16 -28c-68 -58 -161 -83 -279 -83c-191 0 -315 137.2 -315 317c0 220 173 351 340 351z" />
    <glyph glyph-name="grave" unicode="`" horiz-adv-x="392" 
d="M178 699l70 -126c5 -10 6 -17 6 -24c0 -5 -7 -11 -15 -11c-6 0 -13 5 -29 20l-114 109l2 11c8 6 31 23 65 23c5 0 11 -1 15 -2z" />
    <glyph glyph-name="ograve" unicode="&#xf2;" horiz-adv-x="504" 
d="M224 671l70 -126c5 -10 6 -17 6 -24c0 -5 -7 -11 -15 -11c-6 0 -13 5 -29 20l-114 109l2 11c8 6 31 23 65 23c5 0 11 -1 15 -2zM41 205c0 63.2 19 121.4 55.3 164c36.6 43 90.9 70 156.7 70c153 0 210 -121 210 -225c0 -61.3 -20.3 -124.2 -65.1 -168
c-34.1 -33.3 -82.5 -56 -146.9 -56c-142 0 -210 113 -210 215zM238 404c-90 0 -111 -89 -111 -176c0 -77 34 -203 138 -203c47 0 112 31 112 157c0 144 -53 222 -139 222z" />
    <glyph glyph-name="oacute" unicode="&#xf3;" horiz-adv-x="504" 
d="M270 671c3 1 9 2 14 2c6.39999 0 32 -1 55 -23l3 -11l-115 -109c-15 -15 -23 -19 -30 -19s-14 6 -14 13c0 11.2 3.3 15.2 11.4 28zM41 205c0 63.2 19 121.4 55.3 164c36.6 43 90.9 70 156.7 70c153 0 210 -121 210 -225c0 -61.3 -20.3 -124.2 -65.1 -168
c-34.1 -33.3 -82.5 -56 -146.9 -56c-142 0 -210 113 -210 215zM238 404c-90 0 -111 -89 -111 -176c0 -77 34 -203 138 -203c47 0 112 31 112 157c0 144 -53 222 -139 222z" />
    <glyph glyph-name="ocircumflex" unicode="&#xf4;" horiz-adv-x="504" 
d="M268 660c29 -47 73 -100 109 -140c-5 -7 -13.6 -15.1 -23 -17c-38 24 -73 52 -103 83c-32 -32 -65 -61 -104 -83c-9 2 -16 8 -22 17c36 40 82 94 111 140c10.7 2.29999 21.3 3 32 0zM41 205c0 63.2 19 121.4 55.3 164c36.6 43 90.9 70 156.7 70c153 0 210 -121 210 -225
c0 -61.3 -20.3 -124.2 -65.1 -168c-34.1 -33.3 -82.5 -56 -146.9 -56c-142 0 -210 113 -210 215zM238 404c-90 0 -111 -89 -111 -176c0 -77 34 -203 138 -203c47 0 112 31 112 157c0 144 -53 222 -139 222z" />
    <glyph glyph-name="otilde" unicode="&#xf5;" horiz-adv-x="504" 
d="M304 573c22 0 33 10 47 52c11 1 21 -2 27 -6c-12 -60 -41 -99 -87 -99c-22 0 -43 18 -64 32c-18 11 -37 19 -54 19c-26 0 -36 -15 -46 -48c-11 -2 -21 -1 -27 5c14 59 37 98 80 98c30 0 52 -20 72 -34c16 -12 33 -19 52 -19zM41 205c0 63.2 19 121.4 55.3 164
c36.6 43 90.9 70 156.7 70c153 0 210 -121 210 -225c0 -61.3 -20.3 -124.2 -65.1 -168c-34.1 -33.3 -82.5 -56 -146.9 -56c-142 0 -210 113 -210 215zM238 404c-90 0 -111 -89 -111 -176c0 -77 34 -203 138 -203c47 0 112 31 112 157c0 144 -53 222 -139 222z" />
    <glyph glyph-name="odieresis" unicode="&#xf6;" horiz-adv-x="504" 
d="M121 575c0 26 21 48 47 48s47 -22 47 -48s-21 -47 -47 -47s-47 21 -47 47zM290 575c0 26 21 48 47 48s47 -22 47 -48s-21 -47 -47 -47s-47 21 -47 47zM41 205c0 63.2 19 121.4 55.3 164c36.6 43 90.9 70 156.7 70c153 0 210 -121 210 -225
c0 -61.3 -20.3 -124.2 -65.1 -168c-34.1 -33.3 -82.5 -56 -146.9 -56c-142 0 -210 113 -210 215zM238 404c-90 0 -111 -89 -111 -176c0 -77 34 -203 138 -203c47 0 112 31 112 157c0 144 -53 222 -139 222z" />
    <glyph glyph-name="divide" unicode="&#xf7;" horiz-adv-x="550" 
d="M225.8 387c0 24.3 20.1 44.4 44.4 44.4c24.3 0 44.4 -20.1 44.4 -44.4s-20.1 -44.4 -44.4 -44.4c-24.3 0 -44.4 20.1 -44.4 44.4zM225.8 119c0 24.3 20.1 44.4 44.4 44.4c24.3 0 44.4 -20.1 44.4 -44.4s-20.1 -44.4 -44.4 -44.4c-24.3 0 -44.4 20.1 -44.4 44.4zM463 226
h-388c-9 0 -15 8 -15 16c0 15 13 34 25 34h391c10 0 14 -9 14 -17c0 -10 -14 -33 -27 -33z" />
    <glyph glyph-name="ugrave" unicode="&#xf9;" horiz-adv-x="531" 
d="M219 671l70 -126c5 -10 6 -17 6 -24c0 -5 -7 -11 -15 -11c-6 0 -13 5 -29 20l-114 109l2 11c8 6 31 23 65 23c5 0 11 -1 15 -2zM217 -10c-99 0 -129 67 -129 136v192c0 65 -14 76 -62 80c-6 6 -6 27 0 33c34 -1 70 -2 102 -2c15 0 30 1 35 2c5 0 8 -3 8 -6
c0 0 -4 -73 -4 -103v-182c0 -89 50 -103 80 -103c25 0 63 16 100 48c14 12 16 20 16 39v193c0 66 -13 78 -62 81c-6 6 -6 27 0 33c34 -1 70 -2 102 -2c15 0 30 1 35 2c5 0 8 -3 8 -6c0 0 -4 -73 -4 -103v-192c0 -49 9 -68 73 -73c6 -6 6 -21 0 -27c-61 -7 -96 -22 -118 -40
c-6.5 -2.5 -11 -3 -19 0c0 0 -8.5 33.5 -11 59c-0.700012 7 -10 5 -15 1c-49 -40 -96 -60 -135 -60z" />
    <glyph glyph-name="uacute" unicode="&#xfa;" horiz-adv-x="531" 
d="M297 671c3 1 9 2 14 2c6.39999 0 32 -1 55 -23l3 -11l-115 -109c-15 -15 -23 -19 -30 -19s-14 6 -14 13c0 11.2 3.3 15.2 11.4 28zM217 -10c-99 0 -129 67 -129 136v192c0 65 -14 76 -62 80c-6 6 -6 27 0 33c34 -1 70 -2 102 -2c15 0 30 1 35 2c5 0 8 -3 8 -6
c0 0 -4 -73 -4 -103v-182c0 -89 50 -103 80 -103c25 0 63 16 100 48c14 12 16 20 16 39v193c0 66 -13 78 -62 81c-6 6 -6 27 0 33c34 -1 70 -2 102 -2c15 0 30 1 35 2c5 0 8 -3 8 -6c0 0 -4 -73 -4 -103v-192c0 -49 9 -68 73 -73c6 -6 6 -21 0 -27c-61 -7 -96 -22 -118 -40
c-6.5 -2.5 -11 -3 -19 0c0 0 -8.5 33.5 -11 59c-0.700012 7 -10 5 -15 1c-49 -40 -96 -60 -135 -60z" />
    <glyph glyph-name="ucircumflex" unicode="&#xfb;" horiz-adv-x="531" 
d="M263 660c29 -47 73 -100 109 -140c-5 -7 -13.6 -15.1 -23 -17c-38 24 -73 52 -103 83c-32 -32 -65 -61 -104 -83c-9 2 -16 8 -22 17c36 40 82 94 111 140c10.7 2.29999 21.3 3 32 0zM217 -10c-99 0 -129 67 -129 136v192c0 65 -14 76 -62 80c-6 6 -6 27 0 33
c34 -1 70 -2 102 -2c15 0 30 1 35 2c5 0 8 -3 8 -6c0 0 -4 -73 -4 -103v-182c0 -89 50 -103 80 -103c25 0 63 16 100 48c14 12 16 20 16 39v193c0 66 -13 78 -62 81c-6 6 -6 27 0 33c34 -1 70 -2 102 -2c15 0 30 1 35 2c5 0 8 -3 8 -6c0 0 -4 -73 -4 -103v-192
c0 -49 9 -68 73 -73c6 -6 6 -21 0 -27c-61 -7 -96 -22 -118 -40c-6.5 -2.5 -11 -3 -19 0c0 0 -8.5 33.5 -11 59c-0.700012 7 -10 5 -15 1c-49 -40 -96 -60 -135 -60z" />
    <glyph glyph-name="ebreve" unicode="&#x115;" horiz-adv-x="447" 
d="M120 648c11 -53 54 -90 108 -90c52 0 98 32 108 90l27 -12c-12 -86 -76 -135 -135 -135c-70 0 -121 50 -135 135zM124 282l181 3c11 0.200012 15 5 15 14c0 84 -45 105 -83 105c-24 0 -94 -9 -113 -122zM386 93c12 -1 18 -6 21 -16c-40 -52 -94 -87 -170 -87
c-72 0 -119 24 -153 64c-33 38 -47 92 -47 148c0 152 113 235 200 235c139 0 169 -90 169 -174c0 -11 -7 -17 -19 -17l-266 2c0 -58 12 -104 32 -137c31 -51 73 -72 109 -72c58 0 87 16 124 54z" />
    <glyph glyph-name="Edotaccent" unicode="&#x116;" horiz-adv-x="557" 
d="M218 753c0 28 24 52 52 52s52 -24 52 -52s-24 -52 -52 -52s-52 24 -52 52zM281 361c85 0 88 13 91 68c6 6 27 6 33 0c-1 -24 -2 -58 -2 -86c0 -34.3 1 -62 2 -88c-6 -6 -27 -6 -33 0c-3 45 -6 68 -91 68h-91v-221c0 -47 14 -63 56 -63h116c76 0 111 59 131 131
c13.1 3.2 24.6 1 35 -5c-8 -51 -23 -117 -37 -167c0 0 -80 2 -128 2h-215c-33 0 -93 -1 -130 -2c-6 6 -6 27 0 33c70 3 87 8 87 91v401c0 83 -17 88 -87 91c-6 6 -6 27 0 33c40 -1 98.5 -2 129 -2h255c24 0 32 1 49 4c3 0 4 -1 4 -3c2 -8 17 -104 22 -145
c-9.79999 -4.70001 -20.6 -6.79999 -33 -5c-22 69 -38 109 -113 109h-75c-54 0 -66 -20 -66 -64v-180h91z" />
    <glyph glyph-name="edotaccent" unicode="&#x117;" horiz-adv-x="447" 
d="M180 599c0 24 28 48 52 48c27 0 48 -28 48 -52c0 -21.1 -24 -48 -52 -48c-24 0 -48 26 -48 52zM124 282l181 3c11 0.200012 15 5 15 14c0 84 -45 105 -83 105c-24 0 -94 -9 -113 -122zM386 93c12 -1 18 -6 21 -16c-40 -52 -94 -87 -170 -87c-72 0 -119 24 -153 64
c-33 38 -47 92 -47 148c0 152 113 235 200 235c139 0 169 -90 169 -174c0 -11 -7 -17 -19 -17l-266 2c0 -58 12 -104 32 -137c31 -51 73 -72 109 -72c58 0 87 16 124 54z" />
    <glyph glyph-name="Eogonek" unicode="&#x118;" horiz-adv-x="557" 
d="M498 -135c-29 -45 -69 -65 -110 -65c-50 0 -88 20 -88 74c0 41.4 35.6 98.8 95.9 125.8c-11.7 0.1 -23 0.2 -32.9 0.2h-215c-33 0 -93 -1 -130 -2c-6 6 -6 27 0 33c70 3 87 8 87 91v401c0 83 -17 88 -87 91c-6 6 -6 27 0 33c40 -1 98.5 -2 129 -2h255c24 0 32 1 49 4
c3 0 4 -1 4 -3c2 -8 17 -104 22 -145c-9.79999 -4.70001 -20.6 -6.79999 -33 -5c-22 69 -38 109 -113 109h-75c-54 0 -66 -20 -66 -64v-180h91c85 0 88 13 91 68c6 6 27 6 33 0c-1 -24 -2 -58 -2 -86c0 -34.3 1 -62 2 -88c-6 -6 -27 -6 -33 0c-3 45 -6 68 -91 68h-91v-221
c0 -47 14 -63 56 -63h116c76 0 111 59 131 131c13.1 3.2 24.6 1 35 -5c-8 -51 -23 -117 -37 -167c0 0 -3.39999 0.1 -9.20001 0.2l0.200012 -0.2c-71 0 -120 -67 -120 -113c0 -26 13 -47 50 -47c29 0 45 16 67 38c9 0 15 -4 19 -11z" />
    <glyph glyph-name="eogonek" unicode="&#x119;" horiz-adv-x="447" 
d="M373 -135c-29 -45 -69 -65 -110 -65c-50 0 -88 20 -88 74c0 41 34.4 79.9 84.2 117c-7.20001 -0.7 -14.6 -1 -22.2 -1c-72 0 -119 24 -153 64c-33 38 -47 92 -47 148c0 152 113 235 200 235c139 0 169 -90 169 -174c0 -11 -7 -17 -19 -17l-266 2c0 -58 12 -104 32 -137
c31 -51 73 -72 109 -72c58 0 87 16 124 54c12 -1 18 -6 21 -16c-21.5 -28 -47.1 -51 -77.9 -66.3c-63.1 -52.5 -92.1 -82.3 -92.1 -125.7c0 -26 13 -47 50 -47c29 0 45 16 67 38c9 0 15 -4 19 -11zM124 282l181 3c11 0.200012 15 5 15 14c0 84 -45 105 -83 105
c-24 0 -94 -9 -113 -122z" />
    <glyph glyph-name="Ecaron" unicode="&#x11a;" horiz-adv-x="557" 
d="M268 697c-30 37 -65 67 -101 95l16 20c39 -17 73 -36 106 -61c37 26 69 45 107 61l15 -20c-38 -29 -70 -61 -100 -95h-43zM281 361c85 0 88 13 91 68c6 6 27 6 33 0c-1 -24 -2 -58 -2 -86c0 -34.3 1 -62 2 -88c-6 -6 -27 -6 -33 0c-3 45 -6 68 -91 68h-91v-221
c0 -47 14 -63 56 -63h116c76 0 111 59 131 131c13.1 3.2 24.6 1 35 -5c-8 -51 -23 -117 -37 -167c0 0 -80 2 -128 2h-215c-33 0 -93 -1 -130 -2c-6 6 -6 27 0 33c70 3 87 8 87 91v401c0 83 -17 88 -87 91c-6 6 -6 27 0 33c40 -1 98.5 -2 129 -2h255c24 0 32 1 49 4
c3 0 4 -1 4 -3c2 -8 17 -104 22 -145c-9.79999 -4.70001 -20.6 -6.79999 -33 -5c-22 69 -38 109 -113 109h-75c-54 0 -66 -20 -66 -64v-180h91z" />
    <glyph glyph-name="ecaron" unicode="&#x11b;" horiz-adv-x="447" 
d="M199 501c-29 47 -66 92 -101 130l20 13c39 -29 72 -54 106 -90c37 38 71 63 108 90l19 -13c-35 -39 -73 -84 -102 -130h-50zM124 282l181 3c11 0.200012 15 5 15 14c0 84 -45 105 -83 105c-24 0 -94 -9 -113 -122zM386 93c12 -1 18 -6 21 -16c-40 -52 -94 -87 -170 -87
c-72 0 -119 24 -153 64c-33 38 -47 92 -47 148c0 152 113 235 200 235c139 0 169 -90 169 -174c0 -11 -7 -17 -19 -17l-266 2c0 -58 12 -104 32 -137c31 -51 73 -72 109 -72c58 0 87 16 124 54z" />
    <glyph glyph-name="Gcircumflex" unicode="&#x11c;" horiz-adv-x="685" 
d="M383 808c30 -36 67 -70 103 -97c-2.79999 -9.09998 -6.89999 -17.2 -16 -21c-39 18 -73 36 -106 61c-37 -27 -69 -44 -107 -61c-9 6 -12 12 -14 21c37 28 70 63 101 97c14 8.40002 23.6 7.70001 39 0zM377 658c111 0 148 -35 208 -45c16 -72 20.5 -112 23 -154
c-11.3 -4.70001 -21.7 -6.70001 -33 -6c-26 86 -67 169 -212 169c-116.5 0 -230 -120 -230 -295c0 -132 84 -301 242 -301c54 0 121 6 155 38v153c0 40.1 -27.1 43.8 -82 48c-6 6 -6 30 0 36c44 -1 90.5 -2 124 -2c40 0 65 1 89 2c6 -6 6 -30 0 -36
c-29 -3 -46 -12.8 -46 -48v-116c0 -11 5 -19 16 -28c-68 -58 -161 -83 -279 -83c-191 0 -315 137.2 -315 317c0 220 173 351 340 351z" />
    <glyph glyph-name="gcircumflex" unicode="&#x11d;" horiz-adv-x="500" 
d="M246 659c29 -47 73 -100 109 -140c-5 -7 -13.6 -15.1 -23 -17c-38 24 -73 52 -103 83c-32 -32 -65 -61 -104 -83c-9 2 -16 8 -22 17c36 40 82 94 111 140c10.7 2.29999 21.3 3 32 0zM319 279c0 83 -34 129 -97 129c-55 0 -80 -36 -80 -106c0 -64 9 -135 93 -135
c37 0 84 19 84 112zM132 -10c-29 -35 -31 -60 -31 -94c0 -68 84 -97 120 -97c90 0 196 38 196 110c0 26 -12 40 -51 62c-29 16 -71 17 -121 17c-14 0 -42 -3 -73 -3c-13 0 -29 2 -40 5zM444 387c-11 0 -24 10 -28 18c-6 9 -13 12 -20 12c-13 0 -33 -14 -40 -24
c29 -30 43 -57 43 -104c0 -98 -81 -153 -169 -153c-39 0 -67 7 -91 21c-12 -17 -18 -38 -18 -58c0 -43 35 -57 64 -57c5 0 15 1 30 2c24 3 49 5 67 5c37 0 107 -1 146 -33c29 -24 44 -49 44 -81c0 -108 -146 -173 -281 -173c-77 0 -159 27 -159 114c0 43 28 89 82 121
c-26 13 -46 41 -46 77c0 34 16 77 44 101c-28 27 -52 58 -52 112c0 92 82 152 171 152c59 0 92 -20 104 -28c26 34 74 51 100 51c27 0 46 -16 46 -37c0 -20 -18 -38 -37 -38z" />
    <glyph glyph-name="Gbreve" unicode="&#x11e;" horiz-adv-x="685" 
d="M488 806c-6 -71 -70 -113 -136 -113c-73 0 -131 43 -136 113h28c8 -39 55 -61 108 -61c49 0 101 22 108 61h28zM377 658c111 0 148 -35 208 -45c16 -72 20.5 -112 23 -154c-11.3 -4.70001 -21.7 -6.70001 -33 -6c-26 86 -67 169 -212 169c-116.5 0 -230 -120 -230 -295
c0 -132 84 -301 242 -301c54 0 121 6 155 38v153c0 40.1 -27.1 43.8 -82 48c-6 6 -6 30 0 36c44 -1 90.5 -2 124 -2c40 0 65 1 89 2c6 -6 6 -30 0 -36c-29 -3 -46 -12.8 -46 -48v-116c0 -11 5 -19 16 -28c-68 -58 -161 -83 -279 -83c-191 0 -315 137.2 -315 317
c0 220 173 351 340 351z" />
    <glyph glyph-name="gbreve" unicode="&#x11f;" horiz-adv-x="500" 
d="M112 644c11 -53 54 -90 108 -90c52 0 98 32 108 90l27 -12c-12 -86 -76 -135 -135 -135c-70 0 -121 50 -135 135zM319 279c0 83 -34 129 -97 129c-55 0 -80 -36 -80 -106c0 -64 9 -135 93 -135c37 0 84 19 84 112zM132 -10c-29 -35 -31 -60 -31 -94c0 -68 84 -97 120 -97
c90 0 196 38 196 110c0 26 -12 40 -51 62c-29 16 -71 17 -121 17c-14 0 -42 -3 -73 -3c-13 0 -29 2 -40 5zM444 387c-11 0 -24 10 -28 18c-6 9 -13 12 -20 12c-13 0 -33 -14 -40 -24c29 -30 43 -57 43 -104c0 -98 -81 -153 -169 -153c-39 0 -67 7 -91 21
c-12 -17 -18 -38 -18 -58c0 -43 35 -57 64 -57c5 0 15 1 30 2c24 3 49 5 67 5c37 0 107 -1 146 -33c29 -24 44 -49 44 -81c0 -108 -146 -173 -281 -173c-77 0 -159 27 -159 114c0 43 28 89 82 121c-26 13 -46 41 -46 77c0 34 16 77 44 101c-28 27 -52 58 -52 112
c0 92 82 152 171 152c59 0 92 -20 104 -28c26 34 74 51 100 51c27 0 46 -16 46 -37c0 -20 -18 -38 -37 -38z" />
    <glyph glyph-name="Gdotaccent" unicode="&#x120;" horiz-adv-x="685" 
d="M304 753c0 28 24 52 52 52s52 -24 52 -52s-24 -52 -52 -52s-52 24 -52 52zM377 658c111 0 148 -35 208 -45c16 -72 20.5 -112 23 -154c-11.3 -4.70001 -21.7 -6.70001 -33 -6c-26 86 -67 169 -212 169c-116.5 0 -230 -120 -230 -295c0 -132 84 -301 242 -301
c54 0 121 6 155 38v153c0 40.1 -27.1 43.8 -82 48c-6 6 -6 30 0 36c44 -1 90.5 -2 124 -2c40 0 65 1 89 2c6 -6 6 -30 0 -36c-29 -3 -46 -12.8 -46 -48v-116c0 -11 5 -19 16 -28c-68 -58 -161 -83 -279 -83c-191 0 -315 137.2 -315 317c0 220 173 351 340 351z" />
    <glyph glyph-name="gdotaccent" unicode="&#x121;" horiz-adv-x="500" 
d="M180 599c0 24 28 48 52 48c27 0 48 -28 48 -52c0 -21.1 -24 -48 -52 -48c-24 0 -48 26 -48 52zM319 279c0 83 -34 129 -97 129c-55 0 -80 -36 -80 -106c0 -64 9 -135 93 -135c37 0 84 19 84 112zM132 -10c-29 -35 -31 -60 -31 -94c0 -68 84 -97 120 -97
c90 0 196 38 196 110c0 26 -12 40 -51 62c-29 16 -71 17 -121 17c-14 0 -42 -3 -73 -3c-13 0 -29 2 -40 5zM444 387c-11 0 -24 10 -28 18c-6 9 -13 12 -20 12c-13 0 -33 -14 -40 -24c29 -30 43 -57 43 -104c0 -98 -81 -153 -169 -153c-39 0 -67 7 -91 21
c-12 -17 -18 -38 -18 -58c0 -43 35 -57 64 -57c5 0 15 1 30 2c24 3 49 5 67 5c37 0 107 -1 146 -33c29 -24 44 -49 44 -81c0 -108 -146 -173 -281 -173c-77 0 -159 27 -159 114c0 43 28 89 82 121c-26 13 -46 41 -46 77c0 34 16 77 44 101c-28 27 -52 58 -52 112
c0 92 82 152 171 152c59 0 92 -20 104 -28c26 34 74 51 100 51c27 0 46 -16 46 -37c0 -20 -18 -38 -37 -38z" />
    <glyph glyph-name="Gcommaaccent" unicode="&#x122;" horiz-adv-x="685" 
d="M375 -41c38 0 62 -34 62 -86c0 -60 -49 -90 -106 -99c-6 6 -8 15 -8 24c49 11 75 35 75 53c0 20 -13 24 -31 26c-17 3 -42 12 -42 39c0 24 21 43 50 43zM377 658c111 0 148 -35 208 -45c16 -72 20.5 -112 23 -154c-11.3 -4.70001 -21.7 -6.70001 -33 -6
c-26 86 -67 169 -212 169c-116.5 0 -230 -120 -230 -295c0 -132 84 -301 242 -301c54 0 121 6 155 38v153c0 40.1 -27.1 43.8 -82 48c-6 6 -6 30 0 36c44 -1 90.5 -2 124 -2c40 0 65 1 89 2c6 -6 6 -30 0 -36c-29 -3 -46 -12.8 -46 -48v-116c0 -11 5 -19 16 -28
c-68 -58 -161 -83 -279 -83c-191 0 -315 137.2 -315 317c0 220 173 351 340 351z" />
    <glyph glyph-name="gcommaaccent" unicode="&#x123;" horiz-adv-x="500" 
d="M228 511c-39 0 -62 37 -62 73c0 24 7 46 23 66c16.9 21.1 45 38 83 43c4 -4 5 -13 5 -20c-57 -12 -77 -44 -77 -67c0 -19.6 4.8 -13 29 -13c40 0 50 -24 50 -41c0 -16 -16 -41 -51 -41zM319 279c0 83 -34 129 -97 129c-55 0 -80 -36 -80 -106c0 -64 9 -135 93 -135
c37 0 84 19 84 112zM132 -10c-29 -35 -31 -60 -31 -94c0 -68 84 -97 120 -97c90 0 196 38 196 110c0 26 -12 40 -51 62c-29 16 -71 17 -121 17c-14 0 -42 -3 -73 -3c-13 0 -29 2 -40 5zM444 387c-11 0 -24 10 -28 18c-6 9 -13 12 -20 12c-13 0 -33 -14 -40 -24
c29 -30 43 -57 43 -104c0 -98 -81 -153 -169 -153c-39 0 -67 7 -91 21c-12 -17 -18 -38 -18 -58c0 -43 35 -57 64 -57c5 0 15 1 30 2c24 3 49 5 67 5c37 0 107 -1 146 -33c29 -24 44 -49 44 -81c0 -108 -146 -173 -281 -173c-77 0 -159 27 -159 114c0 43 28 89 82 121
c-26 13 -46 41 -46 77c0 34 16 77 44 101c-28 27 -52 58 -52 112c0 92 82 152 171 152c59 0 92 -20 104 -28c26 34 74 51 100 51c27 0 46 -16 46 -37c0 -20 -18 -38 -37 -38z" />
    <glyph glyph-name="Hcircumflex" unicode="&#x124;" horiz-adv-x="730" 
d="M618 122c0 -83 17 -88 87 -91c6 -6 6 -27 0 -33c-44 1 -91.7 2 -129 2c-37.1 0 -85 -1 -130 -2c-6 6 -6 27 0 33c70 3 87 8 87 91v199h-342v-199c0 -83 17 -88 87 -91c6 -6 6 -27 0 -33c-44 1 -92.7 2 -129 2c-37.7 0 -86 -1 -130 -2c-6 6 -6 27 0 33c70 3 87 8 87 91
v401c0 83 -17 88 -87 91c-6 6 -6 27 0 33c38 -1 79 -2 129 -2c51 0 92 1 130 2c6 -6 6 -27 0 -33c-70 -3 -87 -8 -87 -91v-160h342v160c0 83 -17 88 -87 91c-6 6 -6 27 0 33c44 -1 91.7 -2 129 -2c38 0 89 1 130 2c6 -6 6 -27 0 -33c-70 -3 -87 -8 -87 -91v-401zM386 806
c30 -36 67 -70 103 -97c-2.79999 -9.09998 -6.89999 -17.2 -16 -21c-39 18 -73 36 -106 61c-37 -27 -69 -44 -107 -61c-9 6 -12 12 -14 21c37 28 70 63 101 97c14 8.40002 23.6 7.70001 39 0z" />
    <glyph glyph-name="hcircumflex" unicode="&#x125;" horiz-adv-x="538" 
d="M339.3 663.9c26.1 -49.3 65.7 -105 98.1 -147c-4.5 -7.30002 -14.3 -15.8 -22.7 -17.8c-34.2 25.2 -63.7 52.6 -90.7 85.1c-28.8 -33.6 -56.5 -62 -91.6 -85.1c-8.09999 2.10001 -16.4 8.39999 -21.8 17.8c32.4 42 73.8 98.7 99.9 147
c9.60001 2.39996 19.2 3.19995 28.8 0zM167 285.9v-163.9c0 -83 9 -87 59.8 -91c6 -6 6 -27 0 -33c-28 1 -60.8 2 -98.8 2c-40 0 -76.8 -1 -109.8 -2c-6 6 -6 27 0 33c58 4 69.8 8 69.8 91v437c0 84 -12 79 -64 82c-6 6 -8 22 -6 30c40 3 115 17 140 27c9 0 13 -3 13 -10
c0 0 -4 -40 -4 -105l-0.800003 -225c0 -14 6.40001 -3.79999 9.8 0c61 68 120.9 81 170 81c35 0 66.2 -12 83 -34c23.3 -30.5 27 -79 27 -134v-149c0 -82 11 -86 67 -91c5 -6 5 -27 0 -33c-33 1 -66 2 -106 2s-74 -1 -102 -2c-5 6 -5 27 0 33c52 5 62 9 62 91v152
c0 30 -2 57.2 -12 77c-11.6 22.9 -32.6 36 -53 36c-39.4 0 -90 -21.7 -128 -59c-8 -8.70001 -17 -21 -17 -42.1z" />
    <glyph glyph-name="Hbar" unicode="&#x126;" horiz-adv-x="730" 
d="M618 122c0 -83 17 -88 87 -91c6 -6 6 -27 0 -33c-44 1 -91.7 2 -129 2c-37.1 0 -85 -1 -130 -2c-6 6 -6 27 0 33c70 3 87 8 87 91v199h-342v-199c0 -83 17 -88 87 -91c6 -6 6 -27 0 -33c-44 1 -92.7 2 -129 2c-37.7 0 -86 -1 -130 -2c-6 6 -6 27 0 33c70 3 87 8 87 91
v390h-65v34h64.4c-3.4 61 -23.5 65.3 -86.4 68c-6 6 -6 27 0 33c38 -1 79 -2 129 -2c51 0 92 1 130 2c6 -6 6 -27 0 -33c-62.9 -2.70001 -83 -7 -86.4 -68h340.8c-3.40002 61 -23.5 65.3 -86.4 68c-6 6 -6 27 0 33c44 -1 91.7 -2 129 -2c38 0 89 1 130 2c6 -6 6 -27 0 -33
c-62.9 -2.70001 -83 -7 -86.4 -68h57.4v-34h-58v-390zM533 512h-342v-149h342v149z" />
    <glyph glyph-name="hbar" unicode="&#x127;" horiz-adv-x="538" 
d="M167 285.9v-163.9c0 -83 9 -87 59.8 -91c6 -6 6 -27 0 -33c-28 1 -60.8 2 -98.8 2c-40 0 -76.8 -1 -109.8 -2c-6 6 -6 27 0 33c58 4 69.8 8 69.8 91v408h-62v39h61.9c-1 73.6 -14.1 69.1 -63.9 72c-6 6 -8 22 -6 30c40 3 115 17 140 27c9 0 13 -3 13 -10
c0 0 -4 -40 -4 -105v-14h174v-39h-174.2l-0.600006 -172c0 -14 6.40001 -3.79999 9.8 0c61 68 120.9 81 170 81c35 0 66.2 -12 83 -34c23.3 -30.5 27 -79 27 -134v-149c0 -82 11 -86 67 -91c5 -6 5 -27 0 -33c-33 1 -66 2 -106 2s-74 -1 -102 -2c-5 6 -5 27 0 33
c52 5 62 9 62 91v152c0 30 -2 57.2 -12 77c-11.6 22.9 -32.6 36 -53 36c-39.4 0 -90 -21.7 -128 -59c-8 -8.70001 -17 -21 -17 -42.1z" />
    <glyph glyph-name="Itilde" unicode="&#x128;" horiz-adv-x="297" 
d="M213 744c22 0 33 10 47 52c11 1 21 -2 27 -6c-12 -60 -41 -99 -87 -99c-22 0 -43 18 -64 32c-18 11 -37 19 -54 19c-26 0 -36 -15 -46 -48c-11 -2 -21 -1 -27 5c14 59 37 98 80 98c30 0 52 -20 72 -34c16 -12 33 -19 52 -19zM191 122c0 -83 17 -88 87 -91
c6 -6 6 -27 0 -33c-45 1 -93.4 2 -129 2c-36.3 0 -85 -1 -130 -2c-6 6 -6 27 0 33c70 3 87 8 87 91v401c0 83 -17 88 -87 91c-6 6 -6 27 0 33c47 -1 95.5 -2 129 -2c38.5 0 86 1 130 2c6 -6 6 -27 0 -33c-70 -3 -87 -8 -87 -91v-401z" />
    <glyph glyph-name="itilde" unicode="&#x129;" horiz-adv-x="271" 
d="M184.1 573c19.8 0 29.7 10 42.3 52c9.90001 1 18.9 -2 24.3 -6c-10.8 -60 -36.9 -99 -78.3 -99c-19.8 0 -38.7 18 -57.6 32c-16.2 11 -33.3 19 -48.6 19c-23.4 0 -32.4 -15 -41.4 -48c-9.9 -2 -18.9 -1 -24.3 5c12.6 59 33.3 98 72 98c27 0 46.8 -20 64.8 -34
c14.4 -12 29.7 -19 46.8 -19zM181 122c0 -83 11 -87 72 -91c6 -6 6 -27 0 -33c-33 1 -71 2 -111 2s-79 -1 -112 -2c-6 6 -6 27 0 33c61 5 72 8 72 91v195c0 57 -10.5 62.9 -65 68c-2 6 -4 22 -2 28c69 9 108.5 18 137 29c8 0 13 -3 13 -7c0 0 -4 -64 -4 -113.7v-199.3z" />
    <glyph glyph-name="Imacron" unicode="&#x12a;" horiz-adv-x="297" 
d="M255 745h-224c-9 0 -13 11 -13 18c0 12 11 32 22 32h225c10 0 14 -11 14 -17c0 -12 -11 -33 -24 -33zM191 122c0 -83 17 -88 87 -91c6 -6 6 -27 0 -33c-45 1 -93.4 2 -129 2c-36.3 0 -85 -1 -130 -2c-6 6 -6 27 0 33c70 3 87 8 87 91v401c0 83 -17 88 -87 91
c-6 6 -6 27 0 33c47 -1 95.5 -2 129 -2c38.5 0 86 1 130 2c6 -6 6 -27 0 -33c-70 -3 -87 -8 -87 -91v-401z" />
    <glyph glyph-name="imacron" unicode="&#x12b;" horiz-adv-x="271" 
d="M219.9 518h-201.6c-8.1 0 -11.7 11 -11.7 18c0 12 9.9 32 19.8 32h202.5c9 0 12.6 -11 12.6 -17c0 -12 -9.89999 -33 -21.6 -33zM181 122c0 -83 11 -87 72 -91c6 -6 6 -27 0 -33c-33 1 -71 2 -111 2s-79 -1 -112 -2c-6 6 -6 27 0 33c61 5 72 8 72 91v195
c0 57 -10.5 62.9 -65 68c-2 6 -4 22 -2 28c69 9 108.5 18 137 29c8 0 13 -3 13 -7c0 0 -4 -64 -4 -113.7v-199.3z" />
    <glyph glyph-name="Ibreve" unicode="&#x12c;" horiz-adv-x="297" 
d="M285 805c-6 -71 -70 -113 -136 -113c-73 0 -131 43 -136 113h28c8 -39 55 -61 108 -61c49 0 101 22 108 61h28zM191 122c0 -83 17 -88 87 -91c6 -6 6 -27 0 -33c-45 1 -93.4 2 -129 2c-36.3 0 -85 -1 -130 -2c-6 6 -6 27 0 33c70 3 87 8 87 91v401c0 83 -17 88 -87 91
c-6 6 -6 27 0 33c47 -1 95.5 -2 129 -2c38.5 0 86 1 130 2c6 -6 6 -27 0 -33c-70 -3 -87 -8 -87 -91v-401z" />
    <glyph glyph-name="ibreve" unicode="&#x12d;" horiz-adv-x="271" 
d="M28.2 650c9.9 -53 48.6 -90 97.2 -90c46.8 0 88.2 32 97.2 90l24.3 -12c-10.8 -86 -68.4 -135 -121.5 -135c-63 0 -108.9 50 -121.5 135zM181 122c0 -83 11 -87 72 -91c6 -6 6 -27 0 -33c-33 1 -71 2 -111 2s-79 -1 -112 -2c-6 6 -6 27 0 33c61 5 72 8 72 91v195
c0 57 -10.5 62.9 -65 68c-2 6 -4 22 -2 28c69 9 108.5 18 137 29c8 0 13 -3 13 -7c0 0 -4 -64 -4 -113.7v-199.3z" />
    <glyph glyph-name="Iogonek" unicode="&#x12e;" horiz-adv-x="297" 
d="M271 -135c-29 -45 -69 -65 -110 -65c-50 0 -88 20 -88 74c0 41.5 35.8 99 96.2 125.9c-7.09999 0.1 -13.9 0.1 -20.2 0.1c-36.3 0 -85 -1 -130 -2c-6 6 -6 27 0 33c70 3 87 8 87 91v401c0 83 -17 88 -87 91c-6 6 -6 27 0 33c47 -1 95.5 -2 129 -2c38.5 0 86 1 130 2
c6 -6 6 -27 0 -33c-70 -3 -87 -8 -87 -91v-401c0 -83 17 -88 87 -91c6 -6 6 -27 0 -33c-7.70001 0.2 -15.5 0.3 -23.4 0.5l0.399994 -0.5c-71 0 -120 -67 -120 -113c0 -26 13 -47 50 -47c29 0 45 16 67 38c9 0 15 -4 19 -11z" />
    <glyph glyph-name="iogonek" unicode="&#x12f;" horiz-adv-x="271" 
d="M259 -135c-29 -45 -69 -65 -110 -65c-50 0 -88 20 -88 74c0 41.5 35.8 99.1 96.3 126h-15.3c-40 0 -79 -1 -112 -2c-6 6 -6 27 0 33c61 5 72 8 72 91v195c0 57 -10.5 62.9 -65 68c-2 6 -4 22 -2 28c69 9 108.5 18 137 29c8 0 13 -3 13 -7c0 0 -4 -64 -4 -113.7v-199.3
c0 -83 11 -87 72 -91c6 -6 6 -27 0 -33c-3.39999 0.1 -6.8 0.2 -10.3 0.3l0.300003 -0.3c-71 0 -120 -67 -120 -113c0 -26 13 -47 50 -47c29 0 45 16 67 38c9 0 15 -4 19 -11zM90 599c0 24 28 48 52 48c27 0 48 -28 48 -52c0 -21.1 -24 -48 -52 -48c-24 0 -48 26 -48 52z
" />
    <glyph glyph-name="Idotaccent" unicode="&#x130;" horiz-adv-x="297" 
d="M97 753c0 28 24 52 52 52s52 -24 52 -52s-24 -52 -52 -52s-52 24 -52 52zM191 122c0 -83 17 -88 87 -91c6 -6 6 -27 0 -33c-45 1 -93.4 2 -129 2c-36.3 0 -85 -1 -130 -2c-6 6 -6 27 0 33c70 3 87 8 87 91v401c0 83 -17 88 -87 91c-6 6 -6 27 0 33c47 -1 95.5 -2 129 -2
c38.5 0 86 1 130 2c6 -6 6 -27 0 -33c-70 -3 -87 -8 -87 -91v-401z" />
    <glyph glyph-name="afii10057" unicode="&#x408;" horiz-adv-x="384" 
d="M295 523v-298c0 -100 -31.9 -166.3 -80 -201c-32.4 -23.3 -65.3 -31.3 -92.4 -31.3c-25.7 0 -112.6 11.8 -112.6 61.3c0 22 24 36 38 36c31 0 46.3 -13.8 52 -27c4.9 -11.4 14 -30 28 -30c33 0 82 9 82 170v320c0 83 -17 88 -97 91c-6 6 -6 27 0 33c50 -1 101 -2 139 -2
s82 1 120 2c6 -6 6 -27 0 -33c-60 -3 -77 -8 -77 -91z" />
    <glyph glyph-name="afii10061" unicode="&#x40c;" horiz-adv-x="606" 
d="M427 820c28.6 -13.3 49.3 -30.7 62 -52l-144 -58c-21 -9 -33 -12 -42 -12s-15 7 -15 15c0 7 2 12 15 21zM191 122c0 -83 17 -88 87 -91c6 -6 6 -27 0 -33c-45 1 -93.4 2 -129 2c-36.3 0 -85 -1 -130 -2c-6 6 -6 27 0 33c70 3 87 8 87 91v401c0 83 -17 88 -87 91
c-6 6 -6 27 0 33c47 -1 95.5 -2 129 -2c38.5 0 86 1 130 2c6 -6 6 -27 0 -33c-70 -3 -87 -8 -87 -91v-157c36 0 79 1 103 15c59 32 73 96 82 152c10 62 40 118 119 118c53 0 71 -29 71 -52c0 -29 -23 -40 -44 -40c-13 0 -27 5 -37 15c-11 11 -19 16 -32 16
c-30 0 -35.8 -32.9 -40 -62c-9 -62 -32 -148 -108 -176v-5c69 0 107 -43 134 -113c58.6 -152.1 94.2 -200.1 160 -203c5.79999 -9.8 5.5 -22.8 0 -33l-79 1c-78 1 -115 82 -158 192c-39 100 -57 133 -171 133v-202z" />
    <glyph glyph-name="uni040D" unicode="&#x40d;" horiz-adv-x="710" 
d="M299 818l121 -84c11 -8 15 -14 15 -21c0 -8 -7 -15 -15 -15s-22 3 -43 12l-154 63c18.3 17.7 41.8 33.4 76 45zM598 122c0 -83 17 -88 87 -91c6 -6 6 -27 0 -33c-45 1 -93.4 2 -129 2c-36.3 0 -85 -1 -130 -2c-6 6 -6 27 0 33c70 3 87 8 87 91v356
c-7.5 -2.5 -12.6 -7 -17.5 -13l-273.1 -340c-11.7 -14.9 -21.7 -23 -28.6 -46.7c7.09999 -41.3 29.4 -45 84.2 -47.3c6 -6 6 -27 0 -33c-45 1 -93.4 2 -129 2c-36.3 0 -85 -1 -130 -2c-6 6 -6 27 0 33c70 3 87 8 87 91v401c0 83 -17 88 -87 91c-6 6 -6 27 0 33
c47 -1 95.5 -2 129 -2c38.5 0 86 1 130 2c6 -6 6 -27 0 -33c-70 -3 -87 -8 -87 -91v-356c4.60001 0.300003 10.4 3.7 17.7 11l274.8 342c11.3 14.2 20.6 32.3 26.4 48.5c-7.39999 39.6 -29.9 43.2 -83.9 45.5c-6 6 -6 27 0 33c47 -1 95.5 -2 129 -2c38.5 0 86 1 130 2
c6 -6 6 -27 0 -33c-70 -3 -87 -8 -87 -91v-401z" />
    <glyph glyph-name="afii10062" unicode="&#x40e;" horiz-adv-x="590" 
d="M312 728c33 0 56 17 56 34c0 5 -1 11 -1 13c0 15 10 30 33 30c27 0 37 -14 37 -33c0 -52 -59 -75 -125 -75s-125 23 -125 75c0 19 10 33 37 33c23 0 33 -15 33 -30c0 -2 -1 -8 -1 -13c0 -17 23 -34 56 -34zM104.5 523c-32.5 71 -42.5 86 -99.5 91c-6 6 -7 27 -1 33
c34 -1 72 -2 104 -2c35.2 0 84 1 121 2c6 -6 6 -27 0 -33c-68 -7 -67 -23 -40.6 -80l138.6 -305h2l109 299c20 56 23 81 -51 86c-6 6 -6 27 0 33c37 -1 86 -2 109 -2s58 1 88 2c6 -6 6 -27 0 -33c-66 -8 -82 -45 -100.3 -93l-141.7 -360c-43 -109 -98 -183 -188 -183
c-42 0 -90 23 -90 55c0 28 19 48 49 48c14 0 36 -7 46 -19c7 -9 22 -22 36 -22c32 0 57 21 88 96z" />
    <glyph glyph-name="afii10020" unicode="&#x413;" horiz-adv-x="497" 
d="M147 645h205s81 1 120 2c5.5 -33.8 10.9 -72.7 15 -157c-9.70001 -4.29999 -19.3 -5.20001 -29 -4c-21 69 -37 119 -112 119h-120c-24 0 -36 -10 -36 -34v-449c0 -83 17 -88 87 -91c6 -6 6 -27 0 -33c-40 1 -91.2 2 -129 2s-91 -1 -130 -2c-6 6 -6 27 0 33
c70 3 87 8 87 91v401c0 83 -17 88 -87 91c-6 6 -6 27 0 33c50 -1 129 -2 129 -2z" />
    <glyph glyph-name="afii10021" unicode="&#x414;" horiz-adv-x="659" 
d="M112 47c25.5 26.7 44 98 76 254c22 114 34 207 34 270c0 29 -13.2 37.8 -73 43c-4.5 8.70001 -5.5 24 0 33c0 0 72 -2 102 -2h261c30 0 111 2 111 2c5.70001 -10 6 -22 0 -33c-66.7 -5 -74 -6.20001 -74 -59v-477c0 -37 22.5 -48 40 -51c21.7 -3.7 28.8 -7.1 30 -19
c5 -48.6 6.5 -98.1 7 -148c-7.70001 -5.3 -19 -6.7 -27 -2c-12 56 -48 142 -128 142h-290c-83 0 -109 -89 -120 -141c-9.8 -2.5 -20 -1.7 -27 2c0.599998 50.3 3 100.7 7 151c1 12 11 18.5 21 19c19.5 1 39.5 5 50 16zM427 605h-123c-27 0 -37 -14 -39 -39
c-8 -101 -24 -205 -36 -273c-22 -117 -47 -216 -47 -237c0 -12 13 -17 27 -17h219c24 0 36 3 36 40v487c0 31 -6 39 -37 39z" />
    <glyph glyph-name="afii10024" unicode="&#x416;" horiz-adv-x="889" 
d="M487 122c0 -83 17 -88 87 -91c6 -6 6 -27 0 -33c-45 1 -93.4 2 -129 2c-36.3 0 -85 -1 -130 -2c-6 6 -6 27 0 33c70 3 87 8 87 91v201.8c-102.4 -2.5 -120.5 -36.7 -158 -132.8c-43 -110 -80 -191 -158 -192l-79 -1c-5.5 10.2 -5.8 23.2 0 33
c65.8 2.9 101.4 50.9 160 203c27 70 65 113 134 113v5c-76 28 -99 114 -108 176c-4.2 29.1 -10 62 -40 62c-13 0 -21 -5 -32 -16c-10 -10 -24 -15 -37 -15c-21 0 -44 11 -44 40c0 23 18 52 71 52c79 0 109 -56 119 -118c9 -56 23 -120 82 -152
c21.2 -12.3 57.1 -14.5 90 -14.9v156.9c0 83 -17 88 -87 91c-6 6 -6 27 0 33c47 -1 95.5 -2 129 -2c38.5 0 86 1 130 2c6 -6 6 -27 0 -33c-70 -3 -87 -8 -87 -91v-156.9c32.9 0.399994 68.8 2.60001 90 14.9c59 32 73 96 82 152c10 62 40 118 119 118c53 0 71 -29 71 -52
c0 -29 -23 -40 -44 -40c-13 0 -27 5 -37 15c-11 11 -19 16 -32 16c-30 0 -35.8 -32.9 -40 -62c-9 -62 -32 -148 -108 -176v-5c69 0 107 -43 134 -113c58.6 -152.1 94.2 -200.1 160 -203c5.79999 -9.8 5.5 -22.8 0 -33l-79 1c-78 1 -115 82 -158 192
c-37.5 96.1 -55.6 130.3 -158 132.8v-201.8z" />
    <glyph glyph-name="afii10025" unicode="&#x417;" horiz-adv-x="558" 
d="M44 115c0 24 13 40 33 40c28 0 43 -26 56 -52c25 -47 66 -77 144 -77c99 0 148 64 148 155c0 73 -44.5 147 -158 147c-33 0 -42 -6 -69 -6c-12 0 -29 5 -29 25s17 24 29 24c27 0 43 -6 70 -6c89.5 0 133 69 133 138c0 70 -29 121 -115 121c-114 0 -161 -73 -187 -161
c-11.7 -2.29999 -22 -1.29999 -31 3c5.6 52.9 12.6 105.8 24 160c72 10.5 127 32 202 32c139 0 195 -66 195 -148c0 -84 -61 -133 -131 -153v-5c98.5 -7.79999 160 -82 160 -167c0 -131 -113 -195 -240 -195c-100 0 -158 22 -188 49c-27 24 -46 43 -46 76z" />
    <glyph glyph-name="afii10026" unicode="&#x418;" horiz-adv-x="710" 
d="M598 122c0 -83 17 -88 87 -91c6 -6 6 -27 0 -33c-45 1 -93.4 2 -129 2c-36.3 0 -85 -1 -130 -2c-6 6 -6 27 0 33c70 3 87 8 87 91v356c-7.5 -2.5 -12.6 -7 -17.5 -13l-273.1 -340c-11.7 -14.9 -21.7 -23 -28.6 -46.7c7.09999 -41.3 29.4 -45 84.2 -47.3c6 -6 6 -27 0 -33
c-45 1 -93.4 2 -129 2c-36.3 0 -85 -1 -130 -2c-6 6 -6 27 0 33c70 3 87 8 87 91v401c0 83 -17 88 -87 91c-6 6 -6 27 0 33c47 -1 95.5 -2 129 -2c38.5 0 86 1 130 2c6 -6 6 -27 0 -33c-70 -3 -87 -8 -87 -91v-356c4.60001 0.300003 10.4 3.7 17.7 11l274.8 342
c11.3 14.2 20.6 32.3 26.4 48.5c-7.39999 39.6 -29.9 43.2 -83.9 45.5c-6 6 -6 27 0 33c47 -1 95.5 -2 129 -2c38.5 0 86 1 130 2c6 -6 6 -27 0 -33c-70 -3 -87 -8 -87 -91v-401z" />
    <glyph glyph-name="afii10027" unicode="&#x419;" horiz-adv-x="710" 
d="M351 728c33 0 56 17 56 34c0 5 -1 11 -1 13c0 15 10 30 33 30c27 0 37 -14 37 -33c0 -52 -59 -75 -125 -75s-125 23 -125 75c0 19 10 33 37 33c23 0 33 -15 33 -30c0 -2 -1 -8 -1 -13c0 -17 23 -34 56 -34zM598 122c0 -83 17 -88 87 -91c6 -6 6 -27 0 -33
c-45 1 -93.4 2 -129 2c-36.3 0 -85 -1 -130 -2c-6 6 -6 27 0 33c70 3 87 8 87 91v356c-7.5 -2.5 -12.6 -7 -17.5 -13l-273.1 -340c-11.7 -14.9 -21.7 -23 -28.6 -46.7c7.09999 -41.3 29.4 -45 84.2 -47.3c6 -6 6 -27 0 -33c-45 1 -93.4 2 -129 2c-36.3 0 -85 -1 -130 -2
c-6 6 -6 27 0 33c70 3 87 8 87 91v401c0 83 -17 88 -87 91c-6 6 -6 27 0 33c47 -1 95.5 -2 129 -2c38.5 0 86 1 130 2c6 -6 6 -27 0 -33c-70 -3 -87 -8 -87 -91v-356c4.60001 0.300003 10.4 3.7 17.7 11l274.8 342c11.3 14.2 20.6 32.3 26.4 48.5
c-7.39999 39.6 -29.9 43.2 -83.9 45.5c-6 6 -6 27 0 33c47 -1 95.5 -2 129 -2c38.5 0 86 1 130 2c6 -6 6 -27 0 -33c-70 -3 -87 -8 -87 -91v-401z" />
    <glyph glyph-name="afii10033" unicode="&#x41f;" horiz-adv-x="667" 
d="M521 645c27 0 79 1 129 2c6 -6 6 -27 0 -33c-70 -3 -87 -8 -87 -91v-401c0 -83 17 -88 87 -91c6 -6 6 -27 0 -33c-38 1 -91.3 2 -130 2c-36.4 0 -91 -1 -129 -2c-6 6 -6 27 0 33c70 3 87 8 87 91v409c0 62 -22 74 -46 74h-197c-24 0 -46 -12 -46 -74v-409
c0 -83 17 -88 87 -91c6 -6 6 -27 0 -33c-40 1 -91 2 -129 2c-39.7 0 -91 -1 -130 -2c-6 6 -6 27 0 33c70 3 87 8 87 91v401c0 83 -17 88 -87 91c-6 6 -6 27 0 33c50 -1 106 -2 129 -2h375z" />
    <glyph glyph-name="afii10034" unicode="&#x420;" horiz-adv-x="541" 
d="M189 554v-233c11 -3 51 -5 76 -5c97 0 149 44 149 152c0 127 -69 150 -138 150c-72 0 -87 -35 -87 -64zM104 523c0 83 -17 88 -87 91c-6 6 -6 27 0 33c40 -1 92.3 -2 129 -2c40 0 98.7 7 137 7c185 0 224 -107 224 -166c0 -85 -55 -204 -237 -204c-35 0 -59 3 -81 10
v-170c0 -83 24 -87 102 -91c6 -6 6 -27 0 -33c-50 1 -108.6 2 -144 2c-35.7 0 -85 -1 -130 -2c-6 6 -6 27 0 33c70 3 87 8 87 91v401z" />
    <glyph glyph-name="afii10035" unicode="&#x421;" horiz-adv-x="646" 
d="M357 -10c-215 0 -320 146.2 -320 320c0 104.3 39.6 202.2 106 263c59 54 130 85 215 85c123 0 168 -40 219 -45c10 -55 17 -103 22 -155c-11.3 -6 -21 -9 -33 -5c-26 86 -81 168 -219 168c-52 0 -110 -28 -159.6 -89c-36.5 -44.9 -59.4 -116.7 -59.4 -203
c0 -146 93.4 -298 228 -298c93 0 161 31 232 109c11 0 18 -6 23 -15c-68 -89 -157 -135 -254 -135z" />
    <glyph glyph-name="afii10036" unicode="&#x422;" horiz-adv-x="597" 
d="M350 122c0 -83 17 -88 97 -91c6 -6 6 -27 0 -33c-50 1 -100.6 2 -139 2c-40.1 0 -91 -1 -140 -2c-6 6 -6 27 0 33c80 3 97 8 97 91v385c0 61 -10 99 -47 99h-49c-66 0 -112 -26 -132 -106c-12 0 -24 1 -34 5c11 48 21 100 25 145c0 1 2 3 4 3c38 -3 156 -8 233 -8h86
c79 0 190 5 224 8c1 0 3 -2 3 -3c1 -45 6 -96 13 -142c-9 -4 -23 -5 -34 -5c-17 77 -64 103 -139 103h-22c-36 0 -46 -38 -46 -102v-382z" />
    <glyph glyph-name="afii10037" unicode="&#x423;" horiz-adv-x="590" 
d="M104.5 523c-32.5 71 -42.5 86 -99.5 91c-6 6 -7 27 -1 33c34 -1 72 -2 104 -2c35.2 0 84 1 121 2c6 -6 6 -27 0 -33c-68 -7 -67 -23 -40.6 -80l138.6 -305h2l109 299c20 56 23 81 -51 86c-6 6 -6 27 0 33c37 -1 86 -2 109 -2s58 1 88 2c6 -6 6 -27 0 -33
c-66 -8 -82 -45 -100.3 -93l-141.7 -360c-43 -109 -98 -183 -188 -183c-42 0 -90 23 -90 55c0 28 19 48 49 48c14 0 36 -7 46 -19c7 -9 22 -22 36 -22c32 0 57 21 88 96z" />
    <glyph glyph-name="afii10039" unicode="&#x425;" horiz-adv-x="660" 
d="M538 102c42.4 -58.3 59 -68 101 -71c6 -6 7 -27 1 -33c-30 1 -63 2 -102 2c-40 0 -77 -1 -114 -2c-6 6 -6 27 0 33c56 3 51.8 13.9 23.5 54.2l-123.5 175.8c-5.60001 8 -10 11 -14 11c-3 0 -9.29999 -6 -15 -14l-132 -185c-24.2 -34 -5.3 -39 39 -42c6 -6 6 -27 0 -33
c-40 1 -82 2 -105 2s-60 -1 -90 -2c-6 6 -6 27 0 33c44.7 4.3 76.7 16.1 111 62l148 198c5.89999 7.89999 10 17 10 23c0 10 -5.79999 18.3 -14 30l-142.3 203c-41.2 58.7 -59.7 64 -101.7 67c-6 6 -7 27 -1 33c30 -1 63 -2 102 -2c40 0 77 1 114 2c6 -6 6 -27 0 -33
c-56 -3 -51.7 -14.2 -23.5 -54.2l110.5 -163.8c4.79999 -7 9 -11 12 -11c4 0 10 3.5 16 12l123 175c23.5 33.4 5.29999 39 -39 42c-6 6 -6 27 0 33c40 -1 82 -2 105 -2s60 1 90 2c6 -6 6 -27 0 -33c-44.7 -4.29999 -76.3 -17.1 -111 -62l-137 -177
c-9.10001 -11.8 -10 -21 -10 -30c0 -10 6.20001 -19.6 16 -33z" />
    <glyph glyph-name="afii10040" unicode="&#x426;" horiz-adv-x="674" 
d="M558 523v-401c0 -83 24 -88 48 -91c24.8 -3.1 29 -11 30 -20c4 -48 6 -101 6 -152c-9 -7.10001 -24 -8 -33 -1c-14 71 -62 142 -139 142h-326c-20 0 -81 -1 -130 -2c-6 6 -6 27 0 33c70 3 87 8 87 91v401c0 83 -17 88 -87 91c-6 6 -6 27 0 33c40 -1 94.5 -2 129 -2
c36 0 91 1 130 2c6 -6 6 -27 0 -33c-70 -3 -87 -8 -87 -91v-434c0 -31 18 -50 47 -50h203c32 -0.299999 37 5 37 83v401c0 83 -17 88 -87 91c-6 6 -6 27 0 33c40 -1 93 -2 129 -2c39 0 91 1 130 2c6 -6 6 -27 0 -33c-70 -3 -87 -8 -87 -91z" />
    <glyph glyph-name="afii10041" unicode="&#x427;" horiz-adv-x="650" 
d="M102 523c0 83 -17 88 -87 91c-6 6 -6 27 0 33c40 -1 93 -2 129 -2c36.3 0 91 1 130 2c6 -6 6 -27 0 -33c-70 -3 -87 -8 -87 -91v-106c0 -82 40 -109 112 -109c28.5 0 91 3.89999 154 45v170c0 83 -17 88 -87 91c-6 6 -6 27 0 33c38 -1 93.3 -2 129 -2c36.7 0 92 1 130 2
c6 -6 6 -27 0 -33c-70 -3 -87 -8 -87 -91v-401c0 -83 17 -88 87 -91c6 -6 6 -27 0 -33c-39 1 -92.9 2 -129 2c-35.7 0 -91 -1 -130 -2c-6 6 -6 27 0 33c70 3 87 8 87 91v192.9c-71.9 -49.4 -138.8 -64.9 -196 -64.9c-114 0 -155 79 -155 178v95z" />
    <glyph glyph-name="afii10042" unicode="&#x428;" horiz-adv-x="969" 
d="M820 0h-671c-34 0 -91 -1 -130 -2c-6 6 -6 27 0 33c70 3 87 8 87 91v401c0 83 -17 88 -87 91c-6 6 -6 27 0 33c40 -1 93.7 -2 129 -2c37.7 0 91 1 130 2c6 -6 6 -27 0 -33c-70 -3 -87 -8 -87 -91v-401c0 -82 17 -85 59 -85h139c37 0 51 3 51 85v401c0 83 -17 88 -87 91
c-6 6 -6 27 0 33c40 -1 93.3 -2 129 -2c37 0 91 1 130 2c6 -6 6 -27 0 -33c-70 -3 -87 -8 -87 -91v-401c0 -82 17 -85 55 -85h129c56 0 69 3 69 85v401c0 83 -17 88 -87 91c-6 6 -6 27 0 33c39 -1 93.7 -2 130 -2c36 0 89 1 129 2c6 -6 6 -27 0 -33c-70 -3 -87 -8 -87 -91
v-401c0 -83 17 -88 87 -91c6 -6 6 -27 0 -33c-39 1 -92.5 2 -130 2z" />
    <glyph glyph-name="afii10043" unicode="&#x429;" horiz-adv-x="974" 
d="M863 523v-401c0 -83 24 -88 48 -91c24.8 -3.1 29 -11 30 -20c4 -48 6 -101 6 -152c-9 -7.10001 -24 -8 -33 -1c-14 71 -62 142 -139 142h-626c-33.5 0 -91 -1 -130 -2c-6 6 -6 27 0 33c70 3 87 8 87 91v401c0.199997 83 -17 88 -87 91c-6 6 -6 27 0 33
c40 -1 93.7 -2 129 -2c37.7 0 91 1 130 2c6 -6 6 -27 0 -33c-70 -3 -86.8 -8 -87 -91v-401c0 -82 17 -85 59 -85h139c37 0 51 3 51 85v401c0.200012 83 -17 88 -87 91c-6 6 -6 27 0 33c40 -1 93.3 -2 129 -2c37 0 91 1 130 2c6 -6 6 -27 0 -33c-70 -3 -86.8 -8 -87 -91v-401
c0 -82 17 -85 55 -85h129c56 0 69 3 69 85v401c0.200012 83 -17 88 -87 91c-6 6 -6 27 0 33c39 -1 93.7 -2 130 -2c36 0 89 1 129 2c6 -6 6 -27 0 -33c-70 -3 -86.8 -8 -87 -91z" />
    <glyph glyph-name="afii10044" unicode="&#x42a;" horiz-adv-x="723" 
d="M427 31c132 0 163 79 163 162c0 104.7 -51.7 152.9 -180.3 152.9c-18.3 0 -38.2 -1 -59.7 -2.89999v-245c0 -33 9 -67 77 -67zM265 523c0 75 -12 82 -59 82h-42c-66 0 -100 -93 -108 -136c-14 -3 -22.3 -0.5 -30 5c4 56 9 110 16 173c35 -1 72.7 -2 121.7 -2h143.3
c50 0 91 1 130 2c6 -6 6 -27 0 -33c-70 -3 -87 -8 -87 -91v-140c29.7 2.5 57.1 3.79999 82.3 3.79999c183.3 0 250.7 -66.7 250.7 -193.8c0 -125.5 -86.5 -195 -258 -195c-36 0 -88 2 -117 2c-37.7 0 -91 -1 -130 -2c-6 6 -6 27 0 33c70 3 87 8 87 91v401z" />
    <glyph glyph-name="afii10045" unicode="&#x42b;" horiz-adv-x="798" 
d="M693 123c0 -83 17 -88 87 -91c6 -6 6 -27 0 -33c-45 1 -93.4 2 -129 2c-36.3 0 -85 -1 -130 -2c-6 6 -6 27 0 33c70 3 87 8 87 91v401c0 83 -17 88 -87 91c-6 6 -6 27 0 33c47 -1 95.5 -2 129 -2c38.5 0 86 1 130 2c6 -6 6 -27 0 -33c-70 -3 -87 -8 -87 -91v-401zM267 31
c132 0 163 79 163 162c0 104.7 -51.7 152.9 -180.3 152.9c-18.3 0 -38.2 -1 -59.7 -2.89999v-245c0 -33 9 -67 77 -67zM105 122v401c0 83 -17 88 -87 91c-6 6 -6 27 0 33c40 -1 93.7 -2 129 -2c38.3 0 91 1 130 2c6 -6 6 -27 0 -33c-70 -3 -87 -8 -87 -91v-140
c29.7 2.5 57.1 3.79999 82.3 3.79999c183.3 0 250.7 -66.7 250.7 -193.8c0 -125.5 -86.5 -195 -258 -195c-36 0 -88 2 -117 2c-37.7 0 -91 -1 -130 -2c-6 6 -6 27 0 33c70 3 87 8 87 91z" />
    <glyph glyph-name="afii10046" unicode="&#x42c;" horiz-adv-x="559" 
d="M267 31c132 0 163 79 163 162c0 104.7 -51.7 152.9 -180.3 152.9c-18.3 0 -38.2 -1 -59.7 -2.89999v-245c0 -33 9 -67 77 -67zM105 122v401c0 83 -17 88 -87 91c-6 6 -6 27 0 33c40 -1 93.7 -2 129 -2c38.3 0 91 1 130 2c6 -6 6 -27 0 -33c-70 -3 -87 -8 -87 -91v-140
c29.7 2.5 57.1 3.79999 82.3 3.79999c183.3 0 250.7 -66.7 250.7 -193.8c0 -125.5 -86.5 -195 -258 -195c-36 0 -88 2 -117 2c-37.7 0 -91 -1 -130 -2c-6 6 -6 27 0 33c70 3 87 8 87 91z" />
    <glyph glyph-name="afii10047" unicode="&#x42d;" horiz-adv-x="622" 
d="M271 -10c-97 0 -225 60 -225 134c0 20 9 39 34 39c29 0 44 -27 57 -64c14 -40 54 -74 130 -74c148 0 220 118 230 276c-33 15 -62 22 -100 22c-58 0 -87 -32 -154 -32c-59 0 -122 29 -122 54c0 8 5 12 9 12c8 0 24 -16 62 -16c59 0 102 38 165 38c13 0 79 -12 140 -46
l1 1c0 213 -115 287 -194 287c-138 0 -195 -81 -221 -167l-30 4c10 52 18 101 22 155c57 3 97 45 224 45c166 0 286 -124 286 -333c0 -185 -99 -335 -314 -335z" />
    <glyph glyph-name="afii10048" unicode="&#x42e;" horiz-adv-x="905" 
d="M562 619c-84 0 -184 -82 -184 -292c0 -192 106 -299 214 -299c103 0 181 103 181 282c0 208 -86 309 -211 309zM191 122c0 -83 17 -88 87 -91c6 -6 6 -27 0 -33c-45 1 -93.4 2 -129 2c-36.3 0 -85 -1 -130 -2c-6 6 -6 27 0 33c70 3 87 8 87 91v401c0 83 -17 88 -87 91
c-6 6 -6 27 0 33c47 -1 95.5 -2 129 -2c38.5 0 86 1 130 2c6 -6 6 -27 0 -33c-70 -3 -87 -8 -87 -91v-179h95c13 179 131 314 287 314c168 0 293 -131 293 -329c0 -200 -114 -339 -292 -339c-158 0 -287 121 -289 315h-94v-183z" />
    <glyph glyph-name="afii10049" unicode="&#x42f;" horiz-adv-x="580" 
d="M169 502c0 -106 62 -140 145 -140h78v213c0 33 -4 36 -91 36c-56 0 -132 -16 -132 -109zM393 323c-107 1 -127 -28 -169 -134c-43 -108.5 -80 -189 -151 -190l-66 -1l-1 2v19c0 5 3 8 7 8l9 1c32 4 75.6 58.4 127 192c25 65 58 90 85 106v3c-68 10 -157 60 -157 162
c0 69 45 155 231 155c35 0 94 -1 128 -1c50.3 0 79 1 129 2c6 -6 6 -27 0 -33c-70 -3 -87 -8 -87 -91v-401c0 -83 17 -88 87 -91c6 -6 6 -27 0 -33c-49 1 -79.3 2 -130 2c-56.2 0 -94 -1 -144 -2c-6 6 -6 27 0 33c78 4 102 8 102 91v201z" />
    <glyph glyph-name="afii10089" unicode="&#x447;" horiz-adv-x="539" 
d="M162 307v-17c0 -78 3 -112 68 -112c52 0 88 27 122 57v72c0 83 -11 87 -62 91c-6 6 -6 27 0 33c23 -1 63 -2 102 -2c44 0 78 1 112 2c6 -6 6 -27 0 -33c-61 -5 -72 -8 -72 -91v-185c0 -83 11 -87 72 -91c6 -6 6 -27 0 -33c-32 1 -69 2 -112 2c-44 0 -79 -1 -112 -2
c-6 6 -6 27 0 33c61 5 72 8 72 91v77c-41 -30 -91 -66 -154 -66c-93 0 -114 37 -114 131v43c0 83 -11 87 -72 91c-6 6 -6 27 0 33c33 -1 67 -2 110 -2c40 0 78 1 102 2c6 -6 6 -27 0 -33c-51 -5 -62 -8 -62 -91z" />
    <glyph glyph-name="afii10090" unicode="&#x448;" horiz-adv-x="849" 
d="M746 122c0 -82 13 -87 68 -91c6 -6 6 -27 0 -33c-30 1 -68 2 -108 2h-559c-40 0 -78 -1 -108 -2c-6 6 -6 27 0 33c55 4 68 9 68 91v185c0 82 -9 87 -64 91c-5 6 -5 27 0 33c28 -1 63 -2 103 -2s77 1 102 2c5 -6 5 -27 0 -33c-52 -4 -62 -9 -62 -91v-217
c0 -40 6 -51 43 -51h114c37 0 42 13 42 50v218c1 82 -9 87 -59 91c-5 6 -5 27 0 33c25 -1 58 -2 98 -2s77 1 102 2c5 -6 5 -27 0 -33c-54 -4 -61 -9 -62 -91v-217c0 -42 13 -51 43 -51h118c39 0 42 20 42 51v217c0 82 -10 86 -61 91c-6 6 -6 27 0 33c30 -1 60 -2 100 -2
s78 1 108 2c6 -6 6 -27 0 -33c-55 -4 -68 -9 -68 -91v-185z" />
    <glyph glyph-name="afii10091" unicode="&#x449;" horiz-adv-x="849" 
d="M669 0h-522c-40 0 -78 -1 -108 -2c-6 6 -6 27 0 33c55 4 68 9 68 91v185c0 82 -9 87 -64 91c-5 6 -5 27 0 33c28 -1 63 -2 103 -2s77 1 102 2c5 -6 5 -27 0 -33c-52 -4 -62 -9 -62 -91v-217c0 -40 6 -51 43 -51h114c37 0 42 13 42 50v218c1 82 -9 87 -59 91
c-5 6 -5 27 0 33c25 -1 58 -2 98 -2s77 1 102 2c5 -6 5 -27 0 -33c-54 -4 -61 -9 -62 -91v-217c0 -42 13 -51 43 -51h118c39 0 42 20 42 51v217c0 82 -10 86 -61 91c-6 6 -6 27 0 33c30 -1 60 -2 100 -2s78 1 108 2c6 -6 6 -27 0 -33c-55 -4 -68 -9 -68 -91v-185
c0 -80 16.3 -86 39 -91c13.8 -3 29 -8 30 -26l6 -133c-8.29999 -2.60001 -16.9 -3.3 -26 -1c-13 49 -42 129 -126 129z" />
    <glyph glyph-name="afii10092" unicode="&#x44a;" horiz-adv-x="565" 
d="M455 126c0 53 -23 98 -98 98h-71v-148c0 -35 17 -45 66 -45c53 0 103 13 103 95zM207 307c0 73 -19 85 -42 85c-77 0 -91 -35 -109 -117c-11.2 -0.600006 -21.3 1.5 -29 5c7 46 12 93 13 151c0 0 125.7 -2 206 -2c43.7 0 78 1 112 2c6 -6 6 -27 0 -33
c-61 -5 -72 -8 -72 -92v-49h72c101 0 183 -27 183 -121c0 -107 -67 -138 -190 -138c-40.6 0 -63.4 2 -104 2c-43.7 0 -79 -1 -112 -2c-6 6 -6 27 0 33c61 5 72 8 72 91v185z" />
    <glyph glyph-name="afii10093" unicode="&#x44b;" horiz-adv-x="724" 
d="M617 307v-185c0 -83 11 -87 72 -91c6 -6 6 -27 0 -33c-32 1 -68 2 -111 2c-44 0 -79 -1 -112 -2c-6 6 -6 27 0 33c61 5 72 8 72 91v185c0 83 -11 87 -72 91c-6 6 -6 27 0 33c33 -1 68 -2 111 -2c44 0 78 1 112 2c6 -6 6 -27 0 -33c-61 -5 -72 -8 -72 -91zM355 126
c0 53 -23 98 -98 98h-71v-148c0 -35 17 -45 66 -45c53 0 103 13 103 95zM186 306v-49h72c101 0 183 -27 183 -121c0 -107 -67 -138 -190 -138c-40.6 0 -63.4 2 -104 2c-43.7 0 -79 -1 -112 -2c-6 6 -6 27 0 33c61 5 72 8 72 91v185c0 83 -11 87 -72 91c-6 6 -6 27 0 33
c33 -1 67.7 -2 111 -2c43.7 0 78 1 112 2c6 -6 6 -27 0 -33c-61 -5 -72 -8 -72 -92z" />
    <glyph glyph-name="afii10094" unicode="&#x44c;" horiz-adv-x="465" 
d="M355 126c0 53 -23 98 -98 98h-71v-148c0 -35 17 -45 66 -45c53 0 103 13 103 95zM186 306v-49h72c101 0 183 -27 183 -121c0 -107 -67 -138 -190 -138c-40.6 0 -63.4 2 -104 2c-43.7 0 -79 -1 -112 -2c-6 6 -6 27 0 33c61 5 72 8 72 91v185c0 83 -11 87 -72 91
c-6 6 -6 27 0 33c33 -1 67.7 -2 111 -2c43.7 0 78 1 112 2c6 -6 6 -27 0 -33c-61 -5 -72 -8 -72 -92z" />
    <glyph glyph-name="afii10095" unicode="&#x44d;" horiz-adv-x="454" 
d="M47 82c0 16 14 29 33 29c18 0 32 -5 47 -37c13 -27 37 -49 79 -49c89 0 126 57 126 176c-13 5 -26 9 -40 9c-19.2 0 -33.6 -4 -48.5 -10.3c-15.8 -6.59999 -33.1 -11.7 -57.5 -11.7c-45 0 -94 18 -94 32c0 4 2 14 8 14c7 0 20 -6 34 -6c17.7 0 33.9 5.60001 50.2 13.1
c18.2 8.29999 37.3 14.9 60.8 14.9c31 0 59 -12 86 -28l3 2c0 92 -41.5 174 -125 174c-78 0 -111 -44 -129 -108c-10.2 -1.60001 -17.7 -0.700012 -26 4c1.7 40.7 3.7 81.7 9 120c52 4 104 19 154 19c145.5 0 201 -97 201 -218c0 -161 -96 -231 -200 -231
c-96 0 -171 39 -171 92z" />
    <glyph glyph-name="afii10096" unicode="&#x44e;" horiz-adv-x="731" 
d="M186 237h104c11 119 79 202 200 202c152 0 201 -118 201 -222c0 -100 -55 -227 -202 -227c-135 0 -198 107 -200 208h-103v-76c0 -83 11 -87 72 -91c6 -6 6 -27 0 -33c-32 1 -68 2 -111 2c-44 0 -79 -1 -112 -2c-6 6 -6 27 0 33c61 5 72 8 72 91v185c0 83 -11 87 -72 91
c-6 6 -6 27 0 33c33 -1 68 -2 111 -2c44 0 78 1 112 2c6 -6 6 -27 0 -33c-61 -5 -72 -8 -72 -91v-70zM480 404c-78 0 -105 -91 -105 -178c0 -77 33 -201 132 -201c43 0 98 28 98 160c0 146 -43 219 -125 219z" />
    <glyph glyph-name="afii10097" unicode="&#x44f;" horiz-adv-x="481" 
d="M142 321c0 -50 23 -96 83 -96h70v117c0 38.3 -16 56 -57 56c-81 0 -96 -30 -96 -77zM114 0c0 0 -78 -1 -98 -2c-6 6 -6 27 0 33c39 2 56.3 8 69 42c4.8 12.8 14 34.7 25 58c17.2 36.5 33.7 58 71.7 68.8c1.60001 0.699997 1.5 4.39999 -1.39999 4.59999
c-74.7 2.20001 -124.3 35.9 -124.3 100.6c0 54 15 126 190 126c24.7 0 53.7 -2 88 -2c43.7 0 78 1 112 2c6 -6 6 -27 0 -33c-61 -5 -72 -8 -72 -91v-185c0 -83 11 -87 72 -91c6 -6 6 -27 0 -33c-32 1 -67.7 2 -111 2c-43.7 0 -79 -1 -112 -2c-6 6 -6 27 0 33
c61 5 72 8 72 91v69h-26c-50.4 0 -79.5 -49.5 -105.5 -128c-12 -36.4 -21.8 -62.2 -49.5 -63z" />
    <glyph glyph-name="uni04AE" unicode="&#x4ae;" horiz-adv-x="575" 
d="M337 122c0 -83 17 -88 97 -91c6 -6 6 -27 0 -33c-50 1 -100.3 2 -139 2c-38.6 0 -91 -1 -140 -2c-6 6 -6 27 0 33c80 3 97 8 97 91v127c0 37 -3.5 47.5 -21 77l-131.3 221c-34.5 58.1 -51.7 64 -93.7 67c-6 6 -7 27 -1 33c30 -1 63 -2 102 -2c40 0 78 1 114 2
c6 -6 6 -27 0 -33c-56 -3 -60 -12.6 -35.8 -55.2l116 -204.8c9 -15.9 13.8 -17.2 21.8 -2l110.8 209c21.4 40.4 5.5 50 -38.8 53c-6 6 -6 27 0 33c32 -1 68 -2 91 -2s55 1 83 2c6 -6 6 -27 0 -33c-44.7 -4.29999 -67 -13.3 -95 -64l-119.5 -216
c-16.4 -29.6 -17.5 -46.5 -17.5 -76.3v-135.7z" />
    <glyph glyph-name="uni04C0" unicode="&#x4c0;" horiz-adv-x="297" 
d="M191 122c0 -83 17 -88 87 -91c6 -6 6 -27 0 -33c-45 1 -93.4 2 -129 2c-36.3 0 -85 -1 -130 -2c-6 6 -6 27 0 33c70 3 87 8 87 91v401c0 83 -17 88 -87 91c-6 6 -6 27 0 33c47 -1 95.5 -2 129 -2c38.5 0 86 1 130 2c6 -6 6 -27 0 -33c-70 -3 -87 -8 -87 -91v-401z" />
    <glyph glyph-name="uni04D0" unicode="&#x4d0;" horiz-adv-x="695" 
d="M359 729c33 0 56 17 56 34c0 5 -1 11 -1 13c0 15 10 30 33 30c27 0 37 -14 37 -33c0 -52 -59 -75 -125 -75s-125 23 -125 75c0 19 10 33 37 33c23 0 33 -15 33 -30c0 -2 -1 -8 -1 -13c0 -17 23 -34 56 -34zM263 283h177l-94 272h-6l-102.2 -258.7
c-3.8 -10.3 3.2 -13.3 25.2 -13.3zM155 79c-15.6 -41.1 31.4 -45.4 69 -48c6 -6 6 -27 0 -33c-37 1 -87 2 -128 2c-30.3 0 -63 -1 -89 -2c-6 6 -6 27 0 33c43.5 3 74 9 100 71l227 536c13 0 40 11 55 20l206 -572c17.4 -48.2 51.2 -51.5 90 -55c6 -6 6 -27 0 -33
c-35 1 -73 2 -114 2c-39 0 -94 -1 -131 -2c-6 6 -6 27 0 33c47.6 3.4 85.8 6.5 74 41l-58 169h-211c-24 0 -30 -4 -35 -17z" />
    <glyph glyph-name="uni04D1" unicode="&#x4d1;" horiz-adv-x="457" 
d="M330 590c0 -55 -58 -87 -122 -87c-65 0 -120 33 -120 87c0 18 16 33 39 33c22 0 34 -14 34 -30c0 -3 0 -5 -1 -8s-1 -6 -1 -8c0 -22 20 -43 50 -43c29 0 50 20 50 42c0 3 0 6 -1 9c-1 2 -1 4 -1 7c0 17 17 31 35 31c24 0 38 -14 38 -33zM293 233l-79 -21
c-74 -19 -95 -65 -95 -110c0 -31 22 -71 72 -71c28 0 62 23 88 44c8 6 14 13 14 26v132zM293 48h-2l-20 -16c-44 -34 -74.2 -42 -109 -42c-70 0 -126 26 -126 108c0 68 69 121 165 145l86 21c3 1 6 5 6 12c0 113 -47 130 -81 130c-38 0 -80 -11 -80 -42c0 -11 1 -17 2 -20
c2 -4 3 -11 3 -18c0 -13 -18 -34 -47 -34c-23 0 -35 12 -35 36c0 57 83 111 165 111c73 0 151 -27 151 -169v-147c0 -46 1 -85 30 -85c12.7 0 29.5 9.8 37 16c11.3 -6.3 15.3 -14.7 17 -27c-20.7 -20 -56.7 -37 -95 -37c-50.4 0 -61 27 -67 58z" />
    <glyph glyph-name="uni04D2" unicode="&#x4d2;" horiz-adv-x="695" 
d="M227 758c0 26 21 48 47 48s47 -22 47 -48s-21 -47 -47 -47s-47 21 -47 47zM396 758c0 26 21 48 47 48s47 -22 47 -48s-21 -47 -47 -47s-47 21 -47 47zM263 283h177l-94 272h-6l-102.2 -258.7c-3.8 -10.3 3.2 -13.3 25.2 -13.3zM155 79c-15.6 -41.1 31.4 -45.4 69 -48
c6 -6 6 -27 0 -33c-37 1 -87 2 -128 2c-30.3 0 -63 -1 -89 -2c-6 6 -6 27 0 33c43.5 3 74 9 100 71l227 536c13 0 40 11 55 20l206 -572c17.4 -48.2 51.2 -51.5 90 -55c6 -6 6 -27 0 -33c-35 1 -73 2 -114 2c-39 0 -94 -1 -131 -2c-6 6 -6 27 0 33c47.6 3.4 85.8 6.5 74 41
l-58 169h-211c-24 0 -30 -4 -35 -17z" />
    <glyph glyph-name="uni04D3" unicode="&#x4d3;" horiz-adv-x="457" 
d="M83 575c0 26 21 48 47 48s47 -22 47 -48s-21 -47 -47 -47s-47 21 -47 47zM252 575c0 26 21 48 47 48s47 -22 47 -48s-21 -47 -47 -47s-47 21 -47 47zM293 233l-79 -21c-74 -19 -95 -65 -95 -110c0 -31 22 -71 72 -71c28 0 62 23 88 44c8 6 14 13 14 26v132zM293 48h-2
l-20 -16c-44 -34 -74.2 -42 -109 -42c-70 0 -126 26 -126 108c0 68 69 121 165 145l86 21c3 1 6 5 6 12c0 113 -47 130 -81 130c-38 0 -80 -11 -80 -42c0 -11 1 -17 2 -20c2 -4 3 -11 3 -18c0 -13 -18 -34 -47 -34c-23 0 -35 12 -35 36c0 57 83 111 165 111
c73 0 151 -27 151 -169v-147c0 -46 1 -85 30 -85c12.7 0 29.5 9.8 37 16c11.3 -6.3 15.3 -14.7 17 -27c-20.7 -20 -56.7 -37 -95 -37c-50.4 0 -61 27 -67 58z" />
    <glyph glyph-name="uni04D4" unicode="&#x4d4;" horiz-adv-x="865" 
d="M271 305h158v270c0 12 -1 21 -5 23zM429 122v144h-178l-97 -187c-20.3 -39.1 32.4 -45.4 70 -48c6 -6 6 -27 0 -33c-37 1 -87 2 -128 2c-39 0 -52 -1 -89 -2c-6 6 -6 27 0 33c43.5 3 72.3 11.7 104 71l243 455c16.2 30.7 10 54 -60 57c-6 6 -6 27 0 33
c50 -1 115 -2 115 -2h140h176c24 0 32 1 49 4c3 0 4 -1 4 -3c2 -8 17 -104 22 -145c-9.79999 -4.70001 -20.6 -6.79999 -33 -5c-22 69 -38 109 -113 109h-105c-24 0 -36 -20 -36 -44v-200h91c85 0 88 13 91 68c6 6 27 6 33 0c-1 -30 -2 -52.5 -2 -86c0 -34.3 1 -53 2 -88
c-6 -6 -27 -6 -33 0c-3 45 -6 68 -91 68h-91v-241c0 -27 14 -43 36 -43h136c76 0 111 59 131 131c13.1 3.2 24.6 1 35 -5c-8 -51 -23 -117 -37 -167c0 0 -80 2 -128 2h-214s-81 -1 -130 -2c-6 6 -6 27 0 33c70 3 87 8 87 91z" />
    <glyph glyph-name="uni04D5" unicode="&#x4d5;" horiz-adv-x="687" 
d="M265 384c-14.7 15.3 -44 22 -65 22c-39 0 -77 -14 -77 -43c0 -10 1 -17 3 -20c2 -4 3 -11 3 -18c0 -16 -14 -33 -39 -33c-31 0 -40 25 -40 45c0 58 78 102 160 102c24 0 101 -3 138 -70c33 45 85 70 142 70c114 0 158 -66 158 -100c0 -81 -46 -118 -277 -121
c0 -90 59 -179 134 -179c54 0 89 25 119 60c8.70001 -0.800003 16.7 -10.7 20 -16c-29 -54 -87 -93 -153 -93c-91 0 -129.7 45.1 -151 69c-8 9 -12.1 5.1 -24 -7c-46 -47 -96.9 -62 -134 -62c-36 0 -72.1 5.5 -94 18c-34.5 19.6 -49 52.4 -49 94c0 40 27 82 63 103.2
c43.1 25.4 109.2 38.7 196 44.8c-1 79 -10 110 -33 134zM298 215c-69.3 -5.5 -119.3 -22.4 -150 -45.1c-24.7 -18.2 -37 -40.2 -37 -62.9c0 -43 27 -75 83 -75c32 0 84 41 99 81c4 19 5 52 5 102zM372 253c153 2 200 22 200 83c0 32 -35 70 -83 70c-68 0 -109 -68 -117 -153
z" />
    <glyph glyph-name="uni04D6" unicode="&#x4d6;" horiz-adv-x="557" 
d="M274 729c33 0 56 17 56 34c0 5 -1 11 -1 13c0 15 10 30 33 30c27 0 37 -14 37 -33c0 -52 -59 -75 -125 -75s-125 23 -125 75c0 19 10 33 37 33c23 0 33 -15 33 -30c0 -2 -1 -8 -1 -13c0 -17 23 -34 56 -34zM281 361c85 0 88 13 91 68c6 6 27 6 33 0c-1 -24 -2 -58 -2 -86
c0 -34.3 1 -62 2 -88c-6 -6 -27 -6 -33 0c-3 45 -6 68 -91 68h-91v-221c0 -47 14 -63 56 -63h116c76 0 111 59 131 131c13.1 3.2 24.6 1 35 -5c-8 -51 -23 -117 -37 -167c0 0 -80 2 -128 2h-215c-33 0 -93 -1 -130 -2c-6 6 -6 27 0 33c70 3 87 8 87 91v401
c0 83 -17 88 -87 91c-6 6 -6 27 0 33c40 -1 98.5 -2 129 -2h255c24 0 32 1 49 4c3 0 4 -1 4 -3c2 -8 17 -104 22 -145c-9.79999 -4.70001 -20.6 -6.79999 -33 -5c-22 69 -38 109 -113 109h-75c-54 0 -66 -20 -66 -64v-180h91z" />
    <glyph glyph-name="uni04D7" unicode="&#x4d7;" horiz-adv-x="447" 
d="M345 590c0 -55 -58 -87 -122 -87c-65 0 -120 33 -120 87c0 18 16 33 39 33c22 0 34 -14 34 -30c0 -3 0 -5 -1 -8s-1 -6 -1 -8c0 -22 20 -43 50 -43c29 0 50 20 50 42c0 3 0 6 -1 9c-1 2 -1 4 -1 7c0 17 17 31 35 31c24 0 38 -14 38 -33zM124 282l181 3
c11 0.200012 15 5 15 14c0 84 -45 105 -83 105c-24 0 -94 -9 -113 -122zM386 93c12 -1 18 -6 21 -16c-40 -52 -94 -87 -170 -87c-72 0 -119 24 -153 64c-33 38 -47 92 -47 148c0 152 113 235 200 235c139 0 169 -90 169 -174c0 -11 -7 -17 -19 -17l-266 2
c0 -58 12 -104 32 -137c31 -51 73 -72 109 -72c58 0 87 16 124 54z" />
    <glyph glyph-name="uni04D8" unicode="&#x4d8;" horiz-adv-x="644" 
d="M97 523l-23 24c79 74 126 111 236 111c215 0 301 -173 301 -332c0 -195 -102 -338 -295 -338c-192 0 -263 130 -274 272h478c1 11 1 23 1 37c0 186 -92 327 -227 327c-93 0 -144 -49 -197 -101zM122 216c31 -130 103 -194 201 -194c106 0 170 94 188 194h-389z" />
    <glyph glyph-name="afii10846" unicode="&#x4d9;" horiz-adv-x="447" 
d="M304 146l-181 -3c-11 -0.199997 -15 -5 -15 -14c0 -84 45 -105 83 -105c24 0 94 9 113 122zM42 335c-12 1 -18 6 -21 16c40 52 94 87 170 87c72 0 119 -24 153 -64c33 -38 47 -92 47 -148c0 -152 -113 -235 -200 -235c-139 0 -169 90 -169 174c0 11 7 17 19 17l266 -2
c0 58 -12 104 -32 137c-31 51 -73 72 -109 72c-58 0 -87 -16 -124 -54z" />
    <glyph glyph-name="uni04DA" unicode="&#x4da;" horiz-adv-x="644" 
d="M372 759c0 26 22 48 48 48s48 -22 48 -48s-22 -48 -48 -48s-48 22 -48 48zM183 759c0 26 22 48 48 48s48 -22 48 -48s-22 -48 -48 -48s-48 22 -48 48zM97 523l-23 24c79 74 126 111 236 111c215 0 301 -173 301 -332c0 -195 -102 -338 -295 -338
c-192 0 -263 130 -274 272h478c1 11 1 23 1 37c0 186 -92 327 -227 327c-93 0 -144 -49 -197 -101zM122 216c31 -130 103 -194 201 -194c106 0 170 94 188 194h-389z" />
    <glyph glyph-name="uni04DB" unicode="&#x4db;" horiz-adv-x="447" 
d="M83 573c0 26 21 48 47 48s47 -22 47 -48s-21 -47 -47 -47s-47 21 -47 47zM252 573c0 26 21 48 47 48s47 -22 47 -48s-21 -47 -47 -47s-47 21 -47 47zM304 146l-181 -3c-11 -0.199997 -15 -5 -15 -14c0 -84 45 -105 83 -105c24 0 94 9 113 122zM42 335c-12 1 -18 6 -21 16
c40 52 94 87 170 87c72 0 119 -24 153 -64c33 -38 47 -92 47 -148c0 -152 -113 -235 -200 -235c-139 0 -169 90 -169 174c0 11 7 17 19 17l266 -2c0 58 -12 104 -32 137c-31 51 -73 72 -109 72c-58 0 -87 -16 -124 -54z" />
    <glyph glyph-name="uni04E0" unicode="&#x4e0;" horiz-adv-x="608" 
d="M167 645h355c21 0 28 -6 28 -14c0 -10 -6 -26 -15 -41l-168 -302c134 -27 197 -126 197 -237c0 -139 -132 -262 -292 -262c-80 0 -230 35 -230 101c0 23 10 50 44 50c27 0 55 -14 68 -35c32 -49 82 -79 137 -79c87 0 184 121 184 216c0 159 -115 213 -184 213
c-16 0 -27 0 -41 -3l196 353h-249c-74 -1 -103 -84 -107 -128l-26 2l21 188c23 -5 58 -22 82 -22z" />
    <glyph glyph-name="uni04E1" unicode="&#x4e1;" horiz-adv-x="416" 
d="M127 107l168 288h-145c-30 0 -64 -21 -84 -94l-26 3c8 49 14 93 15 138h25c2 -6 11 -13 26 -13h203c29 0 65 6 67 6c7 0 13 -2 13 -6s-6 -15 -22 -42l-151 -250c96 0 177 -53 177 -159c0 -119 -85 -213 -208 -213c-85 0 -143 61 -143 93c0 18 10 36 32 36
c23 0 36 -10 44 -34c8 -22 35 -60 75 -60c50 0 119 54 119 162c0 101 -31 141 -109 141c-11 0 -41 -7 -59 -11z" />
    <glyph glyph-name="uni04E6" unicode="&#x4e6;" horiz-adv-x="702" 
d="M393 759c0 26 22 48 48 48s48 -22 48 -48s-22 -48 -48 -48s-48 22 -48 48zM204 759c0 26 22 48 48 48s48 -22 48 -48s-22 -48 -48 -48s-48 22 -48 48zM331 622c-99 0 -198 -85 -198 -295c0 -192 115 -301 237 -301c114 0 200 105 200 284c0 202 -107 312 -239 312z
M666 329c0 -84 -22 -156.3 -61.8 -213c-54.9 -78.3 -143.4 -126 -254.2 -126c-170 0 -313 123 -313 320c0 193.9 113.3 348 307 348c179 0 322 -122 322 -329z" />
    <glyph glyph-name="uni04E7" unicode="&#x4e7;" horiz-adv-x="504" 
d="M121 575c0 26 21 48 47 48s47 -22 47 -48s-21 -47 -47 -47s-47 21 -47 47zM290 575c0 26 21 48 47 48s47 -22 47 -48s-21 -47 -47 -47s-47 21 -47 47zM41 205c0 63.2 19 121.4 55.3 164c36.6 43 90.9 70 156.7 70c153 0 210 -121 210 -225
c0 -61.3 -20.3 -124.2 -65.1 -168c-34.1 -33.3 -82.5 -56 -146.9 -56c-142 0 -210 113 -210 215zM238 404c-90 0 -111 -89 -111 -176c0 -77 34 -203 138 -203c47 0 112 31 112 157c0 144 -53 222 -139 222z" />
    <glyph glyph-name="uni04E8" unicode="&#x4e8;" horiz-adv-x="702" 
d="M331 622c-99 0 -198 -85 -198 -295v-0.200012c39.3 29.6 98.7 43.2 135 43.2c98 0 128 -47 191 -47c31.2 0 76.5 12.1 108.9 34.7c-15.6 171.6 -115.7 264.3 -236.9 264.3zM666 329c0 -84 -22 -156.3 -61.8 -213c-54.9 -78.3 -143.4 -126 -254.2 -126
c-170 0 -313 123 -313 320c0 193.9 113.3 348 307 348c179 0 322 -122 322 -329zM570 315.3c-41.8 -38 -91.4 -49.3 -129 -49.3c-92 0 -116 46 -191 46c-28.7 0 -80.3 -4.79999 -115.1 -26.6c15.3 -166 122.2 -259.4 235.1 -259.4c114 0 200 105 200 284v5.29999z" />
    <glyph glyph-name="uni04E9" unicode="&#x4e9;" horiz-adv-x="504" 
d="M41 205c0 63.2 19 121.4 55.3 164c36.6 43 90.9 70 156.7 70c153 0 210 -121 210 -225c0 -61.3 -20.3 -124.2 -65.1 -168c-34.1 -33.3 -82.5 -56 -146.9 -56c-142 0 -210 113 -210 215zM238 404c-90 0 -111 -89 -111 -176v-1.89999c21.4 11.8 64.8 22.9 96 22.9
c45 0 67 -20 105 -20c16.3 0 32.5 4.39999 45.9 9.5c-12.4 107.8 -61.9 165.5 -135.9 165.5zM376.3 210.2c-22.8 -13.6 -59.2 -31.2 -92.3 -31.2c-43 0 -77 28 -112 28c-9.7 0 -31.9 -4.60001 -43.7 -6.3c7.09999 -76.2 44.3 -175.7 136.7 -175.7c47 0 112 31 112 157
c0 9.7 -0.200012 19.1 -0.700012 28.2z" />
    <glyph glyph-name="uni04EA" unicode="&#x4ea;" horiz-adv-x="702" 
d="M390 761c0 26 22 48 48 48s48 -22 48 -48s-22 -48 -48 -48s-48 22 -48 48zM201 761c0 26 22 48 48 48s48 -22 48 -48s-22 -48 -48 -48s-48 22 -48 48zM331 622c-99 0 -198 -85 -198 -295v-0.200012c39.3 29.6 98.7 43.2 135 43.2c98 0 128 -47 191 -47
c31.2 0 76.5 12.1 108.9 34.7c-15.6 171.6 -115.7 264.3 -236.9 264.3zM666 329c0 -84 -22 -156.3 -61.8 -213c-54.9 -78.3 -143.4 -126 -254.2 -126c-170 0 -313 123 -313 320c0 193.9 113.3 348 307 348c179 0 322 -122 322 -329zM570 315.3
c-41.8 -38 -91.4 -49.3 -129 -49.3c-92 0 -116 46 -191 46c-28.7 0 -80.3 -4.79999 -115.1 -26.6c15.3 -166 122.2 -259.4 235.1 -259.4c114 0 200 105 200 284v5.29999z" />
    <glyph glyph-name="uni04EB" unicode="&#x4eb;" horiz-adv-x="504" 
d="M41 205c0 63.2 19 121.4 55.3 164c36.6 43 90.9 70 156.7 70c153 0 210 -121 210 -225c0 -61.3 -20.3 -124.2 -65.1 -168c-34.1 -33.3 -82.5 -56 -146.9 -56c-142 0 -210 113 -210 215zM238 404c-90 0 -111 -89 -111 -176v-1.89999c21.4 11.8 64.8 22.9 96 22.9
c45 0 67 -20 105 -20c16.3 0 32.5 4.39999 45.9 9.5c-12.4 107.8 -61.9 165.5 -135.9 165.5zM116 573c0 26 21 48 47 48s47 -22 47 -48s-21 -47 -47 -47s-47 21 -47 47zM285 573c0 26 21 48 47 48s47 -22 47 -48s-21 -47 -47 -47s-47 21 -47 47zM376.3 210.2
c-22.8 -13.6 -59.2 -31.2 -92.3 -31.2c-43 0 -77 28 -112 28c-9.7 0 -31.9 -4.60001 -43.7 -6.3c7.09999 -76.2 44.3 -175.7 136.7 -175.7c47 0 112 31 112 157c0 9.7 -0.200012 19.1 -0.700012 28.2z" />
    <glyph glyph-name="uni04EF" unicode="&#x4ef;" horiz-adv-x="515" 
d="M204 -160c-36 -64 -76 -72 -97 -72c-27 0 -47 16 -47 37c0 13 15 43 44 43c11 0 15 -3 29 -3c25 0 39 9 50 29c15 31 27.1 58.6 39 92c10 28 -5.3 73.9 -14 94l-113.1 263c-26.2 61 -39.2 70 -78.9 75c-6 6 -6 27 0 33c20 -1 47 -2 81 -2c36 0 76 1 113 2
c6 -6 6 -27 0 -33c-56 -4.29999 -50.8 -22.8 -32.8 -65l88.7 -208c8.5 -19.8 16.9 -17.1 23.9 -1l99.2 229c16 36 -16.4 42 -48 45c-6 6 -6 27 0 33c30 -1 61 -2 91 -2c28 0 51 1 71 2c6 -6 6 -27 0 -33c-47 -5.70001 -61.3 -21.7 -81 -64c-52.2 -112.4 -97 -215 -177 -408
c-12.3 -29.6 -25.4 -58.2 -41 -86zM375 518h-224c-9 0 -13 11 -13 18c0 12 11 32 22 32h225c10 0 14 -11 14 -17c0 -12 -11 -33 -24 -33z" />
    <glyph glyph-name="uni04F1" unicode="&#x4f1;" horiz-adv-x="515" 
d="M204 -160c-36 -64 -76 -72 -97 -72c-27 0 -47 16 -47 37c0 13 15 43 44 43c11 0 15 -3 29 -3c25 0 39 9 50 29c15 31 27.1 58.6 39 92c10 28 -5.3 73.9 -14 94l-113.1 263c-26.2 61 -39.2 70 -78.9 75c-6 6 -6 27 0 33c20 -1 47 -2 81 -2c36 0 76 1 113 2
c6 -6 6 -27 0 -33c-56 -4.29999 -50.8 -22.8 -32.8 -65l88.7 -208c8.5 -19.8 16.9 -17.1 23.9 -1l99.2 229c16 36 -16.4 42 -48 45c-6 6 -6 27 0 33c30 -1 61 -2 91 -2c28 0 51 1 71 2c6 -6 6 -27 0 -33c-47 -5.70001 -61.3 -21.7 -81 -64c-52.2 -112.4 -97 -215 -177 -408
c-12.3 -29.6 -25.4 -58.2 -41 -86zM149 573c0 26 21 48 47 48s47 -22 47 -48s-21 -47 -47 -47s-47 21 -47 47zM318 573c0 26 21 48 47 48s47 -22 47 -48s-21 -47 -47 -47s-47 21 -47 47z" />
    <glyph glyph-name="uni04F3" unicode="&#x4f3;" horiz-adv-x="515" 
d="M204 -160c-36 -64 -76 -72 -97 -72c-27 0 -47 16 -47 37c0 13 15 43 44 43c11 0 15 -3 29 -3c25 0 39 9 50 29c15 31 27.1 58.6 39 92c10 28 -5.3 73.9 -14 94l-113.1 263c-26.2 61 -39.2 70 -78.9 75c-6 6 -6 27 0 33c20 -1 47 -2 81 -2c36 0 76 1 113 2
c6 -6 6 -27 0 -33c-56 -4.29999 -50.8 -22.8 -32.8 -65l88.7 -208c8.5 -19.8 16.9 -17.1 23.9 -1l99.2 229c16 36 -16.4 42 -48 45c-6 6 -6 27 0 33c30 -1 61 -2 91 -2c28 0 51 1 71 2c6 -6 6 -27 0 -33c-47 -5.70001 -61.3 -21.7 -81 -64c-52.2 -112.4 -97 -215 -177 -408
c-12.3 -29.6 -25.4 -58.2 -41 -86zM462 615c0 -6 -1 -13 -7 -19l-114 -110c-2 -2 -4 -2 -6 -2c-5 0 -14 5 -14 13c0 1 0 3 1 4l78 139c5 9 12 12 24 12c21 0 38 -18.4 38 -37zM330 621c0 -5 -1 -11 -5 -16l-102 -121c-2 -2 -5 -3 -8 -3c-6 0 -14 5 -14 13c0 1 0 2 1 3
l64 146c6 13 22 14 26 14c20.9 0 38 -15.5 38 -36z" />
    <glyph glyph-name="uni1E00" unicode="&#x1e00;" horiz-adv-x="695" 
d="M336 -79c-31 0 -48 -23 -48 -53c0 -28 17 -53 48 -53s48 25 48 53c0 31 -18 53 -48 53zM248 -132c0 46 42 85 88 85s88 -38 88 -85c0 -45 -40 -85 -88 -85c-46 0 -88 39 -88 85zM263 283h177l-94 272h-6l-102.2 -258.7c-3.8 -10.3 3.2 -13.3 25.2 -13.3zM155 79
c-15.6 -41.1 31.4 -45.4 69 -48c6 -6 6 -27 0 -33c-37 1 -87 2 -128 2c-30.3 0 -63 -1 -89 -2c-6 6 -6 27 0 33c43.5 3 74 9 100 71l227 536c13 0 40 11 55 20l206 -572c17.4 -48.2 51.2 -51.5 90 -55c6 -6 6 -27 0 -33c-35 1 -73 2 -114 2c-39 0 -94 -1 -131 -2
c-6 6 -6 27 0 33c47.6 3.4 85.8 6.5 74 41l-58 169h-211c-24 0 -30 -4 -35 -17z" />
    <glyph glyph-name="uni1E01" unicode="&#x1e01;" horiz-adv-x="457" 
d="M224 -80c-31 0 -48 -23 -48 -53c0 -28 17 -53 48 -53s48 25 48 53c0 31 -18 53 -48 53zM136 -133c0 46 42 85 88 85s88 -38 88 -85c0 -45 -40 -85 -88 -85c-46 0 -88 39 -88 85zM293 233l-79 -21c-74 -19 -95 -65 -95 -110c0 -31 22 -71 72 -71c28 0 62 23 88 44
c8 6 14 13 14 26v132zM293 48h-2l-20 -16c-44 -34 -74.2 -42 -109 -42c-70 0 -126 26 -126 108c0 68 69 121 165 145l86 21c3 1 6 5 6 12c0 113 -47 130 -81 130c-38 0 -80 -11 -80 -42c0 -11 1 -17 2 -20c2 -4 3 -11 3 -18c0 -13 -18 -34 -47 -34c-23 0 -35 12 -35 36
c0 57 83 111 165 111c73 0 151 -27 151 -169v-147c0 -46 1 -85 30 -85c12.7 0 29.5 9.8 37 16c11.3 -6.3 15.3 -14.7 17 -27c-20.7 -20 -56.7 -37 -95 -37c-50.4 0 -61 27 -67 58z" />
    <glyph glyph-name="uni1E02" unicode="&#x1e02;" horiz-adv-x="588" 
d="M224 754c0 28 24 52 52 52s52 -24 52 -52s-24 -52 -52 -52s-52 24 -52 52zM191 550v-184h74c83 0 142 30 142 115c0 102 -73 132 -129 132c-87 0 -87 -10 -87 -63zM191 332v-214c0 -61 13 -87 83 -87c152 0 180 61 180 134c0 90 -57 167 -194 167h-69zM148 645
c36 0 90 2 125 2c186 0 215 -87 215 -154c0 -54.3 -44.9 -105.6 -95 -131v-2c87 -25 154 -80 154 -176c0 -86 -53 -186 -252 -186c-84 0 -110.3 2 -146 2c-37.1 0 -91 -1 -130 -2c-6 6 -6 27 0 33c70 3 87 8 87 91v401c0 83 -17 88 -87 91c-6 6 -6 27 0 33
c39 -1 93.3 -2 129 -2z" />
    <glyph glyph-name="uni1E03" unicode="&#x1e03;" horiz-adv-x="493" 
d="M218 599c0 24 28 48 52 48c27 0 48 -28 48 -52c0 -21.1 -24 -48 -52 -48c-24 0 -48 26 -48 52zM174 363c-12.9 -11.4 -17 -21 -17 -42v-250c20 -25 41 -47 72 -47c95 0 141 86 141 200c0 97 -50 171 -111 171c-29 0 -59 -9 -85 -32zM167 394c31 28 69.1 45 112 45
c87 0 177 -75 177 -197c0 -159 -119 -252 -221 -252c-35.3 0 -65.1 5.5 -88 24.8c-11 9.2 -17 9.2 -27.3 -2.8c-7.7 -8.9 -17.6 -18.2 -23.7 -24c-12 0 -17 4 -22 12c3 14 4 32 4 71v488c0 84 -12 79 -64 82c-6 6 -8 22 -6 30c40 3 115 17 140 27c9 0 13 -3 13 -10
c0 0 -4 -40 -4 -105v-184c0 -9 3.7 -10.7 10 -5z" />
    <glyph glyph-name="uni1E04" unicode="&#x1e04;" horiz-adv-x="588" 
d="M220 -156c0 24 28 48 52 48c27 0 48 -28 48 -52c0 -21.1 -24 -48 -52 -48c-24 0 -48 26 -48 52zM191 550v-184h74c83 0 142 30 142 115c0 102 -73 132 -129 132c-87 0 -87 -10 -87 -63zM191 332v-214c0 -61 13 -87 83 -87c152 0 180 61 180 134c0 90 -57 167 -194 167
h-69zM148 645c36 0 90 2 125 2c186 0 215 -87 215 -154c0 -54.3 -44.9 -105.6 -95 -131v-2c87 -25 154 -80 154 -176c0 -86 -53 -186 -252 -186c-84 0 -110.3 2 -146 2c-37.1 0 -91 -1 -130 -2c-6 6 -6 27 0 33c70 3 87 8 87 91v401c0 83 -17 88 -87 91c-6 6 -6 27 0 33
c39 -1 93.3 -2 129 -2z" />
    <glyph glyph-name="uni1E05" unicode="&#x1e05;" horiz-adv-x="493" 
d="M175 -156c0 24 28 48 52 48c27 0 48 -28 48 -52c0 -21.1 -24 -48 -52 -48c-24 0 -48 26 -48 52zM174 363c-12.9 -11.4 -17 -21 -17 -42v-250c20 -25 41 -47 72 -47c95 0 141 86 141 200c0 97 -50 171 -111 171c-29 0 -59 -9 -85 -32zM167 394c31 28 69.1 45 112 45
c87 0 177 -75 177 -197c0 -159 -119 -252 -221 -252c-35.3 0 -65.1 5.5 -88 24.8c-11 9.2 -17 9.2 -27.3 -2.8c-7.7 -8.9 -17.6 -18.2 -23.7 -24c-12 0 -17 4 -22 12c3 14 4 32 4 71v488c0 84 -12 79 -64 82c-6 6 -8 22 -6 30c40 3 115 17 140 27c9 0 13 -3 13 -10
c0 0 -4 -40 -4 -105v-184c0 -9 3.7 -10.7 10 -5z" />
    <glyph glyph-name="uni1E06" unicode="&#x1e06;" horiz-adv-x="588" 
d="M373 -131h-205c-8 0 -12 8 -12 15c0 12 10 29 22 29h205c9 0 13 -7 13 -14c0 -12 -10 -30 -23 -30zM191 550v-184h74c83 0 142 30 142 115c0 102 -73 132 -129 132c-87 0 -87 -10 -87 -63zM191 332v-214c0 -61 13 -87 83 -87c152 0 180 61 180 134c0 90 -57 167 -194 167
h-69zM148 645c36 0 90 2 125 2c186 0 215 -87 215 -154c0 -54.3 -44.9 -105.6 -95 -131v-2c87 -25 154 -80 154 -176c0 -86 -53 -186 -252 -186c-84 0 -110.3 2 -146 2c-37.1 0 -91 -1 -130 -2c-6 6 -6 27 0 33c70 3 87 8 87 91v401c0 83 -17 88 -87 91c-6 6 -6 27 0 33
c39 -1 93.3 -2 129 -2z" />
    <glyph glyph-name="uni1E07" unicode="&#x1e07;" horiz-adv-x="493" 
d="M343 -131h-205c-8 0 -12 8 -12 15c0 12 10 29 22 29h205c9 0 13 -7 13 -14c0 -12 -10 -30 -23 -30zM174 363c-12.9 -11.4 -17 -21 -17 -42v-250c20 -25 41 -47 72 -47c95 0 141 86 141 200c0 97 -50 171 -111 171c-29 0 -59 -9 -85 -32zM167 394c31 28 69.1 45 112 45
c87 0 177 -75 177 -197c0 -159 -119 -252 -221 -252c-35.3 0 -65.1 5.5 -88 24.8c-11 9.2 -17 9.2 -27.3 -2.8c-7.7 -8.9 -17.6 -18.2 -23.7 -24c-12 0 -17 4 -22 12c3 14 4 32 4 71v488c0 84 -12 79 -64 82c-6 6 -8 22 -6 30c40 3 115 17 140 27c9 0 13 -3 13 -10
c0 0 -4 -40 -4 -105v-184c0 -9 3.7 -10.7 10 -5z" />
    <glyph glyph-name="uni1E08" unicode="&#x1e08;" horiz-adv-x="646" 
d="M408 819c28.6 -13.3 49.3 -30.7 62 -52l-144 -58c-21 -9 -33 -12 -42 -12s-15 7 -15 15c0 7 2 12 15 21zM367 -96c-19 0 -29 -1 -45 -6l-6 6l35.8 86c-211.5 2.3 -314.8 147.6 -314.8 320c0 104.3 39.6 202.2 106 263c59 54 130 85 215 85c123 0 168 -40 219 -45
c10 -55 17 -103 22 -155c-11.3 -6 -21 -9 -33 -5c-26 86 -81 168 -219 168c-52 0 -110 -28 -159.6 -89c-36.5 -44.9 -59.4 -116.7 -59.4 -203c0 -146 93.4 -298 228 -298c93 0 161 31 232 109c11 0 18 -6 23 -15c-61 -79.8 -138.8 -125 -224.2 -133.5l-21.8 -58.5
c8 2 17 3 26 3c40 0 71 -24 71 -62c0 -43 -46 -74 -107 -74c-32 0 -49 6 -74 17c0 12 3 19 10 26c27 -10 38 -14 58 -14c30 0 51 14 51 40c0 21 -10 35 -33 35z" />
    <glyph glyph-name="uni1E09" unicode="&#x1e09;" horiz-adv-x="428" 
d="M286 671c3 1 9 2 14 2c6.39999 0 32 -1 55 -23l3 -11l-115 -109c-15 -15 -23 -19 -30 -19s-14 6 -14 13c0 11.2 3.3 15.2 11.4 28zM228 -96c-19 0 -29 -1 -45 -6l-6 6l36.2 86.9c-112.5 9.7 -176.2 95.7 -176.2 217.1c0 142 106 231 205 231c96 0 153 -40 153 -95
c0 -31 -28 -44 -49 -44s-35 9 -38 36c-4 35 -12 70 -71 70c-66 0 -114 -66 -114 -176c0 -117 61 -191 134 -191c43 0 86 22 120 66c9 -1 17 -5 21 -14c-46.5 -76.3 -95.6 -98.1 -150.6 -100.7l-21.4 -57.3c8 2 17 3 26 3c40 0 71 -24 71 -62c0 -43 -46 -74 -107 -74
c-32 0 -49 6 -74 17c0 12 3 19 10 26c27 -10 38 -14 58 -14c30 0 51 14 51 40c0 21 -10 35 -33 35z" />
    <glyph glyph-name="uni1E0A" unicode="&#x1e0a;" horiz-adv-x="701" 
d="M244 754c0 28 24 52 52 52s52 -24 52 -52s-24 -52 -52 -52s-52 24 -52 52zM191 84c0 -32 11 -52 109 -52c141 0 262 50 262 252c0 154 -71 329 -287 329c-49 0 -84 -14 -84 -49v-480zM148 645c39 0 94 2 165 2c192 0 345 -153 345 -339c0 -246 -186 -310 -327 -310
c-103 0 -145 2 -182 2c-37.7 0 -91 -1 -130 -2c-6 6 -6 27 0 33c70 3 87 8 87 91v401c0 83 -17 88 -87 91c-6 6 -6 27 0 33c40 -1 93.3 -2 129 -2z" />
    <glyph glyph-name="uni1E0B" unicode="&#x1e0b;" horiz-adv-x="506" 
d="M128 599c0 24 28 48 52 48c27 0 48 -28 48 -52c0 -21.1 -24 -48 -52 -48c-24 0 -48 26 -48 52zM345 124v190c0 31 -3 38 -17 54c-20 23 -45 36 -81 36c-20 0 -62 -3 -93 -50c-15 -21 -29 -61 -29 -133c0 -125 56 -184 110 -184c25 0 57 16 94 48c14.1 12.2 16 20 16 39z
M334 50.3c-49 -40.3 -86 -60.3 -125 -60.3c-108 0 -170 90 -170 213c0 74 26 133 69 176c40 38 84 60 150 60c33 0 74 -17 78 -17c7 0 9 2 9 9v128c0 84 -12 79 -64 82c-6 6 -8 22 -6 30c40 3 115 17 140 27c9 0 13 -3 13 -10c0 0 -4 -40 -4 -105v-453c0 -49 9 -68 73 -73
c6 -6 6 -21 0 -27c-61 -7 -96 -22 -118 -40c-6 -2.5 -11 -3 -19 0c0 0 -8.5 34.5 -11 59c-0.700012 7 -10.2 5.2 -15 1.3z" />
    <glyph glyph-name="uni1E0C" unicode="&#x1e0c;" horiz-adv-x="701" 
d="M240 -156c0 24 28 48 52 48c27 0 48 -28 48 -52c0 -21.1 -24 -48 -52 -48c-24 0 -48 26 -48 52zM191 84c0 -32 11 -52 109 -52c141 0 262 50 262 252c0 154 -71 329 -287 329c-49 0 -84 -14 -84 -49v-480zM148 645c39 0 94 2 165 2c192 0 345 -153 345 -339
c0 -246 -186 -310 -327 -310c-103 0 -145 2 -182 2c-37.7 0 -91 -1 -130 -2c-6 6 -6 27 0 33c70 3 87 8 87 91v401c0 83 -17 88 -87 91c-6 6 -6 27 0 33c40 -1 93.3 -2 129 -2z" />
    <glyph glyph-name="uni1E0D" unicode="&#x1e0d;" horiz-adv-x="506" 
d="M185 -156c0 24 28 48 52 48c27 0 48 -28 48 -52c0 -21.1 -24 -48 -52 -48c-24 0 -48 26 -48 52zM345 124v190c0 31 -3 38 -17 54c-20 23 -45 36 -81 36c-20 0 -62 -3 -93 -50c-15 -21 -29 -61 -29 -133c0 -125 56 -184 110 -184c25 0 57 16 94 48c14.1 12.2 16 20 16 39z
M334 50.3c-49 -40.3 -86 -60.3 -125 -60.3c-108 0 -170 90 -170 213c0 74 26 133 69 176c40 38 84 60 150 60c33 0 74 -17 78 -17c7 0 9 2 9 9v128c0 84 -12 79 -64 82c-6 6 -8 22 -6 30c40 3 115 17 140 27c9 0 13 -3 13 -10c0 0 -4 -40 -4 -105v-453c0 -49 9 -68 73 -73
c6 -6 6 -21 0 -27c-61 -7 -96 -22 -118 -40c-6 -2.5 -11 -3 -19 0c0 0 -8.5 34.5 -11 59c-0.700012 7 -10.2 5.2 -15 1.3z" />
    <glyph glyph-name="uni1E0E" unicode="&#x1e0e;" horiz-adv-x="701" 
d="M380 -131h-205c-8 0 -12 8 -12 15c0 12 10 29 22 29h205c9 0 13 -7 13 -14c0 -12 -10 -30 -23 -30zM191 84c0 -32 11 -52 109 -52c141 0 262 50 262 252c0 154 -71 329 -287 329c-49 0 -84 -14 -84 -49v-480zM148 645c39 0 94 2 165 2c192 0 345 -153 345 -339
c0 -246 -186 -310 -327 -310c-103 0 -145 2 -182 2c-37.7 0 -91 -1 -130 -2c-6 6 -6 27 0 33c70 3 87 8 87 91v401c0 83 -17 88 -87 91c-6 6 -6 27 0 33c40 -1 93.3 -2 129 -2z" />
    <glyph glyph-name="uni1E0F" unicode="&#x1e0f;" horiz-adv-x="506" 
d="M331 -131h-205c-8 0 -12 8 -12 15c0 12 10 29 22 29h205c9 0 13 -7 13 -14c0 -12 -10 -30 -23 -30zM345 124v190c0 31 -3 38 -17 54c-20 23 -45 36 -81 36c-20 0 -62 -3 -93 -50c-15 -21 -29 -61 -29 -133c0 -125 56 -184 110 -184c25 0 57 16 94 48
c14.1 12.2 16 20 16 39zM334 50.3c-49 -40.3 -86 -60.3 -125 -60.3c-108 0 -170 90 -170 213c0 74 26 133 69 176c40 38 84 60 150 60c33 0 74 -17 78 -17c7 0 9 2 9 9v128c0 84 -12 79 -64 82c-6 6 -8 22 -6 30c40 3 115 17 140 27c9 0 13 -3 13 -10c0 0 -4 -40 -4 -105
v-453c0 -49 9 -68 73 -73c6 -6 6 -21 0 -27c-61 -7 -96 -22 -118 -40c-6 -2.5 -11 -3 -19 0c0 0 -8.5 34.5 -11 59c-0.700012 7 -10.2 5.2 -15 1.3z" />
    <glyph glyph-name="uni1E10" unicode="&#x1e10;" horiz-adv-x="701" 
d="M320 -41c38 0 62 -34 62 -86c0 -60 -49 -90 -106 -99c-6 6 -8 15 -8 24c49 11 75 35 75 53c0 20 -13 24 -31 26c-17 3 -42 12 -42 39c0 24 21 43 50 43zM191 84c0 -32 11 -52 109 -52c141 0 262 50 262 252c0 154 -71 329 -287 329c-49 0 -84 -14 -84 -49v-480zM148 645
c39 0 94 2 165 2c192 0 345 -153 345 -339c0 -246 -186 -310 -327 -310c-103 0 -145 2 -182 2c-37.7 0 -91 -1 -130 -2c-6 6 -6 27 0 33c70 3 87 8 87 91v401c0 83 -17 88 -87 91c-6 6 -6 27 0 33c40 -1 93.3 -2 129 -2z" />
    <glyph glyph-name="uni1E11" unicode="&#x1e11;" horiz-adv-x="506" 
d="M230 -41c38 0 62 -34 62 -86c0 -60 -49 -90 -106 -99c-6 6 -8 15 -8 24c49 11 75 35 75 53c0 20 -13 24 -31 26c-17 3 -42 12 -42 39c0 24 21 43 50 43zM345 124v190c0 31 -3 38 -17 54c-20 23 -45 36 -81 36c-20 0 -62 -3 -93 -50c-15 -21 -29 -61 -29 -133
c0 -125 56 -184 110 -184c25 0 57 16 94 48c14.1 12.2 16 20 16 39zM334 50.3c-49 -40.3 -86 -60.3 -125 -60.3c-108 0 -170 90 -170 213c0 74 26 133 69 176c40 38 84 60 150 60c33 0 74 -17 78 -17c7 0 9 2 9 9v128c0 84 -12 79 -64 82c-6 6 -8 22 -6 30
c40 3 115 17 140 27c9 0 13 -3 13 -10c0 0 -4 -40 -4 -105v-453c0 -49 9 -68 73 -73c6 -6 6 -21 0 -27c-61 -7 -96 -22 -118 -40c-6 -2.5 -11 -3 -19 0c0 0 -8.5 34.5 -11 59c-0.700012 7 -10.2 5.2 -15 1.3z" />
    <glyph glyph-name="uni1E12" unicode="&#x1e12;" horiz-adv-x="701" 
d="M283 -43c29 -47 73 -100 109 -140c-5 -7 -13.6 -15.1 -23 -17c-38 24 -73 52 -103 83c-32 -32 -65 -61 -104 -83c-9 2 -16 8 -22 17c36 40 82 94 111 140c10.7 2.3 21.3 3 32 0zM191 84c0 -32 11 -52 109 -52c141 0 262 50 262 252c0 154 -71 329 -287 329
c-49 0 -84 -14 -84 -49v-480zM148 645c39 0 94 2 165 2c192 0 345 -153 345 -339c0 -246 -186 -310 -327 -310c-103 0 -145 2 -182 2c-37.7 0 -91 -1 -130 -2c-6 6 -6 27 0 33c70 3 87 8 87 91v401c0 83 -17 88 -87 91c-6 6 -6 27 0 33c40 -1 93.3 -2 129 -2z" />
    <glyph glyph-name="uni1E13" unicode="&#x1e13;" horiz-adv-x="506" 
d="M232 -43c29 -47 73 -100 109 -140c-5 -7 -13.6 -15.1 -23 -17c-38 24 -73 52 -103 83c-32 -32 -65 -61 -104 -83c-9 2 -16 8 -22 17c36 40 82 94 111 140c10.7 2.3 21.3 3 32 0zM345 124v190c0 31 -3 38 -17 54c-20 23 -45 36 -81 36c-20 0 -62 -3 -93 -50
c-15 -21 -29 -61 -29 -133c0 -125 56 -184 110 -184c25 0 57 16 94 48c14.1 12.2 16 20 16 39zM334 50.3c-49 -40.3 -86 -60.3 -125 -60.3c-108 0 -170 90 -170 213c0 74 26 133 69 176c40 38 84 60 150 60c33 0 74 -17 78 -17c7 0 9 2 9 9v128c0 84 -12 79 -64 82
c-6 6 -8 22 -6 30c40 3 115 17 140 27c9 0 13 -3 13 -10c0 0 -4 -40 -4 -105v-453c0 -49 9 -68 73 -73c6 -6 6 -21 0 -27c-61 -7 -96 -22 -118 -40c-6 -2.5 -11 -3 -19 0c0 0 -8.5 34.5 -11 59c-0.700012 7 -10.2 5.2 -15 1.3z" />
    <glyph glyph-name="uni1E14" unicode="&#x1e14;" horiz-adv-x="557" 
d="M410 713h-224c-9 0 -13 11 -13 18c0 12 11 32 22 32h225c10 0 14 -11 14 -17c0 -12 -11 -33 -24 -33zM281 361c85 0 88 13 91 68c6 6 27 6 33 0c-1 -24 -2 -58 -2 -86c0 -34.3 1 -62 2 -88c-6 -6 -27 -6 -33 0c-3 45 -6 68 -91 68h-91v-221c0 -47 14 -63 56 -63h116
c76 0 111 59 131 131c13.1 3.2 24.6 1 35 -5c-8 -51 -23 -117 -37 -167c0 0 -80 2 -128 2h-215c-33 0 -93 -1 -130 -2c-6 6 -6 27 0 33c70 3 87 8 87 91v401c0 83 -17 88 -87 91c-6 6 -6 27 0 33c40 -1 98.5 -2 129 -2h255c24 0 32 1 49 4c3 0 4 -1 4 -3
c2 -8 17 -104 22 -145c-9.79999 -4.70001 -20.6 -6.79999 -33 -5c-22 69 -38 109 -113 109h-75c-54 0 -66 -20 -66 -64v-180h91zM20.9 831.1l93.2 -73.9c8.5 -7 11.5 -12.3 11.5 -18.5c0 -7 -5.3 -13.2 -11.5 -13.2c-6.2 0 -16.9 2.59998 -33.1 10.5l-118.6 55.5
c14.1 15.6 32.2 29.4 58.5 39.6z" />
    <glyph glyph-name="uni1E15" unicode="&#x1e15;" horiz-adv-x="447" 
d="M212.2 765.2l56 -113.4c4 -9 4.79999 -15.3 4.79999 -21.6c0 -4.5 -5.60001 -9.90002 -12 -9.90002c-4.79999 0 -10.4 4.5 -23.2 18l-91.2 98.1l1.59999 9.89996c6.40001 5.40002 24.8 20.7 52 20.7c4 0 8.8 -0.900024 12 -1.79999zM337 518h-224c-9 0 -13 11 -13 18
c0 12 11 32 22 32h225c10 0 14 -11 14 -17c0 -12 -11 -33 -24 -33zM124 282l181 3c11 0.200012 15 5 15 14c0 84 -45 105 -83 105c-24 0 -94 -9 -113 -122zM386 93c12 -1 18 -6 21 -16c-40 -52 -94 -87 -170 -87c-72 0 -119 24 -153 64c-33 38 -47 92 -47 148
c0 152 113 235 200 235c139 0 169 -90 169 -174c0 -11 -7 -17 -19 -17l-266 2c0 -58 12 -104 32 -137c31 -51 73 -72 109 -72c58 0 87 16 124 54z" />
    <glyph glyph-name="uni1E16" unicode="&#x1e16;" horiz-adv-x="557" 
d="M353 713h-224c-9 0 -13 11 -13 18c0 12 11 32 22 32h225c10 0 14 -11 14 -17c0 -12 -11 -33 -24 -33zM281 361c85 0 88 13 91 68c6 6 27 6 33 0c-1 -24 -2 -58 -2 -86c0 -34.3 1 -62 2 -88c-6 -6 -27 -6 -33 0c-3 45 -6 68 -91 68h-91v-221c0 -47 14 -63 56 -63h116
c76 0 111 59 131 131c13.1 3.2 24.6 1 35 -5c-8 -51 -23 -117 -37 -167c0 0 -80 2 -128 2h-215c-33 0 -93 -1 -130 -2c-6 6 -6 27 0 33c70 3 87 8 87 91v401c0 83 -17 88 -87 91c-6 6 -6 27 0 33c40 -1 98.5 -2 129 -2h255c24 0 32 1 49 4c3 0 4 -1 4 -3
c2 -8 17 -104 22 -145c-9.79999 -4.70001 -20.6 -6.79999 -33 -5c-22 69 -38 109 -113 109h-75c-54 0 -66 -20 -66 -64v-180h91zM535.1 831.9c22.1 -11.7 38 -27 47.8 -45.8l-110.9 -51.1c-16.2 -7.90002 -25.5 -10.5 -32.4 -10.5s-11.5 6.20001 -11.5 13.2
c0 6.20001 1.5 10.6 11.5 18.5z" />
    <glyph glyph-name="uni1E17" unicode="&#x1e17;" horiz-adv-x="447" 
d="M264.4 759.2c2.39999 0.899963 7.20001 1.79999 11.2 1.79999c5.10001 0 25.6 -0.900024 44 -20.7l2.39999 -9.89996l-92 -98.1c-12 -13.5 -18.4 -17.1 -24 -17.1s-11.2 5.39996 -11.2 11.7c0 10.1 2.7 13.7 9.2 25.2zM337 518h-224c-9 0 -13 11 -13 18c0 12 11 32 22 32
h225c10 0 14 -11 14 -17c0 -12 -11 -33 -24 -33zM124 282l181 3c11 0.200012 15 5 15 14c0 84 -45 105 -83 105c-24 0 -94 -9 -113 -122zM386 93c12 -1 18 -6 21 -16c-40 -52 -94 -87 -170 -87c-72 0 -119 24 -153 64c-33 38 -47 92 -47 148c0 152 113 235 200 235
c139 0 169 -90 169 -174c0 -11 -7 -17 -19 -17l-266 2c0 -58 12 -104 32 -137c31 -51 73 -72 109 -72c58 0 87 16 124 54z" />
    <glyph glyph-name="uni1E18" unicode="&#x1e18;" horiz-adv-x="557" 
d="M291 -43c29 -47 73 -100 109 -140c-5 -7 -13.6 -15.1 -23 -17c-38 24 -73 52 -103 83c-32 -32 -65 -61 -104 -83c-9 2 -16 8 -22 17c36 40 82 94 111 140c10.7 2.3 21.3 3 32 0zM281 361c85 0 88 13 91 68c6 6 27 6 33 0c-1 -24 -2 -58 -2 -86c0 -34.3 1 -62 2 -88
c-6 -6 -27 -6 -33 0c-3 45 -6 68 -91 68h-91v-221c0 -47 14 -63 56 -63h116c76 0 111 59 131 131c13.1 3.2 24.6 1 35 -5c-8 -51 -23 -117 -37 -167c0 0 -80 2 -128 2h-215c-33 0 -93 -1 -130 -2c-6 6 -6 27 0 33c70 3 87 8 87 91v401c0 83 -17 88 -87 91c-6 6 -6 27 0 33
c40 -1 98.5 -2 129 -2h255c24 0 32 1 49 4c3 0 4 -1 4 -3c2 -8 17 -104 22 -145c-9.79999 -4.70001 -20.6 -6.79999 -33 -5c-22 69 -38 109 -113 109h-75c-54 0 -66 -20 -66 -64v-180h91z" />
    <glyph glyph-name="uni1E19" unicode="&#x1e19;" horiz-adv-x="447" 
d="M238 -43c29 -47 73 -100 109 -140c-5 -7 -13.6 -15.1 -23 -17c-38 24 -73 52 -103 83c-32 -32 -65 -61 -104 -83c-9 2 -16 8 -22 17c36 40 82 94 111 140c10.7 2.3 21.3 3 32 0zM124 282l181 3c11 0.200012 15 5 15 14c0 84 -45 105 -83 105c-24 0 -94 -9 -113 -122z
M386 93c12 -1 18 -6 21 -16c-40 -52 -94 -87 -170 -87c-72 0 -119 24 -153 64c-33 38 -47 92 -47 148c0 152 113 235 200 235c139 0 169 -90 169 -174c0 -11 -7 -17 -19 -17l-266 2c0 -58 12 -104 32 -137c31 -51 73 -72 109 -72c58 0 87 16 124 54z" />
    <glyph glyph-name="uni1E1A" unicode="&#x1e1a;" horiz-adv-x="557" 
d="M336 -117c22 0 33 10 47 52c11 1 21 -2 27 -6c-12 -60 -41 -99 -87 -99c-22 0 -43 18 -64 32c-18 11 -37 19 -54 19c-26 0 -36 -15 -46 -48c-11 -2 -21 -1 -27 5c14 59 37 98 80 98c30 0 52 -20 72 -34c16 -12 33 -19 52 -19zM281 361c85 0 88 13 91 68c6 6 27 6 33 0
c-1 -24 -2 -58 -2 -86c0 -34.3 1 -62 2 -88c-6 -6 -27 -6 -33 0c-3 45 -6 68 -91 68h-91v-221c0 -47 14 -63 56 -63h116c76 0 111 59 131 131c13.1 3.2 24.6 1 35 -5c-8 -51 -23 -117 -37 -167c0 0 -80 2 -128 2h-215c-33 0 -93 -1 -130 -2c-6 6 -6 27 0 33c70 3 87 8 87 91
v401c0 83 -17 88 -87 91c-6 6 -6 27 0 33c40 -1 98.5 -2 129 -2h255c24 0 32 1 49 4c3 0 4 -1 4 -3c2 -8 17 -104 22 -145c-9.79999 -4.70001 -20.6 -6.79999 -33 -5c-22 69 -38 109 -113 109h-75c-54 0 -66 -20 -66 -64v-180h91z" />
    <glyph glyph-name="uni1E1B" unicode="&#x1e1b;" horiz-adv-x="447" 
d="M288 -115c22 0 33 10 47 52c11 1 21 -2 27 -6c-12 -60 -41 -99 -87 -99c-22 0 -43 18 -64 32c-18 11 -37 19 -54 19c-26 0 -36 -15 -46 -48c-11 -2 -21 -1 -27 5c14 59 37 98 80 98c30 0 52 -20 72 -34c16 -12 33 -19 52 -19zM124 282l181 3c11 0.200012 15 5 15 14
c0 84 -45 105 -83 105c-24 0 -94 -9 -113 -122zM386 93c12 -1 18 -6 21 -16c-40 -52 -94 -87 -170 -87c-72 0 -119 24 -153 64c-33 38 -47 92 -47 148c0 152 113 235 200 235c139 0 169 -90 169 -174c0 -11 -7 -17 -19 -17l-266 2c0 -58 12 -104 32 -137
c31 -51 73 -72 109 -72c58 0 87 16 124 54z" />
    <glyph glyph-name="uni1E1C" unicode="&#x1e1c;" horiz-adv-x="557" 
d="M436 805c-6 -71 -70 -113 -136 -113c-73 0 -131 43 -136 113h28c8 -39 55 -61 108 -61c49 0 101 22 108 61h28zM256 -96c-19 0 -29 -1 -45 -6l-6 6l40 96h-97c-33 0 -93 -1 -130 -2c-6 6 -6 27 0 33c70 3 87 8 87 91v401c0 83 -17 88 -87 91c-6 6 -6 27 0 33
c40 -1 98.5 -2 129 -2h255c24 0 32 1 49 4c3 0 4 -1 4 -3c2 -8 17 -104 22 -145c-9.79999 -4.70001 -20.6 -6.79999 -33 -5c-22 69 -38 109 -113 109h-75c-54 0 -66 -20 -66 -64v-180h91c85 0 88 13 91 68c6 6 27 6 33 0c-1 -24 -2 -58 -2 -86c0 -34.3 1 -62 2 -88
c-6 -6 -27 -6 -33 0c-3 45 -6 68 -91 68h-91v-221c0 -47 14 -63 56 -63h116c76 0 111 59 131 131c13.1 3.2 24.6 1 35 -5c-8 -51 -23 -117 -37 -167c0 0 -80 2 -128 2h-84l-25 -67c8 2 17 3 26 3c40 0 71 -24 71 -62c0 -43 -46 -74 -107 -74c-32 0 -49 6 -74 17
c0 12 3 19 10 26c27 -10 38 -14 58 -14c30 0 51 14 51 40c0 21 -10 35 -33 35z" />
    <glyph glyph-name="uni1E1D" unicode="&#x1e1d;" horiz-adv-x="447" 
d="M112 648c11 -53 54 -90 108 -90c52 0 98 32 108 90l27 -12c-12 -86 -76 -135 -135 -135c-70 0 -121 50 -135 135zM229 -96c-19 0 -29 -1 -45 -6l-6 6l36.2 86.9c-59.3 4.6 -99.9 27.5 -130.2 63.1c-33 38 -47 92 -47 148c0 152 113 235 200 235c139 0 169 -90 169 -174
c0 -11 -7 -17 -19 -17l-266 2c0 -58 12 -104 32 -137c31 -51 73 -72 109 -72c58 0 87 16 124 54c12 -1 18 -6 21 -16c-38 -49.4 -88.5 -83.4 -158.6 -86.7l-21.4 -57.3c8 2 17 3 26 3c40 0 71 -24 71 -62c0 -43 -46 -74 -107 -74c-32 0 -49 6 -74 17c0 12 3 19 10 26
c27 -10 38 -14 58 -14c30 0 51 14 51 40c0 21 -10 35 -33 35zM124 282l181 3c11 0.200012 15 5 15 14c0 84 -45 105 -83 105c-24 0 -94 -9 -113 -122z" />
    <glyph glyph-name="uni1E1E" unicode="&#x1e1e;" horiz-adv-x="485" 
d="M202 754c0 28 24 52 52 52s52 -24 52 -52s-24 -52 -52 -52s-52 24 -52 52zM283 323h-93v-201c0 -83 17 -88 87 -91c6 -6 6 -27 0 -33c-35 1 -84 2 -129 2s-95 -1 -130 -2c-6 6 -6 27 0 33c70 3 87 8 87 91v401c0 83 -17 88 -87 91c-6 6 -6 27 0 33c40 -1 97 -2 129 -2
h255.3c24.7 0 29.5 0.599976 47 4c2.40002 0 3.60001 -0.700012 4 -3c1.40002 -7.59998 16.5 -104 21.7 -145c-8 -3 -19 -5 -31 -5c-22 69 -47 109 -153 109h-45c-44 0 -56 -10 -56 -64v-180h93c85 0 88 13 91 68c6 6 27 6 33 0c-1 -26 -2 -52.5 -2 -86c0 -34.3 1 -63 2 -88
c-6 -6 -27 -6 -33 0c-3 45 -6 68 -91 68z" />
    <glyph glyph-name="uni1E1F" unicode="&#x1e1f;" horiz-adv-x="310" 
d="M204 807c0 24 28 48 52 48c27 0 48 -28 48 -52c0 -21.1 -24 -48 -52 -48c-24 0 -48 26 -48 52zM175 122c0 -83 6 -87 84 -91c6 -6 6 -27 0 -33c-35 1 -83 2 -123 2s-75 -1 -110 -2c-6 6 -6 27 0 33c54 4 70 8 70 91v268h-69c-4 0 -5 1 -5 6v13c0 8 5 20 23 20h51v40
c0 156 93 229 177 229c38 0 64 -3 90 -21c21 -16 32 -34 32 -51c0 -20 -24 -41 -41 -41c-21 0 -32 14 -40 32c-14 35 -30 47 -60 47c-33 0 -79 -24 -79 -178v-57h108c5 0 8 -2 8 -6v-20c0 -9 -14 -13 -23 -13h-93v-268z" />
    <glyph glyph-name="uni1E20" unicode="&#x1e20;" horiz-adv-x="685" 
d="M473 745h-224c-9 0 -13 11 -13 18c0 12 11 32 22 32h225c10 0 14 -11 14 -17c0 -12 -11 -33 -24 -33zM377 658c111 0 148 -35 208 -45c16 -72 20.5 -112 23 -154c-11.3 -4.70001 -21.7 -6.70001 -33 -6c-26 86 -67 169 -212 169c-116.5 0 -230 -120 -230 -295
c0 -132 84 -301 242 -301c54 0 121 6 155 38v153c0 40.1 -27.1 43.8 -82 48c-6 6 -6 30 0 36c44 -1 90.5 -2 124 -2c40 0 65 1 89 2c6 -6 6 -30 0 -36c-29 -3 -46 -12.8 -46 -48v-116c0 -11 5 -19 16 -28c-68 -58 -161 -83 -279 -83c-191 0 -315 137.2 -315 317
c0 220 173 351 340 351z" />
    <glyph glyph-name="uni1E21" unicode="&#x1e21;" horiz-adv-x="500" 
d="M348 518h-224c-9 0 -13 11 -13 18c0 12 11 32 22 32h225c10 0 14 -11 14 -17c0 -12 -11 -33 -24 -33zM319 279c0 83 -34 129 -97 129c-55 0 -80 -36 -80 -106c0 -64 9 -135 93 -135c37 0 84 19 84 112zM132 -10c-29 -35 -31 -60 -31 -94c0 -68 84 -97 120 -97
c90 0 196 38 196 110c0 26 -12 40 -51 62c-29 16 -71 17 -121 17c-14 0 -42 -3 -73 -3c-13 0 -29 2 -40 5zM444 387c-11 0 -24 10 -28 18c-6 9 -13 12 -20 12c-13 0 -33 -14 -40 -24c29 -30 43 -57 43 -104c0 -98 -81 -153 -169 -153c-39 0 -67 7 -91 21
c-12 -17 -18 -38 -18 -58c0 -43 35 -57 64 -57c5 0 15 1 30 2c24 3 49 5 67 5c37 0 107 -1 146 -33c29 -24 44 -49 44 -81c0 -108 -146 -173 -281 -173c-77 0 -159 27 -159 114c0 43 28 89 82 121c-26 13 -46 41 -46 77c0 34 16 77 44 101c-28 27 -52 58 -52 112
c0 92 82 152 171 152c59 0 92 -20 104 -28c26 34 74 51 100 51c27 0 46 -16 46 -37c0 -20 -18 -38 -37 -38z" />
    <glyph glyph-name="uni1E22" unicode="&#x1e22;" horiz-adv-x="730" 
d="M324 753c0 28 24 52 52 52s52 -24 52 -52s-24 -52 -52 -52s-52 24 -52 52zM618 122c0 -83 17 -88 87 -91c6 -6 6 -27 0 -33c-44 1 -91.7 2 -129 2c-37.1 0 -85 -1 -130 -2c-6 6 -6 27 0 33c70 3 87 8 87 91v199h-342v-199c0 -83 17 -88 87 -91c6 -6 6 -27 0 -33
c-44 1 -92.7 2 -129 2c-37.7 0 -86 -1 -130 -2c-6 6 -6 27 0 33c70 3 87 8 87 91v401c0 83 -17 88 -87 91c-6 6 -6 27 0 33c38 -1 79 -2 129 -2c51 0 92 1 130 2c6 -6 6 -27 0 -33c-70 -3 -87 -8 -87 -91v-160h342v160c0 83 -17 88 -87 91c-6 6 -6 27 0 33
c44 -1 91.7 -2 129 -2c38 0 89 1 130 2c6 -6 6 -27 0 -33c-70 -3 -87 -8 -87 -91v-401z" />
    <glyph glyph-name="uni1E23" unicode="&#x1e23;" horiz-adv-x="538" 
d="M238 599c0 24 28 48 52 48c27 0 48 -28 48 -52c0 -21.1 -24 -48 -52 -48c-24 0 -48 26 -48 52zM167 285.9v-163.9c0 -83 9 -87 59.8 -91c6 -6 6 -27 0 -33c-28 1 -60.8 2 -98.8 2c-40 0 -76.8 -1 -109.8 -2c-6 6 -6 27 0 33c58 4 69.8 8 69.8 91v437c0 84 -12 79 -64 82
c-6 6 -8 22 -6 30c40 3 115 17 140 27c9 0 13 -3 13 -10c0 0 -4 -40 -4 -105l-0.800003 -225c0 -14 6.40001 -3.79999 9.8 0c61 68 120.9 81 170 81c35 0 66.2 -12 83 -34c23.3 -30.5 27 -79 27 -134v-149c0 -82 11 -86 67 -91c5 -6 5 -27 0 -33c-33 1 -66 2 -106 2
s-74 -1 -102 -2c-5 6 -5 27 0 33c52 5 62 9 62 91v152c0 30 -2 57.2 -12 77c-11.6 22.9 -32.6 36 -53 36c-39.4 0 -90 -21.7 -128 -59c-8 -8.70001 -17 -21 -17 -42.1z" />
    <glyph glyph-name="uni1E24" unicode="&#x1e24;" horiz-adv-x="730" 
d="M618 122c0 -83 17 -88 87 -91c6 -6 6 -27 0 -33c-44 1 -91.7 2 -129 2c-37.1 0 -85 -1 -130 -2c-6 6 -6 27 0 33c70 3 87 8 87 91v199h-342v-199c0 -83 17 -88 87 -91c6 -6 6 -27 0 -33c-44 1 -92.7 2 -129 2c-37.7 0 -86 -1 -130 -2c-6 6 -6 27 0 33c70 3 87 8 87 91
v401c0 83 -17 88 -87 91c-6 6 -6 27 0 33c38 -1 79 -2 129 -2c51 0 92 1 130 2c6 -6 6 -27 0 -33c-70 -3 -87 -8 -87 -91v-160h342v160c0 83 -17 88 -87 91c-6 6 -6 27 0 33c44 -1 91.7 -2 129 -2c38 0 89 1 130 2c6 -6 6 -27 0 -33c-70 -3 -87 -8 -87 -91v-401zM324 -156
c0 24 28 48 52 48c27 0 48 -28 48 -52c0 -21.1 -24 -48 -52 -48c-24 0 -48 26 -48 52z" />
    <glyph glyph-name="uni1E25" unicode="&#x1e25;" horiz-adv-x="538" 
d="M210 -157c0 24 28 48 52 48c27 0 48 -28 48 -52c0 -21.1 -24 -48 -52 -48c-24 0 -48 26 -48 52zM167 285.9v-163.9c0 -83 9 -87 59.8 -91c6 -6 6 -27 0 -33c-28 1 -60.8 2 -98.8 2c-40 0 -76.8 -1 -109.8 -2c-6 6 -6 27 0 33c58 4 69.8 8 69.8 91v437c0 84 -12 79 -64 82
c-6 6 -8 22 -6 30c40 3 115 17 140 27c9 0 13 -3 13 -10c0 0 -4 -40 -4 -105l-0.800003 -225c0 -14 6.40001 -3.79999 9.8 0c61 68 120.9 81 170 81c35 0 66.2 -12 83 -34c23.3 -30.5 27 -79 27 -134v-149c0 -82 11 -86 67 -91c5 -6 5 -27 0 -33c-33 1 -66 2 -106 2
s-74 -1 -102 -2c-5 6 -5 27 0 33c52 5 62 9 62 91v152c0 30 -2 57.2 -12 77c-11.6 22.9 -32.6 36 -53 36c-39.4 0 -90 -21.7 -128 -59c-8 -8.70001 -17 -21 -17 -42.1z" />
    <glyph glyph-name="uni1E26" unicode="&#x1e26;" horiz-adv-x="730" 
d="M618 122c0 -83 17 -88 87 -91c6 -6 6 -27 0 -33c-44 1 -91.7 2 -129 2c-37.1 0 -85 -1 -130 -2c-6 6 -6 27 0 33c70 3 87 8 87 91v199h-342v-199c0 -83 17 -88 87 -91c6 -6 6 -27 0 -33c-44 1 -92.7 2 -129 2c-37.7 0 -86 -1 -130 -2c-6 6 -6 27 0 33c70 3 87 8 87 91
v401c0 83 -17 88 -87 91c-6 6 -6 27 0 33c38 -1 79 -2 129 -2c51 0 92 1 130 2c6 -6 6 -27 0 -33c-70 -3 -87 -8 -87 -91v-160h342v160c0 83 -17 88 -87 91c-6 6 -6 27 0 33c44 -1 91.7 -2 129 -2c38 0 89 1 130 2c6 -6 6 -27 0 -33c-70 -3 -87 -8 -87 -91v-401zM409 757
c0 26 22 48 48 48s48 -22 48 -48s-22 -48 -48 -48s-48 22 -48 48zM220 757c0 26 22 48 48 48s48 -22 48 -48s-22 -48 -48 -48s-48 22 -48 48z" />
    <glyph glyph-name="uni1E27" unicode="&#x1e27;" horiz-adv-x="538" 
d="M345 572c0 25 20 46 45 46s46 -21 46 -46s-21 -45 -46 -45s-45 20 -45 45zM208 572c0 25 20 46 45 46s45 -21 45 -46s-20 -45 -45 -45s-45 20 -45 45zM167 285.9v-163.9c0 -83 9 -87 59.8 -91c6 -6 6 -27 0 -33c-28 1 -60.8 2 -98.8 2c-40 0 -76.8 -1 -109.8 -2
c-6 6 -6 27 0 33c58 4 69.8 8 69.8 91v437c0 84 -12 79 -64 82c-6 6 -8 22 -6 30c40 3 115 17 140 27c9 0 13 -3 13 -10c0 0 -4 -40 -4 -105l-0.800003 -225c0 -14 6.40001 -3.79999 9.8 0c61 68 120.9 81 170 81c35 0 66.2 -12 83 -34c23.3 -30.5 27 -79 27 -134v-149
c0 -82 11 -86 67 -91c5 -6 5 -27 0 -33c-33 1 -66 2 -106 2s-74 -1 -102 -2c-5 6 -5 27 0 33c52 5 62 9 62 91v152c0 30 -2 57.2 -12 77c-11.6 22.9 -32.6 36 -53 36c-39.4 0 -90 -21.7 -128 -59c-8 -8.70001 -17 -21 -17 -42.1z" />
    <glyph glyph-name="uni1E28" unicode="&#x1e28;" horiz-adv-x="730" 
d="M618 122c0 -83 17 -88 87 -91c6 -6 6 -27 0 -33c-44 1 -91.7 2 -129 2c-37.1 0 -85 -1 -130 -2c-6 6 -6 27 0 33c70 3 87 8 87 91v199h-342v-199c0 -83 17 -88 87 -91c6 -6 6 -27 0 -33c-37.2 0.8 -77.8 1.7 -111.4 1.9l-24.6 -65.9c8 2 17 3 26 3c40 0 71 -24 71 -62
c0 -43 -46 -74 -107 -74c-32 0 -49 6 -74 17c0 12 3 19 10 26c27 -10 38 -14 58 -14c30 0 51 14 51 40c0 21 -10 35 -33 35c-19 0 -29 -1 -45 -6l-6 6l39.6 94.9c-34.7 -0.2 -75.8 -1 -113.6 -1.9c-6 6 -6 27 0 33c70 3 87 8 87 91v401c0 83 -17 88 -87 91c-6 6 -6 27 0 33
c38 -1 79 -2 129 -2c51 0 92 1 130 2c6 -6 6 -27 0 -33c-70 -3 -87 -8 -87 -91v-160h342v160c0 83 -17 88 -87 91c-6 6 -6 27 0 33c44 -1 91.7 -2 129 -2c38 0 89 1 130 2c6 -6 6 -27 0 -33c-70 -3 -87 -8 -87 -91v-401z" />
    <glyph glyph-name="uni1E29" unicode="&#x1e29;" horiz-adv-x="538" 
d="M117 -96c-19 0 -29 -1 -45 -6l-6 6l40 95.9c-31.5 -0.3 -61 -1.1 -87.8 -1.9c-6 6 -6 27 0 33c58 4 69.8 8 69.8 91v437c0 84 -12 79 -64 82c-6 6 -8 22 -6 30c40 3 115 17 140 27c9 0 13 -3 13 -10c0 0 -4 -40 -4 -105l-0.800003 -225c0 -14 6.40001 -3.79999 9.8 0
c61 68 120.9 81 170 81c35 0 66.2 -12 83 -34c23.3 -30.5 27 -79 27 -134v-149c0 -82 11 -86 67 -91c5 -6 5 -27 0 -33c-33 1 -66 2 -106 2s-74 -1 -102 -2c-5 6 -5 27 0 33c52 5 62 9 62 91v152c0 30 -2 57.2 -12 77c-11.6 22.9 -32.6 36 -53 36
c-39.4 0 -90 -21.7 -128 -59c-8 -8.70001 -17 -21 -17 -42.1v-163.9c0 -83 9 -87 59.8 -91c6 -6 6 -27 0 -33c-25 0.9 -53.9 1.8 -86.8 2l-25 -67c8 2 17 3 26 3c40 0 71 -24 71 -62c0 -43 -46 -74 -107 -74c-32 0 -49 6 -74 17c0 12 3 19 10 26c27 -10 38 -14 58 -14
c30 0 51 14 51 40c0 21 -10 35 -33 35z" />
    <glyph glyph-name="uni1E2A" unicode="&#x1e2a;" horiz-adv-x="730" 
d="M618 122c0 -83 17 -88 87 -91c6 -6 6 -27 0 -33c-44 1 -91.7 2 -129 2c-37.1 0 -85 -1 -130 -2c-6 6 -6 27 0 33c70 3 87 8 87 91v199h-342v-199c0 -83 17 -88 87 -91c6 -6 6 -27 0 -33c-44 1 -92.7 2 -129 2c-37.7 0 -86 -1 -130 -2c-6 6 -6 27 0 33c70 3 87 8 87 91
v401c0 83 -17 88 -87 91c-6 6 -6 27 0 33c38 -1 79 -2 129 -2c51 0 92 1 130 2c6 -6 6 -27 0 -33c-70 -3 -87 -8 -87 -91v-160h342v160c0 83 -17 88 -87 91c-6 6 -6 27 0 33c44 -1 91.7 -2 129 -2c38 0 89 1 130 2c6 -6 6 -27 0 -33c-70 -3 -87 -8 -87 -91v-401zM256 -52
c11 -53 54 -90 108 -90c52 0 98 32 108 90l27 -12c-12 -86 -76 -135 -135 -135c-70 0 -121 50 -135 135z" />
    <glyph glyph-name="uni1E2B" unicode="&#x1e2b;" horiz-adv-x="538" 
d="M171 -62c11 -53 54 -90 108 -90c52 0 98 32 108 90l27 -12c-12 -86 -76 -135 -135 -135c-70 0 -121 50 -135 135zM167 285.9v-163.9c0 -83 9 -87 59.8 -91c6 -6 6 -27 0 -33c-28 1 -60.8 2 -98.8 2c-40 0 -76.8 -1 -109.8 -2c-6 6 -6 27 0 33c58 4 69.8 8 69.8 91v437
c0 84 -12 79 -64 82c-6 6 -8 22 -6 30c40 3 115 17 140 27c9 0 13 -3 13 -10c0 0 -4 -40 -4 -105l-0.800003 -225c0 -14 6.40001 -3.79999 9.8 0c61 68 120.9 81 170 81c35 0 66.2 -12 83 -34c23.3 -30.5 27 -79 27 -134v-149c0 -82 11 -86 67 -91c5 -6 5 -27 0 -33
c-33 1 -66 2 -106 2s-74 -1 -102 -2c-5 6 -5 27 0 33c52 5 62 9 62 91v152c0 30 -2 57.2 -12 77c-11.6 22.9 -32.6 36 -53 36c-39.4 0 -90 -21.7 -128 -59c-8 -8.70001 -17 -21 -17 -42.1z" />
    <glyph glyph-name="uni1E2C" unicode="&#x1e2c;" horiz-adv-x="297" 
d="M216 -117c22 0 33 10 47 52c11 1 21 -2 27 -6c-12 -60 -41 -99 -87 -99c-22 0 -43 18 -64 32c-18 11 -37 19 -54 19c-26 0 -36 -15 -46 -48c-11 -2 -21 -1 -27 5c14 59 37 98 80 98c30 0 52 -20 72 -34c16 -12 33 -19 52 -19zM191 122c0 -83 17 -88 87 -91
c6 -6 6 -27 0 -33c-45 1 -93.4 2 -129 2c-36.3 0 -85 -1 -130 -2c-6 6 -6 27 0 33c70 3 87 8 87 91v401c0 83 -17 88 -87 91c-6 6 -6 27 0 33c47 -1 95.5 -2 129 -2c38.5 0 86 1 130 2c6 -6 6 -27 0 -33c-70 -3 -87 -8 -87 -91v-401z" />
    <glyph glyph-name="uni1E2D" unicode="&#x1e2d;" horiz-adv-x="271" 
d="M202 -117c22 0 33 10 47 52c11 1 21 -2 27 -6c-12 -60 -41 -99 -87 -99c-22 0 -43 18 -64 32c-18 11 -37 19 -54 19c-26 0 -36 -15 -46 -48c-11 -2 -21 -1 -27 5c14 59 37 98 80 98c30 0 52 -20 72 -34c16 -12 33 -19 52 -19zM90 599c0 24 28 48 52 48
c27 0 48 -28 48 -52c0 -21.1 -24 -48 -52 -48c-24 0 -48 26 -48 52zM181 122c0 -83 11 -87 72 -91c6 -6 6 -27 0 -33c-33 1 -71 2 -111 2s-79 -1 -112 -2c-6 6 -6 27 0 33c61 5 72 8 72 91v195c0 57 -10.5 62.9 -65 68c-2 6 -4 22 -2 28c69 9 108.5 18 137 29
c8 0 13 -3 13 -7c0 0 -4 -64 -4 -113.7v-199.3z" />
    <glyph glyph-name="uni1E2E" unicode="&#x1e2e;" horiz-adv-x="297" 
d="M225.1 889.9c22.1 -11.7 38 -27 47.8 -45.8l-110.9 -51.1c-16.2 -7.90002 -25.5 -10.5 -32.4 -10.5c-6.90001 0 -11.5 6.20001 -11.5 13.2c0 6.20001 1.5 10.6 11.5 18.5zM195 757c0 26 22 48 48 48s48 -22 48 -48s-22 -48 -48 -48s-48 22 -48 48zM6 757
c0 26 22 48 48 48s48 -22 48 -48s-22 -48 -48 -48s-48 22 -48 48zM191 122c0 -83 17 -88 87 -91c6 -6 6 -27 0 -33c-45 1 -93.4 2 -129 2c-36.3 0 -85 -1 -130 -2c-6 6 -6 27 0 33c70 3 87 8 87 91v401c0 83 -17 88 -87 91c-6 6 -6 27 0 33c47 -1 95.5 -2 129 -2
c38.5 0 86 1 130 2c6 -6 6 -27 0 -33c-70 -3 -87 -8 -87 -91v-401z" />
    <glyph glyph-name="uni1E2F" unicode="&#x1e2f;" horiz-adv-x="271" 
d="M177 740c2.3 0.900024 6.8 1.79999 10.7 1.79999c4.90001 0 24.7 -0.799988 42.4 -20.2l2.29999 -9.69995l-88.6 -95.9c-11.5 -13.2 -17.6 -16.8 -23 -16.8c-5.4 0 -10.8 5.29999 -10.8 11.5c0 9.89996 2.5 13.3 8.8 24.6zM-4 575c0 26 21 48 47 48s47 -22 47 -48
s-21 -47 -47 -47s-47 21 -47 47zM165 575c0 26 21 48 47 48s47 -22 47 -48s-21 -47 -47 -47s-47 21 -47 47zM181 122c0 -83 11 -87 72 -91c6 -6 6 -27 0 -33c-33 1 -71 2 -111 2s-79 -1 -112 -2c-6 6 -6 27 0 33c61 5 72 8 72 91v195c0 57 -10.5 62.9 -65 68
c-2 6 -4 22 -2 28c69 9 108.5 18 137 29c8 0 13 -3 13 -7c0 0 -4 -64 -4 -113.7v-199.3z" />
    <glyph glyph-name="uni1E30" unicode="&#x1e30;" horiz-adv-x="637" 
d="M409 819c28.6 -13.3 49.3 -30.7 62 -52l-144 -58c-21 -9 -33 -12 -42 -12s-15 7 -15 15c0 7 2 12 15 21zM191 122c0 -83 17 -88 87 -91c6 -6 6 -27 0 -33c-45 1 -91 2 -129 2c-39 0 -85 -1 -130 -2c-6 6 -6 27 0 33c70 3 87 8 87 91v401c0 83 -17 88 -87 91
c-6 6 -6 27 0 33c45 -1 90.5 -2 129 -2c36.5 0 84 1 130 2c6 -6 6 -27 0 -33c-70 -3 -87 -8 -87 -91v-175.7c35.1 2.90002 57.7 16 79 38.7l165 176c42.1 44.9 8.10001 48.6 -28 52c-6 6 -6 27 0 33c37 -1 76 -2 113 -2c32.2 0 64 1 95 2c6 -6 6 -27 0 -33
c-40 -3 -80 -7 -126 -56l-147 -151c-34 -35 -35 -42 -35 -49c0 -8 5.29999 -15.9 13 -25l219 -260c30.6 -36.3 59.1 -39.4 88 -42c6 -6 6 -27 0 -33c-33 1 -67 2 -101 2c-21.1 0 -34 -1 -54 -2c-4 0 -4.60001 3 -5 6c-2 16 -15.7 43.4 -36 69l-157 198
c-20.3 25.6 -49.2 36.9 -83 37.9v-186.9z" />
    <glyph glyph-name="uni1E31" unicode="&#x1e31;" horiz-adv-x="512" 
d="M347 671c3 1 9 2 14 2c6.39999 0 32 -1 55 -23l3 -11l-115 -109c-15 -15 -23 -19 -30 -19s-14 6 -14 13c0 11.2 3.29999 15.2 11.4 28zM86 122v437c0 84 -12 79 -64 82c-6 6 -8 22 -6 30c40 3 115 17 140 27c9 0 13 -3 13 -10c0 0 -4 -40 -4 -105v-348.8
c18.9 2.60001 45.8 14.4 68 30.8c25.7 19 57 53 80 82c9.29999 11.7 33 47 -23 51c-6 6 -6 27 0 33c23 -1 60 -2 98 -2c36 0 64 1 87 2c6 -6 6 -27 0 -33c-40 -4 -75 -12 -105 -44l-88 -91c-4 -4 -4 -6 -4 -10c0 -5 3.39999 -9.5 7 -14l132 -166c26.7 -33.6 52 -38 86 -42
c6 -6 6 -27 0 -33c-20 1 -51 2 -82 2c-20 0 -42 -1 -62 -2c-3 0 -3.70001 2 -4 5c-1.29999 11.7 -12.6 30.5 -42 70l-73 98c-11.9 16 -21 25 -32 32.5c-9.7 3.39999 -23.8 4.89999 -43 5.39999v-86.9c0 -83 11 -87 52 -91c6 -6 6 -27 0 -33c-23 1 -56 2 -91 2
c-40 0 -74 -1 -107 -2c-6 6 -6 27 0 33c56 4 67 8 67 91z" />
    <glyph glyph-name="uni1E32" unicode="&#x1e32;" horiz-adv-x="637" 
d="M276 -156c0 24 28 48 52 48c27 0 48 -28 48 -52c0 -21.1 -24 -48 -52 -48c-24 0 -48 26 -48 52zM191 122c0 -83 17 -88 87 -91c6 -6 6 -27 0 -33c-45 1 -91 2 -129 2c-39 0 -85 -1 -130 -2c-6 6 -6 27 0 33c70 3 87 8 87 91v401c0 83 -17 88 -87 91c-6 6 -6 27 0 33
c45 -1 90.5 -2 129 -2c36.5 0 84 1 130 2c6 -6 6 -27 0 -33c-70 -3 -87 -8 -87 -91v-175.7c35.1 2.90002 57.7 16 79 38.7l165 176c42.1 44.9 8.10001 48.6 -28 52c-6 6 -6 27 0 33c37 -1 76 -2 113 -2c32.2 0 64 1 95 2c6 -6 6 -27 0 -33c-40 -3 -80 -7 -126 -56l-147 -151
c-34 -35 -35 -42 -35 -49c0 -8 5.29999 -15.9 13 -25l219 -260c30.6 -36.3 59.1 -39.4 88 -42c6 -6 6 -27 0 -33c-33 1 -67 2 -101 2c-21.1 0 -34 -1 -54 -2c-4 0 -4.60001 3 -5 6c-2 16 -15.7 43.4 -36 69l-157 198c-20.3 25.6 -49.2 36.9 -83 37.9v-186.9z" />
    <glyph glyph-name="uni1E33" unicode="&#x1e33;" horiz-adv-x="512" 
d="M202 -156c0 24 28 48 52 48c27 0 48 -28 48 -52c0 -21.1 -24 -48 -52 -48c-24 0 -48 26 -48 52zM86 122v437c0 84 -12 79 -64 82c-6 6 -8 22 -6 30c40 3 115 17 140 27c9 0 13 -3 13 -10c0 0 -4 -40 -4 -105v-348.8c18.9 2.60001 45.8 14.4 68 30.8c25.7 19 57 53 80 82
c9.29999 11.7 33 47 -23 51c-6 6 -6 27 0 33c23 -1 60 -2 98 -2c36 0 64 1 87 2c6 -6 6 -27 0 -33c-40 -4 -75 -12 -105 -44l-88 -91c-4 -4 -4 -6 -4 -10c0 -5 3.39999 -9.5 7 -14l132 -166c26.7 -33.6 52 -38 86 -42c6 -6 6 -27 0 -33c-20 1 -51 2 -82 2
c-20 0 -42 -1 -62 -2c-3 0 -3.70001 2 -4 5c-1.29999 11.7 -12.6 30.5 -42 70l-73 98c-11.9 16 -21 25 -32 32.5c-9.7 3.39999 -23.8 4.89999 -43 5.39999v-86.9c0 -83 11 -87 52 -91c6 -6 6 -27 0 -33c-23 1 -56 2 -91 2c-40 0 -74 -1 -107 -2c-6 6 -6 27 0 33
c56 4 67 8 67 91z" />
    <glyph glyph-name="uni1E34" unicode="&#x1e34;" horiz-adv-x="637" 
d="M436 -131h-205c-8 0 -12 8 -12 15c0 12 10 29 22 29h205c9 0 13 -7 13 -14c0 -12 -10 -30 -23 -30zM191 122c0 -83 17 -88 87 -91c6 -6 6 -27 0 -33c-45 1 -91 2 -129 2c-39 0 -85 -1 -130 -2c-6 6 -6 27 0 33c70 3 87 8 87 91v401c0 83 -17 88 -87 91c-6 6 -6 27 0 33
c45 -1 90.5 -2 129 -2c36.5 0 84 1 130 2c6 -6 6 -27 0 -33c-70 -3 -87 -8 -87 -91v-175.7c35.1 2.90002 57.7 16 79 38.7l165 176c42.1 44.9 8.10001 48.6 -28 52c-6 6 -6 27 0 33c37 -1 76 -2 113 -2c32.2 0 64 1 95 2c6 -6 6 -27 0 -33c-40 -3 -80 -7 -126 -56l-147 -151
c-34 -35 -35 -42 -35 -49c0 -8 5.29999 -15.9 13 -25l219 -260c30.6 -36.3 59.1 -39.4 88 -42c6 -6 6 -27 0 -33c-33 1 -67 2 -101 2c-21.1 0 -34 -1 -54 -2c-4 0 -4.60001 3 -5 6c-2 16 -15.7 43.4 -36 69l-157 198c-20.3 25.6 -49.2 36.9 -83 37.9v-186.9z" />
    <glyph glyph-name="uni1E35" unicode="&#x1e35;" horiz-adv-x="512" 
d="M360 -131h-205c-8 0 -12 8 -12 15c0 12 10 29 22 29h205c9 0 13 -7 13 -14c0 -12 -10 -30 -23 -30zM86 122v437c0 84 -12 79 -64 82c-6 6 -8 22 -6 30c40 3 115 17 140 27c9 0 13 -3 13 -10c0 0 -4 -40 -4 -105v-348.8c18.9 2.60001 45.8 14.4 68 30.8
c25.7 19 57 53 80 82c9.29999 11.7 33 47 -23 51c-6 6 -6 27 0 33c23 -1 60 -2 98 -2c36 0 64 1 87 2c6 -6 6 -27 0 -33c-40 -4 -75 -12 -105 -44l-88 -91c-4 -4 -4 -6 -4 -10c0 -5 3.39999 -9.5 7 -14l132 -166c26.7 -33.6 52 -38 86 -42c6 -6 6 -27 0 -33
c-20 1 -51 2 -82 2c-20 0 -42 -1 -62 -2c-3 0 -3.70001 2 -4 5c-1.29999 11.7 -12.6 30.5 -42 70l-73 98c-11.9 16 -21 25 -32 32.5c-9.7 3.39999 -23.8 4.89999 -43 5.39999v-86.9c0 -83 11 -87 52 -91c6 -6 6 -27 0 -33c-23 1 -56 2 -91 2c-40 0 -74 -1 -107 -2
c-6 6 -6 27 0 33c56 4 67 8 67 91z" />
    <glyph glyph-name="uni1E36" unicode="&#x1e36;" horiz-adv-x="528" 
d="M227 -156c0 24 28 48 52 48c27 0 48 -28 48 -52c0 -21.1 -24 -48 -52 -48c-24 0 -48 26 -48 52zM149 0c-33.7 0 -91 -1 -130 -2c-6 6 -6 27 0 33c70 3 87 8 87 91v401c0 83 -17 88 -87 91c-6 6 -6 27 0 33c46 -1 92.9 -2 129 -2c38.1 0 85 1 130 2c6 -6 6 -27 0 -33
c-70 -3 -87 -8 -87 -91v-414c0 -51 18 -70 57 -70h63c106 0 143 59 163 131c12.4 1.8 23.2 -0.300003 33 -5c-6 -52 -16 -117 -26 -167c0 0 -92 2 -119.3 2h-212.7z" />
    <glyph glyph-name="uni1E37" unicode="&#x1e37;" horiz-adv-x="264" 
d="M95 122v437c0 75 -6 78 -64 82c-6 6 -8 22 -6 30c40 3 115 17 140 27c9 0 13 -3 13 -10c0 0 -4 -40 -4 -105v-461c0 -83 11 -88 72 -91c6 -6 6 -27 0 -33c-33 1 -71 2 -111 2s-77 -1 -112 -2c-6 6 -6 27 0 33c61 3 72 8 72 91zM82 -156c0 24 28 48 52 48
c27 0 48 -28 48 -52c0 -21.1 -24 -48 -52 -48c-24 0 -48 26 -48 52z" />
    <glyph glyph-name="uni1E38" unicode="&#x1e38;" horiz-adv-x="528" 
d="M257 713h-224c-9 0 -13 11 -13 18c0 12 11 32 22 32h225c10 0 14 -11 14 -17c0 -12 -11 -33 -24 -33zM227 -156c0 24 28 48 52 48c27 0 48 -28 48 -52c0 -21.1 -24 -48 -52 -48c-24 0 -48 26 -48 52zM149 0c-33.7 0 -91 -1 -130 -2c-6 6 -6 27 0 33c70 3 87 8 87 91v401
c0 83 -17 88 -87 91c-6 6 -6 27 0 33c46 -1 92.9 -2 129 -2c38.1 0 85 1 130 2c6 -6 6 -27 0 -33c-70 -3 -87 -8 -87 -91v-414c0 -51 18 -70 57 -70h63c106 0 143 59 163 131c12.4 1.8 23.2 -0.300003 33 -5c-6 -52 -16 -117 -26 -167c0 0 -92 2 -119.3 2h-212.7z" />
    <glyph glyph-name="uni1E39" unicode="&#x1e39;" horiz-adv-x="264" 
d="M95 122v437c0 75 -6 78 -64 82c-6 6 -8 22 -6 30c40 3 115 17 140 27c9 0 13 -3 13 -10c0 0 -4 -40 -4 -105v-461c0 -83 11 -88 72 -91c6 -6 6 -27 0 -33c-33 1 -71 2 -111 2s-77 -1 -112 -2c-6 6 -6 27 0 33c61 3 72 8 72 91zM82 -156c0 24 28 48 52 48
c27 0 48 -28 48 -52c0 -21.1 -24 -48 -52 -48c-24 0 -48 26 -48 52zM231 736h-224c-9 0 -13 11 -13 18c0 12 11 32 22 32h225c10 0 14 -11 14 -17c0 -12 -11 -33 -24 -33z" />
    <glyph glyph-name="uni1E3A" unicode="&#x1e3a;" horiz-adv-x="528" 
d="M368 -131h-205c-8 0 -12 8 -12 15c0 12 10 29 22 29h205c9 0 13 -7 13 -14c0 -12 -10 -30 -23 -30zM149 0c-33.7 0 -91 -1 -130 -2c-6 6 -6 27 0 33c70 3 87 8 87 91v401c0 83 -17 88 -87 91c-6 6 -6 27 0 33c46 -1 92.9 -2 129 -2c38.1 0 85 1 130 2c6 -6 6 -27 0 -33
c-70 -3 -87 -8 -87 -91v-414c0 -51 18 -70 57 -70h63c106 0 143 59 163 131c12.4 1.8 23.2 -0.300003 33 -5c-6 -52 -16 -117 -26 -167c0 0 -92 2 -119.3 2h-212.7z" />
    <glyph glyph-name="uni1E3B" unicode="&#x1e3b;" horiz-adv-x="264" 
d="M95 122v437c0 75 -6 78 -64 82c-6 6 -8 22 -6 30c40 3 115 17 140 27c9 0 13 -3 13 -10c0 0 -4 -40 -4 -105v-461c0 -83 11 -88 72 -91c6 -6 6 -27 0 -33c-33 1 -71 2 -111 2s-77 -1 -112 -2c-6 6 -6 27 0 33c61 3 72 8 72 91zM227 -131h-205c-8 0 -12 8 -12 15
c0 12 10 29 22 29h205c9 0 13 -7 13 -14c0 -12 -10 -30 -23 -30z" />
    <glyph glyph-name="uni1E3C" unicode="&#x1e3c;" horiz-adv-x="528" 
d="M298 -43c29 -47 73 -100 109 -140c-5 -7 -13.6 -15.1 -23 -17c-38 24 -73 52 -103 83c-32 -32 -65 -61 -104 -83c-9 2 -16 8 -22 17c36 40 82 94 111 140c10.7 2.3 21.3 3 32 0zM149 0c-33.7 0 -91 -1 -130 -2c-6 6 -6 27 0 33c70 3 87 8 87 91v401c0 83 -17 88 -87 91
c-6 6 -6 27 0 33c46 -1 92.9 -2 129 -2c38.1 0 85 1 130 2c6 -6 6 -27 0 -33c-70 -3 -87 -8 -87 -91v-414c0 -51 18 -70 57 -70h63c106 0 143 59 163 131c12.4 1.8 23.2 -0.300003 33 -5c-6 -52 -16 -117 -26 -167c0 0 -92 2 -119.3 2h-212.7z" />
    <glyph glyph-name="uni1E3D" unicode="&#x1e3d;" horiz-adv-x="264" 
d="M95 122v437c0 75 -6 78 -64 82c-6 6 -8 22 -6 30c40 3 115 17 140 27c9 0 13 -3 13 -10c0 0 -4 -40 -4 -105v-461c0 -83 11 -88 72 -91c6 -6 6 -27 0 -33c-33 1 -71 2 -111 2s-77 -1 -112 -2c-6 6 -6 27 0 33c61 3 72 8 72 91zM149 -43c29 -47 73 -100 109 -140
c-5 -7 -13.6 -15.1 -23 -17c-38 24 -73 52 -103 83c-32 -32 -65 -61 -104 -83c-9 2 -16 8 -22 17c36 40 82 94 111 140c10.7 2.3 21.3 3 32 0z" />
    <glyph glyph-name="uni1E3E" unicode="&#x1e3e;" horiz-adv-x="839" 
d="M464 819c28.6 -13.3 49.3 -30.7 62 -52l-144 -58c-21 -9 -33 -12 -42 -12s-15 7 -15 15c0 7 2 12 15 21zM662.7 116l-25.7 418h-2l-225 -529c-4 -8 -8 -15 -14 -15s-12.2 7.9 -15 15l-207 519h-2l-38 -401c-5.39999 -56.3 0 -87 66 -92c6 -6 6 -27 0 -33
c-30 1 -70 2 -94 2s-56 -1 -86 -2c-6 6 -6 27 0 33c57 5 69 30.1 74.9 90l40.1 412c7 75 1 77 -68 81c-6 6 -6 27 0 33l145 -2l205 -508c3.10001 -7.60001 6 -13 8 -13s5 4 9 14l212 507l131 2c6 -6 6 -27 0 -33c-68 -4 -73 -18 -68.7 -72l29.8 -421
c5.80005 -82.8 8.90002 -87 76.9 -90c6 -6 6 -27 0 -33c-33.2 1 -79 2 -109 2s-70 -1 -107 -2c-6 6 -6 27 0 33c65 3 68.7 4 63.7 85z" />
    <glyph glyph-name="uni1E3F" unicode="&#x1e3f;" horiz-adv-x="790" 
d="M405 671c3 1 9 2 14 2c6.39999 0 32 -1 55 -23l3 -11l-115 -109c-15 -15 -23 -19 -30 -19s-14 6 -14 13c0 11.2 3.29999 15.2 11.4 28zM170 358c0.5 -12 7.39999 -5.10001 12 0c41.7 46.6 94 81 152 81c52 0 90.5 -32.4 100 -73.4c2 -8.60001 8 -3.60001 11 -0.399994
c52.1 55 113.8 73.8 165 73.8c88 0 103 -70 103 -159v-158c0 -82 9 -87 64 -91c5 -6 5 -27 0 -33c-28 1 -63 2 -103 2s-77 -1 -102 -2c-5 6 -5 27 0 33c52 4 62 9 62 91v176c0 67 -22 89 -60 89c-39 0 -84 -13 -132 -66c1 -12 1 -26 1 -40v-159c0 -82 9 -87 59 -91
c5 -6 5 -27 0 -33c-25 1 -58 2 -98 2s-77 -1 -102 -2c-5 6 -5 27 0 33c54 4 62 9 62 91v174c0 67 -28 91 -66 91c-30.9 0 -68.4 -20.3 -108 -59c-8 -8.70001 -17 -21 -17 -42v-164c0 -82 11 -86 61.8 -91c6 -6 6 -27 0 -33c-30 1 -60.8 2 -100.8 2s-78 -1 -108 -2
c-6 6 -6 27 0 33c55 4 68 9 68 91v195c0 58 -11 63 -65 68c-2 6 -4 22 -2 28c69 9 95 18 123 29c8 0 9.89999 -3.39999 12 -8c4.7 -10.3 6.7 -46.3 8 -76z" />
    <glyph glyph-name="uni1E40" unicode="&#x1e40;" horiz-adv-x="839" 
d="M371 754c0 28 24 52 52 52s52 -24 52 -52s-24 -52 -52 -52s-52 24 -52 52zM662.7 116l-25.7 418h-2l-225 -529c-4 -8 -8 -15 -14 -15s-12.2 7.9 -15 15l-207 519h-2l-38 -401c-5.39999 -56.3 0 -87 66 -92c6 -6 6 -27 0 -33c-30 1 -70 2 -94 2s-56 -1 -86 -2
c-6 6 -6 27 0 33c57 5 69 30.1 74.9 90l40.1 412c7 75 1 77 -68 81c-6 6 -6 27 0 33l145 -2l205 -508c3.10001 -7.60001 6 -13 8 -13s5 4 9 14l212 507l131 2c6 -6 6 -27 0 -33c-68 -4 -73 -18 -68.7 -72l29.8 -421c5.80005 -82.8 8.90002 -87 76.9 -90c6 -6 6 -27 0 -33
c-33.2 1 -79 2 -109 2s-70 -1 -107 -2c-6 6 -6 27 0 33c65 3 68.7 4 63.7 85z" />
    <glyph glyph-name="uni1E41" unicode="&#x1e41;" horiz-adv-x="790" 
d="M342 599c0 24 28 48 52 48c27 0 48 -28 48 -52c0 -21.1 -24 -48 -52 -48c-24 0 -48 26 -48 52zM170 358c0.5 -12 7.39999 -5.10001 12 0c41.7 46.6 94 81 152 81c52 0 90.5 -32.4 100 -73.4c2 -8.60001 8 -3.60001 11 -0.399994c52.1 55 113.8 73.8 165 73.8
c88 0 103 -70 103 -159v-158c0 -82 9 -87 64 -91c5 -6 5 -27 0 -33c-28 1 -63 2 -103 2s-77 -1 -102 -2c-5 6 -5 27 0 33c52 4 62 9 62 91v176c0 67 -22 89 -60 89c-39 0 -84 -13 -132 -66c1 -12 1 -26 1 -40v-159c0 -82 9 -87 59 -91c5 -6 5 -27 0 -33c-25 1 -58 2 -98 2
s-77 -1 -102 -2c-5 6 -5 27 0 33c54 4 62 9 62 91v174c0 67 -28 91 -66 91c-30.9 0 -68.4 -20.3 -108 -59c-8 -8.70001 -17 -21 -17 -42v-164c0 -82 11 -86 61.8 -91c6 -6 6 -27 0 -33c-30 1 -60.8 2 -100.8 2s-78 -1 -108 -2c-6 6 -6 27 0 33c55 4 68 9 68 91v195
c0 58 -11 63 -65 68c-2 6 -4 22 -2 28c69 9 95 18 123 29c8 0 9.89999 -3.39999 12 -8c4.7 -10.3 6.7 -46.3 8 -76z" />
    <glyph glyph-name="uni1E42" unicode="&#x1e42;" horiz-adv-x="839" 
d="M346 -156c0 24 28 48 52 48c27 0 48 -28 48 -52c0 -21.1 -24 -48 -52 -48c-24 0 -48 26 -48 52zM662.7 116l-25.7 418h-2l-225 -529c-4 -8 -8 -15 -14 -15s-12.2 7.9 -15 15l-207 519h-2l-38 -401c-5.39999 -56.3 0 -87 66 -92c6 -6 6 -27 0 -33c-30 1 -70 2 -94 2
s-56 -1 -86 -2c-6 6 -6 27 0 33c57 5 69 30.1 74.9 90l40.1 412c7 75 1 77 -68 81c-6 6 -6 27 0 33l145 -2l205 -508c3.10001 -7.60001 6 -13 8 -13s5 4 9 14l212 507l131 2c6 -6 6 -27 0 -33c-68 -4 -73 -18 -68.7 -72l29.8 -421c5.80005 -82.8 8.90002 -87 76.9 -90
c6 -6 6 -27 0 -33c-33.2 1 -79 2 -109 2s-70 -1 -107 -2c-6 6 -6 27 0 33c65 3 68.7 4 63.7 85z" />
    <glyph glyph-name="uni1E43" unicode="&#x1e43;" horiz-adv-x="790" 
d="M350 -156c0 24 28 48 52 48c27 0 48 -28 48 -52c0 -21.1 -24 -48 -52 -48c-24 0 -48 26 -48 52zM170 358c0.5 -12 7.39999 -5.10001 12 0c41.7 46.6 94 81 152 81c52 0 90.5 -32.4 100 -73.4c2 -8.60001 8 -3.60001 11 -0.399994c52.1 55 113.8 73.8 165 73.8
c88 0 103 -70 103 -159v-158c0 -82 9 -87 64 -91c5 -6 5 -27 0 -33c-28 1 -63 2 -103 2s-77 -1 -102 -2c-5 6 -5 27 0 33c52 4 62 9 62 91v176c0 67 -22 89 -60 89c-39 0 -84 -13 -132 -66c1 -12 1 -26 1 -40v-159c0 -82 9 -87 59 -91c5 -6 5 -27 0 -33c-25 1 -58 2 -98 2
s-77 -1 -102 -2c-5 6 -5 27 0 33c54 4 62 9 62 91v174c0 67 -28 91 -66 91c-30.9 0 -68.4 -20.3 -108 -59c-8 -8.70001 -17 -21 -17 -42v-164c0 -82 11 -86 61.8 -91c6 -6 6 -27 0 -33c-30 1 -60.8 2 -100.8 2s-78 -1 -108 -2c-6 6 -6 27 0 33c55 4 68 9 68 91v195
c0 58 -11 63 -65 68c-2 6 -4 22 -2 28c69 9 95 18 123 29c8 0 9.89999 -3.39999 12 -8c4.7 -10.3 6.7 -46.3 8 -76z" />
    <glyph glyph-name="uni1E44" unicode="&#x1e44;" horiz-adv-x="699" 
d="M304 754c0 28 24 52 52 52s52 -24 52 -52s-24 -52 -52 -52s-52 24 -52 52zM556 512c0 91 -17 95 -87 102c-6 6 -6 27 0 33c44 -1 89.7 -2 111 -2c23.7 0 71 1 112 2c6 -6 6 -27 0 -33c-70 -7 -87 -13 -87 -102v-491c0 -19 -9 -31 -23 -31c-16 0 -29 9 -40 24l-349 441
c-17 22 -28 33 -34 33c-8 0 -8 -15 -8 -49v-306c0 -91 17 -95 87 -102c6 -6 6 -27 0 -33c-42 1 -87.9 2 -111 2c-23.6 0 -69 -1 -112 -2c-6 6 -6 27 0 33c70 7 87 13 87 102v417c-6 26 -36 61 -79 64c-6 6 -6 27 0 33l135 -2l343 -435c29 -37 44 -55 48 -55c7 0 7 11 7 30
v327z" />
    <glyph glyph-name="uni1E45" unicode="&#x1e45;" horiz-adv-x="542" 
d="M238 599c0 24 28 48 52 48c27 0 48 -28 48 -52c0 -21.1 -24 -48 -52 -48c-24 0 -48 26 -48 52zM184 358c59.3 68 115 81 164 81c35 0 66 -12 83 -34c23 -31 27 -79 27 -134v-149c0 -82 11 -86 67 -91c5 -6 5 -27 0 -33c-30 1 -66 2 -106 2s-72 -1 -102 -2
c-5 6 -5 27 0 33c52 5 62 9 62 91v152c0 30 -2 57 -12 77c-12 23 -33 36 -53 36c-39 0 -84 -22 -122 -59c-8 -9 -17 -21 -17 -42v-164c0 -82 10 -86 61 -91c6 -6 6 -27 0 -33c-30 1 -60 2 -100 2s-80 -1 -110 -2c-6 6 -6 27 0 33c60 5 70 9 70 91v195c0 58 -11 63 -65 68
c-2 6 -4 22 -2 28c69 9 95 18 123 29c8 0 9.89999 -3.39999 12 -8c4.7 -10.3 7 -49 8 -76c0.300003 -9.39999 5.89999 -7 12 0z" />
    <glyph glyph-name="uni1E46" unicode="&#x1e46;" horiz-adv-x="699" 
d="M300 -156c0 24 28 48 52 48c27 0 48 -28 48 -52c0 -21.1 -24 -48 -52 -48c-24 0 -48 26 -48 52zM556 512c0 91 -17 95 -87 102c-6 6 -6 27 0 33c44 -1 89.7 -2 111 -2c23.7 0 71 1 112 2c6 -6 6 -27 0 -33c-70 -7 -87 -13 -87 -102v-491c0 -19 -9 -31 -23 -31
c-16 0 -29 9 -40 24l-349 441c-17 22 -28 33 -34 33c-8 0 -8 -15 -8 -49v-306c0 -91 17 -95 87 -102c6 -6 6 -27 0 -33c-42 1 -87.9 2 -111 2c-23.6 0 -69 -1 -112 -2c-6 6 -6 27 0 33c70 7 87 13 87 102v417c-6 26 -36 61 -79 64c-6 6 -6 27 0 33l135 -2l343 -435
c29 -37 44 -55 48 -55c7 0 7 11 7 30v327z" />
    <glyph glyph-name="uni1E47" unicode="&#x1e47;" horiz-adv-x="542" 
d="M215 -156c0 24 28 48 52 48c27 0 48 -28 48 -52c0 -21.1 -24 -48 -52 -48c-24 0 -48 26 -48 52zM184 358c59.3 68 115 81 164 81c35 0 66 -12 83 -34c23 -31 27 -79 27 -134v-149c0 -82 11 -86 67 -91c5 -6 5 -27 0 -33c-30 1 -66 2 -106 2s-72 -1 -102 -2
c-5 6 -5 27 0 33c52 5 62 9 62 91v152c0 30 -2 57 -12 77c-12 23 -33 36 -53 36c-39 0 -84 -22 -122 -59c-8 -9 -17 -21 -17 -42v-164c0 -82 10 -86 61 -91c6 -6 6 -27 0 -33c-30 1 -60 2 -100 2s-80 -1 -110 -2c-6 6 -6 27 0 33c60 5 70 9 70 91v195c0 58 -11 63 -65 68
c-2 6 -4 22 -2 28c69 9 95 18 123 29c8 0 9.89999 -3.39999 12 -8c4.7 -10.3 7 -49 8 -76c0.300003 -9.39999 5.89999 -7 12 0z" />
    <glyph glyph-name="uni1E48" unicode="&#x1e48;" horiz-adv-x="699" 
d="M453 -131h-205c-8 0 -12 8 -12 15c0 12 10 29 22 29h205c9 0 13 -7 13 -14c0 -12 -10 -30 -23 -30zM556 512c0 91 -17 95 -87 102c-6 6 -6 27 0 33c44 -1 89.7 -2 111 -2c23.7 0 71 1 112 2c6 -6 6 -27 0 -33c-70 -7 -87 -13 -87 -102v-491c0 -19 -9 -31 -23 -31
c-16 0 -29 9 -40 24l-349 441c-17 22 -28 33 -34 33c-8 0 -8 -15 -8 -49v-306c0 -91 17 -95 87 -102c6 -6 6 -27 0 -33c-42 1 -87.9 2 -111 2c-23.6 0 -69 -1 -112 -2c-6 6 -6 27 0 33c70 7 87 13 87 102v417c-6 26 -36 61 -79 64c-6 6 -6 27 0 33l135 -2l343 -435
c29 -37 44 -55 48 -55c7 0 7 11 7 30v327z" />
    <glyph glyph-name="uni1E49" unicode="&#x1e49;" horiz-adv-x="542" 
d="M359 -131h-205c-8 0 -12 8 -12 15c0 12 10 29 22 29h205c9 0 13 -7 13 -14c0 -12 -10 -30 -23 -30zM184 358c59.3 68 115 81 164 81c35 0 66 -12 83 -34c23 -31 27 -79 27 -134v-149c0 -82 11 -86 67 -91c5 -6 5 -27 0 -33c-30 1 -66 2 -106 2s-72 -1 -102 -2
c-5 6 -5 27 0 33c52 5 62 9 62 91v152c0 30 -2 57 -12 77c-12 23 -33 36 -53 36c-39 0 -84 -22 -122 -59c-8 -9 -17 -21 -17 -42v-164c0 -82 10 -86 61 -91c6 -6 6 -27 0 -33c-30 1 -60 2 -100 2s-80 -1 -110 -2c-6 6 -6 27 0 33c60 5 70 9 70 91v195c0 58 -11 63 -65 68
c-2 6 -4 22 -2 28c69 9 95 18 123 29c8 0 9.89999 -3.39999 12 -8c4.7 -10.3 7 -49 8 -76c0.300003 -9.39999 5.89999 -7 12 0z" />
    <glyph glyph-name="uni1E4A" unicode="&#x1e4a;" horiz-adv-x="699" 
d="M367 -43c29 -47 73 -100 109 -140c-5 -7 -13.6 -15.1 -23 -17c-38 24 -73 52 -103 83c-32 -32 -65 -61 -104 -83c-9 2 -16 8 -22 17c36 40 82 94 111 140c10.7 2.3 21.3 3 32 0zM556 512c0 91 -17 95 -87 102c-6 6 -6 27 0 33c44 -1 89.7 -2 111 -2c23.7 0 71 1 112 2
c6 -6 6 -27 0 -33c-70 -7 -87 -13 -87 -102v-491c0 -19 -9 -31 -23 -31c-16 0 -29 9 -40 24l-349 441c-17 22 -28 33 -34 33c-8 0 -8 -15 -8 -49v-306c0 -91 17 -95 87 -102c6 -6 6 -27 0 -33c-42 1 -87.9 2 -111 2c-23.6 0 -69 -1 -112 -2c-6 6 -6 27 0 33
c70 7 87 13 87 102v417c-6 26 -36 61 -79 64c-6 6 -6 27 0 33l135 -2l343 -435c29 -37 44 -55 48 -55c7 0 7 11 7 30v327z" />
    <glyph glyph-name="uni1E4B" unicode="&#x1e4b;" horiz-adv-x="542" 
d="M285 -43c29 -47 73 -100 109 -140c-5 -7 -13.6 -15.1 -23 -17c-38 24 -73 52 -103 83c-32 -32 -65 -61 -104 -83c-9 2 -16 8 -22 17c36 40 82 94 111 140c10.7 2.3 21.3 3 32 0zM184 358c59.3 68 115 81 164 81c35 0 66 -12 83 -34c23 -31 27 -79 27 -134v-149
c0 -82 11 -86 67 -91c5 -6 5 -27 0 -33c-30 1 -66 2 -106 2s-72 -1 -102 -2c-5 6 -5 27 0 33c52 5 62 9 62 91v152c0 30 -2 57 -12 77c-12 23 -33 36 -53 36c-39 0 -84 -22 -122 -59c-8 -9 -17 -21 -17 -42v-164c0 -82 10 -86 61 -91c6 -6 6 -27 0 -33c-30 1 -60 2 -100 2
s-80 -1 -110 -2c-6 6 -6 27 0 33c60 5 70 9 70 91v195c0 58 -11 63 -65 68c-2 6 -4 22 -2 28c69 9 95 18 123 29c8 0 9.89999 -3.39999 12 -8c4.7 -10.3 7 -49 8 -76c0.300003 -9.39999 5.89999 -7 12 0z" />
    <glyph glyph-name="uni1E4C" unicode="&#x1e4c;" horiz-adv-x="702" 
d="M400.7 748.1c18.7 0 28 11 39.9 57.2c9.39999 1.10004 17.8 -2.20001 22.9 -6.59998c-10.2 -66 -34.8 -108.9 -73.9 -108.9c-18.7 0 -36.6 19.8 -54.4 35.2c-15.3 12.1 -31.4 20.9 -45.9 20.9c-22.1 0 -30.6 -16.5 -39.1 -52.8c-9.39999 -2.19995 -17.9 -1.09998 -23 5.5
c11.9 64.9 31.5 107.8 68 107.8c25.5 0 44.3 -22 61.3 -37.4c13.6 -13.2 28 -20.9 44.2 -20.9zM331 622c-99 0 -198 -85 -198 -295c0 -192 115 -301 237 -301c114 0 200 105 200 284c0 202 -107 312 -239 312zM666 329c0 -84 -22 -156.3 -61.8 -213
c-54.9 -78.3 -143.4 -126 -254.2 -126c-170 0 -313 123 -313 320c0 193.9 113.3 348 307 348c179 0 322 -122 322 -329zM608.1 804.9c22.1 -11.7 38 -27 47.8 -45.8l-110.9 -51.1c-16.2 -7.90002 -25.5 -10.5 -32.4 -10.5c-6.89996 0 -11.5 6.20001 -11.5 13.2
c0 6.20001 1.5 10.6 11.5 18.5z" />
    <glyph glyph-name="uni1E4D" unicode="&#x1e4d;" horiz-adv-x="504" 
d="M304 551c22 0 33 10 47 52c11 1 21 -2 27 -6c-12 -60 -41 -99 -87 -99c-22 0 -43 18 -64 32c-18 11 -37 19 -54 19c-26 0 -36 -15 -46 -48c-11 -2 -21 -1 -27 5c14 59 37 98 80 98c30 0 52 -20 72 -34c16 -12 33 -19 52 -19zM41 205c0 63.2 19 121.4 55.3 164
c36.6 43 90.9 70 156.7 70c153 0 210 -121 210 -225c0 -61.3 -20.3 -124.2 -65.1 -168c-34.1 -33.3 -82.5 -56 -146.9 -56c-142 0 -210 113 -210 215zM238 404c-90 0 -111 -89 -111 -176c0 -77 34 -203 138 -203c47 0 112 31 112 157c0 144 -53 222 -139 222zM341 750
c2.29999 0.900024 6.79999 1.79999 10.7 1.79999c4.89999 0 24.7 -0.799988 42.4 -20.2l2.29999 -9.69995l-88.6 -95.9c-11.5 -13.2 -17.6 -16.8 -23 -16.8c-5.39999 0 -10.8 5.29999 -10.8 11.5c0 9.89996 2.5 13.3 8.79999 24.6z" />
    <glyph glyph-name="uni1E4E" unicode="&#x1e4e;" horiz-adv-x="702" 
d="M511 752c0 25 21 46 46 46s46 -21 46 -46s-21 -46 -46 -46s-46 21 -46 46zM101 752c0 25 21 46 46 46s46 -21 46 -46s-21 -46 -46 -46s-46 21 -46 46zM400.7 748.1c18.7 0 28 11 39.9 57.2c9.39999 1.10004 17.8 -2.20001 22.9 -6.59998
c-10.2 -66 -34.8 -108.9 -73.9 -108.9c-18.7 0 -36.6 19.8 -54.4 35.2c-15.3 12.1 -31.4 20.9 -45.9 20.9c-22.1 0 -30.6 -16.5 -39.1 -52.8c-9.39999 -2.19995 -17.9 -1.09998 -23 5.5c11.9 64.9 31.5 107.8 68 107.8c25.5 0 44.3 -22 61.3 -37.4
c13.6 -13.2 28 -20.9 44.2 -20.9zM331 622c-99 0 -198 -85 -198 -295c0 -192 115 -301 237 -301c114 0 200 105 200 284c0 202 -107 312 -239 312zM666 329c0 -84 -22 -156.3 -61.8 -213c-54.9 -78.3 -143.4 -126 -254.2 -126c-170 0 -313 123 -313 320
c0 193.9 113.3 348 307 348c179 0 322 -122 322 -329z" />
    <glyph glyph-name="uni1E4F" unicode="&#x1e4f;" horiz-adv-x="504" 
d="M304 551c22 0 33 10 47 52c11 1 21 -2 27 -6c-12 -60 -41 -99 -87 -99c-22 0 -43 18 -64 32c-18 11 -37 19 -54 19c-26 0 -36 -15 -46 -48c-11 -2 -21 -1 -27 5c14 59 37 98 80 98c30 0 52 -20 72 -34c16 -12 33 -19 52 -19zM41 205c0 63.2 19 121.4 55.3 164
c36.6 43 90.9 70 156.7 70c153 0 210 -121 210 -225c0 -61.3 -20.3 -124.2 -65.1 -168c-34.1 -33.3 -82.5 -56 -146.9 -56c-142 0 -210 113 -210 215zM238 404c-90 0 -111 -89 -111 -176c0 -77 34 -203 138 -203c47 0 112 31 112 157c0 144 -53 222 -139 222zM110 682
c0 26 21 48 47 48s47 -22 47 -48s-21 -47 -47 -47s-47 21 -47 47zM279 682c0 26 21 48 47 48s47 -22 47 -48s-21 -47 -47 -47s-47 21 -47 47z" />
    <glyph glyph-name="uni1E50" unicode="&#x1e50;" horiz-adv-x="702" 
d="M442.3 745h-190.3c-7.7 0 -11.1 11 -11.1 18c0 12 9.40001 32 18.7 32h191.2c8.5 0 11.9 -11 11.9 -17c0 -12 -9.30002 -33 -20.4 -33zM331 622c-99 0 -198 -85 -198 -295c0 -192 115 -301 237 -301c114 0 200 105 200 284c0 202 -107 312 -239 312zM666 329
c0 -84 -22 -156.3 -61.8 -213c-54.9 -78.3 -143.4 -126 -254.2 -126c-170 0 -313 123 -313 320c0 193.9 113.3 348 307 348c179 0 322 -122 322 -329zM95.9 805.1l93.2 -73.9c8.5 -7 11.5 -12.3 11.5 -18.5c0 -7 -5.3 -13.2 -11.5 -13.2
c-6.20001 0 -16.9 2.59998 -33.1 10.5l-118.6 55.5c14.1 15.6 32.2 29.4 58.5 39.6z" />
    <glyph glyph-name="uni1E51" unicode="&#x1e51;" horiz-adv-x="504" 
d="M213.9 758l53.9 -110.8c3.80002 -8.79999 4.60001 -15 4.60001 -21.2c0 -4.40002 -5.39999 -9.59998 -11.6 -9.59998c-4.59998 0 -9.99998 4.39996 -22.3 17.6l-87.8 95.9l1.60001 9.69995c6.2 5.30005 23.8 20.2 50 20.2c3.8 0 8.5 -0.899963 11.6 -1.79999zM360 518
h-224c-9 0 -13 11 -13 18c0 12 11 32 22 32h225c10 0 14 -11 14 -17c0 -12 -11 -33 -24 -33zM41 205c0 63.2 19 121.4 55.3 164c36.6 43 90.9 70 156.7 70c153 0 210 -121 210 -225c0 -61.3 -20.3 -124.2 -65.1 -168c-34.1 -33.3 -82.5 -56 -146.9 -56
c-142 0 -210 113 -210 215zM238 404c-90 0 -111 -89 -111 -176c0 -77 34 -203 138 -203c47 0 112 31 112 157c0 144 -53 222 -139 222z" />
    <glyph glyph-name="uni1E52" unicode="&#x1e52;" horiz-adv-x="702" 
d="M420.3 745h-190.3c-7.7 0 -11.1 11 -11.1 18c0 12 9.40001 32 18.7 32h191.2c8.5 0 11.9 -11 11.9 -17c0 -12 -9.30002 -33 -20.4 -33zM331 622c-99 0 -198 -85 -198 -295c0 -192 115 -301 237 -301c114 0 200 105 200 284c0 202 -107 312 -239 312zM666 329
c0 -84 -22 -156.3 -61.8 -213c-54.9 -78.3 -143.4 -126 -254.2 -126c-170 0 -313 123 -313 320c0 193.9 113.3 348 307 348c179 0 322 -122 322 -329zM603.1 804.9c22.1 -11.7 38 -27 47.8 -45.8l-110.9 -51.1c-16.2 -7.90002 -25.5 -10.5 -32.4 -10.5
s-11.5 6.20001 -11.5 13.2c0 6.20001 1.5 10.6 11.5 18.5z" />
    <glyph glyph-name="uni1E53" unicode="&#x1e53;" horiz-adv-x="504" 
d="M273 767c2.29999 0.900024 6.79999 1.79999 10.7 1.79999c4.89999 0 24.7 -0.799988 42.4 -20.2l2.29999 -9.69995l-88.6 -95.9c-11.5 -13.2 -17.6 -16.8 -23 -16.8c-5.40001 0 -10.8 5.29999 -10.8 11.5c0 9.89996 2.5 13.3 8.8 24.6zM360 518h-224c-9 0 -13 11 -13 18
c0 12 11 32 22 32h225c10 0 14 -11 14 -17c0 -12 -11 -33 -24 -33zM41 205c0 63.2 19 121.4 55.3 164c36.6 43 90.9 70 156.7 70c153 0 210 -121 210 -225c0 -61.3 -20.3 -124.2 -65.1 -168c-34.1 -33.3 -82.5 -56 -146.9 -56c-142 0 -210 113 -210 215zM238 404
c-90 0 -111 -89 -111 -176c0 -77 34 -203 138 -203c47 0 112 31 112 157c0 144 -53 222 -139 222z" />
    <glyph glyph-name="uni1E54" unicode="&#x1e54;" horiz-adv-x="541" 
d="M344 819c28.6 -13.3 49.3 -30.7 62 -52l-144 -58c-21 -9 -33 -12 -42 -12s-15 7 -15 15c0 7 2 12 15 21zM189 554v-233c11 -3 51 -5 76 -5c97 0 149 44 149 152c0 127 -69 150 -138 150c-72 0 -87 -35 -87 -64zM104 523c0 83 -17 88 -87 91c-6 6 -6 27 0 33
c40 -1 92.3 -2 129 -2c40 0 98.7 7 137 7c185 0 224 -107 224 -166c0 -85 -55 -204 -237 -204c-35 0 -59 3 -81 10v-170c0 -83 24 -87 102 -91c6 -6 6 -27 0 -33c-50 1 -108.6 2 -144 2c-35.7 0 -85 -1 -130 -2c-6 6 -6 27 0 33c70 3 87 8 87 91v401z" />
    <glyph glyph-name="uni1E55" unicode="&#x1e55;" horiz-adv-x="519" 
d="M313 671c3 1 9 2 14 2c6.39999 0 32 -1 55 -23l3 -11l-115 -109c-15 -15 -23 -19 -30 -19s-14 6 -14 13c0 11.2 3.3 15.2 11.4 28zM175 331c-11.6 -14.3 -16 -23 -16 -44v-182c0 -36.1 3.89999 -41.9 24 -59.9c18 -16.1 53 -21.1 71 -21.1c112 0 141 102 141 184
c0 113 -55 185 -119 185c-29.2 0 -75 -30 -101 -62zM156 368c0.5 -9.60001 5.39999 -10.3 11 -4c39.5 44.5 90.5 75 137 75c102 0 177 -98 177 -204c0 -81 -27 -143 -74 -189c-41 -39 -91 -56 -147 -56c-31.6 0 -62.5 5.6 -87 15.5c-10.2 4.2 -14 5.5 -14 -7.5v-108
c0 -83 11 -87 82 -91c6 -6 6 -27 0 -33c-33 1 -81 2 -121 2s-77 -1 -112 -2c-6 6 -6 27 0 33c61 3 72 8 72 91v427c0 58 -11 63 -65 68c-2 6 -4 22 -2 28c69 9 95 18 123 29c8 0 9.89999 -3.39999 12 -8c4.7 -10.3 6.5 -36 8 -66z" />
    <glyph glyph-name="uni1E56" unicode="&#x1e56;" horiz-adv-x="541" 
d="M234 754c0 28 24 52 52 52s52 -24 52 -52s-24 -52 -52 -52s-52 24 -52 52zM189 554v-233c11 -3 51 -5 76 -5c97 0 149 44 149 152c0 127 -69 150 -138 150c-72 0 -87 -35 -87 -64zM104 523c0 83 -17 88 -87 91c-6 6 -6 27 0 33c40 -1 92.3 -2 129 -2c40 0 98.7 7 137 7
c185 0 224 -107 224 -166c0 -85 -55 -204 -237 -204c-35 0 -59 3 -81 10v-170c0 -83 24 -87 102 -91c6 -6 6 -27 0 -33c-50 1 -108.6 2 -144 2c-35.7 0 -85 -1 -130 -2c-6 6 -6 27 0 33c70 3 87 8 87 91v401z" />
    <glyph glyph-name="uni1E57" unicode="&#x1e57;" horiz-adv-x="519" 
d="M218 599c0 24 28 48 52 48c27 0 48 -28 48 -52c0 -21.1 -24 -48 -52 -48c-24 0 -48 26 -48 52zM175 331c-11.6 -14.3 -16 -23 -16 -44v-182c0 -36.1 3.89999 -41.9 24 -59.9c18 -16.1 53 -21.1 71 -21.1c112 0 141 102 141 184c0 113 -55 185 -119 185
c-29.2 0 -75 -30 -101 -62zM156 368c0.5 -9.60001 5.39999 -10.3 11 -4c39.5 44.5 90.5 75 137 75c102 0 177 -98 177 -204c0 -81 -27 -143 -74 -189c-41 -39 -91 -56 -147 -56c-31.6 0 -62.5 5.6 -87 15.5c-10.2 4.2 -14 5.5 -14 -7.5v-108c0 -83 11 -87 82 -91
c6 -6 6 -27 0 -33c-33 1 -81 2 -121 2s-77 -1 -112 -2c-6 6 -6 27 0 33c61 3 72 8 72 91v427c0 58 -11 63 -65 68c-2 6 -4 22 -2 28c69 9 95 18 123 29c8 0 9.89999 -3.39999 12 -8c4.7 -10.3 6.5 -36 8 -66z" />
    <glyph glyph-name="uni1E58" unicode="&#x1e58;" horiz-adv-x="587" 
d="M224 754c0 28 24 52 52 52s52 -24 52 -52s-24 -52 -52 -52s-52 24 -52 52zM272 618c-71 0 -83 -35 -83 -64v-229h48c97 0 168 28 168 153c0 118 -72 140 -133 140zM189 122c0 -83 17 -88 87 -91c6 -6 6 -27 0 -33c-44 1 -91.4 2 -129 2c-38.5 0 -85 -1 -130 -2
c-6 6 -6 27 0 33c70 3 87 8 87 91v401c0 83 -17 88 -87 91c-6 6 -6 27 0 33c47 -1 94 -2 129 -2c36 0 78 7 125 7c63 0 125 -3 173 -48c36 -34 53 -75 53 -125c0 -105 -90 -157 -133 -171l126 -210c26 -43.4 51 -77 96 -77c4 -8 4.5 -17.1 1 -24c-10 -5 -27 -7 -42 -7
c-60 0 -103.3 42.4 -132 89l-107 174c-14.3 23.3 -33 38 -117 38v-169z" />
    <glyph glyph-name="uni1E59" unicode="&#x1e59;" horiz-adv-x="372" 
d="M157 599c0 24 28 48 52 48c27 0 48 -28 48 -52c0 -21.1 -24 -48 -52 -48c-24 0 -48 26 -48 52zM176 358c0.199997 -5 5 -13 11 -2c23 39 64 83 111 83c42 0 60 -28.9 60 -48c0 -25 -23 -50 -47 -50c-17.4 0 -28.6 13.3 -36.2 23.3c-7.79999 10.3 -16.8 12.7 -25.8 12.7
c-12 0 -35 -33 -46 -49c-12 -18 -24 -41 -24 -67v-139c0 -83 12 -86 82 -91c6 -6 6 -27 0 -33c-35 1 -81 2 -121 2s-79 -1 -114 -2c-6 6 -6 27 0 33c62 4 74 8 74 91v195c0 58 -11 63 -65 68c-2 6 -4 22 -2 28c69 9 95 18 123 29c8 0 9.89999 -3.39999 12 -8
c4.7 -10.3 6.3 -36 8 -76z" />
    <glyph glyph-name="uni1E5A" unicode="&#x1e5a;" horiz-adv-x="587" 
d="M243 -156c0 24 28 48 52 48c27 0 48 -28 48 -52c0 -21.1 -24 -48 -52 -48c-24 0 -48 26 -48 52zM272 618c-71 0 -83 -35 -83 -64v-229h48c97 0 168 28 168 153c0 118 -72 140 -133 140zM189 122c0 -83 17 -88 87 -91c6 -6 6 -27 0 -33c-44 1 -91.4 2 -129 2
c-38.5 0 -85 -1 -130 -2c-6 6 -6 27 0 33c70 3 87 8 87 91v401c0 83 -17 88 -87 91c-6 6 -6 27 0 33c47 -1 94 -2 129 -2c36 0 78 7 125 7c63 0 125 -3 173 -48c36 -34 53 -75 53 -125c0 -105 -90 -157 -133 -171l126 -210c26 -43.4 51 -77 96 -77c4 -8 4.5 -17.1 1 -24
c-10 -5 -27 -7 -42 -7c-60 0 -103.3 42.4 -132 89l-107 174c-14.3 23.3 -33 38 -117 38v-169z" />
    <glyph glyph-name="uni1E5B" unicode="&#x1e5b;" horiz-adv-x="372" 
d="M76 -156c0 24 28 48 52 48c27 0 48 -28 48 -52c0 -21.1 -24 -48 -52 -48c-24 0 -48 26 -48 52zM176 358c0.199997 -5 5 -13 11 -2c23 39 64 83 111 83c42 0 60 -28.9 60 -48c0 -25 -23 -50 -47 -50c-17.4 0 -28.6 13.3 -36.2 23.3c-7.79999 10.3 -16.8 12.7 -25.8 12.7
c-12 0 -35 -33 -46 -49c-12 -18 -24 -41 -24 -67v-139c0 -83 12 -86 82 -91c6 -6 6 -27 0 -33c-35 1 -81 2 -121 2s-79 -1 -114 -2c-6 6 -6 27 0 33c62 4 74 8 74 91v195c0 58 -11 63 -65 68c-2 6 -4 22 -2 28c69 9 95 18 123 29c8 0 9.89999 -3.39999 12 -8
c4.7 -10.3 6.3 -36 8 -76z" />
    <glyph glyph-name="uni1E5C" unicode="&#x1e5c;" horiz-adv-x="587" 
d="M377 713h-224c-9 0 -13 11 -13 18c0 12 11 32 22 32h225c10 0 14 -11 14 -17c0 -12 -11 -33 -24 -33zM243 -156c0 24 28 48 52 48c27 0 48 -28 48 -52c0 -21.1 -24 -48 -52 -48c-24 0 -48 26 -48 52zM272 618c-71 0 -83 -35 -83 -64v-229h48c97 0 168 28 168 153
c0 118 -72 140 -133 140zM189 122c0 -83 17 -88 87 -91c6 -6 6 -27 0 -33c-44 1 -91.4 2 -129 2c-38.5 0 -85 -1 -130 -2c-6 6 -6 27 0 33c70 3 87 8 87 91v401c0 83 -17 88 -87 91c-6 6 -6 27 0 33c47 -1 94 -2 129 -2c36 0 78 7 125 7c63 0 125 -3 173 -48
c36 -34 53 -75 53 -125c0 -105 -90 -157 -133 -171l126 -210c26 -43.4 51 -77 96 -77c4 -8 4.5 -17.1 1 -24c-10 -5 -27 -7 -42 -7c-60 0 -103.3 42.4 -132 89l-107 174c-14.3 23.3 -33 38 -117 38v-169z" />
    <glyph glyph-name="uni1E5D" unicode="&#x1e5d;" horiz-adv-x="372" 
d="M297 521h-224c-9 0 -13 11 -13 18c0 12 11 32 22 32h225c10 0 14 -11 14 -17c0 -12 -11 -33 -24 -33zM76 -156c0 24 28 48 52 48c27 0 48 -28 48 -52c0 -21.1 -24 -48 -52 -48c-24 0 -48 26 -48 52zM176 358c0.199997 -5 5 -13 11 -2c23 39 64 83 111 83
c42 0 60 -28.9 60 -48c0 -25 -23 -50 -47 -50c-17.4 0 -28.6 13.3 -36.2 23.3c-7.79999 10.3 -16.8 12.7 -25.8 12.7c-12 0 -35 -33 -46 -49c-12 -18 -24 -41 -24 -67v-139c0 -83 12 -86 82 -91c6 -6 6 -27 0 -33c-35 1 -81 2 -121 2s-79 -1 -114 -2c-6 6 -6 27 0 33
c62 4 74 8 74 91v195c0 58 -11 63 -65 68c-2 6 -4 22 -2 28c69 9 95 18 123 29c8 0 9.89999 -3.39999 12 -8c4.7 -10.3 6.3 -36 8 -76z" />
    <glyph glyph-name="uni1E5E" unicode="&#x1e5e;" horiz-adv-x="587" 
d="M413 -131h-205c-8 0 -12 8 -12 15c0 12 10 29 22 29h205c9 0 13 -7 13 -14c0 -12 -10 -30 -23 -30zM272 618c-71 0 -83 -35 -83 -64v-229h48c97 0 168 28 168 153c0 118 -72 140 -133 140zM189 122c0 -83 17 -88 87 -91c6 -6 6 -27 0 -33c-44 1 -91.4 2 -129 2
c-38.5 0 -85 -1 -130 -2c-6 6 -6 27 0 33c70 3 87 8 87 91v401c0 83 -17 88 -87 91c-6 6 -6 27 0 33c47 -1 94 -2 129 -2c36 0 78 7 125 7c63 0 125 -3 173 -48c36 -34 53 -75 53 -125c0 -105 -90 -157 -133 -171l126 -210c26 -43.4 51 -77 96 -77c4 -8 4.5 -17.1 1 -24
c-10 -5 -27 -7 -42 -7c-60 0 -103.3 42.4 -132 89l-107 174c-14.3 23.3 -33 38 -117 38v-169z" />
    <glyph glyph-name="uni1E5F" unicode="&#x1e5f;" horiz-adv-x="372" 
d="M254 -131h-205c-8 0 -12 8 -12 15c0 12 10 29 22 29h205c9 0 13 -7 13 -14c0 -12 -10 -30 -23 -30zM176 358c0.199997 -5 5 -13 11 -2c23 39 64 83 111 83c42 0 60 -28.9 60 -48c0 -25 -23 -50 -47 -50c-17.4 0 -28.6 13.3 -36.2 23.3
c-7.79999 10.3 -16.8 12.7 -25.8 12.7c-12 0 -35 -33 -46 -49c-12 -18 -24 -41 -24 -67v-139c0 -83 12 -86 82 -91c6 -6 6 -27 0 -33c-35 1 -81 2 -121 2s-79 -1 -114 -2c-6 6 -6 27 0 33c62 4 74 8 74 91v195c0 58 -11 63 -65 68c-2 6 -4 22 -2 28c69 9 95 18 123 29
c8 0 9.89999 -3.39999 12 -8c4.7 -10.3 6.3 -36 8 -76z" />
    <glyph glyph-name="uni1E60" unicode="&#x1e60;" horiz-adv-x="485" 
d="M174 754c0 28 24 52 52 52s52 -24 52 -52s-24 -52 -52 -52s-52 24 -52 52zM394.7 631c10.3 -53 14.3 -81 17.8 -129c-9 -7 -22 -7.79999 -32.5 -6c-20 66 -51 128 -148.1 128c-58.9 0 -109.5 -56 -109.5 -112c0 -84.1 99.9 -121.9 159.1 -144.1
c82.4 -30.9 162.5 -77.5 162.5 -183.9c0 -63.6 -36.5 -125.2 -94 -161.2c-34.8 -21.7 -77.8 -32.8 -123.3 -32.8c-88.7 0 -116.7 23 -179.7 23c-12 49 -16 75 -20 152c9.6 5.10001 20.2 7 32.5 3c22 -99.5 82 -142 175.5 -142c79.8 0 125 42 125 123
c0 97.8 -73.7 125.9 -134.5 149c-88 33.5 -174.5 81.6 -174.5 187c0 106 89 173 190.3 173c97.7 0 95.6 -19 153.4 -27z" />
    <glyph glyph-name="uni1E61" unicode="&#x1e61;" horiz-adv-x="390" 
d="M159 599c0 24 28 48 52 48c27 0 48 -28 48 -52c0 -21.1 -24 -48 -52 -48c-24 0 -48 26 -48 52zM48 138c6 6 25 7 31 1c6 -25 17 -69 39 -92c10.3 -10.7 32 -24 71 -24c37 0 85 21 85 70c0 43 -19 64 -102 98c-77 32 -110 63 -110 136c0 64 67 112 141 112
c52 0 100 -14 131 -19c-1 -33 -3 -70 -6 -106c-6 -6 -26 -7 -32 -1c-13 85 -71 93 -93 93c-34 0 -70 -23 -70 -64c0 -55 39.8 -70.5 100 -92.8c68 -25.2 117 -64.9 117 -133.2c0 -99 -103 -126 -159 -126c-37 0 -64 4 -91 11c-7 2 -13 2 -20 2c-5 0 -15 -1 -25 -3
c0 42 -3 89 -7 138z" />
    <glyph glyph-name="uni1E62" unicode="&#x1e62;" horiz-adv-x="485" 
d="M178 -156c0 24 28 48 52 48c27 0 48 -28 48 -52c0 -21.1 -24 -48 -52 -48c-24 0 -48 26 -48 52zM394.7 631c10.3 -53 14.3 -81 17.8 -129c-9 -7 -22 -7.79999 -32.5 -6c-20 66 -51 128 -148.1 128c-58.9 0 -109.5 -56 -109.5 -112c0 -84.1 99.9 -121.9 159.1 -144.1
c82.4 -30.9 162.5 -77.5 162.5 -183.9c0 -63.6 -36.5 -125.2 -94 -161.2c-34.8 -21.7 -77.8 -32.8 -123.3 -32.8c-88.7 0 -116.7 23 -179.7 23c-12 49 -16 75 -20 152c9.6 5.10001 20.2 7 32.5 3c22 -99.5 82 -142 175.5 -142c79.8 0 125 42 125 123
c0 97.8 -73.7 125.9 -134.5 149c-88 33.5 -174.5 81.6 -174.5 187c0 106 89 173 190.3 173c97.7 0 95.6 -19 153.4 -27z" />
    <glyph glyph-name="uni1E63" unicode="&#x1e63;" horiz-adv-x="390" 
d="M48 138c6 6 25 7 31 1c6 -25 17 -69 39 -92c10.3 -10.7 32 -24 71 -24c37 0 85 21 85 70c0 43 -19 64 -102 98c-77 32 -110 63 -110 136c0 64 67 112 141 112c52 0 100 -14 131 -19c-1 -33 -3 -70 -6 -106c-6 -6 -26 -7 -32 -1c-13 85 -71 93 -93 93
c-34 0 -70 -23 -70 -64c0 -55 39.8 -70.5 100 -92.8c68 -25.2 117 -64.9 117 -133.2c0 -99 -103 -126 -159 -126c-37 0 -64 4 -91 11c-7 2 -13 2 -20 2c-5 0 -15 -1 -25 -3c0 42 -3 89 -7 138zM140 -156c0 24 28 48 52 48c27 0 48 -28 48 -52c0 -21.1 -24 -48 -52 -48
c-24 0 -48 26 -48 52z" />
    <glyph glyph-name="uni1E64" unicode="&#x1e64;" horiz-adv-x="485" 
d="M70 743c0 24 28 48 52 48c27 0 48 -28 48 -52c0 -21.1 -24 -48 -52 -48c-24 0 -48 26 -48 52zM333 819c28.6 -13.3 49.3 -30.7 62 -52l-144 -58c-21 -9 -33 -12 -42 -12s-15 7 -15 15c0 7 2 12 15 21zM394.7 631c10.3 -53 14.3 -81 17.8 -129
c-9 -7 -22 -7.79999 -32.5 -6c-20 66 -51 128 -148.1 128c-58.9 0 -109.5 -56 -109.5 -112c0 -84.1 99.9 -121.9 159.1 -144.1c82.4 -30.9 162.5 -77.5 162.5 -183.9c0 -63.6 -36.5 -125.2 -94 -161.2c-34.8 -21.7 -77.8 -32.8 -123.3 -32.8c-88.7 0 -116.7 23 -179.7 23
c-12 49 -16 75 -20 152c9.6 5.10001 20.2 7 32.5 3c22 -99.5 82 -142 175.5 -142c79.8 0 125 42 125 123c0 97.8 -73.7 125.9 -134.5 149c-88 33.5 -174.5 81.6 -174.5 187c0 106 89 173 190.3 173c97.7 0 95.6 -19 153.4 -27z" />
    <glyph glyph-name="uni1E65" unicode="&#x1e65;" horiz-adv-x="390" 
d="M48 138c6 6 25 7 31 1c6 -25 17 -69 39 -92c10.3 -10.7 32 -24 71 -24c37 0 85 21 85 70c0 43 -19 64 -102 98c-77 32 -110 63 -110 136c0 64 67 112 141 112c52 0 100 -14 131 -19c-1 -33 -3 -70 -6 -106c-6 -6 -26 -7 -32 -1c-13 85 -71 93 -93 93
c-34 0 -70 -23 -70 -64c0 -55 39.8 -70.5 100 -92.8c68 -25.2 117 -64.9 117 -133.2c0 -99 -103 -126 -159 -126c-37 0 -64 4 -91 11c-7 2 -13 2 -20 2c-5 0 -15 -1 -25 -3c0 42 -3 89 -7 138zM240 671c3 1 9 2 14 2c6.39999 0 32 -1 55 -23l3 -11l-115 -109
c-15 -15 -23 -19 -30 -19s-14 6 -14 13c0 11.2 3.3 15.2 11.4 28zM52.4 593.1c0 21.6 25.2 43.2 46.8 43.2c24.3 0 43.2 -25.2 43.2 -46.8c0 -19 -21.6 -43.2 -46.8 -43.2c-21.6 0 -43.2 23.4 -43.2 46.8z" />
    <glyph glyph-name="uni1E66" unicode="&#x1e66;" horiz-adv-x="485" 
d="M188 842c0 28 24 52 52 52s52 -24 52 -52s-24 -52 -52 -52s-52 24 -52 52zM215 697c-30 37 -65 67 -101 95l16 20c39 -17 73 -36 106 -61c37 26 69 45 107 61l15 -20c-38 -29 -70 -61 -100 -95h-43zM394.7 631c10.3 -53 14.3 -81 17.8 -129c-9 -7 -22 -7.79999 -32.5 -6
c-20 66 -51 128 -148.1 128c-58.9 0 -109.5 -56 -109.5 -112c0 -84.1 99.9 -121.9 159.1 -144.1c82.4 -30.9 162.5 -77.5 162.5 -183.9c0 -63.6 -36.5 -125.2 -94 -161.2c-34.8 -21.7 -77.8 -32.8 -123.3 -32.8c-88.7 0 -116.7 23 -179.7 23c-12 49 -16 75 -20 152
c9.6 5.10001 20.2 7 32.5 3c22 -99.5 82 -142 175.5 -142c79.8 0 125 42 125 123c0 97.8 -73.7 125.9 -134.5 149c-88 33.5 -174.5 81.6 -174.5 187c0 106 89 173 190.3 173c97.7 0 95.6 -19 153.4 -27z" />
    <glyph glyph-name="uni1E67" unicode="&#x1e67;" horiz-adv-x="390" 
d="M48 138c6 6 25 7 31 1c6 -25 17 -69 39 -92c10.3 -10.7 32 -24 71 -24c37 0 85 21 85 70c0 43 -19 64 -102 98c-77 32 -110 63 -110 136c0 64 67 112 141 112c52 0 100 -14 131 -19c-1 -33 -3 -70 -6 -106c-6 -6 -26 -7 -32 -1c-13 85 -71 93 -93 93
c-34 0 -70 -23 -70 -64c0 -55 39.8 -70.5 100 -92.8c68 -25.2 117 -64.9 117 -133.2c0 -99 -103 -126 -159 -126c-37 0 -64 4 -91 11c-7 2 -13 2 -20 2c-5 0 -15 -1 -25 -3c0 42 -3 89 -7 138zM169 502c-29 47 -66 92 -101 130l20 13c39 -29 72 -54 106 -90
c37 38 71 63 108 90l19 -13c-35 -39 -73 -84 -102 -130h-50zM150.4 648.1c0 21.6 25.2 43.2 46.8 43.2c24.3 0 43.2 -25.2 43.2 -46.8c0 -19 -21.6 -43.2 -46.8 -43.2c-21.6 0 -43.2 23.4 -43.2 46.8z" />
    <glyph glyph-name="uni1E68" unicode="&#x1e68;" horiz-adv-x="485" 
d="M184 754c0 28 24 52 52 52s52 -24 52 -52s-24 -52 -52 -52s-52 24 -52 52zM178 -156c0 24 28 48 52 48c27 0 48 -28 48 -52c0 -21.1 -24 -48 -52 -48c-24 0 -48 26 -48 52zM394.7 631c10.3 -53 14.3 -81 17.8 -129c-9 -7 -22 -7.79999 -32.5 -6
c-20 66 -51 128 -148.1 128c-58.9 0 -109.5 -56 -109.5 -112c0 -84.1 99.9 -121.9 159.1 -144.1c82.4 -30.9 162.5 -77.5 162.5 -183.9c0 -63.6 -36.5 -125.2 -94 -161.2c-34.8 -21.7 -77.8 -32.8 -123.3 -32.8c-88.7 0 -116.7 23 -179.7 23c-12 49 -16 75 -20 152
c9.6 5.10001 20.2 7 32.5 3c22 -99.5 82 -142 175.5 -142c79.8 0 125 42 125 123c0 97.8 -73.7 125.9 -134.5 149c-88 33.5 -174.5 81.6 -174.5 187c0 106 89 173 190.3 173c97.7 0 95.6 -19 153.4 -27z" />
    <glyph glyph-name="uni1E69" unicode="&#x1e69;" horiz-adv-x="390" 
d="M138 599c0 24 28 48 52 48c27 0 48 -28 48 -52c0 -21.1 -24 -48 -52 -48c-24 0 -48 26 -48 52zM48 138c6 6 25 7 31 1c6 -25 17 -69 39 -92c10.3 -10.7 32 -24 71 -24c37 0 85 21 85 70c0 43 -19 64 -102 98c-77 32 -110 63 -110 136c0 64 67 112 141 112
c52 0 100 -14 131 -19c-1 -33 -3 -70 -6 -106c-6 -6 -26 -7 -32 -1c-13 85 -71 93 -93 93c-34 0 -70 -23 -70 -64c0 -55 39.8 -70.5 100 -92.8c68 -25.2 117 -64.9 117 -133.2c0 -99 -103 -126 -159 -126c-37 0 -64 4 -91 11c-7 2 -13 2 -20 2c-5 0 -15 -1 -25 -3
c0 42 -3 89 -7 138zM140 -156c0 24 28 48 52 48c27 0 48 -28 48 -52c0 -21.1 -24 -48 -52 -48c-24 0 -48 26 -48 52z" />
    <glyph glyph-name="uni1E6A" unicode="&#x1e6a;" horiz-adv-x="597" 
d="M255 754c0 28 24 52 52 52s52 -24 52 -52s-24 -52 -52 -52s-52 24 -52 52zM350 122c0 -83 17 -88 97 -91c6 -6 6 -27 0 -33c-50 1 -100.6 2 -139 2c-40.1 0 -91 -1 -140 -2c-6 6 -6 27 0 33c80 3 97 8 97 91v385c0 61 -10 99 -47 99h-49c-66 0 -112 -26 -132 -106
c-12 0 -24 1 -34 5c11 48 21 100 25 145c0 1 2 3 4 3c38 -3 156 -8 233 -8h86c79 0 190 5 224 8c1 0 3 -2 3 -3c1 -45 6 -96 13 -142c-9 -4 -23 -5 -34 -5c-17 77 -64 103 -139 103h-22c-36 0 -46 -38 -46 -102v-382z" />
    <glyph glyph-name="uni1E6B" unicode="&#x1e6b;" horiz-adv-x="316" 
d="M84 730c0 24 28 48 52 48c27 0 48 -28 48 -52c0 -21.1 -24 -48 -52 -48c-24 0 -48 26 -48 52zM43 429l46 0.100006c0 110.9 -3 104.3 -3 115.9c0 6.90002 10 10.3 22 13.7c12.5 3.5 22.7 7.79999 34 14.1c9.3 5.10004 17.8 9 22.3 9c4.7 0 7.7 -2.39996 7.7 -8.79999
c0 0 -4 -40 -4 -105v-39h120c5 0 8 -2 8 -6v-20c0 -9 -14 -13 -24 -13h-104v-253c0 -62 6 -92 33 -92c26 0 56 8 82 28c10 -1 16 -6.7 18 -17c-39 -44 -89 -66 -135 -66s-77 28 -77 99v301h-59c-4 0 -5 1 -5 6v13c0 8 4 20 18 20z" />
    <glyph glyph-name="uni1E6C" unicode="&#x1e6c;" horiz-adv-x="597" 
d="M250 -156c0 24 28 48 52 48c27 0 48 -28 48 -52c0 -21.1 -24 -48 -52 -48c-24 0 -48 26 -48 52zM350 122c0 -83 17 -88 97 -91c6 -6 6 -27 0 -33c-50 1 -100.6 2 -139 2c-40.1 0 -91 -1 -140 -2c-6 6 -6 27 0 33c80 3 97 8 97 91v385c0 61 -10 99 -47 99h-49
c-66 0 -112 -26 -132 -106c-12 0 -24 1 -34 5c11 48 21 100 25 145c0 1 2 3 4 3c38 -3 156 -8 233 -8h86c79 0 190 5 224 8c1 0 3 -2 3 -3c1 -45 6 -96 13 -142c-9 -4 -23 -5 -34 -5c-17 77 -64 103 -139 103h-22c-36 0 -46 -38 -46 -102v-382z" />
    <glyph glyph-name="uni1E6D" unicode="&#x1e6d;" horiz-adv-x="316" 
d="M132 -156c0 24 28 48 52 48c27 0 48 -28 48 -52c0 -21.1 -24 -48 -52 -48c-24 0 -48 26 -48 52zM43 429l46 0.100006c0 110.9 -3 104.3 -3 115.9c0 6.90002 10 10.3 22 13.7c12.5 3.5 22.7 7.79999 34 14.1c9.3 5.10004 17.8 9 22.3 9c4.7 0 7.7 -2.39996 7.7 -8.79999
c0 0 -4 -40 -4 -105v-39h120c5 0 8 -2 8 -6v-20c0 -9 -14 -13 -24 -13h-104v-253c0 -62 6 -92 33 -92c26 0 56 8 82 28c10 -1 16 -6.7 18 -17c-39 -44 -89 -66 -135 -66s-77 28 -77 99v301h-59c-4 0 -5 1 -5 6v13c0 8 4 20 18 20z" />
    <glyph glyph-name="uni1E6E" unicode="&#x1e6e;" horiz-adv-x="597" 
d="M397 -131h-205c-8 0 -12 8 -12 15c0 12 10 29 22 29h205c9 0 13 -7 13 -14c0 -12 -10 -30 -23 -30zM350 122c0 -83 17 -88 97 -91c6 -6 6 -27 0 -33c-50 1 -100.6 2 -139 2c-40.1 0 -91 -1 -140 -2c-6 6 -6 27 0 33c80 3 97 8 97 91v385c0 61 -10 99 -47 99h-49
c-66 0 -112 -26 -132 -106c-12 0 -24 1 -34 5c11 48 21 100 25 145c0 1 2 3 4 3c38 -3 156 -8 233 -8h86c79 0 190 5 224 8c1 0 3 -2 3 -3c1 -45 6 -96 13 -142c-9 -4 -23 -5 -34 -5c-17 77 -64 103 -139 103h-22c-36 0 -46 -38 -46 -102v-382z" />
    <glyph glyph-name="uni1E6F" unicode="&#x1e6f;" horiz-adv-x="316" 
d="M261 -131h-205c-8 0 -12 8 -12 15c0 12 10 29 22 29h205c9 0 13 -7 13 -14c0 -12 -10 -30 -23 -30zM43 429l46 0.100006c0 110.9 -3 104.3 -3 115.9c0 6.90002 10 10.3 22 13.7c12.5 3.5 22.7 7.79999 34 14.1c9.3 5.10004 17.8 9 22.3 9
c4.7 0 7.7 -2.39996 7.7 -8.79999c0 0 -4 -40 -4 -105v-39h120c5 0 8 -2 8 -6v-20c0 -9 -14 -13 -24 -13h-104v-253c0 -62 6 -92 33 -92c26 0 56 8 82 28c10 -1 16 -6.7 18 -17c-39 -44 -89 -66 -135 -66s-77 28 -77 99v301h-59c-4 0 -5 1 -5 6v13c0 8 4 20 18 20z" />
    <glyph glyph-name="uni1E70" unicode="&#x1e70;" horiz-adv-x="597" 
d="M323 -44c29 -47 73 -100 109 -140c-5 -7 -13.6 -15.1 -23 -17c-38 24 -73 52 -103 83c-32 -32 -65 -61 -104 -83c-9 2 -16 8 -22 17c36 40 82 94 111 140c10.7 2.3 21.3 3 32 0zM350 122c0 -83 17 -88 97 -91c6 -6 6 -27 0 -33c-50 1 -100.6 2 -139 2
c-40.1 0 -91 -1 -140 -2c-6 6 -6 27 0 33c80 3 97 8 97 91v385c0 61 -10 99 -47 99h-49c-66 0 -112 -26 -132 -106c-12 0 -24 1 -34 5c11 48 21 100 25 145c0 1 2 3 4 3c38 -3 156 -8 233 -8h86c79 0 190 5 224 8c1 0 3 -2 3 -3c1 -45 6 -96 13 -142c-9 -4 -23 -5 -34 -5
c-17 77 -64 103 -139 103h-22c-36 0 -46 -38 -46 -102v-382z" />
    <glyph glyph-name="uni1E71" unicode="&#x1e71;" horiz-adv-x="316" 
d="M189 -43c29 -47 73 -100 109 -140c-5 -7 -13.6 -15.1 -23 -17c-38 24 -73 52 -103 83c-32 -32 -65 -61 -104 -83c-9 2 -16 8 -22 17c36 40 82 94 111 140c10.7 2.3 21.3 3 32 0zM43 429l46 0.100006c0 110.9 -3 104.3 -3 115.9c0 6.90002 10 10.3 22 13.7
c12.5 3.5 22.7 7.79999 34 14.1c9.3 5.10004 17.8 9 22.3 9c4.7 0 7.7 -2.39996 7.7 -8.79999c0 0 -4 -40 -4 -105v-39h120c5 0 8 -2 8 -6v-20c0 -9 -14 -13 -24 -13h-104v-253c0 -62 6 -92 33 -92c26 0 56 8 82 28c10 -1 16 -6.7 18 -17c-39 -44 -89 -66 -135 -66
s-77 28 -77 99v301h-59c-4 0 -5 1 -5 6v13c0 8 4 20 18 20z" />
    <glyph glyph-name="uni1E72" unicode="&#x1e72;" horiz-adv-x="661" 
d="M201 -113c0 26 21 48 47 48s47 -22 47 -48s-21 -47 -47 -47s-47 21 -47 47zM370 -113c0 26 21 48 47 48s47 -22 47 -48s-21 -47 -47 -47s-47 21 -47 47zM172 523v-257c0 -65 2 -141 51 -188c30.1 -28.9 71 -47 119 -47c169 0 184 134 184 246v246c0 81 -17 84 -92 91
c-6 6 -6 27 0 33c46 -1 94.5 -2 116 -2c23.2 0 64 1 102 2c6 -6 6 -27 0 -33c-60 -7 -77 -10.7 -77 -91v-228c0 -178 -49 -305 -254 -305c-102.5 0 -234 39 -234 243v290c0 83 -17 88 -77 91c-6 6 -6 27 0 33c39 -1 80 -2 119 -2c39.4 0 88 1 135 2c6 -6 6 -27 0 -33
c-77 -3 -92 -8 -92 -91z" />
    <glyph glyph-name="uni1E73" unicode="&#x1e73;" horiz-adv-x="531" 
d="M112 -113c0 26 21 48 47 48s47 -22 47 -48s-21 -47 -47 -47s-47 21 -47 47zM281 -113c0 26 21 48 47 48s47 -22 47 -48s-21 -47 -47 -47s-47 21 -47 47zM217 -10c-99 0 -129 67 -129 136v192c0 65 -14 76 -62 80c-6 6 -6 27 0 33c34 -1 70 -2 102 -2c15 0 30 1 35 2
c5 0 8 -3 8 -6c0 0 -4 -73 -4 -103v-182c0 -89 50 -103 80 -103c25 0 63 16 100 48c14 12 16 20 16 39v193c0 66 -13 78 -62 81c-6 6 -6 27 0 33c34 -1 70 -2 102 -2c15 0 30 1 35 2c5 0 8 -3 8 -6c0 0 -4 -73 -4 -103v-192c0 -49 9 -68 73 -73c6 -6 6 -21 0 -27
c-61 -7 -96 -22 -118 -40c-6.5 -2.5 -11 -3 -19 0c0 0 -8.5 33.5 -11 59c-0.700012 7 -10 5 -15 1c-49 -40 -96 -60 -135 -60z" />
    <glyph glyph-name="uni1E74" unicode="&#x1e74;" horiz-adv-x="661" 
d="M402 -117c22 0 33 10 47 52c11 1 21 -2 27 -6c-12 -60 -41 -99 -87 -99c-22 0 -43 18 -64 32c-18 11 -37 19 -54 19c-26 0 -36 -15 -46 -48c-11 -2 -21 -1 -27 5c14 59 37 98 80 98c30 0 52 -20 72 -34c16 -12 33 -19 52 -19zM172 523v-257c0 -65 2 -141 51 -188
c30.1 -28.9 71 -47 119 -47c169 0 184 134 184 246v246c0 81 -17 84 -92 91c-6 6 -6 27 0 33c46 -1 94.5 -2 116 -2c23.2 0 64 1 102 2c6 -6 6 -27 0 -33c-60 -7 -77 -10.7 -77 -91v-228c0 -178 -49 -305 -254 -305c-102.5 0 -234 39 -234 243v290c0 83 -17 88 -77 91
c-6 6 -6 27 0 33c39 -1 80 -2 119 -2c39.4 0 88 1 135 2c6 -6 6 -27 0 -33c-77 -3 -92 -8 -92 -91z" />
    <glyph glyph-name="uni1E75" unicode="&#x1e75;" horiz-adv-x="531" 
d="M312 -117c22 0 33 10 47 52c11 1 21 -2 27 -6c-12 -60 -41 -99 -87 -99c-22 0 -43 18 -64 32c-18 11 -37 19 -54 19c-26 0 -36 -15 -46 -48c-11 -2 -21 -1 -27 5c14 59 37 98 80 98c30 0 52 -20 72 -34c16 -12 33 -19 52 -19zM217 -10c-99 0 -129 67 -129 136v192
c0 65 -14 76 -62 80c-6 6 -6 27 0 33c34 -1 70 -2 102 -2c15 0 30 1 35 2c5 0 8 -3 8 -6c0 0 -4 -73 -4 -103v-182c0 -89 50 -103 80 -103c25 0 63 16 100 48c14 12 16 20 16 39v193c0 66 -13 78 -62 81c-6 6 -6 27 0 33c34 -1 70 -2 102 -2c15 0 30 1 35 2c5 0 8 -3 8 -6
c0 0 -4 -73 -4 -103v-192c0 -49 9 -68 73 -73c6 -6 6 -21 0 -27c-61 -7 -96 -22 -118 -40c-6.5 -2.5 -11 -3 -19 0c0 0 -8.5 33.5 -11 59c-0.700012 7 -10 5 -15 1c-49 -40 -96 -60 -135 -60z" />
    <glyph glyph-name="uni1E76" unicode="&#x1e76;" horiz-adv-x="661" 
d="M350 -44c29 -47 73 -100 109 -140c-5 -7 -13.6 -15.1 -23 -17c-38 24 -73 52 -103 83c-32 -32 -65 -61 -104 -83c-9 2 -16 8 -22 17c36 40 82 94 111 140c10.7 2.3 21.3 3 32 0zM172 523v-257c0 -65 2 -141 51 -188c30.1 -28.9 71 -47 119 -47c169 0 184 134 184 246v246
c0 81 -17 84 -92 91c-6 6 -6 27 0 33c46 -1 94.5 -2 116 -2c23.2 0 64 1 102 2c6 -6 6 -27 0 -33c-60 -7 -77 -10.7 -77 -91v-228c0 -178 -49 -305 -254 -305c-102.5 0 -234 39 -234 243v290c0 83 -17 88 -77 91c-6 6 -6 27 0 33c39 -1 80 -2 119 -2c39.4 0 88 1 135 2
c6 -6 6 -27 0 -33c-77 -3 -92 -8 -92 -91z" />
    <glyph glyph-name="uni1E77" unicode="&#x1e77;" horiz-adv-x="531" 
d="M258 -43c29 -47 73 -100 109 -140c-5 -7 -13.6 -15.1 -23 -17c-38 24 -73 52 -103 83c-32 -32 -65 -61 -104 -83c-9 2 -16 8 -22 17c36 40 82 94 111 140c10.7 2.3 21.3 3 32 0zM217 -10c-99 0 -129 67 -129 136v192c0 65 -14 76 -62 80c-6 6 -6 27 0 33
c34 -1 70 -2 102 -2c15 0 30 1 35 2c5 0 8 -3 8 -6c0 0 -4 -73 -4 -103v-182c0 -89 50 -103 80 -103c25 0 63 16 100 48c14 12 16 20 16 39v193c0 66 -13 78 -62 81c-6 6 -6 27 0 33c34 -1 70 -2 102 -2c15 0 30 1 35 2c5 0 8 -3 8 -6c0 0 -4 -73 -4 -103v-192
c0 -49 9 -68 73 -73c6 -6 6 -21 0 -27c-61 -7 -96 -22 -118 -40c-6.5 -2.5 -11 -3 -19 0c0 0 -8.5 33.5 -11 59c-0.700012 7 -10 5 -15 1c-49 -40 -96 -60 -135 -60z" />
    <glyph glyph-name="uni1E78" unicode="&#x1e78;" horiz-adv-x="661" 
d="M405.6 745.1c18.7 0 28 11 39.9 57.2c9.39999 1.10004 17.9 -2.20001 23 -6.59998c-10.2 -66 -34.9 -108.9 -74 -108.9c-18.7 0 -36.5 19.8 -54.3 35.2c-15.3 12.1 -31.5 20.9 -46 20.9c-22.1 0 -30.5 -16.5 -39 -52.8c-9.39999 -2.19995 -17.9 -1.09998 -23 5.5
c11.9 64.9 31.5 107.8 68 107.8c25.5 0 44.2 -22 61.2 -37.4c13.6 -13.2 28.1 -20.9 44.2 -20.9zM172 523v-257c0 -65 2 -141 51 -188c30.1 -28.9 71 -47 119 -47c169 0 184 134 184 246v246c0 81 -17 84 -92 91c-6 6 -6 27 0 33c46 -1 94.5 -2 116 -2c23.2 0 64 1 102 2
c6 -6 6 -27 0 -33c-60 -7 -77 -10.7 -77 -91v-228c0 -178 -49 -305 -254 -305c-102.5 0 -234 39 -234 243v290c0 83 -17 88 -77 91c-6 6 -6 27 0 33c39 -1 80 -2 119 -2c39.4 0 88 1 135 2c6 -6 6 -27 0 -33c-77 -3 -92 -8 -92 -91zM594.1 831.9
c22.1 -11.7 38 -27 47.8 -45.8l-110.9 -51.1c-16.2 -7.90002 -25.5 -10.5 -32.4 -10.5s-11.5 6.20001 -11.5 13.2c0 6.20001 1.5 10.6 11.5 18.5z" />
    <glyph glyph-name="uni1E79" unicode="&#x1e79;" horiz-adv-x="531" 
d="M312 778c2.29999 0.900024 6.79999 1.79999 10.7 1.79999c4.89999 0 24.7 -0.799988 42.4 -20.2l2.29999 -9.69995l-88.6 -95.9c-11.5 -13.2 -17.6 -16.8 -23 -16.8s-10.8 5.29999 -10.8 11.5c0 9.89996 2.5 13.3 8.8 24.6zM324 573c22 0 33 10 47 52c11 1 21 -2 27 -6
c-12 -60 -41 -99 -87 -99c-22 0 -43 18 -64 32c-18 11 -37 19 -54 19c-26 0 -36 -15 -46 -48c-11 -2 -21 -1 -27 5c14 59 37 98 80 98c30 0 52 -20 72 -34c16 -12 33 -19 52 -19zM217 -10c-99 0 -129 67 -129 136v192c0 65 -14 76 -62 80c-6 6 -6 27 0 33
c34 -1 70 -2 102 -2c15 0 30 1 35 2c5 0 8 -3 8 -6c0 0 -4 -73 -4 -103v-182c0 -89 50 -103 80 -103c25 0 63 16 100 48c14 12 16 20 16 39v193c0 66 -13 78 -62 81c-6 6 -6 27 0 33c34 -1 70 -2 102 -2c15 0 30 1 35 2c5 0 8 -3 8 -6c0 0 -4 -73 -4 -103v-192
c0 -49 9 -68 73 -73c6 -6 6 -21 0 -27c-61 -7 -96 -22 -118 -40c-6.5 -2.5 -11 -3 -19 0c0 0 -8.5 33.5 -11 59c-0.700012 7 -10 5 -15 1c-49 -40 -96 -60 -135 -60z" />
    <glyph glyph-name="space" unicode=" " horiz-adv-x="250" 
 />
    <glyph glyph-name="ampersand" unicode="&#x26;" horiz-adv-x="705" 
d="M250 338c-103 -57 -125 -111 -125 -182c0 -98 54 -133 117 -133c71 0 107 36 156 103c-57 75 -137 191 -148 212zM421 94c-46 -63 -101 -104 -186 -104c-107 0 -192 44 -192 166c0 79 53 146 185 220c-37 64 -51 103 -51 141c0 59 54 130 154 130c70 0 128 -45 128 -108
c0 -55 -66 -120 -149 -168l4 -8c18 -31 76 -114 122 -176c36.1 53.3 60.3 96.1 77.4 128c37.6 70 22.7 75.3 -31.4 78c-6 6 -6 27 0 33c20 -1 61 -2 95 -2s64 1 84 2c6 -6 6 -27 0 -33c-61.2 -3.79999 -68 -9 -114 -91c-26.9 -48 -49.4 -88 -89 -145l36 -50
c31 -43 61 -63 77 -63c33 0 56 15 76 54c11 0 15.8 -4.6 21 -10c-23 -70 -68 -98 -103 -98c-31 0 -68 2 -115 67zM289 409c64 42 101 94 101 130c0 45 -23 75 -64 75c-26 0 -75 -29 -75 -95c0 -23 12 -61 38 -110z" />
    <glyph glyph-name="quotesingle" unicode="'" horiz-adv-x="190" 
d="M79 426c0 0 -26 159 -26 168c0 22 21 50 51 50c26 0 35 -17 35 -33s-33 -181 -33 -181z" />
    <glyph glyph-name="comma" unicode="," horiz-adv-x="220" 
d="M104 95c40 0 66 -39 66 -99c0 -70 -58 -118 -118 -129c-7 7 -9 14 -9 24c52 13 88 59 88 80c0 23 -17 29 -36 31c-18 3 -44 12.5 -44 44c0 28 22 49 53 49z" />
    <glyph glyph-name="hyphen" unicode="-" horiz-adv-x="338" 
d="M271 223h-216c-9 0 -15 9 -15 19c0 18 13 41 25 41h219c10 0 14 -10 14 -20c0 -12 -14 -40 -27 -40z" />
    <glyph glyph-name="period" unicode="." horiz-adv-x="220" 
d="M57 43c0 29 24 53 53 53s53 -24 53 -53s-24 -53 -53 -53s-53 24 -53 53z" />
    <glyph glyph-name="zero" unicode="0" horiz-adv-x="465" 
d="M232 575c-45 0 -106 -46 -106 -292c0 -87 10 -258 103 -258c18 0 67 9 89 91c14 51 17 114 17 206c0 134 -27 210 -58 236c-12 11 -28 17 -45 17zM228 -10c-38.7 0 -73 13.6 -101.4 42c-54.7 54.5 -87.6 155.4 -87.6 262c0 198 94 316 193 316c54 0 95.8 -30.3 122 -65
c44 -58 68 -143 68 -242c0 -235 -117 -313 -194 -313z" />
    <glyph glyph-name="I" unicode="I" horiz-adv-x="297" 
d="M191 122c0 -83 17 -88 87 -91c6 -6 6 -27 0 -33c-45 1 -93.4 2 -129 2c-36.3 0 -85 -1 -130 -2c-6 6 -6 27 0 33c70 3 87 8 87 91v401c0 83 -17 88 -87 91c-6 6 -6 27 0 33c47 -1 95.5 -2 129 -2c38.5 0 86 1 130 2c6 -6 6 -27 0 -33c-70 -3 -87 -8 -87 -91v-401z" />
    <glyph glyph-name="J" unicode="J" horiz-adv-x="322" 
d="M226 523v-420c0 -143 -58.3 -194.7 -102 -232c-41 -35 -72 -43 -117 -43c-22 0 -75 18 -75 54c0 22 30 43 44 43c24.9 0 33.7 -12.8 39.7 -25.5c7 -14.7 21.2 -26.5 40.3 -26.5c33 0 85 28 85 208v442c0 83 -17 88 -97 91c-6 6 -6 27 0 33c50 -1 102.7 -2 139 -2
c38.7 0 82 1 120 2c6 -6 6 -27 0 -33c-60 -3 -77 -8 -77 -91z" />
    <glyph glyph-name="K" unicode="K" horiz-adv-x="637" 
d="M191 122c0 -83 17 -88 87 -91c6 -6 6 -27 0 -33c-45 1 -91 2 -129 2c-39 0 -85 -1 -130 -2c-6 6 -6 27 0 33c70 3 87 8 87 91v401c0 83 -17 88 -87 91c-6 6 -6 27 0 33c45 -1 90.5 -2 129 -2c36.5 0 84 1 130 2c6 -6 6 -27 0 -33c-70 -3 -87 -8 -87 -91v-175.7
c35.1 2.90002 57.7 16 79 38.7l165 176c42.1 44.9 8.10001 48.6 -28 52c-6 6 -6 27 0 33c37 -1 76 -2 113 -2c32.2 0 64 1 95 2c6 -6 6 -27 0 -33c-40 -3 -80 -7 -126 -56l-147 -151c-34 -35 -35 -42 -35 -49c0 -8 5.29999 -15.9 13 -25l219 -260
c30.6 -36.3 59.1 -39.4 88 -42c6 -6 6 -27 0 -33c-33 1 -67 2 -101 2c-21.1 0 -34 -1 -54 -2c-4 0 -4.60001 3 -5 6c-2 16 -15.7 43.4 -36 69l-157 198c-20.3 25.6 -49.2 36.9 -83 37.9v-186.9z" />
    <glyph glyph-name="L" unicode="L" horiz-adv-x="528" 
d="M149 0c-33.7 0 -91 -1 -130 -2c-6 6 -6 27 0 33c70 3 87 8 87 91v401c0 83 -17 88 -87 91c-6 6 -6 27 0 33c46 -1 92.9 -2 129 -2c38.1 0 85 1 130 2c6 -6 6 -27 0 -33c-70 -3 -87 -8 -87 -91v-414c0 -51 18 -70 57 -70h63c106 0 143 59 163 131
c12.4 1.8 23.2 -0.300003 33 -5c-6 -52 -16 -117 -26 -167c0 0 -92 2 -119.3 2h-212.7z" />
    <glyph glyph-name="M" unicode="M" horiz-adv-x="839" 
d="M662.7 116l-25.7 418h-2l-225 -529c-4 -8 -8 -15 -14 -15s-12.2 7.9 -15 15l-207 519h-2l-38 -401c-5.39999 -56.3 0 -87 66 -92c6 -6 6 -27 0 -33c-30 1 -70 2 -94 2s-56 -1 -86 -2c-6 6 -6 27 0 33c57 5 69 30.1 74.9 90l40.1 412c7 75 1 77 -68 81c-6 6 -6 27 0 33
l145 -2l205 -508c3.10001 -7.60001 6 -13 8 -13s5 4 9 14l212 507l131 2c6 -6 6 -27 0 -33c-68 -4 -73 -18 -68.7 -72l29.8 -421c5.80005 -82.8 8.90002 -87 76.9 -90c6 -6 6 -27 0 -33c-33.2 1 -79 2 -109 2s-70 -1 -107 -2c-6 6 -6 27 0 33c65 3 68.7 4 63.7 85z" />
    <glyph glyph-name="N" unicode="N" horiz-adv-x="699" 
d="M556 512c0 91 -17 95 -87 102c-6 6 -6 27 0 33c44 -1 89.7 -2 111 -2c23.7 0 71 1 112 2c6 -6 6 -27 0 -33c-70 -7 -87 -13 -87 -102v-491c0 -19 -9 -31 -23 -31c-16 0 -29 9 -40 24l-349 441c-17 22 -28 33 -34 33c-8 0 -8 -15 -8 -49v-306c0 -91 17 -95 87 -102
c6 -6 6 -27 0 -33c-42 1 -87.9 2 -111 2c-23.6 0 -69 -1 -112 -2c-6 6 -6 27 0 33c70 7 87 13 87 102v417c-6 26 -36 61 -79 64c-6 6 -6 27 0 33l135 -2l343 -435c29 -37 44 -55 48 -55c7 0 7 11 7 30v327z" />
    <glyph glyph-name="O" unicode="O" horiz-adv-x="702" 
d="M331 622c-99 0 -198 -85 -198 -295c0 -192 115 -301 237 -301c114 0 200 105 200 284c0 202 -107 312 -239 312zM666 329c0 -84 -22 -156.3 -61.8 -213c-54.9 -78.3 -143.4 -126 -254.2 -126c-170 0 -313 123 -313 320c0 193.9 113.3 348 307 348
c179 0 322 -122 322 -329z" />
    <glyph glyph-name="P" unicode="P" horiz-adv-x="541" 
d="M189 554v-233c11 -3 51 -5 76 -5c97 0 149 44 149 152c0 127 -69 150 -138 150c-72 0 -87 -35 -87 -64zM104 523c0 83 -17 88 -87 91c-6 6 -6 27 0 33c40 -1 92.3 -2 129 -2c40 0 98.7 7 137 7c185 0 224 -107 224 -166c0 -85 -55 -204 -237 -204c-35 0 -59 3 -81 10
v-170c0 -83 24 -87 102 -91c6 -6 6 -27 0 -33c-50 1 -108.6 2 -144 2c-35.7 0 -85 -1 -130 -2c-6 6 -6 27 0 33c70 3 87 8 87 91v401z" />
    <glyph glyph-name="Q" unicode="Q" horiz-adv-x="702" 
d="M331 622c-99 0 -198 -85 -198 -295c0 -192 115 -301 237 -301c114 0 200 105 200 284c0 202 -107 312 -239 312zM666 329c0 -84 -22 -156.3 -61.8 -213c-44.7 -63.7 -111.7 -107.2 -194.9 -121.2c-32.6 -9.2 -81.6 -30 -131.2 -66.3c7.19998 1 13.9 1.5 19.9 1.5
c57.8 0 107.9 -21.7 154.5 -44.1c42.5 -20.4 82.7 -37.9 124.5 -37.9c29 0 65 10 87 37l17 -12c-39 -56 -81 -82 -144 -82c-70.6 0 -121.4 27 -168 53.6c-38.9 22.2 -75.5 41.4 -118 41.4c-7.60001 0 -21.2 -3.3 -35.3 -12.7c-13.2 -14.1 -25.9 -29.5 -37.7 -46.3l-39 20
c4.8 8.3 10.8 16 17.6 23.1c35.9 43.1 91.6 90.4 152.5 122.3c-151.4 18.1 -272.1 136.6 -272.1 317.6c0 193.9 113.3 348 307 348c179 0 322 -122 322 -329z" />
    <glyph glyph-name="R" unicode="R" horiz-adv-x="587" 
d="M272 618c-71 0 -83 -35 -83 -64v-229h48c97 0 168 28 168 153c0 118 -72 140 -133 140zM189 122c0 -83 17 -88 87 -91c6 -6 6 -27 0 -33c-44 1 -91.4 2 -129 2c-38.5 0 -85 -1 -130 -2c-6 6 -6 27 0 33c70 3 87 8 87 91v401c0 83 -17 88 -87 91c-6 6 -6 27 0 33
c47 -1 94 -2 129 -2c36 0 78 7 125 7c63 0 125 -3 173 -48c36 -34 53 -75 53 -125c0 -105 -90 -157 -133 -171l126 -210c26 -43.4 51 -77 96 -77c4 -8 4.5 -17.1 1 -24c-10 -5 -27 -7 -42 -7c-60 0 -103.3 42.4 -132 89l-107 174c-14.3 23.3 -33 38 -117 38v-169z" />
    <glyph glyph-name="S" unicode="S" horiz-adv-x="485" 
d="M394.6 631c10.4 -53 14.4 -81 17.9 -129c-9 -7 -22 -7.79999 -32.5 -6c-20 66 -51 128 -148.1 128c-58.9 0 -109.5 -56 -109.5 -112c0 -84.1 99.9 -121.9 159.1 -144.1c82.4 -30.9 162.5 -77.5 162.5 -183.9c0 -63.6 -36.5 -125.2 -94 -161.2
c-34.8 -21.7 -77.9 -32.8 -123.4 -32.8c-88.7 0 -116.6 23 -179.6 23c-12 49 -16 75 -20 152c9.6 5.10001 20.2 7 32.5 3c22 -99.5 82.1 -142 175.5 -142c79.8 0 125 42 125 123c0 97.8 -73.7 125.9 -134.5 149c-88 33.5 -174.5 81.6 -174.5 187c0 106 89 173 190.4 173
c97.6 0 95.4 -19 153.2 -27z" />
    <glyph glyph-name="T" unicode="T" horiz-adv-x="597" 
d="M350 122c0 -83 17 -88 97 -91c6 -6 6 -27 0 -33c-50 1 -100.6 2 -139 2c-40.1 0 -91 -1 -140 -2c-6 6 -6 27 0 33c80 3 97 8 97 91v385c0 61 -10 99 -47 99h-49c-66 0 -112 -26 -132 -106c-12 0 -24 1 -34 5c11 48 21 100 25 145c0 1 2 3 4 3c38 -3 156 -8 233 -8h86
c79 0 190 5 224 8c1 0 3 -2 3 -3c1 -45 6 -96 13 -142c-9 -4 -23 -5 -34 -5c-17 77 -64 103 -139 103h-22c-36 0 -46 -38 -46 -102v-382z" />
    <glyph glyph-name="U" unicode="U" horiz-adv-x="661" 
d="M172 523v-257c0 -65 2 -141 51 -188c30.1 -28.9 71 -47 119 -47c169 0 184 134 184 246v246c0 81 -17 84 -92 91c-6 6 -6 27 0 33c46 -1 94.5 -2 116 -2c23.2 0 64 1 102 2c6 -6 6 -27 0 -33c-60 -7 -77 -10.7 -77 -91v-228c0 -178 -49 -305 -254 -305
c-102.5 0 -234 39 -234 243v290c0 83 -17 88 -77 91c-6 6 -6 27 0 33c39 -1 80 -2 119 -2c39.4 0 88 1 135 2c6 -6 6 -27 0 -33c-77 -3 -92 -8 -92 -91z" />
    <glyph glyph-name="V" unicode="V" horiz-adv-x="652" 
d="M448 614c-6 6 -6 27 0 33c41 -1 86 -2 109 -2s58 1 88 2c6 -6 6 -27 0 -33c-63 -7 -79.1 -45.7 -98.3 -93l-206.7 -510c-5.79999 -14.3 -13 -23 -24 -23c-10 0 -17 7.4 -23 23l-197.5 512c-26.6 69 -34.5 86 -89.5 91c-6 6 -7 27 -1 33c33 -1 67.7 -2 104 -2
c36 0 81 1 121 2c6 -6 6 -27 0 -33c-68 -7 -73.8 -20.5 -50.6 -80l159.1 -407h4.60001l157.9 401c21.4 54.4 21 81 -53 86z" />
    <glyph glyph-name="W" unicode="W" horiz-adv-x="951" 
d="M810 565c15.3 42.6 -25 46 -66 49c-6 6 -6 27 0 33c40 -1 84 -2 110 -2s58 1 87 2c6 -6 6 -27 0 -33c-55 -3 -73.1 -26.3 -86 -61l-201 -539c-5 -15 -12 -26 -23 -26c-12 0 -17.1 10 -23 27l-115 332c-5.89999 17.1 -10 28 -14 28c-5 0 -8.10001 -5 -17 -25l-149 -335
c-7.39999 -16.6 -13 -27 -26 -27c-11.5 0 -16.6 11.1 -22 27l-188 541c-18.6 53.5 -26 55 -71 58c-6 6 -6 27 0 33c29 -1 58.3 -2 93 -2c39 0 83 1 116 2c6 -6 6 -27 0 -33c-35 -2 -61.6 -6.90002 -50 -42l146.2 -442.3l4.29999 -1l129.5 293.3c7.5 16.9 9 24.7 9 35
c0 9 -3.10001 19 -7 31l-23 66c-9 25.7 -31 57 -84 60c-6 6 -6 27 0 33c32 -1 67 -2 100 -2c40 0 84 1 125 2c6 -6 6 -27 0 -33c-34 -3 -69.5 -6.20001 -52 -60l137.5 -422l3.20001 -1.3z" />
    <glyph glyph-name="X" unicode="X" horiz-adv-x="660" 
d="M538 102c42.4 -58.3 59 -68 101 -71c6 -6 7 -27 1 -33c-30 1 -63 2 -102 2c-40 0 -77 -1 -114 -2c-6 6 -6 27 0 33c56 3 51.8 13.9 23.5 54.2l-123.5 175.8c-5.60001 8 -10 11 -14 11c-3 0 -9.29999 -6 -15 -14l-132 -185c-24.2 -34 -5.3 -39 39 -42c6 -6 6 -27 0 -33
c-40 1 -82 2 -105 2s-60 -1 -90 -2c-6 6 -6 27 0 33c44.7 4.3 76.7 16.1 111 62l148 198c5.89999 7.89999 10 17 10 23c0 10 -5.79999 18.3 -14 30l-142.3 203c-41.2 58.7 -59.7 64 -101.7 67c-6 6 -7 27 -1 33c30 -1 63 -2 102 -2c40 0 77 1 114 2c6 -6 6 -27 0 -33
c-56 -3 -51.7 -14.2 -23.5 -54.2l110.5 -163.8c4.79999 -7 9 -11 12 -11c4 0 10 3.5 16 12l123 175c23.5 33.4 5.29999 39 -39 42c-6 6 -6 27 0 33c40 -1 82 -2 105 -2s60 1 90 2c6 -6 6 -27 0 -33c-44.7 -4.29999 -76.3 -17.1 -111 -62l-137 -177
c-9.10001 -11.8 -10 -21 -10 -30c0 -10 6.20001 -19.6 16 -33z" />
    <glyph glyph-name="Y" unicode="Y" horiz-adv-x="575" 
d="M337 122c0 -83 17 -88 97 -91c6 -6 6 -27 0 -33c-50 1 -100.3 2 -139 2c-38.6 0 -91 -1 -140 -2c-6 6 -6 27 0 33c80 3 97 8 97 91v127c0 37 -3.5 47.5 -21 77l-131.3 221c-34.5 58.1 -51.7 64 -93.7 67c-6 6 -7 27 -1 33c30 -1 63 -2 102 -2c40 0 78 1 114 2
c6 -6 6 -27 0 -33c-56 -3 -60 -12.6 -35.8 -55.2l116 -204.8c9 -15.9 13.8 -17.2 21.8 -2l110.8 209c21.4 40.4 5.5 50 -38.8 53c-6 6 -6 27 0 33c32 -1 68 -2 91 -2s55 1 83 2c6 -6 6 -27 0 -33c-44.7 -4.29999 -67 -13.3 -95 -64l-119.5 -216
c-16.4 -29.6 -17.5 -46.5 -17.5 -76.3v-135.7z" />
    <glyph glyph-name="Z" unicode="Z" horiz-adv-x="604" 
d="M551 -2c0 0 -99.7 2 -126.7 2h-364.3c-14 0 -19 5 -19 15c0 7 2 15 8 23c102 152 292 418 389 541c5 7 8 13 8 18c0 6 -4.10001 9.09998 -10 9l-211 -4c-75 -1.40002 -113 -37 -134 -106c-11 0 -20 2 -30 5c8 41 18 98 22 152c37 -3 134 -8 181 -8h221c30 0 61 2 73 2
c8 0 13 -4 13 -11c0 -11 -2.90002 -17.8 -24 -45c-118 -152 -302 -413 -375 -519c-5 -9 -8 -15 -8 -20c0 -9 8 -14.4 25 -14l193 4c109 2 134 57 165 128c13 0 24 -3 31 -5c-12 -52 -22 -111 -27 -167z" />
    <glyph glyph-name="bracketleft" unicode="[" horiz-adv-x="356" 
d="M108 -193v896h212c6 -6 6 -24 0 -30c-137 -10 -145 -25 -145 -112v-611c0 -87 7 -102 145 -113c6 -6 6 -24 0 -30h-212z" />
    <glyph glyph-name="backslash" unicode="\" horiz-adv-x="287" 
d="M55 698l230 -746h-44l-230 746h44z" />
    <glyph glyph-name="bracketright" unicode="]" horiz-adv-x="356" 
d="M248 704v-896h-212c-6 6 -6 24 0 30c137 10 145 25 145 112v611c0 87 -7 102 -145 113c-6 6 -6 24 0 30h212z" />
    <glyph glyph-name="uni02C4" unicode="&#x2c4;" horiz-adv-x="518" 
d="M259 593l-102 -247h-45l127 304h42l126 -304h-45z" />
    <glyph glyph-name="underscore" unicode="_" horiz-adv-x="486" 
d="M476 -110c8 -8 8 -36 0 -44h-466c-8 8 -8 36 0 44h466z" />
    <glyph glyph-name="a" unicode="a" horiz-adv-x="457" 
d="M293 233l-79 -21c-74 -19 -95 -65 -95 -110c0 -31 22 -71 72 -71c28 0 62 23 88 44c8 6 14 13 14 26v132zM293 48h-2l-20 -16c-44 -34 -74.2 -42 -109 -42c-70 0 -126 26 -126 108c0 68 69 121 165 145l86 21c3 1 6 5 6 12c0 113 -47 130 -81 130c-38 0 -80 -11 -80 -42
c0 -11 1 -17 2 -20c2 -4 3 -11 3 -18c0 -13 -18 -34 -47 -34c-23 0 -35 12 -35 36c0 57 83 111 165 111c73 0 151 -27 151 -169v-147c0 -46 1 -85 30 -85c12.7 0 29.5 9.8 37 16c11.3 -6.3 15.3 -14.7 17 -27c-20.7 -20 -56.7 -37 -95 -37c-50.4 0 -61 27 -67 58z" />
    <glyph glyph-name="b" unicode="b" horiz-adv-x="493" 
d="M174 363c-12.9 -11.4 -17 -21 -17 -42v-250c20 -25 41 -47 72 -47c95 0 141 86 141 200c0 97 -50 171 -111 171c-29 0 -59 -9 -85 -32zM167 394c31 28 69.1 45 112 45c87 0 177 -75 177 -197c0 -159 -119 -252 -221 -252c-35.3 0 -65.1 5.5 -88 24.8
c-11 9.2 -17 9.2 -27.3 -2.8c-7.7 -8.9 -17.6 -18.2 -23.7 -24c-12 0 -17 4 -22 12c3 14 4 32 4 71v488c0 84 -12 79 -64 82c-6 6 -8 22 -6 30c40 3 115 17 140 27c9 0 13 -3 13 -10c0 0 -4 -40 -4 -105v-184c0 -9 3.7 -10.7 10 -5z" />
    <glyph glyph-name="c" unicode="c" horiz-adv-x="428" 
d="M398 91c-50 -82 -103 -101 -163 -101c-126 0 -198 89 -198 218c0 142 106 231 205 231c96 0 153 -40 153 -95c0 -31 -28 -44 -49 -44s-35 9 -38 36c-4 35 -12 70 -71 70c-66 0 -114 -66 -114 -176c0 -117 61 -191 134 -191c43 0 86 22 120 66c9 -1 17 -5 21 -14z" />
    <glyph glyph-name="d" unicode="d" horiz-adv-x="506" 
d="M345 124v190c0 31 -3 38 -17 54c-20 23 -45 36 -81 36c-20 0 -62 -3 -93 -50c-15 -21 -29 -61 -29 -133c0 -125 56 -184 110 -184c25 0 57 16 94 48c14.1 12.2 16 20 16 39zM334 50.3c-49 -40.3 -86 -60.3 -125 -60.3c-108 0 -170 90 -170 213c0 74 26 133 69 176
c40 38 84 60 150 60c33 0 74 -17 78 -17c7 0 9 2 9 9v128c0 84 -12 79 -64 82c-6 6 -8 22 -6 30c40 3 115 17 140 27c9 0 13 -3 13 -10c0 0 -4 -40 -4 -105v-453c0 -49 9 -68 73 -73c6 -6 6 -21 0 -27c-61 -7 -96 -22 -118 -40c-6 -2.5 -11 -3 -19 0c0 0 -8.5 34.5 -11 59
c-0.700012 7 -10.2 5.2 -15 1.3z" />
    <glyph glyph-name="e" unicode="e" horiz-adv-x="447" 
d="M124 282l181 3c11 0.200012 15 5 15 14c0 84 -45 105 -83 105c-24 0 -94 -9 -113 -122zM386 93c12 -1 18 -6 21 -16c-40 -52 -94 -87 -170 -87c-72 0 -119 24 -153 64c-33 38 -47 92 -47 148c0 152 113 235 200 235c139 0 169 -90 169 -174c0 -11 -7 -17 -19 -17l-266 2
c0 -58 12 -104 32 -137c31 -51 73 -72 109 -72c58 0 87 16 124 54z" />
    <glyph glyph-name="f" unicode="f" horiz-adv-x="310" 
d="M175 122c0 -83 6 -87 84 -91c6 -6 6 -27 0 -33c-35 1 -83 2 -123 2s-75 -1 -110 -2c-6 6 -6 27 0 33c54 4 70 8 70 91v268h-69c-4 0 -5 1 -5 6v13c0 8 5 20 23 20h51v40c0 156 93 229 177 229c38 0 64 -3 90 -21c21 -16 32 -34 32 -51c0 -20 -24 -41 -41 -41
c-21 0 -32 14 -40 32c-14 35 -30 47 -60 47c-33 0 -79 -24 -79 -178v-57h108c5 0 8 -2 8 -6v-20c0 -9 -14 -13 -23 -13h-93v-268z" />
    <glyph glyph-name="g" unicode="g" horiz-adv-x="500" 
d="M319 279c0 83 -34 129 -97 129c-55 0 -80 -36 -80 -106c0 -64 9 -135 93 -135c37 0 84 19 84 112zM132 -10c-29 -35 -31 -60 -31 -94c0 -68 84 -97 120 -97c90 0 196 38 196 110c0 26 -12 40 -51 62c-29 16 -71 17 -121 17c-14 0 -42 -3 -73 -3c-13 0 -29 2 -40 5z
M444 387c-11 0 -24 10 -28 18c-6 9 -13 12 -20 12c-13 0 -33 -14 -40 -24c29 -30 43 -57 43 -104c0 -98 -81 -153 -169 -153c-39 0 -67 7 -91 21c-12 -17 -18 -38 -18 -58c0 -43 35 -57 64 -57c5 0 15 1 30 2c24 3 49 5 67 5c37 0 107 -1 146 -33c29 -24 44 -49 44 -81
c0 -108 -146 -173 -281 -173c-77 0 -159 27 -159 114c0 43 28 89 82 121c-26 13 -46 41 -46 77c0 34 16 77 44 101c-28 27 -52 58 -52 112c0 92 82 152 171 152c59 0 92 -20 104 -28c26 34 74 51 100 51c27 0 46 -16 46 -37c0 -20 -18 -38 -37 -38z" />
    <glyph glyph-name="h" unicode="h" horiz-adv-x="538" 
d="M167 285.9v-163.9c0 -83 9 -87 59.8 -91c6 -6 6 -27 0 -33c-28 1 -60.8 2 -98.8 2c-40 0 -76.8 -1 -109.8 -2c-6 6 -6 27 0 33c58 4 69.8 8 69.8 91v437c0 84 -12 79 -64 82c-6 6 -8 22 -6 30c40 3 115 17 140 27c9 0 13 -3 13 -10c0 0 -4 -40 -4 -105l-0.800003 -225
c0 -14 6.40001 -3.79999 9.8 0c61 68 120.9 81 170 81c35 0 66.2 -12 83 -34c23.3 -30.5 27 -79 27 -134v-149c0 -82 11 -86 67 -91c5 -6 5 -27 0 -33c-33 1 -66 2 -106 2s-74 -1 -102 -2c-5 6 -5 27 0 33c52 5 62 9 62 91v152c0 30 -2 57.2 -12 77
c-11.6 22.9 -32.6 36 -53 36c-39.4 0 -90 -21.7 -128 -59c-8 -8.70001 -17 -21 -17 -42.1z" />
    <glyph glyph-name="i" unicode="i" horiz-adv-x="271" 
d="M90 599c0 24 28 48 52 48c27 0 48 -28 48 -52c0 -21.1 -24 -48 -52 -48c-24 0 -48 26 -48 52zM181 122c0 -83 11 -87 72 -91c6 -6 6 -27 0 -33c-33 1 -71 2 -111 2s-79 -1 -112 -2c-6 6 -6 27 0 33c61 5 72 8 72 91v195c0 57 -10.5 62.9 -65 68c-2 6 -4 22 -2 28
c69 9 108.5 18 137 29c8 0 13 -3 13 -7c0 0 -4 -64 -4 -113.7v-199.3z" />
    <glyph glyph-name="j" unicode="j" horiz-adv-x="272" 
d="M99 599c0 24 28 48 52 48c27 0 48 -28 48 -52c0 -21.1 -24 -48 -52 -48c-24 0 -48 26 -48 52zM113 317c0 57 -11 63 -65 68c-2 6 -4 22 -2 28c69 9 109 18 137 29c8 0 13 -3 13 -7c0 0 -4 -64 -4 -114v-211c0 -189 -28 -261 -75 -299c-37 -31 -89 -34 -110 -34
c-19 0 -55 14 -55 43c0 18 21 38 32 38c22 0 34 -16 44 -26c7 -7 20 -11 31 -11c50 0 54 123 54 255v241z" />
    </font>
</defs>
</svg>
