<?xml version="1.0" standalone="no"?>
<!DOCTYPE svg PUBLIC "-//W3C//DTD SVG 1.1//EN" "http://www.w3.org/Graphics/SVG/1.1/DTD/svg11.dtd" >
<svg xmlns="http://www.w3.org/2000/svg" xmlns:xlink="http://www.w3.org/1999/xlink" version="1.1">
<metadata>
Created by FontForge 20201107 at Fri Oct 21 19:25:28 2022
 By Unknown
Copyright 2022 by Maxim Iorsh (iorsh@users.sourceforge.net). Distributed under the terms of GNU General Public License version 2(http://www.gnu.org/licenses/gpl-2.0.html). All rights reserved.
</metadata>
<defs>
<font id="LulavCLM-Bold" horiz-adv-x="724" >
  <font-face 
    font-family="Lulav CLM"
    font-weight="700"
    font-stretch="normal"
    units-per-em="1100"
    panose-1="2 0 6 3 0 0 0 0 0 0"
    ascent="850"
    descent="-250"
    bbox="-9 -430 867.514 1070"
    underline-thickness="55"
    underline-position="-109"
    stemh="116"
    stemv="116"
    unicode-range="U+0020-05EA"
  />
<missing-glyph horiz-adv-x="550" 
d="M55 0v566h440v-566h-440zM110 55h330v456h-330v-456z" />
    <glyph glyph-name=".notdef" horiz-adv-x="550" 
d="M55 0v566h440v-566h-440zM110 55h330v456h-330v-456z" />
    <glyph glyph-name="uni0000" horiz-adv-x="660" 
d="M220 550v-550h220v550h-220zM110 660h440v-770h-440v770z" />
    <glyph glyph-name="space" unicode=" " horiz-adv-x="385" 
 />
    <glyph glyph-name="A" unicode="A" horiz-adv-x="1000" 
 />
    <glyph glyph-name="afii57645" unicode="&#x5be;" horiz-adv-x="718" 
d="M336 478c-75 0 -169 23 -221 65c48 51 83 123 99 191c35 -43 104 -61 154 -61c89 0 170 14 262 45l5 -13c-36 -64 -53 -140 -58 -187c-74 -19 -138 -40 -241 -40z" />
    <glyph glyph-name="afii57664" unicode="&#x5d0;" horiz-adv-x="812" 
d="M173 741l14 -2c3 -54 26 -95 53 -132c44 -61 124 -110 188 -139c99 -44 173 -91 238 -142c10 17 15 36 15 57c0 53 -32 89 -81 112c-60 29 -102 53 -115 106c27 45 46 94 62 145l14 -1c16 -50 47 -79 99 -95c64 -20 103 -70 103 -138c0 -71 -26 -138 -73 -211
c34 -39 61 -90 58 -169c-3 -77 -41 -137 -90 -177l-12 12c14 18 22 30 23 63c2 44 -30 78 -68 111c-55 48 -121 91 -207 133c-88 43 -147 76 -217 131c-12 -18 -17 -40 -17 -66c0 -51 22 -97 66 -129c54 -40 134 -60 228 -81c-32 -46 -56 -99 -73 -160
c-49 15 -83 31 -138 31c-65 0 -118 -18 -159 -51l-12 14c29 34 49 72 62 113c-36 49 -56 96 -56 163c0 80 34 121 79 187c-39 47 -68 96 -74 164c41 45 74 90 90 151z" />
    <glyph glyph-name="afii57665" unicode="&#x5d1;" 
d="M167 473c-56 11 -94 40 -119 92c36 45 73 118 83 180h14c10 -48 45 -72 87 -78c80 -11 153 27 262 16c82 -9 139 -53 162 -129c38 -122 -1 -249 -36 -379c36 -3 72 -8 106 -12c-52 -47 -86 -112 -92 -184c-139 25 -296 37 -457 18c-72 -8 -126 -26 -169 -60l-15 12
c53 57 80 125 84 194c103 51 318 53 513 35c14 81 16 152 -6 220c-16 51 -66 93 -134 93c-118 0 -172 -39 -283 -18z" />
    <glyph glyph-name="afii57666" unicode="&#x5d2;" horiz-adv-x="590" 
d="M464 -45c-40 52 -68 105 -83 166c-3 13 -6 27 -8 40c-59 -146 -171 -269 -355 -329l-7 10c35 81 49 163 42 250c129 -13 223 7 316 104c-7 94 16 176 44 261c-70 -9 -139 -4 -211 16c-57 16 -96 40 -123 92c33 45 66 118 73 180h14c8 -54 52 -64 94 -70
c54 -5 100 2 141 -22c51 -29 65 -85 50 -150c-16 -69 -20 -121 -10 -174c17 -90 76 -137 161 -171c-67 -57 -107 -117 -125 -203h-13z" />
    <glyph glyph-name="afii57667" unicode="&#x5d3;" horiz-adv-x="766" 
d="M159 739c51 -57 149 -80 221 -80c127 0 242 18 373 59l8 -12c-52 -59 -77 -122 -84 -184c-34 -8 -65 -15 -96 -21c-39 -49 -63 -101 -63 -185c0 -40 17 -85 43 -111c25 -26 64 -46 108 -58c-83 -50 -132 -111 -159 -191h-16c-49 67 -68 148 -73 218
c-8 126 55 239 120 320c-75 -13 -148 -19 -243 -19c-108 0 -207 25 -282 81c67 45 112 105 143 183z" />
    <glyph glyph-name="afii57668" unicode="&#x5d4;" horiz-adv-x="798" 
d="M264 345l18 -22c-49 -37 -64 -88 -62 -134c1 -36 30 -80 121 -102c-90 -28 -142 -68 -177 -128h-15c-39 43 -54 99 -56 145c-3 93 54 172 171 241zM619 -42h-17c-35 139 24 235 53 295c29 61 38 110 33 150c-6 47 -48 88 -134 88c-130 0 -239 -39 -360 -18
c-62 11 -103 40 -130 92c39 45 80 118 91 180h14c10 -53 52 -72 97 -78c88 -11 235 27 350 16c87 -9 122 -53 129 -129s-13 -158 -32 -235c-29 -111 8 -171 59 -247c-59 -16 -125 -63 -153 -114z" />
    <glyph glyph-name="afii57669" unicode="&#x5d5;" horiz-adv-x="444" 
d="M336 454c-16 -40 -29 -79 -31 -136c-3 -82 25 -157 90 -227c-71 -26 -130 -71 -162 -137h-14c-16 79 -17 162 -4 250c15 101 46 178 90 250c-42 1 -93 5 -137 20c-47 16 -100 47 -118 99c43 43 75 110 80 173l17 1c23 -59 57 -63 122 -67c25 -2 47 -6 67 -20
c58 -41 32 -129 0 -206z" />
    <glyph glyph-name="afii57670" unicode="&#x5d6;" horiz-adv-x="495" 
d="M193 747c49 -57 149 -81 224 -81c25 0 49 1 73 2c-52 -49 -89 -120 -106 -190c-22 -1 -44 -1 -68 -1c-12 0 -24 0 -36 1c-15 -36 -22 -63 -22 -104c0 -94 47 -164 111 -207c-69 -62 -103 -125 -138 -211h-19c-28 73 -40 163 -40 240c0 121 20 194 70 285
c-82 9 -156 33 -213 76c74 48 130 115 164 190z" />
    <glyph glyph-name="afii57671" unicode="&#x5d7;" horiz-adv-x="814" 
d="M623 -42l-22 6c-31 135 33 229 62 289c29 61 38 110 33 150c-6 47 -49 88 -135 88c-111 0 -212 -29 -314 -24c-41 -56 -51 -126 -49 -189c2 -50 26 -112 99 -143c-72 -39 -106 -89 -133 -173h-18c-31 61 -46 133 -48 197c-4 121 33 221 110 312c-5 1 -10 1 -15 2
c-62 11 -103 40 -130 92c39 45 80 118 91 180h15c9 -54 51 -72 96 -78c88 -11 248 27 363 16c87 -9 121 -53 128 -129s-15 -158 -35 -235c-29 -111 1 -171 52 -247c-59 -16 -121 -63 -150 -114z" />
    <glyph glyph-name="afii57672" unicode="&#x5d8;" horiz-adv-x="786" 
d="M273 667c-83 -265 -53 -416 2 -483c96 -45 246 -49 335 -1c72 38 118 94 123 186c-8 77 -100 119 -161 127c-80 11 -169 -3 -217 -39l-15 14c34 64 60 143 64 211c55 29 80 35 134 35c97 0 167 -45 199 -129c36 -94 34 -192 22 -290c-7 -60 -23 -109 -49 -164
c-39 -81 -111 -143 -221 -160c-94 -14 -168 -9 -246 13c-108 145 -85 345 -50 469c-12 1 -43 3 -58 6c-58 11 -84 40 -110 92c34 45 72 129 80 191h13c14 -37 38 -52 69 -65s61 -16 86 -13z" />
    <glyph glyph-name="afii57673" unicode="&#x5d9;" horiz-adv-x="440" 
d="M303 301l-28 14c14 28 21 55 20 80c-3 56 -46 86 -97 86c-74 0 -131 5 -150 55c40 57 62 123 65 195h16c23 -44 61 -63 124 -54s128 -22 132 -95c4 -76 -27 -185 -82 -281z" />
    <glyph glyph-name="afii57674" unicode="&#x5da;" horiz-adv-x="694" 
d="M513 487c-118 -6 -218 -36 -334 -17c-64 11 -107 40 -135 92c40 45 82 117 94 179h15c12 -55 53 -72 100 -78c91 -11 174 27 298 16c44 -4 70 -17 87 -49c13 -25 16 -58 8 -116c-12 -85 -34 -174 -54 -333c-24 -193 1 -344 49 -476c-49 -21 -95 -65 -126 -130l-14 3
c-24 136 -13 277 -4 389c11 143 46 264 78 372c22 73 25 153 -62 148z" />
    <glyph glyph-name="afii57675" unicode="&#x5db;" horiz-adv-x="686" 
d="M632 266c4 47 2 97 -15 137c-20 47 -70 88 -144 88c-112 0 -186 -39 -291 -18c-53 11 -90 40 -112 92c34 45 71 118 81 180h16c8 -53 43 -72 82 -78c76 -11 143 27 246 16c78 -9 131 -53 152 -129c36 -130 31 -301 -21 -423c-43 -101 -116 -140 -220 -157
c-112 -18 -275 -9 -368 13c38 58 62 118 71 197c114 -45 291 -48 399 -1c55 24 96 47 124 83z" />
    <glyph glyph-name="afii57676" unicode="&#x5dc;" horiz-adv-x="679" 
d="M105 828c-4 -35 0 -61 5 -89c11 -49 46 -66 87 -72c80 -11 233 27 337 16c79 -9 118 -53 113 -129c-12 -176 -44 -342 -161 -470c-74 -81 -214 -132 -357 -116c56 55 93 130 104 204c119 -11 261 -2 316 81c30 46 37 110 34 150c-4 47 -41 88 -119 88
c-118 0 -198 -39 -309 -18c-57 11 -97 40 -122 92c41 154 52 313 51 497c25 -12 52 -21 85 -21s55 3 82 29l16 -1c-12 -61 -2 -154 16 -209c-41 -38 -80 -56 -138 -43c-15 3 -28 7 -40 11z" />
    <glyph glyph-name="afii57677" unicode="&#x5dd;" horiz-adv-x="772" 
d="M124 -31c0 67 -18 119 -27 184c-15 105 7 227 54 322c-35 9 -74 36 -101 79c35 45 76 129 86 191h14c10 -38 34 -56 66 -65c87 -25 178 37 310 18c73 -10 150 -45 187 -110c41 -72 73 -182 16 -403c-18 -69 -35 -152 -39 -222c-165 37 -379 47 -566 6zM181 470
c-31 -129 -22 -253 24 -310c147 27 329 24 484 -1c21 90 21 183 -4 242c-23 53 -79 84 -143 95c-136 24 -223 -43 -361 -26z" />
    <glyph glyph-name="afii57678" unicode="&#x5de;" horiz-adv-x="794" 
d="M436 690c27 10 50 12 86 12c84 0 165 -40 204 -124c41 -90 44 -184 37 -300c-6 -102 -32 -202 -74 -292c-123 28 -288 33 -415 -14l-6 13c40 70 77 138 80 191c114 24 254 22 366 0c18 83 7 162 -32 217c-41 58 -119 96 -211 96c-61 0 -104 -3 -161 -36
c-45 -26 -72 -72 -85 -114c-16 -54 -9 -114 7 -167c-43 -60 -80 -138 -88 -216h-19c-48 226 16 413 131 505c-34 1 -86 6 -120 19c-42 16 -69 41 -86 93c36 43 63 108 66 171l11 3c26 -57 54 -63 111 -67c22 -2 41 -6 59 -20c48 -38 36 -113 24 -163c73 52 107 83 115 193z
" />
    <glyph glyph-name="afii57679" unicode="&#x5df;" horiz-adv-x="409" 
d="M349 510c-18 -74 -45 -200 -52 -328c-11 -183 0 -347 49 -481c-48 -21 -93 -65 -124 -131h-14c-26 137 -20 267 -8 396c19 199 78 411 97 495c-47 -4 -105 0 -145 13c-47 16 -99 47 -116 99c44 43 78 110 85 173l18 1c22 -59 54 -63 119 -67c25 -2 47 -6 67 -20
c40 -29 43 -71 24 -150z" />
    <glyph glyph-name="afii57680" unicode="&#x5e0;" horiz-adv-x="458" 
d="M324 171c-17 97 -9 192 15 290c-51 -1 -104 6 -142 19c-45 16 -75 41 -94 93c40 53 58 110 60 173l14 1c27 -57 55 -63 112 -67c22 -2 42 -6 60 -20c37 -29 44 -82 34 -150c-7 -50 -20 -131 -13 -198c8 -75 24 -131 62 -173c-41 -40 -66 -90 -76 -165
c-75 26 -223 51 -341 -37l-14 13c53 57 82 123 87 193c62 27 119 40 236 28z" />
    <glyph glyph-name="afii57681" unicode="&#x5e1;" horiz-adv-x="731" 
d="M140 475c-36 9 -78 34 -107 79c34 45 74 129 82 191h13c11 -34 37 -52 68 -65c64 -28 178 37 310 18c73 -10 152 -40 179 -110c37 -93 32 -192 20 -290c-8 -60 -24 -109 -51 -164c-40 -81 -112 -143 -222 -160c-94 -14 -168 -9 -246 13c-102 139 -93 342 -46 488z
M172 469c-20 -146 7 -237 47 -285c97 -45 246 -49 337 -1c73 38 119 94 125 186c-7 77 -98 117 -160 127c-137 23 -214 -42 -349 -27z" />
    <glyph glyph-name="afii57682" unicode="&#x5e2;" horiz-adv-x="778" 
d="M614 224c66 43 93 117 99 222c-42 -4 -88 0 -118 9c-58 18 -86 40 -113 92c35 45 58 128 67 190l15 1c18 -39 45 -53 80 -66c22 -8 60 -13 78 -13c15 -75 24 -154 20 -247c-9 -193 -74 -372 -254 -414c-81 -19 -272 -21 -332 -78c-25 -24 -31 -56 -26 -92l-19 -4
c-19 43 -29 81 -30 132c-2 76 36 138 103 175c29 16 68 25 111 32c-40 103 -37 217 -14 296c-26 -2 -56 0 -77 3c-76 11 -122 40 -160 92c40 45 83 129 88 191h15c24 -38 56 -52 97 -65s77 -14 113 -13c-87 -264 -37 -423 40 -492c86 9 170 18 217 49z" />
    <glyph glyph-name="afii57683" unicode="&#x5e3;" horiz-adv-x="713" 
d="M677 215c-27 -161 -32 -338 26 -492c-64 -27 -126 -78 -169 -152l-19 4c41 272 58 334 102 546c22 108 40 217 10 282c-22 47 -80 88 -158 88c-104 0 -168 -30 -258 -23c-20 -115 6 -146 209 -125c-32 -46 -60 -106 -77 -167c-344 -72 -235 112 -168 297h-1
c-56 11 -94 40 -118 92c36 45 73 118 84 180h13c6 -52 46 -72 87 -78c80 -11 154 27 262 16c82 -9 124 -42 161 -129c38 -89 34 -218 14 -339z" />
    <glyph glyph-name="afii57684" unicode="&#x5e4;" 
d="M108 172c134 -51 362 -49 465 11c66 38 105 94 105 186c-12 77 -99 117 -158 127c-119 21 -184 -31 -292 -29c-2 -87 39 -90 190 -72c-28 -46 -50 -106 -61 -167c-270 -48 -213 82 -161 241c-9 1 -18 2 -27 4c-36 7 -81 33 -113 81c29 45 61 129 65 191h13
c13 -37 39 -57 77 -68c62 -18 156 40 282 21c70 -10 146 -40 176 -110c40 -93 43 -192 37 -290c-3 -60 -15 -109 -37 -164c-33 -81 -103 -138 -200 -160c-164 -37 -336 -10 -431 16c40 51 66 113 70 182z" />
    <glyph glyph-name="afii57685" unicode="&#x5e5;" horiz-adv-x="768" 
d="M537 -277c-65 -27 -127 -79 -172 -153l-20 4c64 339 80 627 -24 890c-47 -11 -88 -11 -138 -2c-60 11 -110 40 -146 92c42 45 87 129 95 191l16 3c19 -40 52 -59 92 -72c38 -12 77 -10 113 -9c-9 -161 28 -288 93 -404c67 140 91 287 80 444c29 -12 58 -21 96 -21
s74 5 103 36l11 -8c-17 -61 -11 -154 6 -209c-58 -45 -111 -56 -185 -36c-67 -218 -93 -469 -20 -746z" />
    <glyph glyph-name="afii57686" unicode="&#x5e6;" horiz-adv-x="779" 
d="M453 188c-46 42 -81 89 -98 128c5 60 1 104 -10 153c-51 -16 -109 -16 -159 -7c-60 11 -111 40 -148 92c41 45 86 129 92 191l14 2c24 -37 54 -56 95 -69s78 -12 114 -11c6 -166 40 -278 107 -360c49 102 59 246 65 400c29 -12 58 -21 96 -21s71 5 103 36l11 -8
c-16 -61 -9 -154 9 -209c-48 -38 -87 -56 -153 -43c-17 3 -40 8 -53 12c-4 -79 -11 -156 -16 -228c56 -44 127 -80 217 -112c-37 -43 -62 -97 -67 -155c-138 26 -295 36 -457 18c-71 -8 -126 -25 -170 -60l-14 13c53 57 81 123 86 193c73 35 200 47 336 45z" />
    <glyph glyph-name="afii57687" unicode="&#x5e7;" 
d="M258 405l13 -8c-25 -54 -47 -105 -40 -179c9 -100 79 -179 66 -280c-11 -89 -67 -184 -134 -253l-13 9c44 107 35 187 7 253c-25 59 -50 111 -43 189c11 118 88 212 144 269zM350 168c93 -1 207 18 251 85c30 46 38 110 35 150c-4 47 -41 88 -119 88
c-118 0 -224 -39 -334 -18c-56 11 -92 40 -115 92c37 45 76 118 88 180h15c6 -55 42 -72 83 -78c80 -11 226 27 330 16c79 -9 117 -53 112 -129c-9 -134 -33 -276 -96 -393c-47 -87 -113 -139 -211 -175c6 67 -11 142 -39 182z" />
    <glyph glyph-name="afii57688" unicode="&#x5e8;" horiz-adv-x="693" 
d="M510 -46l-16 3c-31 137 25 236 52 296c28 61 36 110 32 150c-5 47 -37 88 -111 88c-112 0 -207 -39 -312 -18c-53 11 -89 40 -111 92c34 45 71 118 81 180h13c5 -52 43 -72 82 -78c76 -11 213 27 312 16c75 -9 104 -53 109 -129s-12 -158 -31 -235
c-28 -111 -6 -171 39 -247c-54 -16 -110 -61 -139 -118z" />
    <glyph glyph-name="afii57689" unicode="&#x5e9;" horiz-adv-x="908" 
d="M578 288c-66 -20 -97 -56 -108 -101l-28 -1c-21 110 19 204 62 281c-12 1 -38 3 -53 6c-58 11 -86 40 -116 92c31 45 63 123 66 185h14c14 -34 37 -53 69 -66s64 -13 91 -12c-44 -181 -35 -300 3 -384zM835 464c-37 -4 -71 0 -97 9c-50 18 -74 40 -97 92
c31 45 52 123 61 185h12c12 -32 35 -53 65 -66c19 -8 56 -12 72 -12c12 -75 20 -143 15 -236c-6 -113 -30 -217 -79 -302c-47 -81 -129 -143 -255 -160c-107 -14 -202 -9 -295 13c-105 150 -78 340 -40 464c-12 1 -45 2 -60 5c-58 11 -83 41 -108 93c35 45 74 123 83 185h13
c14 -36 35 -54 65 -67s61 -12 88 -11c-88 -265 -59 -401 -5 -470c114 -45 296 -51 404 -3c87 38 148 107 158 281z" />
    <glyph glyph-name="afii57690" unicode="&#x5ea;" horiz-adv-x="811" 
d="M177 161c-5 22 -9 45 -11 69c-8 108 27 183 75 243c-55 9 -96 41 -120 92c34 45 67 118 75 180h15c9 -52 43 -72 89 -78c80 -11 245 27 350 16c80 -9 113 -53 122 -129s-4 -158 -19 -235c-22 -111 3 -171 52 -247c-53 -16 -108 -63 -132 -114h-18c-34 135 19 235 43 295
c24 61 30 110 24 150c-7 47 -47 88 -125 88c-112 0 -221 -28 -322 -21c-25 -30 -41 -72 -49 -131c-7 -52 7 -98 28 -138c21 -41 53 -64 93 -84c-29 -41 -47 -87 -48 -148c-53 15 -91 31 -146 31c-65 0 -114 -18 -146 -51l-16 14c35 45 56 102 56 163c35 29 83 39 130 35z
" />
  </font>
</defs>
</svg>
