<?xml version="1.0" standalone="no"?>
<!DOCTYPE svg PUBLIC "-//W3C//DTD SVG 1.1//EN" "http://www.w3.org/Graphics/SVG/1.1/DTD/svg11.dtd" >
<svg>
<metadata>
Created by FontForge 20090914 at Fri Oct 13 01:47:36 2017
 By www-data
Created by Raphael Finkel with FontForge 2.0 (http://fontforge.sf.net).

Based on Raphael Frank's Judisch-Deutsch font, as seen at http://typophile.com/node/49385?page=6.
</metadata>
<defs>
<font id="Mashkit" horiz-adv-x="451" >
  <font-face 
    font-family="Mashkit"
    font-weight="500"
    font-stretch="normal"
    units-per-em="1024"
    panose-1="2 0 6 3 0 0 0 0 0 0"
    ascent="819"
    descent="-205"
    bbox="15.4 -301.601 724.996 820.5"
    underline-thickness="51"
    underline-position="-102"
    unicode-range="U+0020-U+FB4E"
  />
<missing-glyph horiz-adv-x="374" 
d="M34 0v682h272v-682h-272zM68 34h204v614h-204v-614z" />
    <glyph glyph-name=".notdef" horiz-adv-x="374" 
d="M34 0v682h272v-682h-272zM68 34h204v614h-204v-614z" />
    <glyph glyph-name="space" unicode=" " horiz-adv-x="501" 
 />
    <glyph glyph-name="exclam" unicode="!" 
d="M230 78c16 0 28.8311 -6.33301 38.498 -19s14.834 -27.667 15.501 -45c0.666992 -13.333 -4.16602 -24.5 -14.499 -33.5s-22.5 -13.5 -36.5 -13.5c-16.667 0 -31.667 4.16699 -45 12.5s-20.333 19.833 -21 34.5c-0.666992 17.333 5.33301 32.333 18 45s27.667 19 45 19z
M232.998 809c15.333 -0.666992 28.3311 -4.83105 38.998 -12.498s18.667 -18.667 24 -33s9.16602 -29.5 11.499 -45.5s3.33301 -35.333 3 -58s-1 -43.334 -2 -62.001s-2.33301 -40.334 -4 -65.001s-2.5 -44.667 -2.5 -60c0 -14.667 0.333008 -34.167 1 -58.5
s1.33398 -45.5 2.00098 -63.5s0.666992 -38 0 -60s-2.5 -40.667 -5.5 -56s-7.16699 -29.833 -12.5 -43.5s-13.333 -23.834 -24 -30.501s-23.334 -9.66699 -38.001 -9c-15.333 0.666992 -28.333 4.66699 -39 12s-18.667 18 -24 32s-9.66602 28.667 -12.999 44
s-5 34.166 -5 56.499s0.166992 42.333 0.5 60s1.16602 38.834 2.49902 63.501s2 44.334 2 59.001s-0.166992 34.667 -0.5 60s-0.666016 47.166 -0.999023 65.499s-0.166016 38.833 0.500977 61.5s2.83398 41.834 6.50098 57.501s8.5 30.5 14.5 44.5s14.333 24.5 25 31.5
s23.667 10.167 39 9.5z" />
    <glyph glyph-name="comma" unicode="," 
d="M266 107c17.333 0 27.1641 -11.333 29.4971 -34s-1.5 -42.334 -11.5 -59.001c-16 -32 -32.667 -56.5 -50 -73.5s-39.666 -25.5 -66.999 -25.5c-9.33301 0 -15.666 3.5 -18.999 10.5s-4.16602 15.833 -2.49902 26.5s4.5 21.334 8.5 32.001s8.33301 20.667 13 30
c11.333 22 19.833 37.833 25.5 47.5s15.167 19.667 28.5 30s28.333 15.5 45 15.5z" />
    <glyph glyph-name="hyphen" unicode="-" horiz-adv-x="660" 
d="M521 416l3 -90l-381 -63v84zM518 239l3 -90l-381 -63v84z" />
    <glyph glyph-name="period" unicode="." 
d="M230 78c16 0 28.8311 -6.33301 38.498 -19s14.834 -27.667 15.501 -45c0.666992 -13.333 -4.16602 -24.5 -14.499 -33.5s-22.5 -13.5 -36.5 -13.5c-16.667 0 -31.667 4.16699 -45 12.5s-20.333 19.833 -21 34.5c-0.666992 17.333 5.33301 32.333 18 45s27.667 19 45 19z
" />
    <glyph glyph-name="question" unicode="?" horiz-adv-x="586" 
d="M107 482c-20 42 -22.6699 84.6689 -8.00293 128.002c4.66699 14.667 11.5 27 20.5 37s16.667 17 23 21s17.5 10 33.5 18c34.667 17.333 70 22.666 106 15.999c22 -4 39.5 -9.33301 52.5 -16s25.5 -18.667 37.5 -36c12.667 -19.333 21.334 -38.833 26.001 -58.5
s8 -45.167 10 -76.5c1.33301 -28 -6.33398 -66.667 -23.001 -116c-14.667 -43.333 -32.667 -84 -54 -122c-6 -10 -15.333 -21.167 -28 -33.5s-22 -24.166 -28 -35.499c-4 -7.33301 -6.66699 -20 -8 -38s-5.33301 -30.667 -12 -38c-20.667 -22 -38.667 -24 -54 -6
c-5.33301 6 -8.5 13.667 -9.5 23s-0.833008 16.666 0.5 21.999l7 27c2.66699 11.333 6.16699 21.333 10.5 30s9.83301 18.5 16.5 29.5s11.667 19.833 15 26.5c2 4 8.33301 15.167 19 33.5s18.334 34.5 23.001 48.5l10.5 28c5 13.333 7.83301 21.666 8.5 24.999l5 26
c2.66699 14 2.33398 24 -0.999023 30c-8 48.667 -26.333 79.334 -55 92.001c-14.667 6.66699 -28 6.83398 -40 0.500977s-24.667 -17.5 -38 -33.5c-4.66699 -5.33301 -5.5 -16.833 -2.5 -34.5s1.83301 -28.167 -3.5 -31.5
c-9.33301 -8.66699 -20.166 -11.834 -32.499 -9.50098s-21.5 10.166 -27.5 23.499zM237.997 78.002c16 0 28.8311 -6.33301 38.498 -19s14.834 -27.667 15.501 -45c0.666992 -13.333 -4.16602 -24.5 -14.499 -33.5s-22.5 -13.5 -36.5 -13.5
c-16.667 0 -31.667 4.16699 -45 12.5s-20.333 19.833 -21 34.5c-0.666992 17.333 5.33301 32.333 18 45s27.667 19 45 19z" />
    <glyph glyph-name="afii57799" unicode="&#x5b0;" horiz-adv-x="392" 
d="M204 -33c16.667 -4.66699 28.332 -15 34.999 -31c6.66699 -14.667 8.33398 -32 5.00098 -52c-2 -10.667 -9.33301 -17.334 -22 -20.001s-24.667 -2 -36 2c-12 2.66699 -22.333 8.33398 -31 17.001c-8 8 -11 17.667 -9 29c2.66699 16.667 9.66699 31 21 43
c10.667 12 23 16 37 12zM203.998 -174c16.667 -4.66699 28.332 -15 34.999 -31c6.66699 -14.667 8.33398 -32 5.00098 -52c-2 -10.667 -9.33301 -17.334 -22 -20.001s-24.667 -2 -36 2c-12 2.66699 -22.333 8.33398 -31 17.001c-8 8 -11 17.667 -9 29
c2.66699 16.667 9.66699 31 21 43c10.667 12 23 16 37 12z" />
    <glyph glyph-name="afii57801" unicode="&#x5b1;" horiz-adv-x="604" 
d="M476 -33c16.667 -4.66699 28.332 -15 34.999 -31c6.66699 -14.667 8.33398 -32 5.00098 -52c-2 -10.667 -9.33301 -17.334 -22 -20.001s-24.667 -2 -36 2c-12 2.66699 -22.333 8.33398 -31 17.001c-8 8 -11 17.667 -9 29c2.66699 16.667 9.66699 31 21 43
c10.667 12 23 16 37 12zM475.998 -174c16.667 -4.66699 28.332 -15 34.999 -31c6.66699 -14.667 8.33398 -32 5.00098 -52c-2 -10.667 -9.33301 -17.334 -22 -20.001s-24.667 -2 -36 2c-12 2.66699 -22.333 8.33398 -31 17.001c-8 8 -11 17.667 -9 29
c2.66699 16.667 9.66699 31 21 43c10.667 12 23 16 37 12zM106.996 -33c16.667 -4.66699 28.332 -15 34.999 -31c6.66699 -14.667 8.33398 -32 5.00098 -52c-2 -10.667 -9.33301 -17.334 -22 -20.001s-24.667 -2 -36 2c-12 2.66699 -22.333 8.33398 -31 17.001
c-8 8 -11 17.667 -9 29c2.66699 16.667 9.66699 31 21 43c10.667 12 23 16 37 12zM217.994 -125c16.667 -4.66699 28.332 -15 34.999 -31c6.66699 -14.667 8.33398 -32 5.00098 -52c-2 -10.667 -9.33301 -17.334 -22 -20.001s-24.667 -2 -36 2
c-12 2.66699 -22.333 8.33398 -31 17.001c-8 8 -11 17.667 -9 29c2.66699 16.667 9.66699 31 21 43c10.667 12 23 16 37 12zM339.992 -33c16.667 -4.66699 28.332 -15 34.999 -31c6.66699 -14.667 8.33398 -32 5.00098 -52c-2 -10.667 -9.33301 -17.334 -22 -20.001
s-24.667 -2 -36 2c-12 2.66699 -22.333 8.33398 -31 17.001c-8 8 -11 17.667 -9 29c2.66699 16.667 9.66699 31 21 43c10.667 12 23 16 37 12z" />
    <glyph glyph-name="afii57800" unicode="&#x5b2;" horiz-adv-x="564" 
d="M474 -33c16.667 -4.66699 28.332 -15 34.999 -31c6.66699 -14.667 8.33398 -32 5.00098 -52c-2 -10.667 -9.33301 -17.334 -22 -20.001s-24.667 -2 -36 2c-12 2.66699 -22.333 8.33398 -31 17.001c-8 8 -11 17.667 -9 29c2.66699 16.667 9.66699 31 21 43
c10.667 12 23 16 37 12zM473.998 -174c16.667 -4.66699 28.332 -15 34.999 -31c6.66699 -14.667 8.33398 -32 5.00098 -52c-2 -10.667 -9.33301 -17.334 -22 -20.001s-24.667 -2 -36 2c-12 2.66699 -22.333 8.33398 -31 17.001c-8 8 -11 17.667 -9 29
c2.66699 16.667 9.66699 31 21 43c10.667 12 23 16 37 12zM50.9961 -40l323 -2v-60l-324 -1z" />
    <glyph glyph-name="afii57802" unicode="&#x5b3;" horiz-adv-x="559" 
d="M469 -33c16.667 -4.66699 28.332 -15 34.999 -31c6.66699 -14.667 8.33398 -32 5.00098 -52c-2 -10.667 -9.33301 -17.334 -22 -20.001s-24.667 -2 -36 2c-12 2.66699 -22.333 8.33398 -31 17.001c-8 8 -11 17.667 -9 29c2.66699 16.667 9.66699 31 21 43
c10.667 12 23 16 37 12zM468.998 -174c16.667 -4.66699 28.332 -15 34.999 -31c6.66699 -14.667 8.33398 -32 5.00098 -52c-2 -10.667 -9.33301 -17.334 -22 -20.001s-24.667 -2 -36 2c-12 2.66699 -22.333 8.33398 -31 17.001c-8 8 -11 17.667 -9 29
c2.66699 16.667 9.66699 31 21 43c10.667 12 23 16 37 12zM49.9961 -48l326 2v-64h-134v-64h-72v62l-120 2v62z" />
    <glyph glyph-name="afii57793" unicode="&#x5b4;" horiz-adv-x="392" 
d="M204 -33c16.667 -4.66699 28.332 -15 34.999 -31c6.66699 -14.667 8.33398 -32 5.00098 -52c-2 -10.667 -9.33301 -17.334 -22 -20.001s-24.667 -2 -36 2c-12 2.66699 -22.333 8.33398 -31 17.001c-8 8 -11 17.667 -9 29c2.66699 16.667 9.66699 31 21 43
c10.667 12 23 16 37 12z" />
    <glyph glyph-name="afii57794" unicode="&#x5b5;" horiz-adv-x="392" 
d="M303 -33c16.667 -4.66699 28.332 -15 34.999 -31c6.66699 -14.667 8.33398 -32 5.00098 -52c-2 -10.667 -9.33301 -17.334 -22 -20.001s-24.667 -2 -36 2c-12 2.66699 -22.333 8.33398 -31 17.001c-8 8 -11 17.667 -9 29c2.66699 16.667 9.66699 31 21 43
c10.667 12 23 16 37 12zM106.998 -33c16.667 -4.66699 28.332 -15 34.999 -31c6.66699 -14.667 8.33398 -32 5.00098 -52c-2 -10.667 -9.33301 -17.334 -22 -20.001s-24.667 -2 -36 2c-12 2.66699 -22.333 8.33398 -31 17.001c-8 8 -11 17.667 -9 29
c2.66699 16.667 9.66699 31 21 43c10.667 12 23 16 37 12z" />
    <glyph glyph-name="afii57795" unicode="&#x5b6;" horiz-adv-x="463" 
d="M107 -33c16.667 -4.66699 28.332 -15 34.999 -31c6.66699 -14.667 8.33398 -32 5.00098 -52c-2 -10.667 -9.33301 -17.334 -22 -20.001s-24.667 -2 -36 2c-12 2.66699 -22.333 8.33398 -31 17.001c-8 8 -11 17.667 -9 29c2.66699 16.667 9.66699 31 21 43
c10.667 12 23 16 37 12zM217.998 -125c16.667 -4.66699 28.332 -15 34.999 -31c6.66699 -14.667 8.33398 -32 5.00098 -52c-2 -10.667 -9.33301 -17.334 -22 -20.001s-24.667 -2 -36 2c-12 2.66699 -22.333 8.33398 -31 17.001c-8 8 -11 17.667 -9 29
c2.66699 16.667 9.66699 31 21 43c10.667 12 23 16 37 12zM339.996 -33c16.667 -4.66699 28.332 -15 34.999 -31c6.66699 -14.667 8.33398 -32 5.00098 -52c-2 -10.667 -9.33301 -17.334 -22 -20.001s-24.667 -2 -36 2c-12 2.66699 -22.333 8.33398 -31 17.001
c-8 8 -11 17.667 -9 29c2.66699 16.667 9.66699 31 21 43c10.667 12 23 16 37 12z" />
    <glyph glyph-name="afii57798" unicode="&#x5b7;" horiz-adv-x="427" 
d="M51 -40l323 -2v-60l-324 -1z" />
    <glyph glyph-name="afii57797" unicode="&#x5b8;" horiz-adv-x="426" 
d="M50 -48l326 2v-64h-134v-64h-72v62l-120 2v62z" />
    <glyph glyph-name="afii57806" unicode="&#x5b9;" horiz-adv-x="183" 
d="M95 819c16.667 -4.66699 28.332 -15 34.999 -31c6.66699 -14.667 8.33398 -32 5.00098 -52c-2 -10.667 -9.33301 -17.334 -22 -20.001s-24.667 -2 -36 2c-12 2.66699 -22.333 8.33398 -31 17.001c-8 8 -11 17.667 -9 29c2.66699 16.667 9.66699 31 21 43
c10.667 12 23 16 37 12z" />
    <glyph glyph-name="uni05BA" unicode="&#x5ba;" horiz-adv-x="228" 
d="M136 746c16.667 -4.66699 28.332 -15 34.999 -31c6.66699 -14.667 8.33398 -32 5.00098 -52c-2 -10.667 -9.33301 -17.334 -22 -20.001s-24.667 -2 -36 2c-12 2.66699 -22.333 8.33398 -31 17.001c-8 8 -11 17.667 -9 29c2.66699 16.667 9.66699 31 21 43
c10.667 12 23 16 37 12z" />
    <glyph glyph-name="afii57796" unicode="&#x5bb;" horiz-adv-x="430" 
d="M213 -120c16.667 -4.66699 28.332 -15 34.999 -31c6.66699 -14.667 8.33398 -32 5.00098 -52c-2 -10.667 -9.33301 -17.334 -22 -20.001s-24.667 -2 -36 2c-12 2.66699 -22.333 8.33398 -31 17.001c-8 8 -11 17.667 -9 29c2.66699 16.667 9.66699 31 21 43
c10.667 12 23 16 37 12zM106.998 -33c16.667 -4.66699 28.332 -15 34.999 -31c6.66699 -14.667 8.33398 -32 5.00098 -52c-2 -10.667 -9.33301 -17.334 -22 -20.001s-24.667 -2 -36 2c-12 2.66699 -22.333 8.33398 -31 17.001c-8 8 -11 17.667 -9 29
c2.66699 16.667 9.66699 31 21 43c10.667 12 23 16 37 12zM338.996 -197c16.667 -4.66699 28.332 -15 34.999 -31c6.66699 -14.667 8.33398 -32 5.00098 -52c-2 -10.667 -9.33301 -17.334 -22 -20.001s-24.667 -2 -36 2c-12 2.66699 -22.333 8.33398 -31 17.001
c-8 8 -11 17.667 -9 29c2.66699 16.667 9.66699 31 21 43c10.667 12 23 16 37 12z" />
    <glyph glyph-name="afii57807" unicode="&#x5bc;" horiz-adv-x="497" 
d="M296 316c9.33301 -2 16.667 -6.83301 22 -14.5s7.33301 -16.167 6 -25.5s-5.5 -17 -12.5 -23s-14.833 -8.33301 -23.5 -7c-11.333 2 -20.5 7.16699 -27.5 15.5s-9.83301 17.833 -8.5 28.5c0.666992 9.33301 5.5 16.5 14.5 21.5s18.833 6.5 29.5 4.5z" />
    <glyph glyph-name="afii57839" unicode="&#x5bd;" horiz-adv-x="182" 
d="M50 -39l82 -1v-228h-82v229z" />
    <glyph glyph-name="afii57645" unicode="&#x5be;" horiz-adv-x="484" 
d="M431 416l3 -90l-381 -63v84zM428 239l3 -90l-381 -63v84z" />
    <glyph glyph-name="afii57841" unicode="&#x5bf;" horiz-adv-x="645" 
d="M156 734c96.667 7.33301 168.336 10.334 215.003 9.00098c67.333 -1.33301 128.666 -9 183.999 -23c7.33301 -3.33301 11 -9.33301 11 -18c0 -9.33301 -3.33301 -18.666 -10 -27.999c-6.66699 -10 -14.334 -15 -23.001 -15c-38 2 -102 2.33301 -192 1s-156.667 1 -200 7
c-8.66699 1.33301 -13.334 7.66602 -14.001 18.999s2 22.666 8 33.999c4.66699 8 11.667 12.667 21 14z" />
    <glyph glyph-name="afii57804" unicode="&#x5c1;" horiz-adv-x="130" 
d="M74 700c16.667 -4.66699 28.332 -15 34.999 -31c6.66699 -14.667 8.33398 -32 5.00098 -52c-2 -10.667 -9.33301 -17.334 -22 -20.001s-24.667 -2 -36 2c-12 2.66699 -22.333 8.33398 -31 17.001c-8 8 -11 17.667 -9 29c2.66699 16.667 9.66699 31 21 43
c10.667 12 23 16 37 12z" />
    <glyph glyph-name="afii57803" unicode="&#x5c2;" horiz-adv-x="136" 
d="M77 746c16.667 -4.66699 28.332 -14.667 34.999 -30c6.66699 -14.667 8.33398 -32 5.00098 -52c-2 -10.667 -9.33301 -17.334 -22 -20.001c-13.333 -3.33301 -25.333 -3 -36 1c-12 2.66699 -22.333 8.33398 -31 17.001c-8 8 -11 17.667 -9 29
c2.66699 16.667 9.66699 31 21 43c10.667 12 23 16 37 12z" />
    <glyph glyph-name="afii57658" unicode="&#x5c3;" horiz-adv-x="198" 
d="M108 404c16.667 -4.66699 28.332 -15 34.999 -31c6.66699 -14.667 8.33398 -32 5.00098 -52c-2 -10.667 -9.33301 -17.334 -22 -20.001s-24.667 -2 -36 2c-12 2.66699 -22.333 8.33398 -31 17.001c-8 8 -11 17.667 -9 29c2.66699 16.667 9.66699 31 21 43
c10.667 12 23 16 37 12zM107.998 107c16.667 -4.66699 28.332 -15 34.999 -31c6.66699 -14.667 8.33398 -32 5.00098 -52c-2 -10.667 -9.33301 -17.334 -22 -20.001s-24.667 -2 -36 2c-12 2.66699 -22.333 8.33398 -31 17.001c-8 8 -11 17.667 -9 29
c2.66699 16.667 9.66699 31 21 43c10.667 12 23 16 37 12z" />
    <glyph glyph-name="uni05C7" unicode="&#x5c7;" horiz-adv-x="426" 
d="M50 -48l326 2v-64h-134v-64h-72v62l-120 2v62z" />
    <glyph glyph-name="afii57664" unicode="&#x5d0;" horiz-adv-x="477" 
d="M30 549l102.003 74l4 -123l26 -1l181 156l70 -58l-79 -78l22.5 -34.5c12.333 -19 21.5 -35.167 27.5 -48.5c5.33301 -12.667 15.166 -30.667 29.499 -54s24.166 -43.5 29.499 -60.5s6.33301 -36.167 3 -57.5c-4.66699 -33.333 -13.167 -63.5 -25.5 -90.5
s-28.5 -56.5 -48.5 -88.5s-35.667 -60 -47 -84h-90c1.33301 5.33301 4.66602 17.333 9.99902 36s10.333 34 15 46c4 11.333 14 32.333 30 63s25.667 57.667 29 81c4.66699 36.667 -3.33301 75.667 -24 117c-2 3.33301 -5 9.5 -9 18.5s-7.16699 15.5 -9.5 19.5
s-5.66602 9.33301 -9.99902 16s-8.33301 11.5 -12 14.5s-8.5 5.66699 -14.5 8s-12.333 3.5 -19 3.5c-14 0 -25.333 -4.5 -34 -13.5s-17.334 -21.167 -26.001 -36.5s-17 -27 -25 -35l-5 -278l-60 -54l-41 -7v549z" />
    <glyph glyph-name="afii57665" unicode="&#x5d1;" horiz-adv-x="577" 
d="M35 1c5.33301 13.333 9.66992 31.666 13.0029 54.999s8.16602 42.5 14.499 57.5s17.833 26.5 34.5 34.5c19.333 9.33301 40.833 13.166 64.5 11.499s44.5 -5.66699 62.5 -12s38.667 -10 62 -11s44.333 3.83301 63 14.5c18 10 31.667 24.333 41 43
s14.666 35.834 15.999 51.501s2.33301 37.834 3 66.501v9c0 18.667 -2.83301 35.834 -8.5 51.501s-13.667 33 -24 52s-18.166 35.167 -23.499 48.5l-270 5c-4.66699 5.33301 -11.834 11.166 -21.501 17.499s-17.334 12.5 -23.001 18.5s-8.5 13.667 -8.5 23
s2.5 17.333 7.5 24s12.167 13.667 21.5 21s16.333 14 21 20l313 -1c0.666992 0 2.5 -0.5 5.5 -1.5s5.5 -2.16699 7.5 -3.5c6 -3.33301 14.167 -7 24.5 -11s19 -8.16699 26 -12.5s13.167 -10.5 18.5 -18.5c5.33301 -8.66699 8.83301 -18 10.5 -28s2.16699 -19.5 1.5 -28.5
s0 -19.5 2 -31.5l-4 -337l62 -2l-78 -128z" />
    <glyph glyph-name="afii57666" unicode="&#x5d2;" horiz-adv-x="376" 
d="M52 6c-16 8 -23.3232 22.001 -21.9902 42.001s8.66602 37.333 21.999 52c16.667 18.667 43.5 34.167 80.5 46.5s63.5 25.166 79.5 38.499c9.33301 8 17.166 17.167 23.499 27.5s10.5 18.5 12.5 24.5s5.66699 17.667 11 35c11.333 40.667 14.666 78.334 9.99902 113.001
c-2 14.667 -12.333 30 -31 46c-7.33301 6.66699 -18.666 13.5 -33.999 20.5s-27 14.5 -35 22.5c-2 2 -5.16699 5 -9.5 9l-10.5 10c-2.66699 2.66699 -5.5 5.83398 -8.5 9.50098s-5.16699 7 -6.5 10s-2 6.5 -2 10.5s1 8 3 12c19.333 34.667 52.666 55.667 99.999 63
c41.333 6 74.333 -5 99 -33c6.66699 -8 10.667 -16.333 12 -25s0.666016 -19.834 -2.00098 -33.501s-4 -23.834 -4 -30.501c-0.666992 -28 -2.83398 -65 -6.50098 -111s-5.83398 -84.333 -6.50098 -115c-0.666992 -54 -0.833984 -91.5 -0.500977 -112.5
s1.16602 -54.5 2.49902 -100.5s2.33301 -83.667 3 -113l-71 -3v88.5c0 45.667 -0.666992 83.834 -2 114.501c0 2 -0.833008 4 -2.5 6s-3.16699 2.33301 -4.5 1c-8.66699 -8 -20.167 -21.667 -34.5 -41s-28.5 -33.333 -42.5 -42
c-5.33301 -3.33301 -13.333 -8.83301 -24 -16.5s-19 -13.167 -25 -16.5s-13.333 -6.83301 -22 -10.5s-17.334 -5.33398 -26.001 -5.00098s-17.334 2.5 -26.001 6.5z" />
    <glyph glyph-name="afii57667" unicode="&#x5d3;" horiz-adv-x="518" 
d="M62 588c20.667 6 40.4951 9 59.4951 9s40.833 -1.33301 65.5 -4s45.334 -4 62.001 -4s37 1 61 3s45.333 3 64 3s38.334 -2.33301 59.001 -7c36.667 -8 55 -24.333 55 -49c0 -13.333 -8.33301 -27.333 -25 -42s-26.667 -27.334 -30 -38.001
c-8.66699 -31.333 -8.66699 -72.666 0 -123.999c3.33301 -17.333 12.666 -41.833 27.999 -73.5s22.333 -59.167 21 -82.5c-1.33301 -21.333 -5.33301 -41.166 -12 -59.499s-15.667 -38.5 -27 -60.5s-20 -41 -26 -57c-27.333 61.333 -45.666 104.333 -54.999 129
c-4 11.333 -10.667 25.333 -20 42s-16.166 31.667 -20.499 45s-6.5 28 -6.5 44c0 22 7.33301 48 22 78s23.334 54.333 26.001 73c4.66699 35.333 -1.66602 54.666 -18.999 57.999c-34.667 7.33301 -80.5 7.66602 -137.5 0.999023s-102.833 -7 -137.5 -1
c-23.333 4.66699 -36.333 23.334 -39 56.001c-2.66699 34 8 54.333 32 61z" />
    <glyph glyph-name="afii57668" unicode="&#x5d4;" horiz-adv-x="701" 
d="M68 484c-14.667 16 -15.833 35.6641 -3.5 58.9971s29.833 37.333 52.5 42c50 10.667 97.167 16.167 141.5 16.5s95.333 -2.16699 153 -7.5s105.5 -8.33301 143.5 -9c2.66699 0 7.5 0.5 14.5 1.5s12.333 1 16 0s7.16699 -3.16699 10.5 -6.5c16.667 -20 24 -43 22 -69
c-0.666992 -9.33301 -6.33398 -20.166 -17.001 -32.499s-16.334 -23.166 -17.001 -32.499c0 -12 -0.5 -19.667 -1.5 -23s-0.5 -10.166 1.5 -20.499s3.33301 -17 4 -20s2.33398 -9.83301 5.00098 -20.5s4.66699 -18 6 -22c4.66699 -18.667 12.334 -40.834 23.001 -66.501
s18.334 -45.5 23.001 -59.5c2 -7.33301 6 -17.833 12 -31.5s10.167 -25.5 12.5 -35.5s2.5 -21 0.5 -33c-7.33301 -43.333 -15 -71.666 -23 -84.999c-8.66699 -13.333 -20.667 -23 -36 -29c-26 -10 -48.333 11.667 -67 65c-6 17.333 -10.833 34.833 -14.5 52.5
s-5.83398 31.834 -6.50098 42.501s-1.5 27.334 -2.5 50.001s-1.83301 39.667 -2.5 51c-2 21.333 -2.16699 49.5 -0.5 84.5s1.83398 63.167 0.500977 84.5c-1.33301 12.667 -5.33301 19 -12 19c-30.667 1.33301 -71.5 0.166016 -122.5 -3.50098s-93.5 -4.16699 -127.5 -1.5
c-18 0.666992 -35.833 1.16699 -53.5 1.5s-33.834 0.666016 -48.501 0.999023s-29.5 3.5 -44.5 9.5s-28.833 15.333 -41.5 28zM133.001 317.997c8 6.66699 14.333 0.333008 19 -19c0.666992 -2 2.66699 -11.667 6 -29c2 -11.333 3.16699 -21.833 3.5 -31.5
s0.166016 -21.167 -0.500977 -34.5s-1 -24 -1 -32c0 -8.66699 0.833008 -20.167 2.5 -34.5s2.16699 -26.666 1.5 -36.999s-3.33398 -21.166 -8.00098 -32.499c-14.667 -38.667 -26.667 -63.334 -36 -74.001c-10 -11.333 -22.667 -19.333 -38 -24
c-14 -4 -26.333 0.5 -37 13.5s-15.667 27.5 -15 43.5c0.666992 15.333 9.83398 31.5 27.501 48.5s28.167 31.833 31.5 44.5c3.33301 10.667 1.66602 24.667 -5.00098 42s-9 31.333 -7 42c4.66699 21.333 8.33398 36.666 11.001 45.999s7.83398 20.5 15.501 33.5
s17.5 24.5 29.5 34.5z" />
    <glyph glyph-name="afii57669" unicode="&#x5d5;" horiz-adv-x="202" 
d="M81 560c0.666992 0.666992 1.83301 2.83301 3.5 6.5s2.83398 6 3.50098 7l4 6c2 3 3.5 5 4.5 6s2.5 2.33301 4.5 4s3.83301 2.83398 5.5 3.50098s3.66699 1.33398 6 2.00098s4.83301 1 7.5 1c11.333 -0.666992 21.166 -4.83398 29.499 -12.501s12.833 -17.167 13.5 -28.5
c5.33301 -48.667 8.33301 -93.334 9 -134.001s0.333984 -90 -0.999023 -148s-2 -102.667 -2 -134c0 -10.667 -2 -20 -6 -28c-26 -50 -46.667 -86 -62 -108c-2 -3.33301 -5.16699 -5.33301 -9.5 -6s-7.5 0.333008 -9.5 3c-12.667 17.333 -23.667 42.666 -33 75.999
c-8.66699 30 -14.334 64 -17.001 102c-2 24.667 -1.66699 71 1 139c2.66699 68.667 6 113.334 10 134.001c8 40 20.667 76.333 38 109z" />
    <glyph glyph-name="afii57670" unicode="&#x5d6;" horiz-adv-x="319" 
d="M107 591c23.333 6 42.334 7.99707 57.001 5.99707c16.667 -2 35.667 -7 57 -15c18.667 -6.66699 34 -14.334 46 -23.001c10.667 -8 17.667 -19.667 21 -35c0 -3.33301 0.166992 -7.16602 0.5 -11.499s0.5 -7.16602 0.5 -8.49902c0 -6 -1.66699 -12 -5 -18
c-1.33301 -2 -2.83301 -5 -4.5 -9s-3.16699 -6.66699 -4.5 -8c-0.666992 -0.666992 -1.66699 -2 -3 -4s-2.83301 -4 -4.5 -6s-3.16699 -4 -4.5 -6c-4.66699 -7.33301 -8.66699 -13.333 -12 -18c-6 -10 -18 -23 -36 -39c-17.333 -15.333 -28.666 -31 -33.999 -47
c-3.33301 -16 -4.66602 -26.333 -3.99902 -31c1.33301 -9.33301 3.66602 -19 6.99902 -29c2.66699 -8 4.66699 -18.667 6 -32c0.666992 -3.33301 1 -14 1 -32c0 -14.667 1.66699 -27.667 5 -39c4 -18 11.333 -32.333 22 -43c5.33301 -5.33301 15.333 -10 30 -14
s24 -10.667 28 -20c0 -0.666992 0.166992 -2 0.5 -4s0.833008 -3.33301 1.5 -4c0.666992 -1.33301 1 -3.66602 1 -6.99902v-7c0 -1.33301 -0.666992 -4 -2 -8l-2 -4l-1 -2c0 -2 -1 -4.33301 -3 -7l-2 -4c-0.666992 -1.33301 -1.33398 -2.33301 -2.00098 -3
c-2 -2 -3.66699 -4.33301 -5 -7c-2 -4 -3.33301 -6.33301 -4 -7c-6 -10 -11.333 -17.667 -16 -23c-1.33301 -2 -6.66602 -7 -15.999 -15c-6.66699 -6 -14.667 -10 -24 -12c-18.667 -6 -36.334 -8.66699 -53.001 -8s-32.667 6.66699 -48 18
c-8.66699 6.66699 -15 12.334 -19 17.001c-7.33301 8.66699 -12.333 16 -15 22c-5.33301 12 -8.33301 18.667 -9 20l-8 26c-1.33301 3.33301 -2.5 7 -3.5 11s-2 7 -3 9s-1.5 3.66699 -1.5 5l-4.5 13l-4 11c-1 2.66699 -1.5 4.66699 -1.5 6
c-1.33301 6.66699 -2 14.334 -2 23.001c0 10.667 2 20.667 6 30c4 8.66699 14 16 30 22c16.667 6 27.334 13 32.001 21c20 32.667 28 66.667 24 102c-2 14 -8.66699 28 -20 42c-12 15.333 -19.667 26.666 -23 33.999c-2 4 -8.66699 15.667 -20 35
c-10.667 17.333 -17.334 30 -20.001 38c-4 11.333 -5 24 -3 38c3.33301 17.333 10.666 30.333 21.999 39c10.667 8 27 15.333 49 22z" />
    <glyph glyph-name="afii57671" unicode="&#x5d7;" horiz-adv-x="618" 
d="M81 587c50 10 97.3369 15.1621 142.004 15.4951s95.167 -1.66699 151.5 -6s104.5 -6.5 144.5 -6.5c2 0 4.5 0.5 7.5 1.5s5.66699 1.5 8 1.5s4.16602 -1 5.49902 -3l11.5 -12c6.33301 -6.66699 10.333 -11.167 12 -13.5l8 -11.5c3.66699 -5.33301 6.16699 -10.333 7.5 -15
s2.33301 -10 3 -16c1.33301 -10.667 -2.83398 -22.5 -12.501 -35.5s-15.5 -23.167 -17.5 -30.5c-0.666992 -2.66699 -1.66699 -7 -3 -13s-2.33301 -10 -3 -12s-1.5 -5.5 -2.5 -10.5s-1.66699 -8.83301 -2 -11.5s-0.833008 -6.16699 -1.5 -10.5s-1 -8.16602 -1 -11.499v-11.5
c0 -4.33301 0.333008 -8.83301 1 -13.5c1.33301 -12 6 -25.667 14 -41s13.333 -27 16 -35c10.667 -36 16.334 -65.667 17.001 -89c1.33301 -58 -3.33398 -101.667 -14.001 -131c-4.66699 -12.667 -10.834 -22.5 -18.501 -29.5s-18.834 -14.5 -33.501 -22.5
c-5.33301 -3.33301 -11.5 -4.5 -18.5 -3.5s-11.167 4.5 -12.5 10.5c-3.33301 12.667 -2.83301 29.167 1.5 49.5s5.5 36.5 3.5 48.5c-2 12.667 -7 27.5 -15 44.5s-13.333 28.833 -16 35.5c-2 6.66699 -5.5 15.834 -10.5 27.501s-8.83301 21.834 -11.5 30.501
s-4 18.334 -4 29.001c0 12.667 1 24.5 3 35.5s5 23.167 9 36.5s7 25 9 35c6.66699 33.333 10 50.333 10 51c0 10 -3 15 -9 15h-107.5c-16.333 0 -48.166 -1.16699 -95.499 -3.5s-83 -3.83301 -107 -4.5c-6 0 -9.33301 -1.33301 -10 -4
c-0.666992 -5.33301 -0.833984 -9.16602 -0.500977 -11.499s1 -5.83301 2 -10.5s1.5 -8.66699 1.5 -12c4 -57.333 6 -91.666 6 -102.999c-0.666992 -39.333 -4.33398 -75.333 -11.001 -108c-12.667 -66.667 -25.334 -114.667 -38.001 -144
c-7.33301 -16.667 -23 -34.334 -47 -53.001c-2.66699 -2.66699 -6.66699 -4 -12 -4s-8.33301 2 -9 6c-4 6.66699 -4.33301 26.834 -1 60.501s5 53.834 5 60.501c1.33301 64.667 2.33301 99 3 103c2 18 5.16699 40.333 9.5 67s7.5 47.667 9.5 63
c6.66699 51.333 9.66699 83.666 9 96.999c0 5.33301 -3 11.666 -9 18.999s-8.66699 14 -8 20c0.666992 5.33301 1.16699 14.5 1.5 27.5s0.833008 22.833 1.5 29.5s3.33398 13.5 8.00098 20.5s11.334 11.167 20.001 12.5z" />
    <glyph glyph-name="afii57672" unicode="&#x5d8;" horiz-adv-x="585" 
d="M35 455c4 40 12.3379 71.3447 25.0049 94.0117c14.667 27.333 31.334 41.333 50.001 42c12 0.666992 22.5 -2.5 31.5 -9.5s15.167 -16.5 18.5 -28.5c2 -6.66699 2 -13 0 -19s-5.33301 -12.833 -10 -20.5s-8 -14.167 -10 -19.5c-1.33301 -3.33301 -4.33301 -10 -9 -20
s-7.33398 -18.667 -8.00098 -26c-2 -8 -2.5 -23 -1.5 -45s1.5 -37.333 1.5 -46c-0.666992 -34.667 -2.33398 -67.334 -5.00098 -98.001c-0.666992 -10.667 -2.33398 -26.5 -5.00098 -47.5s-4.33398 -38.833 -5.00098 -53.5c0 -2.66699 -0.5 -6.66699 -1.5 -12
s-1.66699 -9.5 -2 -12.5s0.166992 -6.33301 1.5 -10s3.66602 -6.83398 6.99902 -9.50098c7.33301 -3.33301 12.833 -4.83301 16.5 -4.5s9.66699 1.66602 18 3.99902s14.833 3.5 19.5 3.5c68.667 1.33301 107.334 2 116.001 2c11.333 0 25.333 -1.5 42 -4.5
s29.167 -4.83301 37.5 -5.5s21.833 0.666016 40.5 3.99902c24.667 7.33301 41.667 26.666 51 57.999c5.33301 28.667 8 48 8 58s-2 30 -6 60c-4 30.667 -13.667 63.334 -29 98.001c-6 12.667 -18 28.667 -36 48c-2 2 -5 5.16699 -9 9.5s-7 7.5 -9 9.5s-5 4.16699 -9 6.5
s-8.33301 4.16602 -13 5.49902c-12.667 3.33301 -28.334 0.666016 -47.001 -8.00098c-6 -2.66699 -12.5 -7.83398 -19.5 -15.501s-13.5 -12.834 -19.5 -15.501c-17.333 -6.66699 -34 -8.33398 -50 -5.00098c-7.33301 1.33301 -9.66602 6.66602 -6.99902 15.999l10.5 33
c4.33301 14 7.83301 24.667 10.5 32s7 16.166 13 26.499s13 19.833 21 28.5c23.333 25.333 54.333 38 93 38c18 0 33.5 -3.16699 46.5 -9.5s28.5 -16.5 46.5 -30.5c32.667 -26 56 -55.333 70 -88c17.333 -41.333 29 -95.666 35 -162.999c2 -24.667 -2 -58.334 -12 -101.001
c-13.333 -58.667 -27.666 -107.334 -42.999 -146.001c-6.66699 -15.333 -20.667 -35.666 -42 -60.999h-11h-396c-1.33301 0 -3.33301 -0.5 -6 -1.5s-4.83398 -1.5 -6.50098 -1.5s-2.5 1 -2.5 3c-2.66699 13.333 -4.33398 25.5 -5.00098 36.5s-0.833984 24.5 -0.500977 40.5
s0.5 28.333 0.5 37c-0.666992 35.333 0 78.666 2 129.999c0.666992 14 2 33.5 4 58.5s3.33301 45.833 4 62.5c0 10.667 -1.16699 25.5 -3.5 44.5s-2.83301 35.167 -1.5 48.5z" />
    <glyph glyph-name="afii57673" unicode="&#x5d9;" horiz-adv-x="261" 
d="M85 637c4 4 11.335 0.671875 22.002 -9.99512c4.66699 -4 9.5 -10 14.5 -18s9.5 -14 13.5 -18c4.66699 -4.66699 11.167 -9.83398 19.5 -15.501s14.833 -10.834 19.5 -15.501c12.667 -14 24 -29.333 34 -46c2 -2.66699 4.66699 -6.83398 8 -12.501
s5.66602 -9.83398 6.99902 -12.501s2.83301 -6.33398 4.5 -11.001s2.83398 -9.66699 3.50098 -15c1.33301 -23.333 -3.66699 -56.333 -15 -99c-5.33301 -20.667 -15.666 -42 -30.999 -64c-18 -27.333 -34 -45 -48 -53c-16 -9.33301 -29 -8.66602 -39 2.00098
c-2 2 -3.33301 4 -4 6s-0.833984 4.33301 -0.500977 7s0.833008 4.83398 1.5 6.50098s1.66699 4.33398 3 8.00098s2.33301 6.16699 3 7.5c2 6 5.83301 13.333 11.5 22s9.5 16 11.5 22c4 12.667 4 23.334 0 32.001c-2 5.33301 -4.66699 9.66602 -8 12.999s-7.33301 7 -12 11
s-8.33398 7.66699 -11.001 11c-18.667 20.667 -28.667 31.667 -30 33l-10 12l-9 10.5c-2 2.33301 -4 5.66602 -6 9.99902s-3.66699 9.16602 -5 14.499c-4.66699 21.333 -2.33398 45.666 6.99902 72.999c13.333 39.333 28.333 69 45 89z" />
    <glyph glyph-name="afii57674" unicode="&#x5da;" horiz-adv-x="443" 
d="M67 589c8.66699 3.33301 17.002 5.16895 25.002 5.50195s17.667 -0.333984 29 -2.00098s20.333 -2.5 27 -2.5c33.333 -0.666992 74.5 -1.66699 123.5 -3s84.167 -2.33301 105.5 -3c2 0 4.33301 0.5 7 1.5s4.66699 1.66699 6 2s2.66602 -0.5 3.99902 -2.5
c14.667 -25.333 20.667 -45 18 -59c-1.33301 -6 -6.5 -11.167 -15.5 -15.5s-14.5 -8.83301 -16.5 -13.5c-2.66699 -0.666992 -3.33398 -6.66699 -2.00098 -18s2 -17.333 2 -18c0 -2.66699 -0.666992 -10.5 -2 -23.5s-1.66602 -23.5 -0.999023 -31.5
c0.666992 -5.33301 4.66699 -28.666 12 -69.999l5 -25c2 -10 3.66699 -19 5 -27s2.33301 -16.667 3 -26c2 -29.333 1.33301 -68.666 -2 -117.999c-0.666992 -12.667 -1.66699 -24.667 -3 -36s-3 -23.666 -5 -36.999s-3.66699 -25.333 -5 -36
c-1.33301 -16 -2.33301 -34.667 -3 -56s-1.83398 -40.833 -3.50098 -58.5s-5.16699 -35.834 -10.5 -54.501c-6 -21.333 -20.667 -38.666 -44 -51.999c-4.66699 -2.66699 -9.66699 -2.33398 -15 0.999023s-8.33301 7.66602 -9 12.999c-2.66699 25.333 -4 48.666 -4 69.999
s0.666992 46.5 2 75.5s2 52.167 2 69.5c2.66699 137.333 5 228 7 272c0.666992 7.33301 2 16.833 4 28.5s3.33301 21.167 4 28.5c1.33301 24.667 2 56 2 94c0 2.66699 0.333008 6.66699 1 12s0.833984 9.66602 0.500977 12.999s-1.83301 6.66602 -4.5 9.99902
c-2 2.66699 -4.16699 4 -6.5 4s-5.33301 -0.666992 -9 -2s-6.83398 -2 -9.50098 -2h-50c-4.66699 0 -31.5 -0.666992 -80.5 -2s-75.833 -0.666016 -80.5 2.00098c-18 1.33301 -31.333 6.33301 -40 15c-9.33301 9.33301 -12 20.333 -8 33c8 23.333 19.667 38 35 44z" />
    <glyph glyph-name="afii57675" unicode="&#x5db;" horiz-adv-x="669" 
d="M180 519c8 14.667 13.9971 25.1641 17.9971 31.4971s10.333 13.333 19 21s18.334 13.5 29.001 17.5c18.667 6.66699 35.834 10.667 51.501 12s36.667 1.33301 63 0s44.5 -2 54.5 -2c7.33301 0 16.833 0.5 28.5 1.5s20.834 1.66699 27.501 2s14.667 -0.666992 24 -3
s18 -6.16602 26 -11.499c8.66699 -5.33301 16.167 -10.833 22.5 -16.5s12.5 -13 18.5 -22s10 -15.333 12 -19s6.5 -12.5 13.5 -26.5l12.5 -25c19.333 -37.333 31 -76.666 35 -117.999c6 -62 3.66699 -116.333 -7 -163c-2.66699 -10 -6 -19.5 -10 -28.5s-7.66699 -16 -11 -21
l-16 -23c-7.33301 -10.333 -12.666 -18.166 -15.999 -23.499c-10.667 -16 -29 -38 -55 -66c-2 -2.66699 -5 -6.16699 -9 -10.5l-9.5 -9.99902s-5.33301 -5 -9 -8s-7.83398 -5.5 -12.501 -7.5c-0.666992 -3.33301 -8.83398 -4.16602 -24.501 -2.49902s-24.167 2.5 -25.5 2.5
c-50 0 -113.833 0.333008 -191.5 1s-141.5 1 -191.5 1c-2 0 -5 -0.333008 -9 -1c-5.33301 -0.666992 -8 -0.333984 -8 0.999023c2 7.33301 6.66699 14.833 14 22.5s12 13.834 14 18.501c6 12 13.5 28.833 22.5 50.5s17.167 39.5 24.5 53.5h8
c34 0.666992 73.833 0.333984 119.5 -0.999023s87.334 -1.83301 125.001 -1.5s77.167 2.5 118.5 6.5c21.333 2 38.666 13.667 51.999 35c22 35.333 33.333 70.666 34 105.999c1.33301 48 -8.66699 84.333 -30 109c-13.333 15.333 -27.333 26 -42 32s-35 11 -61 15
c-20.667 5.33301 -54.667 7.16602 -102 5.49902s-81.666 -1.83398 -102.999 -0.500977c-24 1.33301 -39 6.33301 -45 15c-10 15.333 -9.66699 32.333 1 51z" />
    <glyph glyph-name="afii57676" unicode="&#x5dc;" horiz-adv-x="247" 
d="M65 699c1.33301 2 2.8252 3.33398 4.49219 4.00098s4.33398 0.666992 8.00098 0s6.16699 -1 7.5 -1c10 0 23.167 2 39.5 6s30.333 6 42 6s23.167 -4 34.5 -12c8.66699 -6 13.667 -13 15 -21s0.833008 -19.167 -1.5 -33.5s-3.5 -24.833 -3.5 -31.5
c0 -25.333 -2.66699 -48 -8 -68c-3.33301 -10.667 -8.66602 -24 -15.999 -40s-12.666 -29.333 -15.999 -40c-8.66699 -30.667 -14.667 -62.334 -18 -95.001c-2.66699 -24.667 -2.66699 -49.334 0 -74.001c1.33301 -9.33301 3.83301 -20.833 7.5 -34.5
s6.16699 -24.5 7.5 -32.5c3.33301 -26.667 4.33301 -46 3 -58c-5.33301 -48.667 -13 -88.334 -23 -119.001c-0.666992 -2.66699 -2 -7.16699 -4 -13.5s-3.66699 -11 -5 -14s-3.16602 -6.66699 -5.49902 -11s-5.16602 -7.66602 -8.49902 -9.99902s-7.33301 -3.83301 -12 -4.5
c-11.333 -2 -21.666 0.666992 -30.999 8s-15.666 17.333 -18.999 30c-5.33301 13.333 -5.5 33.666 -0.5 60.999s6.5 48 4.5 62c-2 20 -7.66699 44.833 -17 74.5s-15.333 54.5 -18 74.5c-2.66699 24 -1 54 5 90c0.666992 2.66699 1.33398 7 2.00098 13
s1.16699 10.167 1.5 12.5s1 6 2 11s2 8.83301 3 11.5s2.16699 6 3.5 10s2.83301 7.83301 4.5 11.5s3.83398 7.5 6.50098 11.5c5.33301 9.33301 15.166 18.833 29.499 28.5s24.5 18.5 30.5 26.5c14.667 20.667 20.667 40.334 18 59.001c-0.666992 3.33301 -1.5 6.5 -2.5 9.5
s-3 6.16699 -6 9.5s-5 5.5 -6 6.5s-4 3.33301 -9 7s-7.83301 5.83398 -8.5 6.50098c-4.66699 4 -12.667 7.66699 -24 11s-19.333 8.33301 -24 15c-6 8.66699 -3.66699 21 7 37z" />
    <glyph glyph-name="afii57677" unicode="&#x5dd;" horiz-adv-x="650" 
d="M368 429c-54.667 2.66699 -90.667 3.33105 -108 1.99805c-5.33301 0 -8.66602 -3.33301 -9.99902 -10c-6 -23.333 -8.66699 -43.333 -8 -60c1.33301 -24 1.33301 -44.333 0 -61s-0.5 -34.667 2.5 -54s8.83301 -38.333 17.5 -57c2 -4 4.33301 -7.66699 7 -11s5 -6 7 -8
s5.16699 -4 9.5 -6l10 -4.5c2.33301 -1 6.16602 -2.16699 11.499 -3.5s9 -2.16602 11 -2.49902s6.33301 -1.16602 13 -2.49902s11 -2 13 -2c22 -4 37 -6.66699 45 -8s19.5 -1.5 34.5 -0.5s29.5 4.5 43.5 10.5c6.66699 2.66699 12.5 5.83398 17.5 9.50098
s9.66699 8.5 14 14.5l10 14c2.33301 3.33301 5.66602 9.66602 9.99902 18.999s7.5 15.666 9.5 18.999c10.667 20.667 14.667 42 12 64c-2.66699 20.667 -12 46 -28 76c-0.666992 2 -2.5 5.83301 -5.5 11.5s-5.16699 9.33398 -6.5 11.001s-3.33301 4.66699 -6 9
s-5.16699 7.5 -7.5 9.5s-5.16602 4.16699 -8.49902 6.5s-7 4.5 -11 6.5c-10.667 4.66699 -21 7.5 -31 8.5s-21.667 1 -35 0s-24.333 -1.16699 -33 -0.5zM48 604.997c15.333 18.667 41.3379 20.666 78.0049 5.99902c9.33301 -4 17 -9.16699 23 -15.5s12.333 -14.333 19 -24
s12.667 -17.167 18 -22.5c2.66699 -2.66699 5.5 -7.16699 8.5 -13.5s6 -11.166 9 -14.499s7.16699 -4.66602 12.5 -3.99902c8.66699 1.33301 16.667 8.16602 24 20.499s14.666 20.166 21.999 23.499c5.33301 2.66699 14.333 6.83398 27 12.501l24.5 11
c3.66699 1.66699 11.667 4.5 24 8.5s20.833 5.33301 25.5 4s14.334 -2 29.001 -2c30.667 -4.66699 56.5 -12.834 77.5 -24.501s43.833 -29.5 68.5 -53.5c4.66699 -4.66699 9.16699 -9.5 13.5 -14.5s7.83301 -9.33301 10.5 -13s5.66699 -8.66699 9 -15
s5.66602 -11 6.99902 -14s3.5 -8.33301 6.5 -16s4.83301 -12.667 5.5 -15s2.66699 -8.33301 6 -18s5.33301 -15.834 6 -18.501c14.667 -43.333 20 -83.333 16 -120c-4 -34.667 -9 -62.5 -15 -83.5s-16.333 -43.833 -31 -68.5c-14 -23.333 -28.5 -41.833 -43.5 -55.5
s-35.5 -28.5 -61.5 -44.5c-24 -14.667 -56.333 -22 -97 -22c-11.333 0 -21.833 1.33301 -31.5 4s-20.334 6.16699 -32.001 10.5s-21.834 7.5 -30.501 9.5c-2 0.666992 -4.66699 1.83398 -8 3.50098s-5.5 2.5 -6.5 2.5s-2.83301 -0.666992 -5.5 -2
c-18 -23.333 -39.667 -58.166 -65 -104.499s-49.666 -82.833 -72.999 -109.5c-8.66699 -9.33301 -18.334 -15.666 -29.001 -18.999s-19.667 -1 -27 7c-3.33301 4 -5.66602 8.5 -6.99902 13.5s-2.16602 9 -2.49902 12s0.166992 7.83301 1.5 14.5s2.33301 11 3 13
s2.5 7 5.5 15s4.83301 12.667 5.5 14c5.33301 14.667 15.333 31.5 30 50.5s24 31.5 28 37.5c18.667 28.667 29.334 46 32.001 52l10.5 21l10 20.5c2.33301 5 4.66602 11.333 6.99902 19s3.83301 15.5 4.5 23.5c1.33301 7.33301 1.5 17.5 0.5 30.5s-2 22.167 -3 27.5
s-2.83301 14.5 -5.5 27.5s-4.66699 23.167 -6 30.5c-12 68 -23.333 114.667 -34 140c-3.33301 9.33301 -7.5 17.5 -12.5 24.5s-11.333 14.833 -19 23.5s-13.834 16 -18.501 22c-4.66699 6.66699 -11.334 14.167 -20.001 22.5s-15.834 16.166 -21.501 23.499
s-9.83398 16 -12.501 26c-12 44.667 -8.66699 78 10 100z" />
    <glyph glyph-name="afii57678" unicode="&#x5de;" horiz-adv-x="563" 
d="M33 11c-2.66699 18 -3.33203 30.5127 -1.99902 37.5127s4.33301 18.167 9 33.5s7.66699 28 9 38c12 94.667 18.333 148.667 19 162c1.33301 28.667 0.5 62 -2.5 100s-5 67.833 -6 89.5s1.83301 54.5 8.5 98.5c4.66699 26 25.334 39 62.001 39c26 0 46 -13.333 60 -40
c5.33301 -10 8.83301 -20.667 10.5 -32s2.16699 -21.833 1.5 -31.5s-0.333984 -21.5 0.999023 -35.5c2 -34.667 2 -63.334 0 -86.001c-0.666992 -6 -2.66699 -13.667 -6 -23s-5.33301 -17.333 -6 -24c0 -1.33301 3 -2 9 -2c2.66699 0 6.33398 -0.833008 11.001 -2.5
s8.5 -2.33398 11.5 -2.00098s5.5 1.83301 7.5 4.5c7.33301 11.333 12.5 27.166 15.5 47.499s7.16699 35.833 12.5 46.5c18.667 38 43.334 74.333 74.001 109l15 19c7.33301 9.33301 12.666 15.666 15.999 18.999s8.66602 7.16602 15.999 11.499s15 7.16602 23 8.49902
c15.333 2 29.166 -0.5 41.499 -7.5s21.166 -17.5 26.499 -31.5c4 -10.667 1.33301 -23.834 -8 -39.501s-14.333 -27.167 -15 -34.5c-3.33301 -23.333 -2 -41.333 4 -54c5.33301 -12 14.666 -25.167 27.999 -39.5s22.333 -24.833 27 -31.5
c5.33301 -7.33301 8.33301 -13.666 9 -18.999c8.66699 -49.333 13.667 -88.333 15 -117c0 -7.33301 0.333008 -17.5 1 -30.5l1.5 -29.5c0.333008 -6.66699 0.5 -15 0.5 -25s-0.666992 -19.667 -2 -29s-3 -19.333 -5 -30c-0.666992 -2.66699 -1.66699 -8.33398 -3 -17.001
s-2.5 -14.5 -3.5 -17.5s-2.5 -7.83301 -4.5 -14.5s-4 -11.667 -6 -15s-5 -7.16602 -9 -11.499s-8.66699 -7.83301 -14 -10.5c-23.333 -12.667 -46.666 -4 -69.999 26c-5.33301 6.66699 -8.5 13.667 -9.5 21s-1 16.166 0 26.499s1.16699 18.833 0.5 25.5
c-0.666992 7.33301 -1.16699 19.5 -1.5 36.5s-1.5 31.167 -3.5 42.5s-6.5 24.666 -13.5 39.999s-11.5 25.666 -13.5 30.999s-5 15.666 -9 30.999s-8.33301 27.666 -13 36.999c-6 12 -14 23 -24 33c-6 6 -10.333 7 -13 3c-12.667 -16.667 -23.667 -31.834 -33 -45.501
s-20.833 -32 -34.5 -55s-23.5 -39.167 -29.5 -48.5c-9.33301 -14.667 -24.166 -39.834 -44.499 -75.501s-38.833 -65.167 -55.5 -88.5c-11.333 -16 -24.333 -26 -39 -30c-28 -6 -43.667 -3 -47 9z" />
    <glyph glyph-name="afii57679" unicode="&#x5df;" horiz-adv-x="189" 
d="M30 604c0 3.33301 0.500977 6.49805 1.50098 9.49805s2.66699 6 5 9s4.33301 5.33301 6 7s4.5 4 8.5 7s6.66699 5.16699 8 6.5c3.33301 2.66699 8 7 14 13s10.667 10.167 14 12.5s7.83301 4.83301 13.5 7.5s11.834 4.33398 18.501 5.00098c16.667 2 29.667 -8 39 -30
c2 -4.66699 0.333008 -9.83398 -5 -15.501s-8 -10.5 -8 -14.5c-0.666992 -5.33301 0.5 -11.666 3.5 -18.999s4.5 -13 4.5 -17s-0.666992 -19.667 -2 -47l-2.5 -35.5l-2.5 -35.5c-1.33301 -12 -2.66602 -27.167 -3.99902 -45.5s-2.66602 -33.5 -3.99902 -45.5l-2 -29.5
c-0.666992 -9.66699 -1.16699 -20.167 -1.5 -31.5s-0.833008 -21.333 -1.5 -30c-0.666992 -6.66699 -1.33398 -15.5 -2.00098 -26.5s-1.33398 -19.833 -2.00098 -26.5c-0.666992 -14 -1.16699 -39.333 -1.5 -76s-1.16602 -67.667 -2.49902 -93
c-1.33301 -17.333 -2.33301 -41.833 -3 -73.5s-2.16699 -58.5 -4.5 -80.5s-6.83301 -46 -13.5 -72c-3.33301 -11.333 -9.33301 -20.666 -18 -27.999s-18.334 -9.66602 -29.001 -6.99902c-4.66699 0.666992 -8 3 -10 7s-3.16699 7.66699 -3.5 11s-0.5 8.5 -0.5 15.5v14.5
c-2.66699 56 -2.33398 131 0.999023 225c0.666992 20 2.5 44.833 5.5 74.5s4.83301 48.834 5.5 57.501c0.666992 11.333 2.16699 28.166 4.5 50.499s3.83301 41.166 4.5 56.499c3.33301 74 4.66602 126 3.99902 156c-1.33301 32 -5 59 -11 81
c-1.33301 6 -6.33301 14.167 -15 24.5s-12.667 19.833 -12 28.5z" />
    <glyph glyph-name="afii57680" unicode="&#x5e0;" horiz-adv-x="323" 
d="M99 510c-0.666992 3.33301 -0.834961 6.49805 -0.501953 9.49805s1.5 6.16699 3.5 9.5l4.5 7.5c1 1.66699 3.33301 4.16699 7 7.5s6 5.33301 7 6s4 2.83398 9 6.50098s7.83301 5.83398 8.5 6.50098c16.667 13.333 39.667 23 69 29c2 0.666992 7 2 15 4
s13.5 3.16699 16.5 3.5s7 0 12 -1s9.5 -3.16699 13.5 -6.5c6 -6 10 -12.333 12 -19s3.16699 -15.667 3.5 -27s0.833008 -19.333 1.5 -24c2 -13.333 3.5 -29.833 4.5 -49.5s1.83301 -32.5 2.5 -38.5c3.33301 -41.333 5 -62.666 5 -63.999c0 -28 -1 -61.333 -3 -100
c-1.33301 -44.667 -3 -71 -5 -79s-6 -17 -12 -27s-10 -18 -12 -24c-2.66699 -6.66699 -6 -18.167 -10 -34.5s-8.66699 -29.5 -14 -39.5c-16 -27.333 -37 -51.666 -63 -72.999c-12 -10 -29 -16 -51 -18c-16 -2 -32.333 0.333008 -49 7c-19.333 7.33301 -31.333 16 -36 26
c-9.33301 18.667 -10 36 -2 52c2.66699 6 6.33398 11.167 11.001 15.5s10.5 8.66602 17.5 12.999s12.5 8.16602 16.5 11.499c10.667 8.66699 23.667 18 39 28s28.833 19.667 40.5 29s22.834 20.666 33.501 33.999c4 4.66699 6.83301 10 8.5 16s2.5 10.833 2.5 14.5
s-0.166992 9.5 -0.5 17.5s-0.5 14 -0.5 18c0 9.33301 0.333008 22.666 1 39.999l1.5 38.5c0.333008 8.33301 -0.333984 19.333 -2.00098 33s-4.16699 27.5 -7.5 41.5c-2 6.66699 -5.16699 12.334 -9.5 17.001s-10.166 9.33398 -17.499 14.001s-13 9 -17 13
c-4.66699 5.33301 -11.834 10.833 -21.501 16.5s-17.167 11.5 -22.5 17.5s-8.66602 13.333 -9.99902 22z" />
    <glyph glyph-name="afii57681" unicode="&#x5e1;" horiz-adv-x="574" 
d="M202 437c-5.33301 -3.33301 -10.002 -7.00195 -14.002 -11.002s-7.16699 -9.5 -9.5 -16.5l-5 -15c-1 -3 -2.16699 -9.83301 -3.5 -20.5s-2.33301 -17 -3 -19c-8 -46 -10.667 -99 -8 -159v-7.5c0 -3.66699 0.166992 -6 0.5 -7s0.5 -3.16699 0.5 -6.5
s0.166992 -5.66602 0.5 -6.99902l1.5 -6c0.666992 -2.66699 1.33398 -4.66699 2.00098 -6s1.5 -3.16602 2.5 -5.49902s2 -4.16602 3 -5.49902s2.33301 -2.83301 4 -4.5s3.5 -3.16699 5.5 -4.5c7.33301 -4.66699 14.666 -7.33398 21.999 -8.00098
s16.166 -0.333984 26.499 0.999023s18.833 2 25.5 2c10 0 23.167 -0.833008 39.5 -2.5s30.5 -2.5 42.5 -2.5s24.667 1.66699 38 5c12.667 3.33301 23.334 8.16602 32.001 14.499s18.334 15.833 29.001 28.5c20.667 24 32 46.333 34 67c2.66699 26.667 -4 55.334 -20 86.001
c-15.333 28.667 -37 53 -65 73c-23.333 16.667 -52.666 28.334 -87.999 35.001c-4.66699 0.666992 -12.834 2.5 -24.501 5.5s-20 4.83301 -25 5.5s-11.667 0.5 -20 -0.5s-16.166 -3.83301 -23.499 -8.5zM32.998 489.998c10.667 24.667 24.999 43.335 42.999 56.002
s42.333 23.667 73 33c9.33301 2.66699 20 -1.66602 32 -12.999s21.667 -18 29 -20c15.333 -3.33301 34.333 -0.666016 57 8.00098c9.33301 3.33301 21.833 11 37.5 23s30.167 19 43.5 21c26 3.33301 52 -4 78 -22c14 -9.33301 24.667 -19.333 32 -30
s15.666 -25.667 24.999 -45l21.5 -41.5c10.333 -19.667 17.333 -33.667 21 -42s7.66699 -20.5 12 -36.5s6.5 -32.333 6.5 -49c0 -13.333 -0.666992 -25.666 -2 -36.999s-4.33301 -23.5 -9 -36.5s-8.33398 -22.667 -11.001 -29s-8.16699 -17.833 -16.5 -34.5
s-13.833 -28 -16.5 -34c-16 -34.667 -41.333 -70.667 -76 -108c-1.33301 -1.33301 -3.33301 -3.5 -6 -6.5s-4.5 -5 -5.5 -6s-2.66699 -2.83301 -5 -5.5s-4.16602 -4.5 -5.49902 -5.5s-3.16602 -2.5 -5.49902 -4.5s-4.33301 -3.5 -6 -4.5s-3.66699 -2.33301 -6 -4
s-4.66602 -2.83398 -6.99902 -3.50098s-4.83301 -1.5 -7.5 -2.5s-5.33398 -1.83301 -8.00098 -2.5c-16 -3.33301 -32 -5.83301 -48 -7.5s-28.667 -2.33398 -38 -2.00098s-24.5 1 -45.5 2s-36.167 1.5 -45.5 1.5c-42 1.33301 -71.333 15 -88 41
c-7.33301 11.333 -11.666 22.666 -12.999 33.999s-1 25.333 1 42s3 29.667 3 39c0 1.33301 1.66699 32.333 5 93c0.666992 7.33301 2.5 23.166 5.5 47.499s4.16699 44.833 3.5 61.5c-0.666992 12 -5.66699 28.667 -15 50c-3.33301 8 -9.83301 16.833 -19.5 26.5
s-17 18.667 -22 27s-5.5 17.166 -1.5 26.499z" />
    <glyph glyph-name="afii57682" unicode="&#x5e2;" horiz-adv-x="585" 
d="M183 592c28.667 5.33301 57.0088 -7.99609 85.0088 -39.9961c4 -4.66699 7.33301 -9.33398 10 -14.001s4.66699 -8.83398 6 -12.501s2.5 -8.5 3.5 -14.5s1.66699 -10.667 2 -14s0.833008 -8.83301 1.5 -16.5s1 -13.167 1 -16.5c1.33301 -12 0 -27 -4 -45
s-6.33301 -30.333 -7 -37c-2.66699 -30 -3.33398 -50 -2.00098 -60c0.666992 -7.33301 1.66699 -17.333 3 -30l3 -29c0.666992 -6.66699 1.83398 -14.834 3.50098 -24.501s3.66699 -19 6 -28s5.16602 -18.5 8.49902 -28.5c9.33301 -25.333 20.666 -34.666 33.999 -27.999
c28 15.333 50.5 31 67.5 47s33.5 37.333 49.5 64c9.33301 15.333 14.333 31.666 15 48.999s-1.33301 35 -6 53c-4 24 -17.667 51.333 -41 82c-6 8 -16 16 -30 24s-24 16.333 -30 25c-13.333 20.667 -16 38.667 -8 54c16 29.333 36 44 60 44c40.667 0 75.667 -15 105 -45
c6.66699 -6.66699 11 -14.167 13 -22.5s3.16699 -18.333 3.5 -30s1.16602 -21.167 2.49902 -28.5c1.33301 -8 3.83301 -18.167 7.5 -30.5s6.33398 -23.166 8.00098 -32.499s2.16699 -19.666 1.5 -30.999c-0.666992 -8.66699 -1.66699 -16.667 -3 -24s-3.5 -15.5 -6.5 -24.5
s-5.16699 -15.333 -6.5 -19s-4.66602 -11.334 -9.99902 -23.001s-8.66602 -19.167 -9.99902 -22.5c-19.333 -44.667 -38 -78.334 -56 -101.001l-20.5 -25.5l-20.5 -25.5l-17.5 -21c-8.33301 -10 -14.833 -17.333 -19.5 -22l-19 -18.5c-8 -7.66699 -16 -14.834 -24 -21.501
s-16.667 -13.334 -26 -20.001c-10.667 -8 -21.334 -13.667 -32.001 -17s-23.5 -6 -38.5 -8s-27.167 -4.33301 -36.5 -7c-10.667 -2.66699 -23.334 -7.33398 -38.001 -14.001s-28.167 -11.667 -40.5 -15s-25.5 -4.33301 -39.5 -3
c-12.667 0.666992 -22.834 4.66699 -30.501 12s-15.834 18.333 -24.501 33c-9.33301 16.667 -8 31 4 43c6 6.66699 12.667 12.5 20 17.5s13.5 8.66699 18.5 11l23 10.5c10.333 4.66699 18.166 8 23.499 10c7.33301 3.33301 20 6.83301 38 10.5s32 9.5 42 17.5
c19.333 16 30.666 38.667 33.999 68c1.33301 15.333 -1 34.333 -7 57s-9.66699 37.334 -11 44.001c-0.666992 5.33301 -1.83398 20 -3.50098 44s-5.16699 43.333 -10.5 58c-3.33301 10 -7.83301 18.833 -13.5 26.5s-12.334 15.834 -20.001 24.501s-13.834 16.667 -18.501 24
c-4 6 -10.5 12.833 -19.5 20.5s-15.833 15 -20.5 22s-6 14.833 -4 23.5c8 39.333 32 63 72 71z" />
    <glyph glyph-name="afii57683" unicode="&#x5e3;" horiz-adv-x="303" 
d="M94 699c6.66699 2 12.9961 0.834961 18.9961 -3.49805s10.5 -9 13.5 -14s6.83301 -12.5 11.5 -22.5c4 -7.33301 5.5 -17 4.5 -29s-0.5 -22.333 1.5 -31c4 -14.667 10 -22 18 -22c7.33301 0 16.5 3.66699 27.5 11s20.5 10.333 28.5 9
c21.333 -2.66699 36 -14.334 44 -35.001c8.66699 -23.333 11.334 -57.666 8.00098 -102.999c-1.33301 -13.333 -5 -29.666 -11 -48.999s-9.66699 -35 -11 -47c-2 -6.66699 -2.16699 -20.834 -0.5 -42.501s2.5 -36.167 2.5 -43.5
c0.666992 -69.333 0.666992 -138.666 0 -207.999c0 -12 -1.33301 -39.333 -4 -82c-4 -64 -7.66699 -102.667 -11 -116c-2.66699 -10.667 -10.667 -23.334 -24 -38.001c-2.66699 -2.66699 -6 -6.66699 -10 -12s-7.16699 -9.33301 -9.5 -12s-5.66602 -5 -9.99902 -7
s-9.16602 -3 -14.499 -3c-2 0 -3.83301 0.333008 -5.5 1s-3.16699 1.83398 -4.5 3.50098s-2.33301 3.16699 -3 4.5s-1.33398 3.5 -2.00098 6.5s-1.16699 5.16699 -1.5 6.5s-0.666016 3.66602 -0.999023 6.99902s-0.5 5.66602 -0.5 6.99902c-0.666992 4 -0.5 7.66699 0.5 11
s2.33301 7 4 11s2.83398 7.33301 3.50098 10c7.33301 24.667 11.333 39.334 12 44.001c6 39.333 9.66699 74 11 104c0.666992 23.333 -0.666016 47.333 -3.99902 72c-1.33301 9.33301 -4 21.666 -8 36.999s-6.66699 28.333 -8 39c-0.666992 12.667 -1 21.167 -1 25.5
s0.5 11.833 1.5 22.5s1.5 19.334 1.5 26.001c2 44 4 78 6 102c0.666992 13.333 2.5 28.5 5.5 45.5s5.16699 32.667 6.5 47s1.33301 29.5 0 45.5c-2.66699 24 -12 38 -28 42c-6.66699 1.33301 -13.667 -2.33398 -21 -11.001s-13.666 -13.667 -18.999 -15
c-23.333 -6.66699 -38 -7.33398 -44 -2.00098c-1.33301 1.33301 -2.66602 3.33301 -3.99902 6c-4.66699 10 -3.83398 23.5 2.49902 40.5s8.16602 30.167 5.49902 39.5c-2 8 -10 16.167 -24 24.5s-20 16.833 -18 25.5c7.33301 37.333 28.666 61.333 63.999 72z" />
    <glyph glyph-name="afii57684" unicode="&#x5e4;" horiz-adv-x="527" 
d="M65 584c10 5.33301 20.5029 9.16113 31.5029 11.4941s19.5 3.66602 25.5 3.99902s16.833 0.333008 32.5 0s26.167 -0.5 31.5 -0.5c13.333 0 35.833 1.16699 67.5 3.5s57.334 2.33301 77.001 0s40.5 -8.5 62.5 -18.5c9.33301 -4.66699 17.666 -9.83398 24.999 -15.501
s13.666 -13 18.999 -22s9.33301 -16.5 12 -22.5s6.66699 -15.833 12 -29.5l11 -28.5c4 -9.33301 7.16699 -18.333 9.5 -27s4.16602 -17.667 5.49902 -27s2.33301 -17 3 -23s1.33398 -15.333 2.00098 -28s1.33398 -22.334 2.00098 -29.001
c3.33301 -43.333 2.66602 -78 -2.00098 -104c-7.33301 -43.333 -19.333 -82 -36 -116c-4.66699 -10.667 -13 -22 -25 -34s-20 -21 -24 -27c-4 -5.33301 -9.33301 -14.666 -16 -27.999s-13.667 -23.333 -21 -30c-2 -1.33301 -3.66699 -1.5 -5 -0.5s-3.16602 2.5 -5.49902 4.5
s-4.5 3 -6.5 3c-34.667 0.666992 -87.167 0.166992 -157.5 -1.5s-122.833 -1.16699 -157.5 1.5c-3.33301 0 -4.33301 5.66699 -3 17c0.666992 4 1.16699 9.5 1.5 16.5s0.833008 12.333 1.5 16s1.66699 8.33398 3 14.001s3.33301 11.167 6 16.5c12 24.667 27.667 45 47 61
c19.333 16.667 36.333 23.667 51 21c4.66699 -1.33301 7.5 -6.66602 8.5 -15.999s3.5 -15 7.5 -17c6 -2.66699 12.167 -4 18.5 -4s13.333 0.666992 21 2s14.167 2 19.5 2c12.667 0 28.5 -1.33301 47.5 -4s33 -4.16699 42 -4.5s24.5 1.5 46.5 5.5
c4.66699 1.33301 9 3.16602 13 5.49902s7.5 5.5 10.5 9.5s5.16699 7.5 6.5 10.5l6.5 14l6.5 13.5c8 17.333 13.667 40.333 17 69c1.33301 12 0 32 -4 60c-0.666992 4 -1.16699 9.16699 -1.5 15.5s-0.666016 11.333 -0.999023 15s-1.33301 8 -3 13
s-4.16699 9.83301 -7.5 14.5c-5.33301 8 -10.666 14.5 -15.999 19.5s-13 11 -23 18l-21 14.5c-20 14.667 -37.333 25.334 -52 32.001c-0.666992 1.33301 -3.33398 1.5 -8.00098 0.5s-7.33398 -1.5 -8.00098 -1.5c-10 0 -22.5 0.666992 -37.5 2s-28.333 2 -40 2
s-23.834 -1.33301 -36.501 -4c-3.33301 -0.666992 -5.5 -2.16699 -6.5 -4.5s-1.16699 -6.5 -0.5 -12.5s1 -9.33301 1 -10c0 -3.33301 -0.333008 -7.83301 -1 -13.5l-1.5 -13c-0.333008 -3 0 -6.66699 1 -11s2.5 -8.5 4.5 -12.5c4.66699 -8.66699 13.667 -17.5 27 -26.5
s22.333 -18.167 27 -27.5c6 -12.667 6.66699 -32.667 2 -60c-0.666992 -3.33301 -1.5 -8.16602 -2.5 -14.499s-1.83301 -11 -2.5 -14s-1.83398 -6.83301 -3.50098 -11.5s-3.83398 -8.66699 -6.50098 -12s-6 -6.66602 -10 -9.99902c-13.333 -10 -30.333 -9 -51 3
c-18.667 10 -37.667 28.667 -57 56l-7 10l-7 10c-1.33301 2 -3.33301 4.83301 -6 8.5s-4.5 6.83398 -5.5 9.50098s-2.33301 5.83398 -4 9.50098s-2.83398 7.33398 -3.50098 11.001s-1 7.5 -1 11.5c-1.33301 20 6.33398 48.667 23.001 86c2 4 7 8 15 12s12 8.66699 12 14
c0 6.66699 -1.33301 12.334 -4 17.001s-7 10.167 -13 16.5s-10 10.833 -12 13.5c-2.66699 3.33301 -9 8 -19 14s-15 12.333 -15 19c0 32 11.667 54.333 35 67z" />
    <glyph glyph-name="afii57685" unicode="&#x5e5;" horiz-adv-x="305" 
d="M128 605c3.33301 5.33301 8.66699 12.332 16 20.999s12.833 16.334 16.5 23.001s6.16699 14.667 7.5 24c0.666992 7.33301 -4.16602 16 -14.499 26s-14.166 18.667 -11.499 26c0.666992 2.66699 1.83398 5.16699 3.50098 7.5s3.16699 4.33301 4.5 6
s3.5 3.33398 6.5 5.00098s5.16699 2.83398 6.5 3.50098s3.83301 1.5 7.5 2.5s6.33398 1.66699 8.00098 2s4.66699 1 9 2s7.16602 1.5 8.49902 1.5c18 4 30.167 6.16699 36.5 6.5s17.5 -2.5 33.5 -8.5c2.66699 -2 4.83398 -4.16699 6.50098 -6.5s2.5 -5.16602 2.5 -8.49902
s-0.166992 -6.16602 -0.5 -8.49902s-1 -5.83301 -2 -10.5s-1.83301 -8 -2.5 -10c-3.33301 -16.667 -11.333 -35.334 -24 -56.001c-2.66699 -5.33301 -15.334 -21.333 -38.001 -48c-3.33301 -4 -11.166 -11.5 -23.499 -22.5s-20.5 -21.5 -24.5 -31.5
c-3.33301 -8.66699 -5.5 -16.667 -6.5 -24s-1.16699 -17.5 -0.5 -30.5s1 -21.5 1 -25.5c0 -12 0.666992 -26.833 2 -44.5s2 -30.834 2 -39.501c0.666992 -54 0.666992 -108 0 -162c0 -14.667 0.166992 -33.334 0.5 -56.001s0.333008 -42.667 0 -60s-1.83301 -36 -4.5 -56
c-2 -14 -4.66699 -28 -8 -42s-5.83301 -24.167 -7.5 -30.5s-5.83398 -19.166 -12.501 -38.499s-11 -31.666 -13 -36.999c-2.66699 -7.33301 -5.66699 -18.833 -9 -34.5s-7 -28.334 -11 -38.001s-10.667 -18.834 -20 -27.501c-6 -6 -13.333 -5.83301 -22 0.5
s-14.667 14.166 -18 23.499c-2 12 -3.16699 19.667 -3.5 23s1 10.5 4 21.5s4.83301 18.833 5.5 23.5l10.5 58.5l10.5 57.5c5.33301 32.667 8.66602 58.667 9.99902 78c1.33301 23.333 2.66602 65.333 3.99902 126c1.33301 65.333 2 107.333 2 126
c0 12.667 -0.833008 31 -2.5 55s-2.16699 44.333 -1.5 61c2 40 6.66699 69.333 14 88c4 10 11.167 21 21.5 33s17.166 20.333 20.499 25z" />
    <glyph glyph-name="afii57686" unicode="&#x5e6;" horiz-adv-x="266" 
d="M40 683c22 27.333 44.0029 45.6719 66.0029 55.0049c32.667 13.333 58 14.666 76 3.99902c5.33301 -3.33301 9.66602 -7.5 12.999 -12.5s5.5 -9.66699 6.5 -14s2.16699 -10.333 3.5 -18s2.66602 -13.834 3.99902 -18.501c12.667 -42.667 19 -75 19 -97
c0 -30 -7 -57.333 -21 -82c-3.33301 -6 -10.5 -11.167 -21.5 -15.5s-18.5 -9.16602 -22.5 -14.499c-12.667 -16.667 -16.334 -31.334 -11.001 -44.001c3.33301 -8.66699 11 -16.667 23 -24s20 -14.333 24 -21c6 -10.667 13.667 -36 23 -76s13.666 -66.667 12.999 -80
c-0.666992 -24.667 -7 -49.334 -19 -74.001c-10 -20 -25.667 -41.667 -47 -65c-12 -14 -32.333 -32.333 -61 -55c-2 -2 -4.83301 -5.16699 -8.5 -9.5s-7.16699 -7.5 -10.5 -9.5s-7 -2.66699 -11 -2c-28 4 -42 15 -42 33c0 8.66699 2.16699 16.167 6.5 22.5
s10.333 13.166 18 20.499s13.5 13.666 17.5 18.999c3.33301 4.66699 9.83301 12.167 19.5 22.5s16.5 19.833 20.5 28.5c14.667 31.333 20.334 55.666 17.001 72.999c-1.33301 7.33301 -3.5 14 -6.5 20s-5.83301 10.833 -8.5 14.5s-6.66699 8.83398 -12 15.501l-13 16
c-4.66699 6.66699 -15.334 16.834 -32.001 30.501s-27 27.5 -31 41.5c-3.33301 13.333 -3.16602 25.333 0.500977 36s11.167 24 22.5 40c6 8.66699 16.833 17.167 32.5 25.5s26.5 17.166 32.5 26.499c10 16 12.333 36.667 7 62c-4 20.667 -14.667 39 -32 55
c-6 6 -16.167 11.5 -30.5 16.5s-24.5 11.167 -30.5 18.5c-8 9.33301 -6 21.333 6 36z" />
    <glyph glyph-name="afii57687" unicode="&#x5e7;" horiz-adv-x="439" 
d="M53 126c6.66699 72 11.6689 117.334 15.002 136.001c1.33301 6 2.16602 16 2.49902 30s2 25.167 5 33.5s8.5 15.833 16.5 22.5c7.33301 6 15.5 5 24.5 -3s14.833 -17.667 17.5 -29c4 -14.667 6.16699 -28.167 6.5 -40.5s-0.333984 -27.5 -2.00098 -45.5
s-2.5 -32 -2.5 -42c-1.33301 -55.333 -3 -91.333 -5 -108c-2 -14 -5.5 -31.667 -10.5 -53s-8.16699 -39 -9.5 -53c-1.33301 -12 -2.33301 -34 -3 -66s-4 -58.333 -10 -79c-8 -26 -21.333 -37.667 -40 -35c-15.333 2 -24.333 16.667 -27 44
c-0.666992 22 -0.666992 37.333 0 46s2.5 22.167 5.5 40.5s4.83301 33.833 5.5 46.5c0.666992 8 1.16699 18.167 1.5 30.5s0.833008 22.5 1.5 30.5c4 53.333 6.66699 84.666 8 93.999zM70.002 583.001c5.33301 6 11.1689 9.33496 17.502 10.002s15 -0.333008 26 -3
s18.5 -4.33398 22.5 -5.00098c29.333 -4 64.666 -12.667 105.999 -26l27.5 -7.5c11 -3 19.667 -5.5 26 -7.5s13.666 -5.16699 21.999 -9.5s16.5 -9.5 24.5 -15.5c4.66699 -3.33301 8.83398 -7.16602 12.501 -11.499l9 -10.5c2.33301 -2.66699 5 -6.83398 8 -12.501
s5 -9.83398 6 -12.501s3 -7.66699 6 -15s5.16699 -12.333 6.5 -15c10 -23.333 16 -51.333 18 -84s-1 -64.667 -9 -96c-5.33301 -22.667 -17 -46.334 -35 -71.001c-3.33301 -4.66699 -7.83301 -11.5 -13.5 -20.5s-10.167 -15.833 -13.5 -20.5s-8 -9.83398 -14 -15.501
s-13 -10.5 -21 -14.5c-8.66699 -4.66699 -18.167 -5.5 -28.5 -2.5s-16.833 9.16699 -19.5 18.5c-2 6.66699 -1.83301 12.834 0.5 18.501s6.33301 12 12 19s9.5 12.833 11.5 17.5c4 8.66699 13.333 25.834 28 51.501s25 48.167 31 67.5c7.33301 26.667 6 51.334 -4 74.001
c-9.33301 25.333 -25 42 -47 50c-17.333 7.33301 -34.5 11.666 -51.5 12.999s-35.167 1 -54.5 -1c-6.66699 -0.666992 -13.334 -4 -20.001 -10s-12 -10 -16 -12c-3.33301 -1.33301 -8 -4.16602 -14 -8.49902s-10.167 -6.83301 -12.5 -7.5s-6.83301 -0.333984 -13.5 0.999023
c-34 18 -53.333 40 -58 66c-8 42 0 78 24 108z" />
    <glyph glyph-name="afii57688" unicode="&#x5e8;" horiz-adv-x="482" 
d="M39 551c3.33301 6.66699 7.83105 12.001 13.498 16.001s10.834 6.66699 15.501 8s11.5 2.83301 20.5 4.5s15.833 3.16699 20.5 4.5c33.333 9.33301 64 13.666 92 12.999h48.5c15.667 0 30 -0.166992 43 -0.5s26.833 -2 41.5 -5s29.667 -7.83301 45 -14.5
c16 -6.66699 27.667 -16 35 -28s14.333 -29 21 -51c4 -13.333 7.16699 -27 9.5 -41s3.83301 -24.667 4.5 -32s1.16699 -20.333 1.5 -39s0.5 -31.667 0.5 -39c0.666992 -44 -2.33301 -88 -9 -132c-9.33301 -57.333 -20.666 -102.666 -33.999 -135.999
c-12.667 -33.333 -28.334 -58 -47.001 -74c-10 -8 -20.667 -5.66699 -32 7c-17.333 19.333 -25.333 38 -24 56c1.33301 14 3.83301 26.833 7.5 38.5s8.83398 24.667 15.501 39s11.667 26.833 15 37.5c3.33301 9.33301 7.83301 20 13.5 32s10.167 23.167 13.5 33.5
s5.33301 21.5 6 33.5c2.66699 41.333 -3 77.333 -17 108c-12 26 -31 44 -57 54c-12.667 4.66699 -25.667 8.66699 -39 12s-24 5.5 -32 6.5s-20.667 2.33301 -38 4s-30.333 3.16699 -39 4.5c-10 1.33301 -21.833 0.666016 -35.5 -2.00098s-26.167 -4 -37.5 -4
s-21.666 3.33301 -30.999 10c-24.667 16.667 -28.334 42 -11.001 76z" />
    <glyph glyph-name="afii57689" unicode="&#x5e9;" horiz-adv-x="663" 
d="M101 18c-6 15.333 -10.833 31.166 -14.5 47.499s-6.16699 29 -7.5 38s-2.66602 24.5 -3.99902 46.5s-2.33301 37.333 -3 46c-1.33301 16.667 -1.16602 37.667 0.500977 63s2.16699 46 1.5 62c-2 38 -7 73.667 -15 107c-2 8.66699 -7.5 20.5 -16.5 35.5
s-13.167 28.5 -12.5 40.5c0.666992 22.667 12.334 47 35.001 73c12 14 25.667 19.333 41 16c17.333 -3.33301 29.666 -14.666 36.999 -33.999c4.66699 -5.33301 6.5 -17.5 5.5 -36.5s-1.16699 -31.833 -0.5 -38.5c0 -1.33301 0.166992 -4.66602 0.5 -9.99902
s1.16602 -9.16602 2.49902 -11.499s3.66602 -3.83301 6.99902 -4.5c10.667 -1.33301 20.334 5.33398 29.001 20.001c5.33301 9.33301 10.333 22.666 15 39.999s10 31 16 41c13.333 21.333 24 34 32 38c4.66699 2 9.66699 3.33301 15 4c7.33301 0.666992 13 -2.33301 17 -9
s7 -15.334 9 -26.001c3.33301 -18.667 0 -39.334 -10 -62.001c-2.66699 -6 -7.83398 -11.833 -15.501 -17.5s-12.834 -10.834 -15.501 -15.501c-4.66699 -7.33301 -9.5 -17.166 -14.5 -29.499s-9.83301 -21.833 -14.5 -28.5c-4 -6 -11 -14 -21 -24s-17 -19.667 -21 -29
c-10.667 -27.333 -17.667 -61 -21 -101c-2.66699 -16.667 -3.83398 -32.834 -3.50098 -48.501s3.5 -30.834 9.5 -45.501c6.66699 -16 21.334 -25.667 44.001 -29c14.667 -2.66699 28.5 -4 41.5 -4s28.333 0.666992 46 2s31.834 2 42.501 2c12.667 0.666992 28.667 0 48 -2
s36.333 -2.5 51 -1.5s29.667 4.83301 45 11.5c6 2.66699 10.833 6.5 14.5 11.5s6.16699 9.66699 7.5 14s2.66602 11 3.99902 20s2.33301 15.5 3 19.5c6 22.667 7 47 3 73c-3.33301 27.333 -11.333 52 -24 74c-9.33301 16 -22.333 29.667 -39 41
c-6.66699 4.66699 -12.834 8.33398 -18.501 11.001s-13.5 5.5 -23.5 8.5s-17 5.16699 -21 6.5c-5.33301 2 -13 3.66699 -23 5s-18 3.33301 -24 6c-1.33301 0.666992 -6.16602 2.16699 -14.499 4.5s-13.833 4.83301 -16.5 7.5s-3.66699 6.33398 -3 11.001
c0.666992 8 3 14.833 7 20.5s10 12.167 18 19.5s13.667 13 17 17c21.333 25.333 38.666 42.666 51.999 51.999c2 2 6.5 5.83301 13.5 11.5s12 9.33398 15 11.001s7.5 3.5 13.5 5.5s12 2.66699 18 2c18.667 -2 34.334 -6.66699 47.001 -14s28.334 -18.666 47.001 -33.999
c30 -25.333 52.667 -54.666 68 -87.999c3.33301 -7.33301 5.83301 -14.833 7.5 -22.5s2.5 -14 2.5 -19s-0.166992 -12.667 -0.5 -23s-0.5 -17.833 -0.5 -22.5c0 -57.333 -3.66699 -101.333 -11 -132c-4 -17.333 -8.5 -32.666 -13.5 -45.999s-12.167 -30 -21.5 -50
s-16 -35 -20 -45c-3.33301 -8 -6.5 -19.167 -9.5 -33.5s-6.66699 -26.333 -11 -36s-11.5 -17.834 -21.5 -24.501c-9.33301 -6.66699 -19 -10.334 -29 -11.001s-22 0 -36 2s-25.333 3 -34 3c-16 -0.666992 -35.333 -0.5 -58 0.5s-40 1.5 -52 1.5
c-4.66699 0 -32.167 -0.666992 -82.5 -2s-77.833 -0.666016 -82.5 2.00098c-2.66699 0 -7.5 0.166992 -14.5 0.5s-12.167 0.666016 -15.5 0.999023s-7 1.66602 -11 3.99902s-6.66699 5.83301 -8 10.5z" />
    <glyph glyph-name="afii57690" unicode="&#x5ea;" horiz-adv-x="755" 
d="M30 52c4 24.667 11.8311 45.1641 23.498 61.4971s29.167 33.166 52.5 50.499c9.33301 6.66699 23.5 8.66699 42.5 6s33.5 -1 43.5 5c22 13.333 36 35.333 42 66c2 10 3.16699 20.167 3.5 30.5s0.166016 18.5 -0.500977 24.5s-2.16699 15.5 -4.5 28.5
s-3.83301 22.5 -4.5 28.5c-5.33301 37.333 -13 67 -23 89c-4 8.66699 -12.833 19.834 -26.5 33.501s-21.167 26.5 -22.5 38.5c-5.33301 37.333 5 59.333 31 66c31.333 8.66699 59.833 14 85.5 16s59.334 2.33301 101.001 1s71.167 -2 88.5 -2c16 0 37.667 0.666992 65 2
s48.166 2 62.499 2s32.5 -1.16699 54.5 -3.5s44 -6.5 66 -12.5c9.33301 -2.66699 14.166 -10.167 14.499 -22.5s-1.16699 -24.166 -4.5 -35.499c-1.33301 -9.33301 -5.5 -20.333 -12.5 -33s-11.5 -22.667 -13.5 -30c-1.33301 -6 -3.5 -13.167 -6.5 -21.5l-7 -20
c-1.66699 -5 -3 -11.167 -4 -18.5s-1.16699 -15 -0.5 -23c0.666992 -12 5 -26 13 -42s13 -28 15 -36c1.33301 -6 3.83301 -15.167 7.5 -27.5s6.16699 -21.5 7.5 -27.5s2.66602 -14 3.99902 -24s2 -20.333 2 -31c-2 -45.333 -11.667 -89.666 -29 -132.999
c-1.33301 -2.66699 -3 -6.66699 -5 -12s-3.5 -9.83301 -4.5 -13.5s-2.66699 -7.83398 -5 -12.501s-4.33301 -8.16699 -6 -10.5s-4 -5 -7 -8s-6 -4.16699 -9 -3.5s-6.5 1.33398 -10.5 2.00098c-9.33301 4 -17 10 -23 18s-10 15.667 -12 23s-4.33301 17.5 -7 30.5
s-5 23.167 -7 30.5c-11.333 38.667 -16.666 77.667 -15.999 117c0 17.333 3.33301 39.5 10 66.5s10.334 49.167 11.001 66.5v13.5v14c0 3 -0.166992 7 -0.5 12s-1.16602 9 -2.49902 12s-3.16602 6.33301 -5.49902 10s-5.5 6.83398 -9.5 9.50098
c-6.66699 5.33301 -13.167 9.5 -19.5 12.5s-14.333 5 -24 6s-16 1.83301 -19 2.5s-11.5 0.833984 -25.5 0.500977s-22 -0.5 -24 -0.5c-6.66699 0 -20.834 0.333008 -42.501 1s-36.5 0.666992 -44.5 0s-19.333 -2.83398 -34 -6.50098s-28.334 -9.5 -41.001 -17.5
c-9.33301 -6 -15.166 -13.167 -17.499 -21.5s-3 -20.166 -2 -35.499s1.16699 -26 0.5 -32c-1.33301 -16 -0.5 -38.333 2.5 -67s3.16699 -52.334 0.5 -71.001c-6.66699 -42 -20 -78.667 -40 -110c-14.667 -24 -37 -42.667 -67 -56c-23.333 -10 -42.166 -16.833 -56.499 -20.5
s-31.166 -4.16699 -50.499 -1.5c-15.333 2 -28.5 7 -39.5 15s-15.5 18.333 -13.5 31z" />
    <glyph glyph-name="afii57716" unicode="&#x5f0;" horiz-adv-x="378" 
d="M81 572c0.666992 0.666992 1.83301 2.83398 3.5 6.50098s2.83398 6 3.50098 7l4 6c2 3 3.5 5 4.5 6s2.5 2.33301 4.5 4s3.83301 2.83398 5.5 3.50098s3.66699 1.33398 6 2.00098s4.83301 1 7.5 1c11.333 -0.666992 21.166 -4.83398 29.499 -12.501
s12.833 -17.167 13.5 -28.5c5.33301 -48.667 8.33301 -93.334 9 -134.001s0.333984 -90 -0.999023 -148s-2 -102.667 -2 -134c0 -10.667 -2 -20 -6 -28c-26 -50 -46.667 -86 -62 -108c-2 -3.33301 -5.16699 -5.33301 -9.5 -6s-7.5 0.333008 -9.5 3
c-12.667 17.333 -23.667 42.666 -33 75.999c-8.66699 30 -14.334 64 -17.001 102c-2 24.667 -1.66699 71 1 139s6 112.667 10 134c8 40 20.667 76.333 38 109zM256.999 558c11.333 20 20.9971 31.332 28.9971 33.999c3.33301 1.33301 7 2 11 2
c11.333 -0.666992 21 -4.66699 29 -12s12.333 -16.666 13 -27.999c5.33301 -48.667 8.33301 -93.334 9 -134.001s0.333984 -90.167 -0.999023 -148.5s-2 -103.166 -2 -134.499c0 -10.667 -2 -20 -6 -28c-27.333 -53.333 -47.666 -89.333 -60.999 -108
c-2 -3.33301 -5.16699 -5.33301 -9.5 -6s-7.5 0.333008 -9.5 3c-12 17.333 -23 43 -33 77c-9.33301 33.333 -15.333 67 -18 101c-1.33301 18.667 -0.666016 65 2.00098 139c0.666992 9.33301 1 21 1 35s0.166992 25 0.5 33s1 18 2 30s2.83301 24 5.5 36
c8 40 20.667 76.333 38 109z" />
    <glyph glyph-name="afii57717" unicode="&#x5f1;" horiz-adv-x="484" 
d="M363 560c0.666992 0.666992 1.83301 2.83301 3.5 6.5s2.83398 6 3.50098 7l4 6c2 3 3.5 5 4.5 6s2.5 2.33301 4.5 4s3.83301 2.83398 5.5 3.50098s3.66699 1.33398 6 2.00098s4.83301 1 7.5 1c11.333 -0.666992 21.166 -4.83398 29.499 -12.501
s12.833 -17.167 13.5 -28.5c5.33301 -48.667 8.33301 -93.334 9 -134.001s0.333984 -90 -0.999023 -148s-2 -102.667 -2 -134c0 -10.667 -2 -20 -6 -28c-26 -50 -46.667 -86 -62 -108c-2 -3.33301 -5.16699 -5.33301 -9.5 -6s-7.5 0.333008 -9.5 3
c-12.667 17.333 -23.667 42.666 -33 75.999c-8.66699 30 -14.334 64 -17.001 102c-2 24.667 -1.66699 71 1 139c2.66699 68.667 6 113.334 10 134.001c8 40 20.667 76.333 38 109zM84.999 636.999c4 4 11.335 0.671875 22.002 -9.99512c4.66699 -4 9.5 -10 14.5 -18
s9.5 -14 13.5 -18c4.66699 -4.66699 11.167 -9.83398 19.5 -15.501s14.833 -10.834 19.5 -15.501c12.667 -14 24 -29.333 34 -46c2 -2.66699 4.66699 -6.83398 8 -12.501s5.66602 -9.83398 6.99902 -12.501s2.83301 -6.33398 4.5 -11.001s2.83398 -9.66699 3.50098 -15
c1.33301 -23.333 -3.66699 -56.333 -15 -99c-5.33301 -20.667 -15.666 -42 -30.999 -64c-18 -27.333 -34 -45 -48 -53c-16 -9.33301 -29 -8.66602 -39 2.00098c-2 2 -3.33301 4 -4 6s-0.833984 4.33301 -0.500977 7s0.833008 4.83398 1.5 6.50098s1.66699 4.33398 3 8.00098
s2.33301 6.16699 3 7.5c2 6 5.83301 13.333 11.5 22s9.5 16 11.5 22c4 12.667 4 23.334 0 32.001c-2 5.33301 -4.66699 9.66602 -8 12.999s-7.33301 7 -12 11s-8.33398 7.66699 -11.001 11c-18.667 20.667 -28.667 31.667 -30 33l-10 12l-9 10.5
c-2 2.33301 -4 5.66602 -6 9.99902s-3.66699 9.16602 -5 14.499c-4.66699 21.333 -2.33398 45.666 6.99902 72.999c13.333 39.333 28.333 69 45 89z" />
    <glyph glyph-name="afii57718" unicode="&#x5f2;" horiz-adv-x="493" 
d="M85 637c4 4 11.335 0.671875 22.002 -9.99512c4.66699 -4 9.5 -10 14.5 -18s9.5 -14 13.5 -18c4.66699 -4.66699 11.167 -9.83398 19.5 -15.501s14.833 -10.834 19.5 -15.501c12.667 -14 24 -29.333 34 -46c2 -2.66699 4.66699 -6.83398 8 -12.501
s5.66602 -9.83398 6.99902 -12.501s2.83301 -6.33398 4.5 -11.001s2.83398 -9.66699 3.50098 -15c1.33301 -23.333 -3.66699 -56.333 -15 -99c-5.33301 -20.667 -15.666 -42 -30.999 -64c-18 -27.333 -34 -45 -48 -53c-16 -9.33301 -29 -8.66602 -39 2.00098
c-2 2 -3.33301 4 -4 6s-0.833984 4.33301 -0.500977 7s0.833008 4.83398 1.5 6.50098s1.66699 4.33398 3 8.00098s2.33301 6.16699 3 7.5c2 6 5.83301 13.333 11.5 22s9.5 16 11.5 22c4 12.667 4 23.334 0 32.001c-2 5.33301 -4.66699 9.66602 -8 12.999s-7.33301 7 -12 11
s-8.33398 7.66699 -11.001 11c-18.667 20.667 -28.667 31.667 -30 33l-10 12l-9 10.5c-2 2.33301 -4 5.66602 -6 9.99902s-3.66699 9.16602 -5 14.499c-4.66699 21.333 -2.33398 45.666 6.99902 72.999c13.333 39.333 28.333 69 45 89zM317.002 637.005
c4 4 11.335 0.671875 22.002 -9.99512c4.66699 -4 9.5 -10 14.5 -18s9.5 -14 13.5 -18c4.66699 -4.66699 11.167 -9.83398 19.5 -15.501s14.833 -10.834 19.5 -15.501c12.667 -14 24 -29.333 34 -46c2 -2.66699 4.66699 -6.83398 8 -12.501
s5.66602 -9.83398 6.99902 -12.501s2.83301 -6.33398 4.5 -11.001s2.83398 -9.66699 3.50098 -15c1.33301 -23.333 -3.66699 -56.333 -15 -99c-5.33301 -20.667 -15.666 -42 -30.999 -64c-18 -27.333 -34 -45 -48 -53c-16 -9.33301 -29 -8.66602 -39 2.00098
c-2 2 -3.33301 4 -4 6s-0.833984 4.33301 -0.500977 7s0.833008 4.83398 1.5 6.50098s1.66699 4.33398 3 8.00098s2.33301 6.16699 3 7.5c2 6 5.83301 13.333 11.5 22s9.5 16 11.5 22c4 12.667 4 23.334 0 32.001c-2 5.33301 -4.66699 9.66602 -8 12.999s-7.33301 7 -12 11
s-8.33398 7.66699 -11.001 11c-18.667 20.667 -28.667 31.667 -30 33l-10 12l-9 10.5c-2 2.33301 -4 5.66602 -6 9.99902s-3.66699 9.16602 -5 14.499c-4.66699 21.333 -2.33398 45.666 6.99902 72.999c13.333 39.333 28.333 69 45 89z" />
    <glyph glyph-name="uni2E17" unicode="&#x2e17;" horiz-adv-x="660" 
d="M521 416l3 -90l-381 -63v84zM518 239l3 -90l-381 -63v84z" />
    <glyph glyph-name="uniFB1F" unicode="&#xfb1f;" horiz-adv-x="493" 
d="M80 92l323 -2v-60l-324 -1zM95 637c4 4 11.335 0.671875 22.002 -9.99512c4.66699 -4 9.5 -10 14.5 -18s9.5 -14 13.5 -18c4.66699 -4.66699 11.167 -9.83398 19.5 -15.501s14.833 -10.834 19.5 -15.501c12.667 -14 24 -29.333 34 -46
c2 -2.66699 4.66699 -6.83398 8 -12.501s5.66602 -9.83398 6.99902 -12.501s2.83301 -6.33398 4.5 -11.001s2.83398 -9.66699 3.50098 -15c1.33301 -23.333 -3.66699 -56.333 -15 -99c-5.33301 -20.667 -15.666 -42 -30.999 -64c-18 -27.333 -34 -45 -48 -53
c-16 -9.33301 -29 -8.66602 -39 2.00098c-2 2 -3.33301 4 -4 6s-0.833984 4.33301 -0.500977 7s0.833008 4.83398 1.5 6.50098s1.66699 4.33398 3 8.00098s2.33301 6.16699 3 7.5c2 6 5.83301 13.333 11.5 22s9.5 16 11.5 22c4 12.667 4 23.334 0 32.001
c-2 5.33301 -4.66699 9.66602 -8 12.999s-7.33301 7 -12 11s-8.33398 7.66699 -11.001 11c-18.667 20.667 -28.667 31.667 -30 33l-10 12l-9 10.5c-2 2.33301 -4 5.66602 -6 9.99902s-3.66699 9.16602 -5 14.499c-4.66699 21.333 -2.33398 45.666 6.99902 72.999
c13.333 39.333 28.333 69 45 89zM327.002 637.005c4 4 11.335 0.671875 22.002 -9.99512c4.66699 -4 9.5 -10 14.5 -18s9.5 -14 13.5 -18c4.66699 -4.66699 11.167 -9.83398 19.5 -15.501s14.833 -10.834 19.5 -15.501c12.667 -14 24 -29.333 34 -46
c2 -2.66699 4.66699 -6.83398 8 -12.501s5.66602 -9.83398 6.99902 -12.501s2.83301 -6.33398 4.5 -11.001s2.83398 -9.66699 3.50098 -15c1.33301 -23.333 -3.66699 -56.333 -15 -99c-5.33301 -20.667 -15.666 -42 -30.999 -64c-18 -27.333 -34 -45 -48 -53
c-16 -9.33301 -29 -8.66602 -39 2.00098c-2 2 -3.33301 4 -4 6s-0.833984 4.33301 -0.500977 7s0.833008 4.83398 1.5 6.50098s1.66699 4.33398 3 8.00098s2.33301 6.16699 3 7.5c2 6 5.83301 13.333 11.5 22s9.5 16 11.5 22c4 12.667 4 23.334 0 32.001
c-2 5.33301 -4.66699 9.66602 -8 12.999s-7.33301 7 -12 11s-8.33398 7.66699 -11.001 11c-18.667 20.667 -28.667 31.667 -30 33l-10 12l-9 10.5c-2 2.33301 -4 5.66602 -6 9.99902s-3.66699 9.16602 -5 14.499c-4.66699 21.333 -2.33398 45.666 6.99902 72.999
c13.333 39.333 28.333 69 45 89z" />
    <glyph glyph-name="uniFB2A" unicode="&#xfb2a;" horiz-adv-x="663" 
d="M101 18c-6 15.333 -10.833 31.166 -14.5 47.499s-6.16699 29 -7.5 38s-2.66602 24.5 -3.99902 46.5s-2.33301 37.333 -3 46c-1.33301 16.667 -1.16602 37.667 0.500977 63s2.16699 46 1.5 62c-2 38 -7 73.667 -15 107c-2 8.66699 -7.5 20.5 -16.5 35.5
s-13.167 28.5 -12.5 40.5c0.666992 22.667 12.334 47 35.001 73c12 14 25.667 19.333 41 16c17.333 -3.33301 29.666 -14.666 36.999 -33.999c4.66699 -5.33301 6.5 -17.5 5.5 -36.5s-1.16699 -31.833 -0.5 -38.5c0 -1.33301 0.166992 -4.66602 0.5 -9.99902
s1.16602 -9.16602 2.49902 -11.499s3.66602 -3.83301 6.99902 -4.5c10.667 -1.33301 20.334 5.33398 29.001 20.001c5.33301 9.33301 10.333 22.666 15 39.999s10 31 16 41c13.333 21.333 24 34 32 38c4.66699 2 9.66699 3.33301 15 4c7.33301 0.666992 13 -2.33301 17 -9
s7 -15.334 9 -26.001c3.33301 -18.667 0 -39.334 -10 -62.001c-2.66699 -6 -7.83398 -11.833 -15.501 -17.5s-12.834 -10.834 -15.501 -15.501c-4.66699 -7.33301 -9.5 -17.166 -14.5 -29.499s-9.83301 -21.833 -14.5 -28.5c-4 -6 -11 -14 -21 -24s-17 -19.667 -21 -29
c-10.667 -27.333 -17.667 -61 -21 -101c-2.66699 -16.667 -3.83398 -32.834 -3.50098 -48.501s3.5 -30.834 9.5 -45.501c6.66699 -16 21.334 -25.667 44.001 -29c14.667 -2.66699 28.5 -4 41.5 -4s28.333 0.666992 46 2s31.834 2 42.501 2c12.667 0.666992 28.667 0 48 -2
s36.333 -2.5 51 -1.5s29.667 4.83301 45 11.5c6 2.66699 10.833 6.5 14.5 11.5s6.16699 9.66699 7.5 14s2.66602 11 3.99902 20s2.33301 15.5 3 19.5c6 22.667 7 47 3 73c-3.33301 27.333 -11.333 52 -24 74c-9.33301 16 -22.333 29.667 -39 41
c-6.66699 4.66699 -12.834 8.33398 -18.501 11.001s-13.5 5.5 -23.5 8.5s-17 5.16699 -21 6.5c-5.33301 2 -13 3.66699 -23 5s-18 3.33301 -24 6c-1.33301 0.666992 -6.16602 2.16699 -14.499 4.5s-13.833 4.83301 -16.5 7.5s-3.66699 6.33398 -3 11.001
c0.666992 8 3 14.833 7 20.5s10 12.167 18 19.5s13.667 13 17 17c21.333 25.333 38.666 42.666 51.999 51.999c2 2 6.5 5.83301 13.5 11.5s12 9.33398 15 11.001s7.5 3.5 13.5 5.5s12 2.66699 18 2c18.667 -2 34.334 -6.66699 47.001 -14s28.334 -18.666 47.001 -33.999
c30 -25.333 52.667 -54.666 68 -87.999c3.33301 -7.33301 5.83301 -14.833 7.5 -22.5s2.5 -14 2.5 -19s-0.166992 -12.667 -0.5 -23s-0.5 -17.833 -0.5 -22.5c0 -57.333 -3.66699 -101.333 -11 -132c-4 -17.333 -8.5 -32.666 -13.5 -45.999s-12.167 -30 -21.5 -50
s-16 -35 -20 -45c-3.33301 -8 -6.5 -19.167 -9.5 -33.5s-6.66699 -26.333 -11 -36s-11.5 -17.834 -21.5 -24.501c-9.33301 -6.66699 -19 -10.334 -29 -11.001s-22 0 -36 2s-25.333 3 -34 3c-16 -0.666992 -35.333 -0.5 -58 0.5s-40 1.5 -52 1.5
c-4.66699 0 -32.167 -0.666992 -82.5 -2s-77.833 -0.666016 -82.5 2.00098c-2.66699 0 -7.5 0.166992 -14.5 0.5s-12.167 0.666016 -15.5 0.999023s-7 1.66602 -11 3.99902s-6.66699 5.83301 -8 10.5zM521 746c16.667 -4.66699 28.332 -14.667 34.999 -30
c6.66699 -14.667 8.33398 -32 5.00098 -52c-2 -10.667 -9.33301 -17.334 -22 -20.001c-13.333 -3.33301 -25.333 -3 -36 1c-12 2.66699 -22.333 8.33398 -31 17.001c-8 8 -11 17.667 -9 29c2.66699 16.667 9.66699 31 21 43c10.667 12 23 16 37 12z" />
    <glyph glyph-name="uniFB2B" unicode="&#xfb2b;" horiz-adv-x="663" 
d="M101 723c16.667 -4.66699 28.332 -15 34.999 -31c6.66699 -14.667 8.33398 -32 5.00098 -52c-2 -10.667 -9.33301 -17.334 -22 -20.001s-24.667 -2 -36 2c-12 2.66699 -22.333 8.33398 -31 17.001c-8 8 -11 17.667 -9 29c2.66699 16.667 9.66699 31 21 43
c10.667 12 23 16 37 12zM100.998 18c-6 15.333 -10.833 31.166 -14.5 47.499s-6.16699 29 -7.5 38s-2.66602 24.5 -3.99902 46.5s-2.33301 37.333 -3 46c-1.33301 16.667 -1.16602 37.667 0.500977 63s2.16699 46 1.5 62c-2 38 -7 73.667 -15 107
c-2 8.66699 -7.5 20.5 -16.5 35.5s-13.167 28.5 -12.5 40.5c0.666992 22.667 12.334 47 35.001 73c12 14 25.667 19.333 41 16c17.333 -3.33301 29.666 -14.666 36.999 -33.999c4.66699 -5.33301 6.5 -17.5 5.5 -36.5s-1.16699 -31.833 -0.5 -38.5
c0 -1.33301 0.166992 -4.66602 0.5 -9.99902s1.16602 -9.16602 2.49902 -11.499s3.66602 -3.83301 6.99902 -4.5c10.667 -1.33301 20.334 5.33398 29.001 20.001c5.33301 9.33301 10.333 22.666 15 39.999s10 31 16 41c13.333 21.333 24 34 32 38
c4.66699 2 9.66699 3.33301 15 4c7.33301 0.666992 13 -2.33301 17 -9s7 -15.334 9 -26.001c3.33301 -18.667 0 -39.334 -10 -62.001c-2.66699 -6 -7.83398 -11.833 -15.501 -17.5s-12.834 -10.834 -15.501 -15.501c-4.66699 -7.33301 -9.5 -17.166 -14.5 -29.499
s-9.83301 -21.833 -14.5 -28.5c-4 -6 -11 -14 -21 -24s-17 -19.667 -21 -29c-10.667 -27.333 -17.667 -61 -21 -101c-2.66699 -16.667 -3.83398 -32.834 -3.50098 -48.501s3.5 -30.834 9.5 -45.501c6.66699 -16 21.334 -25.667 44.001 -29c14.667 -2.66699 28.5 -4 41.5 -4
s28.333 0.666992 46 2s31.834 2 42.501 2c12.667 0.666992 28.667 0 48 -2s36.333 -2.5 51 -1.5s29.667 4.83301 45 11.5c6 2.66699 10.833 6.5 14.5 11.5s6.16699 9.66699 7.5 14s2.66602 11 3.99902 20s2.33301 15.5 3 19.5c6 22.667 7 47 3 73
c-3.33301 27.333 -11.333 52 -24 74c-9.33301 16 -22.333 29.667 -39 41c-6.66699 4.66699 -12.834 8.33398 -18.501 11.001s-13.5 5.5 -23.5 8.5s-17 5.16699 -21 6.5c-5.33301 2 -13 3.66699 -23 5s-18 3.33301 -24 6c-1.33301 0.666992 -6.16602 2.16699 -14.499 4.5
s-13.833 4.83301 -16.5 7.5s-3.66699 6.33398 -3 11.001c0.666992 8 3 14.833 7 20.5s10 12.167 18 19.5s13.667 13 17 17c21.333 25.333 38.666 42.666 51.999 51.999c2 2 6.5 5.83301 13.5 11.5s12 9.33398 15 11.001s7.5 3.5 13.5 5.5s12 2.66699 18 2
c18.667 -2 34.334 -6.66699 47.001 -14s28.334 -18.666 47.001 -33.999c30 -25.333 52.667 -54.666 68 -87.999c3.33301 -7.33301 5.83301 -14.833 7.5 -22.5s2.5 -14 2.5 -19s-0.166992 -12.667 -0.5 -23s-0.5 -17.833 -0.5 -22.5c0 -57.333 -3.66699 -101.333 -11 -132
c-4 -17.333 -8.5 -32.666 -13.5 -45.999s-12.167 -30 -21.5 -50s-16 -35 -20 -45c-3.33301 -8 -6.5 -19.167 -9.5 -33.5s-6.66699 -26.333 -11 -36s-11.5 -17.834 -21.5 -24.501c-9.33301 -6.66699 -19 -10.334 -29 -11.001s-22 0 -36 2s-25.333 3 -34 3
c-16 -0.666992 -35.333 -0.5 -58 0.5s-40 1.5 -52 1.5c-4.66699 0 -32.167 -0.666992 -82.5 -2s-77.833 -0.666016 -82.5 2.00098c-2.66699 0 -7.5 0.166992 -14.5 0.5s-12.167 0.666016 -15.5 0.999023s-7 1.66602 -11 3.99902s-6.66699 5.83301 -8 10.5z" />
    <glyph glyph-name="uniFB2E" unicode="&#xfb2e;" horiz-adv-x="479" 
d="M31 -49l323 -2v-60l-324 -1zM30 549l102.003 74l4 -123l26 -1l181 156l70 -58l-79 -78l22.5 -34.5c12.333 -19 21.5 -35.167 27.5 -48.5c5.33301 -12.667 15.166 -30.667 29.499 -54s24.166 -43.5 29.499 -60.5s6.33301 -36.167 3 -57.5
c-4.66699 -33.333 -13.167 -63.5 -25.5 -90.5s-28.5 -56.5 -48.5 -88.5s-35.667 -60 -47 -84h-90c1.33301 5.33301 4.66602 17.333 9.99902 36s10.333 34 15 46c4 11.333 14 32.333 30 63s25.667 57.667 29 81c4.66699 36.667 -3.33301 75.667 -24 117
c-2 3.33301 -5 9.5 -9 18.5s-7.16699 15.5 -9.5 19.5s-5.66602 9.33301 -9.99902 16s-8.33301 11.5 -12 14.5s-8.5 5.66699 -14.5 8s-12.333 3.5 -19 3.5c-14 0 -25.333 -4.5 -34 -13.5s-17.334 -21.167 -26.001 -36.5s-17 -27 -25 -35l-5 -278l-60 -54l-41 -7v549z" />
    <glyph glyph-name="uniFB2F" unicode="&#xfb2f;" horiz-adv-x="486" 
d="M30 -39l326 2v-64h-134v-64h-72v62l-120 2v62zM37 549l102.003 74l4 -123l26 -1l181 156l70 -58l-79 -78l22.5 -34.5c12.333 -19 21.5 -35.167 27.5 -48.5c5.33301 -12.667 15.166 -30.667 29.499 -54s24.166 -43.5 29.499 -60.5s6.33301 -36.167 3 -57.5
c-4.66699 -33.333 -13.167 -63.5 -25.5 -90.5s-28.5 -56.5 -48.5 -88.5s-35.667 -60 -47 -84h-90c1.33301 5.33301 4.66602 17.333 9.99902 36s10.333 34 15 46c4 11.333 14 32.333 30 63s25.667 57.667 29 81c4.66699 36.667 -3.33301 75.667 -24 117
c-2 3.33301 -5 9.5 -9 18.5s-7.16699 15.5 -9.5 19.5s-5.66602 9.33301 -9.99902 16s-8.33301 11.5 -12 14.5s-8.5 5.66699 -14.5 8s-12.333 3.5 -19 3.5c-14 0 -25.333 -4.5 -34 -13.5s-17.334 -21.167 -26.001 -36.5s-17 -27 -25 -35l-5 -278l-60 -54l-41 -7v549z" />
    <glyph glyph-name="uniFB30" unicode="&#xfb30;" horiz-adv-x="477" 
d="M28 549l102.003 74l4 -123l26 -1l181 156l70 -58l-79 -78l22.5 -34.5c12.333 -19 21.5 -35.167 27.5 -48.5c5.33301 -12.667 15.166 -30.667 29.499 -54s24.166 -43.5 29.499 -60.5s6.33301 -36.167 3 -57.5c-4.66699 -33.333 -13.167 -63.5 -25.5 -90.5
s-28.5 -56.5 -48.5 -88.5s-35.667 -60 -47 -84h-90c1.33301 5.33301 4.66602 17.333 9.99902 36s10.333 34 15 46c4 11.333 14 32.333 30 63s25.667 57.667 29 81c4.66699 36.667 -3.33301 75.667 -24 117c-2 3.33301 -5 9.5 -9 18.5s-7.16699 15.5 -9.5 19.5
s-5.66602 9.33301 -9.99902 16s-8.33301 11.5 -12 14.5s-8.5 5.66699 -14.5 8s-12.333 3.5 -19 3.5c-14 0 -25.333 -4.5 -34 -13.5s-17.334 -21.167 -26.001 -36.5s-17 -27 -25 -35l-5 -278l-60 -54l-41 -7v549z" />
    <glyph glyph-name="uniFB31" unicode="&#xfb31;" horiz-adv-x="577" 
d="M239.713 359.493c12.0986 -2.69336 21.6055 -9.20117 28.5186 -19.5244c6.91406 -10.3232 9.50684 -21.7686 7.77832 -34.3359s-7.12988 -22.8906 -16.2041 -30.9697s-19.2285 -11.2207 -30.4639 -9.4248c-14.6914 2.69238 -26.5742 9.64941 -35.6494 20.8701
c-9.07422 11.2217 -12.7471 24.0137 -11.0186 38.376c0.864258 12.5674 7.12988 22.2168 18.7969 28.9492s24.4141 8.75195 38.2422 6.05957zM35.001 1c5.33301 13.333 9.66992 31.666 13.0029 54.999s8.16602 42.5 14.499 57.5s17.833 26.5 34.5 34.5
c19.333 9.33301 40.833 13.166 64.5 11.499s44.5 -5.66699 62.5 -12s38.667 -10 62 -11s44.333 3.83301 63 14.5c18 10 31.667 24.333 41 43s14.666 35.834 15.999 51.501s2.33301 37.834 3 66.501v9c0 18.667 -2.83301 35.834 -8.5 51.501s-13.667 33 -24 52
s-18.166 35.167 -23.499 48.5l-270 5c-4.66699 5.33301 -11.834 11.166 -21.501 17.499s-17.334 12.5 -23.001 18.5s-8.5 13.667 -8.5 23s2.5 17.333 7.5 24s12.167 13.667 21.5 21s16.333 14 21 20l313 -1c0.666992 0 2.5 -0.5 5.5 -1.5s5.5 -2.16699 7.5 -3.5
c6 -3.33301 14.167 -7 24.5 -11s19 -8.16699 26 -12.5s13.167 -10.5 18.5 -18.5c5.33301 -8.66699 8.83301 -18 10.5 -28s2.16699 -19.5 1.5 -28.5s0 -19.5 2 -31.5l-4 -337l62 -2l-78 -128z" />
    <glyph glyph-name="uniFB32" unicode="&#xfb32;" horiz-adv-x="376" 
d="M182.127 348.588c12.7432 -2.44043 22.7559 -8.33691 30.0381 -17.6924c7.28125 -9.35449 10.0117 -19.7266 8.19141 -31.1152s-7.50879 -20.7432 -17.0664 -28.0645c-9.55664 -7.32129 -20.251 -10.1689 -32.084 -8.54199
c-15.4736 2.44043 -27.9893 8.74512 -37.5469 18.9131c-9.55664 10.1689 -13.4248 21.7607 -11.6045 34.7764c0.910156 11.3887 7.50879 20.1338 19.7969 26.2344s25.7129 7.93066 40.2754 5.49023zM52 6.00098c-16 8 -23.3232 22.001 -21.9902 42.001
s8.66602 37.333 21.999 52c16.667 18.667 43.5 34.167 80.5 46.5s63.5 25.166 79.5 38.499c9.33301 8 17.166 17.167 23.499 27.5s10.5 18.5 12.5 24.5s5.66699 17.667 11 35c11.333 40.667 14.666 78.334 9.99902 113.001c-2 14.667 -12.333 30 -31 46
c-7.33301 6.66699 -18.666 13.5 -33.999 20.5s-27 14.5 -35 22.5c-2 2 -5.16699 5 -9.5 9l-10.5 10c-2.66699 2.66699 -5.5 5.83398 -8.5 9.50098s-5.16699 7 -6.5 10s-2 6.5 -2 10.5s1 8 3 12c19.333 34.667 52.666 55.667 99.999 63c41.333 6 74.333 -5 99 -33
c6.66699 -8 10.667 -16.333 12 -25s0.666016 -19.834 -2.00098 -33.501s-4 -23.834 -4 -30.501c-0.666992 -28 -2.83398 -65 -6.50098 -111s-5.83398 -84.333 -6.50098 -115c-0.666992 -54 -0.833984 -91.5 -0.500977 -112.5s1.16602 -54.5 2.49902 -100.5
s2.33301 -83.667 3 -113l-71 -3v88.5c0 45.667 -0.666992 83.834 -2 114.501c0 2 -0.833008 4 -2.5 6s-3.16699 2.33301 -4.5 1c-8.66699 -8 -20.167 -21.667 -34.5 -41s-28.5 -33.333 -42.5 -42c-5.33301 -3.33301 -13.333 -8.83301 -24 -16.5s-19 -13.167 -25 -16.5
s-13.333 -6.83301 -22 -10.5s-17.334 -5.33398 -26.001 -5.00098s-17.334 2.5 -26.001 6.5z" />
    <glyph glyph-name="uniFB33" unicode="&#xfb33;" horiz-adv-x="518" 
d="M224 320c9.33301 -2 16.667 -6.83301 22 -14.5s7.33301 -16.167 6 -25.5s-5.5 -17 -12.5 -23s-14.833 -8.33301 -23.5 -7c-11.333 2 -20.5 7.16699 -27.5 15.5s-9.83301 17.833 -8.5 28.5c0.666992 9.33301 5.5 16.5 14.5 21.5s18.833 6.5 29.5 4.5zM62.001 588
c20.667 6 40.4951 9 59.4951 9s40.833 -1.33301 65.5 -4s45.334 -4 62.001 -4s37 1 61 3s45.333 3 64 3s38.334 -2.33301 59.001 -7c36.667 -8 55 -24.333 55 -49c0 -13.333 -8.33301 -27.333 -25 -42s-26.667 -27.334 -30 -38.001
c-8.66699 -31.333 -8.66699 -72.666 0 -123.999c3.33301 -17.333 12.666 -41.833 27.999 -73.5s22.333 -59.167 21 -82.5c-1.33301 -21.333 -5.33301 -41.166 -12 -59.499s-15.667 -38.5 -27 -60.5s-20 -41 -26 -57c-27.333 61.333 -45.666 104.333 -54.999 129
c-4 11.333 -10.667 25.333 -20 42s-16.166 31.667 -20.499 45s-6.5 28 -6.5 44c0 22 7.33301 48 22 78s23.334 54.333 26.001 73c4.66699 35.333 -1.66602 54.666 -18.999 57.999c-34.667 7.33301 -80.5 7.66602 -137.5 0.999023s-102.833 -7 -137.5 -1
c-23.333 4.66699 -36.333 23.334 -39 56.001c-2.66699 34 8 54.333 32 61z" />
    <glyph glyph-name="uniFB34" unicode="&#xfb34;" horiz-adv-x="701" 
d="M340 306c9.33301 -2 16.667 -6.83301 22 -14.5s7.33301 -16.167 6 -25.5s-5.5 -17 -12.5 -23s-14.833 -8.33301 -23.5 -7c-11.333 2 -20.5 7.16699 -27.5 15.5s-9.83301 17.833 -8.5 28.5c0.666992 9.33301 5.5 16.5 14.5 21.5s18.833 6.5 29.5 4.5zM68.001 484
c-14.667 16 -15.833 35.6641 -3.5 58.9971s29.833 37.333 52.5 42c50 10.667 97.167 16.167 141.5 16.5s95.333 -2.16699 153 -7.5s105.5 -8.33301 143.5 -9c2.66699 0 7.5 0.5 14.5 1.5s12.333 1 16 0s7.16699 -3.16699 10.5 -6.5c16.667 -20 24 -43 22 -69
c-0.666992 -9.33301 -6.33398 -20.166 -17.001 -32.499s-16.334 -23.166 -17.001 -32.499c0 -12 -0.5 -19.667 -1.5 -23s-0.5 -10.166 1.5 -20.499s3.33301 -17 4 -20s2.33398 -9.83301 5.00098 -20.5s4.66699 -18 6 -22c4.66699 -18.667 12.334 -40.834 23.001 -66.501
s18.334 -45.5 23.001 -59.5c2 -7.33301 6 -17.833 12 -31.5s10.167 -25.5 12.5 -35.5s2.5 -21 0.5 -33c-7.33301 -43.333 -15 -71.666 -23 -84.999c-8.66699 -13.333 -20.667 -23 -36 -29c-26 -10 -48.333 11.667 -67 65c-6 17.333 -10.833 34.833 -14.5 52.5
s-5.83398 31.834 -6.50098 42.501s-1.5 27.334 -2.5 50.001s-1.83301 39.667 -2.5 51c-2 21.333 -2.16699 49.5 -0.5 84.5s1.83398 63.167 0.500977 84.5c-1.33301 12.667 -5.33301 19 -12 19c-30.667 1.33301 -71.5 0.166016 -122.5 -3.50098s-93.5 -4.16699 -127.5 -1.5
c-18 0.666992 -35.833 1.16699 -53.5 1.5s-33.834 0.666016 -48.501 0.999023s-29.5 3.5 -44.5 9.5s-28.833 15.333 -41.5 28zM133.002 317.997c8 6.66699 14.333 0.333008 19 -19c0.666992 -2 2.66699 -11.667 6 -29c2 -11.333 3.16699 -21.833 3.5 -31.5
s0.166016 -21.167 -0.500977 -34.5s-1 -24 -1 -32c0 -8.66699 0.833008 -20.167 2.5 -34.5s2.16699 -26.666 1.5 -36.999s-3.33398 -21.166 -8.00098 -32.499c-14.667 -38.667 -26.667 -63.334 -36 -74.001c-10 -11.333 -22.667 -19.333 -38 -24
c-14 -4 -26.333 0.5 -37 13.5s-15.667 27.5 -15 43.5c0.666992 15.333 9.83398 31.5 27.501 48.5s28.167 31.833 31.5 44.5c3.33301 10.667 1.66602 24.667 -5.00098 42s-9 31.333 -7 42c4.66699 21.333 8.33398 36.666 11.001 45.999s7.83398 20.5 15.501 33.5
s17.5 24.5 29.5 34.5z" />
    <glyph glyph-name="uniFB35" unicode="&#xfb35;" horiz-adv-x="294" 
d="M77.3311 378.998c9.94238 -2.24707 17.7549 -7.67871 23.4365 -16.291s7.8125 -18.1611 6.39258 -28.6465c-1.4209 -10.4854 -5.85938 -19.0986 -13.3164 -25.8389c-7.45801 -6.74023 -15.8027 -9.36133 -25.0352 -7.86426
c-12.0732 2.24707 -21.8389 8.05176 -29.2959 17.4141s-10.4756 20.0352 -9.05566 32.0186c0.709961 10.4854 5.85938 18.5361 15.4473 24.1533s20.0635 7.30176 31.4268 5.05469zM173 559.998c0.666992 0.666992 1.83301 2.83301 3.5 6.5s2.83398 6 3.50098 7l4 6
c2 3 3.5 5 4.5 6s2.5 2.33301 4.5 4s3.83301 2.83398 5.5 3.50098s3.66699 1.33398 6 2.00098s4.83301 1 7.5 1c11.333 -0.666992 21.166 -4.83398 29.499 -12.501s12.833 -17.167 13.5 -28.5c5.33301 -48.667 8.33301 -93.334 9 -134.001s0.333984 -90 -0.999023 -148
s-2 -102.667 -2 -134c0 -10.667 -2 -20 -6 -28c-26 -50 -46.667 -86 -62 -108c-2 -3.33301 -5.16699 -5.33301 -9.5 -6s-7.5 0.333008 -9.5 3c-12.667 17.333 -23.667 42.666 -33 75.999c-8.66699 30 -14.334 64 -17.001 102c-2 24.667 -1.66699 71 1 139
c2.66699 68.667 6 113.334 10 134.001c8 40 20.667 76.333 38 109z" />
    <glyph glyph-name="uniFB3B" unicode="&#xfb3b;" horiz-adv-x="669" 
d="M366 323c9.33301 -2 16.667 -6.83301 22 -14.5s7.33301 -16.167 6 -25.5s-5.5 -17 -12.5 -23s-14.833 -8.33301 -23.5 -7c-11.333 2 -20.5 7.16699 -27.5 15.5s-9.83301 17.833 -8.5 28.5c0.666992 9.33301 5.5 16.5 14.5 21.5s18.833 6.5 29.5 4.5zM180.001 519
c8 14.667 13.9971 25.1641 17.9971 31.4971s10.333 13.333 19 21s18.334 13.5 29.001 17.5c18.667 6.66699 35.834 10.667 51.501 12s36.667 1.33301 63 0s44.5 -2 54.5 -2c7.33301 0 16.833 0.5 28.5 1.5s20.834 1.66699 27.501 2s14.667 -0.666992 24 -3
s18 -6.16602 26 -11.499c8.66699 -5.33301 16.167 -10.833 22.5 -16.5s12.5 -13 18.5 -22s10 -15.333 12 -19s6.5 -12.5 13.5 -26.5l12.5 -25c19.333 -37.333 31 -76.666 35 -117.999c6 -62 3.66699 -116.333 -7 -163c-2.66699 -10 -6 -19.5 -10 -28.5s-7.66699 -16 -11 -21
l-16 -23c-7.33301 -10.333 -12.666 -18.166 -15.999 -23.499c-10.667 -16 -29 -38 -55 -66c-2 -2.66699 -5 -6.16699 -9 -10.5l-9.5 -9.99902s-5.33301 -5 -9 -8s-7.83398 -5.5 -12.501 -7.5c-0.666992 -3.33301 -8.83398 -4.16602 -24.501 -2.49902s-24.167 2.5 -25.5 2.5
c-50 0 -113.833 0.333008 -191.5 1s-141.5 1 -191.5 1c-2 0 -5 -0.333008 -9 -1c-5.33301 -0.666992 -8 -0.333984 -8 0.999023c2 7.33301 6.66699 14.833 14 22.5s12 13.834 14 18.501c6 12 13.5 28.833 22.5 50.5s17.167 39.5 24.5 53.5h8
c34 0.666992 73.833 0.333984 119.5 -0.999023s87.334 -1.83301 125.001 -1.5s77.167 2.5 118.5 6.5c21.333 2 38.666 13.667 51.999 35c22 35.333 33.333 70.666 34 105.999c1.33301 48 -8.66699 84.333 -30 109c-13.333 15.333 -27.333 26 -42 32s-35 11 -61 15
c-20.667 5.33301 -54.667 7.16602 -102 5.49902s-81.666 -1.83398 -102.999 -0.500977c-24 1.33301 -39 6.33301 -45 15c-10 15.333 -9.66699 32.333 1 51z" />
    <glyph glyph-name="uniFB44" unicode="&#xfb44;" horiz-adv-x="527" 
d="M311 316c9.33301 -2 16.667 -6.83301 22 -14.5s7.33301 -16.167 6 -25.5s-5.5 -17 -12.5 -23s-14.833 -8.33301 -23.5 -7c-11.333 2 -20.5 7.16699 -27.5 15.5s-9.83301 17.833 -8.5 28.5c0.666992 9.33301 5.5 16.5 14.5 21.5s18.833 6.5 29.5 4.5zM65.001 584
c10 5.33301 20.5029 9.16113 31.5029 11.4941s19.5 3.66602 25.5 3.99902s16.833 0.333008 32.5 0s26.167 -0.5 31.5 -0.5c13.333 0 35.833 1.16699 67.5 3.5s57.334 2.33301 77.001 0s40.5 -8.5 62.5 -18.5c9.33301 -4.66699 17.666 -9.83398 24.999 -15.501
s13.666 -13 18.999 -22s9.33301 -16.5 12 -22.5s6.66699 -15.833 12 -29.5l11 -28.5c4 -9.33301 7.16699 -18.333 9.5 -27s4.16602 -17.667 5.49902 -27s2.33301 -17 3 -23s1.33398 -15.333 2.00098 -28s1.33398 -22.334 2.00098 -29.001
c3.33301 -43.333 2.66602 -78 -2.00098 -104c-7.33301 -43.333 -19.333 -82 -36 -116c-4.66699 -10.667 -13 -22 -25 -34s-20 -21 -24 -27c-4 -5.33301 -9.33301 -14.666 -16 -27.999s-13.667 -23.333 -21 -30c-2 -1.33301 -3.66699 -1.5 -5 -0.5s-3.16602 2.5 -5.49902 4.5
s-4.5 3 -6.5 3c-34.667 0.666992 -87.167 0.166992 -157.5 -1.5s-122.833 -1.16699 -157.5 1.5c-3.33301 0 -4.33301 5.66699 -3 17c0.666992 4 1.16699 9.5 1.5 16.5s0.833008 12.333 1.5 16s1.66699 8.33398 3 14.001s3.33301 11.167 6 16.5c12 24.667 27.667 45 47 61
c19.333 16.667 36.333 23.667 51 21c4.66699 -1.33301 7.5 -6.66602 8.5 -15.999s3.5 -15 7.5 -17c6 -2.66699 12.167 -4 18.5 -4s13.333 0.666992 21 2s14.167 2 19.5 2c12.667 0 28.5 -1.33301 47.5 -4s33 -4.16699 42 -4.5s24.5 1.5 46.5 5.5
c4.66699 1.33301 9 3.16602 13 5.49902s7.5 5.5 10.5 9.5s5.16699 7.5 6.5 10.5l6.5 14l6.5 13.5c8 17.333 13.667 40.333 17 69c1.33301 12 0 32 -4 60c-0.666992 4 -1.16699 9.16699 -1.5 15.5s-0.666016 11.333 -0.999023 15s-1.33301 8 -3 13
s-4.16699 9.83301 -7.5 14.5c-5.33301 8 -10.666 14.5 -15.999 19.5s-13 11 -23 18l-21 14.5c-20 14.667 -37.333 25.334 -52 32.001c-0.666992 1.33301 -3.33398 1.5 -8.00098 0.5s-7.33398 -1.5 -8.00098 -1.5c-10 0 -22.5 0.666992 -37.5 2s-28.333 2 -40 2
s-23.834 -1.33301 -36.501 -4c-3.33301 -0.666992 -5.5 -2.16699 -6.5 -4.5s-1.16699 -6.5 -0.5 -12.5s1 -9.33301 1 -10c0 -3.33301 -0.333008 -7.83301 -1 -13.5l-1.5 -13c-0.333008 -3 0 -6.66699 1 -11s2.5 -8.5 4.5 -12.5c4.66699 -8.66699 13.667 -17.5 27 -26.5
s22.333 -18.167 27 -27.5c6 -12.667 6.66699 -32.667 2 -60c-0.666992 -3.33301 -1.5 -8.16602 -2.5 -14.499s-1.83301 -11 -2.5 -14s-1.83398 -6.83301 -3.50098 -11.5s-3.83398 -8.66699 -6.50098 -12s-6 -6.66602 -10 -9.99902c-13.333 -10 -30.333 -9 -51 3
c-18.667 10 -37.667 28.667 -57 56l-7 10l-7 10c-1.33301 2 -3.33301 4.83301 -6 8.5s-4.5 6.83398 -5.5 9.50098s-2.33301 5.83398 -4 9.50098s-2.83398 7.33398 -3.50098 11.001s-1 7.5 -1 11.5c-1.33301 20 6.33398 48.667 23.001 86c2 4 7 8 15 12s12 8.66699 12 14
c0 6.66699 -1.33301 12.334 -4 17.001s-7 10.167 -13 16.5s-10 10.833 -12 13.5c-2.66699 3.33301 -9 8 -19 14s-15 12.333 -15 19c0 32 11.667 54.333 35 67z" />
    <glyph glyph-name="uniFB4A" unicode="&#xfb4a;" horiz-adv-x="755" 
d="M457 308c9.33301 -2 16.667 -6.83301 22 -14.5s7.33301 -16.167 6 -25.5s-5.5 -17 -12.5 -23s-14.833 -8.33301 -23.5 -7c-11.333 2 -20.5 7.16699 -27.5 15.5s-9.83301 17.833 -8.5 28.5c0.666992 9.33301 5.5 16.5 14.5 21.5s18.833 6.5 29.5 4.5zM30.001 52
c4 24.667 11.8311 45.1641 23.498 61.4971s29.167 33.166 52.5 50.499c9.33301 6.66699 23.5 8.66699 42.5 6s33.5 -1 43.5 5c22 13.333 36 35.333 42 66c2 10 3.16699 20.167 3.5 30.5s0.166016 18.5 -0.500977 24.5s-2.16699 15.5 -4.5 28.5s-3.83301 22.5 -4.5 28.5
c-5.33301 37.333 -13 67 -23 89c-4 8.66699 -12.833 19.834 -26.5 33.501s-21.167 26.5 -22.5 38.5c-5.33301 37.333 5 59.333 31 66c31.333 8.66699 59.833 14 85.5 16s59.334 2.33301 101.001 1s71.167 -2 88.5 -2c16 0 37.667 0.666992 65 2s48.166 2 62.499 2
s32.5 -1.16699 54.5 -3.5s44 -6.5 66 -12.5c9.33301 -2.66699 14.166 -10.167 14.499 -22.5s-1.16699 -24.166 -4.5 -35.499c-1.33301 -9.33301 -5.5 -20.333 -12.5 -33s-11.5 -22.667 -13.5 -30c-1.33301 -6 -3.5 -13.167 -6.5 -21.5l-7 -20
c-1.66699 -5 -3 -11.167 -4 -18.5s-1.16699 -15 -0.5 -23c0.666992 -12 5 -26 13 -42s13 -28 15 -36c1.33301 -6 3.83301 -15.167 7.5 -27.5s6.16699 -21.5 7.5 -27.5s2.66602 -14 3.99902 -24s2 -20.333 2 -31c-2 -45.333 -11.667 -89.666 -29 -132.999
c-1.33301 -2.66699 -3 -6.66699 -5 -12s-3.5 -9.83301 -4.5 -13.5s-2.66699 -7.83398 -5 -12.501s-4.33301 -8.16699 -6 -10.5s-4 -5 -7 -8s-6 -4.16699 -9 -3.5s-6.5 1.33398 -10.5 2.00098c-9.33301 4 -17 10 -23 18s-10 15.667 -12 23s-4.33301 17.5 -7 30.5
s-5 23.167 -7 30.5c-11.333 38.667 -16.666 77.667 -15.999 117c0 17.333 3.33301 39.5 10 66.5s10.334 49.167 11.001 66.5v13.5v14c0 3 -0.166992 7 -0.5 12s-1.16602 9 -2.49902 12s-3.16602 6.33301 -5.49902 10s-5.5 6.83398 -9.5 9.50098
c-6.66699 5.33301 -13.167 9.5 -19.5 12.5s-14.333 5 -24 6s-16 1.83301 -19 2.5s-11.5 0.833984 -25.5 0.500977s-22 -0.5 -24 -0.5c-6.66699 0 -20.834 0.333008 -42.501 1s-36.5 0.666992 -44.5 0s-19.333 -2.83398 -34 -6.50098s-28.334 -9.5 -41.001 -17.5
c-9.33301 -6 -15.166 -13.167 -17.499 -21.5s-3 -20.166 -2 -35.499s1.16699 -26 0.5 -32c-1.33301 -16 -0.5 -38.333 2.5 -67s3.16699 -52.334 0.5 -71.001c-6.66699 -42 -20 -78.667 -40 -110c-14.667 -24 -37 -42.667 -67 -56c-23.333 -10 -42.166 -16.833 -56.499 -20.5
s-31.166 -4.16699 -50.499 -1.5c-15.333 2 -28.5 7 -39.5 15s-15.5 18.333 -13.5 31z" />
    <glyph glyph-name="uniFB4C" unicode="&#xfb4c;" horiz-adv-x="577" 
d="M96 734c96.667 7.33301 168.336 10.334 215.003 9.00098c67.333 -1.33301 128.666 -9 183.999 -23c7.33301 -3.33301 11 -9.33301 11 -18c0 -9.33301 -3.33301 -18.666 -10 -27.999c-6.66699 -10 -14.334 -15 -23.001 -15c-38 2 -102 2.33301 -192 1s-156.667 1 -200 7
c-8.66699 1.33301 -13.334 7.66602 -14.001 18.999s2 22.666 8 33.999c4.66699 8 11.667 12.667 21 14zM35.002 1.00098c5.33301 13.333 9.66992 31.666 13.0029 54.999s8.16602 42.5 14.499 57.5s17.833 26.5 34.5 34.5c19.333 9.33301 40.833 13.166 64.5 11.499
s44.5 -5.66699 62.5 -12s38.667 -10 62 -11s44.333 3.83301 63 14.5c18 10 31.667 24.333 41 43s14.666 35.834 15.999 51.501s2.33301 37.834 3 66.501v9c0 18.667 -2.83301 35.834 -8.5 51.501s-13.667 33 -24 52s-18.166 35.167 -23.499 48.5l-270 5
c-4.66699 5.33301 -11.834 11.166 -21.501 17.499s-17.334 12.5 -23.001 18.5s-8.5 13.667 -8.5 23s2.5 17.333 7.5 24s12.167 13.667 21.5 21s16.333 14 21 20l313 -1c0.666992 0 2.5 -0.5 5.5 -1.5s5.5 -2.16699 7.5 -3.5c6 -3.33301 14.167 -7 24.5 -11
s19 -8.16699 26 -12.5s13.167 -10.5 18.5 -18.5c5.33301 -8.66699 8.83301 -18 10.5 -28s2.16699 -19.5 1.5 -28.5s0 -19.5 2 -31.5l-4 -337l62 -2l-78 -128z" />
    <glyph glyph-name="uniFB4D" unicode="&#xfb4d;" horiz-adv-x="669" 
d="M205 734c96.667 7.33301 168.336 10.334 215.003 9.00098c67.333 -1.33301 128.666 -9 183.999 -23c7.33301 -3.33301 11 -9.33301 11 -18c0 -9.33301 -3.33301 -18.666 -10 -27.999c-6.66699 -10 -14.334 -15 -23.001 -15c-38 2 -102 2.33301 -192 1s-156.667 1 -200 7
c-8.66699 1.33301 -13.334 7.66602 -14.001 18.999s2 22.666 8 33.999c4.66699 8 11.667 12.667 21 14zM180.002 519.001c8 14.667 13.9971 25.1641 17.9971 31.4971s10.333 13.333 19 21s18.334 13.5 29.001 17.5c18.667 6.66699 35.834 10.667 51.501 12
s36.667 1.33301 63 0s44.5 -2 54.5 -2c7.33301 0 16.833 0.5 28.5 1.5s20.834 1.66699 27.501 2s14.667 -0.666992 24 -3s18 -6.16602 26 -11.499c8.66699 -5.33301 16.167 -10.833 22.5 -16.5s12.5 -13 18.5 -22s10 -15.333 12 -19s6.5 -12.5 13.5 -26.5l12.5 -25
c19.333 -37.333 31 -76.666 35 -117.999c6 -62 3.66699 -116.333 -7 -163c-2.66699 -10 -6 -19.5 -10 -28.5s-7.66699 -16 -11 -21l-16 -23c-7.33301 -10.333 -12.666 -18.166 -15.999 -23.499c-10.667 -16 -29 -38 -55 -66c-2 -2.66699 -5 -6.16699 -9 -10.5l-9.5 -9.99902
s-5.33301 -5 -9 -8s-7.83398 -5.5 -12.501 -7.5c-0.666992 -3.33301 -8.83398 -4.16602 -24.501 -2.49902s-24.167 2.5 -25.5 2.5c-50 0 -113.833 0.333008 -191.5 1s-141.5 1 -191.5 1c-2 0 -5 -0.333008 -9 -1c-5.33301 -0.666992 -8 -0.333984 -8 0.999023
c2 7.33301 6.66699 14.833 14 22.5s12 13.834 14 18.501c6 12 13.5 28.833 22.5 50.5s17.167 39.5 24.5 53.5h8c34 0.666992 73.833 0.333984 119.5 -0.999023s87.334 -1.83301 125.001 -1.5s77.167 2.5 118.5 6.5c21.333 2 38.666 13.667 51.999 35
c22 35.333 33.333 70.666 34 105.999c1.33301 48 -8.66699 84.333 -30 109c-13.333 15.333 -27.333 26 -42 32s-35 11 -61 15c-20.667 5.33301 -54.667 7.16602 -102 5.49902s-81.666 -1.83398 -102.999 -0.500977c-24 1.33301 -39 6.33301 -45 15
c-10 15.333 -9.66699 32.333 1 51z" />
    <glyph glyph-name="uniFB4E" unicode="&#xfb4e;" horiz-adv-x="527" 
d="M63 734c96.667 7.33301 168.336 10.334 215.003 9.00098c67.333 -1.33301 128.666 -9 183.999 -23c7.33301 -3.33301 11 -9.33301 11 -18c0 -9.33301 -3.33301 -18.666 -10 -27.999c-6.66699 -10 -14.334 -15 -23.001 -15c-38 2 -102 2.33301 -192 1s-156.667 1 -200 7
c-8.66699 1.33301 -13.334 7.66602 -14.001 18.999s2 22.666 8 33.999c4.66699 8 11.667 12.667 21 14zM65.002 584.001c10 5.33301 20.5029 9.16113 31.5029 11.4941s19.5 3.66602 25.5 3.99902s16.833 0.333008 32.5 0s26.167 -0.5 31.5 -0.5
c13.333 0 35.833 1.16699 67.5 3.5s57.334 2.33301 77.001 0s40.5 -8.5 62.5 -18.5c9.33301 -4.66699 17.666 -9.83398 24.999 -15.501s13.666 -13 18.999 -22s9.33301 -16.5 12 -22.5s6.66699 -15.833 12 -29.5l11 -28.5c4 -9.33301 7.16699 -18.333 9.5 -27
s4.16602 -17.667 5.49902 -27s2.33301 -17 3 -23s1.33398 -15.333 2.00098 -28s1.33398 -22.334 2.00098 -29.001c3.33301 -43.333 2.66602 -78 -2.00098 -104c-7.33301 -43.333 -19.333 -82 -36 -116c-4.66699 -10.667 -13 -22 -25 -34s-20 -21 -24 -27
c-4 -5.33301 -9.33301 -14.666 -16 -27.999s-13.667 -23.333 -21 -30c-2 -1.33301 -3.66699 -1.5 -5 -0.5s-3.16602 2.5 -5.49902 4.5s-4.5 3 -6.5 3c-34.667 0.666992 -87.167 0.166992 -157.5 -1.5s-122.833 -1.16699 -157.5 1.5c-3.33301 0 -4.33301 5.66699 -3 17
c0.666992 4 1.16699 9.5 1.5 16.5s0.833008 12.333 1.5 16s1.66699 8.33398 3 14.001s3.33301 11.167 6 16.5c12 24.667 27.667 45 47 61c19.333 16.667 36.333 23.667 51 21c4.66699 -1.33301 7.5 -6.66602 8.5 -15.999s3.5 -15 7.5 -17c6 -2.66699 12.167 -4 18.5 -4
s13.333 0.666992 21 2s14.167 2 19.5 2c12.667 0 28.5 -1.33301 47.5 -4s33 -4.16699 42 -4.5s24.5 1.5 46.5 5.5c4.66699 1.33301 9 3.16602 13 5.49902s7.5 5.5 10.5 9.5s5.16699 7.5 6.5 10.5l6.5 14l6.5 13.5c8 17.333 13.667 40.333 17 69c1.33301 12 0 32 -4 60
c-0.666992 4 -1.16699 9.16699 -1.5 15.5s-0.666016 11.333 -0.999023 15s-1.33301 8 -3 13s-4.16699 9.83301 -7.5 14.5c-5.33301 8 -10.666 14.5 -15.999 19.5s-13 11 -23 18l-21 14.5c-20 14.667 -37.333 25.334 -52 32.001c-0.666992 1.33301 -3.33398 1.5 -8.00098 0.5
s-7.33398 -1.5 -8.00098 -1.5c-10 0 -22.5 0.666992 -37.5 2s-28.333 2 -40 2s-23.834 -1.33301 -36.501 -4c-3.33301 -0.666992 -5.5 -2.16699 -6.5 -4.5s-1.16699 -6.5 -0.5 -12.5s1 -9.33301 1 -10c0 -3.33301 -0.333008 -7.83301 -1 -13.5l-1.5 -13
c-0.333008 -3 0 -6.66699 1 -11s2.5 -8.5 4.5 -12.5c4.66699 -8.66699 13.667 -17.5 27 -26.5s22.333 -18.167 27 -27.5c6 -12.667 6.66699 -32.667 2 -60c-0.666992 -3.33301 -1.5 -8.16602 -2.5 -14.499s-1.83301 -11 -2.5 -14s-1.83398 -6.83301 -3.50098 -11.5
s-3.83398 -8.66699 -6.50098 -12s-6 -6.66602 -10 -9.99902c-13.333 -10 -30.333 -9 -51 3c-18.667 10 -37.667 28.667 -57 56l-7 10l-7 10c-1.33301 2 -3.33301 4.83301 -6 8.5s-4.5 6.83398 -5.5 9.50098s-2.33301 5.83398 -4 9.50098s-2.83398 7.33398 -3.50098 11.001
s-1 7.5 -1 11.5c-1.33301 20 6.33398 48.667 23.001 86c2 4 7 8 15 12s12 8.66699 12 14c0 6.66699 -1.33301 12.334 -4 17.001s-7 10.167 -13 16.5s-10 10.833 -12 13.5c-2.66699 3.33301 -9 8 -19 14s-15 12.333 -15 19c0 32 11.667 54.333 35 67z" />
    <glyph glyph-name=".null" horiz-adv-x="0" 
 />
    <glyph glyph-name="nonmarkingreturn" horiz-adv-x="341" 
 />
  </font>
</defs>
</svg>
