<?xml version="1.0" standalone="no"?>
<!DOCTYPE svg PUBLIC "-//W3C//DTD SVG 1.1//EN" "http://www.w3.org/Graphics/SVG/1.1/DTD/svg11.dtd" >
<svg>
<metadata>
Created by FontForge 20090914 at Thu Oct 12 23:27:17 2017
 By www-data
Copyright .51 2002-2004 by Maxim Iorsh (iorsh@math.technion.ac.il). Distributed under the terms of GNU General Public License version 2(http://www.gnu.org/licenses/gpl.html). 
Latin glyphs, digits and punctuation Copyright (URW)++,Copyright 1999 by (URW)++ Design &#38; Development.
Slightly modified by Moshe Wagner (moshe.wagner@gmail.com) for the mekorot project (mekorot.sf.net)
All rights reserved.
</metadata>
<defs>
<font id="Mekorot-Vilna" horiz-adv-x="0" >
  <font-face 
    font-family="Mekorot-Vilna"
    font-weight="700"
    font-stretch="normal"
    units-per-em="1200"
    panose-1="2 0 5 3 0 0 0 0 0 0"
    ascent="960"
    descent="-240"
    x-height="460.999"
    cap-height="676.002"
    bbox="-214.337 -315.039 981.001 960"
    underline-thickness="50"
    underline-position="-100"
    unicode-range="U+0020-U+FB4F"
  />
<missing-glyph horiz-adv-x="440" 
d="M40 0v800h320v-800h-320zM80 40h240v720h-240v-720z" />
    <glyph glyph-name=".notdef" horiz-adv-x="440" 
d="M40 0v800h320v-800h-320zM80 40h240v720h-240v-720z" />
    <glyph glyph-name="space" unicode=" " horiz-adv-x="300" 
 />
    <glyph glyph-name="exclam" unicode="!" horiz-adv-x="333" 
d="M166 156c23.333 0 43.332 -8.50098 59.999 -25.501s25 -37.167 25 -60.5s-8.33301 -43 -25 -59s-37 -24 -61 -24c-23.333 0 -43 8.16699 -59 24.5s-24 36.5 -24 60.5c0 22.667 8.33301 42.334 25 59.001s36.334 25 59.001 25zM179.999 233.999h-28.999
c-6.66699 61.333 -13.334 109.333 -20.001 144s-17.334 76 -32.001 124c-12 38.667 -18 68.334 -18 89.001c0 31.333 7.5 55.833 22.5 73.5s35.833 26.5 62.5 26.5s47.334 -8.83301 62.001 -26.5s22 -42.834 22 -75.501c0 -20 -6 -49 -18 -87
c-24 -76 -41.333 -165.333 -52 -268z" />
    <glyph glyph-name="quotedbl" unicode="&#x22;" horiz-adv-x="555" 
d="M168 404h-41c-7.33301 30.667 -11 46.667 -11 48c-22 86.667 -33 142.667 -33 168c0 21.333 5.83301 38.5 17.5 51.5s27.167 19.5 46.5 19.5c18.667 0 34.167 -6.33301 46.5 -19s18.5 -28.667 18.5 -48c0 -20 -14.667 -93.333 -44 -220zM428 404h-40.999
c-6.66699 29.333 -10.334 45.333 -11.001 48c-22 88 -33 144 -33 168c0 21.333 5.83301 38.5 17.5 51.5s27.167 19.5 46.5 19.5c18.667 0 34.167 -6.33301 46.5 -19s18.5 -28.667 18.5 -48c0 -20.667 -14.667 -94 -44 -220z" />
    <glyph glyph-name="numbersign" unicode="#" horiz-adv-x="500" 
d="M467 283v-73h-98l-29 -210h-78l29 210h-113l-29 -210h-78l29 210h-96v73h107l18 134h-96v73h106l30 210h77l-29 -210h113l30 210h77l-29 -210h88v-73h-98l-18 -134h87zM320 417h-113l-18 -134h113z" />
    <glyph glyph-name="dollar" unicode="$" horiz-adv-x="500" 
d="M428 481h-20.999c-14.667 50 -32.5 87.167 -53.5 111.5s-49.167 40.5 -84.5 48.5v-215c48.667 -25.333 83.5 -45 104.5 -59s40.167 -31 57.5 -51c27.333 -30.667 41 -70.667 41 -120c0 -56.667 -16.667 -101 -50 -133c-16 -16 -35.333 -28.667 -58 -38
s-54.334 -17.666 -95.001 -24.999v-99h-55v99c-31.333 1.33301 -57 4.66602 -77 9.99902s-50.333 16.333 -91 33v156l21 -2c16 -54 35 -93.5 57 -118.5s51.667 -41.167 89 -48.5v251c-66.667 33.333 -114 66.333 -142 99s-42 71.334 -42 116.001
c0 65.333 28.667 114.666 86 147.999c26 14.667 59 24 99 28v78h55v-76c39.333 -6.66699 69.833 -13.5 91.5 -20.5s44.167 -17.5 67.5 -31.5v-141zM269.001 250v-220.001c62 12 93 46.667 93 104c0 27.333 -5.5 47.833 -16.5 61.5s-36.5 31.834 -76.5 54.501z
M213.001 453.999v190c-31.333 -8 -54 -19 -68 -33s-21 -33 -21 -57c0 -46 29.667 -79.333 89 -100z" />
    <glyph glyph-name="percent" unicode="%" horiz-adv-x="1000" 
d="M761 372c35.333 0 63.499 -10.5 84.499 -31.5s31.5 -48.833 31.5 -83.5c0 -38.667 -7.83301 -77.667 -23.5 -117s-37.167 -73 -64.5 -101c-33.333 -35.333 -73.666 -53 -120.999 -53c-40 0 -72.167 12.667 -96.5 38s-36.5 59 -36.5 101c0 61.333 23.5 117.833 70.5 169.5
s98.833 77.5 155.5 77.5zM791.999 321c-24.667 0 -49 -17.332 -73 -51.999c-16.667 -24.667 -32 -55.834 -46 -93.501s-21 -66.834 -21 -87.501c0 -37.333 16.333 -56 49 -56c37.333 0 71.333 28 102 84c27.333 48.667 41 93 41 133c0 20.667 -5 37.834 -15 51.501
s-22.333 20.5 -37 20.5zM727.999 692.001l-394.001 -700h-55l348 620c-42 -18 -80.333 -27 -115 -27c-14 0 -29.667 1.66699 -47 5c-0.666992 -81.333 -20.334 -150.333 -59.001 -207c-40.667 -59.333 -91.667 -89 -153 -89c-38 0 -69 12.667 -93 38s-36 58 -36 98
c0 64 23.167 121.333 69.5 172s98.5 76 156.5 76c24.667 0 49.667 -9 75 -27c26 -18.667 57 -28 93 -28c30.667 0 61.834 5.83301 93.501 17.5s52.834 25.167 63.501 40.5c5.33301 7.33301 10.333 11 15 11h38zM370.998 631.001c-17.333 2 -38.002 -14.666 -62.002 -49.999
c-17.333 -26 -33.166 -57.5 -47.499 -94.5s-22.166 -67.167 -23.499 -90.5c-1.33301 -16 2.66699 -29.333 12 -40s21.333 -16 36 -16c30.667 0 60 20.333 88 61c38.667 56.667 58 112.667 58 168c0 21.333 -9.66699 36 -29 44c-4 1.33301 -9.33301 4.66602 -16 9.99902
c-6.66699 4 -12 6.66699 -16 8z" />
    <glyph glyph-name="ampersand" unicode="&#x26;" horiz-adv-x="833" 
d="M577 419l205.999 -0.00390625v-24c-21.333 -2 -36.5 -5.5 -45.5 -10.5s-18.167 -14.833 -27.5 -29.5l-27 -44c-20.667 -32.667 -51.667 -77.667 -93 -135c28 -36 50 -60.167 66 -72.5s33.667 -18.5 53 -18.5c22.667 0 42 12.667 58 38l20 -12l-16 -26
c-21.333 -34.667 -39.333 -58 -54 -70c-27.333 -20.667 -58.333 -31 -93 -31c-26.667 0 -50.667 6.33301 -72 19s-47 35.667 -77 69c-78 -58 -152 -87 -222 -87c-56 0 -101.833 16.5 -137.5 49.5s-53.5 75.167 -53.5 126.5c0 47.333 15 88.333 45 123
s80.333 69.334 151 104.001c-20 34.667 -33.667 62 -41 82s-11 41 -11 63c0 48.667 17.5 87.167 52.5 115.5s82.5 42.5 142.5 42.5c50.667 0 91.167 -11.167 121.5 -33.5s45.5 -51.833 45.5 -88.5c0 -31.333 -12 -58.666 -36 -81.999s-62.667 -44.666 -116 -63.999l151 -214
c29.333 36.667 49.333 65 60 85s16 40 16 60c0 14.667 -3.66699 24.334 -11 29.001s-25.666 8.66699 -54.999 12v24zM322.999 285.996l-48 72c-27.333 -16 -46.5 -31 -57.5 -45s-16.5 -30.333 -16.5 -49c0 -26 6.66699 -53.667 20 -83s30.666 -55.333 51.999 -78
c26.667 -28 56.334 -42 89.001 -42c24 0 54 13 90 39c-24.667 32 -67.667 94 -129 186zM396.999 451.996c25.333 8.66699 43.333 19.167 54 31.5s16 28.833 16 49.5c0 33.333 -9.16699 62.5 -27.5 87.5s-39.833 37.5 -64.5 37.5c-16 0 -28.667 -5 -38 -15
s-14 -23.667 -14 -41c0 -38.667 24.667 -88.667 74 -150z" />
    <glyph glyph-name="quotesingle" unicode="'" horiz-adv-x="278" 
d="M160 404h-40.999c-6.66699 28.667 -10.334 44.667 -11.001 48c-22 86.667 -33 142.667 -33 168c0 21.333 5.83301 38.5 17.5 51.5s27.167 19.5 46.5 19.5c18.667 0 34.167 -6.33301 46.5 -19s18.5 -28.667 18.5 -48c0 -18.667 -14.667 -92 -44 -220z" />
    <glyph glyph-name="parenleft" unicode="(" horiz-adv-x="333" 
d="M306 694l-0.00195312 -26.998c-30 -20 -52.333 -37.833 -67 -53.5s-27.334 -34.5 -38.001 -56.5c-28 -60 -42 -159.667 -42 -299c0 -133.333 14.667 -230.333 44 -291c10.667 -22.667 23.334 -41.667 38.001 -57s36.334 -32 65.001 -50v-28
c-48.667 29.333 -86.167 56.166 -112.5 80.499s-51.166 54.5 -74.499 90.5c-48.667 77.333 -73 162.666 -73 255.999c0 132 43.667 245.333 131 340c19.333 20.667 38 37.5 56 50.5s42.333 27.833 73 44.5z" />
    <glyph glyph-name="parenright" unicode=")" horiz-adv-x="333" 
d="M27 -168l0.00390625 26.999c30 20 52.5 37.833 67.5 53.5s27.5 34.5 37.5 56.5c28 60 42 159.667 42 299c0 133.333 -14.667 230.333 -44 291c-10.667 22 -23.334 40.667 -38.001 56s-36.334 32.333 -65.001 51v28c48.667 -29.333 86.167 -56.166 112.5 -80.499
s51.166 -54.5 74.499 -90.5c48.667 -77.333 73 -163 73 -257c0 -132 -44 -245 -132 -339c-32.667 -35.333 -75.334 -67 -128.001 -95z" />
    <glyph glyph-name="asterisk" unicode="*" horiz-adv-x="500" 
d="M278 476l0.00390625 -8c28.667 -13.333 60.667 -21.666 96 -24.999c26.667 -2 45.5 -6.83301 56.5 -14.5s16.5 -19.834 16.5 -36.501c0 -14 -4.66699 -25.833 -14 -35.5s-21 -14.5 -35 -14.5c-13.333 0 -25.166 4.16699 -35.499 12.5s-23.5 24.833 -39.5 49.5
c-15.333 22 -34.333 38.667 -57 50l-7 -5c4 -36 13.667 -69.333 29 -100c9.33301 -18 14 -32 14 -42c0 -14.667 -4.83301 -27 -14.5 -37s-21.834 -15 -36.501 -15s-26.334 5.16699 -35.001 15.5s-13 24.166 -13 41.499c0 13.333 5 29 15 47c10 16.667 16.167 30 18.5 40
s3.83301 26.667 4.5 50l-7 5c-19.333 -14 -33 -25.167 -41 -33.5s-18.667 -22.166 -32 -41.499c-10 -15.333 -18.833 -25.833 -26.5 -31.5s-16.834 -8.5 -27.501 -8.5c-14 0 -25.833 4.83301 -35.5 14.5s-14.5 21.5 -14.5 35.5c0 37.333 28.333 56 85 56
c21.333 1.33301 36.666 3.5 45.999 6.5s22 9.83301 38 20.5v7c-31.333 14 -65.333 22.667 -102 26c-26 2 -43.833 6.66699 -53.5 14s-14.5 20 -14.5 38c0 14.667 4.33301 26.5 13 35.5s20.334 13.5 35.001 13.5c13.333 0 24.5 -3.16699 33.5 -9.5
s18.833 -18.166 29.5 -35.499c12.667 -20 22.667 -33.5 30 -40.5s20.333 -15.833 39 -26.5l7 3c-0.666992 21.333 -2.33398 37.166 -5.00098 47.499s-9.33398 24.833 -20.001 43.5c-12 22 -18 39.667 -18 53c0 14 5 25.833 15 35.5s22.333 14.5 37 14.5
c14 0 25.5 -5 34.5 -15s13.5 -23.333 13.5 -40c0 -13.333 -5.33301 -29.333 -16 -48c-14.667 -24 -22 -48 -22 -72v-19l8 -3c18 14 31 25.333 39 34s18.667 22.667 32 42c10 15.333 18.667 25.666 26 30.999s16.666 8 27.999 8c13.333 0 25.333 -5.16699 36 -15.5
s16 -21.833 16 -34.5c0 -9.33301 -3.5 -18.666 -10.5 -27.999s-15.5 -16.333 -25.5 -21c-11.333 -4.66699 -26.333 -7 -45 -7c-21.333 -0.666992 -37.166 -2.66699 -47.499 -6s-23.833 -10.333 -40.5 -21z" />
    <glyph glyph-name="plus" unicode="+" horiz-adv-x="570" 
d="M241 297v209h88v-209h208v-88h-208v-209h-88v209h-208v88h208z" />
    <glyph glyph-name="comma" unicode="," horiz-adv-x="250" 
d="M57 -180l-11 21.999c72.667 50.667 109 94.667 109 132c0 14.667 -6.33301 22 -19 22c-2.66699 0 -5 -0.333008 -7 -1c-4 -0.666992 -9.66699 -1 -17 -1c-21.333 0 -38.833 7.33301 -52.5 22s-20.5 33.334 -20.5 56.001c0 25.333 7.5 45.5 22.5 60.5
s35.167 22.5 60.5 22.5c30 0 54.333 -10.667 73 -32s28 -49.333 28 -84c0 -43.333 -13.167 -82.333 -39.5 -117s-68.5 -68.667 -126.5 -102z" />
    <glyph glyph-name="hyphen" unicode="-" horiz-adv-x="333" 
d="M287 287v-116h-243v116h243z" />
    <glyph glyph-name="period" unicode="." horiz-adv-x="250" 
d="M125 156c23.333 0 43.332 -8.50098 59.999 -25.501s25 -37.167 25 -60.5s-8.33301 -43 -25 -59s-37 -24 -61 -24c-23.333 0 -43 8.16699 -59 24.5s-24 36.5 -24 60.5c0 22.667 8.33301 42.334 25 59.001s36.334 25 59.001 25z" />
    <glyph glyph-name="slash" unicode="/" horiz-adv-x="278" 
d="M302 691l-236 -710h-90l236 710h90z" />
    <glyph glyph-name="zero" unicode="0" horiz-adv-x="500" 
d="M250 688c64.667 0 118.499 -33.5 161.499 -100.5s64.5 -150.5 64.5 -250.5c0 -100.667 -21.333 -184.167 -64 -250.5s-96.334 -99.5 -161.001 -99.5c-66.667 0 -121.167 33 -163.5 99s-63.5 150.667 -63.5 254c0 41.333 5 83.5 15 126.5s23 78.167 39 105.5
c20.667 36 46.334 64.333 77.001 85s62.334 31 95.001 31zM317.999 222l-0.000976562 229c0 74 -5.33301 127.333 -16 160s-28.334 49 -53.001 49c-24 0 -41.167 -16 -51.5 -48s-15.5 -85.667 -15.5 -161v-229c0 -74 5.33301 -127 16 -159s28.334 -48 53.001 -48
c22.667 0 39.334 14.333 50.001 43c11.333 34 17 88.667 17 164z" />
    <glyph glyph-name="one" unicode="1" horiz-adv-x="500" 
d="M317 688l17.0029 0.00292969v-570c0 -38.667 6.66699 -63.834 20 -75.501s42.666 -17.834 87.999 -18.501v-24h-375v24c49.333 0.666992 81.5 7.16699 96.5 19.5s22.5 39.166 22.5 80.499v385c0 46 -12 69 -36 69c-12.667 0 -34.334 -5.66699 -65.001 -17
c-2.66699 -2 -9.33398 -4.66699 -20.001 -8v26z" />
    <glyph glyph-name="two" unicode="2" horiz-adv-x="500" 
d="M478 211l-44.999 -211.001h-416v23c72.667 77.333 123.167 132.833 151.5 166.5s55.166 70.167 80.499 109.5c34 52 51 101.333 51 148c0 24.667 -6.66699 48.667 -20 72c-22.667 36.667 -55.667 55 -99 55c-51.333 0 -92 -30 -122 -90h-28
c14 37.333 27.167 66.5 39.5 87.5s28.166 41.167 47.499 60.5c36 37.333 80.333 56 133 56c54 0 98.333 -17.167 133 -51.5s52 -78.166 52 -131.499c0 -73.333 -38 -146 -114 -218l-162 -154h151c51.333 0 84.333 4 99 12s29.334 30 44.001 66h24z" />
    <glyph glyph-name="three" unicode="3" horiz-adv-x="500" 
d="M58 523l-21.001 11.999c54.667 102 131 153 229 153c51.333 0 91.333 -12.167 120 -36.5s43 -57.833 43 -100.5c0 -29.333 -5.83301 -53 -17.5 -71s-33.5 -36.667 -65.5 -56c34 -15.333 60 -33.333 78 -54c29.333 -35.333 44 -76.666 44 -123.999
c0 -72.667 -29 -134.167 -87 -184.5s-128.667 -75.5 -212 -75.5c-46 0 -83 8.16699 -111 24.5s-42 38.166 -42 65.499c0 16.667 6 30.5 18 41.5s27.667 16.5 47 16.5c29.333 0 62.333 -18.333 99 -55c29.333 -28.667 54.666 -43 75.999 -43c30 0 53.833 10.667 71.5 32
s26.5 50 26.5 86c0 50.667 -16.333 91.334 -49 122.001c-18 16.667 -37.333 30.5 -58 41.5s-52 23.833 -94 38.5v17c47.333 15.333 80.833 32.833 100.5 52.5s29.5 45.834 29.5 78.501c0 31.333 -9.16699 56.333 -27.5 75s-43.166 28 -74.499 28
c-26 0 -48.167 -6.33301 -66.5 -19s-37.166 -34.334 -56.499 -65.001z" />
    <glyph glyph-name="four" unicode="4" horiz-adv-x="500" 
d="M412 255h63v-111h-63v-144h-145v144h-248v113c54 85.333 138.667 203.333 254 354l59 77h80v-433zM269 255v297l-209 -297h209z" />
    <glyph glyph-name="five" unicode="5" horiz-adv-x="500" 
d="M149 549l-21.9971 -80.999c69.333 -4 119.666 -10.667 150.999 -20c54.667 -15.333 97.167 -42 127.5 -80s45.5 -83 45.5 -135c0 -70.667 -26.333 -128.5 -79 -173.5s-120.334 -67.5 -203.001 -67.5c-44.667 0 -80.334 8 -107.001 24s-40 37.333 -40 64
c0 17.333 5.83301 31.666 17.5 42.999s26.5 17 44.5 17c26 0 59 -15 99 -45c37.333 -28 67.333 -42 90 -42c28 0 51.667 9.66699 71 29s29 43 29 71c0 33.333 -12.5 63.333 -37.5 90s-59.833 47 -104.5 61c-37.333 12 -97.333 21 -180 27l97 345h322l-43 -127h-278z" />
    <glyph glyph-name="six" unicode="6" horiz-adv-x="500" 
d="M470 688v-25.999c-72.667 -14.667 -130.5 -43 -173.5 -85s-73.833 -99.667 -92.5 -173c26 11.333 54 17 84 17c56.667 0 102 -18 136 -54s51 -84.333 51 -145c0 -68 -20.333 -124.167 -61 -168.5s-92 -66.5 -154 -66.5c-70 0 -126.167 26 -168.5 78
s-63.5 121.333 -63.5 208c0 136 57 243.333 171 322c38 26 76.167 45.667 114.5 59s90.5 24.666 156.5 33.999zM233 376.001c-15.333 0 -27.334 -3.33301 -36.001 -10c-8.66699 -6 -13 -47.333 -13 -124c0 -98 9 -164.333 27 -199c10 -19.333 27 -29 51 -29
c24.667 0 41 9.83301 49 29.5s12 59.167 12 118.5c0 79.333 -6.66699 134.833 -20 166.5s-36.666 47.5 -69.999 47.5z" />
    <glyph glyph-name="seven" unicode="7" horiz-adv-x="500" 
d="M477 676l-235.002 -676h-95l200 539h-207c-27.333 0 -48.166 -6.16699 -62.499 -18.5s-26.166 -34.5 -35.499 -66.5h-25l44 222h416z" />
    <glyph glyph-name="eight" unicode="8" horiz-adv-x="500" 
d="M178 324c-49.333 29.333 -84.8311 58.833 -106.498 88.5s-32.5 63.167 -32.5 100.5c0 52.667 20.5 95 61.5 127s95.167 48 162.5 48c59.333 0 106.666 -13 141.999 -39s53 -61.333 53 -106c0 -32 -10.667 -59 -32 -81s-56 -41.333 -104 -58
c53.333 -34 91.666 -67.833 114.999 -101.5s35 -72.167 35 -115.5c0 -60 -21.333 -108.333 -64 -145s-98.667 -55 -168 -55c-63.333 0 -114.5 15.667 -153.5 47s-58.5 72.333 -58.5 123c0 45.333 14.667 82 44 110c22.667 22 58 41 106 57zM298.002 422
c16.667 22 27.667 40.6689 33 56.002s8 34.666 8 57.999c0 39.333 -7.66699 69.666 -23 90.999s-37 32 -65 32c-23.333 0 -43 -8 -59 -24s-24 -35.667 -24 -59c0 -58 43.333 -109.333 130 -154zM200.002 306.002c-20 -29.333 -33.501 -53.999 -40.501 -73.999
s-10.5 -43.667 -10.5 -71c0 -44.667 8.5 -79.5 25.5 -104.5s40.833 -37.5 71.5 -37.5c26.667 0 47.834 9.66699 63.501 29s23.5 45.666 23.5 78.999c0 36.667 -8.5 66.5 -25.5 89.5s-52.833 52.833 -107.5 89.5z" />
    <glyph glyph-name="nine" unicode="9" horiz-adv-x="500" 
d="M31 -13v26.002c72 14.667 129.333 42.667 172 84s74.667 100 96 176c-24.667 -12.667 -55 -19 -91 -19c-54.667 0 -98.667 18.167 -132 54.5s-50 84.166 -50 143.499c0 68.667 20.167 125.167 60.5 169.5s91.833 66.5 154.5 66.5c70 0 126.167 -26 168.5 -78
s63.5 -121.333 63.5 -208c0 -128.667 -52 -232.334 -156 -311.001c-39.333 -29.333 -79.333 -51.5 -120 -66.5s-96 -27.5 -166 -37.5zM309 328.002l2.99902 26.002c3.33301 50 5 84.667 5 104c0 81.333 -8.33301 137.666 -25 168.999c-10.667 22.667 -28.334 34 -53.001 34
s-41 -9.83301 -49 -29.5s-12 -58.5 -12 -116.5c0 -78.667 6.5 -134.334 19.5 -167.001s34.833 -49 65.5 -49c18.667 0 32.334 3 41.001 9c2.66699 1.33301 4.33398 8 5.00098 20z" />
    <glyph glyph-name="colon" unicode=":" horiz-adv-x="333" 
d="M166 156c23.333 0 43.332 -8.50098 59.999 -25.501s25 -37.167 25 -60.5s-8.33301 -43 -25 -59s-37 -24 -61 -24c-23.333 0 -43 8.16699 -59 24.5s-24 36.5 -24 60.5c0 22.667 8.33301 42.334 25 59.001s36.334 25 59.001 25zM165.999 471.999
c23.333 0 43.332 -8.33398 59.999 -25.001s25 -36.667 25 -60s-8.33301 -43.166 -25 -59.499s-36.667 -24.5 -60 -24.5c-24 0 -44 8.16699 -60 24.5s-24 36.833 -24 61.5c0 22.667 8.33301 42.167 25 58.5s36.334 24.5 59.001 24.5z" />
    <glyph glyph-name="semicolon" unicode=";" horiz-adv-x="333" 
d="M100 -180l-10.999 22.001c72.667 50.667 109 95 109 133c0 5.33301 -1.83301 10.166 -5.5 14.499s-7.83398 6.5 -12.501 6.5h-7l-12 -2h-8c-17.333 0 -32.333 5.66699 -45 17c-17.333 14 -26 34.333 -26 61c0 25.333 7.66699 45.5 23 60.5s35.333 22.5 60 22.5
c30 0 54.333 -10.667 73 -32s28 -49.333 28 -84c0 -43.333 -13.167 -82.333 -39.5 -117s-68.5 -68.667 -126.5 -102zM166.001 472.001c23.333 0 43.332 -8.33398 59.999 -25.001s25 -36.667 25 -60s-8.33301 -43.166 -25 -59.499s-36.667 -24.5 -60 -24.5
c-24 0 -44 8.16699 -60 24.5s-24 36.833 -24 61.5c0 22.667 8.33301 42.167 25 58.5s36.334 24.5 59.001 24.5z" />
    <glyph glyph-name="less" unicode="&#x3c;" horiz-adv-x="570" 
d="M539 -12l-508 223v84l508 223v-96l-385 -169l385 -169v-96z" />
    <glyph glyph-name="equal" unicode="=" horiz-adv-x="570" 
d="M537 399v-88h-504v88h504zM537 195v-88h-504v88h504z" />
    <glyph glyph-name="greater" unicode="&#x3e;" horiz-adv-x="570" 
d="M31 -12v96l385 169l-385 169v96l508 -223v-84z" />
    <glyph glyph-name="question" unicode="?" horiz-adv-x="500" 
d="M253 231l-29.998 0.000976562c-1.33301 20 -2 35.333 -2 46c0 24 10.667 56.333 32 97c28.667 54 43 103.667 43 149c0 41.333 -7.33301 73.333 -22 96s-35.334 34 -62.001 34c-18 0 -32.667 -3.66699 -44 -11s-17 -17 -17 -29c0 -8.66699 5 -18.334 15 -29.001
c14.667 -16.667 22 -33.667 22 -51c0 -19.333 -5.83301 -34.833 -17.5 -46.5s-26.834 -17.5 -45.501 -17.5c-19.333 0 -35.5 7.16699 -48.5 21.5s-19.5 32.5 -19.5 54.5c0 42 17.667 76.5 53 103.5s80.333 40.5 135 40.5c60 0 108.333 -15.167 145 -45.5s55 -70.5 55 -120.5
c0 -34.667 -8.83301 -64 -26.5 -88s-49.167 -50 -94.5 -78c-31.333 -19.333 -51 -36 -59 -50s-12 -39.333 -12 -76zM239.002 156.001c22.667 0 42.332 -8.33496 58.999 -25.002s25 -36.667 25 -60s-8.16699 -43.166 -24.5 -59.499s-36.166 -24.5 -59.499 -24.5
c-24 0 -44.167 8.16699 -60.5 24.5s-24.5 36.5 -24.5 60.5c0 22.667 8.5 42.334 25.5 59.001s36.833 25 59.5 25z" />
    <glyph glyph-name="at" unicode="@" horiz-adv-x="930" 
d="M595 466l11.001 40.002h71l-66 -260c-1.33301 -6.66699 -2 -12.667 -2 -18c0 -32 12.667 -48 38 -48c33.333 0 63 21 89 63s39 89.333 39 142c0 72 -28.667 134.5 -86 187.5s-125 79.5 -203 79.5c-83.333 0 -151.833 -30.833 -205.5 -92.5s-80.5 -139.834 -80.5 -234.501
c0 -87.333 28 -158.833 84 -214.5s127.667 -83.5 215 -83.5c60 0 126.333 16.333 199 49l13 -35c-48.667 -22.667 -88.834 -38.334 -120.501 -47.001s-66.167 -13 -103.5 -13c-106.667 0 -196.5 33.667 -269.5 101s-109.5 150 -109.5 248c0 100.667 36.667 186 110 256
s162.333 105 267 105c95.333 0 175.333 -29 240 -87s97 -129.333 97 -214c0 -66.667 -18.833 -124.5 -56.5 -173.5s-81.834 -73.5 -132.501 -73.5c-24.667 0 -45.667 6.83301 -63 20.5s-27.666 31.834 -30.999 54.501c-17.333 -22.667 -37.333 -40.667 -60 -54
s-44.667 -20 -66 -20c-26.667 0 -49 11 -67 33s-27 49.333 -27 82c0 36.667 7.5 73.667 22.5 111s35.5 69.666 61.5 96.999c33.333 34.667 73 52 119 52c18 0 32 -3.5 42 -10.5s20.333 -21.167 31 -42.5zM535.001 471.002c-27.333 2 -56.332 -14.999 -86.999 -50.999
c-34.667 -38.667 -52 -86.334 -52 -143.001c0 -26.667 5.33301 -47.667 16 -63s25 -23 43 -23c31.333 0 58.666 22.667 81.999 68c24.667 48 38 97 40 147c2 41.333 -12 63 -42 65z" />
    <glyph glyph-name="A" unicode="A" horiz-adv-x="722" 
d="M689 25v-25h-324v25c14 2 24.667 3 32 3c32 2 48 13 48 33s-15.333 65.333 -46 136h-225l-15 -39c-19.333 -50 -29 -80.667 -29 -92c0 -12.667 6.33301 -22.167 19 -28.5s33.667 -10.5 63 -12.5v-25h-203v25c24 4.66699 41.5 13.667 52.5 27s26.167 43.333 45.5 90
l222 548h28l223 -526c24.667 -58.667 43.5 -96.5 56.5 -113.5s29.167 -25.5 48.5 -25.5h4zM189 236h195l-101 243z" />
    <glyph glyph-name="B" unicode="B" horiz-adv-x="667" 
d="M16 676h309.001c83.333 0 147.5 -13.833 192.5 -41.5s67.5 -67.167 67.5 -118.5c0 -38 -12 -68.5 -36 -91.5s-65 -42.833 -123 -59.5c61.333 -13.333 107.666 -33.333 138.999 -60c36 -32 54 -71 54 -117c0 -56.667 -25.667 -102.167 -77 -136.5
s-119.333 -51.5 -204 -51.5h-322v25c36.667 4 60.5 10.5 71.5 19.5s16.5 26.167 16.5 51.5v484c0 25.333 -6 43 -18 53s-35.333 16 -70 18v25zM264.001 343v-250c0 -22 4.66699 -37.667 14 -47s25 -14 47 -14c81.333 0 122 49 122 147c0 109.333 -51 164 -153 164h-30z
M264.001 597l0.000976562 -223.999c61.333 1.33301 102.666 11.166 123.999 29.499s32 53.833 32 106.5c0 47.333 -8.33301 82 -25 104s-42.334 33 -77.001 33c-19.333 0 -33.166 -3.66699 -41.499 -11s-12.5 -20 -12.5 -38z" />
    <glyph glyph-name="C" unicode="C" horiz-adv-x="722" 
d="M657 152l29.998 -25c-38 -42 -71 -72.667 -99 -92c-53.333 -36 -115 -54 -185 -54c-103.333 0 -188.166 33 -254.499 99s-99.5 150.333 -99.5 253c0 102 33.167 187.167 99.5 255.5s149.166 102.5 248.499 102.5c46 0 97.667 -11.667 155 -35
c20.667 -9.33301 36 -14 46 -14c9.33301 0 17.333 3.33301 24 10s13.334 18.667 20.001 36h27v-234h-25c-17.333 38 -33 67.333 -47 88s-32 40.667 -54 60c-42 37.333 -86.333 56 -133 56c-60 0 -105.667 -27 -137 -81s-47 -132.667 -47 -236
c0 -97.333 14.333 -172.333 43 -225c14.667 -26 36.5 -47 65.5 -63s59.833 -24 92.5 -24c31.333 0 61.333 6 90 18c24.667 9.33301 46.834 21.5 66.501 36.5s44.167 37.833 73.5 68.5z" />
    <glyph glyph-name="D" unicode="D" horiz-adv-x="722" 
d="M97 91v492.999c0 22.667 -5.83301 38.667 -17.5 48s-33.5 15.666 -65.5 18.999v25h305c115.333 0 206 -29.333 272 -88s99 -139.667 99 -243s-33 -186.666 -99 -249.999s-153 -95 -261 -95h-316v25c28.667 0.666992 49.667 6.33398 63 17.001s20 27 20 49zM259 606.999
l-0.000976562 -514c0 -22.667 4 -38 12 -46s23.333 -12 46 -12c64 0 113 23 147 69c34.667 48.667 52 124 52 226c0 86.667 -13.667 156.667 -41 210c-33.333 68 -85.666 102 -156.999 102c-39.333 0 -59 -11.667 -59 -35z" />
    <glyph glyph-name="E" unicode="E" horiz-adv-x="667" 
d="M593 676l0.00292969 -200.997h-25c-12.667 66.667 -35 111.167 -67 133.5s-88.667 33.5 -170 33.5c-26 0 -43.333 -3.16699 -52 -9.5s-13 -18.833 -13 -37.5v-232c54 -0.666992 92.667 9.66602 116 30.999s38.666 60.666 45.999 117.999h26v-338h-26
c-6 58 -20.833 98.333 -44.5 121s-62.834 34 -117.501 34v-242c0 -21.333 5.83301 -36 17.5 -44s33.5 -12 65.5 -12c74 0 133 17.667 177 53c18 14.667 33.167 30.667 45.5 48s26.166 42.666 41.499 75.999h28l-40 -208h-585v25c37.333 4 61.333 10.333 72 19s16 26 16 52
v484c0 25.333 -6 43 -18 53s-35.333 16 -70 18v25h577z" />
    <glyph glyph-name="F" unicode="F" horiz-adv-x="611" 
d="M583 676l0.00195312 -201h-24c-12 54.667 -27.667 93 -47 115c-30.667 34.667 -91.334 52 -182.001 52c-25.333 0 -42.333 -3.16699 -51 -9.5s-13 -18.833 -13 -37.5v-232c50 0 85.667 10.5 107 31.5s36.666 60.167 45.999 117.5h25v-338h-25c-6.66699 58 -21 98 -43 120
s-58.667 33.667 -110 35v-233c0 -27.333 6.83301 -45.5 20.5 -54.5s43.5 -14.5 89.5 -16.5v-25h-360v25c37.333 4 61.333 10.333 72 19s16 26 16 52v484c0 26 -6 43.833 -18 53.5s-35.333 15.5 -70 17.5v25h567z" />
    <glyph glyph-name="G" unicode="G" horiz-adv-x="778" 
d="M755 287l-0.00195312 -25.001c-37.333 -4 -61 -11.333 -71 -22s-15 -34 -15 -70v-127c-32 -18.667 -73 -33.667 -123 -45s-101 -17 -153 -17c-104.667 0 -190.167 32.5 -256.5 97.5s-99.5 149.167 -99.5 252.5c0 102.667 33.167 188.334 99.5 257.001
s149.166 103 248.499 103c46 0 97.667 -11.667 155 -35c20.667 -9.33301 36 -14 46 -14c9.33301 0 17.333 3.33301 24 10s13.334 18.667 20.001 36h27v-234h-25c-17.333 38 -33.166 67.5 -47.499 88.5s-32.166 40.833 -53.499 59.5c-43.333 37.333 -87.666 56 -132.999 56
c-60.667 0 -106.5 -27.167 -137.5 -81.5s-46.5 -133.833 -46.5 -238.5c0 -119.333 21.667 -206.666 65 -261.999c32 -41.333 78 -62 138 -62c33.333 0 57.666 5.83301 72.999 17.5s23 30.167 23 55.5v105c0 27.333 -6.16699 45.166 -18.5 53.499s-39.833 13.833 -82.5 16.5
v25h343z" />
    <glyph glyph-name="H" unicode="H" horiz-adv-x="778" 
d="M509 326l-241 -0.000976562v-230c0 -24.667 5.83301 -41.667 17.5 -51s35.834 -16 72.501 -20v-25h-337v25c34.667 4.66699 57.5 11.5 68.5 20.5s16.5 25.833 16.5 50.5v484c0 24.667 -5.83301 41.834 -17.5 51.501s-34.167 16.167 -67.5 19.5v25h337v-25
c-34.667 -2.66699 -58.334 -8.83398 -71.001 -18.501s-19 -27.167 -19 -52.5v-207h241v207c0 25.333 -6.33301 42.833 -19 52.5s-36.334 15.834 -71.001 18.501v25h340v-25c-34 -2.66699 -57.167 -9 -69.5 -19s-18.5 -27.333 -18.5 -52v-484
c0 -24.667 5.66699 -41.5 17 -50.5s35 -15.833 71 -20.5v-25h-340v25c36.667 4 60.834 10.667 72.501 20s17.5 26.333 17.5 51v230z" />
    <glyph glyph-name="I" unicode="I" horiz-adv-x="389" 
d="M113 96l0.000976562 484.001c0 25.333 -6.5 42.833 -19.5 52.5s-37.5 15.834 -73.5 18.501v25h350v-25c-36.667 -1.33301 -61.667 -7 -75 -17s-20 -28 -20 -54v-484c0 -26 6.33301 -43.667 19 -53s38 -15.333 76 -18v-25h-350v25
c37.333 3.33301 62.166 9.66602 74.499 18.999s18.5 26.666 18.5 51.999z" />
    <glyph glyph-name="J" unicode="J" horiz-adv-x="500" 
d="M390 559l0.000976562 -435.999c0 -71.333 -18.167 -125.666 -54.5 -162.999s-89.5 -56 -159.5 -56c-42 0 -77.333 7.66699 -106 23c-19.333 11.333 -35.333 27.166 -48 47.499s-19 40.833 -19 61.5c0 19.333 7 36.166 21 50.499s30.333 21.5 49 21.5
c19.333 0 36.333 -7.5 51 -22.5s22 -32.5 22 -52.5c0 -12.667 -5 -25.334 -15 -38.001c-8 -10.667 -12 -19.334 -12 -26.001c0 -9.33301 4.16699 -17 12.5 -23s19.166 -9 32.499 -9c22.667 0 39 6.83301 49 20.5s15 35.834 15 66.501v556
c0 26.667 -6.66699 44.834 -20 54.501s-40.333 15.167 -81 16.5v25h352v-25c-37.333 -2.66699 -61.5 -9.66699 -72.5 -21s-16.5 -35 -16.5 -71z" />
    <glyph glyph-name="K" unicode="K" horiz-adv-x="778" 
d="M769 25l0.00390625 -25h-336v25c9.33301 0.666992 20 1 32 1c31.333 2 47 8.66699 47 20c0 9.33301 -8 24 -24 44l-182 227l-27 -25v-196c0 -24.667 5.66699 -41.5 17 -50.5s35 -15.833 71 -20.5v-25h-337v25c36 4 59.5 10.5 70.5 19.5s16.5 26.167 16.5 51.5v484
c0 26 -5.83301 43.833 -17.5 53.5s-34.834 15.5 -69.501 17.5v25h338v-25c-36.667 -2.66699 -60.667 -9.83398 -72 -21.501s-17 -35.167 -17 -70.5v-214l217 218c15.333 15.333 25.166 26.333 29.499 33s6.5 14 6.5 22c0 10 -3.66699 17.333 -11 22s-20 7.33398 -38 8.00098
c-4 0.666992 -16 1.66699 -36 3v25h289v-25c-48.667 -4 -90.834 -18.667 -126.501 -44s-100.5 -86.333 -194.5 -183l305 -378c11.333 -13.333 27.666 -20.333 48.999 -21z" />
    <glyph glyph-name="L" unicode="L" horiz-adv-x="667" 
d="M638 227l-41 -227.002h-578v25c36.667 4.66699 60.167 11.334 70.5 20.001s15.5 25.667 15.5 51v484c0 25.333 -5.83301 43 -17.5 53s-34.5 16 -68.5 18v25h349v-25c-43.333 -2 -71 -8.5 -83 -19.5s-18 -35.167 -18 -72.5v-472c0 -21.333 5.66699 -36 17 -44
s32.333 -12 63 -12c75.333 0 133.333 18.333 174 55c18 16 33.167 33.833 45.5 53.5s26.5 48.834 42.5 87.501h29z" />
    <glyph glyph-name="M" unicode="M" horiz-adv-x="944" 
d="M678 609l-252 -608.998h-27l-252 594v-470c0 -37.333 6.66699 -62.5 20 -75.5s40.333 -20.833 81 -23.5v-25h-234v25c38.667 4 63.5 10.833 74.5 20.5s16.5 29.5 16.5 59.5v475c0 26 -5.66699 43.667 -17 53s-35.333 15.333 -72 18v25h253l200 -472l200 472h252v-25
c-36.667 -2.66699 -60.5 -9.66699 -71.5 -21s-16.5 -35 -16.5 -71v-442c0 -35.333 5 -58.333 15 -69s34.333 -18.334 73 -23.001v-25h-332v25c37.333 3.33301 61.5 9.66602 72.5 18.999s16.5 28 16.5 56v509z" />
    <glyph glyph-name="N" unicode="N" horiz-adv-x="722" 
d="M230 676l349.002 -429v305c0 35.333 -6.33301 59.833 -19 73.5s-37.334 22.167 -74.001 25.5v25h215v-25c-32.667 -5.33301 -53.834 -12.833 -63.501 -22.5s-14.5 -28.834 -14.5 -57.501v-589h-28l-447 544v-402c0 -35.333 6.16699 -59.5 18.5 -72.5
s37.833 -21.833 76.5 -26.5v-25h-227v25c36.667 4.66699 60.5 12 71.5 22s16.5 29.333 16.5 58v474c-24 28.667 -41.667 47.834 -53 57.501s-22 14.5 -32 14.5v25h211z" />
    <glyph glyph-name="O" unicode="O" horiz-adv-x="778" 
d="M393 691c100.667 0 184.165 -33.666 250.498 -100.999s99.5 -152 99.5 -254c0 -103.333 -33.167 -188.333 -99.5 -255s-151.166 -100 -254.499 -100s-188.166 33.167 -254.499 99.5s-99.5 151.166 -99.5 254.499c0 104 33.5 189.333 100.5 256s152.833 100 257.5 100z
M391.998 658.001c-58.667 0 -103.332 -28.335 -133.999 -85.002s-46 -139 -46 -247c0 -101.333 15.167 -178.666 45.5 -231.999s74.166 -80 131.499 -80s101.166 26.833 131.499 80.5s45.5 131.834 45.5 234.501c0 104 -15.167 184.833 -45.5 242.5
s-73.166 86.5 -128.499 86.5z" />
    <glyph glyph-name="P" unicode="P" horiz-adv-x="611" 
d="M262 303l0.00195312 -185.998c0 -36.667 4.83301 -59.834 14.5 -69.501s34.167 -17.167 73.5 -22.5v-25h-334v25c14.667 2.66699 22.667 4 24 4c23.333 2.66699 39.166 10.167 47.499 22.5s12.5 34.166 12.5 65.499v442c0 35.333 -5.33301 58.833 -16 70.5
s-33.334 18.834 -68.001 21.501v25h322c83.333 0 147.833 -15.833 193.5 -47.5s68.5 -76.5 68.5 -134.5c0 -38.667 -10.833 -72.667 -32.5 -102s-52.5 -51.666 -92.5 -66.999c-22 -8.66699 -46 -14.334 -72 -17.001s-73 -4.33398 -141 -5.00098zM262.002 606.002v-268
c64 0 106.667 9 128 27c25.333 22.667 38 64 38 124c0 54 -9 92.833 -27 116.5s-47.667 35.5 -89 35.5c-33.333 0 -50 -11.667 -50 -35z" />
    <glyph glyph-name="Q" unicode="Q" horiz-adv-x="778" 
d="M730 -117l6.00195 -23.998c-64.667 -23.333 -124.334 -35 -179.001 -35c-93.333 0 -169.333 29.333 -228 88c-19.333 19.333 -38 48 -56 86c-38 14 -67.167 27.5 -87.5 40.5s-40.833 30.833 -61.5 53.5c-59.333 65.333 -89 145 -89 239c0 104 33.5 190 100.5 258
s151.5 102 253.5 102c103.333 0 188.166 -33.5 254.499 -100.5s99.5 -152.5 99.5 -256.5c0 -98.667 -31.333 -181.334 -94 -248.001c-21.333 -22.667 -43 -40.334 -65 -53.001s-53.333 -25.667 -94 -39c15.333 -31.333 31 -55 47 -71c34.667 -34.667 76.667 -52 126 -52
c16 0 38.333 4 67 12zM390.002 658.002c-57.333 0 -101.332 -28.332 -131.999 -84.999s-46 -137.334 -46 -242.001c0 -104 15 -182.833 45 -236.5s74 -80.5 132 -80.5c57.333 0 101.166 27 131.499 81s45.5 132.333 45.5 235c0 104 -15.333 184.667 -46 242s-74 86 -130 86z
" />
    <glyph glyph-name="R" unicode="R" horiz-adv-x="722" 
d="M715 25l0.000976562 -24.999h-205l-207 313h-27v-196c0 -35.333 5 -58.333 15 -69s34.333 -18.334 73 -23.001v-25h-338v25c39.333 4.66699 63.833 12 73.5 22s14.5 33.333 14.5 70v442c0 36 -5.5 59.667 -16.5 71s-34.833 18.333 -71.5 21v25h322
c91.333 0 161.166 -15.333 209.499 -46s72.5 -74.667 72.5 -132c0 -46.667 -15 -84 -45 -112c-24.667 -22 -62 -41 -112 -57l201 -285c10 -12.667 23.667 -19 41 -19zM276.001 600.001v-255c66.667 0.666992 112 9 136 25c31.333 20.667 47 62 47 124
c0 52.667 -10 90.5 -30 113.5s-53 34.5 -99 34.5c-25.333 0 -41 -5 -47 -15c-4.66699 -9.33301 -7 -18.333 -7 -27z" />
    <glyph glyph-name="S" unicode="S" horiz-adv-x="556" 
d="M484 475l-28.0029 -0.000976562c-10 32.667 -19.833 58 -29.5 76s-23.167 35.667 -40.5 53c-36 37.333 -77 56 -123 56c-34 0 -60.833 -9 -80.5 -27s-29.5 -42.333 -29.5 -73c0 -24 7.16699 -43.833 21.5 -59.5s41.5 -33.5 81.5 -53.5l147 -73c32 -16 58.333 -41 79 -75
s31 -69.667 31 -107c0 -62.667 -22.833 -113.5 -68.5 -152.5s-105.5 -58.5 -179.5 -58.5c-39.333 0 -82.666 8 -129.999 24c-20.667 6.66699 -34.334 10 -41.001 10c-14.667 0 -24.667 -11.333 -30 -34h-29v247h29c14.667 -60.667 34 -107.334 58 -140.001
c38 -49.333 86.667 -74 146 -74c38.667 0 69.334 10.333 92.001 31s34 48.334 34 83.001c0 26 -7.66699 47.333 -23 64s-45 35.334 -89 56.001l-67 32c-59.333 28.667 -102.666 59.5 -129.999 92.5s-41 71.5 -41 115.5c0 63.333 19.5 113 58.5 149s92.5 54 160.5 54
c34.667 0 73.667 -7.33301 117 -22c20 -7.33301 34 -11 42 -11c8.66699 0 15.334 2.5 20.001 7.5s8.66699 13.833 12 26.5h30v-217z" />
    <glyph glyph-name="T" unicode="T" horiz-adv-x="667" 
d="M253 117v527.002c-62 -2 -107.5 -15.833 -136.5 -41.5s-47.833 -68.167 -56.5 -127.5h-29l3 201h600l2 -201h-29c-8.66699 59.333 -27.5 101.833 -56.5 127.5s-74.167 39.5 -135.5 41.5v-527c0 -38 5.5 -62 16.5 -72s38.167 -16.667 81.5 -20v-25h-357v25
c42.667 3.33301 69.5 10.166 80.5 20.499s16.5 34.166 16.5 71.499z" />
    <glyph glyph-name="U" unicode="U" horiz-adv-x="722" 
d="M623 566l0.00195312 -319.003c0 -98 -23.667 -167 -71 -207c-46 -39.333 -108.333 -59 -187 -59c-74.667 0 -136.334 17.667 -185.001 53c-30.667 22 -52 47 -64 75s-18 66.667 -18 116v334c0 36 -4.83301 59.5 -14.5 70.5s-32.167 18.167 -67.5 21.5v25h338v-25
c-40 -1.33301 -65.333 -6.66602 -76 -15.999c-14 -13.333 -21 -38.666 -21 -75.999v-334c0 -68 11.667 -117.5 35 -148.5s60.666 -46.5 111.999 -46.5c59.333 0 103.333 17.667 132 53s43 90 43 164v305c0 36.667 -6.5 61.5 -19.5 74.5s-39.167 21.167 -78.5 24.5v25h220
v-25c-32 -4.66699 -53 -12.667 -63 -24s-15 -31.666 -15 -60.999z" />
    <glyph glyph-name="V" unicode="V" horiz-adv-x="722" 
d="M701 676v-25c-26 -3.33301 -44.5 -10 -55.5 -20s-22.5 -30.667 -34.5 -62l-228 -587h-27l-256 599c-12.667 27.333 -23.667 45 -33 53s-26.333 13.667 -51 17v25h336v-25c-20 -1.33301 -31 -2 -33 -2c-35.333 -2 -53 -14 -53 -36c0 -12 7.66699 -36 23 -72l138 -334
l127 329c13.333 34 20 57.667 20 71c0 16 -5.33301 26.667 -16 32s-34 9.33301 -70 12v25h213z" />
    <glyph glyph-name="W" unicode="W" horiz-adv-x="1000" 
d="M981 676l0.000976562 -24.998c-33.333 -3.33301 -56.333 -24.666 -69 -63.999l-200 -602h-27l-171 477l-186 -477h-28l-212 602c-8.66699 24.667 -17 40.667 -25 48s-22.667 12.666 -44 15.999v25h294v-25c-26 -2 -43.167 -5.83301 -51.5 -11.5
s-12.5 -15.834 -12.5 -30.501c0 -7.33301 2.33301 -18.333 7 -33l120 -364l118 308l-35 96c-10 21.333 -34 33 -72 35v25h312v-25c-4 -0.666992 -8.33301 -1 -13 -1c-22 -1.33301 -37.333 -4.66602 -46 -9.99902s-13 -14 -13 -26c0 -7.33301 4.66699 -26 14 -56l108 -336
l112 343c4.66699 13.333 7 27.333 7 42c0 15.333 -4.83301 26.166 -14.5 32.499s-27.834 10.166 -54.501 11.499v25h182z" />
    <glyph glyph-name="X" unicode="X" horiz-adv-x="722" 
d="M688 676l-0.000976562 -24.9961c-37.333 -3.33301 -67 -13.666 -89 -30.999s-55 -55.666 -99 -114.999l-80 -111l182 -283c24 -36 41.833 -59.167 53.5 -69.5s26.167 -15.833 43.5 -16.5v-25h-340v25c17.333 1.33301 26.666 2 27.999 2c34.667 2 52 11.333 52 28
c0 14 -7 32 -21 54l-101 162l-38 -51c-37.333 -50.667 -62.333 -86.334 -75 -107.001s-19 -36.334 -19 -47.001c0 -12.667 5.83301 -21.834 17.5 -27.501s32.834 -10.167 63.501 -13.5v-25h-250v25c24.667 2.66699 44.334 8 59.001 16s29.667 21.333 45 40l175 221l-198 291
c-15.333 22.667 -28 37.667 -38 45s-24 11.666 -42 12.999v25h346v-25c-18.667 -1.33301 -29 -2 -31 -2c-18 -0.666992 -30.5 -3.33398 -37.5 -8.00098s-10.5 -12.334 -10.5 -23.001c0 -9.33301 5 -21.666 15 -36.999l97 -150l56 77c38.667 52.667 58 88 58 106
c0 12 -3.66699 20.667 -11 26s-21 8.33301 -41 9c-0.666992 0 -2 0.166992 -4 0.5s-4.66699 0.666016 -8 0.999023s-6 0.5 -8 0.5v25h250z" />
    <glyph glyph-name="Y" unicode="Y" horiz-adv-x="722" 
d="M699 676l-0.000976562 -25c-31.333 -4.66699 -54 -17.667 -68 -39l-191 -311v-184c0 -36.667 5.16699 -60.167 15.5 -70.5s35.833 -17.5 76.5 -21.5v-25h-347v25c40.667 4 66.334 11.167 77.001 21.5s16 33.833 16 70.5v147l-183 332
c-20.667 34.667 -47.334 53 -80.001 55v25h335v-25l-25 -1c-20.667 0 -35.167 -2.33301 -43.5 -7s-12.5 -12.334 -12.5 -23.001c0 -10 6 -25.667 18 -47c3.33301 -6 5.33301 -10 6 -12l120 -232l111 185c26 42.667 39 74.334 39 95.001c0 14.667 -5.66699 24.667 -17 30
s-33.666 9.33301 -66.999 12v25h220z" />
    <glyph glyph-name="Z" unicode="Z" horiz-adv-x="667" 
d="M634 241l-26 -241.001h-580v16l382 625c-46.667 -1.33301 -74.334 -2.33301 -83.001 -3c-74 0.666992 -126.5 -9.83301 -157.5 -31.5s-58.5 -67.167 -82.5 -136.5h-28l21 206h524v-16l-379 -625h74c104.667 0 175.334 13 212.001 39c23.333 16.667 42 36.834 56 60.501
s27.667 59.167 41 106.5h26z" />
    <glyph glyph-name="bracketleft" unicode="[" horiz-adv-x="333" 
d="M301 -116v-33h-234v827h234v-33h-63c-28 0 -46.167 -4.33301 -54.5 -13s-12.5 -27.667 -12.5 -57v-638c0 -21.333 3.16699 -35.5 9.5 -42.5s19.833 -10.5 40.5 -10.5h80z" />
    <glyph glyph-name="backslash" unicode="\" horiz-adv-x="278" 
d="M211 -19l-236 710h93l235 -710h-92z" />
    <glyph glyph-name="bracketright" unicode="]" horiz-adv-x="333" 
d="M32 -149v33h80c20.667 0 34.167 3.33301 40.5 10s9.5 21 9.5 43v638c0 29.333 -4.16699 48.333 -12.5 57s-26.5 13 -54.5 13h-63v33h234v-827h-234z" />
    <glyph glyph-name="asciicircum" unicode="^" horiz-adv-x="581" 
d="M162 311h-89l178 365h80l178 -365h-89l-129 272z" />
    <glyph glyph-name="underscore" unicode="_" horiz-adv-x="500" 
d="M500 -125h-500v50h500v-50z" />
    <glyph glyph-name="grave" unicode="`" horiz-adv-x="333" 
d="M246 528l-56 -0.000976562l-142 88c-26.667 16.667 -40 34 -40 52c0 12.667 4.5 23.334 13.5 32.001s20.167 13 33.5 13c19.333 0 37.333 -9.33301 54 -28z" />
    <glyph glyph-name="a" unicode="a" horiz-adv-x="500" 
d="M473 64l14.9932 -21c-35.333 -38 -72.666 -57 -111.999 -57c-24.667 0 -43.167 5.33301 -55.5 16s-21.166 28.667 -26.499 54c-51.333 -46.667 -104 -70 -158 -70c-32 0 -58.5 10 -79.5 30s-31.5 45.333 -31.5 76c0 41.333 21.333 77 64 107
c34 22.667 102.333 49.667 205 81v73c0 30.667 -6.66699 53 -20 67s-34.666 21 -63.999 21c-17.333 0 -32.166 -3.5 -44.499 -10.5s-18.5 -15.833 -18.5 -26.5c0 -6 4 -13.333 12 -22c12 -16 18 -30.333 18 -43c0 -17.333 -6.33301 -31.333 -19 -42s-29 -16 -49 -16
c-20.667 0 -36.667 5.83301 -48 17.5s-17 27.834 -17 48.501c0 37.333 17.333 67.666 52 90.999s80.334 35 137.001 35c60.667 0 108.834 -12.333 144.501 -37s53.5 -58 53.5 -100v-261c0 -16.667 7 -25 21 -25c4.66699 0 8.33398 1.33301 11.001 4zM292.993 100v144.999
c-81.333 -21.333 -122 -61.666 -122 -120.999c0 -20 4.66699 -36.167 14 -48.5s21.666 -18.5 36.999 -18.5c22.667 0 46.334 14.333 71.001 43z" />
    <glyph glyph-name="b" unicode="b" horiz-adv-x="556" 
d="M211 676v-259.001c35.333 37.333 76 56 122 56c55.333 0 100.5 -21.667 135.5 -65s52.5 -99.666 52.5 -168.999c0 -74.667 -21 -135.5 -63 -182.5s-96.333 -70.5 -163 -70.5c-45.333 0 -89.333 19 -132 57l-79 -56h-12v607c0 20 -3.33301 33.5 -10 40.5
s-21.667 12.833 -45 17.5v24h194zM211 359.999l-0.00195312 -263c0 -24 6.33301 -43.167 19 -57.5s29.334 -21.5 50.001 -21.5c62.667 0 94 67.667 94 203c0 132 -31 198 -93 198c-31.333 0 -54.666 -19.667 -69.999 -59z" />
    <glyph glyph-name="c" unicode="c" horiz-adv-x="444" 
d="M412 109l18.002 -18.0029c-29.333 -37.333 -58.833 -64.166 -88.5 -80.499s-63.834 -24.5 -102.501 -24.5c-62 0 -113.167 22.333 -153.5 67s-60.5 101.334 -60.5 170.001c0 72 22.333 131.667 67 179s101 71 169 71c44 0 80.833 -10.5 110.5 -31.5
s44.5 -47.167 44.5 -78.5c0 -19.333 -6 -34.666 -18 -45.999s-28.667 -17 -50 -17c-36.667 0 -55.334 24 -56.001 72c0 28 -1.66699 45 -5 51c-6.66699 12.667 -19 19 -37 19c-26 0 -46.5 -14.833 -61.5 -44.5s-22.5 -70.167 -22.5 -121.5
c0 -68 12.833 -122.167 38.5 -162.5s60.167 -60.5 103.5 -60.5c20.667 0 38.5 4.16699 53.5 12.5s31.833 22.833 50.5 43.5z" />
    <glyph glyph-name="d" unicode="d" horiz-adv-x="556" 
d="M339 -13l-0.00195312 65c-23.333 -24.667 -44.666 -41.834 -63.999 -51.501s-42.333 -14.5 -69 -14.5c-52.667 0 -96 22.167 -130 66.5s-51 100.5 -51 168.5c0 72.667 18.167 132.834 54.5 180.501s82.166 71.5 137.499 71.5c22.667 0 42.834 -4.5 60.501 -13.5
s37.167 -25.167 58.5 -48.5v183c0 23.333 -4.33301 38.166 -13 44.499s-29.667 10.833 -63 13.5v24h215v-575c0 -21.333 4.16699 -36 12.5 -44s23.833 -12.667 46.5 -14v-23l-62 -8c-49.333 -5.33301 -93.666 -13.666 -132.999 -24.999zM335.998 112v243
c-6.66699 18.667 -17.167 33.667 -31.5 45s-29.833 17 -46.5 17c-56.667 0 -85 -62.667 -85 -188c0 -124.667 26 -187 78 -187c22 0 43 11.333 63 34c14.667 16 22 28 22 36z" />
    <glyph glyph-name="e" unicode="e" horiz-adv-x="444" 
d="M402 125l24.001 -14.001c-32.667 -46.667 -63.167 -79.167 -91.5 -97.5s-62.833 -27.5 -103.5 -27.5c-62 0 -111.833 22.167 -149.5 66.5s-56.5 102.833 -56.5 175.5c0 73.333 19.167 132.5 57.5 177.5s88.833 67.5 151.5 67.5c56 0 100.667 -19.667 134 -59
c30 -35.333 47.667 -91.666 53 -168.999h-252c3.33301 -60 13.333 -104.667 30 -134c21.333 -35.333 51 -53 89 -53c21.333 0 40.666 5 57.999 15s36 27.333 56 52zM164.001 281.999h133.999v15c-2 50 -5 82.667 -9 98c-8 31.333 -26.333 47 -55 47
c-24.667 0 -42.167 -11.667 -52.5 -35s-16.166 -65 -17.499 -125z" />
    <glyph glyph-name="f" unicode="f" horiz-adv-x="333" 
d="M71 417l-57 0.00195312v44h57c0 77.333 9.66699 131.333 29 162c28 45.333 76.667 68 146 68c42 0 76.333 -9.33301 103 -28s40 -42.667 40 -72c0 -18.667 -5.66699 -33.667 -17 -45s-26.333 -17 -45 -17c-16.667 0 -30.834 5.33301 -42.501 16s-17.5 23.667 -17.5 39
c0 9.33301 4.33301 21.333 13 36c6 10 9 17 9 21c0 12.667 -9.66699 19 -29 19c-17.333 0 -30 -6 -38 -18s-12 -31.667 -12 -59v-122h87v-44h-87v-314c0 -32.667 5 -53.834 15 -63.501s32.333 -14.834 67 -15.501v-24h-278v24c22.667 2.66699 37.834 8 45.501 16
s11.5 22.667 11.5 44v333z" />
    <glyph glyph-name="g" unicode="g" horiz-adv-x="500" 
d="M482 398l-81.0029 0.00292969c26.667 -26.667 40 -59.334 40 -98.001c0 -54 -22.667 -94 -68 -120c-29.333 -17.333 -64.666 -26 -105.999 -26l-45 1c-20 0 -36.333 -4.83301 -49 -14.5s-19 -22.167 -19 -37.5c0 -14 6.66699 -23.333 20 -28s40 -7 80 -7h65
c51.333 0 91.5 -10.833 120.5 -32.5s43.5 -51.834 43.5 -90.501c0 -49.333 -21.5 -86.833 -64.5 -112.5s-106.167 -38.5 -189.5 -38.5c-63.333 0 -112.666 8.16699 -147.999 24.5s-53 38.833 -53 67.5c0 40.667 32 65.667 96 75c-32 11.333 -53.667 22.666 -65 33.999
s-17 27.333 -17 48c0 50.667 39.667 89.667 119 117c-39.333 16.667 -68.666 35.667 -87.999 57c-24 29.333 -36 61 -36 95c0 47.333 19 86 57 116s86.667 45 146 45c34.667 0 72 -7.33301 112 -22h130v-53zM323.997 -51.9971h-173c-14 -11.333 -23.333 -20.666 -28 -27.999
s-7 -16.333 -7 -27c0 -44.667 44.667 -67 134 -67c49.333 0 87.333 6.16699 114 18.5s40 30.166 40 53.499c0 33.333 -26.667 50 -80 50zM239.997 442.003c-23.333 0 -40.167 -10.167 -50.5 -30.5s-15.5 -53.833 -15.5 -100.5s5 -79.834 15 -99.501s27 -29.5 51 -29.5
c23.333 0 40.166 9.83301 50.499 29.5s15.5 52.834 15.5 99.501s-5.16699 80.167 -15.5 100.5s-27.166 30.5 -50.499 30.5z" />
    <glyph glyph-name="h" unicode="h" horiz-adv-x="556" 
d="M208 676l0.000976562 -281.003c26 28.667 49.5 48.834 70.5 60.501s44.833 17.5 71.5 17.5c41.333 0 74.166 -12.833 98.499 -38.5s36.5 -59.834 36.5 -102.501v-248c0 -20.667 3.66699 -35.5 11 -44.5s20 -14.167 38 -15.5v-24h-235v24c16.667 2 28.667 7.33301 36 16
s11 22.334 11 41.001v242c0 55.333 -17.333 83 -52 83c-24 0 -47 -11.667 -69 -35c-11.333 -10 -17 -17.667 -17 -23v-267c0 -18.667 3.5 -32.167 10.5 -40.5s19.833 -13.833 38.5 -16.5v-24h-241v24c22.667 4.66699 37.167 10.667 43.5 18s9.5 21.333 9.5 42v510
c0 20.667 -3.16699 34.334 -9.5 41.001s-20.833 12.334 -43.5 17.001v24h192z" />
    <glyph glyph-name="i" unicode="i" horiz-adv-x="278" 
d="M208 461v-380c0 -18.667 3.5 -32.167 10.5 -40.5s19.167 -13.833 36.5 -16.5v-24h-239v24c22.667 5.33301 37.167 11.5 43.5 18.5s9.5 20.833 9.5 41.5v294c0 20.667 -3.33301 34.5 -10 41.5s-21 12.833 -43 17.5v24h192zM138 691
c21.333 0 39.501 -7.66895 54.501 -23.002s22.5 -33.666 22.5 -54.999c0 -22 -7.5 -40.333 -22.5 -55s-33.5 -22 -55.5 -22s-40.333 7.33301 -55 22s-22 33.334 -22 56.001c0 21.333 7.66699 39.5 23 54.5s33.666 22.5 54.999 22.5z" />
    <glyph glyph-name="j" unicode="j" horiz-adv-x="333" 
d="M260 461l-0.000976562 -458.999c0 -56 -9 -99 -27 -129c-28.667 -50.667 -78.667 -76 -150 -76c-41.333 0 -75 9.33301 -101 28s-39 42.667 -39 72c0 18 5.66699 32.667 17 44s26.333 17 45 17c16 0 29.833 -5.33301 41.5 -16s17.5 -23.334 17.5 -38.001
c0 -10 -4.66699 -22.333 -14 -37c-6 -10 -9 -17.333 -9 -22c0 -11.333 10.667 -17 32 -17c32 0 48 25.333 48 76v474c0 21.333 -4.16699 36 -12.5 44s-25.166 13 -50.499 15v24h202zM184.999 691.001c21.333 0 39.666 -7.66895 54.999 -23.002s23 -33.666 23 -54.999
s-7.66699 -39.5 -23 -54.5s-33.666 -22.5 -54.999 -22.5c-22.667 0 -41.167 7.33301 -55.5 22s-21.5 33.334 -21.5 56.001c0 21.333 7.5 39.5 22.5 54.5s33.167 22.5 54.5 22.5z" />
    <glyph glyph-name="k" unicode="k" horiz-adv-x="556" 
d="M513 461v-23.002c-31.333 -4 -58.166 -13.667 -80.499 -29s-58.5 -49.333 -108.5 -102l194 -268c7.33301 -10 15.666 -15 24.999 -15v-24h-234v24c28 1.33301 42 7.66602 42 18.999c0 6.66699 -8 21.667 -24 45l-95 134l-23 -24v-114c0 -23.333 2.83301 -38.333 8.5 -45
s20.167 -11.667 43.5 -15v-24h-239v24c32 2.66699 48 22.667 48 60v510c0 36 -16 55.333 -48 58v24h187v-431l128 128c14 14 21 26.667 21 38c0 12.667 -11.667 20.334 -35 23.001c-1.33301 0.666992 -4.83301 1.33398 -10.5 2.00098s-10.167 1.33398 -13.5 2.00098v23h214z
" />
    <glyph glyph-name="l" unicode="l" horiz-adv-x="278" 
d="M206 676v-592c0 -39.333 16.333 -59.333 49 -60v-24h-239v24c34 2.66699 51 22.667 51 60v510c0 36 -17 55.333 -51 58v24h190z" />
    <glyph glyph-name="m" unicode="m" horiz-adv-x="833" 
d="M207 461l0.000976562 -74.999c36.667 58 85.667 87 147 87c31.333 0 56.666 -6.66699 75.999 -20s36.666 -35.666 51.999 -66.999c26 32 49.833 54.5 71.5 67.5s46.834 19.5 75.501 19.5c41.333 0 74.166 -12.833 98.499 -38.5s36.5 -59.834 36.5 -102.501v-251
c0 -21.333 3.5 -35.833 10.5 -43.5s20.167 -12.167 39.5 -13.5v-24h-238v24c19.333 1.33301 32.333 6 39 14s10 22.333 10 43v242c0 29.333 -4.16699 50.5 -12.5 63.5s-21.833 19.5 -40.5 19.5c-16.667 0 -35.334 -8 -56.001 -24
c-6.66699 -4.66699 -13.167 -10.834 -19.5 -18.501s-9.5 -12.834 -9.5 -15.501v-267c0 -19.333 3.5 -33.166 10.5 -41.499s19.167 -13.5 36.5 -15.5v-24h-234v24c18.667 1.33301 31.334 6 38.001 14s10 22.333 10 43v242c0 30 -4.16699 51.333 -12.5 64
s-22.166 19 -41.499 19c-16.667 0 -35 -7.66699 -55 -23c-6.66699 -5.33301 -13.167 -11.833 -19.5 -19.5s-9.5 -12.834 -9.5 -15.501v-267c0 -19.333 3.33301 -33 10 -41s18.667 -13.333 36 -16v-24h-240v24c22 4 36.667 9.83301 44 17.5s11 21.834 11 42.501v294
c0 20.667 -3.66699 35 -11 43s-22 13.333 -44 16v24h191z" />
    <glyph glyph-name="n" unicode="n" horiz-adv-x="556" 
d="M212 461v-75.001c36.667 58 84.334 87 143.001 87c41.333 0 74.166 -12.833 98.499 -38.5s36.5 -59.834 36.5 -102.501v-251c0 -21.333 3.33301 -35.833 10 -43.5s19.667 -12.167 39 -13.5v-24h-235v24c16.667 2 28.667 7.33301 36 16s11 22.334 11 41.001v242
c0 55.333 -17.333 83 -52 83c-24 0 -47 -11.667 -69 -35c-11.333 -10 -17 -17.667 -17 -23v-267c0 -18.667 3.5 -32.167 10.5 -40.5s19.833 -13.833 38.5 -16.5v-24h-241v24c22.667 4.66699 37.167 10.667 43.5 18s9.5 21.333 9.5 42v294
c0 20.667 -3.33301 34.834 -10 42.501s-21 13.167 -43 16.5v24h191z" />
    <glyph glyph-name="o" unicode="o" horiz-adv-x="500" 
d="M251 473c64.667 0 118.334 -23.167 161.001 -69.5s64 -104.5 64 -174.5c0 -69.333 -21.333 -127.166 -64 -173.499s-96.334 -69.5 -161.001 -69.5c-65.333 0 -119.333 23.167 -162 69.5s-64 105.166 -64 176.499c0 68 21.833 125.167 65.5 171.5s97.167 69.5 160.5 69.5z
M252 442c-30.667 0 -51.666 -16 -62.999 -48s-17 -92 -17 -180c0 -73.333 5.83301 -124.5 17.5 -153.5s32.167 -43.5 61.5 -43.5s49.666 15.167 60.999 45.5s17 83.833 17 160.5c0 82 -5.66699 139 -17 171s-31.333 48 -60 48z" />
    <glyph glyph-name="p" unicode="p" horiz-adv-x="556" 
d="M212 461v-69.002c15.333 28.667 32.833 49.334 52.5 62.001s44.167 19 73.5 19c55.333 0 100.166 -21.667 134.499 -65s51.5 -99.666 51.5 -168.999c0 -74 -18 -134.5 -54 -181.5s-82 -70.5 -138 -70.5c-22 0 -41.167 4.16699 -57.5 12.5s-36.5 24.166 -60.5 47.499v-141
c0 -33.333 5.33301 -56.333 16 -69s31.334 -19.667 62.001 -21v-21h-273v24c24 4 39.333 9.5 46 16.5s10 20.833 10 41.5v501c0 20.667 -3.5 34.834 -10.5 42.501s-21.5 13.167 -43.5 16.5v24h191zM214 345.998l0.000976562 -243c16 -40.667 41.667 -61 77 -61
c56.667 0 85 61 85 183c0 127.333 -25.333 191 -76 191c-22.667 0 -44.334 -11.333 -65.001 -34c-14 -15.333 -21 -27.333 -21 -36z" />
    <glyph glyph-name="q" unicode="q" horiz-adv-x="556" 
d="M342 -97v139c-38 -37.333 -79 -56 -123 -56c-54.667 0 -99.167 21.667 -133.5 65s-51.5 99.333 -51.5 168c0 74.667 20.667 135.667 62 183s94.666 71 159.999 71c24.667 0 46.334 -4 65.001 -12s41 -23 67 -45l78 56h15v-595c0 -20 3.33301 -33.5 10 -40.5
s21.667 -12.833 45 -17.5v-24h-267v25c32.667 6 53 13.667 61 23s12 29.333 12 60zM342 98v263c0 24 -6.16699 43.333 -18.5 58s-28.5 22 -48.5 22c-63.333 0 -95 -68.333 -95 -205c0 -130.667 31 -196 93 -196c35.333 0 58.333 19.333 69 58z" />
    <glyph glyph-name="r" unicode="r" horiz-adv-x="444" 
d="M218 461l0.000976562 -82c23.333 33.333 45.5 57.333 66.5 72s43.833 22 68.5 22c23.333 0 42.666 -7.33301 57.999 -22s23 -33.334 23 -56.001c0 -19.333 -5.83301 -35.333 -17.5 -48s-26.834 -19 -45.501 -19c-23.333 0 -43.333 12 -60 36
c-10.667 15.333 -20 23 -28 23c-16.667 0 -31 -9.33301 -43 -28s-18 -41 -18 -67v-189c0 -31.333 4.5 -51.833 13.5 -61.5s28.833 -15.5 59.5 -17.5v-24h-266v24c22 4 36.5 9.83301 43.5 17.5s10.5 21.834 10.5 42.501v294c0 20 -3.66699 34.167 -11 42.5
s-21.666 13.833 -42.999 16.5v24h189z" />
    <glyph glyph-name="s" unicode="s" horiz-adv-x="389" 
d="M340 326l-25 0.00488281c-12.667 36.667 -28.334 64 -47.001 82c-22.667 21.333 -47.667 32 -75 32c-18.667 0 -34.334 -5.5 -47.001 -16.5s-19 -24.833 -19 -41.5s7.5 -31.834 22.5 -45.501s39.5 -27.834 73.5 -42.501c50 -21.333 85.5 -43.833 106.5 -67.5
s31.5 -53.167 31.5 -88.5c0 -44.667 -14.333 -81.167 -43 -109.5s-65.667 -42.5 -111 -42.5c-37.333 0 -73.333 7.66699 -108 23c-10 4 -17.667 6 -23 6c-7.33301 0 -16 -9.33301 -26 -28h-25v165h28c21.333 -88 67 -132 137 -132c22.667 0 40.834 6 54.501 18
s20.5 27.667 20.5 47c0 16 -7.5 30.667 -22.5 44s-39.5 27.666 -73.5 42.999c-50 21.333 -86.167 44.166 -108.5 68.499s-33.5 53.166 -33.5 86.499c0 42 14.833 76.833 44.5 104.5s67.167 41.5 112.5 41.5c22 0 48 -5 78 -15c14.667 -4.66699 25.334 -7 32.001 -7
c10.667 0 18.667 6.66699 24 20h22v-145z" />
    <glyph glyph-name="t" unicode="t" horiz-adv-x="333" 
d="M305 461l-0.00292969 -44.001h-94v-301c0 -20 3 -34.5 9 -43.5s16 -13.5 30 -13.5c20 0 39 17.333 57 52l25 -11c-20.667 -40.667 -42.167 -69.5 -64.5 -86.5s-50.166 -25.5 -83.499 -25.5c-34.667 0 -62 9.33301 -82 28s-30 44.334 -30 77.001v324h-52v27
c32.667 27.333 60.834 54.333 84.501 81s50.834 61.667 81.501 105h25v-169h94z" />
    <glyph glyph-name="u" unicode="u" horiz-adv-x="556" 
d="M343 -13l0.000976562 64.998c-29.333 -25.333 -54.333 -42.666 -75 -51.999s-44 -14 -70 -14c-41.333 0 -73.833 12.333 -97.5 37s-35.5 59 -35.5 103v252c0 20.667 -3 34.667 -9 42s-19.333 13 -40 17v24h188v-339c0 -25.333 4.16699 -43.5 12.5 -54.5
s22.833 -16.5 43.5 -16.5c25.333 0 52.666 14.667 81.999 44v283c0 21.333 -4.16699 36 -12.5 44s-24.833 13 -49.5 15v24h201v-360c0 -21.333 3.83301 -36.166 11.5 -44.499s22.5 -12.833 44.5 -13.5v-23l-62 -7c-55.333 -6 -99.333 -14.667 -132 -26z" />
    <glyph glyph-name="v" unicode="v" horiz-adv-x="500" 
d="M485 461v-23.999c-15.333 -1.33301 -26.5 -5.33301 -33.5 -12s-15.167 -21 -24.5 -43l-160 -396h-26l-120 296c-8 20 -20.5 48.5 -37.5 85.5s-26.167 55.167 -27.5 54.5c-5.33301 7.33301 -17 12.333 -35 15v24h250v-24c-10.667 -1.33301 -16.667 -2 -18 -2
c-23.333 -2 -35 -10 -35 -24c0 -4.66699 3 -15 9 -31l79 -203l72 182c7.33301 18.667 11 33.667 11 45c0 12 -3.83301 20.167 -11.5 24.5s-22.167 7.16602 -43.5 8.49902v24h151z" />
    <glyph glyph-name="w" unicode="w" horiz-adv-x="722" 
d="M707 461v-24.0049c-12.667 -2.66699 -22.167 -7 -28.5 -13s-13.5 -18.333 -21.5 -37l-155 -401h-23l-102 310l-125 -310h-24l-148 374c-13.333 33.333 -23 53.833 -29 61.5s-15.333 12.834 -28 15.501v24h222v-24c-25.333 -3.33301 -38 -12.666 -38 -27.999
c0 -11.333 13 -49.666 39 -114.999c7.33301 -20 14.333 -38 21 -54l24 -64l68 171l-6 19c-9.33301 32.667 -16.666 52.167 -21.999 58.5s-17.666 10.5 -36.999 12.5v24h234v-24c-18.667 -1.33301 -31.334 -3.66602 -38.001 -6.99902s-10 -9 -10 -17
c0 -8.66699 9 -44 27 -106c14.667 -50.667 26 -93 34 -127l35 94c29.333 74.667 44 117.334 44 128.001c0 11.333 -3.33301 19.5 -10 24.5s-19.334 8.5 -38.001 10.5v24h135z" />
    <glyph glyph-name="x" unicode="x" horiz-adv-x="500" 
d="M484 24l-0.000976562 -23.9951h-241v24c30 2 45 8.66699 45 20s-11 32.666 -33 63.999l-42 63c-2 -2.66699 -5 -6.33398 -9 -11.001s-6.33301 -7.66699 -7 -9c-42.667 -51.333 -64 -85.666 -64 -102.999c0 -14 16.667 -22 50 -24v-24h-169v24
c18.667 0.666992 35.167 7 49.5 19s35.5 36.667 63.5 74c2.66699 4 24.334 32 65.001 84l-128 197c-10 15.333 -18 25.166 -24 29.499s-15.333 7.5 -28 9.5v24h250v-24c-31.333 -0.666992 -47 -7 -47 -19c0 -14.667 19.333 -47.334 58 -98.001
c7.33301 -10 11.666 -15.667 12.999 -17c16.667 23.333 28.667 38.666 36 45.999c25.333 28.667 38 50 38 64s-10.333 21.333 -31 22c-1.33301 0 -8 0.666992 -20 2v24h168v-24c-29.333 -4.66699 -52.666 -17.667 -69.999 -39l-101 -126l148 -228
c5.33301 -8.66699 15.333 -15.334 30 -20.001z" />
    <glyph glyph-name="y" unicode="y" horiz-adv-x="500" 
d="M480 461v-23.999c-15.333 -1.33301 -26.666 -5.5 -33.999 -12.5s-15.333 -21.167 -24 -42.5l-149 -397c-30.667 -83.333 -56 -135.666 -76 -156.999c-22 -22 -50 -33 -84 -33c-28.667 0 -52 7.33301 -70 22s-27 33.667 -27 57c0 18.667 6 34 18 46s27.333 18 46 18
c17.333 0 31.333 -4.5 42 -13.5s16 -20.833 16 -35.5c0 -2.66699 -0.666992 -7.33398 -2 -14.001c-0.666992 -2 -1 -4 -1 -6c0 -4.66699 1.66699 -8.66699 5 -12s7.33301 -5 12 -5c11.333 0 23 7.5 35 22.5s22.333 34.833 31 59.5l18 53l-120 295
c-8.66699 22 -21.334 50.833 -38.001 86.5s-25.667 53.5 -27 53.5c-5.33301 7.33301 -17 12.333 -35 15v24h250v-24l-16 -1c-24.667 -2 -37 -10.333 -37 -25c0 -5.33301 6.66699 -25 20 -59l72 -185l68 192c7.33301 20.667 11 35.667 11 45c0 12 -3.83301 20.167 -11.5 24.5
s-22.167 7.16602 -43.5 8.49902v24h151z" />
    <glyph glyph-name="z" unicode="z" horiz-adv-x="444" 
d="M420 160l-16 -160h-383v25l234 404c-70 0.666992 -116.167 -5.5 -138.5 -18.5s-39.833 -43.5 -52.5 -91.5h-26l7 142h371v-26l-231 -403h29c40 0 70.167 4 90.5 12s38.5 23 54.5 45c14 18 25 41.667 33 71h28z" />
    <glyph glyph-name="braceleft" unicode="{" horiz-adv-x="394" 
d="M129 -34l-0.000976562 178.996c0 35.333 -7.16699 60.833 -21.5 76.5s-42.833 28.834 -85.5 39.501c42.667 10.667 71.167 23.834 85.5 39.501s21.5 41.167 21.5 76.5v179c0 54.667 16.667 92.334 50 113.001c28 18.667 81.667 28.334 161 29.001v-12
c-40 -8.66699 -67.667 -22 -83 -40s-23 -46 -23 -84v-171c0 -42 -7.83301 -71.667 -23.5 -89s-47.167 -31 -94.5 -41c47.333 -10 78.833 -23.667 94.5 -41s23.5 -47 23.5 -89v-171c0 -38 7.83301 -66 23.5 -84s43.167 -31 82.5 -39v-12
c-87.333 0.666992 -144.666 13 -171.999 37c-26 21.333 -39 56 -39 104z" />
    <glyph glyph-name="bar" unicode="|" horiz-adv-x="220" 
d="M66 -19v710h88v-710h-88z" />
    <glyph glyph-name="braceright" unicode="}" horiz-adv-x="394" 
d="M160 -39v171.006c0 41.333 8 70.833 24 88.5s47.333 31.5 94 41.5c-47.333 10 -78.833 23.667 -94.5 41s-23.5 47 -23.5 89v171c0 37.333 -7.83301 65.166 -23.5 83.499s-43.167 31.5 -82.5 39.5v12c79.333 -0.666992 133 -10.334 161 -29.001
c33.333 -20.667 50 -58 50 -112v-179c0 -35.333 7.16699 -60.833 21.5 -76.5s42.833 -28.834 85.5 -39.501c-42.667 -10.667 -71.167 -23.834 -85.5 -39.501s-21.5 -41.167 -21.5 -76.5v-179c0 -54.667 -16.667 -92.334 -50 -113.001
c-28 -18.667 -81.667 -28.334 -161 -29.001v12c40 8.66699 67.667 22 83 40s23 46 23 84z" />
    <glyph glyph-name="asciitilde" unicode="~" horiz-adv-x="520" 
d="M436 308l55 -48c-22.667 -31.333 -43 -53.333 -61 -66s-38.667 -19 -62 -19c-29.333 0 -64.333 11 -105 33c-42.667 23.333 -80 35 -112 35c-14.667 0 -27 -3 -37 -9s-20.667 -17 -32 -33l-53 46c32 56 73.333 84 124 84c27.333 0 72 -14 134 -42
c40 -17.333 67 -26 81 -26c22 0 44.667 15 68 45z" />
    <glyph glyph-name="uni0591" unicode="&#x591;" 
d="M-28 -116v56c0 4 1.5 7.5 4.5 10.5s6.83301 4.5 11.5 4.5h24c4.66699 0 8.5 -1.5 11.5 -4.5s4.5 -6.5 4.5 -10.5v-56c16 -2.66699 30.667 -9.5 44 -20.5s20 -23.833 20 -38.5v-45c0 -10 -4.66699 -15 -14 -15h-26c-9.33301 0 -14 5 -14 15v42
c0 10.667 -3.66699 19.667 -11 27s-16.333 11 -27 11s-19.667 -3.66699 -27 -11s-11 -16.333 -11 -27v-42c0 -10 -4.66699 -15 -14 -15h-26c-9.33301 0 -14 5 -14 15v45c0 14.667 6.5 27.667 19.5 39s27.833 18 44.5 20z" />
    <glyph glyph-name="uni0592" unicode="&#x592;" 
d="M-67 665c-10.667 0 -19.5 3.66699 -26.5 11s-10.5 16 -10.5 26c0 10.667 3.5 19.667 10.5 27s15.833 11 26.5 11s19.5 -3.66699 26.5 -11s10.5 -16.333 10.5 -27c0 -10 -3.5 -18.667 -10.5 -26s-15.833 -11 -26.5 -11zM0 780c-10.667 0 -19.667 3.66699 -27 11
s-11 16.333 -11 27c0 10 3.66699 18.667 11 26s16.333 11 27 11s19.667 -3.66699 27 -11s11 -16 11 -26c0 -10.667 -3.66699 -19.667 -11 -27s-16.333 -11 -27 -11zM67 665c-10.667 0 -19.5 3.66699 -26.5 11s-10.5 16 -10.5 26c0 10.667 3.5 19.667 10.5 27
s15.833 11 26.5 11s19.5 -3.66699 26.5 -11s10.5 -16.333 10.5 -27c0 -10 -3.5 -18.667 -10.5 -26s-15.833 -11 -26.5 -11z" />
    <glyph glyph-name="uni0593" unicode="&#x593;" 
d="M-28 674l-35 27.002c-10.667 8 -15.667 17 -15 27s6.66699 15 18 15h57l-60 45c-10.667 8 -15.667 15.667 -15 23s6.66699 11 18 11h60l-64 48c-10 7.33301 -14.833 14.166 -14.5 20.499s6.5 9.5 18.5 9.5h73c12 0 21.333 -2.66699 28 -8l14 -11
c5.33301 -4.66699 8.66602 -9 9.99902 -13s0.666016 -7.16699 -2.00098 -9.5s-7.66699 -3.5 -15 -3.5h-41l58 -42c9.33301 -7.33301 13.833 -14.166 13.5 -20.499s-6.16602 -9.5 -17.499 -9.5h-61l65 -49c9.33301 -6.66699 13.833 -13.334 13.5 -20.001
s-6.16602 -10 -17.499 -10h-61l19 -14c5.33301 -4 9 -7.83301 11 -11.5s1.66699 -6.83398 -1 -9.50098s-7.66699 -4 -15 -4h-12c-11.333 0 -21.333 3 -30 9z" />
    <glyph glyph-name="uni0594" unicode="&#x594;" 
d="M0 740c10.667 0 19.667 -3.66699 27 -11s11 -16.333 11 -27c0 -10 -3.66699 -18.667 -11 -26s-16.333 -11 -27 -11s-19.667 3.66699 -27 11s-11 16 -11 26c0 10.667 3.66699 19.667 11 27s16.333 11 27 11zM0 855c10.667 0 19.667 -3.66699 27 -11s11 -16 11 -26
c0 -10.667 -3.66699 -19.667 -11 -27s-16.333 -11 -27 -11s-19.667 3.66699 -27 11s-11 16.333 -11 27c0 10 3.66699 18.667 11 26s16.333 11 27 11z" />
    <glyph glyph-name="uni0595" unicode="&#x595;" 
d="M-48 668h-24c-10.667 0 -16 4.66699 -16 14v156c0 9.33301 5.33301 14 16 14h24c10.667 0 16 -4.66699 16 -14v-156c0 -9.33301 -5.33301 -14 -16 -14zM50 740c10.667 0 19.667 -3.66699 27 -11s11 -16.333 11 -27c0 -10 -3.66699 -18.667 -11 -26s-16.333 -11 -27 -11
s-19.667 3.66699 -27 11s-11 16 -11 26c0 10.667 3.66699 19.667 11 27s16.333 11 27 11zM50 855c10.667 0 19.667 -3.66699 27 -11s11 -16 11 -26c0 -10.667 -3.66699 -19.667 -11 -27s-16.333 -11 -27 -11s-19.667 3.66699 -27 11s-11 16.333 -11 27
c0 10 3.66699 18.667 11 26s16.333 11 27 11z" />
    <glyph glyph-name="uni0596" unicode="&#x596;" 
d="M-40 -57c8 -46 18.834 -79.666 32.501 -100.999s34.5 -39 62.5 -53c8.66699 -4.66699 13 -12.667 13 -24c0 -8.66699 -2.83301 -15.834 -8.5 -21.501s-12.834 -8.5 -21.501 -8.5c-6 0 -11.667 2 -17 6c-28 20 -49.5 48.167 -64.5 84.5s-23.167 74.833 -24.5 115.5
c0 9.33301 4.66699 14 14 14c8 0 12.667 -4 14 -12z" />
    <glyph glyph-name="uni0597" unicode="&#x597;" 
d="M-61 738c-6 2.66699 -9 8.33398 -9 17.001s3 14.334 9 17.001c24 12 40 32.667 48 62c2 7.33301 6.16699 11 12.5 11s10.833 -4 13.5 -12c8.66699 -30 24.667 -50.333 48 -61c6 -2.66699 9 -8.33398 9 -17.001s-3 -14.334 -9 -17.001c-24 -12 -40 -32.667 -48 -62
c-2 -7.33301 -6.33301 -11 -13 -11s-11 3.66699 -13 11c-8 29.333 -24 50 -48 62z" />
    <glyph glyph-name="uni0598" unicode="&#x598;" 
d="M-64 763c-5.33301 5.33301 -12 8 -20 8s-14.833 -2.83301 -20.5 -8.5s-8.5 -12.5 -8.5 -20.5c0 -12.667 4.5 -23.334 13.5 -32.001s19.5 -13 31.5 -13c10.667 0 16 -5.33301 16 -16s-5.33301 -16 -16 -16c-21.333 0 -39.5 7.5 -54.5 22.5s-22.5 33.167 -22.5 54.5
s7.5 39.666 22.5 54.999s33.167 23 54.5 23s39.666 -7.66699 54.999 -23l77 -76c5.33301 -5.33301 12 -8 20 -8s14.833 2.83301 20.5 8.5s8.5 12.5 8.5 20.5c0 12.667 -4.5 23.334 -13.5 32.001s-19.5 13 -31.5 13c-4.66699 0 -8.5 1.66699 -11.5 5s-4.5 7 -4.5 11
c0 4.66699 1.5 8.66699 4.5 12s6.83301 5 11.5 5c21.333 0 39.5 -7.66699 54.5 -23s22.5 -33.666 22.5 -54.999s-7.5 -39.5 -22.5 -54.5s-33.167 -22.5 -54.5 -22.5s-39.666 7.66699 -54.999 23z" />
    <glyph glyph-name="uni0599" unicode="&#x599;" 
d="M40 677c-8 46 -18.834 79.666 -32.501 100.999s-34.5 39 -62.5 53c-8.66699 4.66699 -13 12.667 -13 24c0 8.66699 2.83301 15.834 8.5 21.501s12.834 8.5 21.501 8.5c6 0 11.667 -2 17 -6c28 -20 49.5 -48.167 64.5 -84.5s23.167 -74.833 24.5 -115.5
c0 -9.33301 -4.66699 -14 -14 -14c-8 0 -12.667 4 -14 12z" />
    <glyph glyph-name="uni059A" unicode="&#x59a;" 
d="M85 -56c1.33301 0.666992 3.33203 1 5.99902 1c4.66699 0 8.83398 -1.66699 12.501 -5s5.5 -7.33301 5.5 -12c0 -8 -3.66699 -13.667 -11 -17l-110 -46l107 -44c9.33301 -4 14 -11 14 -21v-25c0 -9.33301 -4.66699 -12.333 -14 -9l-194 81c-6.66699 2.66699 -10 6 -10 10
s3.33301 7.33301 10 10z" />
    <glyph glyph-name="uni059B" unicode="&#x59b;" 
d="M-47 -80c10.667 0 19.5 -3.66699 26.5 -11s10.5 -16.333 10.5 -27c0 -10 -3.5 -18.667 -10.5 -26s-15.833 -11 -26.5 -11s-19.667 3.66699 -27 11s-11 16 -11 26c0 10.667 3.66699 19.667 11 27s16.333 11 27 11zM56 -57c1.33301 8 5.99805 11.999 13.998 11.999
c10 0 15 -4.66699 15 -14c-1.33301 -41.333 -9.66602 -80 -24.999 -116s-36.666 -64 -63.999 -84c-5.33301 -4 -11.333 -6 -18 -6c-8 0 -15 2.83301 -21 8.5s-9 12.834 -9 21.501c0 11.333 4.66699 19.333 14 24c28 14 48.833 31.667 62.5 53s24.167 55 31.5 101z" />
    <glyph glyph-name="uni059C" unicode="&#x59c;" 
d="M-40 677c-1.33301 -8 -6.00195 -11.999 -14.002 -11.999c-9.33301 0 -14 4.66699 -14 14c1.33301 40.667 9.5 79.167 24.5 115.5s36.5 64.5 64.5 84.5c4.66699 4 10.334 6 17.001 6c8.66699 0 15.834 -2.83301 21.501 -8.5s8.5 -12.834 8.5 -21.501
c0 -11.333 -4.33301 -19.333 -13 -24c-28 -14 -48.833 -31.667 -62.5 -53s-24.5 -55 -32.5 -101z" />
    <glyph glyph-name="uni059D" unicode="&#x59d;" 
d="M-40 677c-1.33301 -8 -6.00195 -11.999 -14.002 -11.999c-9.33301 0 -14 4.66699 -14 14c1.33301 40.667 9.5 79.167 24.5 115.5s36.5 64.5 64.5 84.5c4.66699 4 10.334 6 17.001 6c8.66699 0 15.834 -2.83301 21.501 -8.5s8.5 -12.834 8.5 -21.501
c0 -11.333 -4.33301 -19.333 -13 -24c-28 -14 -48.833 -31.667 -62.5 -53s-24.5 -55 -32.5 -101z" />
    <glyph glyph-name="uni059E" unicode="&#x59e;" 
d="M20 677c-1.33301 -8 -6.00195 -11.999 -14.002 -11.999c-9.33301 0 -14 4.66699 -14 14c1.33301 40.667 9.5 79.167 24.5 115.5s36.5 64.5 64.5 84.5c4.66699 4 10.334 6 17.001 6c8.66699 0 15.834 -2.83301 21.501 -8.5s8.5 -12.834 8.5 -21.501
c0 -11.333 -4.33301 -19.333 -13 -24c-28 -14 -48.833 -31.667 -62.5 -53s-24.5 -55 -32.5 -101zM-100.002 677.001c-1.33301 -8 -6.00195 -11.999 -14.002 -11.999c-9.33301 0 -14 4.66699 -14 14c1.33301 40.667 9.5 79.167 24.5 115.5s36.5 64.5 64.5 84.5
c4.66699 4 10.334 6 17.001 6c8.66699 0 15.834 -2.83301 21.501 -8.5s8.5 -12.834 8.5 -21.501c0 -11.333 -4.33301 -19.333 -13 -24c-28 -14 -48.833 -31.667 -62.5 -53s-24.5 -55 -32.5 -101z" />
    <glyph glyph-name="uni059F" unicode="&#x59f;" 
d="M111 841c-12.667 -5.33301 -21.834 -13.999 -27.501 -25.999s-6.16699 -24.333 -1.5 -37s13 -21.834 25 -27.501s24.333 -6.16699 37 -1.5s21.834 13 27.501 25s6.16699 24.333 1.5 37s-13 22 -25 28s-24.333 6.66699 -37 2zM60 737.001
c3.33301 5.33301 2.33105 12 -3.00195 20c-13.333 22.667 -15.666 46.667 -6.99902 72s25.334 42.666 50.001 51.999c22 8 43.667 7 65 -3s36 -26 44 -48s7 -43.667 -3 -65s-26 -36 -48 -44c-15.333 -6 -31.333 -6.66699 -48 -2c-7.33301 0.666992 -12 -1.33301 -14 -6
l-13 -39c-2.66699 -7.33301 -8 -9.66602 -16 -6.99902l-29 10c-8 2.66699 -9.66699 8 -5 16zM-111.002 841.001c-12.667 4.66699 -25 3.99902 -37 -2.00098s-20.333 -15.333 -25 -28s-4.16699 -25 1.5 -37s14.834 -20.333 27.501 -25s25 -4.16699 37 1.5
s20.333 14.834 25 27.501s4.16699 25 -1.5 37s-14.834 20.667 -27.501 26zM-60.002 737l26.998 -44c4.66699 -8 3 -13.333 -5 -16l-29 -10c-8 -2.66699 -13.333 -0.333984 -16 6.99902l-13 39c-2 4.66699 -6.66699 6.66699 -14 6c-16.667 -4.66699 -32.667 -4 -48 2
c-22 8 -38 22.667 -48 44s-11 43 -3 65s22.667 38 44 48s43 11 65 3c24.667 -9.33301 41.334 -26.666 50.001 -51.999s6.33398 -49.333 -6.99902 -72c-5.33301 -8 -6.33301 -14.667 -3 -20z" />
    <glyph glyph-name="uni05A0" unicode="&#x5a0;" 
d="M-12 841c-12.667 -5.33301 -21.834 -13.999 -27.501 -25.999s-6.16699 -24.333 -1.5 -37s13.167 -21.834 25.5 -27.501s24.833 -6.16699 37.5 -1.5s21.834 13 27.501 25s6.16699 24.333 1.5 37s-13 22 -25 28s-24.667 6.66699 -38 2zM-63 737.001
c3.33301 5.33301 2.66797 12.001 -1.99902 20.001c-14 22.667 -16.667 46.667 -8 72s25.667 42.666 51 51.999c22 8 43.667 7 65 -3s36 -26 44 -48s7 -43.667 -3 -65s-26 -36 -48 -44c-15.333 -6 -31.666 -6.66699 -48.999 -2c-6.66699 0.666992 -11 -1.33301 -13 -6
l-13 -39c-2.66699 -7.33301 -8.33398 -9.66602 -17.001 -6.99902l-28 10c-8.66699 3.33301 -10.334 8.66602 -5.00098 15.999z" />
    <glyph glyph-name="uni05A1" unicode="&#x5a1;" 
d="M-34 755h19c18 0 30.667 3.83301 38 11.5s11 19.5 11 35.5v36c0 9.33301 5 14 15 14h25c10 0 15 -4.66699 15 -14v-47c0 -40.667 -21.333 -61 -64 -61h-59v-48c0 -9.33301 -5 -14 -15 -14h-25c-10 0 -15 4.66699 -15 14v156c0 9.33301 5 14 15 14h25
c10 0 15 -4.66699 15 -14v-83z" />
    <glyph glyph-name="uni05A3" unicode="&#x5a3;" 
d="M80 -165v105c0 4 1.5 7.5 4.5 10.5s6.5 4.5 10.5 4.5h5c4 0 7.5 -1.5 10.5 -4.5s4.5 -6.5 4.5 -10.5v-145c0 -4 -1.5 -7.5 -4.5 -10.5s-6.5 -4.5 -10.5 -4.5h-200c-4 0 -7.5 1.5 -10.5 4.5s-4.5 6.5 -4.5 10.5v25c0 4 1.5 7.5 4.5 10.5s6.5 4.5 10.5 4.5h180z" />
    <glyph glyph-name="uni05A4" unicode="&#x5a4;" 
d="M85 -56c1.33301 0.666992 3.33203 1 5.99902 1c4.66699 0 8.83398 -1.66699 12.501 -5s5.5 -7.33301 5.5 -12c0 -8 -3.66699 -13.667 -11 -17l-110 -46l107 -44c9.33301 -4 14 -11 14 -21v-25c0 -9.33301 -4.66699 -12.333 -14 -9l-194 81c-6.66699 2.66699 -10 6 -10 10
s3.33301 7.33301 10 10z" />
    <glyph glyph-name="uni05A5" unicode="&#x5a5;" 
d="M40 -57c1.33301 8 6.00098 11.999 14.001 11.999c9.33301 0 14 -4.66699 14 -14c-1.33301 -40.667 -9.5 -79.167 -24.5 -115.5s-36.5 -64.5 -64.5 -84.5c-5.33301 -4 -11 -6 -17 -6c-8.66699 0 -15.834 2.83301 -21.501 8.5s-8.5 12.834 -8.5 21.501
c0 11.333 4.33301 19.333 13 24c28 14 48.833 31.667 62.5 53s24.5 55 32.5 101z" />
    <glyph glyph-name="uni05A6" unicode="&#x5a6;" 
d="M-20 -57c1.33301 8 6.00195 11.999 14.002 11.999c9.33301 0 14 -4.66699 14 -14c-1.33301 -40.667 -9.5 -79.167 -24.5 -115.5s-36.5 -64.5 -64.5 -84.5c-4.66699 -4 -10.334 -6 -17.001 -6c-8.66699 0 -15.834 2.83301 -21.501 8.5s-8.5 12.834 -8.5 21.501
c0 11.333 4.33301 19.333 13 24c28 14 48.833 31.667 62.5 53s24.5 55 32.5 101zM100.002 -57.001c1.33301 8 6.00195 11.999 14.002 11.999c9.33301 0 14 -4.66699 14 -14c-1.33301 -40.667 -9.5 -79.167 -24.5 -115.5s-36.5 -64.5 -64.5 -84.5
c-4.66699 -4 -10.334 -6 -17.001 -6c-8.66699 0 -15.834 2.83301 -21.501 8.5s-8.5 12.834 -8.5 21.501c0 11.333 4.33301 19.333 13 24c28 14 48.833 31.667 62.5 53s24.5 55 32.5 101z" />
    <glyph glyph-name="uni05A7" unicode="&#x5a7;" 
d="M63 -199c10 -11.333 15 -22.332 15 -32.999v-15c0 -11.333 -4.33301 -17 -13 -17h-130c-8.66699 0 -13 5.66699 -13 17v17c0 10.667 4.33301 16 13 16h97l-93 93c-11.333 11.333 -17 22.666 -17 33.999v15c0 11.333 4.33301 17 13 17h130c8.66699 0 13 -5.66699 13 -17
v-16c0 -11.333 -4.33301 -17 -13 -17h-96z" />
    <glyph glyph-name="uni05A8" unicode="&#x5a8;" 
d="M40 677c-8 46 -18.834 79.666 -32.501 100.999s-34.5 39 -62.5 53c-8.66699 4.66699 -13 12.667 -13 24c0 8.66699 2.83301 15.834 8.5 21.501s12.834 8.5 21.501 8.5c6 0 11.667 -2 17 -6c28 -20 49.5 -48.167 64.5 -84.5s23.167 -74.833 24.5 -115.5
c0 -9.33301 -4.66699 -14 -14 -14c-8 0 -12.667 4 -14 12z" />
    <glyph glyph-name="uni05A9" unicode="&#x5a9;" 
d="M12 841c-13.333 4.66699 -26 3.99902 -38 -2.00098s-20.333 -15.333 -25 -28s-4.16699 -25 1.5 -37s14.834 -20.333 27.501 -25s25.167 -4.16699 37.5 1.5s20.833 14.834 25.5 27.501s4.16699 25 -1.5 37s-14.834 20.667 -27.501 26zM63 736.999l26.002 -44.001
c5.33301 -7.33301 3.66602 -12.666 -5.00098 -15.999l-28 -10c-8.66699 -2.66699 -14.334 -0.333984 -17.001 6.99902l-13 39c-2 4.66699 -6.33301 6.66699 -13 6c-17.333 -4.66699 -33.666 -4 -48.999 2c-22 8 -38 22.667 -48 44s-11 43 -3 65s22.667 38 44 48s43 11 65 3
c25.333 -9.33301 42.333 -26.666 51 -51.999s6 -49.333 -8 -72c-4.66699 -8 -5.33398 -14.667 -2.00098 -20z" />
    <glyph glyph-name="uni05AA" unicode="&#x5aa;" 
d="M-28 -164c-16.667 2 -31.5 8.66699 -44.5 20s-19.5 24.333 -19.5 39v45c0 10 4.66699 15 14 15h26c9.33301 0 14 -5 14 -15v-42c0 -10.667 3.66699 -19.667 11 -27s16.333 -11 27 -11s19.667 3.66699 27 11s11 16.333 11 27v42c0 10 4.66699 15 14 15h26
c9.33301 0 14 -5 14 -15v-45c0 -14.667 -6.66699 -27.5 -20 -38.5s-28 -17.833 -44 -20.5v-56c0 -4 -1.5 -7.5 -4.5 -10.5s-6.83301 -4.5 -11.5 -4.5h-24c-4.66699 0 -8.5 1.5 -11.5 4.5s-4.5 6.5 -4.5 10.5v56z" />
    <glyph glyph-name="uni05AB" unicode="&#x5ab;" 
d="M85 843c0.666992 0 1.66602 0.166016 2.99902 0.499023s2.33301 0.5 3 0.5c4.66699 0 8.83398 -1.66699 12.501 -5s5.5 -7.66602 5.5 -12.999c0 -6.66699 -3.66699 -12 -11 -16l-110 -46l107 -44c9.33301 -4 14 -11 14 -21v-25c0 -9.33301 -4.66699 -12.333 -14 -9
l-194 81c-6.66699 2.66699 -10 6 -10 10s3.33301 7.33301 10 10z" />
    <glyph glyph-name="uni05AC" unicode="&#x5ac;" 
d="M80 720v105c0 4 1.5 7.5 4.5 10.5s6.5 4.5 10.5 4.5h5c4 0 7.5 -1.5 10.5 -4.5s4.5 -6.5 4.5 -10.5v-145c0 -4 -1.5 -7.5 -4.5 -10.5s-6.5 -4.5 -10.5 -4.5h-200c-4 0 -7.5 1.5 -10.5 4.5s-4.5 6.5 -4.5 10.5v25c0 4 1.5 7.5 4.5 10.5s6.5 4.5 10.5 4.5h180z" />
    <glyph glyph-name="uni05AD" unicode="&#x5ad;" 
d="M-40 -57c8 -46 18.834 -79.666 32.501 -100.999s34.5 -39 62.5 -53c8.66699 -4.66699 13 -12.667 13 -24c0 -8.66699 -2.83301 -15.834 -8.5 -21.501s-12.834 -8.5 -21.501 -8.5c-6 0 -11.667 2 -17 6c-28 20 -49.5 48.167 -64.5 84.5s-23.167 74.833 -24.5 115.5
c0 9.33301 4.66699 14 14 14c8 0 12.667 -4 14 -12z" />
    <glyph glyph-name="uni05AE" unicode="&#x5ae;" 
d="M-64 763c-5.33301 5.33301 -12 8 -20 8s-14.833 -2.83301 -20.5 -8.5s-8.5 -12.5 -8.5 -20.5c0 -12.667 4.5 -23.334 13.5 -32.001s19.5 -13 31.5 -13c10.667 0 16 -5.33301 16 -16s-5.33301 -16 -16 -16c-21.333 0 -39.5 7.5 -54.5 22.5s-22.5 33.167 -22.5 54.5
s7.5 39.666 22.5 54.999s33.167 23 54.5 23s39.666 -7.66699 54.999 -23l77 -76c5.33301 -5.33301 12 -8 20 -8s14.833 2.83301 20.5 8.5s8.5 12.5 8.5 20.5c0 12.667 -4.5 23.334 -13.5 32.001s-19.5 13 -31.5 13c-4.66699 0 -8.5 1.66699 -11.5 5s-4.5 7 -4.5 11
c0 4.66699 1.5 8.66699 4.5 12s6.83301 5 11.5 5c21.333 0 39.5 -7.66699 54.5 -23s22.5 -33.666 22.5 -54.999s-7.5 -39.5 -22.5 -54.5s-33.167 -22.5 -54.5 -22.5s-39.666 7.66699 -54.999 23z" />
    <glyph glyph-name="uni05AF" unicode="&#x5af;" 
d="M0 803c-13.333 0 -24.833 -4.83301 -34.5 -14.5s-14.5 -21.167 -14.5 -34.5s4.83301 -24.833 14.5 -34.5s21.167 -14.5 34.5 -14.5s24.833 4.83301 34.5 14.5s14.5 21.167 14.5 34.5s-4.83301 24.833 -14.5 34.5s-21.167 14.5 -34.5 14.5zM0 843
c24.667 0 45.667 -8.66699 63 -26s26 -38.333 26 -63s-8.66699 -45.667 -26 -63s-38.333 -26 -63 -26s-45.667 8.66699 -63 26s-26 38.333 -26 63s8.66699 45.667 26 63s38.333 26 63 26z" />
    <glyph glyph-name="afii57799" unicode="&#x5b0;" 
d="M0 -160c10.667 0 19.667 -3.66699 27 -11s11 -16.333 11 -27c0 -10 -3.66699 -18.667 -11 -26s-16.333 -11 -27 -11s-19.667 3.66699 -27 11s-11 16 -11 26c0 10.667 3.66699 19.667 11 27s16.333 11 27 11zM0 -45c10.667 0 19.667 -3.66699 27 -11s11 -16 11 -26
c0 -10.667 -3.66699 -19.667 -11 -27s-16.333 -11 -27 -11s-19.667 3.66699 -27 11s-11 16.333 -11 27c0 10 3.66699 18.667 11 26s16.333 11 27 11z" />
    <glyph glyph-name="afii57801" unicode="&#x5b1;" 
d="M-132 -45c10.667 0 19.667 -3.66699 27 -11s11 -16 11 -26c0 -10.667 -3.66699 -19.667 -11 -27s-16.333 -11 -27 -11s-19.667 3.66699 -27 11s-11 16.333 -11 27c0 10 3.66699 18.667 11 26s16.333 11 27 11zM-65 -160c10.667 0 19.5 -3.66699 26.5 -11
s10.5 -16.333 10.5 -27c0 -10 -3.5 -18.667 -10.5 -26s-15.833 -11 -26.5 -11s-19.5 3.66699 -26.5 11s-10.5 16 -10.5 26c0 10.667 3.5 19.667 10.5 27s15.833 11 26.5 11zM2 -45c10.667 0 19.667 -3.66699 27 -11s11 -16 11 -26c0 -10.667 -3.66699 -19.667 -11 -27
s-16.333 -11 -27 -11s-19.667 3.66699 -27 11s-11 16.333 -11 27c0 10 3.66699 18.667 11 26s16.333 11 27 11zM132 -160c10.667 0 19.667 -3.66699 27 -11s11 -16.333 11 -27c0 -10 -3.66699 -18.667 -11 -26s-16.333 -11 -27 -11s-19.667 3.66699 -27 11s-11 16 -11 26
c0 10.667 3.66699 19.667 11 27s16.333 11 27 11zM132 -45c10.667 0 19.667 -3.66699 27 -11s11 -16 11 -26c0 -10.667 -3.66699 -19.667 -11 -27s-16.333 -11 -27 -11s-19.667 3.66699 -27 11s-11 16.333 -11 27c0 10 3.66699 18.667 11 26s16.333 11 27 11z" />
    <glyph glyph-name="afii57800" unicode="&#x5b2;" 
d="M-170 -70c0 10 5 15 15 15h178c10 0 15 -5 15 -15v-25c0 -10 -5 -15 -15 -15h-178c-10 0 -15 5 -15 15v25zM131 -160c10.667 0 19.5 -3.66699 26.5 -11s10.5 -16.333 10.5 -27c0 -10 -3.5 -18.667 -10.5 -26s-15.833 -11 -26.5 -11s-19.667 3.66699 -27 11s-11 16 -11 26
c0 10.667 3.66699 19.667 11 27s16.333 11 27 11zM131 -45c10.667 0 19.5 -3.66699 26.5 -11s10.5 -16 10.5 -26c0 -10.667 -3.5 -19.667 -10.5 -27s-15.833 -11 -26.5 -11s-19.667 3.66699 -27 11s-11 16.333 -11 27c0 10 3.66699 18.667 11 26s16.333 11 27 11z" />
    <glyph glyph-name="afii57802" unicode="&#x5b3;" 
d="M-122 -110h-33c-10 0 -15 5 -15 15v25c0 10 5 15 15 15h178c10 0 15 -5 15 -15v-25c0 -10 -5 -15 -15 -15h-33c-14 0 -23.833 -2 -29.5 -6s-8.5 -11.333 -8.5 -22c0 -15.333 3.33301 -27 10 -35c6 -6 9 -14.333 9 -25c0 -10 -3.5 -18.667 -10.5 -26
s-15.833 -11 -26.5 -11s-19.667 3.66699 -27 11s-11 16 -11 26c0 9.33301 3.33301 18 10 26c6 6.66699 9 18 9 34c0 18.667 -12.333 28 -37 28zM131 -160c10.667 0 19.5 -3.66699 26.5 -11s10.5 -16.333 10.5 -27c0 -10 -3.5 -18.667 -10.5 -26s-15.833 -11 -26.5 -11
s-19.667 3.66699 -27 11s-11 16 -11 26c0 10.667 3.66699 19.667 11 27s16.333 11 27 11zM131 -45c10.667 0 19.5 -3.66699 26.5 -11s10.5 -16 10.5 -26c0 -10.667 -3.5 -19.667 -10.5 -27s-15.833 -11 -26.5 -11s-19.667 3.66699 -27 11s-11 16.333 -11 27
c0 10 3.66699 18.667 11 26s16.333 11 27 11z" />
    <glyph glyph-name="afii57793" unicode="&#x5b4;" 
d="M0 -45c10.667 0 19.667 -3.66699 27 -11s11 -16 11 -26c0 -10.667 -3.66699 -19.667 -11 -27s-16.333 -11 -27 -11s-19.667 3.66699 -27 11s-11 16.333 -11 27c0 10 3.66699 18.667 11 26s16.333 11 27 11z" />
    <glyph glyph-name="afii57794" unicode="&#x5b5;" 
d="M20 -82c0 10 3.66699 18.667 11 26s16.333 11 27 11c10 0 18.667 -3.66699 26 -11s11 -16 11 -26c0 -10.667 -3.66699 -19.667 -11 -27s-16 -11 -26 -11c-10.667 0 -19.667 3.66699 -27 11s-11 16.333 -11 27zM-95 -82c0 10 3.66699 18.667 11 26s16 11 26 11
c10.667 0 19.667 -3.66699 27 -11s11 -16 11 -26c0 -10.667 -3.66699 -19.667 -11 -27s-16.333 -11 -27 -11c-10 0 -18.667 3.66699 -26 11s-11 16.333 -11 27z" />
    <glyph glyph-name="afii57795" unicode="&#x5b6;" 
d="M-67 -45c10.667 0 19.5 -3.66699 26.5 -11s10.5 -16 10.5 -26c0 -10.667 -3.5 -19.667 -10.5 -27s-15.833 -11 -26.5 -11s-19.5 3.66699 -26.5 11s-10.5 16.333 -10.5 27c0 10 3.5 18.667 10.5 26s15.833 11 26.5 11zM0 -160c10.667 0 19.667 -3.66699 27 -11
s11 -16.333 11 -27c0 -10 -3.66699 -18.667 -11 -26s-16.333 -11 -27 -11s-19.667 3.66699 -27 11s-11 16 -11 26c0 10.667 3.66699 19.667 11 27s16.333 11 27 11zM67 -45c10.667 0 19.5 -3.66699 26.5 -11s10.5 -16 10.5 -26c0 -10.667 -3.5 -19.667 -10.5 -27
s-15.833 -11 -26.5 -11s-19.5 3.66699 -26.5 11s-10.5 16.333 -10.5 27c0 10 3.5 18.667 10.5 26s15.833 11 26.5 11z" />
    <glyph glyph-name="afii57798" unicode="&#x5b7;" 
d="M-115 -70c0 4 1.5 7.5 4.5 10.5s6.5 4.5 10.5 4.5h200c4 0 7.5 -1.5 10.5 -4.5s4.5 -6.5 4.5 -10.5v-25c0 -4 -1.5 -7.5 -4.5 -10.5s-6.5 -4.5 -10.5 -4.5h-200c-4 0 -7.5 1.5 -10.5 4.5s-4.5 6.5 -4.5 10.5v25z" />
    <glyph glyph-name="afii57797" unicode="&#x5b8;" 
d="M28 -173c6.66699 -6.66699 10 -14.999 10 -24.999s-3.66699 -18.667 -11 -26s-16.333 -11 -27 -11s-19.667 3.66699 -27 11s-11 16 -11 26c0 9.33301 3.33301 18 10 26c6.66699 7.33301 10 18.666 10 33.999c0 10 -3 17.167 -9 21.5s-15.667 6.5 -29 6.5h-44
c-4 0 -7.5 1.5 -10.5 4.5s-4.5 6.5 -4.5 10.5v25c0 4 1.5 7.5 4.5 10.5s6.5 4.5 10.5 4.5h200c4 0 7.5 -1.5 10.5 -4.5s4.5 -6.5 4.5 -10.5v-25c0 -4 -1.5 -7.5 -4.5 -10.5s-6.5 -4.5 -10.5 -4.5h-44c-14 0 -23.833 -2.16699 -29.5 -6.5s-8.5 -11.5 -8.5 -21.5
c0 -15.333 3.33301 -27 10 -35z" />
    <glyph glyph-name="afii57806" unicode="&#x5b9;" 
d="M0 720c10.667 0 19.667 -3.66699 27 -11s11 -16.333 11 -27c0 -10 -3.66699 -18.667 -11 -26s-16.333 -11 -27 -11s-19.667 3.66699 -27 11s-11 16 -11 26c0 10.667 3.66699 19.667 11 27s16.333 11 27 11z" />
    <glyph glyph-name="afii57796" unicode="&#x5bb;" 
d="M105 -160c10.667 0 19.5 -3.66699 26.5 -11s10.5 -16.333 10.5 -27c0 -10 -3.5 -18.667 -10.5 -26s-15.833 -11 -26.5 -11s-19.5 3.66699 -26.5 11s-10.5 16 -10.5 26c0 10.667 3.5 19.667 10.5 27s15.833 11 26.5 11zM-38 -140c0 10.667 3.66699 19.667 11 27
s16.333 11 27 11s19.667 -3.66699 27 -11s11 -16.333 11 -27s-3.66699 -19.667 -11 -27s-16.333 -11 -27 -11s-19.667 3.66699 -27 11s-11 16.333 -11 27zM-142 -82c0 10 3.5 18.667 10.5 26s15.833 11 26.5 11s19.5 -3.66699 26.5 -11s10.5 -16 10.5 -26
c0 -10.667 -3.5 -19.667 -10.5 -27s-15.833 -11 -26.5 -11s-19.5 3.66699 -26.5 11s-10.5 16.333 -10.5 27z" />
    <glyph glyph-name="afii57807" unicode="&#x5bc;" 
d="M0 338c10.667 0 19.667 -3.66797 27 -11.001s11 -16.166 11 -26.499s-3.66699 -19.333 -11 -27s-16.333 -11.5 -27 -11.5s-19.667 3.83301 -27 11.5s-11 16.5 -11 26.5c0 10.667 3.66699 19.667 11 27s16.333 11 27 11z" />
    <glyph glyph-name="afii57839" unicode="&#x5bd;" 
d="M-12 -230c-4.66699 0 -8.5 1.5 -11.5 4.5s-4.5 6.5 -4.5 10.5v155c0 4 1.5 7.5 4.5 10.5s6.83301 4.5 11.5 4.5h24c4.66699 0 8.5 -1.5 11.5 -4.5s4.5 -6.5 4.5 -10.5v-155c0 -4 -1.5 -7.5 -4.5 -10.5s-6.83301 -4.5 -11.5 -4.5h-24z" />
    <glyph glyph-name="afii57645" unicode="&#x5be;" horiz-adv-x="433" 
d="M36 574c0 17.333 8.66699 26 26 26h307c20 0 30 -8.33301 30 -25v-110c0 -16.667 -10 -25 -30 -25h-307c-17.333 0 -26 8.66699 -26 26v108z" />
    <glyph glyph-name="afii57841" unicode="&#x5bf;" 
d="M-100 694c0 4 1.5 7.5 4.5 10.5s6.5 4.5 10.5 4.5h170c4 0 7.5 -1.5 10.5 -4.5s4.5 -6.5 4.5 -10.5v-25c0 -4 -1.5 -7.5 -4.5 -10.5s-6.5 -4.5 -10.5 -4.5h-170c-4 0 -7.5 1.5 -10.5 4.5s-4.5 6.5 -4.5 10.5v25z" />
    <glyph glyph-name="afii57842" unicode="&#x5c0;" horiz-adv-x="155" 
d="M65 -15c-4 0 -7.5 1.5 -10.5 4.5s-4.5 6.5 -4.5 10.5v645c0 4 1.5 7.5 4.5 10.5s6.5 4.5 10.5 4.5h25c4 0 7.5 -1.5 10.5 -4.5s4.5 -6.5 4.5 -10.5v-645c0 -4 -1.5 -7.5 -4.5 -10.5s-6.5 -4.5 -10.5 -4.5h-25z" />
    <glyph glyph-name="afii57804" unicode="&#x5c1;" 
d="M644 705c10.667 0 19.667 -3.66699 27 -11s11 -16 11 -26c0 -10.667 -3.66699 -19.667 -11 -27s-16.333 -11 -27 -11s-19.667 3.66699 -27 11s-11 16.333 -11 27c0 10 3.66699 18.667 11 26s16.333 11 27 11z" />
    <glyph glyph-name="afii57803" unicode="&#x5c2;" 
d="M172 705c10 0 18.833 -3.66699 26.5 -11s11.5 -16 11.5 -26c0 -10.667 -3.83301 -19.667 -11.5 -27s-16.5 -11 -26.5 -11c-10.667 0 -19.667 3.66699 -27 11s-11 16.333 -11 27c0 10 3.83301 18.667 11.5 26s16.5 11 26.5 11z" />
    <glyph glyph-name="afii57658" unicode="&#x5c3;" horiz-adv-x="400" 
d="M113 131c-8.66699 3.33301 -13.001 9.66602 -13.001 18.999s4.33301 15.333 13 18c32.667 14 55.334 37 68.001 69c3.33301 8.66699 9.5 13 18.5 13s15.167 -4.33301 18.5 -13c14 -33.333 37 -56.333 69 -69c8.66699 -2.66699 13 -8.66699 13 -18
s-4.33301 -15.666 -13 -18.999c-33.333 -12.667 -56.333 -35.334 -69 -68.001c-3.33301 -8.66699 -9.5 -13 -18.5 -13s-14.833 4.33301 -17.5 13c-12.667 32.667 -35.667 55.334 -69 68.001zM112.999 501c-8.66699 3.33301 -13.001 9.66602 -13.001 18.999
s4.33301 15.333 13 18c32.667 14 55.334 37 68.001 69c3.33301 8.66699 9.5 13 18.5 13s15.167 -4.33301 18.5 -13c14 -33.333 37 -56.333 69 -69c8.66699 -2.66699 13 -8.66699 13 -18s-4.33301 -15.666 -13 -18.999c-33.333 -12.667 -56.333 -35.334 -69 -68.001
c-3.33301 -8.66699 -9.5 -13 -18.5 -13s-14.833 4.33301 -17.5 13c-12.667 32.667 -35.667 55.334 -69 68.001z" />
    <glyph glyph-name="uni05C4" unicode="&#x5c4;" 
d="M0 720c10.667 0 19.667 -3.66699 27 -11s11 -16.333 11 -27c0 -10 -3.66699 -18.667 -11 -26s-16.333 -11 -27 -11s-19.667 3.66699 -27 11s-11 16 -11 26c0 10.667 3.66699 19.667 11 27s16.333 11 27 11z" />
    <glyph glyph-name="afii57664" unicode="&#x5d0;" horiz-adv-x="593" 
d="M145 628c-1.33301 -17.333 0.00390625 -31.999 4.00391 -43.999c10.667 -30.667 24.167 -56.5 40.5 -77.5s38.833 -43.167 67.5 -66.5l100 -85c7.33301 -4.66699 13 -3.33398 17 3.99902c16 30 26 49 30 57c5.33301 10.667 3.33301 19.667 -6 27
c-16 14 -27.5 26 -34.5 36s-12.167 24 -15.5 42c-4 25.333 -0.666992 49 10 71c9.33301 18.667 22 33.334 38 44.001c10 6 17.5 8.83301 22.5 8.5s8.83301 -3.83301 11.5 -10.5s6.33398 -15 11.001 -25c4 -8.66699 12.667 -17.334 26 -26.001l29 -18
c10 -6 20.333 -14.667 31 -26s17.667 -23.666 21 -36.999c3.33301 -12.667 5.33301 -24.334 6 -35.001s-0.666016 -21.834 -3.99902 -33.501s-6.16602 -20.334 -8.49902 -26.001s-6.5 -14.834 -12.5 -27.501c-4 -8.66699 -9 -15 -15 -19s-11 -3.66699 -15 1
c-10 16 -23.667 29 -41 39c-12 6.66699 -20.667 4.33398 -26 -6.99902l-30 -56c-3.33301 -8 -2 -14.333 4 -19c48 -39.333 82.333 -72.166 103 -98.499s32.334 -58.5 35.001 -96.5c1.33301 -21.333 -2 -42.666 -10 -63.999s-19.667 -38 -35 -50
c-6.66699 -5.33301 -12.5 -8.5 -17.5 -9.5s-8.66699 0 -11 3s-4.5 6.83301 -6.5 11.5s-3.16699 10.167 -3.5 16.5s-0.833008 12.5 -1.5 18.5c-1.33301 16 -13 36.333 -35 61s-47.333 48.667 -76 72l-89 74l-49 42.5c-24 21 -39.667 34.5 -47 40.5
c-6.66699 4 -12.334 3.33301 -17.001 -2c-18.667 -20.667 -27.334 -39.334 -26.001 -56.001c2 -19.333 18.5 -43.5 49.5 -72.5s50.833 -49.5 59.5 -61.5c10 -14.667 15 -35 15 -61s-8.66699 -47 -26 -63c-18 -16 -40 -24 -66 -24h-89h-1
c-4.66699 0 -7.83398 0.666992 -9.50098 2s-0.5 5.66602 3.5 12.999l6.5 10c3 4.66699 4.83301 7.66699 5.5 9c6.66699 11.333 6 23 -2 35c-19.333 30 -27.333 65.667 -24 107c3.33301 40.667 10.166 72.334 20.499 95.001s30.833 51.667 61.5 87
c3.33301 6.66699 2.66602 13 -2.00098 19c-11.333 13.333 -21.5 24.833 -30.5 34.5s-16.667 19.834 -23 30.501s-10.5 21.334 -12.5 32.001c-8 42.667 -3.33301 81 14 115c9.33301 20 23.666 36 42.999 48c9.33301 6 17.166 8.16699 23.499 6.5
s9.16602 -6.83398 8.49902 -15.501z" />
    <glyph glyph-name="afii57665" unicode="&#x5d1;" horiz-adv-x="498" 
d="M477 160c17.333 0 22.6689 -7.33105 16.002 -21.998l-48 -117c-4.66699 -14 -15 -21 -31 -21h-374c-16.667 0 -22.334 7.33301 -17.001 22l48 117c6 14 16.333 21 31 21h301c3.33301 0 6 0.333008 8 1s3.83301 2.16699 5.5 4.5s2.5 5.83301 2.5 10.5
c1.33301 40.667 -2 83.667 -10 129s-21.333 75.666 -40 90.999c-23.333 19.333 -50.5 31.833 -81.5 37.5s-62.833 8.16699 -95.5 7.5s-56 1 -70 5c-17.333 4.66699 -31.333 12 -42 22s-17.167 18.167 -19.5 24.5s-4.83301 14.833 -7.5 25.5c-8 37.333 -3.33301 74 14 110
c10.667 21.333 21 22.333 31 3c5.33301 -10.667 12.833 -18.334 22.5 -23.001s20 -7 31 -7s23.167 -0.333008 36.5 -1c20 -2 41 -3.16699 63 -3.5s46.333 -5.33301 73 -15s48 -24.167 64 -43.5c26.667 -32 43.667 -78.333 51 -139s9.66602 -135.667 6.99902 -225
c0.666992 -9.33301 5.66699 -14 15 -14h16z" />
    <glyph glyph-name="afii57666" unicode="&#x5d2;" horiz-adv-x="339" 
d="M187 21c-6 -14 -16.334 -21.001 -31.001 -21.001h-128c-16.667 0 -22.334 7.33301 -17.001 22l48 117c6 14 16.333 21 31 21h106c21.333 0 32 11.333 32 34c0 78 2.66699 146.667 8 206c1.33301 14.667 -5.66699 23 -21 25c-18 2.66699 -31.167 4.83398 -39.5 6.50098
s-18.666 5 -30.999 10s-22.833 11.5 -31.5 19.5c-13.333 13.333 -22.333 28 -27 44c-4 12 -6 29.667 -6 53c2 26 7.66699 46 17 60c10.667 16 19.334 24.5 26.001 25.5s15 -5.5 25 -19.5c6.66699 -11.333 24.334 -21.333 53.001 -30c42 -10 66.333 -32.667 73 -68
c2 -11.333 0.333008 -30.166 -5 -56.499s-7.66602 -46.833 -6.99902 -61.5c1.33301 -33.333 10.166 -80.333 26.499 -141s24.833 -95.334 25.5 -104.001c3.33301 -25.333 3.83301 -48 1.5 -68s-8.5 -43 -18.5 -69c-6 -15.333 -11.833 -23.833 -17.5 -25.5
s-10.334 0.5 -14.001 6.5s-6.16699 13 -7.5 21c-8 48 -14 78.667 -18 92s-9.33301 12 -16 -4z" />
    <glyph glyph-name="afii57667" unicode="&#x5d3;" horiz-adv-x="523" 
d="M173 600l243.997 -0.00390625c27.333 0 45.333 -6.66699 54 -20s13.334 -32.333 14.001 -57c2.66699 -49.333 -13.666 -76.666 -48.999 -81.999c-8.66699 -1.33301 -13 -6.33301 -13 -15c24 -166.667 36.667 -257 38 -271c6 -44.667 -2 -89.667 -24 -135
c-8.66699 -18 -19.667 -26.167 -33 -24.5s-19.666 11.5 -18.999 29.5l7 401c-0.666992 9.33301 -6 14 -16 14h-268c-20 0 -36.667 8.5 -50 25.5s-21.333 33.167 -24 48.5c-3.33301 16.667 -3.16602 35.834 0.500977 57.501s9.5 40.5 17.5 56.5
c4.66699 10.667 9.83398 16.167 15.501 16.5s10.5 -4.16699 14.5 -13.5c4 -8 9.5 -14.5 16.5 -19.5s14.167 -8.16699 21.5 -9.5s15.666 -2.16602 24.999 -2.49902s18.666 -0.166016 27.999 0.500977z" />
    <glyph glyph-name="afii57668" unicode="&#x5d4;" horiz-adv-x="561" 
d="M182 600l270.001 -0.00488281c27.333 0 45.5 -6.66699 54.5 -20s13.5 -32.333 13.5 -57c0.666992 -22.667 -2.33301 -41.167 -9 -55.5s-20.334 -23.166 -41.001 -26.499c-8 -1.33301 -12 -6.33301 -12 -15c2 -13.333 10.333 -56.666 25 -129.999s23 -120.333 25 -141
c6.66699 -44.667 -1.33301 -89.667 -24 -135c-8 -18 -18.667 -26.167 -32 -24.5s-20 11.5 -20 29.5l-6 401c0 4.66699 -0.666992 8 -2 10s-2.83301 3.16699 -4.5 3.5s-4.16699 0.5 -7.5 0.5h-294c-20.667 0 -37.667 8.5 -51 25.5s-21.666 33.167 -24.999 48.5
c-3.33301 16 -3 34.833 1 56.5s9.66699 40.834 17 57.501c11.333 21.333 22 22.333 32 3c4 -8 9.16699 -14.5 15.5 -19.5s13.333 -8.16699 21 -9.5s16.167 -2.16602 25.5 -2.49902s18.666 -0.166016 27.999 0.500977zM48.001 26.9951
c2 27.333 3.50098 63.8301 4.50098 109.497s2.83301 79.834 5.5 102.501c5.33301 33.333 18.666 62 39.999 86c13.333 13.333 23.5 17 30.5 11s8.83301 -15 5.5 -27c-2.66699 -13.333 -2.66699 -40 0 -80c0.666992 -40 -1.33301 -75.167 -6 -105.5
s-15.334 -62.833 -32.001 -97.5c-11.333 -21.333 -22.666 -31.666 -33.999 -30.999s-16 11.334 -14 32.001z" />
    <glyph glyph-name="afii57669" unicode="&#x5d5;" horiz-adv-x="266" 
d="M221 523c7.33301 -40 -0.999023 -75.0029 -24.999 -105.003c-7.33301 -11.333 -10.333 -20.666 -9 -27.999c15.333 -93.333 26.333 -171.666 33 -234.999c6 -44.667 -2 -89.667 -24 -135c-8.66699 -18 -19.667 -26.167 -33 -24.5s-19.666 11.5 -18.999 29.5
c6 162 9.66699 284.333 11 367c1.33301 16 -5.66699 26.333 -21 31c-26.667 6.66699 -46.334 14.334 -59.001 23.001c-18.667 13.333 -31 30 -37 50c-5.33301 17.333 -7.33301 38 -6 62c1.33301 24.667 6.66602 44.667 15.999 60c6.66699 10.667 12.667 18 18 22
s10.5 4.83301 15.5 2.5s10.5 -8.5 16.5 -18.5c8 -12 26 -22 54 -30c38.667 -9.33301 61.667 -33 69 -71z" />
    <glyph glyph-name="afii57670" unicode="&#x5d6;" horiz-adv-x="291" 
d="M99 292c2 15.333 4.50098 28.998 7.50098 40.998s6.5 25 10.5 39s7 25.333 9 34c5.33301 18.667 1 29.667 -13 33c-20 5.33301 -36.333 13.333 -49 24c-12 9.33301 -21.333 23.333 -28 42c-4.66699 16.667 -6.33398 34.334 -5.00098 53.001c1.33301 24 7 44 17 60
c7.33301 11.333 13.333 18.833 18 22.5s9.83398 4.33398 15.501 2.00098s13.167 -8.83301 22.5 -19.5c9.33301 -12 28.666 -19.667 57.999 -23c36.667 -4.66699 64 -19.667 82 -45c14 -20.667 18 -50.667 12 -90c-2.66699 -18.667 -6.5 -31 -11.5 -37
s-10.5 -7.66699 -16.5 -5c-15.333 6 -30 8.33301 -44 7c-14 0 -22.667 -10 -26 -30c-3.33301 -24.667 -2.5 -47.5 2.5 -68.5s10.833 -41.5 17.5 -61.5c12 -48 14.333 -98.667 7 -152c-4 -30 -11.333 -60.667 -22 -92c-4.66699 -12.667 -10 -22.167 -16 -28.5
s-11.333 -6.66602 -16 -0.999023s-7 18.167 -7 37.5c0 32 -3 66 -9 102c-6 25.333 -11 51.166 -15 77.499s-4.33301 52.5 -1 78.5z" />
    <glyph glyph-name="afii57671" unicode="&#x5d7;" horiz-adv-x="559" 
d="M158 440c-15.333 -13.333 -25.0049 -32.334 -29.0049 -57.001c-2 -25.333 -3 -45.5 -3 -60.5s1.16699 -35.5 3.5 -61.5s3.5 -39.667 3.5 -41c3.33301 -29.333 3.33301 -60.5 0 -93.5s-13.333 -66.5 -30 -100.5c-7.33301 -14 -15 -23.5 -23 -28.5s-14.333 -4.66699 -19 1
s-6.66699 15.167 -6 28.5c3.33301 27.333 4.33301 68.5 3 123.5s-1.33301 91.167 0 108.5c4.66699 74.667 23 135 55 181c-12.667 2 -23.5 5.16699 -32.5 9.5s-15.667 9.16602 -20 14.499s-8.16602 11.166 -11.499 17.499s-5.16602 12.166 -5.49902 17.499
s-1.16602 10.333 -2.49902 15c-7.33301 36 -1.33301 74 18 114c10.667 21.333 21 22.333 31 3c4 -8 9.33301 -14.5 16 -19.5s13.834 -8.16699 21.501 -9.5s16 -2.16602 25 -2.49902s18.167 -0.166016 27.5 0.500977h271c27.333 0 45.333 -6.66699 54 -20
s13.334 -32.333 14.001 -57c1.33301 -49.333 -15.334 -76.666 -50.001 -81.999c-8.66699 -1.33301 -12.667 -6.33301 -12 -15c2 -13.333 10.333 -56.666 25 -129.999s23 -120.333 25 -141c6 -44.667 -2 -89.667 -24 -135c-8.66699 -18 -19.667 -26.167 -33 -24.5
s-19.666 11.5 -18.999 29.5l-6 401c0 9.33301 -5 14 -15 14h-252z" />
    <glyph glyph-name="afii57672" unicode="&#x5d8;" horiz-adv-x="576" 
d="M102 440c-14 4 -25.999 10.9961 -35.999 20.9961c-12 11.333 -21.333 26 -28 44c-4.66699 16.667 -6.33398 34.334 -5.00098 53.001c1.33301 24 7 44 17 60c6.66699 11.333 12.5 18.833 17.5 22.5s10 4.33398 15 2.00098s10.833 -8.5 17.5 -18.5
c7.33301 -12 25.333 -22 54 -30c28.667 -7.33301 49 -20.666 61 -39.999c14.667 -20 19 -49.667 13 -89c-2.66699 -19.333 -7.33398 -33.666 -14.001 -42.999s-13 -12.666 -19 -9.99902c-17.333 6 -27.666 9 -30.999 9c-9.33301 0.666992 -16 -3.66602 -20 -12.999
c-14.667 -31.333 -22 -64 -22 -98c0.666992 -40.667 5 -84 13 -130c2.66699 -13.333 11 -20 25 -20h338c13.333 0.666992 21 7.66699 23 21c9.33301 86.667 -5.66699 153.667 -45 201c-18 20.667 -39.167 36.334 -63.5 47.001s-45.5 11 -63.5 1
c-28 -16 -49 -64.667 -63 -146c-1.33301 -7.33301 -3.5 -12.5 -6.5 -15.5s-6.83301 -4.16699 -11.5 -3.5c-10 1.33301 -14 8.66602 -12 21.999c10.667 111.333 33 214.333 67 309c0.666992 1.33301 1.5 3.16602 2.5 5.49902s3.83301 5.16602 8.5 8.49902
s10.334 4.66602 17.001 3.99902c94.667 -8.66699 159 -85.667 193 -231c23.333 -98.667 17.333 -218.334 -18 -359.001c0 -1.33301 -0.333008 -2.66602 -1 -3.99902s-2 -3.83301 -4 -7.5s-5.16699 -6.66699 -9.5 -9s-9.5 -3.5 -15.5 -3.5h-390
c-14.667 0.666992 -22.334 7.33398 -23.001 20.001c0 4 -3.33301 80.667 -10 230c-2 46.667 11.333 100.667 40 162c8 14 4.33301 23.333 -11 28z" />
    <glyph glyph-name="afii57673" unicode="&#x5d9;" horiz-adv-x="266" 
d="M229 419c-6 -28 -21.668 -59.6719 -47.001 -95.0049c-14 -19.333 -24.667 -26 -32 -20c-10 7.33301 -9.66699 20.666 1 39.999l13.5 26c2.33301 4.66699 3.83301 11.334 4.5 20.001s-1.66602 17 -6.99902 25c-4 6 -9 10.5 -15 13.5s-13.833 5.83301 -23.5 8.5
s-17.5 5.33398 -23.5 8.00098c-29.333 13.333 -50 34.333 -62 63c-8.66699 20.667 -11.334 44.334 -8.00098 71.001c2.66699 22.667 9 40 19 52c10.667 10.667 18.667 15.334 24 14.001s11.333 -7.66602 18 -18.999c11.333 -17.333 29.333 -28.666 54 -33.999
c32.667 -6.66699 56.334 -23.667 71.001 -51c18.667 -33.333 23 -74 13 -122z" />
    <glyph glyph-name="afii57674" unicode="&#x5da;" horiz-adv-x="496" 
d="M173 600l216.998 -0.00390625c27.333 0 45.333 -6.66699 54 -20s13.334 -32.333 14.001 -57c1.33301 -49.333 -15.334 -76.666 -50.001 -81.999c-8.66699 -1.33301 -12.667 -6.33301 -12 -15c2.66699 -16.667 8.83398 -108.167 18.501 -274.5s15.5 -258.5 17.5 -276.5
c4.66699 -48.667 -3.33301 -93.667 -24 -135c-8.66699 -18 -19.667 -26.167 -33 -24.5s-19.666 11.5 -18.999 29.5l8 681c0 9.33301 -5 14 -15 14h-241c-20 0 -36.667 8.5 -50 25.5s-21.333 33.167 -24 48.5c-3.33301 16.667 -3.16602 35.834 0.500977 57.501
s9.5 40.5 17.5 56.5c4.66699 10.667 9.83398 16.167 15.501 16.5s10.5 -4.16699 14.5 -13.5c4 -8 9.5 -14.5 16.5 -19.5s14.167 -8.16699 21.5 -9.5s15.666 -2.16602 24.999 -2.49902s18.666 -0.166016 27.999 0.500977z" />
    <glyph glyph-name="afii57675" unicode="&#x5db;" horiz-adv-x="501" 
d="M479 185c0 -9.33301 -1.66406 -18.6689 -4.99707 -28.002l-4 -13l-58 -123c-7.33301 -14 -17.666 -21 -30.999 -21h-345c-8 0 -13.333 2 -16 6s-2.66699 9.33301 0 16l48 117c5.33301 14 15.333 21 30 21h337c4 0 7 0.333008 9 1s3.66699 2.16699 5 4.5s2 5.83301 2 10.5
c2 61.333 -6 113.666 -24 156.999c-16 40 -43 69.333 -81 88c-19.333 9.33301 -43.333 15.166 -72 17.499s-56.834 3.33301 -84.501 3s-47.834 1.16699 -60.501 4.5c-13.333 4 -24.5 8.83301 -33.5 14.5s-15.833 12.334 -20.5 20.001s-7.83398 13.834 -9.50098 18.501
s-3.5 11 -5.5 19c-8 37.333 -3.33301 74 14 110c10.667 22 21 23 31 3c5.33301 -10.667 12.833 -18.334 22.5 -23.001s20.167 -7 31.5 -7s23.666 -0.333008 36.999 -1c4 0 16 -0.5 36 -1.5s36.667 -2.33301 50 -4s29.5 -4.5 48.5 -8.5s36.167 -10.667 51.5 -20
s28.333 -20.666 39 -33.999c26 -33.333 42.833 -78.666 50.5 -135.999s10.167 -127.666 7.5 -210.999z" />
    <glyph glyph-name="afii57676" unicode="&#x5dc;" horiz-adv-x="510" 
d="M41 874c1.33301 9.33301 3.49902 16.1631 6.49902 20.4961s9.16699 5.83301 18.5 4.5c22.667 -3.33301 41 -15.166 55 -35.499s21 -37.5 21 -51.5c0 -10 -9 -24.667 -27 -44s-27.333 -29.666 -28 -30.999c-4 -6 -6.66699 -12.667 -8 -20s-2 -16.166 -2 -26.499v-38.5
c-0.666992 -8 -0.833984 -15.167 -0.500977 -21.5s1.5 -11.833 3.5 -16.5s5.83301 -8.16699 11.5 -10.5s13.834 -3.5 24.501 -3.5h270c50 0 78 -18.667 84 -56c3.33301 -19.333 5.33301 -36.833 6 -52.5s0.666992 -35 0 -58s-1 -38.833 -1 -47.5
c0 -20.667 -6.5 -41.5 -19.5 -62.5s-29.167 -40 -48.5 -57s-40 -36.167 -62 -57.5c-32.667 -29.333 -53 -65.333 -61 -108c-1.33301 -6.66699 0.166992 -15.334 4.5 -26.001s6.5 -19.667 6.5 -27c0 -15.333 -3.66699 -28 -11 -38s-18 -15 -32 -15s-25.667 4.83301 -35 14.5
s-14.666 21.5 -15.999 35.5c-2 20 4.33301 43.667 19 71s28.667 47 42 59c74.667 66 120.667 109.333 138 130s25.666 43.667 24.999 69c-1.33301 24.667 -6 41.834 -14 51.501s-25.333 14.5 -52 14.5h-243c-28 0 -48.833 6.83301 -62.5 20.5s-20.5 32.167 -20.5 55.5
c-0.666992 50.667 -0.666992 93.667 0 129s3.33398 60 8.00098 74c5.33301 14.667 12.833 28 22.5 40s14.5 20.333 14.5 25c-0.666992 6 -6.5 13.833 -17.5 23.5s-17.167 15.834 -18.5 18.501c-4 6.66699 -4.33301 22.667 -1 48z" />
    <glyph glyph-name="afii57677" unicode="&#x5dd;" horiz-adv-x="542" 
d="M184 600l194.002 -0.00390625c41.333 0 71.666 -15.333 90.999 -46s29 -68.667 29 -114v-415c0 -16.667 -10 -25 -30 -25h-390c-17.333 0 -26 8.66699 -26 26l2 214c0 74.667 21.333 141.334 64 200.001c-12 0 -22.833 2.66699 -32.5 8s-17.167 12.333 -22.5 21
s-9.5 16.667 -12.5 24s-5.16699 14.333 -6.5 21c-2.66699 16.667 -2.16699 35.834 1.5 57.501s9.16699 40.5 16.5 56.5c11.333 21.333 22 22.333 32 3c4 -8 9.16699 -14.5 15.5 -19.5s13.333 -8.16699 21 -9.5s16.167 -2.16602 25.5 -2.49902
s18.666 -0.166016 27.999 0.500977zM154.002 439.996c-25.333 -48 -38 -95.667 -38 -143v-112c0 -16.667 8.66699 -25 26 -25h296c18.667 0 28 9.66699 28 29v155c0 26 -9 48.5 -27 67.5s-41 28.5 -69 28.5h-216z" />
    <glyph glyph-name="afii57678" unicode="&#x5de;" horiz-adv-x="581" 
d="M101 378c-15.333 14.667 -28.6699 31.5029 -40.0029 50.5029s-17.666 35.5 -18.999 49.5c-2.66699 16.667 -3.16699 33.5 -1.5 50.5s6.83398 34.833 15.501 53.5c8.66699 18 21.334 34 38.001 48c8.66699 6.66699 16.334 8.66699 23.001 6s11.667 -9.33398 15 -20.001
c4 -12.667 16.667 -23.334 38 -32.001c26.667 -11.333 46.667 -45.333 60 -102c1.33301 -4.66699 3.5 -8 6.5 -10s6.83301 -2 11.5 0c24 17.333 39.333 60.666 46 129.999c2 16 10 23.333 24 22c68.667 -4.66699 124 -33.334 166 -86.001
c53.333 -67.333 81.333 -184.666 84 -351.999c0 -6.66699 -1.66699 -15.334 -5 -26.001l-4 -16l-51 -122c-8 -14.667 -18.333 -22 -31 -22h-316c-8 0 -13.5 2.16699 -16.5 6.5s-2.83301 9.5 0.5 15.5l48 118c4.66699 13.333 15 20 31 20h296c4.66699 0 8.5 1.66699 11.5 5
s4.5 7 4.5 11c-2 92.667 -27.667 163.334 -77 212.001c-18.667 18 -38.5 31.833 -59.5 41.5s-38 15.5 -51 17.5s-28.5 3 -46.5 3c-30.667 0 -61.834 -9.5 -93.501 -28.5s-53.167 -41.5 -64.5 -67.5s-18 -52.833 -20 -80.5s-1.83301 -57.5 0.5 -89.5s2.83301 -57.333 1.5 -76
c-2 -26.667 -7.66699 -51.334 -17 -74.001c-5.33301 -13.333 -11.166 -23 -17.499 -29s-12.5 -6.16699 -18.5 -0.5s-10.333 18.834 -13 39.501c-6.66699 51.333 -7 99.333 -1 144c7.33301 54 23.666 106 48.999 156c6 12.667 3.66699 24 -7 34z" />
    <glyph glyph-name="afii57679" unicode="&#x5df;" horiz-adv-x="273" 
d="M82 447c-9.33301 4 -17.999 10.6709 -25.999 20.0039s-13.667 19 -17 29c-6 17.333 -8.33301 36 -7 56c0.666992 10.667 2.83398 22.834 6.50098 36.501s7.5 23.5 11.5 29.5c10 16 18.5 24.5 25.5 25.5s15.167 -5.5 24.5 -19.5c3.33301 -6 8.66602 -11.167 15.999 -15.5
s14.166 -7 20.499 -8s12.166 -2.5 17.499 -4.5c30 -6.66699 50.667 -15.667 62 -27c16.667 -17.333 23.5 -39.333 20.5 -66s-12.833 -48.334 -29.5 -65.001c-5.33301 -5.33301 -10 -11 -14 -17l-6 -9l-11 -24.5l-9.5 -21.5c-3 -6.66699 -5.5 -13.834 -7.5 -21.501
s-3.33301 -15.167 -4 -22.5c-4 -34.667 0.333008 -88.667 13 -162c7.33301 -42 14 -95.833 20 -161.5s7.66699 -109.167 5 -130.5c-4.66699 -40.667 -23 -84.667 -55 -132c-8.66699 -12.667 -17.667 -17.834 -27 -15.501s-13.333 10.166 -12 23.499
c7.33301 77.333 11.333 154.666 12 231.999c0.666992 32 -0.5 74 -3.5 126s-3.83301 95.333 -2.5 130c1.33301 34 5.33301 64.5 12 91.5s18 57.167 34 90.5c4.66699 8.66699 2.33398 14 -6.99902 16c-25.333 3.33301 -46 9 -62 17z" />
    <glyph glyph-name="afii57680" unicode="&#x5e0;" horiz-adv-x="347" 
d="M217 0l-192.993 -0.000976562c-16 0 -21.333 7.33301 -16 22l48 117c6 14 16.333 21 31 21h125c16 0 23.333 8 22 24c-2.66699 70 -3.83398 110.5 -3.50098 121.5s2.83301 42.5 7.5 94.5c0.666992 14.667 -6.33301 23 -21 25
c-16.667 2.66699 -29.334 4.83398 -38.001 6.50098s-18.667 5 -30 10s-21 11.5 -29 19.5c-12 11.333 -21.333 26 -28 44c-4.66699 16.667 -6.33398 34.334 -5.00098 53.001c1.33301 24 7 44 17 60s19.167 24.5 27.5 25.5s17.166 -5.5 26.499 -19.5
c5.33301 -8.66699 15.166 -15.667 29.499 -21s24.166 -8.33301 29.499 -9c20 -4.66699 36.667 -13.167 50 -25.5s21.666 -26.5 24.999 -42.5c5.33301 -25.333 3 -50.5 -7 -75.5s-15 -39.167 -15 -42.5c0 -24 6.66699 -60.667 20 -110s21 -90 23 -122
c2.66699 -24.667 3 -48.334 1 -71.001s-7.66699 -43.667 -17 -63c-14 -28 -40.667 -42 -80 -42z" />
    <glyph glyph-name="afii57681" unicode="&#x5e1;" horiz-adv-x="512" 
d="M184 600c4.66699 -0.666992 21.5029 -1.16797 50.5029 -1.50098s53.5 -1.33301 73.5 -3s42.5 -7.16699 67.5 -16.5s43.833 -22.333 56.5 -39c26 -32.667 42.167 -77.334 48.5 -134.001s8.83301 -130 7.5 -220c-1.33301 -18.667 -5.33301 -36 -12 -52l-46 -112
c-6.66699 -14.667 -18.667 -22 -36 -22h-306c-16 0 -24 8.33301 -24 25c-2.66699 47.333 -4 75 -4 83c-2 21.333 -4 38.833 -6 52.5s-3.33301 22.334 -4 26.001s-1.33398 9.83398 -2.00098 18.501s-1.33398 21.334 -2.00098 38.001c0 27.333 9.83301 63.5 29.5 108.5
s36.5 74.5 50.5 88.5c-22.667 4.66699 -40.334 15 -53.001 31s-21 31.667 -25 47c-8 37.333 -3.33301 74 14 110c11.333 21.333 22 22.333 32 3c4.66699 -10.667 12 -18.334 22 -23.001s20.5 -7 31.5 -7s23.167 -0.333008 36.5 -1zM164.003 439.999
c-23.333 -32.667 -40.332 -61.333 -50.999 -86s-15.667 -53 -15 -85c2 -28 4.66699 -56 8 -84c2 -10.667 5.16699 -17.5 9.5 -20.5s10.5 -4.5 18.5 -4.5h296c17.333 0 26 8.33301 26 25c0 15.333 -0.166992 33 -0.5 53s-1 39 -2 57s-3.5 35.333 -7.5 52s-9.33301 30 -16 40
c-7.33301 12 -19.833 22.833 -37.5 32.5s-35.834 15.167 -54.501 16.5c-48.667 4 -106.667 5.33301 -174 4z" />
    <glyph glyph-name="afii57682" unicode="&#x5e2;" horiz-adv-x="552" 
d="M138 404c4 19.333 -1.00586 30.333 -15.0059 33c-19.333 2 -36.666 8.33301 -51.999 19c-13.333 9.33301 -23.666 22.666 -30.999 39.999c-5.33301 13.333 -8.66602 30.666 -9.99902 51.999c-1.33301 25.333 2.66699 45.666 12 60.999c6.66699 13.333 12 22.333 16 27
s9.5 6 16.5 4s15.833 -9 26.5 -21c8.66699 -10 27.334 -16 56.001 -18c36 -0.666992 64.333 -13 85 -37c16.667 -20.667 23.667 -50.334 21 -89.001c-1.33301 -18.667 -4.33301 -31.167 -9 -37.5s-10 -8.5 -16 -6.5c-14 4.66699 -28.667 5.66699 -44 3
c-14 -2 -21.667 -12.667 -23 -32c-1.33301 -24 3.16699 -48.167 13.5 -72.5s19.166 -41.833 26.499 -52.5c24 -52 34 -111 30 -177l90 66c5.33301 4.66699 10.166 9.5 14.499 14.5s7.83301 13.167 10.5 24.5c13.333 46 25.333 80.667 36 104c22 51.333 34.667 82.333 38 93
c4 14 -1 22.333 -15 25c-26 6.66699 -47.333 18 -64 34c-12 11.333 -21.333 26 -28 44c-4 12 -6 29.667 -6 53c2 26.667 8 46.667 18 60c6.66699 11.333 12.667 18.833 18 22.5s10.5 4.33398 15.5 2.00098s10.833 -8.5 17.5 -18.5
c7.33301 -10.667 25.666 -20.667 54.999 -30c42.667 -10 68 -32.667 76 -68c8.66699 -43.333 -1.66602 -75 -30.999 -95c-12.667 -7.33301 -20.667 -17 -24 -29c-21.333 -64 -36.666 -120.667 -45.999 -170s-16.666 -114 -21.999 -194c-2 -16.667 -9.33301 -30 -22 -40
l-291 -217c-3.33301 -3.33301 -7.33301 -4.16602 -12 -2.49902s-7 5.83398 -7 12.501l10 158c0.666992 17.333 7.66699 30.666 21 39.999l99 72c14 10.667 20 23.667 18 39c-2 19.333 -6.16699 36.833 -12.5 52.5s-14.166 31.334 -23.499 47.001
s-15.666 27.834 -18.999 36.501c-22 53.333 -27.667 109.333 -17 168z" />
    <glyph glyph-name="afii57683" unicode="&#x5e3;" horiz-adv-x="493" 
d="M104 440c-24.667 18 -39.999 42.665 -45.999 73.998c-3.33301 16.667 -3.16602 35.834 0.500977 57.501s9.5 40.5 17.5 56.5c4.66699 10.667 9.83398 16.167 15.501 16.5s10.5 -4.16699 14.5 -13.5c4 -8 9.5 -14.5 16.5 -19.5s14.167 -8.16699 21.5 -9.5
s15.666 -2.16602 24.999 -2.49902s18.666 -0.166016 27.999 0.500977h139c27.333 0 50 -9.16699 68 -27.5s27.667 -41.166 29 -68.499l35 -664c2.66699 -45.333 -12.333 -82 -45 -110c-6.66699 -4.66699 -12.334 -7.83398 -17.001 -9.50098s-8.5 -0.833984 -11.5 2.49902
s-4.5 9.33301 -4.5 18l19 605c1.33301 26.667 -4.16699 49 -16.5 67s-30.5 27 -54.5 27h-194c-13.333 -10 -24.5 -27.333 -33.5 -52s-11.5 -48.667 -7.5 -72c2 -11.333 6.33301 -20.5 13 -27.5s15.834 -11.833 27.501 -14.5s22 -4.16699 31 -4.5s21.167 -0.5 36.5 -0.5
c15.333 0.666992 29 -4 41 -14s19.667 -23.333 23 -40c8.66699 -40 -1.33301 -69 -30 -87c-26 -16 -71.667 -18 -137 -6c-3.33301 -2 -8.83301 -6.66699 -16.5 -14s-14.167 -13 -19.5 -17c-11.333 -9.33301 -21 -10 -29 -2c-8.66699 8.66699 -7.33398 18 3.99902 28
c14.667 13.333 23.667 21.333 27 24c-28.667 42.667 -40 93.667 -34 153c2.66699 30.667 10 59.5 22 86.5s26 46.833 42 59.5z" />
    <glyph glyph-name="afii57684" unicode="&#x5e4;" horiz-adv-x="491" 
d="M154 443c-20 -9.33301 -29.334 -23.665 -28.001 -42.998c0.666992 -10 6.16699 -17.333 16.5 -22s23 -7 38 -7h47.5c15.333 0 29 -4.83301 41 -14.5s19.667 -22.834 23 -39.501c8.66699 -40.667 -1.33301 -69.667 -30 -87c-26 -16.667 -71.667 -18.667 -137 -6
c-3.33301 -2.66699 -8.83301 -7.5 -16.5 -14.5s-14.167 -12.5 -19.5 -16.5c-11.333 -9.33301 -21 -10 -29 -2c-4 4 -5.33301 8.66699 -4 14s4 10 8 14c14.667 12.667 23.667 20.667 27 24c-16 14.667 -26.667 29.5 -32 44.5s-7 33.167 -5 54.5c4 38 27.667 74.667 71 110
c-12.667 5.33301 -23 12.333 -31 21s-13 15.834 -15 21.501s-4 13.5 -6 23.5c-8 36.667 -3.33301 73.334 14 110.001c10.667 21.333 21 22.333 31 3c5.33301 -10.667 12.833 -18.334 22.5 -23.001s20 -7 31 -7s23.167 -0.333008 36.5 -1c1.33301 0 9.5 -0.333008 24.5 -1
s25.667 -1.33398 32 -2.00098s16.833 -2 31.5 -4s26.667 -4.5 36 -7.5s19.833 -7 31.5 -12s22.167 -11.333 31.5 -19s17.333 -16.167 24 -25.5c21.333 -30.667 35.333 -74.834 42 -132.501s8.66699 -128.167 6 -211.5c-0.666992 -16.667 -3 -30.334 -7 -41.001l-51 -123
c-6.66699 -14 -17 -21 -31 -21h-344c-16 0 -21.333 7.33301 -16 22l48 117c6 14 16.333 21 31 21h323c10 0 15.667 5.33301 17 16c1.33301 102.667 -10.334 171.334 -35.001 206.001c-13.333 18 -31.666 31.667 -54.999 41s-45.333 14.333 -66 15s-44.167 1.16699 -70.5 1.5
s-45.166 1.5 -56.499 3.5z" />
    <glyph glyph-name="afii57685" unicode="&#x5e5;" horiz-adv-x="537" 
d="M190 134c8 -44 15.499 -93.667 22.499 -149s10.167 -93 9.5 -113c-2.66699 -39.333 -19 -84 -49 -134c-8.66699 -13.333 -17.667 -19.166 -27 -17.499s-13.333 9.5 -12 23.5c3.33301 70 4 147.333 2 232c-1.33301 32 -4.5 74 -9.5 126s-7.83301 95.333 -8.5 130
c-0.666992 35.333 1.33301 66.5 6 93.5s14.334 56.5 29.001 88.5c4 10 1.33301 15.333 -8 16c-26.667 4 -46.334 9.33301 -59.001 16c-10 4 -19.167 10.333 -27.5 19s-14.166 17.667 -17.499 27c-7.33301 19.333 -10.333 38 -9 56c0 10.667 1.5 23 4.5 37
s6.16699 23.667 9.5 29c5.33301 9.33301 9.66602 16.333 12.999 21s7 8 11 10s8 1.33301 12 -2s8.66699 -9 14 -17c4 -6 9.5 -10.833 16.5 -14.5s13.5 -6 19.5 -7s11.667 -2.5 17 -4.5c25.333 -4 46.333 -12.667 63 -26c16.667 -16.667 24 -38.5 22 -65.5
s-10.667 -49.167 -26 -66.5c-5.33301 -5.33301 -10 -11 -14 -17l-5 -9c-14 -34.667 -22.333 -65.334 -25 -92.001c-1.33301 -32 1.33398 -64 8.00098 -96c1.33301 -8 3.83301 -12.833 7.5 -14.5s8.16699 0.5 13.5 6.5l169 212c3.33301 4.66699 5 8.5 5 11.5
s-2.66699 6.5 -8 10.5c-23.333 18.667 -35.333 44.667 -36 78c-1.33301 36 11 68 37 96c9.33301 12 18.333 18 27 18s15 -6 19 -18c8 -16 20.667 -29.333 38 -40c38 -20.667 58 -48.667 60 -84c1.33301 -32.667 -9 -63.334 -31 -92.001c-18 -24 -31.333 -30.667 -40 -20
c-8.66699 10 -15.334 16.667 -20.001 20c-7.33301 6.66699 -14.666 5.33398 -21.999 -3.99902l-189 -232c-10 -18 -14 -32 -12 -42z" />
    <glyph glyph-name="afii57686" unicode="&#x5e6;" horiz-adv-x="561" 
d="M54 0c-16 0 -21.334 7.32715 -16.001 21.9941l48 117c6 14 16.333 21 31 21h289c14 0 16.333 4 7 12l-185 140c-8 6.66699 -12.333 14.667 -13 24c-4.66699 36 -8.33398 58 -11.001 66c-2 6 -3.5 10.167 -4.5 12.5s-3.5 5 -7.5 8s-9.33301 4.83301 -16 5.5
c-51.333 4 -86.666 15 -105.999 33c-12 12.667 -20.667 27.334 -26 44.001c-5.33301 16 -7.33301 33.667 -6 53c1.33301 24 7 44 17 60c6.66699 11.333 12.5 18.833 17.5 22.5s10 4.33398 15 2.00098s10.833 -8.5 17.5 -18.5c7.33301 -11.333 25 -21.333 53 -30
c40 -10 64.667 -32.667 74 -68c4 -14.667 2.66699 -42.667 -4 -84c-2 -8.66699 0 -18 6 -28c2 -4 18 -17.333 48 -40l44 -35c8 -6.66699 14.667 -5.33398 20 3.99902l36 85c5.33301 8.66699 3.66602 16.334 -5.00098 23.001c-27.333 21.333 -41 48 -41 80
c-0.666992 36.667 11.333 69 36 97c21.333 24.667 37 24.667 47 0c6 -15.333 18.333 -28.666 37 -39.999c38 -21.333 58 -49.666 60 -84.999c2 -32 -8 -62.333 -30 -91c-18.667 -23.333 -32 -30 -40 -20c-2.66699 2.66699 -5.16699 5.66699 -7.5 9s-4.83301 6 -7.5 8
c-8.66699 8.66699 -15 8.33398 -19 -0.999023l-38 -87c-4.66699 -9.33301 -2.66699 -17.666 6 -24.999l106 -84c17.333 -14 28.833 -34.667 34.5 -62s2.83398 -54.333 -8.49902 -81c-21.333 -46 -59.666 -69 -114.999 -69h-343z" />
    <glyph glyph-name="afii57687" unicode="&#x5e7;" horiz-adv-x="544" 
d="M186 600c2.66699 -0.666992 18 -1.17188 46 -1.50488s54.667 -1.33301 80 -3s53.333 -7.33398 84 -17.001s54 -23.167 70 -40.5c22 -22 37.667 -59.667 47 -113s13 -104.833 11 -154.5s-7.33301 -87.167 -16 -112.5c-6.66699 -17.333 -18.667 -35.333 -36 -54
s-37.333 -33 -60 -43c-17.333 -6.66699 -41.833 -12.667 -73.5 -18s-58.834 -11.333 -81.501 -18s-37.667 -16.667 -45 -30c-6.66699 -10.667 -14.167 -14.167 -22.5 -10.5s-12.833 12.167 -13.5 25.5c0 12.667 2.66699 25.334 8 38.001
c8.66699 20.667 23.167 38.167 43.5 52.5s50.5 27.833 90.5 40.5c14.667 4.66699 33.167 8.83398 55.5 12.501s40.5 8 54.5 13s26 13.167 36 24.5c19.333 21.333 28.666 55.333 27.999 102s-10.667 80.667 -30 102c-12 14 -34.5 24.333 -67.5 31s-66.333 10.334 -100 11.001
s-68.167 1.5 -103.5 2.5s-59 3.16699 -71 6.5c-14 4 -25.5 8.83301 -34.5 14.5s-15.833 12.334 -20.5 20.001s-7.83398 13.834 -9.50098 18.501s-3.5 11 -5.5 19c-8 37.333 -3.33301 74 14 110c11.333 21.333 22 22.333 32 3c2.66699 -6.66699 6.33398 -12 11.001 -16
s10.334 -7 17.001 -9s12.834 -3.16699 18.501 -3.5s13 -0.666016 22 -0.999023s16.167 -0.833008 21.5 -1.5zM134 345.995c-12 -22 -19.6689 -40.168 -23.002 -54.501s-5 -30.833 -5 -49.5c-1.33301 -35.333 2.5 -92.166 11.5 -170.499s13.167 -130.166 12.5 -155.499
c0 -30.667 -0.833008 -54.834 -2.5 -72.501s-6.16699 -39 -13.5 -64s-18.666 -47.5 -33.999 -67.5c-13.333 -18.667 -22.833 -27.667 -28.5 -27s-7.5 11 -5.5 31c2.66699 34 4 64.5 4 91.5s-0.666992 56 -2 87s-2 59.5 -2 85.5c0.666992 22.667 0.5 52 -0.5 88
s-1.33301 66.667 -1 92s1.5 47.666 3.5 66.999c8.66699 54 27.334 97.667 56.001 131c13.333 14.667 23.5 19.834 30.5 15.501s6.83301 -13.5 -0.5 -27.5z" />
    <glyph glyph-name="afii57688" unicode="&#x5e8;" horiz-adv-x="502" 
d="M427 344c0 26 -9.00293 48.498 -27.0029 67.498s-41 28.5 -69 28.5h-223c-20 0 -36.667 8.5 -50 25.5s-21.333 33.167 -24 48.5c-7.33301 36 -1.33301 74 18 114c10.667 21.333 21 22.333 31 3c4 -8 9.33301 -14.5 16 -19.5s13.834 -8.16699 21.501 -9.5
s16 -2.16602 25 -2.49902s18.167 -0.166016 27.5 0.500977h133c84.667 0 133.334 -53.333 146.001 -160c3.33301 -25.333 6.83301 -76 10.5 -152s6.16699 -120.667 7.5 -134c4.66699 -52.667 0.333984 -97.334 -12.999 -134.001c-4.66699 -12 -10.5 -19.667 -17.5 -23
s-13.167 -2.16602 -18.5 3.50098s-7.66602 14.167 -6.99902 25.5c3.33301 126 7.66602 232 12.999 318z" />
    <glyph glyph-name="afii57689" unicode="&#x5e9;" horiz-adv-x="716" 
d="M492 227c16 38 35.3311 76.3281 57.998 114.995l34 57c5.33301 9.33301 4.66602 16.333 -2.00098 21c-8 3.33301 -21.5 13.666 -40.5 30.999s-30.833 35.666 -35.5 54.999c-10.667 43.333 0.333008 84 33 122c9.33301 11.333 18.333 17 27 17s15.334 -5.66699 20.001 -17
c5.33301 -14.667 18 -28 38 -40c37.333 -21.333 57 -49.666 59 -84.999c2 -33.333 -8 -63.666 -30 -90.999c-10.667 -12.667 -18.334 -18.667 -23.001 -18c-6.66699 2 -11.334 0.666992 -14.001 -4c-34.667 -47.333 -66.667 -127.666 -96 -240.999
c-4 -12.667 -7.33301 -25.667 -10 -39s-7.5 -26.666 -14.5 -39.999s-15 -25.166 -24 -35.499s-21.667 -18.666 -38 -24.999s-35.166 -9.5 -56.499 -9.5h-263c-10 0 -15 5 -15 15c0 36 -1.33301 67 -4 93c-2.66699 26.667 -5.33398 49.167 -8.00098 67.5
s-4.66699 33.166 -6 44.499s-2 27.333 -2 48c0.666992 24 10 65.333 28 124c6.66699 19.333 4.33398 30.666 -6.99902 33.999c-17.333 6.66699 -31.666 16.334 -42.999 29.001c-10.667 12 -17.667 26.667 -21 44c-3.33301 15.333 -3.66602 33 -0.999023 53
c3.33301 26.667 10 47.667 20 63c10.667 18 19.834 27.833 27.501 29.5s16.167 -4.83301 25.5 -19.5c10 -17.333 26 -28.666 48 -33.999c32 -8.66699 55 -28.667 69 -60c11.333 -24 13 -54.333 5 -91c-4 -18.667 -8.5 -30.667 -13.5 -36s-10.167 -6.33301 -15.5 -3
c-12 7.33301 -25 11 -39 11c-11.333 0 -19.666 -9.33301 -24.999 -28c-8 -26.667 -12.5 -43.667 -13.5 -51s-0.166992 -21 2.5 -41c2.66699 -13.333 8.66699 -31.833 18 -55.5s15.666 -44.167 18.999 -61.5c1.33301 -10 7 -15 17 -15h6c9.33301 0 16 4.66699 20 14l112 258
c3.33301 10 2 17.333 -4 22c-22.667 17.333 -34.667 43 -36 77c-0.666992 36 11.666 68.333 36.999 97c9.33301 11.333 18.333 17 27 17s15.334 -5.66699 20.001 -17c1.33301 -4.66699 5.5 -11.167 12.5 -19.5s15.167 -15.166 24.5 -20.499c37.333 -20.667 57 -49 59 -85
c2.66699 -32 -7.33301 -62.333 -30 -91c-17.333 -24 -30.666 -30.667 -39.999 -20c-8.66699 10 -15.334 16.667 -20.001 20c-10.667 7.33301 -18 6 -22 -4l-99 -234c-2 -5.33301 -2.33301 -9 -1 -11s5 -3 11 -3h120c58 0 96.333 22.333 115 67z" />
    <glyph glyph-name="afii57690" unicode="&#x5ea;" horiz-adv-x="571" 
d="M131 448c-13.333 6 -23.6699 15.5 -31.0029 28.5s-12 25.5 -14 37.5c-3.33301 16.667 -3.16602 35.834 0.500977 57.501s9.5 40.5 17.5 56.5c10.667 21.333 21 22.333 31 3c4 -8 9.16699 -14.5 15.5 -19.5s13.333 -8.16699 21 -9.5s16.167 -2.16602 25.5 -2.49902
s19 -0.166016 29 0.500977h149c42.667 0 76 -13.833 100 -41.5s39.333 -67.167 46 -118.5c2.66699 -25.333 6 -76 10 -152s6.66699 -120.667 8 -134c4.66699 -52.667 0.333984 -97.334 -12.999 -134.001c-7.33301 -18.667 -16.666 -26.667 -27.999 -24
s-16.333 12.667 -15 30c3.33301 126 7.66602 232 12.999 318c0 26 -9 48.5 -27 67.5s-41 28.5 -69 28.5h-232c-11.333 -18.667 -18.666 -33 -21.999 -43c-19.333 -51.333 -13.333 -103.666 18 -156.999c35.333 -60.667 47.333 -115.334 36 -164.001
c-14 -50.667 -38.333 -76 -73 -76h-100c-8 0 -13.5 2 -16.5 6s-2.83301 9.33301 0.5 16l48 117c4.66699 14 15 21 31 21c6.66699 0 12 2.33301 16 7c2 3.33301 0.5 10.666 -4.5 21.999s-10.5 27.666 -16.5 48.999s-8 43.333 -6 66c2 28 8.33301 56 19 84s21.667 48 33 60z
" />
    <glyph glyph-name="afii57716" unicode="&#x5f0;" horiz-adv-x="532" 
d="M487 523c7.33301 -40 -0.999023 -75.0029 -24.999 -105.003c-7.33301 -11.333 -10.333 -20.666 -9 -27.999c15.333 -93.333 26.333 -171.666 33 -234.999c6 -44.667 -2 -89.667 -24 -135c-8.66699 -18 -19.667 -26.167 -33 -24.5s-19.666 11.5 -18.999 29.5
c6 162 9.66699 284.333 11 367c1.33301 16 -5.66699 26.333 -21 31c-26.667 6.66699 -46.334 14.334 -59.001 23.001c-18.667 13.333 -31 30 -37 50c-5.33301 17.333 -7.33301 38 -6 62c1.33301 24.667 6.66602 44.667 15.999 60c6.66699 10.667 12.667 18 18 22
s10.5 4.83301 15.5 2.5s10.5 -8.5 16.5 -18.5c8 -12 26 -22 54 -30c38.667 -9.33301 61.667 -33 69 -71zM221.001 522.997c7.33301 -40 -0.999023 -75.0029 -24.999 -105.003c-7.33301 -11.333 -10.333 -20.666 -9 -27.999c15.333 -93.333 26.333 -171.666 33 -234.999
c6 -44.667 -2 -89.667 -24 -135c-8.66699 -18 -19.667 -26.167 -33 -24.5s-19.666 11.5 -18.999 29.5c6 162 9.66699 284.333 11 367c1.33301 16 -5.66699 26.333 -21 31c-26.667 6.66699 -46.334 14.334 -59.001 23.001c-18.667 13.333 -31 30 -37 50
c-5.33301 17.333 -7.33301 38 -6 62c1.33301 24.667 6.66602 44.667 15.999 60c6.66699 10.667 12.667 18 18 22s10.5 4.83301 15.5 2.5s10.5 -8.5 16.5 -18.5c8 -12 26 -22 54 -30c38.667 -9.33301 61.667 -33 69 -71z" />
    <glyph glyph-name="afii57717" unicode="&#x5f1;" horiz-adv-x="532" 
d="M229 419c-6 -28 -21.668 -59.6719 -47.001 -95.0049c-14 -19.333 -24.667 -26 -32 -20c-10 7.33301 -9.66699 20.666 1 39.999l13.5 26c2.33301 4.66699 3.83301 11.334 4.5 20.001s-1.66602 17 -6.99902 25c-4 6 -9 10.5 -15 13.5s-13.833 5.83301 -23.5 8.5
s-17.5 5.33398 -23.5 8.00098c-29.333 13.333 -50 34.333 -62 63c-8.66699 20.667 -11.334 44.334 -8.00098 71.001c2.66699 22.667 9 40 19 52c10.667 10.667 18.667 15.334 24 14.001s11.333 -7.66602 18 -18.999c11.333 -17.333 29.333 -28.666 54 -33.999
c32.667 -6.66699 56.334 -23.667 71.001 -51c18.667 -33.333 23 -74 13 -122zM486.999 522.995c7.33301 -40 -0.999023 -75.0029 -24.999 -105.003c-7.33301 -11.333 -10.333 -20.666 -9 -27.999c15.333 -93.333 26.333 -171.666 33 -234.999c6 -44.667 -2 -89.667 -24 -135
c-8.66699 -18 -19.667 -26.167 -33 -24.5s-19.666 11.5 -18.999 29.5c6 162 9.66699 284.333 11 367c1.33301 16 -5.66699 26.333 -21 31c-26.667 6.66699 -46.334 14.334 -59.001 23.001c-18.667 13.333 -31 30 -37 50c-5.33301 17.333 -7.33301 38 -6 62
c1.33301 24.667 6.66602 44.667 15.999 60c6.66699 10.667 12.667 18 18 22s10.5 4.83301 15.5 2.5s10.5 -8.5 16.5 -18.5c8 -12 26 -22 54 -30c38.667 -9.33301 61.667 -33 69 -71z" />
    <glyph glyph-name="afii57718" unicode="&#x5f2;" horiz-adv-x="532" 
d="M466 419c-6 -28 -21.668 -59.6719 -47.001 -95.0049c-14 -19.333 -24.667 -26 -32 -20c-10 7.33301 -9.66699 20.666 1 39.999l13.5 26c2.33301 4.66699 3.83301 11.334 4.5 20.001s-1.66602 17 -6.99902 25c-4 6 -9 10.5 -15 13.5s-13.833 5.83301 -23.5 8.5
s-17.5 5.33398 -23.5 8.00098c-29.333 13.333 -50 34.333 -62 63c-8.66699 20.667 -11.334 44.334 -8.00098 71.001c2.66699 22.667 9 40 19 52c10.667 10.667 18.667 15.334 24 14.001s11.333 -7.66602 18 -18.999c11.333 -17.333 29.333 -28.666 54 -33.999
c32.667 -6.66699 56.334 -23.667 71.001 -51c18.667 -33.333 23 -74 13 -122zM199.999 418.995c-6 -28 -21.668 -59.6719 -47.001 -95.0049c-14 -19.333 -24.667 -26 -32 -20c-10 7.33301 -9.66699 20.666 1 39.999l13.5 26c2.33301 4.66699 3.83301 11.334 4.5 20.001
s-1.66602 17 -6.99902 25c-4 6 -9 10.5 -15 13.5s-13.833 5.83301 -23.5 8.5s-17.5 5.33398 -23.5 8.00098c-29.333 13.333 -50 34.333 -62 63c-8.66699 20.667 -11.334 44.334 -8.00098 71.001c2.66699 22.667 9 40 19 52c10.667 10.667 18.667 15.334 24 14.001
s11.333 -7.66602 18 -18.999c11.333 -17.333 29.333 -28.666 54 -33.999c32.667 -6.66699 56.334 -23.667 71.001 -51c18.667 -33.333 23 -74 13 -122z" />
    <glyph glyph-name="afii61664" unicode="&#x200c;" 
 />
    <glyph glyph-name="afii301" unicode="&#x200d;" 
 />
    <glyph glyph-name="afii299" unicode="&#x200e;" 
 />
    <glyph glyph-name="afii300" unicode="&#x200f;" 
 />
    <glyph glyph-name="SF110000" unicode="&#x2502;" horiz-adv-x="610" 
d="M365 960v-1260h-120v1260h120z" />
    <glyph glyph-name="uni25CC" unicode="&#x25cc;" horiz-adv-x="604" 
d="M505 454c10 0 18.667 -3.5 26 -10.5s11 -15.5 11 -25.5c0 -10.667 -3.66699 -19.5 -11 -26.5s-16 -10.5 -26 -10.5s-18.667 3.5 -26 10.5s-11 15.833 -11 26.5c0 10 3.66699 18.5 11 25.5s16 10.5 26 10.5zM419 133c10 0 18.667 -3.5 26 -10.5s11 -15.833 11 -26.5
c0 -10 -3.66699 -18.5 -11 -25.5s-16 -10.5 -26 -10.5s-18.667 3.5 -26 10.5s-11 15.5 -11 25.5c0 10.667 3.66699 19.5 11 26.5s16 10.5 26 10.5zM97 219c10.667 0 19.5 -3.5 26.5 -10.5s10.5 -15.833 10.5 -26.5c0 -10 -3.5 -18.5 -10.5 -25.5s-15.833 -10.5 -26.5 -10.5
c-10 0 -18.5 3.5 -25.5 10.5s-10.5 15.5 -10.5 25.5c0 10.667 3.5 19.5 10.5 26.5s15.5 10.5 25.5 10.5zM184 540c10 0 18.5 -3.5 25.5 -10.5s10.5 -15.5 10.5 -25.5c0 -10.667 -3.5 -19.5 -10.5 -26.5s-15.5 -10.5 -25.5 -10.5c-10.667 0 -19.5 3.5 -26.5 10.5
s-10.5 15.833 -10.5 26.5c0 10 3.5 18.5 10.5 25.5s15.833 10.5 26.5 10.5zM97 454c10.667 0 19.5 -3.5 26.5 -10.5s10.5 -15.5 10.5 -25.5c0 -10.667 -3.5 -19.5 -10.5 -26.5s-15.833 -10.5 -26.5 -10.5c-10 0 -18.5 3.5 -25.5 10.5s-10.5 15.833 -10.5 26.5
c0 10 3.5 18.5 10.5 25.5s15.5 10.5 25.5 10.5zM184 133c10 0 18.5 -3.5 25.5 -10.5s10.5 -15.833 10.5 -26.5c0 -10 -3.5 -18.5 -10.5 -25.5s-15.5 -10.5 -25.5 -10.5c-10.667 0 -19.5 3.5 -26.5 10.5s-10.5 15.5 -10.5 25.5c0 10.667 3.5 19.5 10.5 26.5
s15.833 10.5 26.5 10.5zM505 219c10 0 18.667 -3.5 26 -10.5s11 -15.833 11 -26.5c0 -10 -3.66699 -18.5 -11 -25.5s-16 -10.5 -26 -10.5s-18.667 3.5 -26 10.5s-11 15.5 -11 25.5c0 10.667 3.66699 19.5 11 26.5s16 10.5 26 10.5zM419 540c10 0 18.667 -3.5 26 -10.5
s11 -15.5 11 -25.5c0 -10.667 -3.66699 -19.5 -11 -26.5s-16 -10.5 -26 -10.5s-18.667 3.5 -26 10.5s-11 15.833 -11 26.5c0 10 3.66699 18.5 11 25.5s16 10.5 26 10.5zM301 101c10 0 18.667 -3.5 26 -10.5s11 -15.5 11 -25.5c0 -10.667 -3.66699 -19.5 -11 -26.5
s-16 -10.5 -26 -10.5s-18.667 3.5 -26 10.5s-11 15.833 -11 26.5c0 10 3.66699 18.5 11 25.5s16 10.5 26 10.5zM536 337c10.667 0 19.5 -3.66699 26.5 -11s10.5 -16 10.5 -26s-3.5 -18.667 -10.5 -26s-15.833 -11 -26.5 -11c-10 0 -18.5 3.66699 -25.5 11s-10.5 16 -10.5 26
s3.5 18.667 10.5 26s15.5 11 25.5 11zM301 572c10 0 18.667 -3.5 26 -10.5s11 -15.833 11 -26.5c0 -10 -3.66699 -18.5 -11 -25.5s-16 -10.5 -26 -10.5s-18.667 3.5 -26 10.5s-11 15.5 -11 25.5c0 10.667 3.66699 19.5 11 26.5s16 10.5 26 10.5zM66 337
c10 0 18.667 -3.66699 26 -11s11 -16 11 -26s-3.66699 -18.667 -11 -26s-16 -11 -26 -11s-18.667 3.66699 -26 11s-11 16 -11 26s3.66699 18.667 11 26s16 11 26 11z" />
    <glyph glyph-name="uniE801" unicode="&#xe801;" horiz-adv-x="266" 
d="M0 720c10.667 0 19.667 -3.66699 27 -11s11 -16.333 11 -27c0 -10 -3.66699 -18.667 -11 -26s-16.333 -11 -27 -11s-19.667 3.66699 -27 11s-11 16 -11 26c0 10.667 3.66699 19.667 11 27s16.333 11 27 11zM221 523c7.33301 -40 -0.999023 -75.0029 -24.999 -105.003
c-7.33301 -11.333 -10.333 -20.666 -9 -27.999c15.333 -93.333 26.333 -171.666 33 -234.999c6 -44.667 -2 -89.667 -24 -135c-8.66699 -18 -19.667 -26.167 -33 -24.5s-19.666 11.5 -18.999 29.5c6 162 9.66699 284.333 11 367c1.33301 16 -5.66699 26.333 -21 31
c-26.667 6.66699 -46.334 14.334 -59.001 23.001c-18.667 13.333 -31 30 -37 50c-5.33301 17.333 -7.33301 38 -6 62c1.33301 24.667 6.66602 44.667 15.999 60c6.66699 10.667 12.667 18 18 22s10.5 4.83301 15.5 2.5s10.5 -8.5 16.5 -18.5c8 -12 26 -22 54 -30
c38.667 -9.33301 61.667 -33 69 -71z" />
    <glyph glyph-name="uniE802" unicode="&#xe802;" horiz-adv-x="496" 
d="M261 182c10.667 0 19.667 -3.66699 27 -11s11 -16.333 11 -27c0 -10 -3.66699 -18.667 -11 -26s-16.333 -11 -27 -11s-19.667 3.66699 -27 11s-11 16 -11 26c0 10.667 3.66699 19.667 11 27s16.333 11 27 11zM261 297c10.667 0 19.667 -3.66699 27 -11s11 -16 11 -26
c0 -10.667 -3.66699 -19.667 -11 -27s-16.333 -11 -27 -11s-19.667 3.66699 -27 11s-11 16.333 -11 27c0 10 3.66699 18.667 11 26s16.333 11 27 11zM173 600l216.998 -0.00390625c27.333 0 45.333 -6.66699 54 -20s13.334 -32.333 14.001 -57
c1.33301 -49.333 -15.334 -76.666 -50.001 -81.999c-8.66699 -1.33301 -12.667 -6.33301 -12 -15c2.66699 -16.667 8.83398 -108.167 18.501 -274.5s15.5 -258.5 17.5 -276.5c4.66699 -48.667 -3.33301 -93.667 -24 -135c-8.66699 -18 -19.667 -26.167 -33 -24.5
s-19.666 11.5 -18.999 29.5l8 681c0 9.33301 -5 14 -15 14h-241c-20 0 -36.667 8.5 -50 25.5s-21.333 33.167 -24 48.5c-3.33301 16.667 -3.16602 35.834 0.500977 57.501s9.5 40.5 17.5 56.5c4.66699 10.667 9.83398 16.167 15.501 16.5s10.5 -4.16699 14.5 -13.5
c4 -8 9.5 -14.5 16.5 -19.5s14.167 -8.16699 21.5 -9.5s15.666 -2.16602 24.999 -2.49902s18.666 -0.166016 27.999 0.500977z" />
    <glyph glyph-name="uniE803" unicode="&#xe803;" horiz-adv-x="496" 
d="M241 172c6.66699 -6.66699 10 -14.999 10 -24.999s-3.66699 -18.667 -11 -26s-16.333 -11 -27 -11s-19.667 3.66699 -27 11s-11 16 -11 26c0 9.33301 3.33301 18 10 26c6.66699 7.33301 10 18.666 10 33.999c0 10 -3 17.167 -9 21.5s-15.667 6.5 -29 6.5h-44
c-4 0 -7.5 1.5 -10.5 4.5s-4.5 6.5 -4.5 10.5v25c0 4 1.5 7.5 4.5 10.5s6.5 4.5 10.5 4.5h200c4 0 7.5 -1.5 10.5 -4.5s4.5 -6.5 4.5 -10.5v-25c0 -4 -1.5 -7.5 -4.5 -10.5s-6.5 -4.5 -10.5 -4.5h-44c-14 0 -23.833 -2.16699 -29.5 -6.5s-8.5 -11.5 -8.5 -21.5
c0 -15.333 3.33301 -27 10 -35zM173 600.001l216.997 0.000976562c27.333 0 45.333 -6.66699 54 -20s13.334 -32.333 14.001 -57c0.666992 -22.667 -2.5 -41.334 -9.5 -56.001s-20.5 -23.334 -40.5 -26.001c-8.66699 -1.33301 -12.667 -6.33301 -12 -15
c2 -16.667 7.83301 -108.167 17.5 -274.5s15.834 -258.5 18.501 -276.5c4 -48.667 -4 -93.667 -24 -135c-9.33301 -18.667 -20.5 -27 -33.5 -25s-19.167 12 -18.5 30l8 681c0 4 -0.833008 7.16699 -2.5 9.5s-3.33398 3.66602 -5.00098 3.99902s-4.16699 0.5 -7.5 0.5h-241
c-20 0 -36.667 8.5 -50 25.5s-21.333 33.167 -24 48.5c-3.33301 16.667 -3.16602 35.834 0.500977 57.501s9.5 40.5 17.5 56.5c4.66699 10.667 9.83398 16.167 15.501 16.5s10.5 -4.16699 14.5 -13.5c4 -8.66699 9.33301 -15.334 16 -20.001s13.834 -7.66699 21.501 -9
s16.167 -2.16602 25.5 -2.49902s18.666 -0.166016 27.999 0.500977z" />
    <glyph glyph-name="uniFB1D" unicode="&#xfb1d;" horiz-adv-x="266" 
d="M120 234c10.667 0 19.667 -3.66699 27 -11s11 -16 11 -26c0 -10.667 -3.66699 -19.667 -11 -27s-16.333 -11 -27 -11s-19.667 3.66699 -27 11s-11 16.333 -11 27c0 10 3.66699 18.667 11 26s16.333 11 27 11zM229 419c-6 -28 -21.668 -59.6719 -47.001 -95.0049
c-14 -19.333 -24.667 -26 -32 -20c-10 7.33301 -9.66699 20.666 1 39.999l13.5 26c2.33301 4.66699 3.83301 11.334 4.5 20.001s-1.66602 17 -6.99902 25c-4 6 -9 10.5 -15 13.5s-13.833 5.83301 -23.5 8.5s-17.5 5.33398 -23.5 8.00098c-29.333 13.333 -50 34.333 -62 63
c-8.66699 20.667 -11.334 44.334 -8.00098 71.001c2.66699 22.667 9 40 19 52c10.667 10.667 18.667 15.334 24 14.001s11.333 -7.66602 18 -18.999c11.333 -17.333 29.333 -28.666 54 -33.999c32.667 -6.66699 56.334 -23.667 71.001 -51c18.667 -33.333 23 -74 13 -122z
" />
    <glyph glyph-name="uniFB1E" unicode="&#xfb1e;" 
d="M-92 717c4.66699 8 11.3311 9.99902 19.998 5.99902c47.333 -21.333 95.333 -21.333 144 0c8.66699 4 15.334 2 20.001 -6l13 -21c4 -8 2 -15 -6 -21c-24 -16 -57.167 -23.667 -99.5 -23s-75.166 8.33398 -98.499 23.001c-8 6 -10 13 -6 21z" />
    <glyph glyph-name="afii57705" unicode="&#xfb1f;" horiz-adv-x="532" 
d="M143 200c0 4 1.5 7.5 4.5 10.5s6.5 4.5 10.5 4.5h200c4 0 7.5 -1.5 10.5 -4.5s4.5 -6.5 4.5 -10.5v-25c0 -4 -1.5 -7.5 -4.5 -10.5s-6.5 -4.5 -10.5 -4.5h-200c-4 0 -7.5 1.5 -10.5 4.5s-4.5 6.5 -4.5 10.5v25zM229 419c-6 -28 -21.668 -59.6719 -47.001 -95.0049
c-14 -19.333 -24.667 -26 -32 -20c-10 7.33301 -9.66699 20.666 1 39.999l13.5 26c2.33301 4.66699 3.83301 11.334 4.5 20.001s-1.66602 17 -6.99902 25c-4 6 -9 10.5 -15 13.5s-13.833 5.83301 -23.5 8.5s-17.5 5.33398 -23.5 8.00098c-29.333 13.333 -50 34.333 -62 63
c-8.66699 20.667 -11.334 44.334 -8.00098 71.001c2.66699 22.667 9 40 19 52c10.667 10.667 18.667 15.334 24 14.001s11.333 -7.66602 18 -18.999c11.333 -17.333 29.333 -28.666 54 -33.999c32.667 -6.66699 56.334 -23.667 71.001 -51c18.667 -33.333 23 -74 13 -122z
M494.999 418.995c-6 -28 -21.668 -59.6719 -47.001 -95.0049c-14 -19.333 -24.667 -26 -32 -20c-10 7.33301 -9.66699 20.666 1 39.999l13.5 26c2.33301 4.66699 3.83301 11.334 4.5 20.001s-1.66602 17 -6.99902 25c-4 6 -9 10.5 -15 13.5s-13.833 5.83301 -23.5 8.5
s-17.5 5.33398 -23.5 8.00098c-29.333 13.333 -50 34.333 -62 63c-8.66699 20.667 -11.334 44.334 -8.00098 71.001c2.66699 22.667 9 40 19 52c10.667 10.667 18.667 15.334 24 14.001s11.333 -7.66602 18 -18.999c11.333 -17.333 29.333 -28.666 54 -33.999
c32.667 -6.66699 56.334 -23.667 71.001 -51c18.667 -33.333 23 -74 13 -122z" />
    <glyph glyph-name="uniFB20" unicode="&#xfb20;" horiz-adv-x="552" 
d="M349 0l-290.001 0.00683594c-17.333 0 -22.666 7.33301 -15.999 22l48 117c4.66699 14 15 21 31 21h74c15.333 0 25 4.66699 29 14s1 20 -9 32c-6 8 -16.833 18.667 -32.5 32s-27.5 27.666 -35.5 42.999c-16.667 29.333 -20 70.333 -10 123c4 19.333 -1 30.333 -15 33
c-19.333 2 -36.666 8.33301 -51.999 19c-13.333 9.33301 -23.666 22.666 -30.999 39.999c-5.33301 13.333 -8.66602 30.666 -9.99902 51.999c-1.33301 25.333 2.66699 45.666 12 60.999c6.66699 13.333 12 22.333 16 27s9.5 6 16.5 4s15.833 -9 26.5 -21
c8.66699 -10 27.334 -16 56.001 -18c36 -0.666992 64.333 -13 85 -37c16.667 -20.667 23.667 -50.334 21 -89.001c-1.33301 -18.667 -4.33301 -31.167 -9 -37.5s-10 -8.5 -16 -6.5c-14 4.66699 -28.667 5.66699 -44 3c-15.333 -2 -23 -12.667 -23 -32
c-0.666992 -38.667 14.666 -72 45.999 -100c16 -14.667 28 -33.834 36 -57.501s9.66699 -45.834 5 -66.501c-3.33301 -12 0.666992 -18 12 -18h62c8.66699 0 15.667 2.5 21 7.5s8.83301 10 10.5 15s3.5 12.833 5.5 23.5c7.33301 36.667 16.666 71 27.999 103
c14 37.333 25 68.333 33 93c4 14 -1 22.333 -15 25c-26 6.66699 -47.333 18 -64 34c-12 11.333 -21.333 26 -28 44c-4 12 -6 29.667 -6 53c2 26.667 8 46.667 18 60c6.66699 11.333 12.667 18.833 18 22.5s10.5 4.33398 15.5 2.00098s10.833 -8.5 17.5 -18.5
c7.33301 -10.667 25.666 -20.667 54.999 -30c42.667 -10 68 -32.667 76 -68c8.66699 -43.333 -1.66602 -75 -30.999 -95c-12.667 -7.33301 -20.667 -17 -24 -29c-18 -57.333 -30 -112.666 -36 -165.999c-2 -16.667 -3.83301 -45.834 -5.5 -87.501
s-2.83398 -66.834 -3.50098 -75.501c-1.33301 -25.333 -7.33301 -43.833 -18 -55.5s-27.334 -17.5 -50.001 -17.5z" />
    <glyph glyph-name="uniFB29" unicode="&#xfb29;" horiz-adv-x="570" 
d="M241 297v209h88v-209h208v-88h-504v88h208z" />
    <glyph glyph-name="afii57694" unicode="&#xfb2a;" horiz-adv-x="716" 
d="M644 705c10.667 0 19.667 -3.66699 27 -11s11 -16 11 -26c0 -10.667 -3.66699 -19.667 -11 -27s-16.333 -11 -27 -11s-19.667 3.66699 -27 11s-11 16.333 -11 27c0 10 3.66699 18.667 11 26s16.333 11 27 11zM492 227c16 38 35.3311 76.3281 57.998 114.995l34 57
c5.33301 9.33301 4.66602 16.333 -2.00098 21c-8 3.33301 -21.5 13.666 -40.5 30.999s-30.833 35.666 -35.5 54.999c-10.667 43.333 0.333008 84 33 122c9.33301 11.333 18.333 17 27 17s15.334 -5.66699 20.001 -17c5.33301 -14.667 18 -28 38 -40
c37.333 -21.333 57 -49.666 59 -84.999c2 -33.333 -8 -63.666 -30 -90.999c-10.667 -12.667 -18.334 -18.667 -23.001 -18c-6.66699 2 -11.334 0.666992 -14.001 -4c-34.667 -47.333 -66.667 -127.666 -96 -240.999c-4 -12.667 -7.33301 -25.667 -10 -39
s-7.5 -26.666 -14.5 -39.999s-15 -25.166 -24 -35.499s-21.667 -18.666 -38 -24.999s-35.166 -9.5 -56.499 -9.5h-263c-10 0 -15 5 -15 15c0 36 -1.33301 67 -4 93c-2.66699 26.667 -5.33398 49.167 -8.00098 67.5s-4.66699 33.166 -6 44.499s-2 27.333 -2 48
c0.666992 24 10 65.333 28 124c6.66699 19.333 4.33398 30.666 -6.99902 33.999c-17.333 6.66699 -31.666 16.334 -42.999 29.001c-10.667 12 -17.667 26.667 -21 44c-3.33301 15.333 -3.66602 33 -0.999023 53c3.33301 26.667 10 47.667 20 63
c10.667 18 19.834 27.833 27.501 29.5s16.167 -4.83301 25.5 -19.5c10 -17.333 26 -28.666 48 -33.999c32 -8.66699 55 -28.667 69 -60c11.333 -24 13 -54.333 5 -91c-4 -18.667 -8.5 -30.667 -13.5 -36s-10.167 -6.33301 -15.5 -3c-12 7.33301 -25 11 -39 11
c-11.333 0 -19.666 -9.33301 -24.999 -28c-8 -26.667 -12.5 -43.667 -13.5 -51s-0.166992 -21 2.5 -41c2.66699 -13.333 8.66699 -31.833 18 -55.5s15.666 -44.167 18.999 -61.5c1.33301 -10 7 -15 17 -15h6c9.33301 0 16 4.66699 20 14l112 258c3.33301 10 2 17.333 -4 22
c-22.667 17.333 -34.667 43 -36 77c-0.666992 36 11.666 68.333 36.999 97c9.33301 11.333 18.333 17 27 17s15.334 -5.66699 20.001 -17c1.33301 -4.66699 5.5 -11.167 12.5 -19.5s15.167 -15.166 24.5 -20.499c37.333 -20.667 57 -49 59 -85
c2.66699 -32 -7.33301 -62.333 -30 -91c-17.333 -24 -30.666 -30.667 -39.999 -20c-8.66699 10 -15.334 16.667 -20.001 20c-10.667 7.33301 -18 6 -22 -4l-99 -234c-2 -5.33301 -2.33301 -9 -1 -11s5 -3 11 -3h120c58 0 96.333 22.333 115 67z" />
    <glyph glyph-name="afii57695" unicode="&#xfb2b;" horiz-adv-x="716" 
d="M172 705c10 0 18.833 -3.66699 26.5 -11s11.5 -16 11.5 -26c0 -10.667 -3.83301 -19.667 -11.5 -27s-16.5 -11 -26.5 -11c-10.667 0 -19.667 3.66699 -27 11s-11 16.333 -11 27c0 10 3.83301 18.667 11.5 26s16.5 11 26.5 11zM492 227
c10.667 27.333 23.667 55.3242 39 83.9912s28 50.334 38 65.001l15 23c4.66699 9.33301 4 16.333 -2 21l-14 9.5c-7.33301 5 -13.5 9.66699 -18.5 14s-10.833 9.66602 -17.5 15.999s-12.167 13.5 -16.5 21.5s-7.5 16.333 -9.5 25c-11.333 43.333 -0.666016 84 32.001 122
c10 11.333 19.333 17 28 17s15.334 -5.66699 20.001 -17c1.33301 -4.66699 5.66602 -11.167 12.999 -19.5s15.666 -15.166 24.999 -20.499c37.333 -21.333 56.666 -49.666 57.999 -84.999c2 -33.333 -8 -63.666 -30 -90.999c-10 -12.667 -17.333 -18.667 -22 -18
c-0.666992 0 -1.66699 0.333008 -3 1c-4.66699 2 -8.33398 0.333008 -11.001 -5c-34.667 -47.333 -66.667 -127.666 -96 -240.999c-4 -12.667 -7.5 -25.667 -10.5 -39s-8 -26.666 -15 -39.999s-14.833 -25.166 -23.5 -35.499s-21.167 -18.666 -37.5 -24.999
s-35.5 -9.5 -57.5 -9.5h-262c-10.667 0 -16 5 -16 15c0 36 -1.33301 67 -4 93c-2 26.667 -4.33301 49.167 -7 67.5s-4.66699 33.166 -6 44.499s-2.33301 27.333 -3 48c0.666992 24 10 65.333 28 124c6.66699 19.333 4.66699 30.666 -6 33.999
c-17.333 6.66699 -32 16.334 -44 29.001c-10.667 12 -17.334 26.667 -20.001 44c-3.33301 15.333 -4 33 -2 53c4 26.667 10.667 47.667 20 63c11.333 18 20.833 27.833 28.5 29.5s16.167 -4.83301 25.5 -19.5c9.33301 -17.333 25.333 -28.666 48 -33.999
c32 -8.66699 54.667 -28.667 68 -60c12 -24 14 -54.333 6 -91c-4.66699 -18.667 -9.33398 -30.667 -14.001 -36s-10 -6.33301 -16 -3c-12 7.33301 -24.667 11 -38 11c-11.333 0 -20 -9.33301 -26 -28c-8 -26.667 -12.5 -43.667 -13.5 -51s0.166992 -21 3.5 -41
c2 -13.333 7.83301 -31.833 17.5 -55.5s15.834 -44.167 18.501 -61.5c1.33301 -10 7.33301 -15 18 -15h6c8.66699 0 15.334 4.66699 20.001 14l112 258c3.33301 10 2 17.333 -4 22c-23.333 17.333 -35.333 43 -36 77c-1.33301 36 10.667 68.333 36 97
c10 11.333 19.333 17 28 17s15.334 -5.66699 20.001 -17c0.666992 -4.66699 4.66699 -11.167 12 -19.5s15.333 -15.166 24 -20.499c38 -20.667 58 -49 60 -85c1.33301 -18.667 -0.5 -34.667 -5.5 -48s-13.167 -27.666 -24.5 -42.999c-18 -24 -31.333 -30.667 -40 -20
c-8.66699 10 -15.334 16.667 -20.001 20c-11.333 7.33301 -18.666 6 -21.999 -4l-100 -234c-2 -5.33301 -2.16699 -9 -0.5 -11s5.16699 -3 10.5 -3h120c26.667 0 50.334 5.66699 71.001 17s35.667 28 45 50z" />
    <glyph glyph-name="uniFB2C" unicode="&#xfb2c;" horiz-adv-x="716" 
d="M644 705c10.667 0 19.667 -3.66699 27 -11s11 -16 11 -26c0 -10.667 -3.66699 -19.667 -11 -27s-16.333 -11 -27 -11s-19.667 3.66699 -27 11s-11 16.333 -11 27c0 10 3.66699 18.667 11 26s16.333 11 27 11zM492 227c16 38 35.3311 76.3281 57.998 114.995l34 57
c5.33301 9.33301 4.66602 16.333 -2.00098 21c-8 3.33301 -21.5 13.666 -40.5 30.999s-30.833 35.666 -35.5 54.999c-10.667 43.333 0.333008 84 33 122c9.33301 11.333 18.333 17 27 17s15.334 -5.66699 20.001 -17c5.33301 -14.667 18 -28 38 -40
c37.333 -21.333 57 -49.666 59 -84.999c2 -33.333 -8 -63.666 -30 -90.999c-10.667 -12.667 -18.334 -18.667 -23.001 -18c-6.66699 2 -11.334 0.666992 -14.001 -4c-34.667 -47.333 -66.667 -127.666 -96 -240.999c-4 -12.667 -7.33301 -25.667 -10 -39
s-7.5 -26.666 -14.5 -39.999s-15 -25.166 -24 -35.499s-21.667 -18.666 -38 -24.999s-35.166 -9.5 -56.499 -9.5h-263c-10 0 -15 5 -15 15c0 36 -1.33301 67 -4 93c-2.66699 26.667 -5.33398 49.167 -8.00098 67.5s-4.66699 33.166 -6 44.499s-2 27.333 -2 48
c0.666992 24 10 65.333 28 124c6.66699 19.333 4.33398 30.666 -6.99902 33.999c-17.333 6.66699 -31.666 16.334 -42.999 29.001c-10.667 12 -17.667 26.667 -21 44c-3.33301 15.333 -3.66602 33 -0.999023 53c3.33301 26.667 10 47.667 20 63
c10.667 18 19.834 27.833 27.501 29.5s16.167 -4.83301 25.5 -19.5c10 -17.333 26 -28.666 48 -33.999c32 -8.66699 55 -28.667 69 -60c11.333 -24 13 -54.333 5 -91c-4 -18.667 -8.5 -30.667 -13.5 -36s-10.167 -6.33301 -15.5 -3c-12 7.33301 -25 11 -39 11
c-11.333 0 -19.666 -9.33301 -24.999 -28c-8 -26.667 -12.5 -43.667 -13.5 -51s-0.166992 -21 2.5 -41c2.66699 -13.333 8.66699 -31.833 18 -55.5s15.666 -44.167 18.999 -61.5c1.33301 -10 7 -15 17 -15h6c9.33301 0 16 4.66699 20 14l112 258c3.33301 10 2 17.333 -4 22
c-22.667 17.333 -34.667 43 -36 77c-0.666992 36 11.666 68.333 36.999 97c9.33301 11.333 18.333 17 27 17s15.334 -5.66699 20.001 -17c1.33301 -4.66699 5.5 -11.167 12.5 -19.5s15.167 -15.166 24.5 -20.499c37.333 -20.667 57 -49 59 -85
c2.66699 -32 -7.33301 -62.333 -30 -91c-17.333 -24 -30.666 -30.667 -39.999 -20c-8.66699 10 -15.334 16.667 -20.001 20c-10.667 7.33301 -18 6 -22 -4l-99 -234c-2 -5.33301 -2.33301 -9 -1 -11s5 -3 11 -3h120c58 0 96.333 22.333 115 67zM401.998 321.995
c10.667 0 19.667 -3.5 27 -10.5s11 -15.833 11 -26.5s-3.66699 -19.5 -11 -26.5s-16.333 -10.5 -27 -10.5s-19.667 3.5 -27 10.5s-11 15.833 -11 26.5s3.66699 19.5 11 26.5s16.333 10.5 27 10.5z" />
    <glyph glyph-name="uniFB2D" unicode="&#xfb2d;" horiz-adv-x="716" 
d="M172 705c10.667 0 19.667 -3.66699 27 -11s11 -16 11 -26c0 -10.667 -3.66699 -19.667 -11 -27s-16.333 -11 -27 -11c-10 0 -18.667 3.66699 -26 11s-11 16.333 -11 27c0 10 3.66699 18.667 11 26s16 11 26 11zM492 227c16 38 35.3311 76.3281 57.998 114.995l34 57
c5.33301 9.33301 4.66602 16.333 -2.00098 21c-8 3.33301 -21.5 13.666 -40.5 30.999s-30.833 35.666 -35.5 54.999c-10.667 43.333 0.333008 84 33 122c9.33301 11.333 18.333 17 27 17s15.334 -5.66699 20.001 -17c5.33301 -14.667 18 -28 38 -40
c37.333 -21.333 57 -49.666 59 -84.999c2 -33.333 -8 -63.666 -30 -90.999c-10.667 -12.667 -18.334 -18.667 -23.001 -18c-6.66699 2 -11.334 0.666992 -14.001 -4c-34.667 -47.333 -66.667 -127.666 -96 -240.999c-4 -12.667 -7.33301 -25.667 -10 -39
s-7.5 -26.666 -14.5 -39.999s-15 -25.166 -24 -35.499s-21.667 -18.666 -38 -24.999s-35.166 -9.5 -56.499 -9.5h-263c-10 0 -15 5 -15 15c0 36 -1.33301 67 -4 93c-2.66699 26.667 -5.33398 49.167 -8.00098 67.5s-4.66699 33.166 -6 44.499s-2 27.333 -2 48
c0.666992 24 10 65.333 28 124c6.66699 19.333 4.33398 30.666 -6.99902 33.999c-17.333 6.66699 -31.666 16.334 -42.999 29.001c-10.667 12 -17.667 26.667 -21 44c-3.33301 15.333 -3.66602 33 -0.999023 53c3.33301 26.667 10 47.667 20 63
c10.667 18 19.834 27.833 27.501 29.5s16.167 -4.83301 25.5 -19.5c10 -17.333 26 -28.666 48 -33.999c32 -8.66699 55 -28.667 69 -60c11.333 -24 13 -54.333 5 -91c-4 -18.667 -8.5 -30.667 -13.5 -36s-10.167 -6.33301 -15.5 -3c-12 7.33301 -25 11 -39 11
c-11.333 0 -19.666 -9.33301 -24.999 -28c-8 -26.667 -12.5 -43.667 -13.5 -51s-0.166992 -21 2.5 -41c2.66699 -13.333 8.66699 -31.833 18 -55.5s15.666 -44.167 18.999 -61.5c1.33301 -10 7 -15 17 -15h6c9.33301 0 16 4.66699 20 14l112 258c3.33301 10 2 17.333 -4 22
c-22.667 17.333 -34.667 43 -36 77c-0.666992 36 11.666 68.333 36.999 97c9.33301 11.333 18.333 17 27 17s15.334 -5.66699 20.001 -17c1.33301 -4.66699 5.5 -11.167 12.5 -19.5s15.167 -15.166 24.5 -20.499c37.333 -20.667 57 -49 59 -85
c2.66699 -32 -7.33301 -62.333 -30 -91c-17.333 -24 -30.666 -30.667 -39.999 -20c-8.66699 10 -15.334 16.667 -20.001 20c-10.667 7.33301 -18 6 -22 -4l-99 -234c-2 -5.33301 -2.33301 -9 -1 -11s5 -3 11 -3h120c58 0 96.333 22.333 115 67zM401.998 321.995
c10.667 0 19.667 -3.5 27 -10.5s11 -15.833 11 -26.5s-3.66699 -19.5 -11 -26.5s-16.333 -10.5 -27 -10.5s-19.667 3.5 -27 10.5s-11 15.833 -11 26.5s3.66699 19.5 11 26.5s16.333 10.5 27 10.5z" />
    <glyph glyph-name="uniFB2E" unicode="&#xfb2e;" horiz-adv-x="593" 
d="M173 -70c0 4 1.5 7.5 4.5 10.5s6.5 4.5 10.5 4.5h200c4 0 7.5 -1.5 10.5 -4.5s4.5 -6.5 4.5 -10.5v-25c0 -4 -1.5 -7.5 -4.5 -10.5s-6.5 -4.5 -10.5 -4.5h-200c-4 0 -7.5 1.5 -10.5 4.5s-4.5 6.5 -4.5 10.5v25zM145 628
c-1.33301 -17.333 0.00390625 -31.999 4.00391 -43.999c10.667 -30.667 24.167 -56.5 40.5 -77.5s38.833 -43.167 67.5 -66.5l100 -85c7.33301 -4.66699 13 -3.33398 17 3.99902c16 30 26 49 30 57c5.33301 10.667 3.33301 19.667 -6 27c-16 14 -27.5 26 -34.5 36
s-12.167 24 -15.5 42c-4 25.333 -0.666992 49 10 71c9.33301 18.667 22 33.334 38 44.001c10 6 17.5 8.83301 22.5 8.5s8.83301 -3.83301 11.5 -10.5s6.33398 -15 11.001 -25c4 -8.66699 12.667 -17.334 26 -26.001l29 -18c10 -6 20.333 -14.667 31 -26
s17.667 -23.666 21 -36.999c3.33301 -12.667 5.33301 -24.334 6 -35.001s-0.666016 -21.834 -3.99902 -33.501s-6.16602 -20.334 -8.49902 -26.001s-6.5 -14.834 -12.5 -27.501c-4 -8.66699 -9 -15 -15 -19s-11 -3.66699 -15 1c-10 16 -23.667 29 -41 39
c-12 6.66699 -20.667 4.33398 -26 -6.99902l-30 -56c-3.33301 -8 -2 -14.333 4 -19c48 -39.333 82.333 -72.166 103 -98.499s32.334 -58.5 35.001 -96.5c1.33301 -21.333 -2 -42.666 -10 -63.999s-19.667 -38 -35 -50c-6.66699 -5.33301 -12.5 -8.5 -17.5 -9.5
s-8.66699 0 -11 3s-4.5 6.83301 -6.5 11.5s-3.16699 10.167 -3.5 16.5s-0.833008 12.5 -1.5 18.5c-1.33301 16 -13 36.333 -35 61s-47.333 48.667 -76 72l-89 74l-49 42.5c-24 21 -39.667 34.5 -47 40.5c-6.66699 4 -12.334 3.33301 -17.001 -2
c-18.667 -20.667 -27.334 -39.334 -26.001 -56.001c2 -19.333 18.5 -43.5 49.5 -72.5s50.833 -49.5 59.5 -61.5c10 -14.667 15 -35 15 -61s-8.66699 -47 -26 -63c-18 -16 -40 -24 -66 -24h-89h-1c-4.66699 0 -7.83398 0.666992 -9.50098 2s-0.5 5.66602 3.5 12.999l6.5 10
c3 4.66699 4.83301 7.66699 5.5 9c6.66699 11.333 6 23 -2 35c-19.333 30 -27.333 65.667 -24 107c3.33301 40.667 10.166 72.334 20.499 95.001s30.833 51.667 61.5 87c3.33301 6.66699 2.66602 13 -2.00098 19c-11.333 13.333 -21.5 24.833 -30.5 34.5
s-16.667 19.834 -23 30.501s-10.5 21.334 -12.5 32.001c-8 42.667 -3.33301 81 14 115c9.33301 20 23.666 36 42.999 48c9.33301 6 17.166 8.16699 23.499 6.5s9.16602 -6.83398 8.49902 -15.501z" />
    <glyph glyph-name="uniFB2F" unicode="&#xfb2f;" horiz-adv-x="593" 
d="M318 -173c6.66699 -6.66699 10 -14.999 10 -24.999s-3.66699 -18.667 -11 -26s-16.333 -11 -27 -11s-19.667 3.66699 -27 11s-11 16 -11 26c0 9.33301 3.33301 18 10 26c6.66699 7.33301 10 18.666 10 33.999c0 10 -3 17.167 -9 21.5s-15.667 6.5 -29 6.5h-44
c-4 0 -7.5 1.5 -10.5 4.5s-4.5 6.5 -4.5 10.5v25c0 4 1.5 7.5 4.5 10.5s6.5 4.5 10.5 4.5h200c4 0 7.5 -1.5 10.5 -4.5s4.5 -6.5 4.5 -10.5v-25c0 -4 -1.5 -7.5 -4.5 -10.5s-6.5 -4.5 -10.5 -4.5h-44c-14 0 -23.833 -2.16699 -29.5 -6.5s-8.5 -11.5 -8.5 -21.5
c0 -15.333 3.33301 -27 10 -35zM145 628.001c-1.33301 -17.333 0.00292969 -31.998 4.00293 -43.998c10.667 -30.667 24.167 -56.5 40.5 -77.5s38.833 -43.167 67.5 -66.5l100 -85c7.33301 -4.66699 13 -3.33398 17 3.99902c16 30 26 49 30 57
c5.33301 10.667 3.33301 19.667 -6 27c-16 13.333 -27.5 25.166 -34.5 35.499s-12.167 24.5 -15.5 42.5c-2 10.667 -1.66699 23.334 1 38.001s5.66699 25.667 9 33c8.66699 18.667 21.334 33.334 38.001 44.001c10 6 17.5 8.66699 22.5 8s8.83301 -4.16699 11.5 -10.5
s6.33398 -14.5 11.001 -24.5c4 -9.33301 12.667 -18 26 -26c8.66699 -6.66699 18.167 -12.834 28.5 -18.501s20.666 -14.334 30.999 -26.001s17.5 -23.834 21.5 -36.501c3.33301 -12.667 5.33301 -24.5 6 -35.5s-0.666016 -22.167 -3.99902 -33.5
s-6.16602 -19.833 -8.49902 -25.5s-6.5 -14.834 -12.5 -27.501c-4 -8.66699 -9.16699 -15.167 -15.5 -19.5s-11.166 -3.83301 -14.499 1.5c-10 15.333 -23.667 28.333 -41 39c-4.66699 2.66699 -9.5 3.33398 -14.5 2.00098s-8.83301 -4.33301 -11.5 -9l-30 -56
c-3.33301 -8 -2 -14.333 4 -19c24 -20 42.667 -36.167 56 -48.5s26.833 -26.5 40.5 -42.5s23.667 -32.333 30 -49s10.166 -35 11.499 -55c1.33301 -21.333 -2 -42.666 -10 -63.999s-19.667 -38 -35 -50c-6.66699 -6 -12.5 -9.5 -17.5 -10.5s-8.83301 0 -11.5 3
s-4.83398 7 -6.50098 12s-2.66699 10.667 -3 17s-0.833008 12.5 -1.5 18.5c-1.33301 16 -13 36.167 -35 60.5s-47.5 48.333 -76.5 72l-88.5 74.5l-49 42.5c-24 21 -39.667 34.5 -47 40.5c-6.66699 4 -12.334 3.33301 -17.001 -2
c-18.667 -20.667 -27.334 -39.334 -26.001 -56.001c2 -14.667 8.83301 -28.834 20.5 -42.501s26.834 -28.834 45.501 -45.501s33 -32 43 -46c10 -14.667 15 -35.167 15 -61.5s-8.66699 -47.166 -26 -62.499c-18 -16 -40 -24 -66 -24h-89c-8.66699 0 -13 1.66699 -13 5
c0.666992 2.66699 2.66699 6 6 10l6.5 10c3 4.66699 4.83301 7.66699 5.5 9c6.66699 11.333 6 23 -2 35c-19.333 30 -27.333 65.667 -24 107c3.33301 40 10.166 71.5 20.499 94.5s30.833 52.167 61.5 87.5c3.33301 6.66699 2.66602 13 -2.00098 19
c-11.333 13.333 -21.5 24.833 -30.5 34.5s-16.667 19.834 -23 30.501s-10.5 21.334 -12.5 32.001c-8 42 -3.33301 80.333 14 115c3.33301 7.33301 9.33301 15.833 18 25.5s17 17.167 25 22.5c9.33301 5.33301 17.166 7.33301 23.499 6s9.16602 -6.33301 8.49902 -15z" />
    <glyph glyph-name="uniFB30" unicode="&#xfb30;" horiz-adv-x="593" 
d="M306 174c10.667 0 19.667 -3.66797 27 -11.001s11 -16.166 11 -26.499s-3.66699 -19.333 -11 -27s-16.333 -11.5 -27 -11.5s-19.667 3.83301 -27 11.5s-11 16.5 -11 26.5c0 10.667 3.66699 19.667 11 27s16.333 11 27 11zM145 627.999
c-1.33301 -16.667 0.00390625 -31.334 4.00391 -44.001c10.667 -30 24.167 -55.5 40.5 -76.5s38.833 -43.5 67.5 -67.5l100 -84c7.33301 -4.66699 13 -3.33398 17 3.99902l30 56c5.33301 11.333 3.33301 20.666 -6 27.999c-16 13.333 -27.5 25.166 -34.5 35.499
s-12.167 24.5 -15.5 42.5c-2 10.667 -1.66699 23.334 1 38.001s5.66699 25.334 9 32.001c9.33301 19.333 22 34 38 44c10 6.66699 17.5 9.66699 22.5 9s8.83301 -4.16699 11.5 -10.5s6.33398 -14.5 11.001 -24.5c4 -9.33301 12.667 -18 26 -26
c9.33301 -6.66699 19 -13 29 -19s20.333 -14.667 31 -26s17.667 -23.666 21 -36.999c3.33301 -12 5.33301 -23.5 6 -34.5s-0.666016 -22.167 -3.99902 -33.5s-6.16602 -19.833 -8.49902 -25.5s-6.5 -15.167 -12.5 -28.5c-4 -8 -9 -14.167 -15 -18.5
s-11 -4.16602 -15 0.500977c-10 16 -23.667 29.333 -41 40c-4.66699 2 -9.5 2.5 -14.5 1.5s-8.83301 -4.16699 -11.5 -9.5l-30 -56c-3.33301 -8 -2 -14 4 -18c24 -20 42.667 -36.167 56 -48.5s26.833 -26.5 40.5 -42.5s23.667 -32.333 30 -49s10.166 -35.334 11.499 -56.001
c1.33301 -21.333 -2 -42.5 -10 -63.5s-19.667 -37.833 -35 -50.5c-6.66699 -5.33301 -12.5 -8.5 -17.5 -9.5s-8.66699 0 -11 3s-4.5 7 -6.5 12s-3.16699 10.667 -3.5 17s-0.833008 12.166 -1.5 17.499c-1.33301 16 -13 36.333 -35 61s-47.333 48.834 -76 72.501l-89 74.5
l-49 42.5c-24 21 -39.667 34.167 -47 39.5c-6.66699 4 -12.334 3.33301 -17.001 -2c-18.667 -20.667 -27.334 -39.334 -26.001 -56.001c2 -14 9 -28 21 -42s27.167 -29.333 45.5 -46s32.5 -32 42.5 -46s15 -34.167 15 -60.5s-8.66699 -47.5 -26 -63.5
c-18 -16 -40 -24 -66 -24h-89c-8.66699 0 -12.667 2 -12 6c0 2.66699 1.66699 6 5 10c1.33301 1.33301 3.5 4.33301 6.5 9s4.83301 7.66699 5.5 9c6.66699 11.333 6 23.333 -2 36c-19.333 30 -27.333 65.333 -24 106s10.166 72.5 20.499 95.5s30.833 51.833 61.5 86.5
c3.33301 7.33301 2.66602 14 -2.00098 20l-30.5 34c-9 10 -16.667 20.333 -23 31s-10.5 21 -12.5 31c-8 42.667 -3.33301 81.334 14 116.001c3.33301 7.33301 9.33301 15.833 18 25.5s17 17.167 25 22.5c9.33301 5.33301 17.166 7.33301 23.499 6
s9.16602 -6.66602 8.49902 -15.999z" />
    <glyph glyph-name="uniFB31" unicode="&#xfb31;" horiz-adv-x="498" 
d="M240 338c10.667 0 19.667 -3.66797 27 -11.001s11 -16.166 11 -26.499s-3.66699 -19.333 -11 -27s-16.333 -11.5 -27 -11.5s-19.667 3.83301 -27 11.5s-11 16.5 -11 26.5c0 10.667 3.66699 19.667 11 27s16.333 11 27 11zM477 159.999
c8 0 13.501 -1.99414 16.501 -5.99414s2.83301 -9.33301 -0.5 -16l-48 -116c-4.66699 -14.667 -15 -22 -31 -22h-374c-8 0 -13.5 2.16699 -16.5 6.5s-3.16699 9.5 -0.5 15.5l48 118c6 13.333 16.333 20 31 20h301c3.33301 0 6 0.333008 8 1s3.83301 2.16699 5.5 4.5
s2.5 5.83301 2.5 10.5c1.33301 41.333 -2 84.666 -10 129.999s-21.333 75.333 -40 90c-18 15.333 -39.167 26.5 -63.5 33.5s-46.333 10.5 -66 10.5s-41 0.166992 -64 0.5s-40.833 2.16602 -53.5 5.49902c-13.333 4 -24.5 8.83301 -33.5 14.5s-15.833 12.5 -20.5 20.5
s-7.83398 14.167 -9.50098 18.5s-3.5 10.5 -5.5 18.5c-8 37.333 -3.33301 74 14 110c10.667 22 21 23.333 31 4c5.33301 -11.333 12.833 -19.333 22.5 -24s20 -6.83398 31 -6.50098s23.167 -0.166992 36.5 -1.5c12 0.666992 27.167 0.166992 45.5 -1.5
s36.333 -3.83398 54 -6.50098s35.834 -8.5 54.501 -17.5s34 -21.167 46 -36.5c26.667 -32 43.667 -78.333 51 -139s9.66602 -135.667 6.99902 -225c0 -0.666992 0.166992 -1.83398 0.5 -3.50098s1.83301 -3.83398 4.5 -6.50098s6 -4 10 -4h16z" />
    <glyph glyph-name="uniFB32" unicode="&#xfb32;" horiz-adv-x="339" 
d="M150 338c10.667 0 19.667 -3.66797 27 -11.001s11 -16.166 11 -26.499s-3.66699 -19.333 -11 -27s-16.333 -11.5 -27 -11.5s-19.667 3.83301 -27 11.5s-11 16.5 -11 26.5c0 10.667 3.66699 19.667 11 27s16.333 11 27 11zM187 21.999
c-6 -14.667 -16.3369 -22.0039 -31.0039 -22.0039h-128c-8 0 -13.5 2.16699 -16.5 6.5s-3.16699 9.5 -0.5 15.5l48 118c6 13.333 16.333 20 31 20h106c21.333 0 32 11.333 32 34c0 78 2.66699 146.667 8 206v6.5c0 2.33301 -1.83301 5.83301 -5.5 10.5
s-8.83398 7.66699 -15.501 9c-18 2.66699 -31.167 4.83398 -39.5 6.50098s-18.666 5 -30.999 10s-22.833 11.5 -31.5 19.5c-13.333 12.667 -22.333 27.334 -27 44.001c-4 12 -6 29.333 -6 52c2 26 7.66699 46 17 60c10.667 16.667 19.334 25.5 26.001 26.5
s15 -5.83301 25 -20.5c3.33301 -6 8.66602 -11.167 15.999 -15.5s14 -7.33301 20 -9s11.667 -3.5 17 -5.5c20 -4.66699 36.333 -13 49 -25s20.667 -26.333 24 -43c2 -10.667 0.333008 -29.167 -5 -55.5s-7.66602 -47.166 -6.99902 -62.499
c1.33301 -33.333 10.166 -80.333 26.499 -141s24.833 -95 25.5 -103c3.33301 -26 3.83301 -48.833 1.5 -68.5s-8.5 -42.834 -18.5 -69.501c-4.66699 -11.333 -9.16699 -19 -13.5 -23s-8.16602 -4.66699 -11.499 -2s-6.16602 6.5 -8.49902 11.5
s-4.16602 10.167 -5.49902 15.5c-8 48.667 -14 79.334 -18 92.001c-3.33301 12.667 -8.66602 11.334 -15.999 -3.99902z" />
    <glyph glyph-name="uniFB33" unicode="&#xfb33;" horiz-adv-x="523" 
d="M288 338c10.667 0 19.667 -3.66797 27 -11.001s11 -16.166 11 -26.499s-3.66699 -19.333 -11 -27s-16.333 -11.5 -27 -11.5s-19.667 3.83301 -27 11.5s-11 16.5 -11 26.5c0 10.667 3.66699 19.667 11 27s16.333 11 27 11zM173 599.999l243.997 -0.00195312
c27.333 0 45.333 -6.66699 54 -20s13.334 -32 14.001 -56c2.66699 -49.333 -13.666 -76.666 -48.999 -81.999c-8.66699 -2 -13 -7.33301 -13 -16c24 -166 36.667 -256 38 -270c6 -45.333 -2 -90.666 -24 -135.999c-8.66699 -18 -19.667 -26 -33 -24s-19.666 12 -18.999 30
l7 400c0 4.66699 -1 8.16699 -3 10.5s-3.83301 3.5 -5.5 3.5h-7.5h-268c-20 0 -36.667 8.5 -50 25.5s-21.333 33.167 -24 48.5c-3.33301 16.667 -3.16602 36 0.500977 58s9.5 40.667 17.5 56c4.66699 11.333 9.83398 17 15.501 17s10.5 -4.33301 14.5 -13
s9.5 -15.334 16.5 -20.001s14.167 -7.66699 21.5 -9s15.666 -2.16602 24.999 -2.49902s18.666 -0.5 27.999 -0.5z" />
    <glyph glyph-name="uniFB34" unicode="&#xfb34;" horiz-adv-x="561" 
d="M274 338c10.667 0 19.667 -3.66797 27 -11.001s11 -16.166 11 -26.499s-3.66699 -19.333 -11 -27s-16.333 -11.5 -27 -11.5s-19.667 3.83301 -27 11.5s-11 16.5 -11 26.5c0 10.667 3.66699 19.667 11 27s16.333 11 27 11zM182 599.999l270.001 0.000976562
c27.333 0 45.5 -6.66699 54.5 -20s13.5 -32 13.5 -56c0.666992 -22.667 -2.33301 -41.334 -9 -56.001s-20.334 -23.334 -41.001 -26.001c-8 -2 -12 -7.33301 -12 -16c2 -12.667 10.333 -55.834 25 -129.501s23 -120.5 25 -140.5
c6.66699 -45.333 -1.33301 -90.666 -24 -135.999c-8 -18 -18.667 -26 -32 -24s-20 12 -20 30l-6 400c0 4.66699 -0.666992 8.16699 -2 10.5s-2.83301 3.5 -4.5 3.5h-7.5h-294c-20.667 0 -37.667 8.5 -51 25.5s-21.666 33.167 -24.999 48.5
c-3.33301 16.667 -3 35.834 1 57.501s9.66699 40.5 17 56.5c11.333 22 22 23.333 32 4c4 -8.66699 9.16699 -15.334 15.5 -20.001s13.333 -7.66699 21 -9s16.167 -2.16602 25.5 -2.49902s18.666 -0.5 27.999 -0.5zM48.001 28c2 26.667 3.50098 62.998 4.50098 108.998
s2.83301 80.333 5.5 103c5.33301 32.667 18.666 61.334 39.999 86.001c13.333 12.667 23.5 16 30.5 10s8.83301 -14.667 5.5 -26c-2.66699 -13.333 -2.66699 -40 0 -80c0.666992 -40.667 -1.33301 -76.167 -6 -106.5s-15.334 -62.833 -32.001 -97.5
c-11.333 -21.333 -22.666 -31.666 -33.999 -30.999s-16 11.667 -14 33z" />
    <glyph glyph-name="afii57723" unicode="&#xfb35;" horiz-adv-x="266" 
d="M78 338c10.667 0 19.667 -3.66797 27 -11.001s11 -16.166 11 -26.499s-3.66699 -19.333 -11 -27s-16.333 -11.5 -27 -11.5s-19.667 3.83301 -27 11.5s-11 16.5 -11 26.5c0 10.667 3.66699 19.667 11 27s16.333 11 27 11zM221 523.999
c7.33301 -40 -0.999023 -75.333 -24.999 -106c-7.33301 -10.667 -10.333 -20 -9 -28c15.333 -92.667 26.333 -170.667 33 -234c6 -45.333 -2 -90.666 -24 -135.999c-8.66699 -18 -19.667 -26 -33 -24s-19.666 12 -18.999 30c6 162 9.66699 284 11 366
c0.666992 7.33301 -1 13.833 -5 19.5s-9.33301 9.83398 -16 12.501c-26.667 6.66699 -46.334 14 -59.001 22c-18.667 13.333 -31 30 -37 50c-5.33301 18 -7.33301 38.667 -6 62c1.33301 25.333 6.66602 45.333 15.999 60c10 16.667 18.5 25.5 25.5 26.5
s15.167 -5.83301 24.5 -20.5c8 -11.333 26 -21.333 54 -30c19.333 -4.66699 34.833 -13.334 46.5 -26.001s19.167 -27.334 22.5 -44.001z" />
    <glyph glyph-name="uniFB36" unicode="&#xfb36;" horiz-adv-x="291" 
d="M52 338c10.667 0 19.667 -3.66797 27 -11.001s11 -16.166 11 -26.499s-3.66699 -19.333 -11 -27s-16.333 -11.5 -27 -11.5s-19.667 3.83301 -27 11.5s-11 16.5 -11 26.5c0 10.667 3.66699 19.667 11 27s16.333 11 27 11zM99 291.999
c2 15.333 4.50195 29.001 7.50195 41.001s6.5 25 10.5 39s7 25.333 9 34c5.33301 18.667 1 30 -13 34c-20 4.66699 -36.333 12.667 -49 24c-12 8.66699 -21.333 22.667 -28 42c-4.66699 16 -6.33398 33.333 -5.00098 52c1.33301 24 7 44 17 60
c10 16.667 18.333 25.5 25 26.5s17 -5.83301 31 -20.5c9.33301 -12 28.666 -20 57.999 -24c36.667 -4 64 -18.667 82 -44c6.66699 -9.33301 11 -22.666 13 -39.999s1.66699 -34 -1 -50c-2.66699 -19.333 -6.5 -32 -11.5 -38s-10.5 -7.33301 -16.5 -4c-15.333 6 -30 8 -44 6
c-14 0 -22.667 -10 -26 -30c-3.33301 -24 -2.5 -46.5 2.5 -67.5s10.833 -41.833 17.5 -62.5c6.66699 -26.667 10.5 -48.834 11.5 -66.501s-0.5 -46.167 -4.5 -85.5c-4 -29.333 -11.333 -60 -22 -92c-7.33301 -20.667 -15.5 -31.5 -24.5 -32.5s-13.833 12.5 -14.5 40.5
c0 32 -3 66 -9 102c-6 26 -11 52.167 -15 78.5s-4.33301 52.166 -1 77.499z" />
    <glyph glyph-name="uniFB37" unicode="&#xfb37;" horiz-adv-x="559" 
d="M276 338c10.667 0 19.667 -3.66797 27 -11.001s11 -16.166 11 -26.499s-3.66699 -19.333 -11 -27s-16.333 -11.5 -27 -11.5s-19.667 3.83301 -27 11.5s-11 16.5 -11 26.5c0 10.667 3.66699 19.667 11 27s16.333 11 27 11zM158 439.999
c-15.333 -13.333 -25.0059 -31.999 -29.0059 -55.999c-2 -26 -3 -46.5 -3 -61.5s1.16699 -35.5 3.5 -61.5s3.5 -39.667 3.5 -41c0.666992 -23.333 1.33398 -44.333 2.00098 -63s-1.5 -39.167 -6.5 -61.5s-13.5 -45.5 -25.5 -69.5
c-10.667 -21.333 -21.667 -31.666 -33 -30.999s-16.333 11.667 -15 33c3.33301 27.333 4.33301 68.333 3 123s-1.33301 91 0 109c1.33301 22 3 39.833 5 53.5s7.16699 33 15.5 58s19.833 47.833 34.5 68.5c-12.667 2.66699 -23.5 6.16699 -32.5 10.5
s-15.667 9.16602 -20 14.499s-8.16602 11 -11.499 17s-5.16602 11.833 -5.49902 17.5s-1.16602 10.5 -2.49902 14.5c-3.33301 16.667 -3.16602 35.834 0.500977 57.501s9.5 40.5 17.5 56.5c10.667 22 21 23.333 31 4c4 -8.66699 9.33301 -15.334 16 -20.001
s13.834 -7.66699 21.501 -9s16 -2.16602 25 -2.49902s18.167 -0.5 27.5 -0.5h271c27.333 0 45.333 -6.66699 54 -20s13.334 -32 14.001 -56c0.666992 -22.667 -2.33301 -41.334 -9 -56.001s-20.334 -23.334 -41.001 -26.001c-8.66699 -2 -12.667 -7.33301 -12 -16
c2 -12.667 10.333 -55.834 25 -129.501s23 -120.5 25 -140.5c6 -45.333 -2 -90.666 -24 -135.999c-8.66699 -18 -19.667 -26 -33 -24s-19.666 12 -18.999 30l-6 400c0 4.66699 -0.833008 8.16699 -2.5 10.5s-3.33398 3.5 -5.00098 3.5h-7.5h-252z" />
    <glyph glyph-name="uniFB38" unicode="&#xfb38;" horiz-adv-x="576" 
d="M358 314c10.667 0 19.667 -3.66699 27 -11s11 -16.333 11 -27s-3.66699 -19.667 -11 -27s-16.333 -11 -27 -11s-19.667 3.66699 -27 11s-11 16.333 -11 27s3.66699 19.667 11 27s16.333 11 27 11zM102 440c-14 4 -25.999 10.9961 -35.999 20.9961
c-12 11.333 -21.333 26 -28 44c-4.66699 16.667 -6.33398 34.334 -5.00098 53.001c1.33301 24 7 44 17 60c6.66699 11.333 12.5 18.833 17.5 22.5s10 4.33398 15 2.00098s10.833 -8.5 17.5 -18.5c7.33301 -12 25.333 -22 54 -30c28.667 -7.33301 49 -20.666 61 -39.999
c14.667 -20 19 -49.667 13 -89c-2.66699 -19.333 -7.33398 -33.666 -14.001 -42.999s-13 -12.666 -19 -9.99902c-17.333 6 -27.666 9 -30.999 9c-9.33301 0.666992 -16 -3.66602 -20 -12.999c-14.667 -31.333 -22 -64 -22 -98c0.666992 -40.667 5 -84 13 -130
c2.66699 -13.333 11 -20 25 -20h338c13.333 0.666992 21 7.66699 23 21c9.33301 86.667 -5.66699 153.667 -45 201c-18 20.667 -39.167 36.334 -63.5 47.001s-45.5 11 -63.5 1c-28 -16 -49 -64.667 -63 -146c-1.33301 -7.33301 -3.5 -12.5 -6.5 -15.5
s-6.83301 -4.16699 -11.5 -3.5c-10 1.33301 -14 8.66602 -12 21.999c10.667 111.333 33 214.333 67 309c0.666992 1.33301 1.5 3.16602 2.5 5.49902s3.83301 5.16602 8.5 8.49902s10.334 4.66602 17.001 3.99902c94.667 -8.66699 159 -85.667 193 -231
c23.333 -98.667 17.333 -218.334 -18 -359.001c0 -1.33301 -0.333008 -2.66602 -1 -3.99902s-2 -3.83301 -4 -7.5s-5.16699 -6.66699 -9.5 -9s-9.5 -3.5 -15.5 -3.5h-390c-14.667 0.666992 -22.334 7.33398 -23.001 20.001c0 4 -3.33301 80.667 -10 230
c-2 46.667 11.333 100.667 40 162c8 14 4.33301 23.333 -11 28z" />
    <glyph glyph-name="uniFB39" unicode="&#xfb39;" horiz-adv-x="266" 
d="M82 408c10.667 0 19.667 -3.66797 27 -11.001s11 -16.166 11 -26.499s-3.66699 -19.333 -11 -27s-16.333 -11.5 -27 -11.5s-19.667 3.83301 -27 11.5s-11 16.5 -11 26.5c0 10.667 3.66699 19.667 11 27s16.333 11 27 11zM229 419.999
c-6 -28.667 -21.6689 -60.668 -47.002 -96.001l-1 -1c-13.333 -18 -23.666 -24.333 -30.999 -19c-10 8 -9.66699 21.333 1 40c6.66699 12.667 11.167 21.5 13.5 26.5s3.83301 11.833 4.5 20.5s-1.66602 17 -6.99902 25c-4 6 -9 10.5 -15 13.5s-13.833 5.66699 -23.5 8
s-17.5 5.16602 -23.5 8.49902c-29.333 12.667 -50 33.334 -62 62.001c-8.66699 21.333 -11.334 45.333 -8.00098 72c2.66699 22.667 9 40 19 52c10.667 10 18.667 14.333 24 13s11.333 -7.66602 18 -18.999c11.333 -16.667 29.333 -28 54 -34
c32.667 -6 56.334 -22.667 71.001 -50c18.667 -33.333 23 -74 13 -122z" />
    <glyph glyph-name="uniFB3A" unicode="&#xfb3a;" horiz-adv-x="496" 
d="M282 338c10.667 0 19.667 -3.66797 27 -11.001s11 -16.166 11 -26.499s-3.66699 -19.333 -11 -27s-16.333 -11.5 -27 -11.5s-19.667 3.83301 -27 11.5s-11 16.5 -11 26.5c0 10.667 3.66699 19.667 11 27s16.333 11 27 11zM173 599.999l216.999 0.000976562
c27.333 0 45.333 -6.66699 54 -20s13.334 -32 14.001 -56c0.666992 -22.667 -2.33301 -41.334 -9 -56.001s-20.334 -23.334 -41.001 -26.001c-8.66699 -2 -12.667 -7.33301 -12 -16c2.66699 -16.667 8.83398 -108.167 18.501 -274.5s15.5 -258.166 17.5 -275.499
c4.66699 -48.667 -3.33301 -94 -24 -136c-8.66699 -18 -19.667 -26 -33 -24s-19.666 12 -18.999 30l8 680c0 4.66699 -0.833008 8.16699 -2.5 10.5s-3.33398 3.5 -5.00098 3.5h-7.5h-241c-20 0 -36.667 8.5 -50 25.5s-21.333 33.167 -24 48.5
c-3.33301 16.667 -3.16602 36 0.500977 58s9.5 40.667 17.5 56c4.66699 11.333 9.83398 17 15.501 17s10.5 -4.33301 14.5 -13s9.5 -15.334 16.5 -20.001s14.167 -7.66699 21.5 -9s15.666 -2.16602 24.999 -2.49902s18.666 -0.5 27.999 -0.5z" />
    <glyph glyph-name="uniFB3B" unicode="&#xfb3b;" horiz-adv-x="501" 
d="M258 338c10.667 0 19.667 -3.66797 27 -11.001s11 -16.166 11 -26.499s-3.66699 -19.333 -11 -27s-16.333 -11.5 -27 -11.5s-19.667 3.83301 -27 11.5s-11 16.5 -11 26.5c0 10.667 3.66699 19.667 11 27s16.333 11 27 11zM479 185.999
c0 -10 -1.66406 -19.3311 -4.99707 -27.998l-4 -14l-58 -122c-7.33301 -14.667 -17.666 -22 -30.999 -22h-345c-8 0 -13.333 2.16699 -16 6.5s-2.66699 9.5 0 15.5l48 118c5.33301 13.333 15.333 20 30 20h337c4 0 7 0.333008 9 1s3.66699 2.16699 5 4.5s2 5.83301 2 10.5
c2 62 -6 114.667 -24 158c-16 39.333 -43 68.666 -81 87.999c-19.333 9.33301 -43.333 15 -72 17s-56.834 2.83301 -84.501 2.5s-47.834 1.16699 -60.501 4.5c-13.333 4 -24.5 8.83301 -33.5 14.5s-15.833 12.5 -20.5 20.5s-7.83398 14.167 -9.50098 18.5
s-3.5 10.5 -5.5 18.5c-8 37.333 -3.33301 74 14 110c10.667 22 21 23.333 31 4c5.33301 -11.333 12.833 -19.333 22.5 -24s20.167 -6.83398 31.5 -6.50098s23.666 -0.166992 36.999 -1.5c4 0 16 -0.333008 36 -1s36.667 -1.83398 50 -3.50098s29.5 -4.66699 48.5 -9
s36.167 -11 51.5 -20s28.333 -20.5 39 -34.5c26 -32.667 42.833 -77.667 50.5 -135s10.167 -127.666 7.5 -210.999z" />
    <glyph glyph-name="uniFB3C" unicode="&#xfb3c;" horiz-adv-x="510" 
d="M242 364c10.667 0 19.667 -3.66797 27 -11.001s11 -16.166 11 -26.499s-3.66699 -19.333 -11 -27s-16.333 -11.5 -27 -11.5s-19.667 3.83301 -27 11.5s-11 16.5 -11 26.5c0 10.667 3.66699 19.667 11 27s16.333 11 27 11zM41 873.999
c1.33301 10 3.49902 17.1641 6.49902 21.4971s9.16699 5.83301 18.5 4.5c22.667 -4 41 -16 55 -36s21 -37.333 21 -52c0 -9.33301 -9 -23.666 -27 -42.999s-27.333 -29.666 -28 -30.999c-4 -6.66699 -6.66699 -13.667 -8 -21s-2 -16 -2 -26v-39
c-0.666992 -8 -0.833984 -15.167 -0.500977 -21.5s1.5 -11.666 3.5 -15.999s5.83301 -7.83301 11.5 -10.5s13.834 -4 24.501 -4h270c50 0 78 -18.667 84 -56c3.33301 -18.667 5.33301 -35.834 6 -51.501s0.666992 -35 0 -58s-1 -39.167 -1 -48.5
c0 -20.667 -6.5 -41.5 -19.5 -62.5s-29.167 -40 -48.5 -57l-62 -56.5c-32.667 -29.333 -53 -65.333 -61 -108c-1.33301 -6.66699 0.166992 -15.5 4.5 -26.5s6.5 -20.167 6.5 -27.5c0 -14.667 -3.66699 -27 -11 -37s-18 -15 -32 -15s-25.667 4.66699 -35 14
s-14.666 21.333 -15.999 36c-2 20 4.33301 43.5 19 70.5s28.667 46.833 42 59.5c3.33301 2.66699 7.66602 6.33398 12.999 11.001c67.333 60 109.333 100 126 120s24.667 42.333 24 67c-1.33301 24.667 -6 41.834 -14 51.501s-25.333 14.5 -52 14.5h-243
c-28 0 -48.833 7 -62.5 21s-20.5 32.333 -20.5 55c-0.666992 51.333 -0.666992 94.666 0 129.999s3.33398 60 8.00098 74c5.33301 14 12.833 27 22.5 39s14.5 20.333 14.5 25c-0.666992 6.66699 -6.5 14.667 -17.5 24s-17.167 15.333 -18.5 18
c-4 7.33301 -4.33301 23.333 -1 48z" />
    <glyph glyph-name="uniFB3D" unicode="&#xfb3d;" horiz-adv-x="542" 
d="M284 338c10.667 0 19.667 -3.66797 27 -11.001s11 -16.166 11 -26.499s-3.66699 -19.333 -11 -27s-16.333 -11.5 -27 -11.5s-19.667 3.83301 -27 11.5s-11 16.5 -11 26.5c0 10.667 3.66699 19.667 11 27s16.333 11 27 11zM184 599.999l194.002 -0.000976562
c41.333 0 71.666 -15.167 90.999 -45.5s29 -68.5 29 -114.5v-414c0 -17.333 -10 -26 -30 -26h-390c-17.333 0 -26 8.66699 -26 26l2 214c0 75.333 21.333 142 64 200c-12 0 -22.833 2.83301 -32.5 8.5s-17.167 12.834 -22.5 21.501s-9.5 16.5 -12.5 23.5
s-5.16699 13.833 -6.5 20.5c-2.66699 16.667 -2.16699 36 1.5 58s9.16699 40.667 16.5 56c11.333 22 22 23.333 32 4c4 -8.66699 9.16699 -15.334 15.5 -20.001s13.333 -7.66699 21 -9s16.167 -2.16602 25.5 -2.49902s18.666 -0.5 27.999 -0.5zM154.002 439.998
c-25.333 -47.333 -38 -94.667 -38 -142v-112c0 -17.333 8.66699 -26 26 -26h296c18.667 0 28 10 28 30v154c0 26 -9 48.5 -27 67.5s-41 28.5 -69 28.5h-216z" />
    <glyph glyph-name="uniFB3E" unicode="&#xfb3e;" horiz-adv-x="581" 
d="M322 338c10.667 0 19.667 -3.66797 27 -11.001s11 -16.166 11 -26.499s-3.66699 -19.333 -11 -27s-16.333 -11.5 -27 -11.5s-19.667 3.83301 -27 11.5s-11 16.5 -11 26.5c0 10.667 3.66699 19.667 11 27s16.333 11 27 11zM101 377.999l-0.00390625 0.998047
c-15.333 14.667 -28.666 31.334 -39.999 50.001s-17.666 35.334 -18.999 50.001c-2.66699 16 -3.16699 32.667 -1.5 50s6.83398 35.333 15.501 54c8.66699 18 21.334 34 38.001 48c8.66699 6.66699 16.334 8.66699 23.001 6s11.667 -9.33398 15 -20.001
c4 -13.333 16.667 -24.333 38 -33c26.667 -11.333 46.667 -45.333 60 -102c1.33301 -4 3.5 -7 6.5 -9s6.83301 -2 11.5 0c24 16.667 39.333 59.667 46 129c2 16.667 10 24.334 24 23.001c68.667 -4.66699 124 -33.667 166 -87c53.333 -66.667 81.333 -184 84 -352
c0 -6.66699 -1.66699 -15.334 -5 -26.001l-4 -15l-51 -123c-8 -14 -18.333 -21 -31 -21h-316c-8 0 -13.5 2 -16.5 6s-2.83301 9.33301 0.5 16l48 117c4.66699 14 15 21 31 21h296c4.66699 0 8.5 1.5 11.5 4.5s4.5 6.83301 4.5 11.5c-2 92.667 -27.667 163.334 -77 212.001
c-18.667 18 -38.5 31.833 -59.5 41.5s-38 15.334 -51 17.001s-28.5 2.5 -46.5 2.5c-30.667 0 -61.834 -9.33301 -93.501 -28s-53.167 -41 -64.5 -67s-18 -52.833 -20 -80.5s-1.83301 -57.667 0.5 -90s2.83301 -57.833 1.5 -76.5c-2 -26 -7.66699 -50.667 -17 -74
c-5.33301 -12.667 -11.166 -22 -17.499 -28s-12.5 -6.33301 -18.5 -1s-10.333 18.333 -13 39c-6.66699 51.333 -7 99.666 -1 144.999c7.33301 53.333 23.666 105.333 48.999 156c6 12 3.66699 23 -7 33z" />
    <glyph glyph-name="uniFB3F" unicode="&#xfb3f;" horiz-adv-x="273" 
d="M62 338c10.667 0 19.667 -3.66797 27 -11.001s11 -16.166 11 -26.499s-3.66699 -19.333 -11 -27s-16.333 -11.5 -27 -11.5s-19.667 3.83301 -27 11.5s-11 16.5 -11 26.5c0 10.667 3.66699 19.667 11 27s16.333 11 27 11zM82 447.999l0.000976562 -0.995117
c-9.33301 4.66699 -18 11.667 -26 21s-13.667 18.666 -17 27.999c-6 18 -8.33301 36.667 -7 56c0.666992 10.667 2.83398 23 6.50098 37s7.5 23.667 11.5 29c10 16.667 18.5 25.5 25.5 26.5s15.167 -5.83301 24.5 -20.5c3.33301 -6 8.66602 -11 15.999 -15
s14.166 -6.66699 20.499 -8s12.166 -3 17.499 -5c30 -6 50.667 -15 62 -27c16.667 -16.667 23.5 -38.5 20.5 -65.5s-12.833 -48.833 -29.5 -65.5c-5.33301 -5.33301 -10 -11 -14 -17l-6 -9c-4 -8 -7.66699 -16 -11 -24l-9.5 -22c-3 -6.66699 -5.5 -13.667 -7.5 -21
s-3.33301 -15 -4 -23c-4 -34.667 0.333008 -88.667 13 -162c7.33301 -41.333 14 -94.833 20 -160.5s7.66699 -109.5 5 -131.5c-4.66699 -40 -23 -84 -55 -132c-8.66699 -12.667 -17.667 -17.834 -27 -15.501s-13.333 10.166 -12 23.499
c7.33301 77.333 11.333 154.666 12 231.999c0.666992 32.667 -0.5 75 -3.5 127s-3.83301 95 -2.5 129s5.33301 64.5 12 91.5s18 57.167 34 90.5c4.66699 9.33301 2.33398 14.666 -6.99902 15.999c-25.333 4 -46 10 -62 18z" />
    <glyph glyph-name="uniFB40" unicode="&#xfb40;" horiz-adv-x="347" 
d="M148 338c10.667 0 19.667 -3.66797 27 -11.001s11 -16.166 11 -26.499s-3.66699 -19.333 -11 -27s-16.333 -11.5 -27 -11.5s-19.667 3.83301 -27 11.5s-11 16.5 -11 26.5c0 10.667 3.66699 19.667 11 27s16.333 11 27 11zM217 -0.000976562l-192.995 0.00292969
c-16 0 -21.333 7.33301 -16 22l48 118c6 13.333 16.333 20 31 20h125c16 0 23.333 8 22 24c-2.66699 36.667 -4 66.667 -4 90s0.833008 43.666 2.5 60.999s3.5 39 5.5 65c0 2 -0.166992 4.16699 -0.5 6.5s-2.16602 5.83301 -5.49902 10.5s-8.33301 7.66699 -15 9
c-16.667 2 -29.334 4 -38.001 6s-18.667 5.5 -30 10.5s-21 11.5 -29 19.5c-12 10.667 -21.333 25.334 -28 44.001c-4.66699 16 -6.33398 33.333 -5.00098 52c1.33301 24 7 44 17 60c10 16.667 19.167 25.5 27.5 26.5s17.166 -5.83301 26.499 -20.5
c5.33301 -8 15.166 -14.833 29.499 -20.5s24.166 -8.83398 29.499 -9.50098c20 -4.66699 36.667 -13 50 -25s21.666 -26.333 24.999 -43c3.33301 -23.333 3.5 -40.833 0.5 -52.5s-7.5 -23.834 -13.5 -36.501s-9 -22.334 -9 -29.001c0 -24 6.66699 -60.5 20 -109.5
s21 -89.833 23 -122.5c2.66699 -24 3 -47.333 1 -70s-7.66699 -44 -17 -64c-14 -28 -40.667 -42 -80 -42z" />
    <glyph glyph-name="uniFB41" unicode="&#xfb41;" horiz-adv-x="512" 
d="M274 338c10.667 0 19.667 -3.66797 27 -11.001s11 -16.166 11 -26.499s-3.66699 -19.333 -11 -27s-16.333 -11.5 -27 -11.5s-19.667 3.83301 -27 11.5s-11 16.5 -11 26.5c0 10.667 3.66699 19.667 11 27s16.333 11 27 11zM184 599.999
c4.66699 0 21.5029 -0.162109 50.5029 -0.495117s53.5 -1.33301 73.5 -3s42.5 -7.33398 67.5 -17.001s43.833 -22.834 56.5 -39.501c26 -32.667 42.167 -77.167 48.5 -133.5s8.83301 -129.833 7.5 -220.5c-1.33301 -18.667 -5.33301 -36 -12 -52l-46 -112
c-6.66699 -14.667 -18.667 -22 -36 -22h-306c-16 0 -24 8.66699 -24 26c-2.66699 47.333 -4 74.666 -4 81.999c-2 22 -4 39.667 -6 53s-3.33301 22 -4 26s-1.33398 10.167 -2.00098 18.5s-1.33398 21.166 -2.00098 38.499c0 27.333 9.83301 63.333 29.5 108s36.5 74 50.5 88
c-22.667 4.66699 -40.334 15 -53.001 31s-21 31.667 -25 47c-8 37.333 -3.33301 74 14 110c11.333 22 22 23.333 32 4c4.66699 -11.333 12 -19.333 22 -24s20.5 -6.83398 31.5 -6.50098s23.167 -0.166992 36.5 -1.5zM164.003 440.004
c-23.333 -32 -40.332 -60.333 -50.999 -85s-15.667 -53 -15 -85c2 -28 4.66699 -56 8 -84c2 -10.667 5.16699 -17.667 9.5 -21s10.5 -5 18.5 -5h296c17.333 0 26 8.66699 26 26c0 15.333 -0.166992 32.833 -0.5 52.5s-1 38.5 -2 56.5s-3.5 35.5 -7.5 52.5
s-9.33301 30.5 -16 40.5c-7.33301 11.333 -19.833 21.833 -37.5 31.5s-35.834 15.167 -54.501 16.5c-48.667 4.66699 -106.667 6 -174 4z" />
    <glyph glyph-name="uniFB42" unicode="&#xfb42;" horiz-adv-x="552" 
d="M349 0l-290.001 0.00683594c-17.333 0 -22.666 7.33301 -15.999 22l48 117c4.66699 14 15 21 31 21h74c15.333 0 25 4.66699 29 14s1 20 -9 32c-6 8 -16.833 18.667 -32.5 32s-27.5 27.666 -35.5 42.999c-16.667 29.333 -20 70.333 -10 123c4 19.333 -1 30.333 -15 33
c-19.333 2 -36.666 8.33301 -51.999 19c-13.333 9.33301 -23.666 22.666 -30.999 39.999c-5.33301 13.333 -8.66602 30.666 -9.99902 51.999c-1.33301 25.333 2.66699 45.666 12 60.999c6.66699 13.333 12 22.333 16 27s9.5 6 16.5 4s15.833 -9 26.5 -21
c8.66699 -10 27.334 -16 56.001 -18c36 -0.666992 64.333 -13 85 -37c16.667 -20.667 23.667 -50.334 21 -89.001c-1.33301 -18.667 -4.33301 -31.167 -9 -37.5s-10 -8.5 -16 -6.5c-14 4.66699 -28.667 5.66699 -44 3c-15.333 -2 -23 -12.667 -23 -32
c-0.666992 -38.667 14.666 -72 45.999 -100c16 -14.667 28 -33.834 36 -57.501s9.66699 -45.834 5 -66.501c-3.33301 -12 0.666992 -18 12 -18h62c8.66699 0 15.667 2.5 21 7.5s8.83301 10 10.5 15s3.5 12.833 5.5 23.5c7.33301 36.667 16.666 71 27.999 103
c14 37.333 25 68.333 33 93c4 14 -1 22.333 -15 25c-26 6.66699 -47.333 18 -64 34c-12 11.333 -21.333 26 -28 44c-4 12 -6 29.667 -6 53c2 26.667 8 46.667 18 60c6.66699 11.333 12.667 18.833 18 22.5s10.5 4.33398 15.5 2.00098s10.833 -8.5 17.5 -18.5
c7.33301 -10.667 25.666 -20.667 54.999 -30c42.667 -10 68 -32.667 76 -68c8.66699 -43.333 -1.66602 -75 -30.999 -95c-12.667 -7.33301 -20.667 -17 -24 -29c-18 -57.333 -30 -112.666 -36 -165.999c-2 -16.667 -3.83301 -45.834 -5.5 -87.501
s-2.83398 -66.834 -3.50098 -75.501c-1.33301 -25.333 -7.33301 -43.833 -18 -55.5s-27.334 -17.5 -50.001 -17.5zM311.999 362.007c10.667 0 19.667 -3.66797 27 -11.001s11 -16.166 11 -26.499s-3.66699 -19.333 -11 -27s-16.333 -11.5 -27 -11.5
s-19.667 3.83301 -27 11.5s-11 16.5 -11 26.5c0 10.667 3.66699 19.667 11 27s16.333 11 27 11z" />
    <glyph glyph-name="uniFB43" unicode="&#xfb43;" horiz-adv-x="493" 
d="M286 378c10.667 0 19.667 -3.66797 27 -11.001s11 -16.166 11 -26.499s-3.66699 -19.333 -11 -27s-16.333 -11.5 -27 -11.5s-19.667 3.83301 -27 11.5s-11 16.5 -11 26.5c0 10.667 3.66699 19.667 11 27s16.333 11 27 11zM104 439.999
c-24.667 18 -40.001 42.668 -46.001 74.001c-3.33301 16.667 -3.16602 36 0.500977 58s9.5 40.667 17.5 56c4.66699 11.333 9.83398 17 15.501 17s10.5 -4.33301 14.5 -13s9.5 -15.334 16.5 -20.001s14.167 -7.66699 21.5 -9s15.666 -2.16602 24.999 -2.49902
s18.666 -0.5 27.999 -0.5h139c27.333 0 50 -9.16699 68 -27.5s27.667 -41.166 29 -68.499l35 -664c2.66699 -44.667 -12.333 -81.334 -45 -110.001c-22.667 -17.333 -33.667 -13.333 -33 12l19 604c1.33301 27.333 -4.16699 49.833 -16.5 67.5s-30.5 26.5 -54.5 26.5h-194
c-13.333 -9.33301 -24.5 -26.333 -33.5 -51s-11.5 -49 -7.5 -73c2 -11.333 6.33301 -20.5 13 -27.5s15.834 -11.667 27.501 -14s22 -3.83301 31 -4.5s21.167 -0.666992 36.5 0c15.333 0 29 -4.83301 41 -14.5s19.667 -22.834 23 -39.501
c8.66699 -40.667 -1.33301 -70 -30 -88c-26 -16 -71.667 -18 -137 -6c-3.33301 -2 -8.83301 -6.5 -16.5 -13.5s-14.167 -12.5 -19.5 -16.5c-11.333 -9.33301 -21 -10 -29 -2c-4 4 -5.33301 8.66699 -4 14s4 10 8 14c14.667 12.667 23.667 20.667 27 24
c-28.667 42 -40 92.667 -34 152c2.66699 30.667 10 59.5 22 86.5s26 46.833 42 59.5z" />
    <glyph glyph-name="uniFB44" unicode="&#xfb44;" horiz-adv-x="491" 
d="M360 314c10.667 0 19.667 -3.66797 27 -11.001s11 -16.166 11 -26.499s-3.66699 -19.333 -11 -27s-16.333 -11.5 -27 -11.5s-19.667 3.83301 -27 11.5s-11 16.5 -11 26.5c0 10.667 3.66699 19.667 11 27s16.333 11 27 11zM154 443.999l-0.000976562 -0.994141
c-20 -9.33301 -29.333 -23.666 -28 -42.999c0.666992 -10 6.16699 -17.333 16.5 -22s23 -7 38 -7h47.5c15.333 0.666992 29 -4 41 -14s19.667 -23.333 23 -40c8.66699 -40 -1.33301 -69 -30 -87c-26 -16 -71.667 -18 -137 -6c-3.33301 -2 -8.83301 -6.66699 -16.5 -14
s-14.167 -13 -19.5 -17c-11.333 -8.66699 -21 -9.33398 -29 -2.00098c-4 4.66699 -5.33301 9.66699 -4 15s4 9.66602 8 12.999c14.667 13.333 23.667 21.333 27 24c-16 14.667 -26.667 29.5 -32 44.5s-7 33.167 -5 54.5c4 38 27.667 74.667 71 110
c-12.667 5.33301 -23 12.333 -31 21s-13 16 -15 22s-4 13.667 -6 23c-8 37.333 -3.33301 74 14 110c10.667 22 21 23 31 3c5.33301 -10.667 12.833 -18.334 22.5 -23.001s20 -6.83398 31 -6.50098s23.167 -0.166992 36.5 -1.5c1.33301 0 9.5 -0.333008 24.5 -1
s25.667 -1.33398 32 -2.00098s16.833 -1.83398 31.5 -3.50098s26.667 -4.16699 36 -7.5s19.833 -7.33301 31.5 -12s22.167 -10.834 31.5 -18.501s17.333 -16.5 24 -26.5c21.333 -30 35.333 -74 42 -132s8.66699 -128.667 6 -212c-0.666992 -16.667 -3 -30.334 -7 -41.001
l-51 -123c-6.66699 -14 -17 -21 -31 -21h-344c-16 0 -21.333 7.33301 -16 22l48 117c6 14 16.333 21 31 21h323c10 0 15.667 5.33301 17 16c1.33301 102.667 -10.334 171.334 -35.001 206.001c-13.333 18.667 -31.666 32.667 -54.999 42s-45.333 14.333 -66 15
s-44.167 1 -70.5 1s-45.166 1.33301 -56.499 4z" />
    <glyph glyph-name="uniFB45" unicode="&#xfb45;" horiz-adv-x="537" 
d="M236 404c10.667 0 19.667 -3.66797 27 -11.001s11 -16.166 11 -26.499s-3.66699 -19.333 -11 -27s-16.333 -11.5 -27 -11.5s-19.667 3.83301 -27 11.5s-11 16.5 -11 26.5c0 10.667 3.66699 19.667 11 27s16.333 11 27 11zM190 133.999l-0.000976562 0.99707
c8 -44 15.5 -93.667 22.5 -149s10.167 -93 9.5 -113c-2.66699 -40 -19 -85 -49 -135c-8.66699 -13.333 -17.667 -19 -27 -17s-13.333 9.66699 -12 23c3.33301 70 4 147.667 2 233c-1.33301 32 -4.5 73.833 -9.5 125.5s-7.83301 94.834 -8.5 129.501
c-0.666992 36 1.33301 67.333 6 94s14.334 56.334 29.001 89.001c4 10 1.33301 15.333 -8 16c-26.667 4 -46.334 9 -59.001 15c-10 4.66699 -19.167 11.334 -27.5 20.001s-14.166 17.667 -17.499 27c-7.33301 18.667 -10.333 37 -9 55c0 10.667 1.5 23 4.5 37
s6.16699 24 9.5 30c5.33301 9.33301 9.66602 16.166 12.999 20.499s7 7.5 11 9.5s8 1.5 12 -1.5s8.66699 -8.5 14 -16.5c4 -6 9.5 -11 16.5 -15s13.5 -6.5 19.5 -7.5s11.667 -2.16699 17 -3.5c25.333 -4.66699 46.333 -13.667 63 -27c16.667 -16.667 24 -38.334 22 -65.001
s-10.667 -48.667 -26 -66c-5.33301 -6 -10 -12 -14 -18l-5 -9c-14 -34 -22.333 -64.667 -25 -92c-1.33301 -32 1.33398 -63.667 8.00098 -95c1.33301 -8 3.83301 -12.833 7.5 -14.5s8.16699 0.5 13.5 6.5l169 212c3.33301 4 5 7.5 5 10.5s-2.66699 6.83301 -8 11.5
c-23.333 18.667 -35.333 44.334 -36 77.001c-1.33301 36 11 68.333 37 97c9.33301 11.333 18.333 17 27 17s15 -5.66699 19 -17c8 -16.667 20.667 -30 38 -40c38 -21.333 58 -49.666 60 -84.999c1.33301 -32.667 -9 -63 -31 -91c-18 -24 -31.333 -30.667 -40 -20
c-8.66699 10 -15.334 16.667 -20.001 20c-7.33301 6 -14.666 4.66699 -21.999 -4l-189 -232c-10 -18.667 -14 -33 -12 -43z" />
    <glyph glyph-name="uniFB46" unicode="&#xfb46;" horiz-adv-x="561" 
d="M202 270c10.667 0 19.667 -3.66797 27 -11.001s11 -16.166 11 -26.499s-3.66699 -19.333 -11 -27s-16.333 -11.5 -27 -11.5s-19.667 3.83301 -27 11.5s-11 16.5 -11 26.5c0 10.667 3.66699 19.667 11 27s16.333 11 27 11zM54 -0.000976562
c-16 0 -21.333 7.33496 -16 22.002l48 118c6 13.333 16.333 20 31 20h289c14 0 16.333 4 7 12l-185 140c-8 7.33301 -12.333 15.333 -13 24c-4.66699 36.667 -8.33398 58.667 -11.001 66c0 0.666992 -0.333008 1.66699 -1 3
c-1.33301 5.33301 -2.66602 9.16602 -3.99902 11.499s-3.83301 4.83301 -7.5 7.5s-8.83398 4 -15.501 4c-51.333 4 -86.666 15.333 -105.999 34c-12 12 -20.667 26.667 -26 44c-5.33301 15.333 -7.33301 32.666 -6 51.999c1.33301 24 7 44 17 60
c10 16.667 18.5 25.5 25.5 26.5s15.167 -5.83301 24.5 -20.5c4 -6 9.5 -11.167 16.5 -15.5s13.5 -7.33301 19.5 -9s11.667 -3.5 17 -5.5c40 -9.33301 64.667 -32 74 -68c3.33301 -12.667 4.16602 -27 2.49902 -43s-3.83398 -29.667 -6.50098 -41c-2 -8.66699 0 -18 6 -28
c2 -3.33301 18 -16.666 48 -39.999l44 -34c8 -7.33301 14.667 -6 20 4l36 84c2.66699 3.33301 4 7 4 11s-3 8.33301 -9 13c-27.333 21.333 -41 48 -41 80c-0.666992 36.667 11.333 68.667 36 96c10 12 19.167 18 27.5 18s14.833 -6 19.5 -18c2 -4.66699 6.5 -11 13.5 -19
s14.833 -15 23.5 -21c38 -20.667 58 -48.667 60 -84c2 -32.667 -8 -63.334 -30 -92.001c-18.667 -23.333 -32 -30 -40 -20c-2.66699 2.66699 -5.16699 5.66699 -7.5 9s-4.83301 6.33301 -7.5 9c-8.66699 8.66699 -15 8 -19 -2l-38 -86
c-2.66699 -6.66699 -3.66699 -11.5 -3 -14.5s3.66699 -6.83301 9 -11.5l106 -84c17.333 -13.333 28.833 -33.833 34.5 -61.5s2.83398 -54.5 -8.49902 -80.5c-21.333 -46.667 -59.666 -70 -114.999 -70h-343z" />
    <glyph glyph-name="uniFB47" unicode="&#xfb47;" horiz-adv-x="544" 
d="M296 338c10.667 0 19.667 -3.66797 27 -11.001s11 -16.166 11 -26.499s-3.66699 -19.333 -11 -27s-16.333 -11.5 -27 -11.5s-19.667 3.83301 -27 11.5s-11 16.5 -11 26.5c0 10.667 3.66699 19.667 11 27s16.333 11 27 11zM186 599.999
c2.66699 0 18 -0.167969 46 -0.500977s54.667 -1.5 80 -3.5s53.333 -7.83301 84 -17.5s54 -23.167 70 -40.5c22 -22 37.667 -59.5 47 -112.5s13 -104.333 11 -154s-7.33301 -87.5 -16 -113.5c-6.66699 -17.333 -18.667 -35.333 -36 -54s-37.333 -32.667 -60 -42
c-17.333 -7.33301 -41.833 -13.5 -73.5 -18.5s-58.834 -10.833 -81.501 -17.5s-37.667 -16.667 -45 -30c-6.66699 -10.667 -14.167 -14.167 -22.5 -10.5s-12.833 11.834 -13.5 24.501c0 12.667 2.66699 25.334 8 38.001c8.66699 20.667 23.167 38.167 43.5 52.5
s50.5 28.166 90.5 41.499c14.667 4.66699 33.167 8.66699 55.5 12s40.5 7.5 54.5 12.5s26 13.5 36 25.5c19.333 20.667 28.666 54.334 27.999 101.001s-10.667 81 -30 103c-12 13.333 -34.5 23.5 -67.5 30.5s-66.333 10.667 -100 11s-68.167 1 -103.5 2s-59 3.16699 -71 6.5
c-14 4 -25.5 8.83301 -34.5 14.5s-15.833 12.5 -20.5 20.5s-7.83398 14.167 -9.50098 18.5s-3.5 10.5 -5.5 18.5c-8 37.333 -3.33301 74 14 110c11.333 22 22 23.333 32 4c2.66699 -7.33301 6.33398 -13 11.001 -17s10.334 -6.83301 17.001 -8.5
s12.834 -2.83398 18.501 -3.50098s13 -1.16699 22 -1.5s16.167 -0.833008 21.5 -1.5zM134 345.998c-12 -21.333 -19.6689 -39.168 -23.002 -53.501s-5 -31.166 -5 -50.499c-1.33301 -35.333 2.5 -92 11.5 -170s13.167 -130 12.5 -156c0 -30 -0.833008 -53.833 -2.5 -71.5
s-6.16699 -39 -13.5 -64s-18.666 -47.833 -33.999 -68.5c-13.333 -18 -22.833 -26.667 -28.5 -26s-7.5 10.667 -5.5 30c2.66699 34.667 4 65.5 4 92.5s-0.666992 56 -2 87s-2 59.167 -2 84.5c0.666992 23.333 0.5 52.833 -0.5 88.5s-1.33301 66.334 -1 92.001
s1.5 48.167 3.5 67.5c8.66699 54 27.334 97.333 56.001 130c13.333 15.333 23.5 20.666 30.5 15.999s6.83301 -14 -0.5 -28z" />
    <glyph glyph-name="uniFB48" unicode="&#xfb48;" horiz-adv-x="502" 
d="M310 338c10.667 0 19.667 -3.66797 27 -11.001s11 -16.166 11 -26.499s-3.66699 -19.333 -11 -27s-16.333 -11.5 -27 -11.5s-19.667 3.83301 -27 11.5s-11 16.5 -11 26.5c0 10.667 3.66699 19.667 11 27s16.333 11 27 11zM427 343.999c0 26 -9 48.499 -27 67.499
s-41 28.5 -69 28.5h-223c-20 0 -36.667 8.5 -50 25.5s-21.333 33.167 -24 48.5c-3.33301 16.667 -3.16602 35.834 0.500977 57.501s9.5 40.5 17.5 56.5c10.667 22 21 23.333 31 4c4 -8.66699 9.33301 -15.334 16 -20.001s13.834 -7.66699 21.501 -9s16 -2.16602 25 -2.49902
s18.167 -0.5 27.5 -0.5h133c42.667 0 76.167 -13.833 100.5 -41.5s39.5 -67.167 45.5 -118.5c3.33301 -25.333 6.83301 -75.833 10.5 -151.5s6.16699 -120.5 7.5 -134.5c4.66699 -52 0.333984 -96.667 -12.999 -134c-6.66699 -18.667 -15.834 -26.667 -27.501 -24
s-16.834 12.667 -15.501 30c3.33301 126.667 7.66602 232.667 12.999 318z" />
    <glyph glyph-name="uniFB49" unicode="&#xfb49;" horiz-adv-x="716" 
d="M369 322c10.667 0 19.667 -3.66797 27 -11.001s11 -16.166 11 -26.499s-3.66699 -19.333 -11 -27s-16.333 -11.5 -27 -11.5s-19.667 3.83301 -27 11.5s-11 16.5 -11 26.5c0 10.667 3.66699 19.667 11 27s16.333 11 27 11zM459 225.999
c11.333 27.333 24.666 55.3369 39.999 84.0039s27.666 50.667 36.999 66l15 22c5.33301 9.33301 4.66602 16.666 -2.00098 21.999c-1.33301 0.666992 -5.66602 3.66699 -12.999 9s-13.5 10 -18.5 14s-10.833 9.33301 -17.5 16s-12.334 13.834 -17.001 21.501
s-8 16.167 -10 25.5c-10.667 43.333 0.333008 84 33 122c9.33301 11.333 18.333 17 27 17s15.334 -5.66699 20.001 -17c2 -5.33301 6.5 -12 13.5 -20s15.167 -14.667 24.5 -20c37.333 -22 57 -50.667 59 -86c2 -32.667 -8 -62.667 -30 -90
c-10.667 -13.333 -18.334 -19.333 -23.001 -18h-2c-4.66699 2 -8.66699 0.666992 -12 -4c-34.667 -47.333 -66.667 -128 -96 -242c-4 -12 -7.33301 -24.833 -10 -38.5s-7.5 -27 -14.5 -40s-15 -24.667 -24 -35s-21.667 -18.666 -38 -24.999s-35.166 -9.5 -56.499 -9.5h-263
c-10 0 -15 4.66699 -15 14c0 36.667 -1.33301 68 -4 94s-5.33398 48.167 -8.00098 66.5s-4.66699 33.166 -6 44.499s-2 27.666 -2 48.999c0.666992 23.333 10 64.666 28 123.999c6.66699 18.667 4.33398 30 -6.99902 34c-17.333 6 -31.666 15.333 -42.999 28
c-10.667 12.667 -17.667 27.334 -21 44.001c-3.33301 16 -3.66602 34 -0.999023 54c3.33301 26 10 46.667 20 62c10.667 18 19.834 27.833 27.501 29.5s16.167 -4.83301 25.5 -19.5c10 -16.667 26 -28 48 -34c32 -8.66699 55 -28.667 69 -60
c11.333 -23.333 13 -53.333 5 -90c-4 -18.667 -8.5 -30.834 -13.5 -36.501s-10.167 -6.83398 -15.5 -3.50098c-12 8 -25 12 -39 12c-11.333 0 -19.666 -9.33301 -24.999 -28c-8 -26.667 -12.5 -43.667 -13.5 -51s-0.166992 -21 2.5 -41c2.66699 -14 8.66699 -32.667 18 -56
s15.666 -44 18.999 -62c1.33301 -9.33301 7 -14 17 -14h6c9.33301 0 16 4.66699 20 14l112 258c3.33301 9.33301 2 16.666 -4 21.999c-22.667 17.333 -34.667 42.666 -36 75.999c-0.666992 36.667 11.666 69.334 36.999 98.001c9.33301 11.333 18.333 17 27 17
s15.334 -5.66699 20.001 -17c1.33301 -4.66699 5.5 -11.167 12.5 -19.5s15.167 -15.166 24.5 -20.499c37.333 -21.333 57 -50 59 -86c1.33301 -18 -0.333984 -33.833 -5.00098 -47.5s-13 -27.834 -25 -42.501c-17.333 -24.667 -30.666 -31.334 -39.999 -20.001
c-8.66699 9.33301 -15.334 16 -20.001 20c-10.667 6.66699 -18 5.33398 -22 -3.99902l-99 -234c-2 -6 -2.33301 -9.83301 -1 -11.5s5 -2.5 11 -2.5h120c26 0 49.333 5.5 70 16.5s35.667 27.5 45 49.5z" />
    <glyph glyph-name="uniFB4A" unicode="&#xfb4a;" horiz-adv-x="571" 
d="M318 338c10.667 0 19.667 -3.66797 27 -11.001s11 -16.166 11 -26.499s-3.66699 -19.333 -11 -27s-16.333 -11.5 -27 -11.5s-19.667 3.83301 -27 11.5s-11 16.5 -11 26.5c0 10.667 3.66699 19.667 11 27s16.333 11 27 11zM131 447.999
c-13.333 6.66699 -23.6699 16.333 -31.0029 29s-12 25 -14 37c-3.33301 16.667 -3.16602 36 0.500977 58s9.5 40.667 17.5 56c10.667 22 21 23.333 31 4c4 -8.66699 9.16699 -15.334 15.5 -20.001s13.333 -7.66699 21 -9s16.167 -2.16602 25.5 -2.49902s19 -0.5 29 -0.5h149
c42.667 0 76 -13.833 100 -41.5s39.333 -67.167 46 -118.5c2.66699 -25.333 6 -75.833 10 -151.5s6.66699 -120.5 8 -134.5c4.66699 -52 0.333984 -96.667 -12.999 -134c-7.33301 -18.667 -16.666 -26.667 -27.999 -24s-16.333 12.667 -15 30
c3.33301 126.667 7.66602 232.667 12.999 318c0 26 -9 48.5 -27 67.5s-41 28.5 -69 28.5h-232c-11.333 -18 -18.666 -32 -21.999 -42c-19.333 -51.333 -13.333 -104 18 -158c35.333 -60.667 47.333 -115.334 36 -164.001c-14 -50.667 -38.333 -76 -73 -76h-100
c-8 0 -13.5 2.16699 -16.5 6.5s-2.83301 9.5 0.5 15.5l48 118c4.66699 13.333 15 20 31 20c6.66699 0 12 2.66699 16 8c2 2.66699 0.5 9.83398 -4.5 21.501s-10.5 28 -16.5 49s-8 42.833 -6 65.5c2 28.667 8.33301 57 19 85s21.667 47.667 33 59z" />
    <glyph glyph-name="afii57700" unicode="&#xfb4b;" horiz-adv-x="266" 
d="M154 720c10.667 0 19.667 -3.66699 27 -11s11 -16.333 11 -27c0 -10 -3.66699 -18.667 -11 -26s-16.333 -11 -27 -11s-19.667 3.66699 -27 11s-11 16 -11 26c0 10.667 3.66699 19.667 11 27s16.333 11 27 11zM221 523c7.33301 -40 -0.999023 -75.0029 -24.999 -105.003
c-7.33301 -11.333 -10.333 -20.666 -9 -27.999c15.333 -93.333 26.333 -171.666 33 -234.999c6 -44.667 -2 -89.667 -24 -135c-8.66699 -18 -19.667 -26.167 -33 -24.5s-19.666 11.5 -18.999 29.5c6 162 9.66699 284.333 11 367c1.33301 16 -5.66699 26.333 -21 31
c-26.667 6.66699 -46.334 14.334 -59.001 23.001c-18.667 13.333 -31 30 -37 50c-5.33301 17.333 -7.33301 38 -6 62c1.33301 24.667 6.66602 44.667 15.999 60c6.66699 10.667 12.667 18 18 22s10.5 4.83301 15.5 2.5s10.5 -8.5 16.5 -18.5c8 -12 26 -22 54 -30
c38.667 -9.33301 61.667 -33 69 -71z" />
    <glyph glyph-name="uniFB4C" unicode="&#xfb4c;" horiz-adv-x="498" 
d="M152 694c0 4 1.5 7.5 4.5 10.5s6.5 4.5 10.5 4.5h170c4 0 7.5 -1.5 10.5 -4.5s4.5 -6.5 4.5 -10.5v-25c0 -4 -1.5 -7.5 -4.5 -10.5s-6.5 -4.5 -10.5 -4.5h-170c-4 0 -7.5 1.5 -10.5 4.5s-4.5 6.5 -4.5 10.5v25zM477 160c17.333 0 22.6689 -7.33105 16.002 -21.998
l-48 -117c-4.66699 -14 -15 -21 -31 -21h-374c-16.667 0 -22.334 7.33301 -17.001 22l48 117c6 14 16.333 21 31 21h301c3.33301 0 6 0.333008 8 1s3.83301 2.16699 5.5 4.5s2.5 5.83301 2.5 10.5c1.33301 40.667 -2 83.667 -10 129s-21.333 75.666 -40 90.999
c-23.333 19.333 -50.5 31.833 -81.5 37.5s-62.833 8.16699 -95.5 7.5s-56 1 -70 5c-17.333 4.66699 -31.333 12 -42 22s-17.167 18.167 -19.5 24.5s-4.83301 14.833 -7.5 25.5c-8 37.333 -3.33301 74 14 110c10.667 21.333 21 22.333 31 3
c5.33301 -10.667 12.833 -18.334 22.5 -23.001s20 -7 31 -7s23.167 -0.333008 36.5 -1c20 -2 41 -3.16699 63 -3.5s46.333 -5.33301 73 -15s48 -24.167 64 -43.5c26.667 -32 43.667 -78.333 51 -139s9.66602 -135.667 6.99902 -225c0.666992 -9.33301 5.66699 -14 15 -14h16
z" />
    <glyph glyph-name="uniFB4D" unicode="&#xfb4d;" horiz-adv-x="501" 
d="M155 694c0 4 1.5 7.5 4.5 10.5s6.5 4.5 10.5 4.5h170c4 0 7.5 -1.5 10.5 -4.5s4.5 -6.5 4.5 -10.5v-25c0 -4 -1.5 -7.5 -4.5 -10.5s-6.5 -4.5 -10.5 -4.5h-170c-4 0 -7.5 1.5 -10.5 4.5s-4.5 6.5 -4.5 10.5v25zM479 185c0 -9.33301 -1.66406 -18.6689 -4.99707 -28.002
l-4 -13l-58 -123c-7.33301 -14 -17.666 -21 -30.999 -21h-345c-8 0 -13.333 2 -16 6s-2.66699 9.33301 0 16l48 117c5.33301 14 15.333 21 30 21h337c4 0 7 0.333008 9 1s3.66699 2.16699 5 4.5s2 5.83301 2 10.5c2 61.333 -6 113.666 -24 156.999c-16 40 -43 69.333 -81 88
c-19.333 9.33301 -43.333 15.166 -72 17.499s-56.834 3.33301 -84.501 3s-47.834 1.16699 -60.501 4.5c-13.333 4 -24.5 8.83301 -33.5 14.5s-15.833 12.334 -20.5 20.001s-7.83398 13.834 -9.50098 18.501s-3.5 11 -5.5 19c-8 37.333 -3.33301 74 14 110
c10.667 22 21 23 31 3c5.33301 -10.667 12.833 -18.334 22.5 -23.001s20.167 -7 31.5 -7s23.666 -0.333008 36.999 -1c4 0 16 -0.5 36 -1.5s36.667 -2.33301 50 -4s29.5 -4.5 48.5 -8.5s36.167 -10.667 51.5 -20s28.333 -20.666 39 -33.999
c26 -33.333 42.833 -78.666 50.5 -135.999s10.167 -127.666 7.5 -210.999z" />
    <glyph glyph-name="uniFB4E" unicode="&#xfb4e;" horiz-adv-x="491" 
d="M158 694c0 4 1.5 7.5 4.5 10.5s6.5 4.5 10.5 4.5h170c4 0 7.5 -1.5 10.5 -4.5s4.5 -6.5 4.5 -10.5v-25c0 -4 -1.5 -7.5 -4.5 -10.5s-6.5 -4.5 -10.5 -4.5h-170c-4 0 -7.5 1.5 -10.5 4.5s-4.5 6.5 -4.5 10.5v25zM154 443c-20 -9.33301 -29.334 -23.665 -28.001 -42.998
c0.666992 -10 6.16699 -17.333 16.5 -22s23 -7 38 -7h47.5c15.333 0 29 -4.83301 41 -14.5s19.667 -22.834 23 -39.501c8.66699 -40.667 -1.33301 -69.667 -30 -87c-26 -16.667 -71.667 -18.667 -137 -6c-3.33301 -2.66699 -8.83301 -7.5 -16.5 -14.5
s-14.167 -12.5 -19.5 -16.5c-11.333 -9.33301 -21 -10 -29 -2c-4 4 -5.33301 8.66699 -4 14s4 10 8 14c14.667 12.667 23.667 20.667 27 24c-16 14.667 -26.667 29.5 -32 44.5s-7 33.167 -5 54.5c4 38 27.667 74.667 71 110c-12.667 5.33301 -23 12.333 -31 21
s-13 15.834 -15 21.501s-4 13.5 -6 23.5c-8 36.667 -3.33301 73.334 14 110.001c10.667 21.333 21 22.333 31 3c5.33301 -10.667 12.833 -18.334 22.5 -23.001s20 -7 31 -7s23.167 -0.333008 36.5 -1c1.33301 0 9.5 -0.333008 24.5 -1s25.667 -1.33398 32 -2.00098
s16.833 -2 31.5 -4s26.667 -4.5 36 -7.5s19.833 -7 31.5 -12s22.167 -11.333 31.5 -19s17.333 -16.167 24 -25.5c21.333 -30.667 35.333 -74.834 42 -132.501s8.66699 -128.167 6 -211.5c-0.666992 -16.667 -3 -30.334 -7 -41.001l-51 -123c-6.66699 -14 -17 -21 -31 -21
h-344c-16 0 -21.333 7.33301 -16 22l48 117c6 14 16.333 21 31 21h323c10 0 15.667 5.33301 17 16c1.33301 102.667 -10.334 171.334 -35.001 206.001c-13.333 18 -31.666 31.667 -54.999 41s-45.333 14.333 -66 15s-44.167 1.16699 -70.5 1.5s-45.166 1.5 -56.499 3.5z" />
    <glyph glyph-name="uniFB4F" unicode="&#xfb4f;" horiz-adv-x="593" 
d="M136 554c43.333 -45.333 83.6631 -83.335 120.996 -114.002l100 -85c7.33301 -4.66699 13 -3.33398 17 3.99902c16 30 26 49 30 57c5.33301 10.667 3.33301 19.667 -6 27c-16 14 -27.5 26 -34.5 36s-12.167 24 -15.5 42c-4 25.333 -0.666992 49 10 71
c9.33301 18.667 22 33.334 38 44.001c10 6 17.5 8.83301 22.5 8.5s8.83301 -3.83301 11.5 -10.5s6.33398 -15 11.001 -25c4 -8.66699 12.667 -17.334 26 -26.001l29 -18c10 -6 20.333 -14.667 31 -26s17.667 -23.666 21 -36.999c3.33301 -12.667 5.33301 -24.334 6 -35.001
s-0.666016 -21.834 -3.99902 -33.501s-6.16602 -20.334 -8.49902 -26.001s-6.5 -14.834 -12.5 -27.501c-4 -8.66699 -9 -15 -15 -19s-11 -3.66699 -15 1c-10 16 -23.667 29 -41 39c-12 6.66699 -20.667 4.33398 -26 -6.99902l-30 -56c-3.33301 -8 -2 -14.333 4 -19
c48 -39.333 82.333 -72.166 103 -98.499s32.334 -58.5 35.001 -96.5c1.33301 -21.333 -2 -42.666 -10 -63.999s-19.667 -38 -35 -50c-6.66699 -5.33301 -12.5 -8.5 -17.5 -9.5s-8.66699 0 -11 3s-4.5 6.83301 -6.5 11.5s-3.16699 10.167 -3.5 16.5s-0.833008 12.5 -1.5 18.5
c-1.33301 16 -13 36.333 -35 61s-47.333 48.667 -76 72l-89 74c-50.667 42.667 -95.667 82.334 -135 119.001c-40.667 39.333 -63.334 72 -68.001 98c-2.66699 13.333 -4 27.333 -4 42c-0.666992 50.667 -0.666992 93.667 0 129s3.33398 60 8.00098 74
c5.33301 14.667 12.833 28 22.5 40s14.5 20.333 14.5 25c-0.666992 6 -6.5 13.833 -17.5 23.5s-17.167 15.834 -18.5 18.501c-4 7.33301 -4.33301 23.333 -1 48c1.33301 9.33301 3.5 16.166 6.5 20.499s9.16699 5.83301 18.5 4.5c22.667 -3.33301 41 -15.166 55 -35.499
s21 -37.5 21 -51.5c0 -10 -9 -24.667 -27 -44s-27.333 -29.666 -28 -30.999c-4 -6 -6.66699 -12.667 -8 -20s-2 -16.166 -2 -26.499v-38.5c0 -36.667 13.333 -69.334 40 -98.001z" />
    <glyph glyph-name=".null" 
 />
    <glyph glyph-name="nonmarkingreturn" horiz-adv-x="400" 
 />
    </font>
</defs>
</svg>
