<?xml version="1.0" standalone="no"?>
<!DOCTYPE svg PUBLIC "-//W3C//DTD SVG 1.1//EN" "http://www.w3.org/Graphics/SVG/1.1/DTD/svg11.dtd" >
<svg xmlns="http://www.w3.org/2000/svg" xmlns:xlink="http://www.w3.org/1999/xlink" version="1.1">
<metadata>
Created by FontForge 20170910 at Mon Aug 30 09:41:11 2010
 By Jimmy Wärting
Created by Elad Mizrahi and Miri kosov with FontForge 2.0
</metadata>
<defs>
<font id="Miri" horiz-adv-x="1151" >
  <font-face 
    font-family="Miri"
    font-weight="500"
    font-stretch="normal"
    units-per-em="1000"
    panose-1="2 0 6 3 0 0 0 0 0 0"
    ascent="800"
    descent="-200"
    bbox="-291 -653.053 1543.02 1304.14"
    underline-thickness="50"
    underline-position="-150"
    unicode-range="U+0021-05EA"
  />
<missing-glyph horiz-adv-x="364" 
d="M33 0v666h265v-666h-265zM66 33h199v600h-199v-600z" />
    <glyph glyph-name=".notdef" horiz-adv-x="364" 
d="M33 0v666h265v-666h-265zM66 33h199v600h-199v-600z" />
    <glyph glyph-name=".null" horiz-adv-x="0" 
 />
    <glyph glyph-name="nonmarkingreturn" horiz-adv-x="333" 
 />
    <glyph glyph-name="exclam" unicode="!" horiz-adv-x="257" 
d="M69 -189q-21 13 -28.5 25t-7.5 28q0 31 25 46t56 6.5t46 -36.5t15 -44.5t-16 -31.5q-17 -17 -38 -15t-52 22zM74 68q-14 10 -16.5 39.5t-0.5 157.5q2 185 22 442t33 272t43.5 14.5t46.5 -15.5q15 -15 15 -62t-15 -224q-15 -184 -22 -388q-2 -58 -3.5 -95t-5 -67t-7 -45.5
t-10.5 -26.5t-14.5 -13.5t-20.5 -2.5q-24 0 -45 14z" />
    <glyph glyph-name="quotedbl" unicode="&#x22;" horiz-adv-x="430" 
d="M50 407q-16 17 -16 41t16 90q17 70 11 121q-6 47 8 72t47 25q26 0 39 -8t25 -30q21 -39 6.5 -159.5t-44.5 -152.5q-16 -17 -45.5 -17t-46.5 18zM245 449q-19 19 -20 34t15 66q16 52 26 127q5 43 12 62.5t21 30.5q24 19 44 16.5t40 -26.5q15 -19 18 -35t-2 -58
q-7 -65 -27 -131.5t-37 -85.5q-18 -19 -44 -19t-46 19z" />
    <glyph glyph-name="numbersign" unicode="#" 
d="M845 1026q14 1 23 -4t19 -19q12 -19 10.5 -39t-20.5 -102q-27 -115 -19.5 -122.5t110.5 9.5q63 11 85.5 11.5t33.5 -7.5q15 -12 16 -35.5t-13 -34.5q-13 -11 -133.5 -31t-136.5 -36q-15 -14 -41 -140.5t-16 -135.5q10 -10 167 15t177 20q8 -2 17 -10.5t14 -18.5
q7 -15 5 -23.5t-15 -21.5q-13 -12 -53.5 -22t-143.5 -26q-97 -15 -141.5 -26.5t-61.5 -25.5t-17 -39q0 -36 -19 -111.5t-32 -88.5q-17 -19 -43 -16q-34 4 -39 29.5t11 106.5q19 98 9 107q-9 9 -115 -1q-9 -1 -26 -3q-102 -9 -116 -18q-12 -7 -16 -35v-3q-1 -5 -1 -8
q-14 -104 -25 -143t-31 -54q-24 -19 -34 -19t-33 17q-17 14 -18.5 28t8.5 77q13 89 28 147q16 63 25 128q8 65 16 104q7 37 -3.5 43.5t-86 -9t-105.5 -15.5q-40 0 -58 34.5t8 60.5q16 14 143.5 37.5t145.5 36t27 77.5q9 68 31 161q14 56 23.5 79t25 32.5t25.5 10.5t26 -6
q28 -13 31.5 -45t-14.5 -108q-10 -40 -15 -67t-6.5 -44.5t1.5 -25.5t11 -8q14 0 109.5 22t110.5 29q18 8 31.5 42t31.5 122q16 72 26 103.5t22 43.5t34 14h10zM652 572q-22 1 -69 -13l-112 -31q-44 -11 -57 -26q-10 -12 -26 -83.5t-16 -103.5q0 -11 4.5 -16t22.5 -6t45.5 2
t80.5 10q55 8 72 14.5t25 23.5q14 29 30 124t8 103q-2 2 -8 2z" />
    <glyph glyph-name="dollar" unicode="$" 
d="M605 1190q8 0 26 -11q19 -12 23 -28t-1.5 -49.5t-26.5 -112.5q-32 -122 -32 -153q0 -21 5.5 -26t26.5 -5q22 0 33 12.5t17.5 45t13.5 105.5q6 68 12 91t21 35q22 17 37.5 16.5t35.5 -19.5q15 -15 17 -33.5t-3 -86.5q-7 -100 -21 -151q-15 -52 -30 -165q-14 -112 -34 -203
l-19 -89l23 -17q21 -16 55 -34q55 -29 70.5 -91.5t-19.5 -111.5q-52 -75 -143 -86q-49 -6 -94 -16q-90 -20 -183 1q-46 10 -59 -0.5t-38 -100.5q-25 -92 -42.5 -116.5t-49.5 -11.5q-15 6 -12 39.5t26 113.5q0 2 1 6q7 25 10 35t5.5 26.5t3 21t-4.5 15.5t-9 14t-17 12.5
t-22.5 14t-32.5 16.5q-3 1 -5 2q-64 33 -111 70t-47 56q0 18 13.5 30t33.5 12q22 0 75 -37q117 -81 147 -69q7 2 14.5 19t12.5 39q11 52 40 131l27 79l-27 46q-39 63 -24.5 129t74.5 98q42 23 58 50.5t23 87.5q8 71 43 200q20 76 32.5 105.5t26.5 38.5q17 10 25 10zM612 712
q-28 -1 -44 -16t-21 -43q-5 -25 -27 -89q-23 -65 -20.5 -87.5t33.5 -35.5q37 -15 50 -13t22 23q10 27 26 135t10.5 116.5t-22.5 9.5q-3 1 -7 0zM478 345q-12 0 -20.5 -14t-20.5 -55q-31 -103 -26 -123q3 -17 34 -24q4 -1 11 -2q48 -8 68 -5t27 21q14 34 23.5 84t4.5 64
q-5 16 -41 35t-60 19zM699 229q-17 -1 -30 -45q-12 -42 1.5 -52t48.5 14q22 15 23 40t-21 36q-13 7 -22 7z" />
    <glyph glyph-name="percent" unicode="%" horiz-adv-x="755" 
d="M-17 -253q-19 18 -3.5 54t89.5 148q134 201 253 420t247 496q70 154 85 168q16 15 42.5 7t32.5 -31q5 -21 -28 -100.5t-136 -292.5q-104 -215 -225.5 -426t-228.5 -362q-47 -67 -76 -85t-52 4zM481 -63q-56 26 -71 86q-8 31 23 61.5t75 36.5q43 5 79.5 -10.5t55 -41.5
t16 -59.5t-30.5 -60.5q-27 -26 -66 -29t-81 17zM108 693q-20 25 -20 53t20 69q24 48 40.5 56.5t64.5 -1.5q54 -12 85.5 -37.5t31.5 -57.5t-13 -49q-20 -25 -59.5 -42.5t-77.5 -17.5q-31 0 -44.5 5t-27.5 22zM224 769q0 -8 -14.5 -14t-21 0t-0.5 14.5t21 8.5t15 -9z" />
    <glyph glyph-name="ampersand" unicode="&#x26;" horiz-adv-x="783" 
d="M421 1254q65 0 128 -30q65 -31 92 -68t31 -103q5 -90 -41.5 -190t-187.5 -302q-66 -95 -87.5 -132.5t-17.5 -51.5q4 -15 47.5 -53t64.5 -45q15 -5 57.5 58.5t83.5 148t52 134.5q13 61 22 79q10 20 41.5 17.5t46.5 -24.5q26 -38 -15 -156t-122 -238q-49 -72 -49 -92
q0 -8 17 -27.5t41 -39.5q94 -78 55 -116q-11 -10 -25 -7q-19 5 -144 69l-40 21l-93 -92q-52 -53 -81.5 -75.5t-53.5 -28.5q-43 -12 -60.5 -10.5t-48.5 19.5q-73 44 -62 151q5 42 33.5 109t59.5 110q26 34 21.5 59.5t-41.5 60.5q-111 104 -126.5 267.5t71.5 332.5
q59 117 146.5 181t184.5 64zM420 1156q-46 0 -91 -24.5t-81 -66.5t-65.5 -97.5t-44 -116.5t-17 -123.5t16.5 -119.5q14 -47 46.5 -92t51.5 -45t137 172q129 185 173.5 286t19.5 152q-13 26 -60 50.5t-86 24.5zM281 254q-2 0 -4 -1q-14 -5 -52.5 -76.5t-44.5 -105.5
q-12 -60 13 -60q29 0 106 77q32 32 54.5 58.5t22.5 32.5q0 14 -38.5 44t-56.5 31z" />
    <glyph glyph-name="quotesingle" unicode="'" horiz-adv-x="226" 
d="M61 429q-16 18 -16 42t16 90q16 70 10 121q-5 47 9 72t46 25q26 -1 39.5 -8.5t25.5 -29.5q21 -39 6.5 -159.5t-44.5 -152.5q-17 -18 -46 -17.5t-46 17.5z" />
    <glyph glyph-name="parenleft" unicode="(" horiz-adv-x="362" 
d="M365 -158q-127 82 -203 182t-117 238q-25 85 -25 207.5t25 207.5q29 96 79.5 182.5t88.5 103.5q15 6 24 4.5t22 -12.5q42 -36 -6 -98q-123 -158 -125 -382q0 -93 14 -155t56 -146q34 -69 92.5 -133t130.5 -111q51 -33 51 -56q0 -36 -34 -46t-73 14z" />
    <glyph glyph-name="parenright" unicode=")" horiz-adv-x="290" 
d="M52 -89.5q-18 19.5 -16 35.5t29 67q38 73 53 141.5t14 167.5q-1 267 -162 503q-43 64 -49 89.5t17 45.5q37 33 81.5 -11t116.5 -183q61 -118 86.5 -219t25.5 -225q0 -111 -18 -193.5t-61 -164.5q-22 -44 -34 -56t-33 -14q-32 -3 -50 16.5z" />
    <glyph glyph-name="asterisk" unicode="*" horiz-adv-x="999" 
d="M122 -80q-12 18 -11.5 28.5t15.5 41.5q20 44 106.5 181t80.5 143t-131 2l-126 -3l-22 28q-20 25 -21.5 38.5t13.5 33.5q10 13 35.5 17.5t108.5 8.5q129 6 139.5 16.5t-18.5 65.5t-83 139t-92 133q-65 83 -26 115q33 26 90 -34.5t155 -223.5q71 -120 86 -132
q18 -14 35.5 1t50.5 74q55 95 120 205t79 128q12 16 31 19.5t35 -3t26 -22.5t5 -35q-9 -32 -181 -319q-49 -82 -49 -101q0 -14 12 -16t65 2q77 6 191 19q77 9 98.5 8t33.5 -12q15 -15 10 -41t-25 -32q-19 -6 -134 -21t-190 -21q-70 -7 -77 -14q-5 -5 -5 -22q0 -28 62 -119
q58 -86 89 -135.5t46.5 -83t13 -48t-18.5 -22.5q-42 -22 -72 34q-19 35 -104.5 162.5t-100.5 143.5q-12 12 -21.5 13t-26.5 -16t-38 -48t-59 -92l-106 -172q-20 -31 -48 -34.5t-46 22.5z" />
    <glyph glyph-name="plus" unicode="+" horiz-adv-x="602" 
d="M165 310q-111 10 -135 25q-22 14 -23 38t19 42q13 11 32 12t81 -6q56 -7 77 -6.5t29 8.5q12 13 24 103q13 93 27.5 119t54.5 26q45 0 56 -25.5t-3.5 -97t-15.5 -109.5q0 -30 11 -35q13 -8 98 -4q67 3 94 -28q25 -29 -12 -56l-2 -2q-21 -13 -143.5 -14.5t-268.5 10.5z" />
    <glyph glyph-name="comma" unicode="," horiz-adv-x="212" 
d="M62 -65q-16 15 -16.5 38.5t15.5 43.5q17 22 14.5 50.5t-23.5 52.5q-42 48 -43.5 77.5t36.5 48.5q26 14 58 -6.5t56 -58t35.5 -85.5t0.5 -84q-18 -58 -60.5 -82t-72.5 5z" />
    <glyph glyph-name="hyphen" unicode="-" horiz-adv-x="801" 
d="M117 296q-57 14 -76.5 33.5t-8.5 52.5q15 46 95 27q92 -21 236 -4.5t273 63.5q67 24 90 24.5t39 -23.5q28 -42 -16.5 -72.5t-192.5 -71.5q-63 -17 -110.5 -22.5t-148.5 -8.5q-159 -3 -180 2z" />
    <glyph glyph-name="period" unicode="." horiz-adv-x="165" 
d="M72 18q-21 11 -37 35t-17 45q0 14 26.5 36.5t44.5 22.5q15 0 41 -25t26.5 -60t-24.5 -52q-21 -15 -28.5 -15t-31.5 13z" />
    <glyph glyph-name="slash" unicode="/" horiz-adv-x="826" 
d="M-47 -231q-12 21 -12 42q0 29 112.5 211.5t307.5 468.5l207 322q104 169 126 193q21 22 44.5 19.5t44.5 -30.5l21 -27l-28 -54q-65 -128 -370 -581q-175 -261 -270 -419q-78 -130 -96 -148q-13 -12 -37 -14q-23 -2 -33.5 2t-16.5 15z" />
    <glyph glyph-name="zero" unicode="0" horiz-adv-x="930" 
d="M218 -10q-69 23 -119.5 80.5t-72.5 131t-15.5 160.5t45.5 166q13 26 33.5 57t36.5 49q31 33 96.5 68t96.5 35q18 0 42.5 -18t24.5 -31q0 -15 -25 -38.5t-46 -27.5q-43 -8 -84 -45t-69 -92q-24 -46 -30 -71.5t-5 -79.5q0 -127 52 -189t159 -62q51 0 121 23t127 58
q54 33 114.5 95.5t79.5 106.5q31 66 19 130t-63 100q-26 19 -116.5 29.5t-108.5 15.5q-21 6 -30.5 25.5t-3.5 40t26 30.5q18 10 111.5 0t139.5 -26q40 -14 81 -55.5t63 -89.5t18 -119t-33 -129q-41 -85 -123.5 -161t-187.5 -125q-201 -93 -354 -42z" />
    <glyph glyph-name="one" unicode="1" horiz-adv-x="203" 
d="M44 69q-16 15 -15.5 49.5t18.5 174.5q21 153 28 247q4 56 10 78.5t18 33.5q14 13 22 13.5t28 -10.5q19 -10 24 -23t7 -55q4 -72 -24.5 -281t-44.5 -225.5t-35.5 -17t-35.5 15.5z" />
    <glyph glyph-name="two" unicode="2" horiz-adv-x="585" 
d="M209 -81l-95 26q-26 6 -49 16t-28 17q-17 22 -13 58t25 57q30 32 164.5 226t151.5 231q21 45 13 56q-13 21 -171 -23q-56 -16 -69.5 -16.5t-28.5 13.5q-22 18 -21 47t23 44q30 18 113 37.5t134 19.5q117 0 143 -77q19 -56 -19 -137.5t-166 -259.5q-89 -122 -108 -156
t-7 -47q17 -16 96.5 -17t131.5 14q63 19 80 9q40 -24 33.5 -59t-54.5 -59q-27 -14 -56.5 -19t-89.5 -6q-101 -3 -133 5z" />
    <glyph glyph-name="three" unicode="3" horiz-adv-x="682" 
d="M185 -52q-48 16 -71 42.5t-10 50.5q16 28 38 34t55 -8q48 -20 111 -17.5t113 27.5q45 22 82 64t37 71q0 20 -20.5 39.5t-48.5 30t-57 13t-45 -13.5q-23 -20 -83.5 -19.5t-83.5 20.5q-34 29 -17 75.5t72 78.5q46 26 67 26q17 0 39.5 20t30.5 42q8 21 -12 30.5t-71 9.5
q-40 0 -67 -7t-72 -29q-62 -31 -89 -34t-47 18q-38 42 29 93q71 54 188 73q78 12 139 -2q59 -14 93 -48t34 -80t-23 -89q-14 -26 -15.5 -36t7.5 -15q15 -9 70 -39q62 -34 85 -89t9 -113t-65.5 -114t-129.5 -90q-59 -26 -137 -30.5t-135 15.5z" />
    <glyph glyph-name="four" unicode="4" horiz-adv-x="616" 
d="M593 359l-2 -145q-6 -18 -7 -136.5t4 -169.5q8 -91 -48 -97q-35 -3 -47 30t-14 135q-3 122 -6 170l-3 47l-67 -1q-67 0 -122 13q-56 13 -120.5 63t-100.5 108q-24 39 -32 65.5t-15 93.5q-9 82 2 138.5t46 103.5q21 27 38 31.5t43 -10.5q24 -14 25 -38t-22 -81
q-16 -43 -18.5 -65.5t5.5 -72.5q7 -46 16 -69.5t31 -53.5q35 -47 87 -73.5t106 -25.5q26 0 40.5 3.5t25.5 13.5t14 27t5 45t-2 68q-5 87 6.5 114.5t51.5 26.5q31 0 47.5 -37t23.5 -122z" />
    <glyph glyph-name="five" unicode="5" horiz-adv-x="898" 
d="M278 -73q-83 19 -164 68t-92 87q-7 23 21 49q24 23 46 19.5t72 -40.5q71 -52 187 -72.5t174 8.5q40 21 44.5 47.5t-20.5 84.5q-11 23 -20.5 37.5t-28 28t-40 21t-62.5 16t-88 14.5t-123 14q-82 9 -114 25.5t-44 57.5q-8 25 -7 45t13 59q9 33 17 54.5t21 41.5t25.5 30.5
t36 19t48 11t65.5 2.5t83.5 -3.5t107.5 -9.5q165 -17 242 -15.5t115 22.5q29 16 40 17t30 -10q26 -14 31 -37.5t-12 -48.5q-33 -48 -121.5 -59t-293.5 8q-191 17 -238 14q-33 -3 -43.5 -9.5t-24.5 -34.5q-15 -29 -15 -36t14 -17q20 -14 70 -14q215 0 335 -83t120 -231
q0 -66 -35 -112.5t-102 -69.5q-43 -14 -125 -14t-145 15z" />
    <glyph glyph-name="six" unicode="6" horiz-adv-x="1031" 
d="M469 -143q-140 30 -249.5 100t-160.5 163q-25 46 -25.5 125t24.5 132q36 74 144.5 165t246.5 163.5t253 97.5q44 10 67 5t35 -27q21 -36 -3 -58.5t-104 -42.5q-96 -24 -243 -108.5t-220 -159.5q-86 -88 -80.5 -178t100.5 -158q110 -78 271 -107.5t259 9.5
q44 18 79.5 51.5t35.5 56.5q0 54 -65 99t-143 46q-32 0 -47.5 -5t-29.5 -19q-23 -24 -23 -34q0 -13 -21 -28.5t-39 -15.5q-21 0 -38.5 19t-17.5 41q0 30 28 70t63 60q47 26 106 30t116 -13.5t107 -48.5t84.5 -77.5t42.5 -97.5q11 -74 -52.5 -146.5t-167.5 -103.5
q-57 -18 -158 -19t-175 14z" />
    <glyph glyph-name="seven" unicode="7" horiz-adv-x="1090" 
d="M473 -68q-16 15 -11.5 41.5t29.5 75.5q31 60 38 103l7 42l-99 -1q-86 -2 -124 10.5t-42 43.5q-5 40 21 54t113 18q54 3 82 7t45 15.5t20.5 28t0.5 48.5q-5 54 -37 103t-82 79q-32 18 -56.5 25t-70.5 9q-51 2 -73 -2.5t-63 -25.5q-54 -28 -78 -30t-41 21q-18 24 -15 41.5
t28 40.5q43 40 97.5 57t138.5 17q67 0 94 -5t68 -25q62 -30 118.5 -89t75.5 -113t25 -120l6 -67l48 2q47 2 169 12q102 9 136 0t34 -43q0 -57 -91 -58q-51 -1 -168.5 -14.5t-135.5 -20.5q-8 -3 -15 -13.5t-10 -21.5q-19 -82 -45 -146t-52 -93q-14 -15 -42.5 -17t-42.5 11z
" />
    <glyph glyph-name="eight" unicode="8" horiz-adv-x="851" 
d="M212.5 -232q-47.5 17 -106.5 74q-59 56 -78.5 109.5t-14.5 146.5t38 157.5t113 136.5q62 55 68 69q5 10 -5 31q-15 34 -13 86.5t21 92.5q29 63 82 101.5t122 47.5q92 12 92 -46q0 -28 -15.5 -40t-58.5 -18q-69 -11 -106.5 -64.5t-18.5 -112.5q9 -23 17.5 -30.5t30.5 -9.5
q40 -4 94 16.5t89 52.5q34 31 39.5 52.5t-13.5 45.5q-14 19 -15 41t10 37t29.5 23.5t41.5 -0.5q27 -9 52 -54.5t25 -84.5q0 -59 -46.5 -115.5t-123.5 -93.5t-162 -42q-67 -4 -113.5 -26t-88.5 -70q-55 -62 -72.5 -138.5t5 -145.5t81.5 -108q31 -22 52 -26.5t85 -4.5t89 6
t79 33q102 53 162 126.5t49 132.5q-7 34 -55 81q-19 20 -33 38t-14 24q0 14 22 34.5t37 20.5q19 0 66.5 -46t66.5 -84q52 -103 -23.5 -224.5t-241.5 -200.5q-62 -30 -90.5 -36.5t-99.5 -8.5q-103 -3 -150.5 14z" />
    <glyph glyph-name="nine" unicode="9" horiz-adv-x="568" 
d="M350 -289q-11 12 -8 37q4 29 44 208q38 164 38 184q0 14 -15.5 20.5t-73.5 17.5q-84 15 -138.5 40t-97.5 67q-78 78 -78 202q1 114 83 192.5t200 78.5q111 1 180 -44q53 -34 29 -67q-7 -9 -19 -16q-17 -11 -29.5 -10.5t-49.5 14.5q-74 26 -135 18.5t-102.5 -48
t-47.5 -102.5q-5 -50 3 -78t38 -60q89 -97 301 -97q52 0 65.5 -3.5t13.5 -14.5q0 -50 -52.5 -278t-69.5 -253q-14 -20 -39 -22.5t-40 14.5z" />
    <glyph glyph-name="colon" unicode=":" horiz-adv-x="203" 
d="M82 165q-67 32 -26 75q31 33 78 13q39 -15 45 -48q4 -19 -9 -37q-14 -19 -33 -20t-55 17zM42 429q-23 15 -23.5 39.5t20.5 31.5q23 7 54 -1t47 -25q26 -28 -2 -49t-71 -8q-14 4 -25 12z" />
    <glyph glyph-name="semicolon" unicode=";" horiz-adv-x="251" 
d="M54 -70q-43 29 0 109q14 26 18.5 49.5t3.5 66.5q-1 61 12 84t50 23q35 0 51 -30.5t15 -96.5q-1 -63 -22.5 -119.5t-53.5 -81.5q-24 -18 -37.5 -18.5t-36.5 14.5zM118 462q-34 23 -19 49.5t62 26.5q25 0 38 -15.5t10 -42.5q-2 -18 -9 -24t-27 -8q-31 -3 -55 14z" />
    <glyph glyph-name="equal" unicode="=" horiz-adv-x="649" 
d="M157 222q-99 14 -132 32.5t-22 53.5q9 27 34 33.5t79 -3.5q64 -13 220 -6.5t169 -5.5q15 -14 12.5 -42t-19.5 -36q-31 -17 -153.5 -26t-187.5 0zM7 443q-43 34 -11 68q12 14 59.5 17.5t258.5 7.5l300 5l16 -24q14 -20 7 -40.5t-32 -30.5q-19 -8 -300 -13
q-168 -2 -228 -0.5t-70 10.5z" />
    <glyph glyph-name="question" unicode="?" horiz-adv-x="898" 
d="M401 -233q-27 11 -45 28t-18 33q0 19 21.5 35t48.5 16q18 0 34.5 -9.5t26.5 -23.5t15 -29t0.5 -29t-18.5 -21q-19 -10 -29 -9.5t-36 9.5zM354 150q-16 16 -16 39q0 25 55 85.5t132 120.5q125 97 172.5 145t58.5 91q13 47 4 79.5t-41 59.5q-67 54 -217 53
q-113 -2 -210 -36t-166 -96q-40 -36 -59 -42t-42 10q-47 34 11 100q64 73 196 126q51 20 102 32q75 17 202 13q91 -2 119.5 -8t80.5 -31q74 -36 105 -78.5t36 -111.5q6 -102 -37 -170.5t-184 -176.5q-52 -41 -105.5 -87.5t-76.5 -71.5q-43 -48 -69.5 -58t-50.5 13z" />
    <glyph glyph-name="at" unicode="@" horiz-adv-x="1186" 
d="M794 1201q103 0 187.5 -56t136.5 -162q34 -70 46.5 -132.5t12.5 -164.5q0 -75 -5 -113.5t-20 -85.5q-37 -114 -108 -222.5t-140 -156.5q-132 -93 -231 5l-35 35l-79 -40q-79 -41 -124.5 -41.5t-89.5 37.5q-43 37 -53 75q-27 91 5 239.5t96 228.5q36 46 90 70t110 21
t108 -24t91 -65t52 -101q10 -44 -3.5 -85t-61.5 -114q-43 -66 -49 -90.5t12 -58.5q20 -37 50.5 -29.5t87.5 63.5q107 106 158 256t29 291q-18 111 -67.5 190t-119.5 110q-91 40 -211.5 -10t-237.5 -174t-199 -292q-84 -172 -106.5 -342t20.5 -301t143 -192q40 -24 94.5 -42
t88.5 -18q37 0 56 -33.5t-5 -56.5q-14 -14 -66 -11.5t-104 18.5q-249 77 -322 339q-19 67 -19 184.5t19 203.5q51 236 189 446t315 320q131 81 259 81zM583 638q-10 0 -20 -2q-30 -6 -65 -35t-54 -65q-37 -70 -51.5 -189.5t10.5 -153.5q17 -24 40 -20.5t90 38.5
q53 29 69.5 44.5t34.5 55.5q27 58 65 112q34 48 37.5 83t-22.5 70q-19 26 -58.5 44t-75.5 18z" />
    <glyph glyph-name="bracketleft" unicode="[" horiz-adv-x="948" 
d="M139 -276q-87 18 -111 79t3 195q43 215 31 654l-7 277l32 34l32 35l211 1q210 2 229 -8t16 -47q-2 -24 -9.5 -35.5t-30 -19t-64.5 -6t-113 2.5q-160 6 -168 -6t-6 -320q1 -224 -6 -343.5t-29 -255.5q-13 -82 -6 -99q9 -21 58 -23q17 -1 61 -1q108 0 294 20
q79 9 128.5 13.5t90.5 5.5t62 -1.5t35.5 -10.5t19 -19.5t4.5 -29.5q0 -26 -15 -38t-49 -12q-37 0 -218 -20q-161 -18 -297 -24t-178 2z" />
    <glyph glyph-name="backslash" unicode="\" horiz-adv-x="826" 
d="M834 -231q12 21 12 42q0 29 -112.5 211.5t-307.5 468.5l-207 322q-104 169 -126 193q-21 22 -44.5 19.5t-44.5 -30.5l-21 -27l28 -54q65 -128 370 -581q175 -261 270 -419q78 -130 96 -148q13 -12 37 -14q23 -2 33.5 2t16.5 15z" />
    <glyph glyph-name="bracketright" unicode="]" horiz-adv-x="766" 
d="M479 -396q-19 16 -58.5 30t-124.5 35q-159 40 -215 61.5t-62 46.5q-7 25 4 42t35 20q26 3 191.5 -43t195.5 -49q20 -2 26 6q14 18 34 183q4 36 19 160q33 281 64.5 450t37.5 261q2 35 3 53.5t-3 35.5t-9 23.5t-20 12t-31.5 6t-47.5 0.5q-84 -1 -230.5 -19t-172.5 -7
q-24 11 -31 37.5t8 49.5q11 16 39 23t130 20q321 42 406 -1q18 -9 36.5 -25.5t27.5 -30.5q26 -42 22 -165.5t-35 -288.5q-29 -150 -65 -438.5t-39 -384.5q-2 -87 -14 -110q-14 -25 -50.5 -23.5t-70.5 29.5z" />
    <glyph glyph-name="asciicircum" unicode="^" horiz-adv-x="617" 
d="M502 160q-17 16 -39 89q-90 301 -147 350q-18 15 -23.5 15t-18.5 -16q-18 -22 -59 -157q-38 -127 -70.5 -179t-72.5 -52q-44 0 -49.5 21.5t24.5 73.5q33 59 67 171q43 142 79 191t96 49q53 0 88 -29t76 -109q20 -38 47 -108t46 -131q31 -102 35.5 -128.5t-6.5 -42.5
q-14 -21 -35 -23t-38 15z" />
    <glyph glyph-name="underscore" unicode="_" horiz-adv-x="1555" 
d="M23 -42q-23 23 -25 39t17 38q13 16 38 21q44 9 437 25l1 1h1h1h1h1h1h1h1h1h1h1h1h1h1h2q355 15 678 33l322 17l20 -24q20 -23 16.5 -49.5t-28.5 -43.5q-22 -15 -228.5 -29t-742.5 -36q-87 -4 -190 -6t-166 -3t-76 -2q-41 -4 -55.5 -1t-32.5 20z" />
    <glyph glyph-name="grave" unicode="`" horiz-adv-x="226" 
d="M97 431q-22 18 -30 42t-12 90q-6 69 -28 121q-21 47 -14.5 72t39.5 24q26 0 41.5 -7.5t34.5 -29.5q33 -39 56.5 -160t4.5 -152q-11 -18 -40.5 -18t-51.5 18z" />
    <glyph glyph-name="braceleft" unicode="{" horiz-adv-x="1083" 
d="M449 -16q-15 17 -9 40.5t29 33.5q26 12 101 39q163 58 281 169q63 60 89.5 109t26.5 105q0 87 -57 141t-148 54q-80 0 -149 -43t-111 -119q-14 -26 -28 -44.5t-19.5 -18.5t-17 14.5t-21.5 34.5q-43 77 -132.5 149.5t-135.5 65.5q-24 -3 -34 -32q-13 -34 14 -113.5
t108 -246.5q80 -165 97 -225.5t-12 -75.5q-29 -14 -48.5 -1t-37.5 59q-22 57 -100 217q-72 147 -98.5 220.5t-27.5 133.5q-3 110 78 151q56 28 135 0t167 -107l64 -57l42 36q43 36 111 67q46 22 73 27t87 5q53 0 80.5 -5t52.5 -18q51 -25 84 -55.5t56 -73.5q18 -33 23.5 -58
t5.5 -81q0 -59 -6 -83.5t-30 -69.5q-14 -27 -42.5 -63.5t-53.5 -60.5q-71 -68 -178.5 -130.5t-197 -89t-111.5 -0.5z" />
    <glyph glyph-name="bar" unicode="|" horiz-adv-x="227" 
d="M115 -219q-25 -22 -41 -22.5t-37 19.5q-15 15 -18 40q-6 48 4 453q9 355 13 678l4 323l25 19q24 17 50.5 12t41.5 -31q14 -23 14 -230t-13 -743q-2 -87 -7 -190t-8 -166t-3 -76q1 -41 -3 -55t-22 -31z" />
    <glyph glyph-name="braceright" unicode="}" horiz-adv-x="1083" 
d="M449 -16q-15 17 -9 40.5t29 33.5q26 12 101 39q163 58 281 169q63 60 89.5 109t26.5 105q0 87 -57 141t-148 54q-80 0 -149 -43t-111 -119q-14 -26 -28 -44.5t-19.5 -18.5t-17 14.5t-21.5 34.5q-43 77 -132.5 149.5t-135.5 65.5q-24 -3 -34 -32q-13 -34 14 -113.5
t108 -246.5q80 -165 97 -225.5t-12 -75.5q-29 -14 -48.5 -1t-37.5 59q-22 57 -100 217q-72 147 -98.5 220.5t-27.5 133.5q-3 110 78 151q56 28 135 0t167 -107l64 -57l42 36q43 36 111 67q46 22 73 27t87 5q53 0 80.5 -5t52.5 -18q51 -25 84 -55.5t56 -73.5q18 -33 23.5 -58
t5.5 -81q0 -59 -6 -83.5t-30 -69.5q-14 -27 -42.5 -63.5t-53.5 -60.5q-71 -68 -178.5 -130.5t-197 -89t-111.5 -0.5z" />
    <glyph glyph-name="afii57664" unicode="&#x5d0;" horiz-adv-x="789" 
d="M88 11q-36 21 9 117q28 61 58 229q28 164 41 199q11 29 11 67q0 34 20 62t49 35t65.5 -10t47.5 -42q16 -37 85.5 -137.5t79.5 -100.5q31 0 62 198q18 112 29 135q12 26 38 31t46 -14q13 -13 15 -23.5t-5 -36.5q-10 -35 -23 -131q-23 -163 -79 -235q-27 -34 -27 -46
q0 -13 47 -98q91 -165 33 -186q-10 -3 -23 -3q-15 0 -23.5 8t-18.5 30q-26 62 -81 166t-65 112q-16 12 -81 108q-66 96 -88 96q-7 0 -12 -8q-7 -13 -53 -274q-30 -175 -87 -233q-19 -21 -33.5 -24t-36.5 9z" />
    <glyph glyph-name="afii57665" unicode="&#x5d1;" horiz-adv-x="1101" 
d="M29 -2q-1 2 -4.5 8t-4.5 8.5t-3 8.5t-2 11t0.5 12.5t2.5 16.5q16 15 33 17.5t76 -1.5q72 -5 172 3t148 23q30 9 40 22.5t31 73.5q28 80 45 178t11 142q-11 74 -50.5 88.5t-126.5 -22.5q-105 -45 -122 22q-7 26 14.5 48t77.5 46q98 42 174.5 28t117.5 -82q19 -30 25 -55.5
t9 -80.5q8 -158 -51 -323q-21 -58 -21 -72q0 -13 42 -17.5t121.5 0.5t186.5 18q40 5 60.5 -5t29.5 -39q3 -9 2 -10q-7 -3 -14 -10q-16 -15 -42 -22t-97 -15q-121 -13 -259 -10q-150 3 -229 -14q-88 -18 -224 -18q-93 0 -121.5 4t-47.5 18z" />
    <glyph glyph-name="afii57666" unicode="&#x5d2;" horiz-adv-x="636" 
d="M-25 -48q-13 19 -8 36t36 62q25 36 95.5 177t88.5 192l16 44l-80 108q-61 82 -75 120t10 57q15 13 45 9q18 -2 40 -25t72 -91q83 -112 115 -144q31 -31 31 -50q0 -8 18 -32.5t43 -49.5q123 -126 148 -156.5t23 -51.5q-3 -27 -32 -36q-27 -9 -59 14.5t-104 104.5t-86 86
q-19 7 -42 -23t-58 -107q-78 -172 -134 -235q-24 -28 -55 -30.5t-48 21.5z" />
    <glyph glyph-name="afii57667" unicode="&#x5d3;" horiz-adv-x="990" 
d="M523 26q-13 13 -16.5 26t0.5 38q6 44 21.5 193t20.5 213q6 68 -3 80q-3 8 -43 7.5t-155 -11.5q-186 -18 -241 -11q-59 8 -81.5 38.5t4.5 65.5q10 13 36 17t115 9q21 1 285 14q147 7 206 22q56 14 157 14q68 0 87.5 -4t37.5 -21q23 -23 24.5 -39t-17.5 -39
q-14 -17 -35 -20.5t-103 -4.5q-120 -2 -129 -11q-11 -11 -22 -148q-30 -385 -58 -426q-15 -23 -41.5 -23.5t-49.5 21.5z" />
    <glyph glyph-name="afii57668" unicode="&#x5d4;" horiz-adv-x="747" 
d="M136 22q-24 17 -24 54q0 38 34 194t46 172q11 15 40 16.5t45 -12.5q17 -15 13.5 -54t-34.5 -186q-17 -80 -28 -120t-24.5 -61.5t-28 -20.5t-39.5 18zM478 44q-18 18 -10 61t53 166q31 83 41 125t11 87q1 65 -16.5 96t-67.5 55q-42 20 -111 18.5t-200 -26.5
q-126 -24 -161.5 -18t-39.5 54q-2 28 10.5 41.5t50.5 24.5t131 28q172 32 269.5 24.5t169.5 -58.5q189 -134 19 -564q-38 -94 -55 -113q-16 -17 -46.5 -17.5t-47.5 16.5z" />
    <glyph glyph-name="afii57669" unicode="&#x5d5;" horiz-adv-x="297" 
d="M95 16q-21 8 -23.5 40t13.5 101q20 88 26 297q4 124 8 168t14 54q17 18 42 17.5t45 -19.5q14 -14 17.5 -42.5t3.5 -134.5q0 -161 -21 -300t-50 -170q-12 -13 -33 -16t-42 5z" />
    <glyph glyph-name="afii57670" unicode="&#x5d6;" horiz-adv-x="974" 
d="M644 16q-15 15 -13.5 36t22.5 72q23 58 14 123.5t-44 99.5q-44 42 -154 -24q-68 -40 -100 -40t-54 41q-14 25 -15.5 89.5t10.5 103.5q10 35 1 44t-110 -17q-95 -26 -122 -26q-35 0 -52 41.5t8 66.5q14 14 105.5 40t145.5 32q56 5 62 15q5 9 50 9q47 0 161 25
q140 30 254.5 44.5t130.5 5.5q32 -20 19 -70q-3 -12 -10 -18.5t-34.5 -14.5t-70.5 -16t-130 -22q-158 -25 -198 -36q-31 -8 -42 -28.5t-27 -94.5q-5 -24 -2 -28t21 2q27 8 94 13q47 3 65.5 -1t52.5 -25q75 -47 104 -155.5t-8 -208.5q-22 -61 -40 -79q-17 -19 -46.5 -18.5
t-47.5 19.5z" />
    <glyph glyph-name="afii57671" unicode="&#x5d7;" horiz-adv-x="747" 
d="M532 -28q-17 18 -16.5 41t19.5 64q36 79 49 208t-7 206q-17 65 -76.5 90t-151.5 6q-109 -22 -163 -77l-27 -27l4 -181q2 -111 -0.5 -153.5t-13.5 -67.5q-48 -111 -115 -64q-18 13 -18.5 35.5t15.5 78.5q11 39 11.5 71t-7.5 110q-12 119 0 174.5t61 108.5
q84 90 238.5 114.5t260.5 -35.5q27 -15 43.5 -34t36.5 -59q23 -45 29.5 -74t9.5 -102q5 -126 -24 -259.5t-70 -173.5q-19 -18 -45 -18t-43 18z" />
    <glyph glyph-name="afii57672" unicode="&#x5d8;" horiz-adv-x="825" 
d="M178 16q-34 14 -72 56t-55 83q-23 58 -32 157t-11 290q-1 187 8 221q8 30 35 33q10 1 34 -1q10 -1 16.5 -5t12.5 -17.5t9 -32t6 -56.5t4.5 -83.5t3.5 -118.5q5 -212 17 -283t47 -107q24 -24 68 -24q28 0 49.5 9t60.5 38q44 31 117 103.5t104 115.5q8 12 8.5 21t-10 16
t-31 13t-54.5 11q-64 10 -82.5 21.5t-18.5 41.5q0 33 25 41.5t91 -1.5q105 -15 158 -51q26 -19 54 -23q30 -4 41.5 -32t-2.5 -62q-6 -14 -17 -26.5t-19 -14.5q-21 -6 -92 -88q-120 -137 -237 -213q-37 -23 -60 -30t-73 -9q-76 -4 -103 7z" />
    <glyph glyph-name="afii57673" unicode="&#x5d9;" horiz-adv-x="228" 
d="M93 388q-48 59 -42 231q2 69 6 83t21 16q26 4 53 -15.5t41 -52.5q17 -40 12.5 -126t-25.5 -121q-20 -34 -33.5 -36.5t-32.5 21.5z" />
    <glyph glyph-name="afii57674" unicode="&#x5da;" horiz-adv-x="864" 
d="M437 -532q-18 18 -18 30q0 11 58 127q125 251 191 552.5t22 420.5q-14 37 -29 54t-51.5 21.5t-87 -4t-147.5 -32.5q-130 -31 -178 -40.5t-70.5 -7t-40.5 19.5q-28 26 -28 37q0 17 30 39t52 22q30 0 200 42q163 40 244 44t129 -27q117 -75 113.5 -315t-125.5 -597
q-42 -123 -95 -241.5t-77 -144.5q-17 -18 -46 -18t-46 18z" />
    <glyph glyph-name="afii57675" unicode="&#x5db;" horiz-adv-x="840" 
d="M139 -28q-77 17 -104.5 41t-10.5 61q13 28 38.5 32t89.5 -11q149 -35 285.5 27.5t201.5 196.5q33 68 37 118t-19 93q-34 64 -112.5 84t-231.5 4q-56 -6 -74 -4t-29 13q-17 16 -17 40t18 40q38 34 179 40.5t217 -21.5q166 -61 195 -233q14 -81 -32 -190.5t-126 -185.5
q-103 -99 -235 -136.5t-270 -8.5z" />
    <glyph glyph-name="afii57676" unicode="&#x5dc;" horiz-adv-x="798" 
d="M238 18q-22 32 -8 56t70 53q62 31 142.5 106t137.5 152.5t57 115.5q0 34 -27.5 36.5t-119.5 -22.5q-143 -39 -229 -29t-143 73q-45 49 -71 126t-26 160q0 46 16 67t51 21q29 0 44 -27t21 -91q7 -68 32 -122t58 -71q34 -17 76.5 -14.5t136.5 28.5q96 27 140.5 29.5
t82.5 -17.5q85 -43 85 -144q0 -138 -187 -323q-122 -122 -214.5 -166t-124.5 3z" />
    <glyph glyph-name="afii57677" unicode="&#x5dd;" horiz-adv-x="900" 
d="M569 712q204 -1 299 -88q58 -53 60 -160t-50.5 -224t-141.5 -196q-73 -65 -184.5 -91t-299.5 -26h-142l-7 38q-30 31 -47 51.5t-33 57.5t-16 77q0 20 3 40.5t10.5 44.5t13.5 41.5t20 46.5l21 43.5t24.5 49t23.5 47.5q69 139 148 189.5t237 57.5q21 1 61 1zM553 595
q-94 0 -145 -12t-89 -44q-66 -56 -127 -170.5t-62 -206.5q-1 -37 3.5 -56.5t18 -33.5t38.5 -17t66 -5.5t100 1.5q116 2 149 7t76 25q62 30 98 68q79 85 112.5 214t-10.5 180q-19 22 -82.5 36t-145.5 14z" />
    <glyph glyph-name="afii57678" unicode="&#x5de;" horiz-adv-x="900" 
d="M26 -62q-34 33 0 98q15 29 24.5 172t0.5 205q-10 62 -20 132t2 96.5t56 26.5q38 0 54.5 -27.5t27.5 -108.5q13 -88 23 -88q11 0 81 57q77 64 145 92.5t153 32.5q64 3 86.5 -0.5t59.5 -23.5q77 -41 109.5 -122.5t12.5 -176t-89 -169.5q-33 -36 -98 -68t-128 -42
q-65 -11 -94.5 1t-29.5 50q0 27 18 38t75 17q114 13 185.5 99.5t48.5 184.5q-17 71 -75 96.5t-141 0t-169 -97.5q-64 -53 -104 -73t-50 -39q-11 -20 -11 -121q0 -119 -28.5 -188.5t-77.5 -69.5q-31 0 -47 16z" />
    <glyph glyph-name="afii57679" unicode="&#x5df;" horiz-adv-x="612" 
d="M76 -633q-21 19 -21 36t47 107q84 161 149.5 345.5t132.5 451.5q72 287 85 315q7 16 21 21l5 2q25 9 52.5 -2.5t33.5 -33.5q8 -32 -63.5 -310t-132.5 -452q-53 -150 -121 -298.5t-101 -184.5q-17 -18 -42 -17t-45 20z" />
    <glyph glyph-name="afii57680" unicode="&#x5e0;" horiz-adv-x="770" 
d="M-173 -287q-49 9 -65 39.5t15 56.5q12 11 40.5 15t105.5 5q94 2 121.5 7t89.5 34q107 51 198 151.5t143 223.5q39 94 51.5 200.5t-5.5 197.5q-17 82 31 97q43 13 63.5 -15.5t32.5 -120.5q15 -117 -17.5 -260t-102.5 -263q-50 -85 -149 -179.5t-177 -131.5
q-193 -90 -375 -57z" />
    <glyph glyph-name="afii57681" unicode="&#x5e1;" horiz-adv-x="699" 
d="M412 713q92 -2 159.5 -55t88.5 -150q17 -77 -13 -171.5t-93.5 -173.5t-140.5 -114q-53 -23 -116.5 -25t-110.5 19q-44 19 -84 55t-66 78q-19 31 -24 54t-5 85t5 88t25 64q32 61 92 120q64 63 138 95t145 31zM403 604q-84 -2 -173 -80q-96 -85 -110.5 -179.5t58.5 -158.5
q31 -28 52 -38q24 -13 65.5 -11t73.5 16q43 20 82 64t62.5 95t32.5 105t-8 93q-18 47 -53.5 71t-81.5 23z" />
    <glyph glyph-name="afii57682" unicode="&#x5e2;" horiz-adv-x="681" 
d="M146 -297q-23 25 -13 51t62 76q67 64 102 113q34 47 75 132.5t48 121.5q1 3 2 9q4 21 -5 28q-11 7 -100 27q-19 4 -30 6q-208 46 -246 79q-16 14 -18 41t12 41q28 28 116 -3q75 -26 193 -50t129 -16q13 10 25 73.5t12 118.5q0 42 9.5 74.5t25.5 42.5q17 10 44 6.5
t41 -17.5q26 -27 14.5 -151.5t-45.5 -197.5q-29 -59 -53 -141q-81 -267 -261 -427q-51 -46 -83 -54.5t-56 17.5z" />
    <glyph glyph-name="afii57683" unicode="&#x5e3;" horiz-adv-x="624" 
d="M143 -577q-21 20 -20 35q1 22 55 128q4 8 11 21q299 575 299 788q0 43 -5 60t-24 37q-30 31 -73 37q-42 5 -119 -7.5t-92 -27.5t-15 -103q0 -87 -19 -125q-12 -24 -22 -30t-38 -6q-42 0 -53 18t2 64q13 48 13 123q0 77 16.5 113t59.5 55q82 35 197 39.5t176 -23.5
q43 -21 71 -59q59 -77 47 -211t-97 -344q-40 -100 -161.5 -342t-136.5 -253q-19 -14 -34.5 -11.5t-37.5 24.5z" />
    <glyph glyph-name="afii57684" unicode="&#x5e4;" horiz-adv-x="933" 
d="M125 -59q-60 13 -82 25q-20 11 -29.5 38t1.5 44q16 25 36 29t60 -10q66 -25 165.5 -14t196 40.5t179 80.5t115.5 105q24 40 24.5 60.5t-20.5 53.5q-19 31 -90.5 67t-138.5 50q-59 12 -126 8t-95 -22q-21 -13 -23.5 -25t2.5 -60q6 -56 -4 -75.5t-44 -19.5
q-28 0 -45.5 19.5t-29.5 65.5q-24 90 44 164q32 36 85 52t140 16q215 0 368 -112q91 -67 96.5 -165t-76.5 -188q-67 -74 -198 -135t-272.5 -87t-238.5 -5z" />
    <glyph glyph-name="afii57685" unicode="&#x5e5;" horiz-adv-x="675" 
d="M602 -396q-17 13 -30 54q-26 83 -139 248q-75 110 -106 170q-27 53 -84 126q-41 52 -66 91.5t-102 176.5q-53 93 -58.5 125.5t27.5 49.5q31 16 59 -14t98 -155q89 -160 110 -177q13 -12 19.5 -11t20.5 19q36 45 94 275q24 97 44 115q21 20 47.5 18.5t41.5 -23.5
q11 -17 9.5 -34.5t-19.5 -80.5q-3 -9 -22.5 -78t-26.5 -96q-32 -121 -106 -210l-23 -26l23 -43q19 -36 98 -152q63 -92 109.5 -179t54.5 -128q5 -22 1.5 -33t-18.5 -22q-21 -17 -30 -18t-26 12z" />
    <glyph glyph-name="afii57686" unicode="&#x5e6;" horiz-adv-x="936" 
d="M-87 -265q-20 14 -22.5 37t13.5 37q15 13 120 37q127 29 286.5 77.5t258.5 86.5q88 34 155 69.5t67 47.5q0 20 -100 51q-142 44 -185 98q-21 27 -81 61q-55 31 -127 91.5t-80 81.5t3 39t31 18q21 0 91 -63q111 -101 154 -101q18 0 117 192q65 128 86 160.5t40 34.5
q29 3 46.5 -15t10.5 -43q-7 -27 -102 -211q-67 -131 -75 -155q-12 -39 15 -57q16 -10 108 -39q60 -19 87.5 -32.5t45.5 -34.5q90 -99 -81 -205q-81 -50 -267.5 -115.5t-395.5 -117.5q-149 -37 -174.5 -40.5t-44.5 10.5z" />
    <glyph glyph-name="afii57687" unicode="&#x5e7;" horiz-adv-x="736" 
d="M-27 -490q-19 18 -15.5 56t35.5 161q47 185 125 399.5t111 249.5q16 17 40 17t40 -18q19 -19 15 -41.5t-39 -100.5q-100 -222 -176 -526q-38 -156 -51 -182q-11 -23 -38.5 -28t-46.5 13zM401 15q-21 19 -21 35q0 15 78 127q119 173 131 295.5t-88 154.5q-91 29 -272 -56
q-75 -35 -103 -37.5t-44 25.5t5.5 52.5t90.5 58.5q179 87 316.5 69.5t187.5 -133.5q21 -48 16.5 -127t-31.5 -154q-32 -90 -101 -194t-110 -125q-22 -11 -29 -10t-26 19z" />
    <glyph glyph-name="afii57688" unicode="&#x5e8;" horiz-adv-x="609" 
d="M355 -14q-20 12 -15.5 48.5t39.5 143.5q68 206 69.5 324t-64.5 130q-66 13 -206 -49q-71 -32 -99.5 -33.5t-45.5 23.5q-12 18 -12 25.5t13 26.5q17 24 93 60t148 53q160 38 235.5 -48.5t49.5 -276.5q-11 -77 -46.5 -203.5t-62.5 -180.5q-38 -75 -96 -43z" />
    <glyph glyph-name="afii57689" unicode="&#x5e9;" horiz-adv-x="978" 
d="M269 -97q-41 14 -61.5 28t-71.5 60q-62 58 -77 92q-20 45 -32 176.5t-12 304.5q0 97 1.5 143.5t8 77.5t16 38t30.5 7q32 0 41 -13q16 -22 19 -157q1 -37 3 -126q5 -266 18 -297q10 -24 35 18q7 12 18 33q30 56 64 138q53 128 90 176.5t74 39.5q11 -3 23 -12.5t17 -19.5
q8 -17 2.5 -34.5t-33.5 -70.5q-37 -67 -77 -163q-35 -84 -75 -148q-40 -63 -47 -107q-5 -31 -1 -40.5t29 -24.5q77 -46 196.5 25t294.5 265q73 81 100 105.5t45 24.5q30 0 47 -24.5t4 -47.5q-16 -29 -131.5 -152t-169.5 -170q-72 -62 -120.5 -91t-107.5 -47
q-58 -17 -89 -18.5t-71 11.5z" />
    <glyph glyph-name="afii57690" unicode="&#x5ea;" horiz-adv-x="1030" 
d="M-268 -124q-23 15 -23 45q0 35 22 44t91 4q102 -7 181.5 10t138 58t98.5 87.5t82 114.5q31 50 57 160q25 103 57.5 163.5t80.5 95.5q68 49 176 68t162 -8q36 -18 68 -59t46 -87q25 -83 8 -225t-67 -271q-21 -53 -39 -72t-45 -16q-25 3 -35.5 16.5t-8 40t17.5 68.5
q51 142 64 260.5t-14 183.5q-19 45 -37 53q-24 13 -73 9t-95 -22q-63 -25 -95.5 -70t-54.5 -139q-49 -205 -186 -348q-19 -20 -46 -48.5t-37.5 -40t-31.5 -30t-31 -24t-33 -15.5t-41 -12t-51 -5.5t-67 -4t-86 -0.5q-129 0 -153 16z" />
  </font>
</defs>
</svg>
