<?xml version="1.0" standalone="no"?>
<!DOCTYPE svg PUBLIC "-//W3C//DTD SVG 1.1//EN" "http://www.w3.org/Graphics/SVG/1.1/DTD/svg11.dtd" >
<svg>
<metadata>
Created by FontForge 20090914 at Fri Feb  4 07:41:18 2011
 By apache
Copyright 2004-2010 by Maxim Iorsh (iorsh@users.sourceforge.net). Distributed under the terms of GNU General Public License version 2(http://www.gnu.org/licenses/gpl.html). 
All rights reserved.
</metadata>
<defs>
<font id="MiriamCLM" horiz-adv-x="0" >
  <font-face 
    font-family="Miriam CLM"
    font-weight="400"
    font-stretch="semi-condensed"
    units-per-em="2048"
    panose-1="2 0 6 3 0 0 0 0 0 0"
    ascent="1638"
    descent="-410"
    bbox="-312 -477 1296 1458"
    underline-thickness="93"
    underline-position="-188"
    unicode-range="U+0020-U+FB4F"
  />
<missing-glyph horiz-adv-x="745" 
d="M68 0v1364h543v-1364h-543zM135 68h408v1228h-408v-1228z" />
    <glyph glyph-name=".notdef" horiz-adv-x="745" 
d="M68 0v1364h543v-1364h-543zM135 68h408v1228h-408v-1228z" />
    <glyph glyph-name=".null" 
 />
    <glyph glyph-name="nonmarkingreturn" horiz-adv-x="682" 
 />
    <glyph glyph-name="space" unicode=" " horiz-adv-x="751" 
 />
    <glyph glyph-name="exclam" unicode="!" horiz-adv-x="507" 
d="M338 99.5q0 -56.5 -11 -78.5q-21 -41 -73.5 -41.5t-73.5 41.5q-11 23 -11 79t11 78q21 41 73.5 41.5t73.5 -41.5q11 -22 11 -78.5zM319 462q0 -26 -11 -37.5t-37 -11.5h-34q-26 0 -37.5 11.5t-11.5 37.5v710q0 26 11 37.5t38 11.5h34q26 0 37 -11t11 -38v-710z" />
    <glyph glyph-name="quotedbl" unicode="&#x22;" horiz-adv-x="759" 
d="M524 1159q11 30 29 42.5t48 12.5h62q64 0 30 -62l-156 -284q-15 -24 -27 -32.5t-33 -8.5h-49q-49 0 -28 49zM224 1159q11 30 29 42.5t48 12.5h62q64 0 30 -62l-156 -284q-15 -24 -27.5 -32.5t-32.5 -8.5h-49q-49 0 -28 49z" />
    <glyph glyph-name="numbersign" unicode="#" horiz-adv-x="1153" 
d="M658 447l45 244q4 19 -15 19h-194q-17 0 -21 -19l-45 -244q-4 -19 15 -19h192q19 0 23 19zM761 287l-41 -238q-6 -28 -17 -38q-15 -11 -40 -11h-34q-28 0 -35 11q-9 13 -6 38l41 238q6 19 -16 19h-192q-19 0 -21 -19l-41 -238q-6 -28 -17 -38q-15 -11 -39 -11h-34
q-28 0 -36 11q-9 13 -6 38l42 238q2 19 -17 19h-151q-24 0 -35 12q-8 11 -4 37l4 25q6 26 19 37q11 11 39 11h150q19 0 23 19l45 244q4 19 -17 19h-150q-24 0 -36 11q-9 11 -4 38l4 25q4 26 19 37q11 11 39 11h151q17 0 22 19l40 227q6 28 17 38q13 11 39 11h34q26 0 35 -11
q9 -13 6 -38l-39 -227q-6 -19 15 -19h191q17 0 23 19l39 227q6 28 17 38q13 11 40 11h34q26 0 35 -11q9 -13 6 -38l-40 -227q-6 -19 15 -19h138q24 0 35 -11q8 -11 4 -37l-4 -25q-6 -26 -18 -38q-11 -11 -40 -11h-135q-19 0 -23 -19l-45 -244q-4 -19 15 -19h137q24 0 36 -11
q9 -11 4 -37l-4 -25q-4 -26 -19 -37q-11 -11 -39 -12h-137q-11 0 -14 -4t-7 -15z" />
    <glyph glyph-name="dollar" unicode="$" horiz-adv-x="984" 
d="M427 663v322q0 9 -8 14.5t-15 3.5q-86 -17 -137 -63t-51 -123q0 -126 188 -173q8 -2 15.5 4t7.5 15zM558 468v-321q0 -9 7.5 -15t15.5 -4q86 17 136.5 63t50.5 123q0 126 -187 173q-8 2 -15.5 -4t-7.5 -15zM427 498q0 15 -16 19q-28 4 -50 11q-118 32 -197 103.5
t-79 180.5q0 143 110 231q86 71 216 90q15 2 16 19v20q0 26 11 37.5t37 11.5h34q26 0 37.5 -11t11.5 -38v-18q0 -17 17 -19q177 -15 287 -128q19 -19 19 -35t-19 -34l-24 -23q-19 -19 -34 -19q-13 0 -34 19q-85 73 -191 88q-8 2 -14.5 -3.5t-6.5 -13.5v-353q0 -15 15 -19
q30 -6 51 -11q118 -32 197 -103.5t79 -180.5q0 -143 -111 -231q-86 -71 -216 -90q-15 -2 -15 -19v-24q0 -26 -11.5 -37.5t-37.5 -11.5h-34q-26 0 -37 11.5t-11 37.5v22q0 17 -17 19q-177 15 -288 128q-19 19 -19 35t19 35l25 24q19 17 33 17q13 0 34 -17q85 -75 190 -90
q9 -2 16 3.5t7 15.5v351z" />
    <glyph glyph-name="percent" unicode="%" horiz-adv-x="1148" 
d="M738 276q0 -79 23 -124q24 -54 72 -54t75 54q21 45 20.5 124t-20.5 124q-26 54 -74.5 54.5t-72.5 -54.5q-23 -45 -23 -124zM1045 276q0 -128 -47 -201q-58 -88 -164.5 -88t-164.5 88q-47 73 -47 201t47 201q58 88 164 88.5t165 -88.5q47 -73 47 -201zM220 853
q0 -79 22 -124q24 -54 72.5 -54t74.5 54q21 45 21 124t-21 124q-26 54 -74 54.5t-73 -54.5q-22 -45 -22 -124zM526 853q0 -128 -47 -199q-58 -90 -164 -90t-165 90q-47 71 -47 199t47 199q58 90 164.5 90t164.5 -90q47 -71 47 -199zM276 4q-15 -23 -31 -25.5t-38 12.5
l-27 18q-23 15 -25.5 30t12.5 38l707 1050q15 21 31 24t38 -11l27 -18q23 -15 25.5 -31t-12.5 -37z" />
    <glyph glyph-name="quotesingle" unicode="'" horiz-adv-x="458" 
d="M224 1159q11 30 29 42.5t48 12.5h62q64 0 30 -62l-156 -284q-15 -24 -27.5 -32.5t-32.5 -8.5h-49q-49 0 -28 49z" />
    <glyph glyph-name="parenleft" unicode="(" horiz-adv-x="569" 
d="M94 564q0 177 65 355t198 319q15 17 41 17h68q38 0 9 -36q-231 -291 -231 -655.5t231 -655.5q28 -36 -9 -36h-68q-26 0 -41 17q-133 147 -198 323.5t-65 351.5z" />
    <glyph glyph-name="parenright" unicode=")" horiz-adv-x="569" 
d="M477 564q0 -175 -64.5 -351.5t-198.5 -323.5q-15 -17 -41 -17h-68q-38 0 -9 36q231 291 231 655.5t-231 655.5q-28 36 9 36h68q24 0 41 -17q132 -141 197.5 -319t65.5 -355z" />
    <glyph glyph-name="asterisk" unicode="*" horiz-adv-x="1008" 
d="M368 549h-210q-24 0 -34.5 10t-10.5 37v30q0 26 10 36.5t35 10.5h210q30 0 15 26l-105 180q-13 23 -8.5 37t25.5 25l28 17q21 13 35 8.5t27 -25.5l105 -182q15 -24 29 0l105 182q13 21 27 25.5t37 -8.5l26 -17q23 -11 26.5 -25t-9.5 -37l-105 -184q-13 -23 13 -22h212
q24 0 34.5 -10.5t10.5 -36.5v-30q0 -26 -10 -36.5t-35 -10.5h-214q-24 0 -11 -23l105 -184q13 -23 9.5 -37t-26.5 -25l-26 -17q-23 -13 -37 -8.5t-27 25.5l-105 184q-13 23 -29 -2l-105 -182q-13 -21 -27 -25.5t-35 8.5l-28 17q-21 11 -25.5 25t8.5 37l105 182q15 25 -15 25
z" />
    <glyph glyph-name="plus" unicode="+" horiz-adv-x="896" 
d="M365 633q19 0 18 19v203q0 26 11.5 37.5t37.5 11.5h34q26 0 37.5 -11.5t11.5 -37.5v-203q0 -19 19 -19h201q26 0 37.5 -11t11.5 -38v-33q0 -26 -11.5 -37.5t-37.5 -11.5h-201q-19 0 -19 -19v-201q0 -26 -11.5 -37.5t-37.5 -11.5h-34q-26 0 -37.5 11.5t-11.5 37.5v201
q0 19 -18 19h-203q-26 0 -37.5 11t-11.5 38v33q0 26 11 37.5t38 11.5h203z" />
    <glyph glyph-name="comma" unicode="," horiz-adv-x="496" 
d="M224 152q11 30 29 42.5t48 12.5h62q64 0 30 -62l-156 -284q-15 -24 -27.5 -32.5t-32.5 -8.5h-49q-49 0 -28 48z" />
    <glyph glyph-name="hyphen" unicode="-" horiz-adv-x="858" 
d="M697 530h-535q-26 0 -37.5 11t-11.5 38v34q0 26 11 37t38 11h535q26 0 37.5 -11t11.5 -37v-34q0 -26 -11.5 -37.5t-37.5 -11.5z" />
    <glyph glyph-name="period" unicode="." horiz-adv-x="394" 
d="M263 99.5q0 -56.5 -11 -78.5q-21 -41 -73.5 -41.5t-73.5 41.5q-11 23 -11 79t11 78q21 41 73.5 41.5t73.5 -41.5q11 -22 11 -78.5z" />
    <glyph glyph-name="slash" unicode="/" horiz-adv-x="704" 
d="M195 -96q-9 -24 -23 -31.5t-39 1.5l-32 11q-24 8 -31.5 23t1.5 39l440 1276q8 24 22 32t40 -2l32 -11q24 -8 31 -23t-1 -39z" />
    <glyph glyph-name="zero" unicode="0" horiz-adv-x="977" 
d="M235 563.5q0 -197.5 58 -311.5q68 -133 195.5 -133.5t195.5 133.5q58 115 58 312t-58 312q-68 133 -195.5 133t-195.5 -133q-58 -115 -58 -312.5zM874 563.5q0 -253.5 -87 -400.5q-107 -178 -298.5 -178t-298.5 178q-86 147 -86.5 400.5t86.5 400.5q107 178 298.5 178
t298.5 -178q87 -147 87 -400.5z" />
    <glyph glyph-name="one" unicode="1" horiz-adv-x="627" 
d="M271 892l-93 -95q-19 -19 -33 -19q-17 0 -36 17l-24 24q-19 19 -19 34q0 17 19 36l212 220q19 19 51 18h33q26 0 37.5 -11t11.5 -38v-1029q0 -26 -11 -37.5t-38 -11.5h-33q-26 0 -37.5 11.5t-11.5 37.5v834q0 13 -10 15q-9 3 -18 -6z" />
    <glyph glyph-name="two" unicode="2" horiz-adv-x="945" 
d="M310 150q-4 -8 2 -13t15 -5h466q26 0 37.5 -11.5t11.5 -37.5v-34q0 -26 -11.5 -37.5t-37.5 -11.5h-620q-26 0 -37.5 11.5t-11.5 37.5q0 53 8 67q45 98 159 222q51 54 135 131l104 95q15 15 49.5 47t49.5 47t35 42t27.5 56t7.5 63q0 90 -59 141t-155 51q-88 0 -148.5 -48
t-82.5 -125q-8 -26 -21 -34q-15 -9 -39 -2l-34 10q-24 6 -34 20q-8 13 0 40q81 269 363 268q154 0 253 -95q88 -86 88 -215q0 -26 -3.5 -50.5t-5.5 -42t-13 -40t-14 -34t-22 -34t-23.5 -30t-30.5 -33.5l-32 -31q-6 -6 -39.5 -36.5t-41.5 -38.5l-61 -53q-50 -44 -76 -71
l-67 -65q-40 -39 -62.5 -69.5t-28.5 -51.5z" />
    <glyph glyph-name="three" unicode="3" horiz-adv-x="1001" 
d="M487 607l-40 -56q-15 -21 -31 -24t-38 12l-27 19q-23 15 -25.5 31t12.5 37l244 349q6 8 2 15q-4 6 -13 6h-355q-26 0 -37.5 11t-11.5 38v33q0 26 11.5 37.5t37.5 11.5h549q36 0 45 -20q11 -23 -10 -51l-195 -278q-24 -34 17 -45q115 -32 193.5 -119.5t78.5 -218.5
q0 -177 -114 -288q-120 -116 -325 -116q-212 0 -342 129q-19 19 -19 35t19 35l24 22q19 19 34 19q13 0 34 -19q107 -94 261 -94q128 0 212.5 72.5t84.5 198.5q0 98 -63 159t-163 78q-33 5 -50 -19z" />
    <glyph glyph-name="four" unicode="4" horiz-adv-x="967" 
d="M274 477q-6 -11 -2 -17.5t17 -6.5h307q19 0 18 19v513q0 19 -18 18q-77 0 -134 -71q-60 -75 -113 -271q-26 -98 -75 -184zM165 549q30 53 64 176.5t66 187.5q53 107 133.5 165.5t219.5 58.5q73 0 87 -13q11 -11 11 -38v-614q0 -19 19 -19h88q26 0 37.5 -11.5t11.5 -37.5
v-34q0 -26 -11.5 -37.5t-37.5 -11.5h-88q-19 0 -19 -18v-254q0 -26 -11.5 -37.5t-37.5 -11.5h-34q-26 0 -37.5 11.5t-11.5 37.5v254q0 19 -18 18h-481q-26 0 -37.5 11.5t-11.5 37.5v36q0 24 28 49q37 32 71 94z" />
    <glyph glyph-name="five" unicode="5" horiz-adv-x="948" 
d="M207 487l-21 5q-26 4 -34.5 16t-4.5 41l107 541q4 24 15 30.5t32 6.5h419q28 0 38 -11t10 -38v-33q0 -28 -10 -38.5t-38 -10.5h-310q-41 0 -47 -28l-45 -231q-2 -9 4.5 -14t13.5 -2q53 21 139 21q122 0 205 -51q83 -53 124.5 -130.5t41.5 -199.5q0 -160 -105.5 -267
t-282.5 -107q-205 0 -342 165q-30 38 8 70l24 20q38 32 70 -5q100 -118 252 -119q116 0 181 75.5t65 189.5q0 105 -68.5 170t-170.5 65q-156 0 -199 -88q-13 -28 -28 -38.5t-43 -4.5z" />
    <glyph glyph-name="six" unicode="6" horiz-adv-x="975" 
d="M242 361q0 -111 69 -178t185 -67q109 0 176.5 68t67.5 181q0 105 -54 167q-73 86 -192 86q-115 0 -191 -81q-61 -63 -61 -176zM325 1007q160 124 406 130q28 2 39.5 -8.5t13.5 -36.5l1 -34q4 -51 -45 -51q-201 0 -327 -96q-115 -88 -152 -231q-4 -17 3 -20.5t18 5.5
q100 73 229 73q156 0 256.5 -101.5t100.5 -270.5q0 -178 -108 -278.5t-277 -100.5q-90 0 -166.5 36.5t-124.5 98.5q-51 68 -71 143t-20 188q0 381 224 554z" />
    <glyph glyph-name="seven" unicode="7" horiz-adv-x="845" 
d="M635 945q13 51 -34 51h-477q-26 0 -37.5 11t-11.5 38v33q0 26 11.5 37.5t37.5 11.5h616q26 0 37.5 -11t11.5 -38v-33q0 -47 -15 -109q-23 -85 -74.5 -175t-116 -188t-96.5 -163q-83 -167 -107 -361q-4 -28 -14 -38q-11 -11 -37 -11h-32q-26 0 -38 11q-13 13 -11 38
q21 218 126 434q26 54 84.5 138t106 164.5t70.5 159.5z" />
    <glyph glyph-name="eight" unicode="8" horiz-adv-x="984" 
d="M693 628q85 -39 136.5 -115.5t51.5 -174.5q0 -167 -116 -265q-103 -86 -272.5 -86t-272.5 86q-116 98 -117 265q0 100 50 177t133 114q17 8 0 19q-124 83 -124 228q0 133 109 208q86 58 217.5 58t217.5 -58q109 -75 109 -208q0 -143 -124 -228q-15 -11 2 -20zM488.5 693
q82.5 0 140 48t57.5 116q0 70 -56.5 115.5t-141 45.5t-141 -46t-56.5 -115q0 -68 57.5 -116t140 -48zM492 571q-107 0 -179.5 -64.5t-72.5 -162.5q0 -109 68 -168.5t184 -59.5q113 0 182.5 60.5t69.5 167.5q0 98 -72.5 162.5t-179.5 64.5z" />
    <glyph glyph-name="nine" unicode="9" horiz-adv-x="941" 
d="M710 766.5q0 110.5 -65.5 177.5t-174.5 67q-103 0 -168 -67.5t-65 -180.5q0 -103 50 -167q71 -86 185 -87q109 0 180 81q58 66 58 176.5zM629 120q-152 -124 -402 -131q-26 0 -37.5 10t-12.5 35l-4 36q-2 51 45 50h2q88 0 175.5 24.5t147.5 71.5q103 85 141 218
q6 17 -4.5 23.5t-21.5 -2.5q-92 -66 -203 -66q-156 0 -252 100.5t-96 271.5q0 178 104.5 278.5t267.5 100.5q79 0 154 -34.5t124 -100.5q85 -115 85 -332q-1 -382 -213 -553z" />
    <glyph glyph-name="colon" unicode=":" horiz-adv-x="394" 
d="M263 740.5q0 -56.5 -11 -79.5q-21 -41 -73.5 -41t-73.5 41q-11 23 -11 79.5t11 78.5q21 41 73.5 41.5t73.5 -41.5q11 -22 11 -78.5zM263 99.5q0 -56.5 -11 -78.5q-21 -41 -73.5 -41.5t-73.5 41.5q-11 23 -11 79t11 78q21 41 73.5 41.5t73.5 -41.5q11 -22 11 -78.5z" />
    <glyph glyph-name="semicolon" unicode=";" horiz-adv-x="477" 
d="M169 152q8 30 23 42.5t45 12.5h62q64 0 41 -62l-107 -284q-9 -24 -19.5 -32.5t-31.5 -8.5h-49q-51 0 -37 48zM342 740.5q0 -56.5 -11 -79.5q-21 -41 -73.5 -41t-73.5 41q-11 23 -11 79.5t11 78.5q21 41 73.5 41.5t73.5 -41.5q11 -22 11 -78.5z" />
    <glyph glyph-name="less" unicode="&#x3c;" horiz-adv-x="817" 
d="M310 520l402 -336q19 -17 21 -32t-15 -36l-23 -26q-17 -21 -33 -21.5t-34 16.5l-523 435q-21 17 -20.5 40.5t20.5 42.5l523 440q19 17 34.5 15t32.5 -21l23 -26q17 -21 15 -36t-21 -34l-402 -338q-21 -19 -21 -41q0 -25 21 -42z" />
    <glyph glyph-name="equal" unicode="=" horiz-adv-x="933" 
d="M753 633h-573q-26 0 -37 11.5t-11 37.5v34q0 26 11 37.5t37 11.5h573q26 0 37.5 -11.5t11.5 -37.5v-34q0 -26 -11.5 -37.5t-37.5 -11.5zM753 351h-573q-26 0 -37 11.5t-11 37.5v34q0 26 11 37.5t37 11.5h573q26 0 37.5 -11.5t11.5 -37.5v-34q0 -26 -11.5 -37.5
t-37.5 -11.5z" />
    <glyph glyph-name="greater" unicode="&#x3e;" horiz-adv-x="817" 
d="M507 520q21 17 21 42q0 23 -21 41l-400 338q-21 19 -22 34q-2 15 15 36l22 26q17 19 33 21t37 -15l520 -440q21 -19 21 -42.5t-21 -40.5l-520 -435q-21 -17 -37 -16t-33 21l-22 26q-17 21 -15 36t22 32z" />
    <glyph glyph-name="question" unicode="?" horiz-adv-x="809" 
d="M445 752q4 4 22 26l21 26q3 4 16 23.5t15.5 27t11 24.5t10.5 29l5 30q3 17 3 33q0 56 -36 89q-43 39 -117 39q-79 0 -124 -54q-28 -32 -28 -117q0 -26 -11 -37.5t-38 -11.5h-33q-26 0 -37.5 11.5t-11.5 37.5q0 103 34 160q38 62 100.5 97.5t139.5 35.5q132 0 205 -60
q86 -71 86 -191q0 -122 -82 -230l-33 -43q-27 -36 -33 -45l-24.5 -38.5t-23.5 -47t-11.5 -46t-6.5 -58.5q0 -26 -11 -37.5t-38 -11.5h-34q-26 0 -37 11.5t-11 37.5q0 86 26 146.5t86 143.5zM483 99.5q0 -58.5 -11 -78.5q-19 -41 -73.5 -41.5t-73.5 41.5q-11 21 -11 79t11 78
q19 41 73.5 41.5t73.5 -41.5q11 -20 11 -78.5z" />
    <glyph glyph-name="bracketleft" unicode="[" horiz-adv-x="651" 
d="M122 1165q0 56 23.5 79.5t79.5 23.5h275q26 0 37.5 -11t11.5 -38v-33q0 -26 -11.5 -37.5t-37.5 -11.5h-228q-19 0 -18 -19v-1109q0 -19 18 -18h228q26 0 37.5 -11.5t11.5 -37.5v-34q0 -26 -11.5 -37.5t-37.5 -11.5h-275q-56 0 -79.5 23.5t-23.5 79.5v1203z" />
    <glyph glyph-name="backslash" unicode="\" horiz-adv-x="704" 
d="M511 -96l-440 1276q-9 24 -1.5 39t31.5 23l32 11q24 9 38.5 2t23.5 -32l440 -1276q8 -24 1 -39t-31 -23l-32 -11q-26 -9 -40 -1.5t-22 31.5z" />
    <glyph glyph-name="bracketright" unicode="]" horiz-adv-x="651" 
d="M530 1165v-1203q0 -56 -23.5 -79.5t-81.5 -23.5h-273q-26 0 -37.5 11.5t-11.5 37.5v34q0 26 11.5 37.5t37.5 11.5h228q19 0 18 18v1109q0 19 -18 19h-228q-26 0 -37.5 11t-11.5 38v33q0 26 11.5 37.5t37.5 11.5h273q58 0 81.5 -23.5t23.5 -79.5z" />
    <glyph glyph-name="uni00A0" unicode="&#xa0;" horiz-adv-x="751" 
 />
    <glyph glyph-name="sterling" unicode="&#xa3;" horiz-adv-x="967" 
d="M340 132h494q26 0 37.5 -11.5t11.5 -37.5v-34q0 -26 -11 -37.5t-38 -11.5h-701q-26 0 -37 11.5t-11 37.5v34q0 26 11 37.5t37 11.5h38q19 0 19 18v303q0 19 -19 19h-38q-26 0 -37 11t-11 37v34q0 26 11 37.5t37 11.5h38q19 0 19 19v118q0 120 26 188t77 119q98 94 248 93
q152 0 263 -71q41 -26 19 -68l-17 -28q-24 -43 -68 -19q-90 54 -187 55q-101 0 -156 -55q-41 -39 -57.5 -90.5t-16.5 -145.5v-96q0 -19 19 -19h239q26 0 37.5 -11t11.5 -38v-34q0 -26 -11.5 -37t-37.5 -11h-239q-19 0 -19 -19v-303q0 -18 19 -18z" />
    <glyph glyph-name="uni00AD" unicode="&#xad;" horiz-adv-x="858" 
d="M697 530h-535q-26 0 -37.5 11t-11.5 38v34q0 26 11 37t38 11h535q26 0 37.5 -11t11.5 -37v-34q0 -26 -11.5 -37.5t-37.5 -11.5z" />
    <glyph glyph-name="afii57799" unicode="&#x5b0;" 
d="M66 -402q0 -34 -10 -49q-15 -26 -56 -26t-56 26q-9 15 -9.5 49t9.5 51q15 24 56 24t56 -24q10 -17 10 -51zM66 -171q0 -34 -10 -51q-15 -24 -56 -24t-56 24q-9 17 -10 51q0 36 10 49q15 26 56 26t56 -26q10 -13 10 -49z" />
    <glyph glyph-name="afii57801" unicode="&#x5b1;" 
d="M312 -402q0 -34 -9 -49q-13 -26 -55.5 -26t-57.5 26q-9 15 -10 49q0 34 10 51q15 24 56 24t57 -24q9 -17 9 -51zM312 -171q0 -34 -9 -51q-15 -24 -56.5 -24t-56.5 24q-9 17 -10 51q0 36 10 49q15 26 57 26t56 -26q9 -13 9 -49zM-178 -171q0 -34 -10 -51q-17 -24 -58 -24
q-39 0 -57 24q-9 17 -9 51q0 36 9 49q17 26 57 26q41 0 58 -26q10 -15 10 -49zM-58 -402q0 -34 -10 -49q-15 -26 -57 -26t-55 26q-9 15 -10 49q0 34 10 51q15 24 56 24t56 -24q10 -17 10 -51zM66 -171q0 -34 -10 -51q-17 -24 -58 -24q-39 0 -56 24q-9 17 -10 51q0 36 10 49
q17 26 56 26q41 0 58 -26q10 -13 10 -49z" />
    <glyph glyph-name="afii57800" unicode="&#x5b2;" 
d="M312 -402q0 -34 -11 -49q-13 -26 -55.5 -26t-57.5 26q-8 15 -8 49t8 51q15 24 57 24t56 -24q11 -17 11 -51zM312 -171q0 -34 -11 -51q-13 -24 -55.5 -24t-57.5 24q-8 17 -8 51q0 36 8 49q15 26 57 26t56 -26q11 -13 11 -49zM77 -161.5q0 -26.5 -11.5 -37.5t-37.5 -11
h-291q-26 0 -37.5 11t-11.5 37.5t11.5 37.5t37.5 11h291q26 0 37.5 -11t11.5 -37.5z" />
    <glyph glyph-name="afii57802" unicode="&#x5b3;" 
d="M-68 -410q0 -26 -11 -39q-11 -11 -37.5 -11t-37.5 11t-11 38v182q0 19 -19 19h-79q-26 0 -37.5 11t-11.5 37.5t11.5 37.5t37.5 11h293q26 0 37.5 -11t11.5 -37.5t-11.5 -37.5t-37.5 -11h-79q-9 0 -14 -4t-5 -15v-181zM312 -402q0 -34 -9 -49q-15 -26 -57.5 -26t-55.5 26
q-9 15 -10 49q0 34 10 51q13 24 55 24t58 -24q9 -17 9 -51zM312 -171q0 -34 -9 -51q-15 -24 -57.5 -24t-55.5 24q-9 17 -10 51q0 36 10 49q13 26 55 26t58 -26q9 -13 9 -49z" />
    <glyph glyph-name="afii57793" unicode="&#x5b4;" 
d="M68 -171q0 -34 -12 -51q-17 -24 -56 -24t-56 24q-11 17 -12 51q0 36 12 49q15 26 56 26t56 -26q12 -13 12 -49z" />
    <glyph glyph-name="afii57794" unicode="&#x5b5;" 
d="M-54 -171q0 -34 -10 -51q-17 -24 -58 -24q-39 0 -56 24q-9 17 -10 51q0 36 10 49q17 26 56 26q41 0 58 -26q10 -13 10 -49zM190 -171q0 -34 -10 -51q-17 -24 -58 -24q-39 0 -56 24q-9 17 -10 51q0 36 10 49q17 26 56 26q41 0 58 -26q10 -13 10 -49z" />
    <glyph glyph-name="afii57795" unicode="&#x5b6;" 
d="M-54 -171q0 -34 -10 -51q-17 -24 -58 -24q-39 0 -56 24q-9 17 -10 51q0 36 10 49q17 26 56 26q41 0 58 -26q10 -13 10 -49zM66 -402q0 -34 -10 -49q-15 -26 -56 -26t-56 26q-9 15 -9.5 49t9.5 51q15 24 56 24t56 -24q10 -17 10 -51zM190 -171q0 -34 -10 -51
q-17 -24 -58 -24q-39 0 -56 24q-9 17 -10 51q0 36 10 49q17 26 56 26q41 0 58 -26q10 -13 10 -49z" />
    <glyph glyph-name="afii57798" unicode="&#x5b7;" 
d="M214 -161.5q0 -26.5 -11 -37.5t-38 -11h-330q-26 0 -37.5 11t-11.5 37.5t11 37.5t38 11h330q26 0 37.5 -11t11.5 -37.5z" />
    <glyph glyph-name="afii57797" unicode="&#x5b8;" 
d="M49 -338q0 -26 -11 -38q-11 -11 -37.5 -11t-38 11t-11.5 38v109q0 19 -19 19h-97q-26 0 -37.5 11t-11.5 37.5t11 37.5t38 11h330q26 0 37.5 -11t11.5 -37.5t-11 -37.5t-38 -11h-97q-9 0 -14 -4t-5 -15v-109z" />
    <glyph glyph-name="afii57806" unicode="&#x5b9;" 
d="M68 1289q0 -34 -12 -51q-17 -24 -56 -24t-56 24q-11 17 -12 51q0 34 12 49q15 26 56 26t56 -26q12 -15 12 -49z" />
    <glyph glyph-name="uni05BA" unicode="&#x5ba;" 
d="M68 1289q0 -34 -12 -51q-17 -24 -56 -24t-56 24q-11 17 -12 51q0 34 12 49q15 26 56 26t56 -26q12 -15 12 -49z" />
    <glyph glyph-name="afii57796" unicode="&#x5bb;" 
d="M66 -286q0 -36 -10 -48q-13 -26 -55 -26.5t-57 26.5q-9 13 -10 48q0 34 10 49q15 26 56 26.5t56 -26.5q10 -15 10 -49zM272 -402q0 -34 -9 -49q-13 -26 -55.5 -26t-57.5 26q-9 15 -9 49t9 51q15 24 56.5 24t56.5 -24q9 -17 9 -51zM-141 -171q0 -34 -9 -51
q-15 -24 -56.5 -24t-56.5 24q-9 17 -9 51q0 36 9 49q13 26 55.5 26t57.5 -26q9 -13 9 -49z" />
    <glyph glyph-name="afii57807" unicode="&#x5bc;" 
d="M-9 458q-39 0 -55 25q-9 15 -9 49v64q0 34 9 47q15 26 55 26h17q41 0 56 -26q9 -13 9 -47v-64q0 -34 -9 -49q-15 -24 -56 -25h-17z" />
    <glyph glyph-name="afii57839" unicode="&#x5bd;" 
d="M0 -86q26 0 37.5 -11.5t11.5 -37.5v-203q0 -26 -11.5 -37.5t-37.5 -11.5t-37.5 11t-11.5 38v203q0 26 11.5 37.5t37.5 11.5z" />
    <glyph glyph-name="afii57645" unicode="&#x5be;" horiz-adv-x="858" 
d="M697 996h-535q-26 0 -37.5 11t-11.5 38v33q0 26 11 37.5t38 11.5h535q26 0 37.5 -11t11.5 -38v-33q0 -26 -11.5 -37.5t-37.5 -11.5z" />
    <glyph glyph-name="afii57841" unicode="&#x5bf;" 
d="M214 1289q0 -26 -11 -37.5t-38 -11.5h-330q-26 0 -37.5 11.5t-11.5 37.5t11 37.5t38 11.5h330q26 0 37.5 -11.5t11.5 -37.5z" />
    <glyph glyph-name="afii57842" unicode="&#x5c0;" horiz-adv-x="338" 
d="M225 1266v-1405q0 -26 -11 -37.5t-37 -11.5h-15q-26 0 -37.5 11.5t-11.5 37.5v1405q0 26 11 37.5t38 11.5h15q26 0 37 -11.5t11 -37.5z" />
    <glyph glyph-name="afii57804" unicode="&#x5c1;" 
d="M1157 1289q0 -34 -9 -51q-17 -24 -58 -24q-39 0 -57 24q-9 17 -9 51t9 49q17 26 57 26q41 0 58 -26q9 -13 9 -49z" />
    <glyph glyph-name="afii57803" unicode="&#x5c2;" 
d="M246 1289q0 -34 -9 -51q-17 -24 -59 -24q-39 0 -56 24q-9 17 -9 51t9 49q17 26 56 26q41 0 59 -26q9 -15 9 -49z" />
    <glyph glyph-name="afii57658" unicode="&#x5c3;" horiz-adv-x="394" 
d="M263 740.5q0 -56.5 -11 -79.5q-21 -41 -73.5 -41t-73.5 41q-11 23 -11 79.5t11 78.5q21 41 73.5 41.5t73.5 -41.5q11 -22 11 -78.5zM263 99.5q0 -56.5 -11 -78.5q-21 -41 -73.5 -41.5t-73.5 41.5q-11 23 -11 79t11 78q21 41 73.5 41.5t73.5 -41.5q11 -22 11 -78.5z" />
    <glyph glyph-name="uni05C4" unicode="&#x5c4;" 
d="M81 1368q0 -41 -11 -60q-21 -30 -72 -30q-47 0 -68 30q-11 19 -11 60t11 58q21 32 68 32q51 0 72 -32q11 -17 11 -58z" />
    <glyph glyph-name="uni05C5" unicode="&#x5c5;" 
d="M81 1368q0 -41 -11 -60q-21 -30 -72 -30q-47 0 -68 30q-11 19 -11 60t11 58q21 32 68 32q51 0 72 -32q11 -17 11 -58z" />
    <glyph glyph-name="uni05C7" unicode="&#x5c7;" 
d="M49 -410q0 -26 -11 -39q-11 -11 -37.5 -11t-38 11t-11.5 38v182q0 19 -19 19h-48q-26 0 -37.5 11t-11.5 37.5t11 37.5t38 11h232q26 0 37.5 -11t11.5 -37.5t-11 -37.5t-38 -11h-48q-9 0 -14 -4t-5 -15v-181z" />
    <glyph glyph-name="afii57664" unicode="&#x5d0;" horiz-adv-x="1106" 
d="M761 411q-13 -6 -8 -15l230 -332q15 -21 11 -38q-4 -26 -32 -26h-68q-28 0 -45 24l-424 619q-8 11 -21 7q-85 -23 -126 -98q-34 -66 -34 -189v-213q0 -19 19 -18h120q26 0 37.5 -11.5t11.5 -37.5v-34q0 -26 -11 -37.5t-38 -11.5h-165q-56 0 -80.5 24.5t-24.5 80.5v269
q0 163 52 250q56 94 158 137q15 8 6 21l-194 281q-17 23 -13 42q9 23 34 22h68q26 0 45 -26l389 -566q9 -13 20 -9q98 38 141 113q34 58 34 195v143q0 19 -19 19h-120q-26 0 -37.5 11t-11.5 38v33q0 26 11.5 37.5t37.5 11.5h165q56 0 81 -24.5t25 -80.5v-199
q0 -169 -47 -256q-57 -102 -177 -156z" />
    <glyph glyph-name="afii57665" unicode="&#x5d1;" horiz-adv-x="1031" 
d="M817 780v-630q0 -19 19 -18h72q26 0 37 -11.5t11 -37.5v-34q0 -26 -11 -37.5t-37 -11.5h-765q-26 0 -37.5 11.5t-11.5 37.5v34q0 26 11 37.5t38 11.5h524q19 0 19 18v649q0 111 -43.5 154t-153.5 43h-305q-26 0 -37.5 11t-11.5 38v33q0 26 11.5 37.5t37.5 11.5h286
q190 0 268.5 -78.5t78.5 -268.5z" />
    <glyph glyph-name="afii57666" unicode="&#x5d2;" horiz-adv-x="777" 
d="M646 1022v-973q0 -26 -11 -37.5t-38 -11.5h-33q-26 0 -37.5 11.5t-11.5 37.5v259q0 21 -7.5 21t-18.5 -23q-39 -79 -111 -161q-56 -64 -129.5 -111t-124.5 -47q-26 0 -37.5 11t-11.5 38v34q0 19 6 30q8 13 24 16q147 45 267 188q98 113 133 243q9 30 10 66v364
q0 19 -19 19h-203q-26 0 -37.5 11t-11.5 38v33q0 26 11.5 37.5t37.5 11.5h248q56 0 80.5 -24.5t24.5 -80.5z" />
    <glyph glyph-name="afii57667" unicode="&#x5d3;" horiz-adv-x="1039" 
d="M765 49q0 -26 -11.5 -37.5t-37.5 -11.5h-34q-26 0 -37.5 11.5t-11.5 37.5v928q0 19 -19 19h-471q-26 0 -37.5 11t-11.5 38v33q0 26 11 37.5t38 11.5h753q26 0 37.5 -11t11.5 -38v-33q0 -26 -11 -37.5t-38 -11.5h-112q-19 0 -19 -19v-928z" />
    <glyph glyph-name="afii57668" unicode="&#x5d4;" horiz-adv-x="1080" 
d="M282 49q0 -26 -11.5 -37.5t-37.5 -11.5h-34q-26 0 -37.5 11.5t-11.5 37.5v577q0 26 11.5 37.5t37.5 11.5h34q26 0 37.5 -11.5t11.5 -37.5v-577zM723 1127q122 0 174 -51.5t52 -173.5v-853q0 -26 -11.5 -37.5t-37.5 -11.5h-34q-26 0 -37.5 11.5t-11.5 37.5v849
q0 54 -21.5 76t-77.5 22h-556q-26 0 -37.5 11t-11.5 38v33q0 26 11 37.5t38 11.5h561z" />
    <glyph glyph-name="afii57669" unicode="&#x5d5;" horiz-adv-x="629" 
d="M359 1127q75 0 107 -32t32 -107v-939q0 -26 -11.5 -37.5t-37.5 -11.5h-34q-26 0 -37.5 11.5t-11.5 37.5v928q0 19 -18 19h-205q-26 0 -37.5 11t-11.5 38v33q0 26 11 37.5t38 11.5h216z" />
    <glyph glyph-name="afii57670" unicode="&#x5d6;" horiz-adv-x="740" 
d="M436 49q0 -26 -11.5 -37.5t-37.5 -11.5h-34q-26 0 -37.5 11.5t-11.5 37.5v928q0 19 -18 19h-124q-26 0 -37.5 11t-11.5 38v33q0 26 11 37.5t38 11.5h417q26 0 37.5 -11t11.5 -38v-33q0 -26 -11.5 -37.5t-37.5 -11.5h-124q-19 0 -19 -19v-928z" />
    <glyph glyph-name="afii57671" unicode="&#x5d7;" horiz-adv-x="1228" 
d="M395 996q-19 0 -19 -19v-928q0 -26 -11.5 -37.5t-37.5 -11.5h-34q-26 0 -37.5 11.5t-11.5 37.5v928q0 19 -19 19h-82q-26 0 -37.5 11t-11.5 38v33q0 26 11 37.5t38 11.5h943q26 0 37.5 -11t11.5 -38v-33q0 -26 -11.5 -37.5t-37.5 -11.5h-88q-19 0 -19 -19v-928
q0 -26 -11.5 -37.5t-37.5 -11.5h-34q-26 0 -37.5 11.5t-11.5 37.5v928q0 19 -18 19h-434z" />
    <glyph glyph-name="afii57672" unicode="&#x5d8;" horiz-adv-x="1146" 
d="M1015 338q0 -94 -15 -149.5t-55 -96.5q-101 -105 -317 -105q-101 0 -184 27t-132 78q-39 39 -54.5 95.5t-15.5 150.5v639q0 19 -18 19h-81q-26 0 -37.5 11t-11.5 38v33q0 26 11 37.5t38 11.5h128q56 0 78 -24q24 -24 25 -81v-678q0 -107 36 -150q60 -77 218.5 -77.5
t218.5 77.5q36 43 36 150v543q-2 70 -35 103.5t-89 33.5t-90 -34q-34 -36 -34 -103v-126q0 -26 -11 -37.5t-38 -11.5h-34q-26 0 -37 11.5t-11 37.5v113q0 71 11 115t47 86q70 77 197 77q130 0 199 -79q34 -39 44.5 -89t12.5 -125v-521z" />
    <glyph glyph-name="afii57673" unicode="&#x5d9;" horiz-adv-x="633" 
d="M417 1127q56 0 79.5 -23.5t23.5 -81.5v-355q0 -26 -11 -37.5t-37 -11.5h-34q-26 0 -37.5 11.5t-11.5 37.5v310q0 19 -19 19h-227q-26 0 -37.5 11t-11.5 38v33q0 26 11 37.5t38 11.5h274z" />
    <glyph glyph-name="afii57674" unicode="&#x5da;" horiz-adv-x="1020" 
d="M622 -158v1135q0 19 -19 19h-460q-26 0 -37.5 11t-11.5 38v33q0 26 11 37.5t38 11.5h734q26 0 37.5 -11t11.5 -38v-33q0 -26 -11 -37.5t-38 -11.5h-105q-19 0 -19 -19v-1090q0 -19 19 -19h105q26 0 37.5 -11t11.5 -37v-34q0 -26 -11 -37.5t-38 -11.5h-152
q-56 0 -79.5 23.5t-23.5 81.5z" />
    <glyph glyph-name="afii57675" unicode="&#x5db;" horiz-adv-x="941" 
d="M325 0h-182q-26 0 -37.5 11.5t-11.5 37.5v34q0 26 11 37.5t38 11.5h238q261 0 312 206q23 98 23 226t-17 225q-19 101 -77 152q-60 54 -194 55h-276q-26 0 -37.5 11t-11.5 38v33q0 26 11.5 37.5t37.5 11.5h258q116 0 178 -17q94 -24 158 -99q101 -124 101 -447
q0 -325 -120 -448q-75 -75 -188 -99q-75 -17 -214 -17z" />
    <glyph glyph-name="afii57676" unicode="&#x5dc;" horiz-adv-x="1033" 
d="M789 477l-270 -242q-30 -28 -30 -64q0 -23 7.5 -31t29.5 -8h115q26 0 37.5 -11.5t11.5 -37.5v-34q0 -26 -11.5 -37.5t-37.5 -11.5h-152q-68 0 -108 38q-32 34 -32 101q0 56 12 92q21 56 77 107l250 226q60 56 80.5 105t20.5 141v88q0 54 -21.5 76t-76.5 22h-458
q-75 0 -107 32t-32 107v158q0 26 11 37.5t38 11.5h34q26 0 37 -11.5t11 -37.5v-147q0 -19 19 -19h451q122 0 174 -51.5t52 -173.5v-132q0 -98 -26.5 -160t-105.5 -133z" />
    <glyph glyph-name="afii57677" unicode="&#x5dd;" horiz-adv-x="1142" 
d="M404 996q-19 0 -19 -19v-827q0 -19 19 -18h457q19 0 18 18v748q0 54 -21.5 76t-75.5 22h-378zM235 996h-92q-26 0 -37.5 11t-11.5 38v33q0 26 11 37.5t38 11.5h642q122 0 174 -51.5t52 -173.5v-763q0 -75 -32 -107t-107 -32h-479q-75 0 -107 32t-32 107v838q0 19 -19 19z
" />
    <glyph glyph-name="afii57678" unicode="&#x5de;" horiz-adv-x="1146" 
d="M688 1016q-100 0 -177 -71t-101 -158q-19 -66 -19 -152v-586q0 -26 -11.5 -37.5t-37.5 -11.5h-34q-26 0 -37.5 11.5t-11.5 37.5v928q0 19 -19 19h-97q-26 0 -37.5 11t-11.5 38v33q0 26 11 37.5t38 11.5h143q58 0 81.5 -23.5t23.5 -81.5v-66q0 -15 7.5 -16t14.5 14
q34 75 116 130.5t177 55.5q156 0 235 -86q73 -79 74 -278v-671q0 -58 -23.5 -81.5t-82.5 -23.5h-274q-26 0 -37.5 11.5t-11.5 37.5v34q0 26 11.5 37.5t37.5 11.5h229q19 0 19 18v624q0 154 -56 203q-49 39 -139 39z" />
    <glyph glyph-name="afii57679" unicode="&#x5df;" horiz-adv-x="586" 
d="M293 977q0 19 -19 19h-131q-26 0 -37.5 11t-11.5 38v33q0 26 11 37.5t38 11.5h176q58 0 82 -23.5t24 -81.5v-1135q0 -19 18 -19h94q26 0 37.5 -11t11.5 -37v-34q0 -26 -11 -37.5t-38 -11.5h-139q-58 0 -81.5 23.5t-23.5 81.5v1135z" />
    <glyph glyph-name="afii57680" unicode="&#x5e0;" horiz-adv-x="625" 
d="M363 977q0 19 -19 19h-169q-26 0 -37.5 11t-11.5 38v33q0 26 11 37.5t38 11.5h216q56 0 79.5 -23.5t23.5 -81.5v-917q0 -58 -23.5 -81.5t-79.5 -23.5h-248q-26 0 -37.5 11.5t-11.5 37.5v34q0 26 11 37.5t38 11.5h201q19 0 19 18v827z" />
    <glyph glyph-name="afii57681" unicode="&#x5e1;" horiz-adv-x="1106" 
d="M346 357q0 -113 34 -160q60 -81 214 -81q158 0 216 81q34 47 34 160v541q0 54 -21 75q-23 23 -79 23h-379q-19 0 -19 -19v-620zM214 355v622q0 19 -19 19h-52q-26 0 -37.5 11t-11.5 38v33q0 26 11 37.5t38 11.5h607q124 0 174 -50q51 -53 51 -175v-547q0 -98 -15 -156
t-54 -103q-98 -109 -310 -109q-101 0 -184 29t-128 80q-39 45 -54.5 103t-15.5 156z" />
    <glyph glyph-name="afii57682" unicode="&#x5e2;" horiz-adv-x="1121" 
d="M468 132q216 0 302 88q49 47 69 113.5t20 188.5v455q0 19 -19 19h-117q-26 0 -37 11t-11 38v33q0 26 11 37.5t37 11.5h164q56 0 79.5 -23.5t23.5 -81.5v-466q0 -165 -19 -240q-28 -111 -101 -184q-79 -79 -190 -109q-86 -23 -225 -23h-305q-26 0 -37.5 11.5t-11.5 37.5
v34q0 26 11.5 37.5t37.5 11.5h130q19 0 19 18v827q0 19 -19 19h-137q-26 0 -37.5 11t-11.5 38v33q0 26 11 37.5t38 11.5h184q56 0 79.5 -23.5t23.5 -81.5v-872q0 -19 19 -18h19z" />
    <glyph glyph-name="afii57683" unicode="&#x5e3;" horiz-adv-x="1005" 
d="M263 552h175q26 0 37.5 -11t11.5 -37v-34q0 -26 -11.5 -37.5t-37.5 -11.5h-186q-75 0 -107 32t-32 107v428q0 75 32 107t107 32h471q75 0 107 -32t32 -107v-1101q0 -19 19 -19h94q26 0 37.5 -11t11.5 -37v-34q0 -26 -11.5 -37.5t-37.5 -11.5h-141q-56 0 -79.5 23.5
t-23.5 81.5v1135q0 19 -19 19h-449q-19 0 -19 -19v-406q0 -19 19 -19z" />
    <glyph glyph-name="afii57684" unicode="&#x5e4;" horiz-adv-x="1035" 
d="M772 229v748q0 19 -19 19h-471q-19 0 -19 -19v-383q0 -19 19 -19h207q26 0 37 -11.5t11 -37.5v-34q0 -26 -11 -37.5t-37 -11.5h-218q-75 0 -107 32t-32 107v406q0 75 31.5 107t107.5 32h494q75 0 107 -32t32 -107v-763q0 -122 -52 -173.5t-174 -51.5h-498q-26 0 -37 11.5
t-11 37.5v34q0 26 11 37.5t37 11.5h493q56 0 77.5 21.5t21.5 75.5z" />
    <glyph glyph-name="afii57685" unicode="&#x5e5;" horiz-adv-x="1101" 
d="M425 1022v-411q0 -11 3.5 -15t14.5 -4q113 4 203 41q130 56 181 173q30 71 30 171q0 19 -19 19h-147q-26 0 -37 11t-11 38v33q0 26 11 37.5t37 11.5h192q58 0 81.5 -23.5t23.5 -81.5q0 -165 -41 -267q-70 -173 -252 -246q-96 -39 -252 -56q-19 -2 -18 -19v-547
q0 -19 18 -19h136q26 0 37.5 -11t11.5 -37v-34q0 -26 -11.5 -37.5t-37.5 -11.5h-181q-58 0 -81.5 23.5t-23.5 81.5v1135q0 19 -19 19h-131q-26 0 -37.5 11t-11.5 38v33q0 26 11 37.5t38 11.5h176q58 0 82 -23.5t24 -81.5z" />
    <glyph glyph-name="afii57686" unicode="&#x5e6;" horiz-adv-x="1101" 
d="M701 515l101 -83q81 -64 107.5 -115.5t26.5 -145.5v-66q2 -56 -25 -81q-23 -24 -81 -24h-670q-26 0 -37.5 11.5t-11.5 37.5v34q0 26 11 37.5t38 11.5h625q19 0 19 18v30q0 51 -22.5 88.5t-73.5 79.5l-302 234q-75 58 -103.5 126t-28.5 168v101q0 19 -18 19h-113
q-26 0 -37.5 11t-11.5 38v33q0 26 11 37.5t38 11.5h158q58 0 80 -24q24 -23 25 -81v-107q0 -94 20.5 -145.5t80.5 -100.5l66 -53q17 -13 26 -5q86 53 153 126q86 94 86 240q0 19 -19 19h-101q-26 0 -37.5 11t-11.5 38v33q0 26 11 37.5t38 11.5h146q58 0 81 -24
q24 -23 25 -81q0 -256 -151 -391q-32 -28 -120 -97q-11 -10 2 -19z" />
    <glyph glyph-name="afii57687" unicode="&#x5e7;" horiz-adv-x="1039" 
d="M926 703q0 -111 -69 -196l-241 -267q-19 -21 -19 -52v-38q0 -19 19 -18h90q26 0 37.5 -11.5t11.5 -37.5v-34q0 -26 -11 -37.5t-38 -11.5h-135q-58 0 -81 24q-24 23 -24 81v83q0 83 47 135l239 263q43 53 43 135v177q0 54 -21 75q-23 23 -77 23h-535q-26 0 -37.5 11
t-11.5 38v33q0 26 11 37.5t38 11.5h539q124 0 174.5 -50.5t50.5 -174.5v-199zM308 -214q0 -26 -11 -37.5t-38 -11.5h-34q-26 0 -37 11.5t-11 37.5v962q0 26 11 37.5t37 11.5h34q26 0 37.5 -11.5t11.5 -37.5v-962z" />
    <glyph glyph-name="afii57688" unicode="&#x5e8;" horiz-adv-x="971" 
d="M614 1127q122 0 174 -51.5t52 -173.5v-853q0 -26 -11.5 -37.5t-37.5 -11.5h-34q-26 0 -37.5 11.5t-11.5 37.5v849q0 54 -21.5 76t-77.5 22h-466q-26 0 -37.5 11t-11.5 38v33q0 26 11 37.5t38 11.5h471z" />
    <glyph glyph-name="afii57689" unicode="&#x5e9;" horiz-adv-x="1307" 
d="M569 132q19 0 19 18v928q0 26 11.5 37.5t37.5 11.5h34q26 0 37.5 -11t11.5 -38v-928q0 -19 18 -18h109q111 0 154.5 43t43.5 154v648q0 19 -19 19h-60q-26 0 -37.5 11t-11.5 38v33q0 26 11 37.5t38 11.5h105q58 0 81.5 -23.5t23.5 -81.5v-674q0 -190 -79 -269t-268 -79
h-350q-190 0 -268.5 79t-78.5 269v674q0 58 23 81.5t82 23.5h105q26 0 37.5 -11t11.5 -38v-33q0 -26 -11.5 -37.5t-37.5 -11.5h-60q-19 0 -19 -19v-648q0 -111 43 -154t154 -43h109z" />
    <glyph glyph-name="afii57690" unicode="&#x5ea;" horiz-adv-x="1172" 
d="M265 996h-117q-26 0 -37 11t-11 38v33q0 26 11 37.5t37 11.5h667q122 0 174 -51.5t52 -173.5v-853q0 -26 -11.5 -37.5t-37.5 -11.5h-34q-26 0 -37.5 11.5t-11.5 37.5v849q0 54 -21.5 76t-75.5 22h-378q-19 0 -19 -19v-838q0 -75 -32 -107t-107 -32h-133q-26 0 -37.5 11.5
t-11.5 37.5v34q0 26 11 37.5t38 11.5h122q19 0 19 18v827q0 19 -19 19z" />
    <glyph glyph-name="afii57716" unicode="&#x5f0;" horiz-adv-x="1183" 
d="M951 1127q75 0 107 -32t32 -107v-939q0 -26 -11.5 -37.5t-37.5 -11.5h-34q-26 0 -37.5 11.5t-11.5 37.5v928q0 19 -18 19h-205q-26 0 -37.5 11t-11.5 38v33q0 26 11 37.5t38 11.5h216zM359 1127q75 0 107 -32t32 -107v-939q0 -26 -11.5 -37.5t-37.5 -11.5h-34
q-26 0 -37.5 11.5t-11.5 37.5v928q0 19 -18 19h-205q-26 0 -37.5 11t-11.5 38v33q0 26 11 37.5t38 11.5h216z" />
    <glyph glyph-name="afii57717" unicode="&#x5f1;" horiz-adv-x="1187" 
d="M955 1127q75 0 107 -32t32 -107v-939q0 -26 -11.5 -37.5t-37.5 -11.5h-34q-26 0 -37.5 11.5t-11.5 37.5v928q0 19 -18 19h-205q-26 0 -37.5 11t-11.5 38v33q0 26 11 37.5t38 11.5h216zM417 1127q56 0 79.5 -23.5t23.5 -81.5v-355q0 -26 -11 -37.5t-37 -11.5h-34
q-26 0 -37.5 11.5t-11.5 37.5v310q0 19 -19 19h-227q-26 0 -37.5 11t-11.5 38v33q0 26 11 37.5t38 11.5h274z" />
    <glyph glyph-name="afii57718" unicode="&#x5f2;" horiz-adv-x="1191" 
d="M1013 1127q56 0 79.5 -23.5t23.5 -81.5v-355q0 -26 -11 -37.5t-37 -11.5h-34q-26 0 -37.5 11.5t-11.5 37.5v310q0 19 -19 19h-227q-26 0 -37.5 11t-11.5 38v33q0 26 11 37.5t38 11.5h274zM417 1127q56 0 79.5 -23.5t23.5 -81.5v-355q0 -26 -11 -37.5t-37 -11.5h-34
q-26 0 -37.5 11.5t-11.5 37.5v310q0 19 -19 19h-227q-26 0 -37.5 11t-11.5 38v33q0 26 11 37.5t38 11.5h274z" />
    <glyph glyph-name="uni05F3" unicode="&#x5f3;" horiz-adv-x="458" 
d="M224 1159q11 30 29 42.5t48 12.5h62q64 0 30 -62l-156 -284q-15 -24 -27.5 -32.5t-32.5 -8.5h-49q-49 0 -28 49z" />
    <glyph glyph-name="uni05F4" unicode="&#x5f4;" horiz-adv-x="751" 
d="M524 1159q11 30 29 42.5t48 12.5h62q64 0 30 -62l-156 -284q-15 -24 -27 -32.5t-33 -8.5h-49q-49 0 -28 49zM224 1159q11 30 29 42.5t48 12.5h62q64 0 30 -62l-156 -284q-15 -24 -27.5 -32.5t-32.5 -8.5h-49q-49 0 -28 49z" />
    <glyph glyph-name="uni2000" unicode="&#x2000;" horiz-adv-x="729" 
 />
    <glyph glyph-name="uni2001" unicode="&#x2001;" horiz-adv-x="1458" 
 />
    <glyph glyph-name="uni2002" unicode="&#x2002;" horiz-adv-x="729" 
 />
    <glyph glyph-name="uni2003" unicode="&#x2003;" horiz-adv-x="1458" 
 />
    <glyph glyph-name="uni2004" unicode="&#x2004;" horiz-adv-x="484" 
 />
    <glyph glyph-name="uni2005" unicode="&#x2005;" horiz-adv-x="364" 
 />
    <glyph glyph-name="uni2006" unicode="&#x2006;" horiz-adv-x="242" 
 />
    <glyph glyph-name="uni2007" unicode="&#x2007;" horiz-adv-x="242" 
 />
    <glyph glyph-name="uni2008" unicode="&#x2008;" horiz-adv-x="182" 
 />
    <glyph glyph-name="uni2009" unicode="&#x2009;" horiz-adv-x="291" 
 />
    <glyph glyph-name="uni200A" unicode="&#x200a;" horiz-adv-x="80" 
 />
    <glyph glyph-name="uni2010" unicode="&#x2010;" horiz-adv-x="858" 
d="M697 530h-535q-26 0 -37.5 11t-11.5 38v34q0 26 11 37t38 11h535q26 0 37.5 -11t11.5 -37v-34q0 -26 -11.5 -37.5t-37.5 -11.5z" />
    <glyph glyph-name="uni2011" unicode="&#x2011;" horiz-adv-x="858" 
d="M697 530h-535q-26 0 -37.5 11t-11.5 38v34q0 26 11 37t38 11h535q26 0 37.5 -11t11.5 -37v-34q0 -26 -11.5 -37.5t-37.5 -11.5z" />
    <glyph glyph-name="figuredash" unicode="&#x2012;" horiz-adv-x="858" 
d="M697 530h-535q-26 0 -37.5 11t-11.5 38v34q0 26 11 37t38 11h535q26 0 37.5 -11t11.5 -37v-34q0 -26 -11.5 -37.5t-37.5 -11.5z" />
    <glyph glyph-name="endash" unicode="&#x2013;" horiz-adv-x="877" 
d="M735 530h-592q-26 0 -37.5 11t-11.5 38v34q0 26 11 37t38 11h592q26 0 37.5 -11t11.5 -37v-34q0 -26 -11.5 -37.5t-37.5 -11.5z" />
    <glyph glyph-name="emdash" unicode="&#x2014;" horiz-adv-x="1253" 
d="M1110 530h-967q-26 0 -37.5 11t-11.5 38v34q0 26 11 37t38 11h967q26 0 37.5 -11t11.5 -37v-34q0 -26 -11.5 -37.5t-37.5 -11.5z" />
    <glyph glyph-name="quoteright" unicode="&#x2019;" horiz-adv-x="458" 
d="M224 1159q11 30 29 42.5t48 12.5h62q64 0 30 -62l-156 -284q-15 -24 -27.5 -32.5t-32.5 -8.5h-49q-49 0 -28 49z" />
    <glyph glyph-name="quotesinglbase" unicode="&#x201a;" horiz-adv-x="458" 
d="M224 152q11 30 29 42.5t48 12.5h62q64 0 30 -62l-156 -284q-15 -24 -27.5 -32.5t-32.5 -8.5h-49q-49 0 -28 49z" />
    <glyph glyph-name="quotedblleft" unicode="&#x201c;" horiz-adv-x="759" 
d="M524 1159q11 30 29 42.5t48 12.5h62q64 0 30 -62l-156 -284q-15 -24 -27 -32.5t-33 -8.5h-49q-49 0 -28 49zM224 1159q11 30 29 42.5t48 12.5h62q64 0 30 -62l-156 -284q-15 -24 -27.5 -32.5t-32.5 -8.5h-49q-49 0 -28 49z" />
    <glyph glyph-name="quotedblright" unicode="&#x201d;" horiz-adv-x="749" 
d="M524 1159q11 30 29 42.5t48 12.5h62q64 0 30 -62l-156 -284q-15 -24 -27 -32.5t-33 -8.5h-49q-49 0 -28 49zM224 1159q11 30 29 42.5t48 12.5h62q64 0 30 -62l-156 -284q-15 -24 -27.5 -32.5t-32.5 -8.5h-49q-49 0 -28 49z" />
    <glyph glyph-name="quotedblbase" unicode="&#x201e;" horiz-adv-x="749" 
d="M524 152q11 30 29 42.5t48 12.5h62q64 0 30 -62l-156 -284q-15 -24 -27 -32.5t-33 -8.5h-49q-49 0 -28 49zM224 152q11 30 29 42.5t48 12.5h62q64 0 30 -62l-156 -284q-15 -24 -27.5 -32.5t-32.5 -8.5h-49q-49 0 -28 49z" />
    <glyph glyph-name="ellipsis" unicode="&#x2026;" horiz-adv-x="1446" 
d="M1296 99.5q0 -56.5 -11 -78.5q-21 -41 -73.5 -41.5t-73.5 41.5q-11 23 -11 79t11 78q21 41 73.5 41.5t73.5 -41.5q11 -22 11 -78.5zM808 99.5q0 -56.5 -11 -78.5q-21 -41 -73.5 -41.5t-73.5 41.5q-11 23 -11 79t11 78q21 41 73.5 41.5t73.5 -41.5q11 -22 11 -78.5z
M319 99.5q0 -56.5 -11 -78.5q-21 -41 -73.5 -41.5t-73.5 41.5q-11 23 -11 79t11 78q21 41 73.5 41.5t73.5 -41.5q11 -22 11 -78.5z" />
    <glyph glyph-name="uni202F" unicode="&#x202f;" horiz-adv-x="291" 
 />
    <glyph glyph-name="guilsinglleft" unicode="&#x2039;" horiz-adv-x="817" 
d="M310 520l402 -336q19 -17 21 -32t-15 -36l-23 -26q-17 -21 -33 -21.5t-34 16.5l-523 435q-21 17 -20.5 40.5t20.5 42.5l523 440q19 17 34.5 15t32.5 -21l23 -26q17 -21 15 -36t-21 -34l-402 -338q-21 -19 -21 -41q0 -25 21 -42z" />
    <glyph glyph-name="guilsinglright" unicode="&#x203a;" horiz-adv-x="817" 
d="M507 520q21 17 21 42q0 23 -21 41l-400 338q-21 19 -22 34q-2 15 15 36l22 26q17 19 33 21t37 -15l520 -440q21 -19 21 -42.5t-21 -40.5l-520 -435q-21 -17 -37 -16t-33 21l-22 26q-17 21 -15 36t22 32z" />
    <glyph glyph-name="uni205F" unicode="&#x205f;" horiz-adv-x="364" 
 />
    <glyph glyph-name="Euro" unicode="&#x20ac;" horiz-adv-x="948" 
d="M265 564v-42q2 -21 21 -20h353q26 0 37 -12q13 -13 8 -37l-6 -25q-8 -24 -20 -37q-11 -11 -38 -11h-304q-11 0 -18 -8.5t-3 -18.5q19 -58 49 -101q94 -133 269 -134q83 0 159 36q26 11 38 8q17 -4 30 -27l17 -30q13 -23 7 -37q-4 -19 -26 -29q-105 -54 -225 -54
q-113 0 -211 46t-162 132q-58 81 -86 202q-4 15 -19 15h-11q-26 0 -37.5 11t-11.5 37v25q0 26 11 37q9 9 29 12q21 2 18 20v42v30q2 19 -18 20q-19 2 -29 12q-11 11 -11 37v25q0 26 11.5 37.5t37.5 11.5h8q17 0 20 15q26 128 88 212q64 86 162 132t211 46q122 0 234 -58
q23 -13 27 -30q4 -15 -10 -38l-15 -30q-13 -23 -30 -26q-15 -6 -37 8q-71 41 -169 41q-175 0 -269 -133q-32 -47 -53 -111q-2 -11 5 -19.5t16 -8.5h378q26 0 37 -12q13 -13 8 -37l-8 -25q-6 -24 -19 -37q-11 -11 -37 -12h-385q-21 0 -21 -20v-30z" />
    <glyph glyph-name="uniE000" unicode="&#xe000;" horiz-adv-x="500" 
d="M0 0v0v0v0v0z" />
    <glyph glyph-name="uniFB1D" unicode="&#xfb1d;" horiz-adv-x="633" 
d="M378 -171q0 -34 -12 -51q-17 -24 -56 -24t-56 24q-11 17 -12 51q0 36 12 49q15 26 56 26t56 -26q12 -13 12 -49zM417 1127q56 0 79.5 -23.5t23.5 -81.5v-355q0 -26 -11 -37.5t-37 -11.5h-34q-26 0 -37.5 11.5t-11.5 37.5v310q0 19 -19 19h-227q-26 0 -37.5 11t-11.5 38
v33q0 26 11 37.5t38 11.5h274z" />
    <glyph glyph-name="uniFB1E" unicode="&#xfb1e;" 
d="M212.5 1328.5q9.5 -24.5 1.5 -39.5t-32 -23q-182 -56 -364 0q-24 9 -32 23.5t1.5 39t24.5 31.5q13 6 40 -2q152 -47 296 0q26 8 40 2q15 -7 24.5 -31.5z" />
    <glyph glyph-name="uniFB1F" unicode="&#xfb1f;" horiz-adv-x="1191" 
d="M904 375.5q0 -26.5 -11 -37.5t-38 -11h-330q-26 0 -37.5 11t-11.5 37.5t11 37.5t38 11h330q26 0 37.5 -11t11.5 -37.5zM417 1127q56 0 79.5 -23.5t23.5 -81.5v-355q0 -26 -11 -37.5t-37 -11.5h-34q-26 0 -37.5 11.5t-11.5 37.5v310q0 19 -19 19h-227q-26 0 -37.5 11
t-11.5 38v33q0 26 11 37.5t38 11.5h274zM1013 1127q56 0 79.5 -23.5t23.5 -81.5v-355q0 -26 -11 -37.5t-37 -11.5h-34q-26 0 -37.5 11.5t-11.5 37.5v310q0 19 -19 19h-227q-26 0 -37.5 11t-11.5 38v33q0 26 11 37.5t38 11.5h274z" />
    <glyph glyph-name="uniFB20" unicode="&#xfb20;" horiz-adv-x="1121" 
d="M468 132q216 0 302 88q49 47 69 113.5t20 188.5v455q0 19 -19 19h-117q-26 0 -37 11t-11 38v33q0 26 11 37.5t37 11.5h164q56 0 79.5 -23.5t23.5 -81.5v-466q0 -165 -19 -240q-28 -111 -101 -184q-79 -79 -190 -109q-86 -23 -225 -23h-305q-26 0 -37.5 11.5t-11.5 37.5
v34q0 26 11.5 37.5t37.5 11.5h130q19 0 19 18v827q0 19 -19 19h-137q-26 0 -37.5 11t-11.5 38v33q0 26 11 37.5t38 11.5h184q56 0 79.5 -23.5t23.5 -81.5v-872q0 -19 19 -18h19z" />
    <glyph glyph-name="uniFB21" unicode="&#xfb21;" horiz-adv-x="1106" 
d="M761 411q-13 -6 -8 -15l230 -332q15 -21 11 -38q-4 -26 -32 -26h-68q-28 0 -45 24l-424 619q-8 11 -21 7q-85 -23 -126 -98q-34 -66 -34 -189v-213q0 -19 19 -18h120q26 0 37.5 -11.5t11.5 -37.5v-34q0 -26 -11 -37.5t-38 -11.5h-165q-56 0 -80.5 24.5t-24.5 80.5v269
q0 163 52 250q56 94 158 137q15 8 6 21l-194 281q-17 23 -13 42q9 23 34 22h68q26 0 45 -26l389 -566q9 -13 20 -9q98 38 141 113q34 58 34 195v143q0 19 -19 19h-120q-26 0 -37.5 11t-11.5 38v33q0 26 11.5 37.5t37.5 11.5h165q56 0 81 -24.5t25 -80.5v-199
q0 -169 -47 -256q-57 -102 -177 -156z" />
    <glyph glyph-name="uniFB22" unicode="&#xfb22;" horiz-adv-x="1039" 
d="M765 49q0 -26 -11.5 -37.5t-37.5 -11.5h-34q-26 0 -37.5 11.5t-11.5 37.5v928q0 19 -19 19h-471q-26 0 -37.5 11t-11.5 38v33q0 26 11 37.5t38 11.5h753q26 0 37.5 -11t11.5 -38v-33q0 -26 -11 -37.5t-38 -11.5h-112q-19 0 -19 -19v-928z" />
    <glyph glyph-name="uniFB23" unicode="&#xfb23;" horiz-adv-x="1080" 
d="M282 49q0 -26 -11.5 -37.5t-37.5 -11.5h-34q-26 0 -37.5 11.5t-11.5 37.5v577q0 26 11.5 37.5t37.5 11.5h34q26 0 37.5 -11.5t11.5 -37.5v-577zM723 1127q122 0 174 -51.5t52 -173.5v-853q0 -26 -11.5 -37.5t-37.5 -11.5h-34q-26 0 -37.5 11.5t-11.5 37.5v849
q0 54 -21.5 76t-77.5 22h-556q-26 0 -37.5 11t-11.5 38v33q0 26 11 37.5t38 11.5h561z" />
    <glyph glyph-name="uniFB24" unicode="&#xfb24;" horiz-adv-x="941" 
d="M325 0h-182q-26 0 -37.5 11.5t-11.5 37.5v34q0 26 11 37.5t38 11.5h238q261 0 312 206q23 98 23 226t-17 225q-19 101 -77 152q-60 54 -194 55h-276q-26 0 -37.5 11t-11.5 38v33q0 26 11.5 37.5t37.5 11.5h258q116 0 178 -17q94 -24 158 -99q101 -124 101 -447
q0 -325 -120 -448q-75 -75 -188 -99q-75 -17 -214 -17z" />
    <glyph glyph-name="uniFB25" unicode="&#xfb25;" horiz-adv-x="1033" 
d="M789 477l-270 -242q-30 -28 -30 -64q0 -23 7.5 -31t29.5 -8h115q26 0 37.5 -11.5t11.5 -37.5v-34q0 -26 -11.5 -37.5t-37.5 -11.5h-152q-68 0 -108 38q-32 34 -32 101q0 56 12 92q21 56 77 107l250 226q60 56 80.5 105t20.5 141v88q0 54 -21.5 76t-76.5 22h-458
q-75 0 -107 32t-32 107v158q0 26 11 37.5t38 11.5h34q26 0 37 -11.5t11 -37.5v-147q0 -19 19 -19h451q122 0 174 -51.5t52 -173.5v-132q0 -98 -26.5 -160t-105.5 -133z" />
    <glyph glyph-name="uniFB26" unicode="&#xfb26;" horiz-adv-x="1142" 
d="M404 996q-19 0 -19 -19v-827q0 -19 19 -18h457q19 0 18 18v748q0 54 -21.5 76t-75.5 22h-378zM235 996h-92q-26 0 -37.5 11t-11.5 38v33q0 26 11 37.5t38 11.5h642q122 0 174 -51.5t52 -173.5v-763q0 -75 -32 -107t-107 -32h-479q-75 0 -107 32t-32 107v838q0 19 -19 19z
" />
    <glyph glyph-name="uniFB27" unicode="&#xfb27;" horiz-adv-x="971" 
d="M614 1127q122 0 174 -51.5t52 -173.5v-853q0 -26 -11.5 -37.5t-37.5 -11.5h-34q-26 0 -37.5 11.5t-11.5 37.5v849q0 54 -21.5 76t-77.5 22h-466q-26 0 -37.5 11t-11.5 38v33q0 26 11 37.5t38 11.5h471z" />
    <glyph glyph-name="uniFB28" unicode="&#xfb28;" horiz-adv-x="1172" 
d="M265 996h-117q-26 0 -37 11t-11 38v33q0 26 11 37.5t37 11.5h667q122 0 174 -51.5t52 -173.5v-853q0 -26 -11.5 -37.5t-37.5 -11.5h-34q-26 0 -37.5 11.5t-11.5 37.5v849q0 54 -21.5 76t-75.5 22h-378q-19 0 -19 -19v-838q0 -75 -32 -107t-107 -32h-133q-26 0 -37.5 11.5
t-11.5 37.5v34q0 26 11 37.5t38 11.5h122q19 0 19 18v827q0 19 -19 19z" />
    <glyph glyph-name="uniFB29" unicode="&#xfb29;" horiz-adv-x="896" 
d="M735 445h-573q-26 0 -37.5 11.5t-11.5 37.5v34q0 26 11 37.5t38 11.5h203q19 0 18 19v259q0 26 11.5 37.5t37.5 11.5h34q26 0 37.5 -11.5t11.5 -37.5v-259q0 -19 19 -19h201q26 0 37.5 -11.5t11.5 -37.5v-34q0 -26 -11.5 -37.5t-37.5 -11.5z" />
    <glyph glyph-name="uniFB2A" unicode="&#xfb2a;" horiz-adv-x="1307" 
d="M1176 1289q0 -34 -9 -51q-17 -24 -58 -24q-39 0 -57 24q-9 17 -9 51t9 49q17 26 57 26q41 0 58 -26q9 -13 9 -49zM569 132q19 0 19 18v928q0 26 11.5 37.5t37.5 11.5h34q26 0 37.5 -11t11.5 -38v-928q0 -19 18 -18h109q111 0 154.5 43t43.5 154v648q0 19 -19 19h-60
q-26 0 -37.5 11t-11.5 38v33q0 26 11 37.5t38 11.5h105q58 0 81.5 -23.5t23.5 -81.5v-674q0 -190 -79 -269t-268 -79h-350q-190 0 -268.5 79t-78.5 269v674q0 58 23 81.5t82 23.5h105q26 0 37.5 -11t11.5 -38v-33q0 -26 -11.5 -37.5t-37.5 -11.5h-60q-19 0 -19 -19v-648
q0 -111 43 -154t154 -43h109z" />
    <glyph glyph-name="uniFB2B" unicode="&#xfb2b;" horiz-adv-x="1307" 
d="M265 1289q0 -34 -9 -51q-17 -24 -59 -24q-39 0 -56 24q-9 17 -9 51t9 49q17 26 56 26q41 0 59 -26q9 -15 9 -49zM569 132q19 0 19 18v928q0 26 11.5 37.5t37.5 11.5h34q26 0 37.5 -11t11.5 -38v-928q0 -19 18 -18h109q111 0 154.5 43t43.5 154v648q0 19 -19 19h-60
q-26 0 -37.5 11t-11.5 38v33q0 26 11 37.5t38 11.5h105q58 0 81.5 -23.5t23.5 -81.5v-674q0 -190 -79 -269t-268 -79h-350q-190 0 -268.5 79t-78.5 269v674q0 58 23 81.5t82 23.5h105q26 0 37.5 -11t11.5 -38v-33q0 -26 -11.5 -37.5t-37.5 -11.5h-60q-19 0 -19 -19v-648
q0 -111 43 -154t154 -43h109z" />
    <glyph glyph-name="uniFB2C" unicode="&#xfb2c;" horiz-adv-x="1307" 
d="M1176 1289q0 -34 -9 -51q-17 -24 -58 -24q-39 0 -57 24q-9 17 -9 51t9 49q17 26 57 26q41 0 58 -26q9 -13 9 -49zM569 132q19 0 19 18v928q0 26 11.5 37.5t37.5 11.5h34q26 0 37.5 -11t11.5 -38v-928q0 -19 18 -18h109q111 0 154.5 43t43.5 154v648q0 19 -19 19h-60
q-26 0 -37.5 11t-11.5 38v33q0 26 11 37.5t38 11.5h105q58 0 81.5 -23.5t23.5 -81.5v-674q0 -190 -79 -269t-268 -79h-350q-190 0 -268.5 79t-78.5 269v674q0 58 23 81.5t82 23.5h105q26 0 37.5 -11t11.5 -38v-33q0 -26 -11.5 -37.5t-37.5 -11.5h-60q-19 0 -19 -19v-648
q0 -111 43 -154t154 -43h109zM874 458q-39 0 -55 25q-9 15 -9 49v64q0 34 9 47q15 26 55 26h17q41 0 56 -26q9 -13 9 -47v-64q0 -34 -9 -49q-15 -24 -56 -25h-17z" />
    <glyph glyph-name="uniFB2D" unicode="&#xfb2d;" horiz-adv-x="1307" 
d="M265 1289q0 -34 -9 -51q-17 -24 -59 -24q-39 0 -56 24q-9 17 -9 51t9 49q17 26 56 26q41 0 59 -26q9 -15 9 -49zM569 132q19 0 19 18v928q0 26 11.5 37.5t37.5 11.5h34q26 0 37.5 -11t11.5 -38v-928q0 -19 18 -18h109q111 0 154.5 43t43.5 154v648q0 19 -19 19h-60
q-26 0 -37.5 11t-11.5 38v33q0 26 11 37.5t38 11.5h105q58 0 81.5 -23.5t23.5 -81.5v-674q0 -190 -79 -269t-268 -79h-350q-190 0 -268.5 79t-78.5 269v674q0 58 23 81.5t82 23.5h105q26 0 37.5 -11t11.5 -38v-33q0 -26 -11.5 -37.5t-37.5 -11.5h-60q-19 0 -19 -19v-648
q0 -111 43 -154t154 -43h109zM874 458q-39 0 -55 25q-9 15 -9 49v64q0 34 9 47q15 26 55 26h17q41 0 56 -26q9 -13 9 -47v-64q0 -34 -9 -49q-15 -24 -56 -25h-17z" />
    <glyph glyph-name="uniFB2E" unicode="&#xfb2e;" horiz-adv-x="1106" 
d="M778 -161.5q0 -26.5 -11 -37.5t-38 -11h-330q-26 0 -37.5 11t-11.5 37.5t11 37.5t38 11h330q26 0 37.5 -11t11.5 -37.5zM761 411q-13 -6 -8 -15l230 -332q15 -21 11 -38q-4 -26 -32 -26h-68q-28 0 -45 24l-424 619q-8 11 -21 7q-85 -23 -126 -98q-34 -66 -34 -189v-213
q0 -19 19 -18h120q26 0 37.5 -11.5t11.5 -37.5v-34q0 -26 -11 -37.5t-38 -11.5h-165q-56 0 -80.5 24.5t-24.5 80.5v269q0 163 52 250q56 94 158 137q15 8 6 21l-194 281q-17 23 -13 42q9 23 34 22h68q26 0 45 -26l389 -566q9 -13 20 -9q98 38 141 113q34 58 34 195v143
q0 19 -19 19h-120q-26 0 -37.5 11t-11.5 38v33q0 26 11.5 37.5t37.5 11.5h165q56 0 81 -24.5t25 -80.5v-199q0 -169 -47 -256q-57 -102 -177 -156z" />
    <glyph glyph-name="uniFB2F" unicode="&#xfb2f;" horiz-adv-x="1106" 
d="M613 -338q0 -26 -11 -38q-11 -11 -37.5 -11t-38 11t-11.5 38v109q0 19 -19 19h-97q-26 0 -37.5 11t-11.5 37.5t11 37.5t38 11h330q26 0 37.5 -11t11.5 -37.5t-11 -37.5t-38 -11h-97q-9 0 -14 -4t-5 -15v-109zM761 411q-13 -6 -8 -15l230 -332q15 -21 11 -38
q-4 -26 -32 -26h-68q-28 0 -45 24l-424 619q-8 11 -21 7q-85 -23 -126 -98q-34 -66 -34 -189v-213q0 -19 19 -18h120q26 0 37.5 -11.5t11.5 -37.5v-34q0 -26 -11 -37.5t-38 -11.5h-165q-56 0 -80.5 24.5t-24.5 80.5v269q0 163 52 250q56 94 158 137q15 8 6 21l-194 281
q-17 23 -13 42q9 23 34 22h68q26 0 45 -26l389 -566q9 -13 20 -9q98 38 141 113q34 58 34 195v143q0 19 -19 19h-120q-26 0 -37.5 11t-11.5 38v33q0 26 11.5 37.5t37.5 11.5h165q56 0 81 -24.5t25 -80.5v-199q0 -169 -47 -256q-57 -102 -177 -156z" />
    <glyph glyph-name="uniFB30" unicode="&#xfb30;" horiz-adv-x="1106" 
d="M446 199q-39 0 -55 25q-9 15 -9 49v64q0 34 9 47q15 26 55 26h17q41 0 56 -26q9 -13 9 -47v-64q0 -34 -9 -49q-15 -24 -56 -25h-17zM761 411q-13 -6 -8 -15l230 -332q15 -21 11 -38q-4 -26 -32 -26h-68q-28 0 -45 24l-424 619q-8 11 -21 7q-85 -23 -126 -98
q-34 -66 -34 -189v-213q0 -19 19 -18h120q26 0 37.5 -11.5t11.5 -37.5v-34q0 -26 -11 -37.5t-38 -11.5h-165q-56 0 -80.5 24.5t-24.5 80.5v269q0 163 52 250q56 94 158 137q15 8 6 21l-194 281q-17 23 -13 42q9 23 34 22h68q26 0 45 -26l389 -566q9 -13 20 -9q98 38 141 113
q34 58 34 195v143q0 19 -19 19h-120q-26 0 -37.5 11t-11.5 38v33q0 26 11.5 37.5t37.5 11.5h165q56 0 81 -24.5t25 -80.5v-199q0 -169 -47 -256q-57 -102 -177 -156z" />
    <glyph glyph-name="uniFB31" unicode="&#xfb31;" horiz-adv-x="1031" 
d="M427 458q-39 0 -55 25q-9 15 -9 49v64q0 34 9 47q15 26 55 26h17q41 0 56 -26q9 -13 9 -47v-64q0 -34 -9 -49q-15 -24 -56 -25h-17zM817 780v-630q0 -19 19 -18h72q26 0 37 -11.5t11 -37.5v-34q0 -26 -11 -37.5t-37 -11.5h-765q-26 0 -37.5 11.5t-11.5 37.5v34
q0 26 11 37.5t38 11.5h524q19 0 19 18v649q0 111 -43.5 154t-153.5 43h-305q-26 0 -37.5 11t-11.5 38v33q0 26 11.5 37.5t37.5 11.5h286q190 0 268.5 -78.5t78.5 -268.5z" />
    <glyph glyph-name="uniFB32" unicode="&#xfb32;" horiz-adv-x="777" 
d="M292 458q-39 0 -55 25q-9 15 -9 49v64q0 34 9 47q15 26 55 26h17q41 0 56 -26q9 -13 9 -47v-64q0 -34 -9 -49q-15 -24 -56 -25h-17zM646 1022v-973q0 -26 -11 -37.5t-38 -11.5h-33q-26 0 -37.5 11.5t-11.5 37.5v259q0 21 -7.5 21t-18.5 -23q-39 -79 -111 -161
q-56 -64 -129.5 -111t-124.5 -47q-26 0 -37.5 11t-11.5 38v34q0 19 6 30q8 13 24 16q147 45 267 188q98 113 133 243q9 30 10 66v364q0 19 -19 19h-203q-26 0 -37.5 11t-11.5 38v33q0 26 11.5 37.5t37.5 11.5h248q56 0 80.5 -24.5t24.5 -80.5z" />
    <glyph glyph-name="uniFB33" unicode="&#xfb33;" horiz-adv-x="1039" 
d="M423 458q-39 0 -55 25q-9 15 -9 49v64q0 34 9 47q15 26 55 26h17q41 0 56 -26q9 -13 9 -47v-64q0 -34 -9 -49q-15 -24 -56 -25h-17zM765 49q0 -26 -11.5 -37.5t-37.5 -11.5h-34q-26 0 -37.5 11.5t-11.5 37.5v928q0 19 -19 19h-471q-26 0 -37.5 11t-11.5 38v33
q0 26 11 37.5t38 11.5h753q26 0 37.5 -11t11.5 -38v-33q0 -26 -11 -37.5t-38 -11.5h-112q-19 0 -19 -19v-928z" />
    <glyph glyph-name="uniFB34" unicode="&#xfb34;" horiz-adv-x="1080" 
d="M551 458q-39 0 -55 25q-9 15 -9 49v64q0 34 9 47q15 26 55 26h17q41 0 56 -26q9 -13 9 -47v-64q0 -34 -9 -49q-15 -24 -56 -25h-17zM282 49q0 -26 -11.5 -37.5t-37.5 -11.5h-34q-26 0 -37.5 11.5t-11.5 37.5v577q0 26 11.5 37.5t37.5 11.5h34q26 0 37.5 -11.5t11.5 -37.5
v-577zM723 1127q122 0 174 -51.5t52 -173.5v-853q0 -26 -11.5 -37.5t-37.5 -11.5h-34q-26 0 -37.5 11.5t-11.5 37.5v849q0 54 -21.5 76t-77.5 22h-556q-26 0 -37.5 11t-11.5 38v33q0 26 11 37.5t38 11.5h561z" />
    <glyph glyph-name="uniFB35" unicode="&#xfb35;" horiz-adv-x="629" 
d="M198 458q-39 0 -55 25q-9 15 -9 49v64q0 34 9 47q15 26 55 26h17q41 0 56 -26q9 -13 9 -47v-64q0 -34 -9 -49q-15 -24 -56 -25h-17zM359 1127q75 0 107 -32t32 -107v-939q0 -26 -11.5 -37.5t-37.5 -11.5h-34q-26 0 -37.5 11.5t-11.5 37.5v928q0 19 -18 19h-205
q-26 0 -37.5 11t-11.5 38v33q0 26 11 37.5t38 11.5h216z" />
    <glyph glyph-name="uniFB36" unicode="&#xfb36;" horiz-adv-x="740" 
d="M153 458q-39 0 -55 25q-9 15 -9 49v64q0 34 9 47q15 26 55 26h17q41 0 56 -26q9 -13 9 -47v-64q0 -34 -9 -49q-15 -24 -56 -25h-17zM436 49q0 -26 -11.5 -37.5t-37.5 -11.5h-34q-26 0 -37.5 11.5t-11.5 37.5v928q0 19 -18 19h-124q-26 0 -37.5 11t-11.5 38v33
q0 26 11 37.5t38 11.5h417q26 0 37.5 -11t11.5 -38v-33q0 -26 -11.5 -37.5t-37.5 -11.5h-124q-19 0 -19 -19v-928z" />
    <glyph glyph-name="uniFB38" unicode="&#xfb38;" horiz-adv-x="1146" 
d="M624 364q-39 0 -55 25q-9 15 -9 49v64q0 34 9 47q15 26 55 26h17q41 0 56 -26q9 -13 9 -47v-64q0 -34 -9 -49q-15 -24 -56 -25h-17zM1015 338q0 -94 -15 -149.5t-55 -96.5q-101 -105 -317 -105q-101 0 -184 27t-132 78q-39 39 -54.5 95.5t-15.5 150.5v639q0 19 -18 19
h-81q-26 0 -37.5 11t-11.5 38v33q0 26 11 37.5t38 11.5h128q56 0 78 -24q24 -24 25 -81v-678q0 -107 36 -150q60 -77 218.5 -77.5t218.5 77.5q36 43 36 150v543q-2 70 -35 103.5t-89 33.5t-90 -34q-34 -36 -34 -103v-126q0 -26 -11 -37.5t-38 -11.5h-34q-26 0 -37 11.5
t-11 37.5v113q0 71 11 115t47 86q70 77 197 77q130 0 199 -79q34 -39 44.5 -89t12.5 -125v-521z" />
    <glyph glyph-name="uniFB39" unicode="&#xfb39;" horiz-adv-x="633" 
d="M216 650q-39 0 -55 25q-9 15 -9 49v64q0 34 9 47q15 26 55 26h17q41 0 56 -26q9 -13 9 -47v-64q0 -34 -9 -49q-15 -24 -56 -25h-17zM417 1127q56 0 79.5 -23.5t23.5 -81.5v-355q0 -26 -11 -37.5t-37 -11.5h-34q-26 0 -37.5 11.5t-11.5 37.5v310q0 19 -19 19h-227
q-26 0 -37.5 11t-11.5 38v33q0 26 11 37.5t38 11.5h274z" />
    <glyph glyph-name="uniFB3A" unicode="&#xfb3a;" horiz-adv-x="1020" 
d="M431 458q-39 0 -55 25q-9 15 -9 49v64q0 34 9 47q15 26 55 26h17q41 0 56 -26q9 -13 9 -47v-64q0 -34 -9 -49q-15 -24 -56 -25h-17zM622 -158v1135q0 19 -19 19h-460q-26 0 -37.5 11t-11.5 38v33q0 26 11 37.5t38 11.5h734q26 0 37.5 -11t11.5 -38v-33q0 -26 -11 -37.5
t-38 -11.5h-105q-19 0 -19 -19v-1090q0 -19 19 -19h105q26 0 37.5 -11t11.5 -37v-34q0 -26 -11 -37.5t-38 -11.5h-152q-56 0 -79.5 23.5t-23.5 81.5z" />
    <glyph glyph-name="uniFB3B" unicode="&#xfb3b;" horiz-adv-x="941" 
d="M410 458q-39 0 -55 25q-9 15 -9 49v64q0 34 9 47q15 26 55 26h17q41 0 56 -26q9 -13 9 -47v-64q0 -34 -9 -49q-15 -24 -56 -25h-17zM325 0h-182q-26 0 -37.5 11.5t-11.5 37.5v34q0 26 11 37.5t38 11.5h238q261 0 312 206q23 98 23 226t-17 225q-19 101 -77 152
q-60 54 -194 55h-276q-26 0 -37.5 11t-11.5 38v33q0 26 11.5 37.5t37.5 11.5h258q116 0 178 -17q94 -24 158 -99q101 -124 101 -447q0 -325 -120 -448q-75 -75 -188 -99q-75 -17 -214 -17z" />
    <glyph glyph-name="uniFB3C" unicode="&#xfb3c;" horiz-adv-x="1033" 
d="M487 635q-39 0 -55 25q-9 15 -9 49v64q0 34 9 47q15 26 55 26h17q41 0 56 -26q9 -13 9 -47v-64q0 -34 -9 -49q-15 -24 -56 -25h-17zM789 477l-270 -242q-30 -28 -30 -64q0 -23 7.5 -31t29.5 -8h115q26 0 37.5 -11.5t11.5 -37.5v-34q0 -26 -11.5 -37.5t-37.5 -11.5h-152
q-68 0 -108 38q-32 34 -32 101q0 56 12 92q21 56 77 107l250 226q60 56 80.5 105t20.5 141v88q0 54 -21.5 76t-76.5 22h-458q-75 0 -107 32t-32 107v158q0 26 11 37.5t38 11.5h34q26 0 37 -11.5t11 -37.5v-147q0 -19 19 -19h451q122 0 174 -51.5t52 -173.5v-132
q0 -98 -26.5 -160t-105.5 -133z" />
    <glyph glyph-name="uniFB3E" unicode="&#xfb3e;" horiz-adv-x="1146" 
d="M628 458q-39 0 -55 25q-9 15 -9 49v64q0 34 9 47q15 26 55 26h17q41 0 56 -26q9 -13 9 -47v-64q0 -34 -9 -49q-15 -24 -56 -25h-17zM688 1016q-100 0 -177 -71t-101 -158q-19 -66 -19 -152v-586q0 -26 -11.5 -37.5t-37.5 -11.5h-34q-26 0 -37.5 11.5t-11.5 37.5v928
q0 19 -19 19h-97q-26 0 -37.5 11t-11.5 38v33q0 26 11 37.5t38 11.5h143q58 0 81.5 -23.5t23.5 -81.5v-66q0 -15 7.5 -16t14.5 14q34 75 116 130.5t177 55.5q156 0 235 -86q73 -79 74 -278v-671q0 -58 -23.5 -81.5t-82.5 -23.5h-274q-26 0 -37.5 11.5t-11.5 37.5v34
q0 26 11.5 37.5t37.5 11.5h229q19 0 19 18v624q0 154 -56 203q-49 39 -139 39z" />
    <glyph glyph-name="uniFB40" unicode="&#xfb40;" horiz-adv-x="625" 
d="M194 458q-39 0 -55 25q-9 15 -9 49v64q0 34 9 47q15 26 55 26h17q41 0 56 -26q9 -13 9 -47v-64q0 -34 -9 -49q-15 -24 -56 -25h-17zM363 977q0 19 -19 19h-169q-26 0 -37.5 11t-11.5 38v33q0 26 11 37.5t38 11.5h216q56 0 79.5 -23.5t23.5 -81.5v-917q0 -58 -23.5 -81.5
t-79.5 -23.5h-248q-26 0 -37.5 11.5t-11.5 37.5v34q0 26 11 37.5t38 11.5h201q19 0 19 18v827z" />
    <glyph glyph-name="uniFB41" unicode="&#xfb41;" horiz-adv-x="1106" 
d="M579 458q-39 0 -55 25q-9 15 -9 49v64q0 34 9 47q15 26 55 26h17q41 0 56 -26q9 -13 9 -47v-64q0 -34 -9 -49q-15 -24 -56 -25h-17zM346 357q0 -113 34 -160q60 -81 214 -81q158 0 216 81q34 47 34 160v541q0 54 -21 75q-23 23 -79 23h-379q-19 0 -19 -19v-620zM214 355
v622q0 19 -19 19h-52q-26 0 -37.5 11t-11.5 38v33q0 26 11 37.5t38 11.5h607q124 0 174 -50q51 -53 51 -175v-547q0 -98 -15 -156t-54 -103q-98 -109 -310 -109q-101 0 -184 29t-128 80q-39 45 -54.5 103t-15.5 156z" />
    <glyph glyph-name="uniFB43" unicode="&#xfb43;" horiz-adv-x="1005" 
d="M547 601q-39 0 -55 25q-9 15 -9 49v64q0 34 9 47q15 26 55 26h17q41 0 56 -26q9 -13 9 -47v-64q0 -34 -9 -49q-15 -24 -56 -25h-17zM263 552h175q26 0 37.5 -11t11.5 -37v-34q0 -26 -11.5 -37.5t-37.5 -11.5h-186q-75 0 -107 32t-32 107v428q0 75 32 107t107 32h471
q75 0 107 -32t32 -107v-1101q0 -19 19 -19h94q26 0 37.5 -11t11.5 -37v-34q0 -26 -11.5 -37.5t-37.5 -11.5h-141q-56 0 -79.5 23.5t-23.5 81.5v1135q0 19 -19 19h-449q-19 0 -19 -19v-406q0 -19 19 -19z" />
    <glyph glyph-name="uniFB44" unicode="&#xfb44;" horiz-adv-x="1035" 
d="M536 642q-39 0 -55 25q-9 15 -9 49v64q0 34 9 47q15 26 55 26h17q41 0 56 -26q9 -13 9 -47v-64q0 -34 -9 -49q-15 -24 -56 -25h-17zM772 229v748q0 19 -19 19h-471q-19 0 -19 -19v-383q0 -19 19 -19h207q26 0 37 -11.5t11 -37.5v-34q0 -26 -11 -37.5t-37 -11.5h-218
q-75 0 -107 32t-32 107v406q0 75 31.5 107t107.5 32h494q75 0 107 -32t32 -107v-763q0 -122 -52 -173.5t-174 -51.5h-498q-26 0 -37 11.5t-11 37.5v34q0 26 11 37.5t37 11.5h493q56 0 77.5 21.5t21.5 75.5z" />
    <glyph glyph-name="uniFB46" unicode="&#xfb46;" horiz-adv-x="1101" 
d="M453 214q-39 0 -55 25q-9 15 -9 49v64q0 34 9 47q15 26 55 26h17q41 0 56 -26q9 -13 9 -47v-64q0 -34 -9 -49q-15 -24 -56 -25h-17zM701 515l101 -83q81 -64 107.5 -115.5t26.5 -145.5v-66q2 -56 -25 -81q-23 -24 -81 -24h-670q-26 0 -37.5 11.5t-11.5 37.5v34
q0 26 11 37.5t38 11.5h625q19 0 19 18v30q0 51 -22.5 88.5t-73.5 79.5l-302 234q-75 58 -103.5 126t-28.5 168v101q0 19 -18 19h-113q-26 0 -37.5 11t-11.5 38v33q0 26 11 37.5t38 11.5h158q58 0 80 -24q24 -23 25 -81v-107q0 -94 20.5 -145.5t80.5 -100.5l66 -53
q17 -13 26 -5q86 53 153 126q86 94 86 240q0 19 -19 19h-101q-26 0 -37.5 11t-11.5 38v33q0 26 11 37.5t38 11.5h146q58 0 81 -24q24 -23 25 -81q0 -256 -151 -391q-32 -28 -120 -97q-11 -10 2 -19z" />
    <glyph glyph-name="uniFB47" unicode="&#xfb47;" horiz-adv-x="1039" 
d="M525 608q-39 0 -55 25q-9 15 -9 49v64q0 34 9 47q15 26 55 26h17q41 0 56 -26q9 -13 9 -47v-64q0 -34 -9 -49q-15 -24 -56 -25h-17zM926 703q0 -111 -69 -196l-241 -267q-19 -21 -19 -52v-38q0 -19 19 -18h90q26 0 37.5 -11.5t11.5 -37.5v-34q0 -26 -11 -37.5t-38 -11.5
h-135q-58 0 -81 24q-24 23 -24 81v83q0 83 47 135l239 263q43 53 43 135v177q0 54 -21 75q-23 23 -77 23h-535q-26 0 -37.5 11t-11.5 38v33q0 26 11 37.5t38 11.5h539q124 0 174.5 -50.5t50.5 -174.5v-199zM308 -214q0 -26 -11 -37.5t-38 -11.5h-34q-26 0 -37 11.5t-11 37.5
v962q0 26 11 37.5t37 11.5h34q26 0 37.5 -11.5t11.5 -37.5v-962z" />
    <glyph glyph-name="uniFB48" unicode="&#xfb48;" horiz-adv-x="971" 
d="M476 458q-39 0 -55 25q-9 15 -9 49v64q0 34 9 47q15 26 55 26h17q41 0 56 -26q9 -13 9 -47v-64q0 -34 -9 -49q-15 -24 -56 -25h-17zM614 1127q122 0 174 -51.5t52 -173.5v-853q0 -26 -11.5 -37.5t-37.5 -11.5h-34q-26 0 -37.5 11.5t-11.5 37.5v849q0 54 -21.5 76
t-77.5 22h-466q-26 0 -37.5 11t-11.5 38v33q0 26 11 37.5t38 11.5h471z" />
    <glyph glyph-name="uniFB49" unicode="&#xfb49;" horiz-adv-x="1307" 
d="M874 458q-39 0 -55 25q-9 15 -9 49v64q0 34 9 47q15 26 55 26h17q41 0 56 -26q9 -13 9 -47v-64q0 -34 -9 -49q-15 -24 -56 -25h-17zM569 132q19 0 19 18v928q0 26 11.5 37.5t37.5 11.5h34q26 0 37.5 -11t11.5 -38v-928q0 -19 18 -18h109q111 0 154.5 43t43.5 154v648
q0 19 -19 19h-60q-26 0 -37.5 11t-11.5 38v33q0 26 11 37.5t38 11.5h105q58 0 81.5 -23.5t23.5 -81.5v-674q0 -190 -79 -269t-268 -79h-350q-190 0 -268.5 79t-78.5 269v674q0 58 23 81.5t82 23.5h105q26 0 37.5 -11t11.5 -38v-33q0 -26 -11.5 -37.5t-37.5 -11.5h-60
q-19 0 -19 -19v-648q0 -111 43 -154t154 -43h109z" />
    <glyph glyph-name="uniFB4A" unicode="&#xfb4a;" horiz-adv-x="1172" 
d="M654 458q-39 0 -55 25q-9 15 -9 49v64q0 34 9 47q15 26 55 26h17q41 0 56 -26q9 -13 9 -47v-64q0 -34 -9 -49q-15 -24 -56 -25h-17zM265 996h-117q-26 0 -37 11t-11 38v33q0 26 11 37.5t37 11.5h667q122 0 174 -51.5t52 -173.5v-853q0 -26 -11.5 -37.5t-37.5 -11.5h-34
q-26 0 -37.5 11.5t-11.5 37.5v849q0 54 -21.5 76t-75.5 22h-378q-19 0 -19 -19v-838q0 -75 -32 -107t-107 -32h-133q-26 0 -37.5 11.5t-11.5 37.5v34q0 26 11 37.5t38 11.5h122q19 0 19 18v827q0 19 -19 19z" />
    <glyph glyph-name="uniFB4B" unicode="&#xfb4b;" horiz-adv-x="629" 
d="M374 1289q0 -34 -12 -51q-17 -24 -56 -24t-56 24q-11 17 -12 51q0 34 12 49q15 26 56 26t56 -26q12 -15 12 -49zM359 1127q75 0 107 -32t32 -107v-939q0 -26 -11.5 -37.5t-37.5 -11.5h-34q-26 0 -37.5 11.5t-11.5 37.5v928q0 19 -18 19h-205q-26 0 -37.5 11t-11.5 38v33
q0 26 11 37.5t38 11.5h216z" />
    <glyph glyph-name="uniFB4C" unicode="&#xfb4c;" horiz-adv-x="1031" 
d="M697 1289q0 -26 -11 -37.5t-38 -11.5h-330q-26 0 -37.5 11.5t-11.5 37.5t11 37.5t38 11.5h330q26 0 37.5 -11.5t11.5 -37.5zM817 780v-630q0 -19 19 -18h72q26 0 37 -11.5t11 -37.5v-34q0 -26 -11 -37.5t-37 -11.5h-765q-26 0 -37.5 11.5t-11.5 37.5v34q0 26 11 37.5
t38 11.5h524q19 0 19 18v649q0 111 -43.5 154t-153.5 43h-305q-26 0 -37.5 11t-11.5 38v33q0 26 11.5 37.5t37.5 11.5h286q190 0 268.5 -78.5t78.5 -268.5z" />
    <glyph glyph-name="uniFB4D" unicode="&#xfb4d;" horiz-adv-x="941" 
d="M633 1289q0 -26 -11 -37.5t-38 -11.5h-330q-26 0 -37.5 11.5t-11.5 37.5t11 37.5t38 11.5h330q26 0 37.5 -11.5t11.5 -37.5zM325 0h-182q-26 0 -37.5 11.5t-11.5 37.5v34q0 26 11 37.5t38 11.5h238q261 0 312 206q23 98 23 226t-17 225q-19 101 -77 152q-60 54 -194 55
h-276q-26 0 -37.5 11t-11.5 38v33q0 26 11.5 37.5t37.5 11.5h258q116 0 178 -17q94 -24 158 -99q101 -124 101 -447q0 -325 -120 -448q-75 -75 -188 -99q-75 -17 -214 -17z" />
    <glyph glyph-name="uniFB4E" unicode="&#xfb4e;" horiz-adv-x="1035" 
d="M736 1289q0 -26 -11 -37.5t-38 -11.5h-330q-26 0 -37.5 11.5t-11.5 37.5t11 37.5t38 11.5h330q26 0 37.5 -11.5t11.5 -37.5zM772 229v748q0 19 -19 19h-471q-19 0 -19 -19v-383q0 -19 19 -19h207q26 0 37 -11.5t11 -37.5v-34q0 -26 -11 -37.5t-37 -11.5h-218
q-75 0 -107 32t-32 107v406q0 75 31.5 107t107.5 32h494q75 0 107 -32t32 -107v-763q0 -122 -52 -173.5t-174 -51.5h-498q-26 0 -37 11.5t-11 37.5v34q0 26 11 37.5t37 11.5h493q56 0 77.5 21.5t21.5 75.5z" />
    <glyph glyph-name="uniFB4F" unicode="&#xfb4f;" horiz-adv-x="1035" 
d="M646 361q-9 11 8 15q156 38 225 161q47 77 47 248l-3 237q-2 58 -25 81q-24 24 -81 24h-165q-26 0 -37.5 -11t-11.5 -38v-33q0 -26 11.5 -37.5t37.5 -11.5h120q11 0 15 -4t4 -15l4 -180q0 -133 -34 -188q-70 -113 -226 -119q-11 0 -20 10l-265 280q-6 6 -6 17v496
q0 26 -11 37.5t-38 11.5h-33q-26 0 -37.5 -11.5t-11.5 -37.5v-463q0 -56 7 -80q9 -36 38 -66l627 -660q23 -24 47 -24h79q28 0 30 26q2 21 -13 38z" />
  </font>
</defs>
</svg>
