<?xml version="1.0" standalone="no"?>
<!DOCTYPE svg PUBLIC "-//W3C//DTD SVG 1.1//EN" "http://www.w3.org/Graphics/SVG/1.1/DTD/svg11.dtd" >
<svg>
<metadata>
Created by FontForge 20090914 at Fri Oct 13 01:36:47 2017
 By www-data
Copyright 2016 Michal Sahar. All rights reserved.
</metadata>
<defs>
<font id="MiriamLibre-Regular" horiz-adv-x="0" >
  <font-face 
    font-family="Miriam Libre"
    font-weight="400"
    font-stretch="normal"
    units-per-em="1000"
    panose-1="0 0 5 0 0 0 0 0 0 0"
    ascent="800"
    descent="-200"
    x-height="566"
    cap-height="695"
    bbox="-525 -335 995.001 952"
    underline-thickness="50"
    underline-position="-50"
    unicode-range="U+0020-U+FB4B"
  />
<missing-glyph horiz-adv-x="476" 
d="M390 -193h-301v952h301v-952zM160 695v-31h62v-35h-63v-32h158v32h-63v35h63v31h-157zM159 572v-99h158v33h-63v66h-95zM222 506h-32v34h32v-34zM159 448v-32h63v-35h-63v-31h95v66h63v32h-158zM286 391v-63h-127v-33h158v96h-31zM222 274v-53h32v22h32v-45h-96v76h-31
v-107h158v107h-95zM159 110v-108h158v108h-158zM286 34h-96v44h96v-44zM159 -20v-31h67l-67 -45v-31h158v31h-97l67 45h30v31h-158z" />
    <glyph glyph-name="fi" unicode="fi" horiz-adv-x="762" 
d="M537 668c-2.66699 2.66699 -4 6 -4 10v87c0 4 1.33301 7.33301 4 10s6 4 10 4h48c4 0 7.33301 -1.33301 10 -4s4 -6 4 -10v-87c0 -4 -1.33301 -7.33301 -4 -10s-6 -4 -10 -4h-48c-4 0 -7.33301 1.33301 -10 4zM134 4c-2.66699 2.66699 -3.99902 5.99902 -3.99902 9.99902
v478h-76c-4 0 -7.33301 1.33301 -10 4s-4 6 -4 10v46c0 4 1.33301 7.33301 4 10s6 4 10 4h76v40c0 44 13.667 80.5 41 109.5s65 43.5 113 43.5h80c4 0 7.33301 -1.33301 10 -4s4 -6 4 -10v-43c0 -4 -1.33301 -7.33301 -4 -10s-6 -4 -10 -4h-81
c-22.667 0 -40.834 -7.16699 -54.501 -21.5s-20.5 -33.166 -20.5 -56.499v-44h366c10 0 18.5 -3.5 25.5 -10.5s10.5 -15.5 10.5 -25.5v-456h103c4 0 7.33301 -1.33301 10 -4s4 -6 4 -10v-46c0 -4 -1.33301 -7.33301 -4 -10s-6 -4 -10 -4h-145c-10 0 -18.5 3.5 -25.5 10.5
s-10.5 15.5 -10.5 25.5v456h-324v-478c0 -4 -1.33301 -7.33301 -4 -10s-6 -4 -10 -4h-50c-4 -0 -7.33301 1.33301 -10 4z" />
    <glyph glyph-name="fl" unicode="fl" horiz-adv-x="775" 
d="M134 4c-2.66699 2.66699 -3.99902 5.99902 -3.99902 9.99902v478h-76c-4 0 -7.33301 1.33301 -10 4s-4 6 -4 10v46c0 4 1.33301 7.33301 4 10s6 4 10 4h76v40c0 44 13.667 80.5 41 109.5s65 43.5 113 43.5h305c10 0 18.5 -3.5 25.5 -10.5s10.5 -15.5 10.5 -25.5v-649h106
c4 0 7.33301 -1.33301 10 -4s4 -6 4 -10v-46c0 -4 -1.33301 -7.33301 -4 -10s-6 -4 -10 -4h-148c-10 0 -18.5 3.5 -25.5 10.5s-10.5 15.5 -10.5 25.5v650h-264c-22.667 0 -40.834 -7.16699 -54.501 -21.5s-20.5 -33.166 -20.5 -56.499v-42h136c4 0 7.33301 -1.33301 10 -4
s4 -6 4 -10v-46c0 -4 -1.33301 -7.33301 -4 -10s-6 -4 -10 -4h-136v-478c0 -4 -1.33301 -7.33301 -4 -10s-6 -4 -10 -4h-50c-4 -0 -7.33301 1.33301 -10 4z" />
    <glyph glyph-name=".notdef" horiz-adv-x="476" 
d="M390 -193h-301v952h301v-952zM160 695v-31h62v-35h-63v-32h158v32h-63v35h63v31h-157zM159 572v-99h158v33h-63v66h-95zM222 506h-32v34h32v-34zM159 448v-32h63v-35h-63v-31h95v66h63v32h-158zM286 391v-63h-127v-33h158v96h-31zM222 274v-53h32v22h32v-45h-96v76h-31
v-107h158v107h-95zM159 110v-108h158v108h-158zM286 34h-96v44h96v-44zM159 -20v-31h67l-67 -45v-31h158v31h-97l67 45h30v31h-158z" />
    <glyph glyph-name="space" unicode=" " horiz-adv-x="270" 
 />
    <glyph glyph-name="exclam" unicode="!" horiz-adv-x="316" 
d="M138 216c-2.66699 2.66699 -4 6 -4 10v455c0 4 1.33301 7.33301 4 10s6 4 10 4h50c4 0 7.33301 -1.33301 10 -4s4 -6 4 -10v-455c0 -4 -1.33301 -7.33301 -4 -10s-6 -4 -10 -4h-50c-4 0 -7.33301 1.33301 -10 4zM128.5 4.5c-12.333 12.333 -18.5 27.166 -18.5 44.499
s6.16699 32.166 18.5 44.499s27.5 18.5 45.5 18.5c17.333 0 32 -6.16699 44 -18.5s18 -27.166 18 -44.499s-6 -32.166 -18 -44.499s-26.667 -18.5 -44 -18.5c-18 0 -33.167 6.16699 -45.5 18.5z" />
    <glyph glyph-name="quotedbl" unicode="&#x22;" horiz-adv-x="427" 
d="M58 469.5c-3.33301 5 -4.00098 10.833 -2.00098 17.5l47 198c0.666992 3.33301 2.5 5.83301 5.5 7.5s5.83301 2.5 8.5 2.5h68c6.66699 0 11.834 -2.5 15.501 -7.5s4.16699 -10.5 1.5 -16.5l-92 -209h-37c-6.66699 0 -11.667 2.5 -15 7.5zM226.999 469.5
c-3.33301 5 -4.00098 10.833 -2.00098 17.5l47 198c0.666992 3.33301 2.5 5.83301 5.5 7.5s5.83301 2.5 8.5 2.5h68c6.66699 0 11.834 -2.5 15.501 -7.5s4.16699 -10.5 1.5 -16.5l-92 -209h-37c-6.66699 0 -11.667 2.5 -15 7.5z" />
    <glyph glyph-name="numbersign" unicode="#" horiz-adv-x="766" 
d="M104 333c-2.66699 2.66699 -4 6 -4 10v46c0 4 1.33301 7.33301 4 10s6 4 10 4h129v149c0 4 1.33301 7.33301 4 10s6 4 10 4h46c4 0 7.33301 -1.33301 10 -4s4 -6 4 -10v-149h132v149c0 4 1.33301 7.33301 4 10s6 4 10 4h46c4 0 7.33301 -1.33301 10 -4s4 -6 4 -10v-149
h129c4 0 7.33301 -1.33301 10 -4s4 -6 4 -10v-46c0 -4 -1.33301 -7.33301 -4 -10s-6 -4 -10 -4h-538c-4 0 -7.33301 1.33301 -10 4zM247 4c-2.66699 2.66699 -4 6 -4 10v149h-129c-4 0 -7.33301 1.33301 -10 4s-4 6 -4 10v46c0 4 1.33301 7.33301 4 10s6 4 10 4h538
c4 0 7.33301 -1.33301 10 -4s4 -6 4 -10v-46c0 -4 -1.33301 -7.33301 -4 -10s-6 -4 -10 -4h-129v-149c0 -4 -1.33301 -7.33301 -4 -10s-6 -4 -10 -4h-46c-4 -0 -7.33301 1.33301 -10 4s-4 6 -4 10v149h-132v-149c0 -4 -1.33301 -7.33301 -4 -10s-6 -4 -10 -4h-46
c-4 -0 -7.33301 1.33301 -10 4z" />
    <glyph glyph-name="dollar" unicode="$" horiz-adv-x="551" 
d="M403.5 340.5c23 -13.667 42.5 -32.6621 58.5 -56.9951s24 -55.5 24 -93.5c0 -41.333 -9.83301 -77.333 -29.5 -108s-46.834 -54.167 -81.501 -70.5s-74.334 -24.5 -119.001 -24.5h-6l-12 -66c-1.33301 -4 -3.5 -7.33301 -6.5 -10s-6.5 -4 -10.5 -4h-40
c-4 0 -7 1.33301 -9 4s-2.66699 6 -2 10l13 73c-45.333 9.33301 -82.666 24.666 -111.999 45.999c-2.66699 1.33301 -4.5 3.66602 -5.5 6.99902s-0.833008 6.66602 0.5 9.99902l23 45c3.33301 6 8 9 14 9c3.33301 0 6 -0.666992 8 -2c30.667 -18 59 -30.667 85 -38l44 251
c-34.667 13.333 -63.667 27.333 -87 42s-43 34.5 -59 59.5s-24 56.167 -24 93.5c0 41.333 9.83301 76.5 29.5 105.5s45.834 50.5 78.501 64.5s68.667 21 108 21c10 0 17.333 -0.333008 22 -1l12 67c1.33301 4 3.5 7.33301 6.5 10s6.5 4 10.5 4h40c4 0 7 -1.33301 9 -4
s2.66699 -6 2 -10l-14 -78c31.333 -8.66699 60 -21.334 86 -38.001c2.66699 -1.33301 4.5 -3.83301 5.5 -7.5s0.5 -7.16699 -1.5 -10.5l-22 -41c-2 -4 -5 -6.66699 -9 -8s-8 -0.666016 -12 2.00098c-18 11.333 -38 20.666 -60 27.999l-42 -241
c33.333 -12.667 61.5 -25.834 84.5 -39.501zM179 451.505c17.333 -17 42.667 -32.5 76 -46.5l40 228h-8c-40.667 0 -73.167 -10 -97.5 -30s-36.5 -47.333 -36.5 -82c0 -29.333 8.66699 -52.5 26 -69.5zM363.501 97.0049c26.333 21.333 39.5 50 39.5 86
c0 28.667 -8.5 51.334 -25.5 68.001s-41.5 31.667 -73.5 45l-41 -233c40.667 1.33301 74.167 12.666 100.5 33.999z" />
    <glyph glyph-name="percent" unicode="%" horiz-adv-x="759" 
d="M107 -23c-4 0 -7.50195 1.5 -10.502 4.5s-4.5 6.83301 -4.5 11.5v44l416 505c-14.667 -1.33301 -26 -2 -34 -2c-28 0 -56.833 5.5 -86.5 16.5s-57.167 25.167 -82.5 42.5c4 -20 6 -44 6 -72c0 -59.333 -10.167 -104.5 -30.5 -135.5s-50.166 -46.5 -89.499 -46.5
c-40 0 -70.167 15.5 -90.5 46.5s-30.5 76.167 -30.5 135.5s10.167 104.333 30.5 135s50.5 46 90.5 46c21.333 0 38.5 -3 51.5 -9s28.167 -15.667 45.5 -29c26.667 -19.333 49 -33.333 67 -42c38 -18 75 -27 111 -27c28.667 0 55.334 5.33301 80.001 16s45.667 26.667 63 48
l21 25c4 4 8 6 12 6s7.5 -1.5 10.5 -4.5s4.5 -6.83301 4.5 -11.5v-45l-538 -652c-4 -4 -8 -6 -12 -6zM237.498 436.5c8.33301 20.333 12.501 49.833 12.501 88.5c0 44 -4.5 75.333 -13.5 94s-24.167 28 -45.5 28c-24 0 -40 -10 -48 -30s-12 -50 -12 -90s4 -70.167 12 -90.5
s23.667 -30.5 47 -30.5s39.166 10.167 47.499 30.5zM478.499 33.5c-20.333 31 -30.5 76.167 -30.5 135.5s10.167 104.333 30.5 135s50.5 46 90.5 46c39.333 0 69.166 -15.333 89.499 -46s30.5 -75.667 30.5 -135s-10.167 -104.5 -30.5 -135.5s-50.166 -46.5 -89.499 -46.5
c-40 0 -70.167 15.5 -90.5 46.5zM615.499 78.5c8.33301 20.333 12.501 49.833 12.501 88.5c0 44 -4.5 75.333 -13.5 94s-24.167 28 -45.5 28c-24 0 -40 -10 -48 -30s-12 -50 -12 -90s4 -70.167 12 -90.5s23.667 -30.5 47 -30.5s39.166 10.167 47.499 30.5z" />
    <glyph glyph-name="ampersand" unicode="&#x26;" horiz-adv-x="686" 
d="M496 -105l-77.002 120c-44.667 -18.667 -91.334 -28 -140.001 -28c-67.333 0 -121.5 16.167 -162.5 48.5s-61.5 77.166 -61.5 134.499c0 38.667 10.833 72.667 32.5 102s56.167 62.666 103.5 99.999c-18.667 30.667 -33.5 59.667 -44.5 87s-16.5 56 -16.5 86
c0 32.667 7.33301 61.334 22 86.001s34.334 43.667 59.001 57s51.334 20 80.001 20c27.333 0 52.166 -6 74.499 -18s39.833 -28.167 52.5 -48.5s19 -42.833 19 -67.5c0 -33.333 -12.167 -65.666 -36.5 -96.999s-62.166 -69 -113.499 -113l160 -250
c32.667 25.333 58.334 56.833 77.001 94.5s28 77.5 28 119.5c0 4 1.33301 7.33301 4 10s6 4 10 4h48c4 0 7.5 -1.33301 10.5 -4s4.5 -5.66699 4.5 -9c0 -56.667 -12.833 -109 -38.5 -157s-60.5 -88 -104.5 -120l60 -93c20.667 -30.667 39.667 -51.667 57 -63
s41.333 -17 72 -17h27c4 0 7.33301 -1.33301 10 -4s4 -6 4 -10v-44c0 -4 -1.33301 -7.33301 -4 -10s-6 -4 -10 -4h-42c-71.333 0 -126 29.333 -164 88zM340.498 507.5c16.333 20.333 24.501 40.501 24.501 60.501c0 20.667 -7.33301 37.834 -22 51.501
s-33.334 20.5 -56.001 20.5c-24 0 -43.333 -8.16699 -58 -24.5s-22 -38.5 -22 -66.5c0 -38.667 14.333 -81.334 43 -128.001c44 37.333 74.167 66.166 90.5 86.499zM378.999 77.001l-151.999 236.001c-32.667 -26.667 -56.5 -49.834 -71.5 -69.501
s-22.5 -42.167 -22.5 -67.5c0 -38 14.167 -66.833 42.5 -86.5s65.166 -29.5 110.499 -29.5c33.333 0 64.333 5.66699 93 17z" />
    <glyph glyph-name="quotesingle" unicode="'" horiz-adv-x="258" 
d="M58 469.5c-3.33301 5 -4.00098 10.833 -2.00098 17.5l47 198c0.666992 3.33301 2.5 5.83301 5.5 7.5s5.83301 2.5 8.5 2.5h68c6.66699 0 11.834 -2.5 15.501 -7.5s4.16699 -10.5 1.5 -16.5l-92 -209h-37c-6.66699 0 -11.667 2.5 -15 7.5z" />
    <glyph glyph-name="parenleft" unicode="(" horiz-adv-x="349" 
d="M231 -120c-42.667 53.333 -78.5 117.001 -107.5 191.001s-43.5 156.667 -43.5 248s14.5 174 43.5 248s64.5 138 106.5 192c4.66699 4.66699 10.667 7 18 7c6.66699 0 11.667 -1.66699 15 -5l21 -18c4 -2.66699 6 -6.33398 6 -11.001c0 -2 -1 -4.66699 -3 -8
c-34 -52.667 -62.667 -113 -86 -181s-35 -142.667 -35 -224s11.667 -156 35 -224s52 -128.333 86 -181c2 -3.33301 3 -6 3 -8c0 -3.33301 -2 -7 -6 -11l-21 -18c-4.66699 -3.33301 -9.66699 -5 -15 -5c-7.33301 0 -13 2.66699 -17 8z" />
    <glyph glyph-name="parenright" unicode=")" horiz-adv-x="350" 
d="M87 -123l-21 18c-6 6 -7 12.333 -3 19c34 52.667 62.667 113 86 181s35 142.667 35 224s-11.667 156 -35 224s-52 128.333 -86 181c-2 3.33301 -3 6 -3 8c0 3.33301 2 7 6 11l21 18c4 3.33301 9 5 15 5c7.33301 0 13.333 -2.33301 18 -7c42 -54 77.5 -118 106.5 -192
s43.5 -156.667 43.5 -248s-14.5 -174 -43.5 -248s-64.833 -137.667 -107.5 -191c-3.33301 -5.33301 -9 -8 -17 -8c-6.66699 0 -11.667 1.66699 -15 5z" />
    <glyph glyph-name="asterisk" unicode="*" horiz-adv-x="480" 
d="M89 635c-6 2 -9.00195 6.66699 -9.00195 14c0 3.33301 0.333008 6 1 8l12 29c3.33301 6 8 9 14 9c2.66699 0 5.33398 -0.666992 8.00098 -2l100 -38l-8 91v2c0 4 1.5 7.33301 4.5 10s6.5 4 10.5 4h36c4.66699 0 8.33398 -1.5 11.001 -4.5s3.66699 -6.83301 3 -11.5
l-7 -91l98 38c4 1.33301 7.33301 2 10 2c6 0 10 -2.66699 12 -8l13 -29c1.33301 -4 2 -7 2 -9c0 -6 -3.33301 -10 -10 -12l-150 -44zM210.498 410.5c-3 3 -4.16797 6.83301 -3.50098 11.5l8 91l-100 -38c-4 -1.33301 -7 -2 -9 -2c-5.33301 0 -9.66602 3 -12.999 9l-12 29
c-0.666992 2 -1 4.66699 -1 8c0 7.33301 3 12 9 14l151 42l150 -44c6.66699 -2 10 -6.33301 10 -13c0 -1.33301 -0.666992 -4 -2 -8l-13 -29c-2.66699 -5.33301 -6.66699 -8 -12 -8c-2.66699 0 -6 0.666992 -10 2l-98 38l7 -91v-2c0 -4.66699 -1.33301 -8.16699 -4 -10.5
s-6 -3.5 -10 -3.5h-36c-4.66699 0 -8.5 1.5 -11.5 4.5z" />
    <glyph glyph-name="plus" unicode="+" horiz-adv-x="626" 
d="M557 320.5c2.66699 -2.33301 4 -5.83301 4 -10.5v-42c0 -4.66699 -1.33301 -8.16699 -4 -10.5s-6 -3.5 -10 -3.5h-198v-200c0 -4 -1.16699 -7.33301 -3.5 -10s-5.83301 -4 -10.5 -4h-42c-4.66699 0 -8.16699 1.33301 -10.5 4s-3.5 6 -3.5 10v200h-200
c-4 0 -7.33301 1.16699 -10 3.5s-4 5.83301 -4 10.5v42c0 4.66699 1.33301 8.16699 4 10.5s6 3.5 10 3.5h200v198c0 4 1.16699 7.33301 3.5 10s5.83301 4 10.5 4h42c4.66699 0 8.16699 -1.33301 10.5 -4s3.5 -6 3.5 -10v-198h198c4 0 7.33301 -1.16699 10 -3.5z" />
    <glyph glyph-name="comma" unicode="," horiz-adv-x="249" 
d="M58.5 -90c-3 4.66699 -3.83203 10.667 -2.49902 18l47 165c2.66699 6.66699 7.33398 10 14.001 10h68c7.33301 0 12.666 -2.5 15.999 -7.5s3.66602 -10.5 0.999023 -16.5l-92 -176h-37c-6.66699 0 -11.5 2.33301 -14.5 7z" />
    <glyph glyph-name="hyphen" unicode="-" horiz-adv-x="456" 
d="M94 274c-2.66699 2.66699 -4 6 -4 10v48c0 4 1.33301 7.33301 4 10s6 4 10 4h248c4 0 7.33301 -1.33301 10 -4s4 -6 4 -10v-48c0 -4 -1.33301 -7.33301 -4 -10s-6 -4 -10 -4h-248c-4 0 -7.33301 1.33301 -10 4z" />
    <glyph glyph-name="period" unicode="." horiz-adv-x="246" 
d="M78.5 4.5c-12.333 12.333 -18.5 27.166 -18.5 44.499s6.16699 32.166 18.5 44.499s27.5 18.5 45.5 18.5c17.333 0 32 -6.16699 44 -18.5s18 -27.166 18 -44.499s-6 -32.166 -18 -44.499s-26.667 -18.5 -44 -18.5c-18 0 -33.167 6.16699 -45.5 18.5z" />
    <glyph glyph-name="slash" unicode="/" horiz-adv-x="405" 
d="M6.5 -52c-1.66699 2 -1.83398 4.66699 -0.500977 8l324 791c3.33301 8 9.33301 12 18 12h44c2.66699 0 4.83398 -1 6.50098 -3s1.83398 -4.66699 0.500977 -8l-323 -791c-2.66699 -8 -8.66699 -12 -18 -12h-45c-2.66699 0 -4.83398 1 -6.50098 3z" />
    <glyph glyph-name="zero" unicode="0" horiz-adv-x="595" 
d="M123 79.5c-38.667 61.667 -58 151.165 -58 268.498c0 116.667 19.333 205.834 58 267.501s97 92.5 175 92.5s136.167 -30.667 174.5 -92s57.5 -150.666 57.5 -267.999c0 -240.667 -77.333 -361 -232 -361c-78 0 -136.333 30.833 -175 92.5zM415.5 139.498
c20.333 49 30.5 118.499 30.5 208.499s-10.167 159.333 -30.5 208s-59.833 73 -118.5 73c-53.333 0 -91.333 -22.667 -114 -68s-34 -117.666 -34 -216.999c0 -88 10.333 -156.333 31 -205s60 -73 118 -73s97.167 24.5 117.5 73.5z" />
    <glyph glyph-name="one" unicode="1" horiz-adv-x="430" 
d="M54 4c-2.66699 2.66699 -4 6 -4 10v45c0 4 1.33301 7.33301 4 10s6 4 10 4h120v518h-89c-4 0 -7.33301 1.33301 -10 4s-4 6 -4 10v32l137 71h29c4 0 7.33301 -1.33301 10 -4s4 -6 4 -10v-621h120c4 0 7.33301 -1.33301 10 -4s4 -6 4 -10v-45
c0 -4 -1.33301 -7.33301 -4 -10s-6 -4 -10 -4h-317c-4 -0 -7.33301 1.33301 -10 4z" />
    <glyph glyph-name="two" unicode="2" horiz-adv-x="507" 
d="M65.5 10c-7 6.66699 -10.5029 14.666 -10.5029 23.999v86c0 46 6.5 82.167 19.5 108.5s32.833 49.333 59.5 69s73.667 49.5 141 89.5c32 18.667 56.167 38.5 72.5 59.5s24.5 45.5 24.5 73.5c0 34.667 -11.333 62 -34 82s-52.667 30 -90 30c-43.333 0 -89 -14 -137 -42
c-2.66699 -2 -5.66699 -3 -9 -3c-4 0 -7.66699 2.66699 -11 8l-21 35c-2 3.33301 -3 6.33301 -3 9c0 7.33301 3 12.333 9 15c26.667 16.667 55.334 29.667 86.001 39s61.334 14 92.001 14c60.667 0 108.834 -16.167 144.501 -48.5s53.5 -75.833 53.5 -130.5
c0 -33.333 -6 -62.333 -18 -87s-28.667 -46.667 -50 -66s-49.333 -40.333 -84 -63c-10.667 -7.33301 -20.167 -13.5 -28.5 -18.5l-20.5 -12.5c-33.333 -20.667 -57.5 -36.834 -72.5 -48.501s-26.333 -25.5 -34 -41.5s-11.5 -37 -11.5 -63v-52h281
c3.33301 0 6 -1.16699 8 -3.5s3 -5.16602 3 -8.49902v-52c0 -3.33301 -1 -6.16602 -3 -8.49902s-4.66699 -3.5 -8 -3.5h-323c-10 -0 -18.5 3.33301 -25.5 10z" />
    <glyph glyph-name="three" unicode="3" horiz-adv-x="529" 
d="M116 20c-39.333 21.333 -70.665 50.666 -93.998 87.999c-1.33301 2.66699 -2 5.33398 -2 8.00098c0 6 2.66699 11 8 15l34 24c3.33301 2 6.66602 3 9.99902 3c6.66699 0 12 -3 16 -9c20 -26.667 43.667 -47.834 71 -63.501s55 -23.5 83 -23.5s53.667 7 77 21
s41.833 33 55.5 57s20.5 50 20.5 78s-6.83301 53.667 -20.5 77s-31.834 41.833 -54.501 55.5s-47.334 20.5 -74.001 20.5c-7.33301 0 -12.666 -0.333008 -15.999 -1l-21 -28c-2 -4 -5.66699 -6 -11 -6c-3.33301 0 -6 1 -8 3l-38 27c-3.33301 2 -5 5.33301 -5 10c0 4 1 7 3 9
l167 234h-225c-4 0 -7.33301 1.33301 -10 4s-4 6 -4 10v48c0 4 1.33301 7.33301 4 10s6 4 10 4h283c14 0 25.5 -4.33301 34.5 -13s13.5 -19 13.5 -31c0 -10 -3.33301 -19.667 -10 -29l-132 -182c36.667 -5.33301 69.667 -18.5 99 -39.5s52.333 -47.333 69 -79
s25 -66.167 25 -103.5c0 -41.333 -10.5 -79.666 -31.5 -114.999s-49.333 -63.333 -85 -84s-74.167 -31 -115.5 -31c-44.667 0 -86.667 10.667 -126 32z" />
    <glyph glyph-name="four" unicode="4" horiz-adv-x="561" 
d="M355 4c-2.66699 2.66699 -4 6.00098 -4 10.001v159h-282c-8 0 -14.833 2.83301 -20.5 8.5s-8.5 12.5 -8.5 20.5v42l271 439c2 3.33301 5 6.16602 9 8.49902s8 3.5 12 3.5h74c6 0 11 -2 15 -6s6 -9 6 -15v-428h70c4 0 7.33301 -1.33301 10 -4s4 -6 4 -10v-45
c0 -4 -1.33301 -7.33301 -4 -10s-6 -4 -10 -4h-70v-159c0 -4 -1.33301 -7.33301 -4 -10s-6 -4 -10 -4h-48c-4 -0 -7.33301 1.33301 -10 4zM351 246.001v367l-226 -367h226z" />
    <glyph glyph-name="five" unicode="5" horiz-adv-x="540" 
d="M127.5 16c-39.667 22 -71.499 52 -95.499 90c-1.33301 1.33301 -2 4 -2 8c0 5.33301 2.33301 9.33301 7 12l34 25c3.33301 2 7 3 11 3c7.33301 0 12.666 -2.66699 15.999 -8c18.667 -27.333 42.167 -49 70.5 -65s57.166 -24 86.499 -24c28.667 0 55.167 7 79.5 21
s43.5 33.333 57.5 58s21 51.667 21 81c0 28.667 -7 55 -21 79s-32.667 42.833 -56 56.5s-49 20.5 -77 20.5c-42.667 0 -83.334 -16 -122.001 -48c-6.66699 -5.33301 -14 -7 -22 -5l-28 8c-3.33301 0.666992 -5.83301 2.66699 -7.5 6s-2.16699 7 -1.5 11l51 321
c1.33301 8.66699 5.16602 15.667 11.499 21s13.833 8 22.5 8h264c4 0 7.33301 -1.33301 10 -4s4 -6 4 -10v-46c0 -4 -1.33301 -7.33301 -4 -10s-6 -4 -10 -4h-231l-31 -199c32.667 15.333 65.334 23 98.001 23c40.667 0 78.334 -10.167 113.001 -30.5s62.334 -48 83.001 -83
s31 -73.167 31 -114.5c0 -42 -10.667 -81 -32 -117s-50 -64.5 -86 -85.5s-75 -31.5 -117 -31.5c-45.333 0 -87.833 11 -127.5 33z" />
    <glyph glyph-name="six" unicode="6" horiz-adv-x="574" 
d="M180.5 16.5c-34.333 19.667 -61.3369 46.666 -81.0039 80.999s-29.5 72.166 -29.5 113.499c0 72 2.5 130.5 7.5 175.5s16.167 86.167 33.5 123.5c28 58 68.333 103.333 121 136s112 49 178 49c4.66699 0 8.33398 -1.33301 11.001 -4s4 -6 4 -10v-45
c0 -3.33301 -1.33301 -6.5 -4 -9.5s-5.66699 -4.5 -9 -4.5c-49.333 0 -93.166 -11 -131.499 -33s-68.833 -52.833 -91.5 -92.5s-35.334 -85.5 -38.001 -137.5c14.667 22.667 36.834 41.167 66.501 55.5s58.5 21.5 86.5 21.5c40 0 76.5 -10.167 109.5 -30.5
s58.833 -47.666 77.5 -81.999s28 -71.833 28 -112.5c0 -40 -10.167 -77.167 -30.5 -111.5s-47.666 -61.666 -81.999 -81.999s-71.833 -30.5 -112.5 -30.5c-41.333 0 -79.166 9.83301 -113.499 29.5zM366.496 81.499c22.333 13.667 40.166 32 53.499 55s20 47.833 20 74.5
s-6.66699 51.667 -20 75s-31.166 41.833 -53.499 55.5s-46.5 20.5 -72.5 20.5c-26.667 0 -51 -6.66699 -73 -20s-39.333 -31.5 -52 -54.5s-19 -48.5 -19 -76.5s6.33301 -53.5 19 -76.5s30 -41 52 -54s46.333 -19.5 73 -19.5c26 0 50.167 6.83301 72.5 20.5z" />
    <glyph glyph-name="seven" unicode="7" horiz-adv-x="454" 
d="M109 13c0 1.33301 0.666992 4.66699 2 10l227 596h-294c-4 0 -7.33301 1.33301 -10 4s-4 6 -4 10v48c0 4 1.33301 7.33301 4 10s6 4 10 4h334c10 0 18.5 -3.5 25.5 -10.5s10.5 -15.5 10.5 -25.5v-52l-224 -593c-1.33301 -4 -3.5 -7.33301 -6.5 -10s-6.5 -4 -10.5 -4h-51
c-8.66699 -0 -13 4.33301 -13 13z" />
    <glyph glyph-name="eight" unicode="8" horiz-adv-x="589" 
d="M173 15.5c-36.667 19 -65.498 44.833 -86.498 77.5s-31.5 69 -31.5 109c0 35.333 8.83301 69.166 26.5 101.499s42.167 59.166 73.5 80.499c-21.333 15.333 -37.666 35.166 -48.999 59.499s-17 50.833 -17 79.5c0 34 9.16699 65.167 27.5 93.5s43.166 50.833 74.499 67.5
s65.666 25 102.999 25c38 0 72.667 -8 104 -24s56.166 -37.667 74.499 -65s27.5 -57.666 27.5 -90.999c0 -32 -6.5 -62.667 -19.5 -92s-30.833 -53.666 -53.5 -72.999c34 -16.667 60.333 -39.667 79 -69s28 -61.666 28 -96.999c0 -38.667 -10.667 -74.167 -32 -106.5
s-50.333 -57.833 -87 -76.5s-77 -28 -121 -28s-84.333 9.5 -121 28.5zM402.002 443.5c12 24.333 17.999 50.834 17.999 79.501c0 24 -6.16699 44.5 -18.5 61.5s-28.166 30 -47.499 39s-39.333 13.5 -60 13.5c-34.667 0 -64 -11 -88 -33s-36 -49 -36 -81
c0 -28 8.66699 -50.5 26 -67.5s38.833 -29.833 64.5 -38.5s59.167 -17.667 100.5 -27c15.333 11.333 29 29.166 41 53.499zM374.501 78.001c24.333 12.667 43.5 30 57.5 52s21 46 21 72c0 29.333 -8.33301 52.5 -25 69.5s-37.5 29.833 -62.5 38.5
s-60.5 18.334 -106.5 29.001l-39 9c-25.333 -12.667 -45.666 -32.334 -60.999 -59.001s-23 -55 -23 -85c0 -27.333 6.83301 -52 20.5 -74s32.5 -39.333 56.5 -52s51 -19 81 -19c29.333 0 56.166 6.33301 80.499 19z" />
    <glyph glyph-name="nine" unicode="9" horiz-adv-x="574" 
d="M153 4c-2.66699 2.66699 -3.99609 6.00098 -3.99609 10.001v45c0 3.33301 1.33301 6.5 4 9.5s5.66699 4.5 9 4.5c49.333 0 93.166 11 131.499 33s68.833 52.833 91.5 92.5s35.334 85.5 38.001 137.5c-14.667 -22.667 -36.834 -41.167 -66.501 -55.5
s-58.5 -21.5 -86.5 -21.5c-40 0 -76.5 10.167 -109.5 30.5s-58.833 47.666 -77.5 81.999s-28 71.833 -28 112.5c0 40 10.167 77.167 30.5 111.5s47.666 61.666 81.999 81.999s71.833 30.5 112.5 30.5c41.333 0 79.166 -9.83301 113.499 -29.5s61.333 -46.667 81 -81
s29.5 -72.166 29.5 -113.499c0 -72 -2.5 -130.5 -7.5 -175.5s-16.167 -86.167 -33.5 -123.5c-28 -58 -68.333 -103.333 -121 -136s-112 -49 -178 -49c-4.66699 -0 -8.33398 1.33301 -11.001 4zM353.004 353.001c22 13.333 39.333 31.5 52 54.5s19 48.5 19 76.5
s-6.33301 53.5 -19 76.5s-30 41 -52 54s-46.333 19.5 -73 19.5c-26 0 -50.167 -6.83301 -72.5 -20.5s-40.166 -32 -53.499 -55s-20 -47.833 -20 -74.5s6.66699 -51.667 20 -75s31.166 -41.833 53.499 -55.5s46.5 -20.5 72.5 -20.5c26.667 0 51 6.66699 73 20z" />
    <glyph glyph-name="colon" unicode=":" horiz-adv-x="308" 
d="M114.5 375.5c-3 3 -4.5 6.5 -4.5 10.5v95c0 4 1.5 7.5 4.5 10.5s6.5 4.5 10.5 4.5h58c4 0 7.5 -1.5 10.5 -4.5s4.5 -6.5 4.5 -10.5v-95c0 -4 -1.5 -7.5 -4.5 -10.5s-6.5 -4.5 -10.5 -4.5h-58c-4 0 -7.5 1.5 -10.5 4.5zM114.5 4.5c-3 3 -4.5 6.5 -4.5 10.5v95
c0 4 1.5 7.5 4.5 10.5s6.5 4.5 10.5 4.5h58c4 0 7.5 -1.5 10.5 -4.5s4.5 -6.5 4.5 -10.5v-95c0 -4 -1.5 -7.5 -4.5 -10.5s-6.5 -4.5 -10.5 -4.5h-58c-4 0 -7.5 1.5 -10.5 4.5z" />
    <glyph glyph-name="semicolon" unicode=";" horiz-adv-x="274" 
d="M102.5 375.5c-3 3 -4.5 6.5 -4.5 10.5v95c0 4 1.5 7.5 4.5 10.5s6.5 4.5 10.5 4.5h58c4 0 7.5 -1.5 10.5 -4.5s4.5 -6.5 4.5 -10.5v-95c0 -4 -1.5 -7.5 -4.5 -10.5s-6.5 -4.5 -10.5 -4.5h-58c-4 0 -7.5 1.5 -10.5 4.5zM48.5 -90c-3 4.66699 -3.83203 10.667 -2.49902 18
l47 165c2.66699 6.66699 7.33398 10 14.001 10h68c7.33301 0 12.666 -2.5 15.999 -7.5s3.66602 -10.5 0.999023 -16.5l-92 -176h-37c-6.66699 0 -11.5 2.33301 -14.5 7z" />
    <glyph glyph-name="less" unicode="&#x3c;" horiz-adv-x="549" 
d="M473 424l-330.998 -137.001l331 -135c7.33301 -3.33301 11 -9 11 -17v-44c0 -4.66699 -1.83301 -8.16699 -5.5 -10.5s-7.83398 -2.5 -12.501 -0.5l-391 162c-6.66699 2.66699 -10 8.33398 -10 17.001l1 60c0 7.33301 3.66699 12.666 11 15.999l389 160
c1.33301 0.666992 3.33301 1 6 1c3.33301 0 6.16602 -1.16699 8.49902 -3.5s3.5 -5.16602 3.5 -8.49902v-43c0 -8 -3.66699 -13.667 -11 -17z" />
    <glyph glyph-name="equal" unicode="=" horiz-adv-x="626" 
d="M69 349.5c-2.66699 2.33301 -4 5.83301 -4 10.5v42c0 4.66699 1.33301 8.16699 4 10.5s6 3.5 10 3.5h468c4 0 7.33301 -1.16699 10 -3.5s4 -5.83301 4 -10.5v-42c0 -4.66699 -1.33301 -8.16699 -4 -10.5s-6 -3.5 -10 -3.5h-468c-4 0 -7.33301 1.16699 -10 3.5zM69 164.5
c-2.66699 2.33301 -4 5.83301 -4 10.5v42c0 4.66699 1.33301 8.16699 4 10.5s6 3.5 10 3.5h468c4 0 7.33301 -1.16699 10 -3.5s4 -5.83301 4 -10.5v-42c0 -4.66699 -1.33301 -8.16699 -4 -10.5s-6 -3.5 -10 -3.5h-468c-4 0 -7.33301 1.16699 -10 3.5z" />
    <glyph glyph-name="greater" unicode="&#x3e;" horiz-adv-x="549" 
d="M484 259c0 -8.66699 -3.33496 -14.333 -10.002 -17l-391 -162c-1.33301 -0.666992 -3.33301 -1 -6 -1c-3.33301 0 -6.16602 1.16699 -8.49902 3.5s-3.5 5.16602 -3.5 8.49902v44c0 8 3.66699 13.667 11 17l331 135l-331 137c-7.33301 3.33301 -11 9 -11 17v43
c0 4.66699 1.83301 8.16699 5.5 10.5s7.83398 2.5 12.501 0.5l389 -160c7.33301 -3.33301 11 -8.66602 11 -15.999z" />
    <glyph glyph-name="question" unicode="?" horiz-adv-x="451" 
d="M180 204c-6.66699 0 -10.667 2.33301 -12 7c-14.667 28.667 -22 57 -22 85c0 28.667 7.16699 53.334 21.5 74.001s37.833 46 70.5 76c22.667 21.333 40 40 52 56s18 33.333 18 52c0 21.333 -8 39.166 -24 53.499s-37.333 21.5 -64 21.5
c-19.333 0 -38.5 -4.16699 -57.5 -12.5s-36.5 -18.5 -52.5 -30.5c-4 -2.66699 -7.33301 -4 -10 -4c-4 0 -7.66699 2.33301 -11 7l-20 31c-2.66699 3.33301 -4 7 -4 11c0 6.66699 3 12.334 9 17.001c18 15.333 40.833 28.166 68.5 38.499s55.834 15.5 84.501 15.5
c45.333 0 83.166 -13.5 113.499 -40.5s45.5 -62.5 45.5 -106.5c0 -30 -6.33301 -55.333 -19 -76s-30 -42 -52 -64l-14 -14c-26.667 -26 -45.667 -46.5 -57 -61.5s-17 -31.167 -17 -48.5c0 -13.333 3.66699 -30 11 -50l1 -4c0 -6 -2.66699 -10 -8 -12l-43 -19zM162.5 4.5
c-12.333 12.333 -18.5 27.166 -18.5 44.499s6.16699 32.166 18.5 44.499s27.5 18.5 45.5 18.5c17.333 0 32 -6.16699 44 -18.5s18 -27.166 18 -44.499s-6 -32.166 -18 -44.499s-26.667 -18.5 -44 -18.5c-18 0 -33.167 6.16699 -45.5 18.5z" />
    <glyph glyph-name="at" unicode="@" horiz-adv-x="938" 
d="M266.5 -59.5c-61.667 36.333 -110.67 85.3359 -147.003 147.003s-54.5 129.167 -54.5 202.5s18.167 140.833 54.5 202.5s85.333 110.667 147 147s129.167 54.5 202.5 54.5s140.833 -18.167 202.5 -54.5s110.667 -85.333 147 -147s54.5 -129.167 54.5 -202.5
c0 -48 -8.66699 -88.5 -26 -121.5s-39.5 -57.5 -66.5 -73.5s-55.167 -24 -84.5 -24c-26.667 0 -50.5 6.66699 -71.5 20s-35.833 32.666 -44.5 57.999c-14 -22 -34.167 -40.333 -60.5 -55s-55.5 -22 -87.5 -22c-39.333 0 -71.5 11.167 -96.5 33.5s-37.5 51.5 -37.5 87.5
c0 33.333 11.333 61.166 34 83.499s54.334 36.166 95.001 41.499l96 13c14 2 24 6.5 30 13.5s9 17.5 9 31.5v6c0 22 -8.83301 40.333 -26.5 55s-40.167 22 -67.5 22c-40.667 0 -74 -17.667 -100 -53c-2.66699 -4.66699 -7 -7 -13 -7c-3.33301 0 -6.33301 1 -9 3l-25 20
c-2.66699 2 -4.16699 4.5 -4.5 7.5s0.166992 6.16699 1.5 9.5c14.667 25.333 35.5 45.166 62.5 59.499s56.5 21.5 88.5 21.5c46.667 0 84.334 -12.667 113.001 -38s43 -58.666 43 -99.999v-173c0 -24 7.33301 -43.167 22 -57.5s32.334 -21.5 53.001 -21.5
c18 0 35.5 5.83301 52.5 17.5s31 29.667 42 54s16.5 53.833 16.5 88.5c0 62 -15.333 119.167 -46 171.5s-72.167 93.833 -124.5 124.5s-109.5 46 -171.5 46s-119.167 -15.333 -171.5 -46s-93.833 -72.167 -124.5 -124.5s-46 -109.5 -46 -171.5s15.333 -119.167 46 -171.5
s72.167 -93.833 124.5 -124.5s109.5 -46 171.5 -46h213c4 0 7.33301 -1.33301 10 -4s4 -6 4 -10v-34c0 -4 -1.33301 -7.33301 -4 -10s-6 -4 -10 -4h-213c-73.333 0 -140.833 18.167 -202.5 54.5zM502.997 149.003c19.333 12.667 34.501 28.667 45.501 48s16.5 38 16.5 56v28
l-133 -19c-48 -6.66699 -72 -29 -72 -67c0 -19.333 7.16699 -35 21.5 -47s33.166 -18 56.499 -18c24 0 45.667 6.33301 65 19z" />
    <glyph glyph-name="A" unicode="A" horiz-adv-x="610" 
d="M37.5 6.5c-3 4.33301 -3.5 9.49902 -1.5 15.499l217 660c1.33301 4 3.83301 7.16699 7.5 9.5s7.5 3.5 11.5 3.5h66c4 0 7.83301 -1.16699 11.5 -3.5s6.16699 -5.5 7.5 -9.5l217 -660c0.666992 -1.33301 1 -3.66602 1 -6.99902c0 -4 -1.5 -7.5 -4.5 -10.5
s-6.83301 -4.5 -11.5 -4.5h-49c-4 0 -7.83301 1.16699 -11.5 3.5s-6.16699 5.5 -7.5 9.5l-56 174h-260l-56 -174c-0.666992 -4 -3 -7.16699 -7 -9.5s-8 -3.5 -12 -3.5h-49c-6 0 -10.5 2.16699 -13.5 6.5zM412 259.999l-107 331l-107 -331h214z" />
    <glyph glyph-name="B" unicode="B" horiz-adv-x="567" 
d="M100.5 10.5c-7 7 -10.499 15.499 -10.499 25.499v623c0 10 3.5 18.5 10.5 25.5s15.5 10.5 25.5 10.5h173c34 0 65 -7.5 93 -22.5s49.833 -36 65.5 -63s23.5 -57.167 23.5 -90.5c0 -28 -5.83301 -54 -17.5 -78s-28.5 -44.667 -50.5 -62
c35.333 -14.667 63.166 -37.667 83.499 -69s30.5 -66.666 30.5 -105.999c0 -38 -9 -72.5 -27 -103.5s-42.5 -55.5 -73.5 -73.5s-65.167 -27 -102.5 -27h-198c-10 0 -18.5 3.5 -25.5 10.5zM286.001 397.999c31.333 0 58.167 11.5 80.5 34.5s33.5 50.167 33.5 81.5
c0 30 -10.333 55.333 -31 76s-46.667 31 -78 31h-121v-223h116zM319.002 74.999c36 0 65.833 12.001 89.5 36.001s35.5 53.667 35.5 89s-11.833 64.666 -35.5 87.999s-53.5 35 -89.5 35h-149v-248h149z" />
    <glyph glyph-name="C" unicode="C" horiz-adv-x="546" 
d="M189 20c-36.667 22 -65.667 51.6641 -87 88.9971s-32 78 -32 122v234c0 44 10.667 84.667 32 122s50.333 67 87 89s76.667 33 120 33c35.333 0 68.333 -6.16699 99 -18.5s57.667 -30.166 81 -53.499c3.33301 -2.66699 5 -6.66699 5 -12c0 -4.66699 -1.66699 -9 -5 -13
c-14 -16 -23 -26 -27 -30c-4.66699 -3.33301 -9.33398 -5 -14.001 -5c-5.33301 0 -10.333 2.33301 -15 7c-33.333 32 -74.333 48 -123 48c-28.667 0 -55 -7.66699 -79 -23s-43 -35.833 -57 -61.5s-21 -53.167 -21 -82.5v-234c0 -29.333 7 -56.833 21 -82.5
s33 -46.167 57 -61.5s50.333 -23 79 -23c48.667 0 89.667 16 123 48c4.66699 4.66699 9.66699 7 15 7c4.66699 0 9.33398 -1.66699 14.001 -5c4 -4 13 -14 27 -30c3.33301 -3.33301 5 -7.66602 5 -12.999c0 -4.66699 -1.66699 -8.66699 -5 -12
c-23.333 -23.333 -50.333 -41.166 -81 -53.499s-63.667 -18.5 -99 -18.5c-43.333 0 -83.333 11 -120 33z" />
    <glyph glyph-name="D" unicode="D" horiz-adv-x="630" 
d="M100.5 10.5c-7 7 -10.5 15.5 -10.5 25.5v623c0 10 3.5 18.5 10.5 25.5s15.5 10.5 25.5 10.5h178c47.333 0 91 -11.833 131 -35.5s71.667 -55.667 95 -96s35 -84.5 35 -132.5v-167c0 -48 -11.667 -92.167 -35 -132.5s-55 -72.333 -95 -96s-83.667 -35.5 -131 -35.5h-178
c-10 0 -18.5 3.5 -25.5 10.5zM304 77c32.667 0 62.667 7.99902 90 23.999s49 37.833 65 65.5s24 57.834 24 90.501v182c0 32.667 -8 62.667 -24 90s-37.667 49 -65 65s-57.333 24 -90 24h-132v-541h132z" />
    <glyph glyph-name="E" unicode="E" horiz-adv-x="524" 
d="M100.5 10.5c-7 7 -10.5 15.5 -10.5 25.5v623c0 10 3.5 18.5 10.5 25.5s15.5 10.5 25.5 10.5h329c4 0 7.33301 -1.33301 10 -4s4 -6 4 -10v-49c0 -4 -1.33301 -7.33301 -4 -10s-6 -4 -10 -4h-283v-214h216c4 0 7.33301 -1.33301 10 -4s4 -6 4 -10v-47
c0 -4 -1.33301 -7.33301 -4 -10s-6 -4 -10 -4h-216v-252h283c4 0 7.33301 -1.33301 10 -4s4 -6 4 -10v-49c0 -4 -1.33301 -7.33301 -4 -10s-6 -4 -10 -4h-329c-10 0 -18.5 3.5 -25.5 10.5z" />
    <glyph glyph-name="F" unicode="F" horiz-adv-x="509" 
d="M94 4c-2.66699 2.66699 -4 6 -4 10v645c0 10 3.5 18.5 10.5 25.5s15.5 10.5 25.5 10.5h329c4 0 7.33301 -1.33301 10 -4s4 -6 4 -10v-49c0 -4 -1.33301 -7.33301 -4 -10s-6 -4 -10 -4h-283v-234h216c4 0 7.33301 -1.33301 10 -4s4 -6 4 -10v-47
c0 -4 -1.33301 -7.33301 -4 -10s-6 -4 -10 -4h-216v-295c0 -4 -1.33301 -7.33301 -4 -10s-6 -4 -10 -4h-54c-4 -0 -7.33301 1.33301 -10 4z" />
    <glyph glyph-name="G" unicode="G" horiz-adv-x="617" 
d="M192 21c-37.333 22 -67 51.667 -89 89s-33 78 -33 122v233c0 44 11 84.667 33 122s51.667 67 89 89s78 33 122 33c36.667 0 71 -6.33301 103 -19s59.667 -30.667 83 -54c3.33301 -2.66699 5 -6.66699 5 -12c0 -4.66699 -1.66699 -9 -5 -13
c-4.66699 -5.33301 -14 -15 -28 -29c-4.66699 -3.33301 -9.33398 -5 -14.001 -5c-5.33301 0 -10.333 2.33301 -15 7c-34 32 -76.667 48 -128 48c-29.333 0 -56.5 -7.66699 -81.5 -23s-44.833 -35.833 -59.5 -61.5s-22 -53.167 -22 -82.5v-233
c0 -29.333 7.33301 -56.833 22 -82.5s34.5 -46.167 59.5 -61.5s52.167 -23 81.5 -23s56.333 7.33301 81 22s44.334 34.5 59.001 59.5s22 52.167 22 81.5v79h-141c-4 0 -7.33301 1.33301 -10 4s-4 6 -4 10v46c0 4 1.33301 7.33301 4 10s6 4 10 4h185
c10 0 18.5 -3.5 25.5 -10.5s10.5 -15.5 10.5 -25.5v-113c0 -44 -10.833 -84.667 -32.5 -122s-51.167 -67 -88.5 -89s-78 -33 -122 -33s-84.667 11 -122 33z" />
    <glyph glyph-name="H" unicode="H" horiz-adv-x="680" 
d="M94 4c-2.66699 2.66699 -4 6 -4 10v667c0 4 1.33301 7.33301 4 10s6 4 10 4h54c4 0 7.33301 -1.33301 10 -4s4 -6 4 -10v-277h336v277c0 4 1.33301 7.33301 4 10s6 4 10 4h54c4 0 7.33301 -1.33301 10 -4s4 -6 4 -10v-667c0 -4 -1.33301 -7.33301 -4 -10s-6 -4 -10 -4
h-54c-4 -0 -7.33301 1.33301 -10 4s-4 6 -4 10v315h-336v-315c0 -4 -1.33301 -7.33301 -4 -10s-6 -4 -10 -4h-54c-4 -0 -7.33301 1.33301 -10 4z" />
    <glyph glyph-name="I" unicode="I" horiz-adv-x="442" 
d="M69 4c-2.66699 2.66699 -4 6 -4 10v47c0 4 1.33301 7.33301 4 10s6 4 10 4h101v545h-101c-4 0 -7.33301 1.33301 -10 4s-4 6 -4 10v47c0 4 1.33301 7.33301 4 10s6 4 10 4h284c4 0 7.33301 -1.33301 10 -4s4 -6 4 -10v-47c0 -4 -1.33301 -7.33301 -4 -10s-6 -4 -10 -4
h-101v-545h101c4 0 7.33301 -1.33301 10 -4s4 -6 4 -10v-47c0 -4 -1.33301 -7.33301 -4 -10s-6 -4 -10 -4h-284c-4 -0 -7.33301 1.33301 -10 4z" />
    <glyph glyph-name="J" unicode="J" horiz-adv-x="359" 
d="M34 4c-2.66699 2.66699 -3.99805 6.33105 -3.99805 10.998v46c0 4.66699 1.33301 8.33398 4 11.001s6.33398 4 11.001 4h59c23.333 0 42.166 7.33301 56.499 22s21.5 34.334 21.5 59.001v524c0 4 1.33301 7.33301 4 10s6 4 10 4h54c4 0 7.33301 -1.33301 10 -4
s4 -6 4 -10v-525c0 -28 -6 -54 -18 -78s-29.333 -43 -52 -57s-49.334 -21 -80.001 -21h-69c-4.66699 -0 -8.33398 1.33301 -11.001 4z" />
    <glyph glyph-name="K" unicode="K" horiz-adv-x="563" 
d="M94.5 3.5c-3 2.33301 -4.5 5.50098 -4.5 9.50098v668c0 4 1.33301 7.33301 4 10s6 4 10 4h54c4 0 7.33301 -1.33301 10 -4s4 -6 4 -10v-298h29l242 303c5.33301 6 11.333 9 18 9h63c4.66699 0 8.16699 -1.16699 10.5 -3.5s3.5 -5.5 3.5 -9.5s-1.33301 -7.33301 -4 -10
l-259 -321l258 -326c2.66699 -2.66699 4 -6 4 -10c0 -4.66699 -1.5 -8.33398 -4.5 -11.001s-6.5 -4 -10.5 -4h-63c-6 0 -11.667 3 -17 9l-237 299h-33v-295c0 -4 -1.5 -7.16699 -4.5 -9.5s-6.5 -3.5 -10.5 -3.5h-52c-4 0 -7.5 1.16699 -10.5 3.5z" />
    <glyph glyph-name="L" unicode="L" horiz-adv-x="474" 
d="M100.5 10.5c-7 7 -10.5 15.5 -10.5 25.5v645c0 4 1.33301 7.33301 4 10s6 4 10 4h54c4 0 7.33301 -1.33301 10 -4s4 -6 4 -10v-604h253c4 0 7.33301 -1.33301 10 -4s4 -6 4 -10v-49c0 -4 -1.33301 -7.33301 -4 -10s-6 -4 -10 -4h-299c-10 0 -18.5 3.5 -25.5 10.5z" />
    <glyph glyph-name="M" unicode="M" horiz-adv-x="901" 
d="M413.5 -9.5c-3.66699 2.33301 -6.16602 5.49902 -7.49902 9.49902l-192 556l-66 -539c-0.666992 -5.33301 -2.83398 -9.5 -6.50098 -12.5s-8.16699 -4.5 -13.5 -4.5h-47c-5.33301 0 -9.5 1.83301 -12.5 5.5s-4.16699 7.83398 -3.5 12.501l87 666
c0.666992 3.33301 2.16699 6 4.5 8s4.83301 3 7.5 3h70c4 0 8 -1.16699 12 -3.5s6.33301 -5.5 7 -9.5l197 -571l199 575c2 6 6 9 12 9h69c5.33301 0 9.83301 -1.5 13.5 -4.5s5.83398 -7.16699 6.50098 -12.5l86 -660v-2c0 -4 -1.5 -7.66699 -4.5 -11s-6.83301 -5 -11.5 -5
h-48c-5.33301 0 -9.83301 1.5 -13.5 4.5s-5.83398 7.16699 -6.50098 12.5l-66 537l-192 -554c-1.33301 -4 -3.83301 -7.16699 -7.5 -9.5s-7.5 -3.5 -11.5 -3.5h-50c-4 0 -7.83301 1.16699 -11.5 3.5z" />
    <glyph glyph-name="N" unicode="N" horiz-adv-x="680" 
d="M94 4c-2.66699 2.66699 -4 6 -4 10v660c0 6 2 11 6 15s9 6 15 6h59c5.33301 0 10.333 -1.16699 15 -3.5s8.33398 -5.83301 11.001 -10.5l316 -552v552c0 4 1.33301 7.33301 4 10s6 4 10 4h50c4 0 7.33301 -1.33301 10 -4s4 -6 4 -10v-660c0 -6 -2 -11 -6 -15
s-9 -6 -15 -6h-60c-5.33301 0 -10.333 1.16699 -15 3.5s-8.33398 5.83301 -11.001 10.5l-315 551v-551c0 -4 -1.33301 -7.33301 -4 -10s-6 -4 -10 -4h-50c-4 -0 -7.33301 1.33301 -10 4z" />
    <glyph glyph-name="O" unicode="O" horiz-adv-x="630" 
d="M192.5 20c-37.667 22 -67.5 51.667 -89.5 89s-33 78 -33 122v233c0 44 11 84.667 33 122s51.833 67 89.5 89s78.5 33 122.5 33s84.833 -11 122.5 -33s67.5 -51.667 89.5 -89s33 -78 33 -122v-233c0 -44 -11 -84.667 -33 -122s-51.833 -67 -89.5 -89s-78.5 -33 -122.5 -33
s-84.833 11 -122.5 33zM396.5 87c25 15.333 44.833 35.833 59.5 61.5s22 53.167 22 82.5v233c0 29.333 -7.33301 56.833 -22 82.5s-34.5 46.167 -59.5 61.5s-52.167 23 -81.5 23s-56.5 -7.66699 -81.5 -23s-44.833 -35.833 -59.5 -61.5s-22 -53.167 -22 -82.5v-233
c0 -29.333 7.33301 -56.833 22 -82.5s34.5 -46.167 59.5 -61.5s52.167 -23 81.5 -23s56.5 7.66699 81.5 23z" />
    <glyph glyph-name="P" unicode="P" horiz-adv-x="557" 
d="M94 4c-2.66699 2.66699 -4 6 -4 10v645c0 10 3.5 18.5 10.5 25.5s15.5 10.5 25.5 10.5h168c40 0 76.667 -9.66699 110 -29s59.666 -45.333 78.999 -78s29 -68.667 29 -108s-9.66699 -75.333 -29 -108s-45.666 -58.667 -78.999 -78s-70 -29 -110 -29h-122v-251
c0 -4 -1.33301 -7.33301 -4 -10s-6 -4 -10 -4h-54c-4 -0 -7.33301 1.33301 -10 4zM289 342c25.333 0 48.666 6.16895 69.999 18.502s38.166 29.166 50.499 50.499s18.5 44.333 18.5 69s-6.16699 47.667 -18.5 69s-29.166 38.166 -50.499 50.499s-44.666 18.5 -69.999 18.5
h-117v-276h117z" />
    <glyph glyph-name="Q" unicode="Q" horiz-adv-x="639" 
d="M590.5 -176c-21.667 11.333 -47.834 28.667 -78.501 52l-23 18l-41 31c-31.333 24.667 -55.166 41.167 -71.499 49.5s-36.833 12.5 -61.5 12.5c-44 0 -84.833 11 -122.5 33s-67.5 51.667 -89.5 89s-33 78 -33 122v233c0 44 11 84.667 33 122s51.833 67 89.5 89
s78.5 33 122.5 33s84.833 -11 122.5 -33s67.5 -51.667 89.5 -89s33 -78 33 -122v-233c0 -42.667 -10.333 -82.167 -31 -118.5s-48.334 -65.5 -83.001 -87.5l75 -60l23 -19c27.333 -22.667 50.333 -39.5 69 -50.5s38.334 -16.5 59.001 -16.5h13c4 0 7.33301 -1.33301 10 -4
s4 -6 4 -10v-44c0 -4 -1.16699 -7.33301 -3.5 -10s-5.83301 -4 -10.5 -4h-21c-27.333 0 -51.833 5.66699 -73.5 17zM396.5 87.001c25 15.333 44.833 35.833 59.5 61.5s22 53.167 22 82.5v233c0 29.333 -7.33301 56.833 -22 82.5s-34.5 46.167 -59.5 61.5
s-52.167 23 -81.5 23s-56.5 -7.66699 -81.5 -23s-44.833 -35.833 -59.5 -61.5s-22 -53.167 -22 -82.5v-233c0 -29.333 7.33301 -56.833 22 -82.5s34.5 -46.167 59.5 -61.5s52.167 -23 81.5 -23s56.5 7.66699 81.5 23z" />
    <glyph glyph-name="R" unicode="R" horiz-adv-x="562" 
d="M94 4c-2.66699 2.66699 -3.99902 6 -3.99902 10v645c0 10 3.5 18.5 10.5 25.5s15.5 10.5 25.5 10.5h174c37.333 0 71.5 -9 102.5 -27s55.5 -42.5 73.5 -73.5s27 -64.833 27 -101.5c0 -48.667 -15.333 -91.334 -46 -128.001s-69.334 -59.667 -116.001 -69l166 -268
c2 -2.66699 3 -6 3 -10c0 -5.33301 -1.83301 -9.66602 -5.5 -12.999s-8.16699 -5 -13.5 -5h-51c-6.66699 0 -11.667 3 -15 9l-175 283h-78v-278c0 -4 -1.33301 -7.33301 -4 -10s-6 -4 -10 -4h-54c-4 -0 -7.33301 1.33301 -10 4zM294.001 369c36 0 65.833 11.667 89.5 35
s35.5 52.666 35.5 87.999c0 36.667 -11.833 66.834 -35.5 90.501s-53.5 35.5 -89.5 35.5h-122v-249h122z" />
    <glyph glyph-name="S" unicode="S" horiz-adv-x="531" 
d="M146.5 1c-33 9.33301 -61.498 22.335 -85.498 39.002c-2.66699 1.33301 -4.5 3.66602 -5.5 6.99902s-0.833008 6.66602 0.5 9.99902l23 45c3.33301 6 8 9 14 9c3.33301 0 6 -0.666992 8 -2c51.333 -30.667 100 -46 146 -46c42.667 0 77.667 10.833 105 32.5
s41 50.834 41 87.501c0 24 -6 43.667 -18 59s-27 27.666 -45 36.999s-43 20.333 -75 33c-42 16 -75.667 30.833 -101 44.5s-47.333 33.5 -66 59.5s-28 59.667 -28 101s9.83301 76.5 29.5 105.5s45.834 50.5 78.501 64.5s68.667 21 108 21c32 0 63.167 -4.5 93.5 -13.5
s57.166 -21.167 80.499 -36.5c2.66699 -1.33301 4.5 -3.83301 5.5 -7.5s0.5 -7.16699 -1.5 -10.5l-22 -41c-2 -4 -5 -6.66699 -9 -8s-8 -0.666016 -12 2.00098c-44.667 26.667 -89.334 40 -134.001 40c-40.667 0 -73.167 -10 -97.5 -30s-36.5 -47.333 -36.5 -82
c0 -24 6 -43.833 18 -59.5s26.833 -28.167 44.5 -37.5s42.834 -20.333 75.501 -33c6 -2.66699 28.5 -11.334 67.5 -26.001s70 -37 93 -67s34.5 -66 34.5 -108c0 -41.333 -9.83301 -77.333 -29.5 -108s-46.834 -54.167 -81.501 -70.5s-74.334 -24.5 -119.001 -24.5
c-33.333 0 -66.5 4.66699 -99.5 14z" />
    <glyph glyph-name="T" unicode="T" horiz-adv-x="544" 
d="M235 4c-2.66699 2.66699 -4 6 -4 10v604h-173c-4 0 -7.33301 1.33301 -10 4s-4 6 -4 10v49c0 4 1.33301 7.33301 4 10s6 4 10 4h428c4 0 7.33301 -1.33301 10 -4s4 -6 4 -10v-49c0 -4 -1.33301 -7.33301 -4 -10s-6 -4 -10 -4h-173v-604c0 -4 -1.33301 -7.33301 -4 -10
s-6 -4 -10 -4h-54c-4 -0 -7.33301 1.33301 -10 4z" />
    <glyph glyph-name="U" unicode="U" horiz-adv-x="671" 
d="M211 20c-37.333 22 -66.835 53.167 -88.502 93.5s-32.5 86.166 -32.5 137.499v430c0 4 1.33301 7.33301 4 10s6 4 10 4h54c4 0 7.33301 -1.33301 10 -4s4 -6 4 -10v-435c0 -36 7.16699 -67.667 21.5 -95s33.833 -48.333 58.5 -63s52.667 -22 84 -22
c30.667 0 58.334 7.33301 83.001 22s44.167 35.667 58.5 63s21.5 59 21.5 95v435c0 4 1.33301 7.33301 4 10s6 4 10 4h54c4 0 7.33301 -1.33301 10 -4s4 -6 4 -10v-430c0 -51.333 -10.833 -97.166 -32.5 -137.499s-51.167 -71.5 -88.5 -93.5s-78.666 -33 -123.999 -33
c-46 0 -87.667 11 -125 33z" />
    <glyph glyph-name="V" unicode="V" horiz-adv-x="608" 
d="M259.5 3.5c-3.66699 2.33301 -6.16699 5.50098 -7.5 9.50098l-206 660c-0.666992 1.33301 -1 3.66602 -1 6.99902c0 4 1.5 7.5 4.5 10.5s6.83301 4.5 11.5 4.5h49c4 0 8 -1.16699 12 -3.5s6.33301 -5.5 7 -9.5l175 -578l175 578c1.33301 4 3.83301 7.16699 7.5 9.5
s7.5 3.5 11.5 3.5h49c6 0 10.5 -2.16699 13.5 -6.5s3.5 -9.5 1.5 -15.5l-206 -660c-0.666992 -4 -3 -7.16699 -7 -9.5s-8 -3.5 -12 -3.5h-66c-4 0 -7.83301 1.16699 -11.5 3.5z" />
    <glyph glyph-name="W" unicode="W" horiz-adv-x="999" 
d="M250.5 5c-5 3.33301 -8.16211 7.66504 -9.49512 12.998l-195 656c-0.666992 1.33301 -1 3 -1 5c0 4.66699 1.66699 8.5 5 11.5s7.33301 4.5 12 4.5h52c4.66699 0 8.66699 -1.33301 12 -4s5.66602 -6 6.99902 -10l161 -562l161 562c1.33301 4 3.66602 7.33301 6.99902 10
s7.33301 4 12 4h52c4.66699 0 8.66699 -1.33301 12 -4s5.66602 -6 6.99902 -10l161 -562l161 562c1.33301 4 3.66602 7.33301 6.99902 10s7.33301 4 12 4h52c5.33301 0 9.66602 -2.16699 12.999 -6.5s4.33301 -9.16602 3 -14.499l-195 -656
c-1.33301 -5.33301 -4.5 -9.66602 -9.5 -12.999s-10.167 -5 -15.5 -5h-56c-5.33301 0 -10.5 1.66699 -15.5 5s-8.16699 7.66602 -9.5 12.999l-154 535l-152 -535c-1.33301 -5.33301 -4.5 -9.66602 -9.5 -12.999s-10.167 -5 -15.5 -5h-56c-5.33301 0 -10.5 1.66699 -15.5 5z
" />
    <glyph glyph-name="X" unicode="X" horiz-adv-x="607" 
d="M55 5c-3.33301 3.33301 -5 7.33301 -5 12c0 3.33301 1 7 3 11l202 320l-201 319c-2 4 -3 7.66699 -3 11c0 4.66699 1.66699 8.66699 5 12s7.66602 5 12.999 5h54c6.66699 0 11.667 -2.66699 15 -8l166 -262l165 262c3.33301 5.33301 8.33301 8 15 8h54
c5.33301 0 9.66602 -1.66699 12.999 -5s5 -7.33301 5 -12c0 -3.33301 -1 -7 -3 -11l-201 -319l202 -320c2 -4 3 -7.66699 3 -11c0 -4.66699 -1.66699 -8.66699 -5 -12s-7.66602 -5 -12.999 -5h-55c-6.66699 0 -11.667 2.66699 -15 8l-165 263l-166 -263
c-3.33301 -5.33301 -8.33301 -8 -15 -8h-55c-5.33301 0 -9.66602 1.66699 -12.999 5z" />
    <glyph glyph-name="Y" unicode="Y" horiz-adv-x="567" 
d="M247 4c-2.66699 2.66699 -3.99805 6 -3.99805 10v321l-205 333c-2 4 -3 7.33301 -3 10c0 5.33301 1.66699 9.5 5 12.5s7.66602 4.5 12.999 4.5h54c6 0 11 -3 15 -9l162 -267l161 267c4 6 9 9 15 9h54c5.33301 0 9.66602 -1.5 12.999 -4.5s5 -7.16699 5 -12.5
c0 -2.66699 -1 -6 -3 -10l-204 -330v-324c0 -4 -1.33301 -7.33301 -4 -10s-6 -4 -10 -4h-54c-4 -0 -7.33301 1.33301 -10 4z" />
    <glyph glyph-name="Z" unicode="Z" horiz-adv-x="551" 
d="M65 11.5c-6.66699 7.66699 -10 16.501 -10 26.501c0 6 1.66699 11.667 5 17l324 563h-302c-4 0 -7.33301 1.33301 -10 4s-4 6 -4 10v49c0 4 1.33301 7.33301 4 10s6 4 10 4h378c10 0 18.167 -3.83301 24.5 -11.5s9.5 -16.5 9.5 -26.5
c0 -6.66699 -1.33301 -12.334 -4 -17.001l-326 -563h318c4 0 7.33301 -1.33301 10 -4s4 -6 4 -10v-49c0 -4 -1.33301 -7.33301 -4 -10s-6 -4 -10 -4h-393c-9.33301 -0 -17.333 3.83301 -24 11.5z" />
    <glyph glyph-name="bracketleft" unicode="[" horiz-adv-x="315" 
d="M100.5 -182.5c-7 7 -10.5 15.5 -10.5 25.5v927c0 10 3.5 18.5 10.5 25.5s15.5 10.5 25.5 10.5h130c4 0 7.33301 -1.33301 10 -4s4 -6 4 -10v-44c0 -4 -1.33301 -7.33301 -4 -10s-6 -4 -10 -4h-87v-855h87c4 0 7.33301 -1.33301 10 -4s4 -6 4 -10v-44
c0 -4 -1.33301 -7.33301 -4 -10s-6 -4 -10 -4h-130c-10 0 -18.5 3.5 -25.5 10.5z" />
    <glyph glyph-name="backslash" unicode="\" horiz-adv-x="405" 
d="M329 -43l-323 791l-1 4c0 4.66699 2.66699 7 8 7h44c9.33301 0 15.333 -4 18 -12l324 -791l1 -4c0 -4.66699 -2.66699 -7 -8 -7h-45c-8.66699 0 -14.667 4 -18 12z" />
    <glyph glyph-name="bracketright" unicode="]" horiz-adv-x="315" 
d="M49 -189c-2.66699 2.66699 -4 6 -4 10v44c0 4 1.33301 7.33301 4 10s6 4 10 4h87v855h-87c-4 0 -7.33301 1.33301 -10 4s-4 6 -4 10v44c0 4 1.33301 7.33301 4 10s6 4 10 4h130c10 0 18.5 -3.5 25.5 -10.5s10.5 -15.5 10.5 -25.5v-927c0 -10 -3.5 -18.5 -10.5 -25.5
s-15.5 -10.5 -25.5 -10.5h-130c-4 0 -7.33301 1.33301 -10 4z" />
    <glyph glyph-name="asciicircum" unicode="^" horiz-adv-x="546" 
d="M74.5 338c-3 2.66699 -4.50488 6.33301 -4.50488 11c0 2 0.666992 5 2 9l157 323c4 9.33301 11.667 14 23 14h47c11.333 0 19 -4.66699 23 -14l152 -323c1.33301 -4 2 -6.66699 2 -8c0 -4.66699 -1.66699 -8.5 -5 -11.5s-7.66602 -4.5 -12.999 -4.5h-45
c-3.33301 0 -6.66602 1 -9.99902 3s-5.66602 4.66699 -6.99902 8l-123 252l-122 -252c-1.33301 -3.33301 -3.66602 -6 -6.99902 -8s-6.66602 -3 -9.99902 -3h-47c-5.33301 0 -9.5 1.33301 -12.5 4z" />
    <glyph glyph-name="underscore" unicode="_" horiz-adv-x="490" 
d="M4 -106c-2.66699 2.66699 -4 6 -4 10v46c-0 4 1.33301 7.33301 4 10s6 4 10 4h462c4 0 7.33301 -1.33301 10 -4s4 -6 4 -10v-46c0 -4 -1.33301 -7.33301 -4 -10s-6 -4 -10 -4h-462c-4 0 -7.33301 1.33301 -10 4z" />
    <glyph glyph-name="grave" unicode="`" horiz-adv-x="588" 
d="M312 643l-80.998 92.999c-2.66699 2.66699 -4 6 -4 10s1.16699 7.16699 3.5 9.5s5.83301 3.5 10.5 3.5h67c13.333 0 22.666 -6.33301 27.999 -19l37 -90c1.33301 -4 2 -6.33301 2 -7c0 -3.33301 -1.16699 -6.16602 -3.5 -8.49902s-5.5 -3.5 -9.5 -3.5h-24
c-10.667 0 -19.334 4 -26.001 12z" />
    <glyph glyph-name="a" unicode="a" horiz-adv-x="560" 
d="M99 30.5c-32.667 29 -48.999 67.1689 -48.999 114.502c0 44 14.833 80.333 44.5 109s71.167 46.667 124.5 54l130 18c19.333 2.66699 33.333 9.16699 42 19.5s13 25.166 13 44.499v8c0 32 -12.5 57.833 -37.5 77.5s-56.167 29.5 -93.5 29.5
c-29.333 0 -54.833 -5.83301 -76.5 -17.5s-38.834 -27.834 -51.501 -48.501c-5.33301 -8.66699 -12 -13 -20 -13c-4 0 -8.33301 1.66699 -13 5l-27 18c-6 5.33301 -9 11 -9 17c0 2.66699 1 6 3 10c19.333 32 45.833 57.167 79.5 75.5s72.5 27.5 116.5 27.5
c40 0 75.667 -7.5 107 -22.5s55.5 -36.167 72.5 -63.5s25.5 -59 25.5 -95v-384c0 -4 -1.33301 -7.33301 -4 -10s-6 -4 -10 -4h-42c-4 -0 -7.33301 1.33301 -10 4s-4 6 -4 10v69c-20.667 -30 -47.167 -53.5 -79.5 -70.5s-67.5 -25.5 -105.5 -25.5
c-51.333 0 -93.333 14.5 -126 43.5zM322.001 83.002c26.667 17.333 47.499 39.168 62.499 65.501s22.5 52.166 22.5 77.499v41c-16 -2 -67.333 -9 -154 -21l-28 -4c-66.667 -10 -100 -41.333 -100 -94c0 -27.333 10 -49.333 30 -66s46 -25 78 -25
c32.667 0 62.334 8.66699 89.001 26z" />
    <glyph glyph-name="b" unicode="b" horiz-adv-x="590" 
d="M232.5 4.5c-26.333 11.667 -49.1699 27.833 -68.5029 48.5v-39c0 -4 -1.33301 -7.33301 -4 -10s-6 -4 -10 -4h-46c-4 -0 -7.33301 1.33301 -10 4s-4 6 -4 10v731c0 4 1.33301 7.33301 4 10s6 4 10 4h50c4 0 7.33301 -1.33301 10 -4s4 -6 4 -10v-236
c18.667 22 40.834 39.167 66.501 51.5s52.834 18.5 81.501 18.5c38 0 73 -9.33301 105 -28s57.333 -44 76 -76s28 -67 28 -105v-174c0 -38 -9.33301 -73 -28 -105s-44 -57.333 -76 -76s-67 -28 -105 -28c-29.333 0 -57.166 5.83301 -83.499 17.5zM377.996 79.499
c21.333 12.333 38.166 29.166 50.499 50.499s18.5 44.666 18.5 69.999v166c0 25.333 -6.16699 48.666 -18.5 69.999s-29.166 38.166 -50.499 50.499s-44.666 18.5 -69.999 18.5s-48.833 -6.16699 -70.5 -18.5s-38.667 -29.166 -51 -50.499s-18.5 -44.666 -18.5 -69.999v-166
c0 -25.333 6.16699 -48.666 18.5 -69.999s29.333 -38.166 51 -50.499s45.167 -18.5 70.5 -18.5s48.666 6.16699 69.999 18.5z" />
    <glyph glyph-name="c" unicode="c" horiz-adv-x="492" 
d="M173 16c-33.333 19.333 -59.665 45.832 -78.998 79.499s-29 70.167 -29 109.5v156c0 39.333 9.66699 75.833 29 109.5s45.666 60.167 78.999 79.5s69.666 29 108.999 29c28.667 0 55.834 -5.33301 81.501 -16s48.167 -25.334 67.5 -44.001c4 -4 6 -8.66699 6 -14
c0 -4.66699 -2 -9.66699 -6 -15c-6.66699 -7.33301 -14.334 -15 -23.001 -23c-4.66699 -4 -9.66699 -6 -15 -6c-6 0 -11.333 2.33301 -16 7c-26.667 24.667 -58.334 37 -95.001 37c-25.333 0 -48.666 -6.16699 -69.999 -18.5s-38.166 -29.166 -50.499 -50.499
s-18.5 -44.666 -18.5 -69.999v-166c0 -25.333 6.16699 -48.666 18.5 -69.999s29.166 -38.166 50.499 -50.499s44.666 -18.5 69.999 -18.5c36.667 0 68.334 12.333 95.001 37c4.66699 4.66699 10 7 16 7c5.33301 0 10.333 -2 15 -6c8 -6.66699 15.667 -14.334 23 -23.001
c4 -4 6 -9 6 -15c0 -5.33301 -2 -10 -6 -14c-19.333 -18.667 -41.833 -33.334 -67.5 -44.001s-52.834 -16 -81.501 -16c-39.333 0 -75.666 9.66699 -108.999 29z" />
    <glyph glyph-name="d" unicode="d" horiz-adv-x="590" 
d="M169 15c-32 18.667 -57.333 44 -76 76s-28 67 -28 105v174c0 38 9.33301 73 28 105s44.167 57.333 76.5 76s67.5 28 105.5 28c27.333 0 53.833 -5 79.5 -15s48.167 -24 67.5 -42v223c0 4 1.33301 7.33301 4 10s6 4 10 4h50c4 0 7.33301 -1.33301 10 -4s4 -6 4 -10v-731
c0 -4 -1.33301 -7.33301 -4 -10s-6 -4 -10 -4h-46c-4 -0 -7.33301 1.33301 -10 4s-4 6 -4 10v44c-18.667 -22.667 -41.167 -40.167 -67.5 -52.5s-54.5 -18.5 -84.5 -18.5c-38 0 -73 9.33301 -105 28zM352.5 79.5c21.667 12.333 38.667 29.166 51 50.499
s18.5 44.666 18.5 69.999v166c0 25.333 -6.16699 48.666 -18.5 69.999s-29.333 38.166 -51 50.499s-45.167 18.5 -70.5 18.5s-48.666 -6.16699 -69.999 -18.5s-38.166 -29.166 -50.499 -50.499s-18.5 -44.666 -18.5 -69.999v-166c0 -25.333 6.16699 -48.666 18.5 -69.999
s29.166 -38.166 50.499 -50.499s44.666 -18.5 69.999 -18.5s48.833 6.16699 70.5 18.5z" />
    <glyph glyph-name="e" unicode="e" horiz-adv-x="557" 
d="M173 29c-33.333 19.333 -59.6621 45.8311 -78.9951 79.498s-29 70.167 -29 109.5v143c0 39.333 9.66699 75.833 29 109.5s45.666 60.167 78.999 79.5s69.666 29 108.999 29s75.666 -9.66699 108.999 -29s59.666 -45.833 78.999 -79.5s29 -70.167 29 -109.5v-68
c0 -10 -3.5 -18.5 -10.5 -25.5s-15.5 -10.5 -25.5 -10.5h-320v-44c0 -25.333 6.16699 -48.666 18.5 -69.999s29.166 -38.166 50.499 -50.499s44.666 -18.5 69.999 -18.5h145c4 0 7.33301 -1.33301 10 -4s4 -6 4 -10v-46c0 -4 -1.33301 -7.33301 -4 -10s-6 -4 -10 -4h-145
c-39.333 0 -75.666 9.66699 -108.999 29zM421.004 328.998l-0.00390625 37c0 25.333 -6.16699 48.666 -18.5 69.999s-29.166 38.166 -50.499 50.499s-44.666 18.5 -69.999 18.5s-48.666 -6.16699 -69.999 -18.5s-38.166 -29.166 -50.499 -50.499
s-18.5 -44.666 -18.5 -69.999v-37h278z" />
    <glyph glyph-name="f" unicode="f" horiz-adv-x="408" 
d="M134 4c-2.66699 2.66699 -3.99902 5.99902 -3.99902 9.99902v478h-76c-4 0 -7.33301 1.33301 -10 4s-4 6 -4 10v46c0 4 1.33301 7.33301 4 10s6 4 10 4h76v40c0 44 13.667 80.5 41 109.5s65 43.5 113 43.5h80c4 0 7.33301 -1.33301 10 -4s4 -6 4 -10v-43
c0 -4 -1.33301 -7.33301 -4 -10s-6 -4 -10 -4h-81c-22.667 0 -40.834 -7.16699 -54.501 -21.5s-20.5 -33.166 -20.5 -56.499v-44h136c4 0 7.33301 -1.33301 10 -4s4 -6 4 -10v-46c0 -4 -1.33301 -7.33301 -4 -10s-6 -4 -10 -4h-136v-478c0 -4 -1.33301 -7.33301 -4 -10
s-6 -4 -10 -4h-50c-4 -0 -7.33301 1.33301 -10 4z" />
    <glyph glyph-name="g" unicode="g" horiz-adv-x="585" 
d="M124.5 -171c-39.667 23.333 -59.499 57.998 -59.499 103.998c0 23.333 5.33301 45.666 16 66.999s25 39 43 53c-16.667 11.333 -28.834 22.833 -36.501 34.5s-11.5 25.834 -11.5 42.501c0 20.667 5.83301 40.334 17.5 59.001s27.5 34.334 47.5 47.001
c-22.667 17.333 -40.334 38.833 -53.001 64.5s-19 54.167 -19 85.5c0 38 9.16699 71.667 27.5 101s43.166 52 74.499 68s66 24 104 24c26 0 52 -4.33301 78 -13h198c4 0 7.33301 -1.33301 10 -4s4 -6 4 -10v-46c0 -4 -1.33301 -7.33301 -4 -10s-6 -4 -10 -4h-101
c20.667 -30 31 -65.333 31 -106c0 -38 -9.16699 -71.667 -27.5 -101s-43.166 -52 -74.499 -68s-66 -24 -104 -24c-25.333 0 -51.666 4.33301 -78.999 13c-14.667 -6.66699 -26 -15.334 -34 -26.001s-12 -22 -12 -34c0 -15.333 6.66699 -26.666 20 -33.999
c10.667 -6 26.334 -10.333 47.001 -13s53 -6 97 -10l39 -3c32 -2.66699 59.5 -7 82.5 -13s42.667 -17.667 59 -35s24.5 -42.666 24.5 -75.999c0 -54.667 -22.333 -96.334 -67 -125.001s-102.334 -43 -173.001 -43c-63.333 0 -114.833 11.667 -154.5 35zM369.501 296.498
c23.667 23 35.5 52.833 35.5 89.5s-11.833 66.5 -35.5 89.5s-55.167 34.5 -94.5 34.5s-70.833 -11.5 -94.5 -34.5s-35.5 -52.833 -35.5 -89.5s11.833 -66.5 35.5 -89.5s55.167 -34.5 94.5 -34.5s70.833 11.5 94.5 34.5zM402.001 -115.002
c29.333 14.667 43.999 37.667 43.999 69c0 16 -4.16699 28 -12.5 36s-19.666 13.5 -33.999 16.5s-35.5 5.83301 -63.5 8.5c-6 0.666992 -20.167 1.83398 -42.5 3.50098s-46.833 4.16699 -73.5 7.5c-16 2 -29.333 4 -40 6c-13.333 -10 -23.833 -22.333 -31.5 -37
s-11.5 -29.667 -11.5 -45c0 -30.667 14.167 -52.834 42.5 -66.501s64.5 -20.5 108.5 -20.5c46.667 0 84.667 7.33301 114 22z" />
    <glyph glyph-name="h" unicode="h" horiz-adv-x="594" 
d="M94 4c-2.66699 2.66699 -4.00098 6 -4.00098 10v731c0 4 1.33301 7.33301 4 10s6 4 10 4h50c4 0 7.33301 -1.33301 10 -4s4 -6 4 -10v-249c17.333 27.333 39.833 48 67.5 62s58.834 21 93.501 21c56.667 0 102.5 -17.333 137.5 -52s52.5 -80.334 52.5 -137.001v-376
c0 -4 -1.33301 -7.33301 -4 -10s-6 -4 -10 -4h-50c-4 0 -7.33301 1.33301 -10 4s-4 6 -4 10v361c0 42.667 -11.167 75.167 -33.5 97.5s-52.5 33.5 -90.5 33.5c-44.667 0 -80.667 -14.667 -108 -44s-41 -69.666 -41 -120.999v-327c0 -4 -1.33301 -7.33301 -4 -10
s-6 -4 -10 -4h-50c-4 -0 -7.33301 1.33301 -10 4z" />
    <glyph glyph-name="i" unicode="i" horiz-adv-x="393" 
d="M168 648c-2.66699 2.66699 -4 6 -4 10v87c0 4 1.33301 7.33301 4 10s6 4 10 4h48c4 0 7.33301 -1.33301 10 -4s4 -6 4 -10v-87c0 -4 -1.33301 -7.33301 -4 -10s-6 -4 -10 -4h-48c-4 0 -7.33301 1.33301 -10 4zM173.5 10.5c-7 7 -10.5 15.5 -10.5 25.5v456h-104
c-4 0 -7.33301 1.33301 -10 4s-4 6 -4 10v46c0 4 1.33301 7.33301 4 10s6 4 10 4h146c10 0 18.5 -3.5 25.5 -10.5s10.5 -15.5 10.5 -25.5v-456h103c4 0 7.33301 -1.33301 10 -4s4 -6 4 -10v-46c0 -4 -1.33301 -7.33301 -4 -10s-6 -4 -10 -4h-145c-10 0 -18.5 3.5 -25.5 10.5
z" />
    <glyph glyph-name="j" unicode="j" horiz-adv-x="355" 
d="M187 668c-2.66699 2.66699 -4 6 -4 10v87c0 4 1.33301 7.33301 4 10s6 4 10 4h48c4 0 7.33301 -1.33301 10 -4s4 -6 4 -10v-87c0 -4 -1.33301 -7.33301 -4 -10s-6 -4 -10 -4h-48c-4 0 -7.33301 1.33301 -10 4zM39 -189
c-2.66699 2.66699 -4.00195 6.00098 -4.00195 10.001v44c0 4 1.33301 7.33301 4 10s6 4 10 4h58c22.667 0 40.834 7.16699 54.501 21.5s20.5 33.166 20.5 56.499v535h-133c-4 0 -7.33301 1.33301 -10 4s-4 6 -4 10v46c0 4 1.33301 7.33301 4 10s6 4 10 4h175
c10 0 18.5 -3.5 25.5 -10.5s10.5 -15.5 10.5 -25.5v-573c0 -42 -13.167 -77.5 -39.5 -106.5s-61.166 -43.5 -104.499 -43.5h-67c-4 0 -7.33301 1.33301 -10 4z" />
    <glyph glyph-name="k" unicode="k" horiz-adv-x="537" 
d="M94.5 3.5c-3 2.33301 -4.5 5.49902 -4.5 9.49902v732c0 4 1.33301 7.33301 4 10s6 4 10 4h50c4 0 7.33301 -1.33301 10 -4s4 -6 4 -10v-399h41l197 211c5.33301 6 11 9 17 9h65c4 0 7.16699 -1.16699 9.5 -3.5s3.5 -5.16602 3.5 -8.49902c0 -4 -1.33301 -7.33301 -4 -10
l-222 -232l234 -292c2 -2.66699 3 -5.33398 3 -8.00098c0 -3.33301 -1 -6.16602 -3 -8.49902s-5 -3.5 -9 -3.5h-65c-6 0 -11.667 3 -17 9l-209 263h-41v-259c0 -4 -1.5 -7.16699 -4.5 -9.5s-6.5 -3.5 -10.5 -3.5h-48c-4 0 -7.5 1.16699 -10.5 3.5z" />
    <glyph glyph-name="l" unicode="l" horiz-adv-x="350" 
d="M132.5 10.5c-7 7 -10.5 15.5 -10.5 25.5v649h-93c-4 0 -7.33301 1.33301 -10 4s-4 6 -4 10v46c0 4 1.33301 7.33301 4 10s6 4 10 4h135c10 0 18.5 -3.5 25.5 -10.5s10.5 -15.5 10.5 -25.5v-649h106c4 0 7.33301 -1.33301 10 -4s4 -6 4 -10v-46
c0 -4 -1.33301 -7.33301 -4 -10s-6 -4 -10 -4h-148c-10 0 -18.5 3.5 -25.5 10.5z" />
    <glyph glyph-name="m" unicode="m" horiz-adv-x="925" 
d="M94 4c-2.66699 2.66699 -3.99902 5.99805 -3.99902 9.99805v538c0 4 1.33301 7.33301 4 10s6 4 10 4h50c4 0 7.33301 -1.33301 10 -4s4 -6 4 -10v-54c16 26.667 37.167 46.834 63.5 60.501s55.5 20.5 87.5 20.5c42 0 78.5 -9.83301 109.5 -29.5s53.167 -46.5 66.5 -80.5
c14 35.333 35.667 62.333 65 81s62.666 28 99.999 28c56.667 0 102.5 -17.333 137.5 -52s52.5 -80.334 52.5 -137.001v-375c0 -4 -1.33301 -7.33301 -4 -10s-6 -4 -10 -4h-50c-4 0 -7.33301 1.33301 -10 4s-4 6 -4 10v360c0 42.667 -11.167 75.167 -33.5 97.5
s-52.5 33.5 -90.5 33.5c-41.333 0 -74.833 -14.667 -100.5 -44s-38.5 -69.666 -38.5 -120.999v-326c0 -4 -1.33301 -7.33301 -4 -10s-6 -4 -10 -4h-50c-4 0 -7.33301 1.33301 -10 4s-4 6 -4 10v361c0 42.667 -11.167 75.167 -33.5 97.5s-52.5 33.5 -90.5 33.5
c-41.333 0 -74.833 -14.667 -100.5 -44s-38.5 -69.666 -38.5 -120.999v-327c0 -4 -1.33301 -7.33301 -4 -10s-6 -4 -10 -4h-50c-4 -0 -7.33301 1.33301 -10 4z" />
    <glyph glyph-name="n" unicode="n" horiz-adv-x="594" 
d="M94 5c-2.66699 2.66699 -4.00098 6 -4.00098 10v537c0 4 1.33301 7.33301 4 10s6 4 10 4h50c4 0 7.33301 -1.33301 10 -4s4 -6 4 -10v-55c17.333 27.333 39.833 48 67.5 62s58.834 21 93.501 21c56.667 0 102.5 -17.333 137.5 -52s52.5 -80.334 52.5 -137.001v-376
c0 -4 -1.33301 -7.33301 -4 -10s-6 -4 -10 -4h-50c-4 0 -7.33301 1.33301 -10 4s-4 6 -4 10v361c0 42.667 -11.167 75.167 -33.5 97.5s-52.5 33.5 -90.5 33.5c-44.667 0 -80.667 -14.667 -108 -44s-41 -69.666 -41 -120.999v-327c0 -4 -1.33301 -7.33301 -4 -10
s-6 -4 -10 -4h-50c-4 0 -7.33301 1.33301 -10 4z" />
    <glyph glyph-name="o" unicode="o" horiz-adv-x="564" 
d="M173 16c-33.333 19.333 -59.666 45.833 -78.999 79.5s-29 70.167 -29 109.5v156c0 39.333 9.66699 75.833 29 109.5s45.666 60.167 78.999 79.5s69.666 29 108.999 29s75.666 -9.66699 108.999 -29s59.666 -45.833 78.999 -79.5s29 -70.167 29 -109.5v-156
c0 -39.333 -9.66699 -75.833 -29 -109.5s-45.666 -60.167 -78.999 -79.5s-69.666 -29 -108.999 -29s-75.666 9.66699 -108.999 29zM352 79.5c21.333 12.333 38.166 29.166 50.499 50.499s18.5 44.666 18.5 69.999v166c0 25.333 -6.16699 48.666 -18.5 69.999
s-29.166 38.166 -50.499 50.499s-44.666 18.5 -69.999 18.5s-48.666 -6.16699 -69.999 -18.5s-38.166 -29.166 -50.499 -50.499s-18.5 -44.666 -18.5 -69.999v-166c0 -25.333 6.16699 -48.666 18.5 -69.999s29.166 -38.166 50.499 -50.499s44.666 -18.5 69.999 -18.5
s48.666 6.16699 69.999 18.5z" />
    <glyph glyph-name="p" unicode="p" horiz-adv-x="590" 
d="M94 -189c-2.66699 2.66699 -4 6 -4 10v731c0 4 1.33301 7.33301 4 10s6 4 10 4h46c4 0 7.33301 -1.33301 10 -4s4 -6 4 -10v-44c18.667 22.667 41.167 40.167 67.5 52.5s54.5 18.5 84.5 18.5c38 0 73 -9.33301 105 -28s57.333 -44 76 -76s28 -67 28 -105v-174
c0 -38 -9.33301 -73 -28 -105s-44.167 -57.333 -76.5 -76s-67.5 -28 -105.5 -28c-27.333 0 -53.833 5 -79.5 15s-48.167 24 -67.5 42v-223c0 -4 -1.33301 -7.33301 -4 -10s-6 -4 -10 -4h-50c-4 0 -7.33301 1.33301 -10 4zM378 79.5
c21.333 12.333 38.166 29.166 50.499 50.499s18.5 44.666 18.5 69.999v166c0 25.333 -6.16699 48.666 -18.5 69.999s-29.166 38.166 -50.499 50.499s-44.666 18.5 -69.999 18.5s-48.833 -6.16699 -70.5 -18.5s-38.667 -29.166 -51 -50.499s-18.5 -44.666 -18.5 -69.999v-166
c0 -25.333 6.16699 -48.666 18.5 -69.999s29.333 -38.166 51 -50.499s45.167 -18.5 70.5 -18.5s48.666 6.16699 69.999 18.5z" />
    <glyph glyph-name="q" unicode="q" horiz-adv-x="590" 
d="M426 -189c-2.66699 2.66699 -3.99609 6.00098 -3.99609 10.001v236c-18.667 -22 -40.834 -39.167 -66.501 -51.5s-52.834 -18.5 -81.501 -18.5c-38 0 -73 9.33301 -105 28s-57.333 44 -76 76s-28 67 -28 105v174c0 38 9.33301 73 28 105s44 57.333 76 76s67 28 105 28
c29.333 0 57.166 -5.83301 83.499 -17.5s49.166 -27.834 68.499 -48.501v39c0 4 1.33301 7.33301 4 10s6 4 10 4h46c4 0 7.33301 -1.33301 10 -4s4 -6 4 -10v-731c0 -4 -1.33301 -7.33301 -4 -10s-6 -4 -10 -4h-50c-4 0 -7.33301 1.33301 -10 4zM352.504 79.501
c21.667 12.333 38.667 29.166 51 50.499s18.5 44.666 18.5 69.999v166c0 25.333 -6.16699 48.666 -18.5 69.999s-29.333 38.166 -51 50.499s-45.167 18.5 -70.5 18.5s-48.666 -6.16699 -69.999 -18.5s-38.166 -29.166 -50.499 -50.499s-18.5 -44.666 -18.5 -69.999v-166
c0 -25.333 6.16699 -48.666 18.5 -69.999s29.166 -38.166 50.499 -50.499s44.666 -18.5 69.999 -18.5s48.833 6.16699 70.5 18.5z" />
    <glyph glyph-name="r" unicode="r" horiz-adv-x="463" 
d="M54 4c-2.66699 2.66699 -3.99902 6 -3.99902 10v46c0 4 1.33301 7.33301 4 10s6 4 10 4h83v421h-83c-4 0 -7.33301 1.33301 -10 4s-4 6 -4 10v43c0 4 1.33301 7.33301 4 10s6 4 10 4h125c10 0 18.5 -3.5 25.5 -10.5s10.5 -15.5 10.5 -25.5v-50l58 45
c24 18.667 43.5 31.167 58.5 37.5s30.833 9.5 47.5 9.5h30c4.66699 0 8.16699 -1.33301 10.5 -4s3.5 -6 3.5 -10v-49c0 -4 -1.33301 -7.33301 -4 -10s-6 -4 -10 -4h-22c-16.667 0 -32.334 -3.5 -47.001 -10.5s-36.667 -22.167 -66 -45.5l-59 -47v-318h116
c4 0 7.33301 -1.33301 10 -4s4 -6 4 -10v-46c0 -4 -1.33301 -7.33301 -4 -10s-6 -4 -10 -4h-277c-4 -0 -7.33301 1.33301 -10 4z" />
    <glyph glyph-name="s" unicode="s" horiz-adv-x="470" 
d="M136 2c-29.333 8 -54.6689 19.665 -76.002 34.998c-2.66699 1.33301 -4.5 3.5 -5.5 6.5s-0.833008 6.16699 0.5 9.5l21 42c3.33301 5.33301 7.66602 8 12.999 8c1.33301 0 4 -0.666992 8 -2c44 -26.667 88.333 -40 133 -40c35.333 0 63.166 7.83301 83.499 23.5
s30.5 37.834 30.5 66.501c0 17.333 -4.5 31.5 -13.5 42.5s-20.833 20 -35.5 27s-37.667 16.5 -69 28.5c-40.667 15.333 -72.667 29.666 -96 42.999s-41.666 30.333 -54.999 51s-20 47 -20 79c0 51.333 17 90.333 51 117s77.667 40 131 40c28 0 55.833 -4 83.5 -12
s52.5 -19.333 74.5 -34c2.66699 -1.33301 4.33398 -3.66602 5.00098 -6.99902s0.333984 -6.33301 -0.999023 -9l-20 -41c-1.33301 -4 -3.83301 -6.66699 -7.5 -8s-7.5 -0.666016 -11.5 2.00098c-42.667 25.333 -83.667 38 -123 38c-32.667 0 -58.167 -7 -76.5 -21
s-27.5 -34.333 -27.5 -61c0 -20.667 5 -37.334 15 -50.001s22 -22.167 36 -28.5s36.333 -15.166 67 -26.499c39.333 -14 70.333 -27 93 -39s41.334 -28 56.001 -48s22 -46 22 -78c0 -51.333 -17.833 -91.833 -53.5 -121.5s-83.167 -44.5 -142.5 -44.5
c-30.667 0 -60.667 4 -90 12z" />
    <glyph glyph-name="t" unicode="t" horiz-adv-x="443" 
d="M161 43.5c-27.333 29 -41 65.501 -41 109.501v340h-66c-4 0 -7.33301 1.33301 -10 4s-4 6 -4 10v45c0 4 1.33301 7.33301 4 10s6 4 10 4h66v105c0 4 1.33301 7.33301 4 10s6 4 10 4h50c4 0 7.33301 -1.33301 10 -4s4 -6 4 -10v-105h176c4 0 7.33301 -1.33301 10 -4
s4 -6 4 -10v-46c0 -4 -1.33301 -7.33301 -4 -10s-6 -4 -10 -4h-176v-330c0 -26 7.83301 -46.833 23.5 -62.5s36.167 -23.834 61.5 -24.501l91 -1c4 0 7.33301 -1.33301 10 -4s4 -6 4 -10v-46c0 -4 -1.33301 -7.33301 -4 -10s-6 -4 -10 -4h-100c-48 0 -85.667 14.5 -113 43.5
z" />
    <glyph glyph-name="u" unicode="u" horiz-adv-x="594" 
d="M127.5 39c-35 34.667 -52.499 80.334 -52.499 137.001v376c0 4 1.33301 7.33301 4 10s6 4 10 4h50c4 0 7.33301 -1.33301 10 -4s4 -6 4 -10v-361c0 -42 11.333 -74.333 34 -97s52.667 -34 90 -34c44.667 0 80.667 14.667 108 44s41 69.666 41 120.999v327
c0 4 1.33301 7.33301 4 10s6 4 10 4h50c4 0 7.33301 -1.33301 10 -4s4 -6 4 -10v-538c0 -4 -1.33301 -7.33301 -4 -10s-6 -4 -10 -4h-50c-4 -0 -7.33301 1.33301 -10 4s-4 6 -4 10v56c-17.333 -27.333 -39.833 -48 -67.5 -62s-58.834 -21 -93.501 -21
c-56.667 0 -102.5 17.333 -137.5 52z" />
    <glyph glyph-name="v" unicode="v" horiz-adv-x="528" 
d="M221.5 3.5c-3.66699 2.33301 -6.16699 5.50098 -7.5 9.50098l-188 531c-0.666992 1.33301 -1 3.66602 -1 6.99902c0 4 1.5 7.5 4.5 10.5s6.83301 4.5 11.5 4.5h46c4 0 7.83301 -1.16699 11.5 -3.5s6.16699 -5.5 7.5 -9.5l158 -456l155 456
c1.33301 4 3.83301 7.16699 7.5 9.5s7.5 3.5 11.5 3.5h44c6 0 10.5 -2.16699 13.5 -6.5s3.5 -9.5 1.5 -15.5l-188 -531c-1.33301 -4 -3.83301 -7.16699 -7.5 -9.5s-7.5 -3.5 -11.5 -3.5h-57c-4 0 -7.83301 1.16699 -11.5 3.5z" />
    <glyph glyph-name="w" unicode="w" horiz-adv-x="866" 
d="M211.5 3.5c-3.66699 2.33301 -6.16699 5.50098 -7.5 9.50098l-178 531c-0.666992 1.33301 -1 3.66602 -1 6.99902c0 4 1.5 7.5 4.5 10.5s6.83301 4.5 11.5 4.5h44c4 0 7.83301 -1.16699 11.5 -3.5s6.16699 -5.5 7.5 -9.5l148 -456l134 456c2.66699 8.66699 9 13 19 13h49
c10.667 0 17 -4.33301 19 -13l134 -456l148 456c1.33301 4 3.83301 7.16699 7.5 9.5s7.5 3.5 11.5 3.5h45c6 0 10.5 -2.16699 13.5 -6.5s3.5 -9.5 1.5 -15.5l-178 -531c-1.33301 -4 -3.83301 -7.16699 -7.5 -9.5s-7.5 -3.5 -11.5 -3.5h-57c-4 0 -7.83301 1.16699 -11.5 3.5
s-6.16699 5.5 -7.5 9.5l-132 434l-130 -434c-1.33301 -4 -3.83301 -7.16699 -7.5 -9.5s-7.5 -3.5 -11.5 -3.5h-57c-4 0 -7.83301 1.16699 -11.5 3.5z" />
    <glyph glyph-name="x" unicode="x" horiz-adv-x="528" 
d="M45 5c-3.33301 3.33301 -5 7.33301 -5 12c0 3.33301 1 7 3 11l176 270l-156 240c-2 4 -3 7.66699 -3 11c0 4.66699 1.66699 8.66699 5 12s7.66602 5 12.999 5h48c6.66699 0 11.667 -2.66699 15 -8l123 -190l123 190c3.33301 5.33301 8.33301 8 15 8h48
c5.33301 0 9.66602 -1.66699 12.999 -5s5 -7.33301 5 -12c0 -3.33301 -1 -7 -3 -11l-156 -240l176 -270c2 -4 3 -7.66699 3 -11c0 -4.66699 -1.66699 -8.66699 -5 -12s-7.66602 -5 -12.999 -5h-48c-6.66699 0 -11.667 2.66699 -15 8l-143 220l-143 -220
c-3.33301 -5.33301 -8.33301 -8 -15 -8h-48c-5.33301 0 -9.66602 1.66699 -12.999 5z" />
    <glyph glyph-name="y" unicode="y" horiz-adv-x="533" 
d="M169 -187c-3.33301 4 -4 9.00098 -2 15.001l58 166l-199 550c-0.666992 1.33301 -1 3.66602 -1 6.99902c0 4 1.5 7.5 4.5 10.5s6.83301 4.5 11.5 4.5h46c4 0 7.83301 -1.16699 11.5 -3.5s6.16699 -5.5 7.5 -9.5l157 -448l156 448c1.33301 4 3.83301 7.16699 7.5 9.5
s7.5 3.5 11.5 3.5h44c6 0 10.5 -2.16699 13.5 -6.5s3.5 -9.5 1.5 -15.5l-256 -724c-1.33301 -4 -3.83301 -7.16699 -7.5 -9.5s-7.5 -3.5 -11.5 -3.5h-39c-6 0 -10.667 2 -14 6z" />
    <glyph glyph-name="z" unicode="z" horiz-adv-x="476" 
d="M54 11c-6 7.33301 -8.99902 15.667 -8.99902 25c0 6 1.33301 11.333 4 16l274 440h-254c-4 0 -7.33301 1.33301 -10 4s-4 6 -4 10v46c0 4 1.33301 7.33301 4 10s6 4 10 4h324c9.33301 0 17.166 -3.66699 23.499 -11s9.5 -15.333 9.5 -24c0 -6 -1.66699 -11.667 -5 -17
l-274 -440h270c4 0 7.33301 -1.33301 10 -4s4 -6 4 -10v-46c0 -4 -1.33301 -7.33301 -4 -10s-6 -4 -10 -4h-340c-9.33301 0 -17 3.66699 -23 11z" />
    <glyph glyph-name="braceleft" unicode="{" horiz-adv-x="357" 
d="M160 -149.5c-27.333 29 -41 65.4941 -41 109.494v186c0 28.667 -1 49.834 -3 63.501s-7 25.334 -15 35.001s-21.667 17.167 -41 22.5v79c19.333 5.33301 33 12.833 41 22.5s13 21.334 15 35.001s3 34.834 3 63.501v186c0 44 13.667 80.5 41 109.5s65 43.5 113 43.5h30
c4 0 7.33301 -1.33301 10 -4s4 -6 4 -10v-44c0 -4 -1.33301 -7.33301 -4 -10s-6 -4 -10 -4h-31c-22.667 0 -40.834 -7.16699 -54.501 -21.5s-20.5 -33.166 -20.5 -56.499v-196c0 -33.333 -1.5 -59.5 -4.5 -78.5s-9.16699 -34.667 -18.5 -47s-23.666 -21.5 -42.999 -27.5v-1
c19.333 -6 33.666 -15.167 42.999 -27.5s15.5 -28 18.5 -47s4.5 -45.167 4.5 -78.5v-196c0 -23.333 6.83301 -42.166 20.5 -56.499s31.834 -21.5 54.501 -21.5h31c4 0 7.33301 -1.33301 10 -4s4 -6 4 -10v-44c0 -4 -1.33301 -7.33301 -4 -10s-6 -4 -10 -4h-30
c-48 0 -85.667 14.5 -113 43.5z" />
    <glyph glyph-name="bar" unicode="|" horiz-adv-x="373" 
d="M154 -189c-2.66699 2.66699 -4 6 -4 10v954c0 4 1.33301 7.33301 4 10s6 4 10 4h45c4 0 7.33301 -1.33301 10 -4s4 -6 4 -10v-954c0 -4 -1.33301 -7.33301 -4 -10s-6 -4 -10 -4h-45c-4 0 -7.33301 1.33301 -10 4z" />
    <glyph glyph-name="braceright" unicode="}" horiz-adv-x="357" 
d="M44 -189c-2.66699 2.66699 -4 6.00586 -4 10.0059v44c0 4 1.33301 7.33301 4 10s6 4 10 4h31c22.667 0 40.834 7.16699 54.501 21.5s20.5 33.166 20.5 56.499v196c0 33.333 1.5 59.5 4.5 78.5s9.16699 34.667 18.5 47s23.666 21.5 42.999 27.5v1
c-19.333 6 -33.666 15.167 -42.999 27.5s-15.5 28 -18.5 47s-4.5 45.167 -4.5 78.5v196c0 23.333 -6.83301 42.166 -20.5 56.499s-31.834 21.5 -54.501 21.5h-31c-4 0 -7.33301 1.33301 -10 4s-4 6 -4 10v44c0 4 1.33301 7.33301 4 10s6 4 10 4h30
c48 0 85.667 -14.5 113 -43.5s41 -65.5 41 -109.5v-186c0 -28.667 1 -49.834 3 -63.501s7 -25.334 15 -35.001s21.667 -17.167 41 -22.5v-79c-19.333 -5.33301 -33 -12.833 -41 -22.5s-13 -21.334 -15 -35.001s-3 -34.834 -3 -63.501v-186c0 -44 -13.667 -80.5 -41 -109.5
s-65 -43.5 -113 -43.5h-30c-4 0 -7.33301 1.33301 -10 4z" />
    <glyph glyph-name="uni00A0" unicode="&#xa0;" horiz-adv-x="270" 
 />
    <glyph glyph-name="exclamdown" unicode="&#xa1;" horiz-adv-x="326" 
d="M128 471.5c-12 12.333 -18 27.166 -18 44.499s6 32.166 18 44.499s26.667 18.5 44 18.5c18 0 33.167 -6.16699 45.5 -18.5s18.5 -27.166 18.5 -44.499s-6.16699 -32.166 -18.5 -44.499s-27.5 -18.5 -45.5 -18.5c-17.333 0 -32 6.16699 -44 18.5zM138 -126
c-2.66699 2.66699 -4 6 -4 10v455c0 4 1.33301 7.33301 4 10s6 4 10 4h50c4 0 7.33301 -1.33301 10 -4s4 -6 4 -10v-455c0 -4 -1.33301 -7.33301 -4 -10s-6 -4 -10 -4h-50c-4 0 -7.33301 1.33301 -10 4z" />
    <glyph glyph-name="cent" unicode="&#xa2;" horiz-adv-x="512" 
d="M431 76c4 -4 6.00195 -8.99902 6.00195 -14.999c0 -5.33301 -2 -10 -6 -14c-19.333 -18.667 -41.833 -33.334 -67.5 -44.001s-52.834 -16 -81.501 -16c-11.333 0 -22.666 1 -33.999 3l-18 -105c-1.33301 -4 -3.5 -7.33301 -6.5 -10s-6.5 -4 -10.5 -4h-40
c-4 0 -7 1.33301 -9 4s-2.66699 6 -2 10l22 125c-36 18 -64.833 44.5 -86.5 79.5s-32.5 73.5 -32.5 115.5v156c0 39.333 9.66699 75.833 29 109.5s45.666 60.167 78.999 79.5s69.666 29 108.999 29h2l18 102c1.33301 4 3.5 7.33301 6.5 10s6.5 4 10.5 4h40
c4 0 7 -1.33301 9 -4s2.66699 -6 2 -10l-20 -113c30 -9.33301 57 -25.666 81 -48.999c4 -4 6 -8.66699 6 -14c0 -4.66699 -2 -9.66699 -6 -15c-6.66699 -7.33301 -14.334 -15 -23.001 -23c-4.66699 -4 -9.66699 -6 -15 -6c-6 0 -11.333 2.33301 -16 7
c-12.667 12 -26 20.667 -40 26l-76 -431c9.33301 -1.33301 16.333 -2 21 -2c36.667 0 68.334 12.333 95.001 37c4.66699 4.66699 10 7 16 7c5.33301 0 10.333 -2 15 -6c8 -6.66699 15.667 -14.334 23 -23.001zM158.002 138.001c10 -19.333 23.333 -35.668 40 -49.001l73 416
c-36 -3.33301 -66.333 -18.166 -91 -44.499s-37 -57.833 -37 -94.5v-166c0 -22 5 -42.667 15 -62z" />
    <glyph glyph-name="sterling" unicode="&#xa3;" horiz-adv-x="562" 
d="M503 71c2.66699 -2.66699 3.99902 -6 3.99902 -10v-47c0 -4 -1.33301 -7.33301 -4 -10s-6 -4 -10 -4h-379c-10 0 -18.5 3.5 -25.5 10.5s-10.5 15.5 -10.5 25.5v21l64 266h-73c-4 0 -7.33301 1.33301 -10 4s-4 6 -4 10v46c0 4 1.33301 7.33301 4 10s6 4 10 4h91l36 148
c26 108.667 88 163 186 163h90c4 0 7.33301 -1.33301 10 -4s4 -6 4 -10v-43c0 -4 -1.33301 -7.33301 -4 -10s-6 -4 -10 -4h-87c-30 0 -54.167 -9.5 -72.5 -28.5s-32.166 -47.5 -41.499 -85.5l-30 -126h167c4 0 7.33301 -1.33301 10 -4s4 -6 4 -10v-46
c0 -4 -1.33301 -7.33301 -4 -10s-6 -4 -10 -4h-185l-59 -248h329c4 0 7.33301 -1.33301 10 -4z" />
    <glyph glyph-name="currency" unicode="&#xa4;" horiz-adv-x="646" 
d="M85 104c-3.33301 3.33301 -5 6.33301 -5 9c0 3.33301 1.66699 6.66602 5 9.99902l58 58c-30 39.333 -45 84 -45 134s15 94.667 45 134l-58 58c-3.33301 3.33301 -5 6.66602 -5 9.99902c0 2.66699 1.66699 5.66699 5 9l27 27c3.33301 3.33301 6.33301 5 9 5
c3.33301 0 6.66602 -1.66699 9.99902 -5l58 -57c40 29.333 84.667 44 134 44s94 -14.667 134 -44l58 57c3.33301 3.33301 6.66602 5 9.99902 5c2.66699 0 5.66699 -1.66699 9 -5l27 -27c3.33301 -3.33301 5 -6.33301 5 -9c0 -3.33301 -1.66699 -6.66602 -5 -9.99902l-58 -58
c30 -39.333 45 -84 45 -134s-15 -94.667 -45 -134l58 -58c3.33301 -3.33301 5 -6.66602 5 -9.99902c0 -2.66699 -1.66699 -5.66699 -5 -9l-27 -27c-3.33301 -3.33301 -6.33301 -5 -9 -5c-3.33301 0 -6.66602 1.66699 -9.99902 5l-58 57c-40 -29.333 -84.667 -44 -134 -44
c-50 0 -94.667 15 -134 45l-58 -58c-3.33301 -3.33301 -6.66602 -5 -9.99902 -5c-2.66699 0 -5.66699 1.66699 -9 5zM404.5 174.5c25 14.333 44.667 34 59 59s21.5 52.167 21.5 81.5s-7.16699 56.5 -21.5 81.5s-34 44.667 -59 59s-52.167 21.5 -81.5 21.5
s-56.5 -7.16699 -81.5 -21.5s-44.667 -34 -59 -59s-21.5 -52.167 -21.5 -81.5s7.16699 -56.5 21.5 -81.5s34 -44.667 59 -59s52.167 -21.5 81.5 -21.5s56.5 7.16699 81.5 21.5z" />
    <glyph glyph-name="yen" unicode="&#xa5;" horiz-adv-x="587" 
d="M537 690.5c3.33301 -3 5.00195 -7.16699 5.00195 -12.5c0 -2.66699 -1 -6 -3 -10l-166 -269h102c4 0 7.33301 -1.33301 10 -4s4 -6 4 -10v-39c0 -4 -1.33301 -7.33301 -4 -10s-6 -4 -10 -4h-140v-66h140c4 0 7.33301 -1.33301 10 -4s4 -6 4 -10v-39
c0 -4 -1.33301 -7.33301 -4 -10s-6 -4 -10 -4h-140v-185c0 -4 -1.33301 -7.33301 -4 -10s-6 -4 -10 -4h-54c-4 -0 -7.33301 1.33301 -10 4s-4 6 -4 10v185h-140c-4 0 -7.33301 1.33301 -10 4s-4 6 -4 10v39c0 4 1.33301 7.33301 4 10s6 4 10 4h140v66h-140
c-4 0 -7.33301 1.33301 -10 4s-4 6 -4 10v39c0 4 1.33301 7.33301 4 10s6 4 10 4h100l-165 269c-2 4 -3 7.33301 -3 10c0 5.33301 1.66699 9.5 5 12.5s7.66602 4.5 12.999 4.5h54c6 0 11 -3 15 -9l162 -267l161 267c4 6 9 9 15 9h54c5.33301 0 9.66602 -1.5 12.999 -4.5z
" />
    <glyph glyph-name="brokenbar" unicode="&#xa6;" horiz-adv-x="373" 
d="M150 775c0 4 1.33301 7.33301 4 10s6 4 10 4h45c4 0 7.33301 -1.33301 10 -4s4 -6 4 -10v-320h-73v320zM154 -189c-2.66699 2.66699 -4 6 -4 10v320h73v-320c0 -4 -1.33301 -7.33301 -4 -10s-6 -4 -10 -4h-45c-4 0 -7.33301 1.33301 -10 4z" />
    <glyph glyph-name="section" unicode="&#xa7;" horiz-adv-x="592" 
d="M195 -191c-31.333 10 -61.001 24.335 -89.001 43.002c-2.66699 1.33301 -4.33398 3.66602 -5.00098 6.99902s-0.333984 6.33301 0.999023 9l20 41c1.33301 4 3.83301 6.66699 7.5 8s7.5 0.666016 11.5 -2.00098c24.667 -15.333 47 -26.5 67 -33.5s42 -11.5 66 -13.5
c8 26 12 50.667 12 74c0 42 -8.5 82 -25.5 120s-42.5 85.333 -76.5 142c-34 56 -59.833 104.167 -77.5 144.5s-26.5 82.833 -26.5 127.5c0 52 9.83301 96.667 29.5 134s46.5 65.5 80.5 84.5s72 28.5 114 28.5c58.667 0 115.334 -16.667 170.001 -50
c7.33301 -4.66699 10.333 -11.667 9 -21l-2 -45c0 -5.33301 -2.16699 -9 -6.5 -11s-8.83301 -1.66699 -13.5 1c-27.333 17.333 -51.666 30 -72.999 38s-44.666 13 -69.999 15c-8 -26.667 -12 -51.667 -12 -75c0 -30 7.16699 -60.333 21.5 -91s35.833 -69 64.5 -115
c26 -42 46.833 -78 62.5 -108s29.167 -63.833 40.5 -101.5s17 -77.167 17 -118.5c0 -52 -9.83301 -96.5 -29.5 -133.5s-46.5 -65.167 -80.5 -84.5s-72 -29 -114 -29c-30.667 0 -61.667 5 -93 15zM412.999 -56.498c12.667 27 19.001 57.834 19.001 92.501
c0 50 -9.5 97 -28.5 141s-46.833 96 -83.5 156c-31.333 52.667 -54.833 96.5 -70.5 131.5s-23.5 70.167 -23.5 105.5c0 22 2.33301 43.667 7 65c-23.333 -14 -41.333 -34.333 -54 -61s-19 -57.667 -19 -93c0 -36.667 7.83301 -72.667 23.5 -108s39.5 -79.333 71.5 -132
c24.667 -40.667 44.167 -74.834 58.5 -102.501s26.666 -58 36.999 -91s15.5 -66.5 15.5 -100.5c0 -22 -2.33301 -43.667 -7 -65c23.333 14 41.333 34.5 54 61.5z" />
    <glyph glyph-name="dieresis" unicode="&#xa8;" horiz-adv-x="588" 
d="M139 648c-2.66699 2.66699 -4 6 -4 10v87c0 4 1.33301 7.33301 4 10s6 4 10 4h48c4 0 7.33301 -1.33301 10 -4s4 -6 4 -10v-87c0 -4 -1.33301 -7.33301 -4 -10s-6 -4 -10 -4h-48c-4 0 -7.33301 1.33301 -10 4zM381 648c-2.66699 2.66699 -4 6 -4 10v87
c0 4 1.33301 7.33301 4 10s6 4 10 4h48c4 0 7.33301 -1.33301 10 -4s4 -6 4 -10v-87c0 -4 -1.33301 -7.33301 -4 -10s-6 -4 -10 -4h-48c-4 0 -7.33301 1.33301 -10 4z" />
    <glyph glyph-name="copyright" unicode="&#xa9;" horiz-adv-x="968" 
d="M281.5 -59.5c-61.667 36.333 -110.667 85.333 -147 147s-54.5 129.167 -54.5 202.5s18.167 140.833 54.5 202.5s85.333 110.667 147 147s129.167 54.5 202.5 54.5s140.833 -18.167 202.5 -54.5s110.667 -85.333 147 -147s54.5 -129.167 54.5 -202.5
s-18.167 -140.833 -54.5 -202.5s-85.333 -110.667 -147 -147s-129.167 -54.5 -202.5 -54.5s-140.833 18.167 -202.5 54.5zM655.5 -6c52.333 30.667 93.833 72.167 124.5 124.5s46 109.5 46 171.5s-15.333 119.167 -46 171.5s-72.167 93.833 -124.5 124.5
s-109.5 46 -171.5 46s-119.167 -15.333 -171.5 -46s-93.833 -72.167 -124.5 -124.5s-46 -109.5 -46 -171.5s15.333 -119.167 46 -171.5s72.167 -93.833 124.5 -124.5s109.5 -46 171.5 -46s119.167 15.333 171.5 46zM404.5 78.5c-24.333 14.333 -43.5 33.4961 -57.5 57.4961
s-21 50.333 -21 79v150c0 28.667 7.16699 55.167 21.5 79.5s33.5 43.5 57.5 57.5s50.333 21 79 21c50.667 0 90.667 -15.667 120 -47c3.33301 -3.33301 5 -6.66602 5 -9.99902s-1.66699 -6.66602 -5 -9.99902l-18 -19c-2.66699 -2.66699 -6 -4 -10 -4c-4.66699 0 -9 2 -13 6
c-18.667 18.667 -45 28 -79 28c-27.333 0 -50.833 -10 -70.5 -30s-29.5 -44 -29.5 -72v-150c0 -28 9.83301 -52 29.5 -72s43.167 -30 70.5 -30c34 0 60.333 9.33301 79 28c4 4 8.33301 6 13 6c4 0 7.33301 -1.33301 10 -4l18 -19c3.33301 -3.33301 5 -6.66602 5 -9.99902
s-1.66699 -6.66602 -5 -9.99902c-29.333 -31.333 -69.333 -47 -120 -47c-28.667 0 -55.167 7.16699 -79.5 21.5z" />
    <glyph glyph-name="ordfeminine" unicode="&#xaa;" horiz-adv-x="387" 
d="M92.5 404c-18.333 16.667 -27.499 38.334 -27.499 65.001c0 24.667 8.5 45.334 25.5 62.001s40.167 27 69.5 31l72 10c10.667 1.33301 18 4.5 22 9.5s6 12.5 6 22.5v5c0 16 -6.5 29.333 -19.5 40s-29.833 16 -50.5 16c-28.667 0 -51.667 -12 -69 -36
c-4 -4.66699 -8 -7 -12 -7c-2 0 -5 1 -9 3l-15 10c-6.66699 5.33301 -8 11.666 -4 18.999c11.333 18 26.666 32 45.999 42s41 15 65 15c34 0 61.667 -9.33301 83 -28s32 -43.334 32 -74.001v-208c0 -4 -1.33301 -7.5 -4 -10.5s-6 -4.5 -10 -4.5h-15
c-4.66699 0 -8.33398 1.5 -11.001 4.5s-4 6.5 -4 10.5v25c-12 -15.333 -26.5 -27 -43.5 -35s-35.5 -12 -55.5 -12c-29.333 0 -53.166 8.33301 -71.499 25zM216.501 437c14.333 9.33301 25.502 21.1689 33.502 35.502s12 28.166 12 41.499v19c-22.667 -2 -43 -4.66699 -61 -8
l-37 -5c-34.667 -6 -52 -22.333 -52 -49c0 -14.667 5.16699 -26.334 15.5 -35.001s24.166 -13 41.499 -13s33.166 4.66699 47.499 14z" />
    <glyph glyph-name="guillemotleft" unicode="&#xab;" horiz-adv-x="494" 
d="M55 241v78l150 114c2.66699 2 6 3 10 3c3.33301 0 6.16602 -1.16699 8.49902 -3.5s3.5 -5.5 3.5 -9.5v-50c0 -5.33301 -2.33301 -10 -7 -14l-106 -79l106 -79c4.66699 -4 7 -8.66699 7 -14v-50c0 -4 -1.16699 -7.16699 -3.5 -9.5s-5.16602 -3.5 -8.49902 -3.5
c-4 0 -7.33301 1 -10 3zM267 241v78l150 114c3.33301 2 6.66602 3 9.99902 3s6.16602 -1.16699 8.49902 -3.5s3.5 -5.5 3.5 -9.5v-50c0 -5.33301 -2.33301 -10 -7 -14l-106 -79l106 -79c4.66699 -4 7 -8.66699 7 -14v-50c0 -4 -1.16699 -7.16699 -3.5 -9.5
s-5.16602 -3.5 -8.49902 -3.5s-6.66602 1 -9.99902 3z" />
    <glyph glyph-name="logicalnot" unicode="&#xac;" horiz-adv-x="626" 
d="M495 163c-2.66699 2.66699 -4 6 -4 10v162h-412c-4 0 -7.33301 1.16699 -10 3.5s-4 5.83301 -4 10.5v42c0 4.66699 1.33301 8.16699 4 10.5s6 3.5 10 3.5h468c4 0 7.33301 -1.16699 10 -3.5s4 -5.83301 4 -10.5v-218c0 -4 -1.33301 -7.33301 -4 -10s-6 -4 -10 -4h-42
c-4 0 -7.33301 1.33301 -10 4z" />
    <glyph glyph-name="uni00AD" unicode="&#xad;" horiz-adv-x="456" 
d="M94 274c-2.66699 2.66699 -4 6 -4 10v48c0 4 1.33301 7.33301 4 10s6 4 10 4h248c4 0 7.33301 -1.33301 10 -4s4 -6 4 -10v-48c0 -4 -1.33301 -7.33301 -4 -10s-6 -4 -10 -4h-248c-4 0 -7.33301 1.33301 -10 4z" />
    <glyph glyph-name="registered" unicode="&#xae;" horiz-adv-x="968" 
d="M281.5 -59.5c-61.667 36.333 -110.667 85.333 -147 147s-54.5 129.167 -54.5 202.5s18.167 140.833 54.5 202.5s85.333 110.667 147 147s129.167 54.5 202.5 54.5s140.833 -18.167 202.5 -54.5s110.667 -85.333 147 -147s54.5 -129.167 54.5 -202.5
s-18.167 -140.833 -54.5 -202.5s-85.333 -110.667 -147 -147s-129.167 -54.5 -202.5 -54.5s-140.833 18.167 -202.5 54.5zM655.5 -6c52.333 30.667 93.833 72.167 124.5 124.5s46 109.5 46 171.5s-15.333 119.167 -46 171.5s-72.167 93.833 -124.5 124.5
s-109.5 46 -171.5 46s-119.167 -15.333 -171.5 -46s-93.833 -72.167 -124.5 -124.5s-46 -109.5 -46 -171.5s15.333 -119.167 46 -171.5s72.167 -93.833 124.5 -124.5s109.5 -46 171.5 -46s119.167 15.333 171.5 46zM362.5 68.5
c-2.33301 2.33301 -3.50195 5.16699 -3.50195 8.5v412c0 6.66699 2.5 12.5 7.5 17.5s10.833 7.5 17.5 7.5h111c24 0 46 -5.83301 66 -17.5s35.833 -27.667 47.5 -48s17.5 -42.166 17.5 -65.499c0 -31.333 -9.5 -58.833 -28.5 -82.5s-43.167 -38.834 -72.5 -45.501l105 -168
c1.33301 -1.33301 2 -3.66602 2 -6.99902c0 -4 -1.33301 -7.5 -4 -10.5s-6 -4.5 -10 -4.5h-32c-5.33301 0 -9.66602 2.66699 -12.999 8l-111 179h-46v-175c0 -2.66699 -1.16699 -5.33398 -3.5 -8.00098s-4.83301 -4 -7.5 -4h-34c-3.33301 0 -6.16602 1.16699 -8.49902 3.5z
M490.998 305.001c22.667 0 41.334 7.33203 56.001 21.999s22 33 22 55c0 22.667 -7.33301 41.334 -22 56.001s-33.334 22 -56.001 22h-75v-155h75z" />
    <glyph glyph-name="macron" unicode="&#xaf;" horiz-adv-x="588" 
d="M154 666.5c-2.66699 2.33301 -4 5.5 -4 9.5v37c0 4 1.33301 7.16699 4 9.5s6 3.5 10 3.5h260c4 0 7.33301 -1.16699 10 -3.5s4 -5.5 4 -9.5v-37c0 -4 -1.33301 -7.16699 -4 -9.5s-6 -3.5 -10 -3.5h-260c-4 0 -7.33301 1.16699 -10 3.5z" />
    <glyph glyph-name="degree" unicode="&#xb0;" horiz-adv-x="412" 
d="M132.5 435.5c-22.333 13 -40 30.667 -53 53s-19.5 46.833 -19.5 73.5s6.5 51.167 19.5 73.5s30.667 40 53 53s46.833 19.5 73.5 19.5s51.167 -6.5 73.5 -19.5s40 -30.667 53 -53s19.5 -46.833 19.5 -73.5s-6.5 -51.167 -19.5 -73.5s-30.667 -40 -53 -53
s-46.833 -19.5 -73.5 -19.5s-51.167 6.5 -73.5 19.5zM264.5 503.5c16.333 16.333 24.5 35.833 24.5 58.5s-8.16699 42.167 -24.5 58.5s-35.833 24.5 -58.5 24.5s-42.167 -8.16699 -58.5 -24.5s-24.5 -35.833 -24.5 -58.5s8.16699 -42.167 24.5 -58.5
s35.833 -24.5 58.5 -24.5s42.167 8.16699 58.5 24.5z" />
    <glyph glyph-name="plusminus" unicode="&#xb1;" horiz-adv-x="586" 
d="M517 419.5c2.66699 -2.33301 4 -5.83301 4 -10.5v-42c0 -4.66699 -1.33301 -8.16699 -4 -10.5s-6 -3.5 -10 -3.5h-178v-180c0 -4 -1.16699 -7.33301 -3.5 -10s-5.83301 -4 -10.5 -4h-42c-4.66699 0 -8.16699 1.33301 -10.5 4s-3.5 6 -3.5 10v180h-180
c-4 0 -7.33301 1.16699 -10 3.5s-4 5.83301 -4 10.5v42c0 4.66699 1.33301 8.16699 4 10.5s6 3.5 10 3.5h180v178c0 4 1.16699 7.33301 3.5 10s5.83301 4 10.5 4h42c4.66699 0 8.16699 -1.33301 10.5 -4s3.5 -6 3.5 -10v-178h178c4 0 7.33301 -1.16699 10 -3.5zM517 66.5
c2.66699 -2.33301 4 -5.83301 4 -10.5v-42c0 -4.66699 -1.33301 -8.16699 -4 -10.5s-6 -3.5 -10 -3.5h-428c-4 0 -7.33301 1.16699 -10 3.5s-4 5.83301 -4 10.5v42c0 4.66699 1.33301 8.16699 4 10.5s6 3.5 10 3.5h428c4 0 7.33301 -1.16699 10 -3.5z" />
    <glyph glyph-name="uni00B2" unicode="&#xb2;" horiz-adv-x="316" 
d="M59.5 366.5c-5 5 -7.49902 10.832 -7.49902 17.499v41c0 22.667 4.5 41.5 13.5 56.5s19.667 26.667 32 35s29.166 18.166 50.499 29.499c24.667 12.667 41.167 24 49.5 34s12.5 22 12.5 36s-4.66699 25.333 -14 34s-21.666 13 -36.999 13
c-20.667 0 -44.334 -8.33301 -71.001 -25c-2.66699 -1.33301 -5 -2 -7 -2c-4 0 -7 1.66699 -9 5l-15 26c-0.666992 1.33301 -1 3.33301 -1 6c0 5.33301 2 9.33301 6 12c32.667 20.667 66 31 100 31c30.667 0 55.5 -8.5 74.5 -25.5s28.5 -39.833 28.5 -68.5
c0 -25.333 -5.83301 -46.666 -17.5 -63.999s-31.5 -33.666 -59.5 -48.999l-33.5 -17.5c-17 -9 -29.333 -18.333 -37 -28s-11.5 -20.5 -11.5 -32.5v-20h138c4 0 7.16699 -1.33301 9.5 -4s3.5 -6 3.5 -10v-25c0 -3.33301 -1.33301 -6.33301 -4 -9s-5.66699 -4 -9 -4h-167
c-6.66699 0 -12.5 2.5 -17.5 7.5z" />
    <glyph glyph-name="uni00B3" unicode="&#xb3;" horiz-adv-x="324" 
d="M84.5 362.5c-20.333 11 -36.499 26.167 -48.499 45.5c-2 3.33301 -3 6.33301 -3 9c0 4.66699 1.66699 8 5 10l21 15c2.66699 2 5.66699 3 9 3c5.33301 0 9.66602 -2.66699 12.999 -8c8.66699 -12.667 19.167 -22.334 31.5 -29.001s24.833 -10 37.5 -10
c18.667 0 34.167 6.33301 46.5 19s18.5 28.667 18.5 48c0 18.667 -6.16699 34.334 -18.5 47.001s-27.5 19 -45.5 19h-3l-9 -12c-2 -3.33301 -5.33301 -5 -10 -5c-3.33301 0 -6.66602 1 -9.99902 3l-19 13c-2.66699 2 -4.33398 4.5 -5.00098 7.5s0 6.16699 2 9.5l73 103h-94
c-3.33301 0 -6.16602 1.16699 -8.49902 3.5s-3.5 5.16602 -3.5 8.49902v29c0 3.33301 1.16699 6.16602 3.5 8.49902s5.16602 3.5 8.49902 3.5h138c8.66699 0 16 -2.83301 22 -8.5s9 -12.5 9 -20.5c0 -7.33301 -2.33301 -13.666 -7 -18.999l-56 -78
c25.333 -6.66699 46.166 -20.167 62.499 -40.5s24.5 -44.166 24.5 -71.499c0 -32.667 -11.667 -60.667 -35 -84s-51.333 -35 -84 -35c-23.333 0 -45.166 5.5 -65.499 16.5z" />
    <glyph glyph-name="acute" unicode="&#xb4;" horiz-adv-x="588" 
d="M230 636.5c-2 3.66699 -1.99805 8.16699 0.00195312 13.5l37 90c5.33301 12.667 14.666 19 27.999 19h67c4 0 7.33301 -1.16699 10 -3.5s4 -5.5 4 -9.5s-1.33301 -7.33301 -4 -10l-81 -93c-6.66699 -8 -15.334 -12 -26.001 -12h-24c-5.33301 0 -9 1.83301 -11 5.5z" />
    <glyph glyph-name="uni00B5" unicode="&#xb5;" horiz-adv-x="599" 
d="M99 -189c-2.66699 2.66699 -3.99902 6.00098 -3.99902 10.001v731c0 4 1.33301 7.33301 4 10s6 4 10 4h50c4 0 7.33301 -1.33301 10 -4s4 -6 4 -10v-361c0 -42 11.333 -74.333 34 -97s52.667 -34 90 -34c44.667 0 80.667 14.667 108 44s41 69.666 41 120.999v327
c0 4 1.33301 7.33301 4 10s6 4 10 4h50c4 0 7.33301 -1.33301 10 -4s4 -6 4 -10v-538c0 -4 -1.33301 -7.33301 -4 -10s-6 -4 -10 -4h-50c-4 -0 -7.33301 1.33301 -10 4s-4 6 -4 10v56c-17.333 -27.333 -39.833 -48 -67.5 -62s-58.834 -21 -93.501 -21
c-42.667 0 -80 11.333 -112 34v-200c0 -4 -1.33301 -7.33301 -4 -10s-6 -4 -10 -4h-50c-4 0 -7.33301 1.33301 -10 4z" />
    <glyph glyph-name="paragraph" unicode="&#xb6;" horiz-adv-x="637" 
d="M273 -189c-2.66699 2.66699 -4 5.99805 -4 9.99805v446c-38.667 0 -74.334 9.66699 -107.001 29s-58.667 45.333 -78 78s-29 68.334 -29 107.001s9.66699 74.334 29 107.001s45.333 58.667 78 78s68.334 29 107.001 29h319c4 0 7.33301 -1.33301 10 -4s4 -6 4 -10v-46
c0 -4 -1.33301 -7.33301 -4 -10s-6 -4 -10 -4h-86v-800c0 -4 -1.33301 -7.33301 -4 -10s-6 -4 -10 -4h-46c-4 0 -7.33301 1.33301 -10 4s-4 6 -4 10v800h-85v-800c0 -4 -1.33301 -7.33301 -4 -10s-6 -4 -10 -4h-46c-4 0 -7.33301 1.33301 -10 4z" />
    <glyph glyph-name="periodcentered" unicode="&#xb7;" horiz-adv-x="266" 
d="M88.5 234.5c-12.333 12.333 -18.5 27.166 -18.5 44.499s6.16699 32.166 18.5 44.499s27.5 18.5 45.5 18.5c17.333 0 32 -6.16699 44 -18.5s18 -27.166 18 -44.499s-6 -32.166 -18 -44.499s-26.667 -18.5 -44 -18.5c-18 0 -33.167 6.16699 -45.5 18.5z" />
    <glyph glyph-name="cedilla" unicode="&#xb8;" horiz-adv-x="588" 
d="M241 -209c-7.33301 0 -12.667 3.33008 -16 9.99707l-14 35c-0.666992 1.33301 -1 3 -1 5c0 4.66699 3 8.33398 9 11.001c22 8.66699 33 25.334 33 50.001v19c0 4 1.16699 7.33301 3.5 10s5.5 4 9.5 4h52c4.66699 0 8.66699 -1.66699 12 -5s5 -7.66602 5 -12.999v-11
c0 -32 -9.33301 -57.5 -28 -76.5s-39 -31.833 -61 -38.5h-4z" />
    <glyph glyph-name="uni00B9" unicode="&#xb9;" horiz-adv-x="293" 
d="M58.5 362.5c-2.33301 2.33301 -3.49902 5.16602 -3.49902 8.49902v27c0 3.33301 1.16699 6.16602 3.5 8.49902s5.16602 3.5 8.49902 3.5h53v234h-35c-4.66699 0 -8.33398 1.33301 -11.001 4s-4 6 -4 10v21l72 37h16c4 0 7.5 -1.5 10.5 -4.5s4.5 -6.5 4.5 -10.5v-291h53
c3.33301 0 6.16602 -1.16699 8.49902 -3.5s3.5 -5.16602 3.5 -8.49902v-27c0 -3.33301 -1.16699 -6.16602 -3.5 -8.49902s-5.16602 -3.5 -8.49902 -3.5h-159c-3.33301 0 -6.16602 1.16699 -8.49902 3.5z" />
    <glyph glyph-name="ordmasculine" unicode="&#xba;" horiz-adv-x="396" 
d="M111 415c-24 24 -36 53 -36 87v86c0 34 12 63 36 87s53 36 87 36s63 -12 87 -36s36 -53 36 -87v-86c0 -34 -12 -63 -36 -87s-53 -36 -87 -36s-63 12 -87 36zM250 447.5c14.667 14.333 22 31.5 22 51.5v92c0 20 -7.33301 37.167 -22 51.5s-32 21.5 -52 21.5
s-37.333 -7.16699 -52 -21.5s-22 -31.5 -22 -51.5v-92c0 -20 7.33301 -37.167 22 -51.5s32 -21.5 52 -21.5s37.333 7.16699 52 21.5z" />
    <glyph glyph-name="guillemotright" unicode="&#xbb;" horiz-adv-x="494" 
d="M67 124c-3.33301 0 -6.16504 1.16699 -8.49805 3.5s-3.5 5.5 -3.5 9.5v50c0 5.33301 2.33301 10 7 14l106 79l-106 79c-4.66699 4 -7 8.66699 -7 14v50c0 4 1.16699 7.16699 3.5 9.5s5.16602 3.5 8.49902 3.5s6.66602 -1 9.99902 -3l150 -114v-78l-150 -114
c-2.66699 -2 -6 -3 -10 -3zM279.001 124c-3.33301 0 -6.16504 1.16699 -8.49805 3.5s-3.5 5.5 -3.5 9.5v50c0 5.33301 2.33301 10 7 14l106 79l-106 79c-4.66699 4 -7 8.66699 -7 14v50c0 4 1.16699 7.16699 3.5 9.5s5.16602 3.5 8.49902 3.5s6.66602 -1 9.99902 -3
l150 -114v-78l-150 -114c-2.66699 -2 -6 -3 -10 -3z" />
    <glyph glyph-name="onequarter" unicode="&#xbc;" horiz-adv-x="701" 
d="M73.5 362.5c-2.33301 2.33301 -3.49902 5.16602 -3.49902 8.49902v27c0 3.33301 1.16699 6.16602 3.5 8.49902s5.16602 3.5 8.49902 3.5h53v234h-35c-4.66699 0 -8.33398 1.33301 -11.001 4s-4 6 -4 10v21l72 37h16c4 0 7.5 -1.5 10.5 -4.5s4.5 -6.5 4.5 -10.5v-291h53
c3.33301 0 6.16602 -1.16699 8.49902 -3.5s3.5 -5.16602 3.5 -8.49902v-27c0 -3.33301 -1.16699 -6.16602 -3.5 -8.49902s-5.16602 -3.5 -8.49902 -3.5h-159c-3.33301 0 -6.16602 1.16699 -8.49902 3.5zM86.001 -10c-2 2 -3 4.66699 -3 8v48
c0 5.33301 1.33301 9.66602 4 12.999l539 643c2.66699 3.33301 6 5 10 5c2.66699 0 5 -1 7 -3s3 -4.66699 3 -8v-48c0 -5.33301 -1.33301 -9.66602 -4 -12.999l-539 -643c-2.66699 -3.33301 -6 -5 -10 -5c-2.66699 0 -5 1 -7 3zM553.501 3.5
c-2.33301 2.33301 -3.50293 5.16309 -3.50293 8.49609v71h-128c-5.33301 0 -10.333 2.16699 -15 6.5s-7 9.5 -7 15.5v23l132 213c4.66699 6.66699 10.334 10 17.001 10h35c5.33301 0 9.83301 -1.66699 13.5 -5s5.5 -7.66602 5.5 -12.999v-199h28
c3.33301 0 6.16602 -1.16699 8.49902 -3.5s3.5 -5.16602 3.5 -8.49902v-27c0 -3.33301 -1.16699 -6.16602 -3.5 -8.49902s-5.16602 -3.5 -8.49902 -3.5h-28v-71c0 -3.33301 -1.16699 -6.16602 -3.5 -8.49902s-5.16602 -3.5 -8.49902 -3.5h-29
c-3.33301 0 -6.16602 1.16699 -8.49902 3.5zM549.998 133.997v140l-87 -140h87z" />
    <glyph glyph-name="onehalf" unicode="&#xbd;" horiz-adv-x="736" 
d="M69.5 362.5c-2.33301 2.33301 -3.49902 5.16602 -3.49902 8.49902v27c0 3.33301 1.16699 6.16602 3.5 8.49902s5.16602 3.5 8.49902 3.5h53v234h-35c-4.66699 0 -8.33398 1.33301 -11.001 4s-4 6 -4 10v21l72 37h16c4 0 7.5 -1.5 10.5 -4.5s4.5 -6.5 4.5 -10.5v-291h53
c3.33301 0 6.16602 -1.16699 8.49902 -3.5s3.5 -5.16602 3.5 -8.49902v-27c0 -3.33301 -1.16699 -6.16602 -3.5 -8.49902s-5.16602 -3.5 -8.49902 -3.5h-159c-3.33301 0 -6.16602 1.16699 -8.49902 3.5zM87.001 -10c-2 2 -3 4.66699 -3 8v48
c0 5.33301 1.33301 9.66602 4 12.999l539 643c2.66699 3.33301 6 5 10 5c2.66699 0 5 -1 7 -3s3 -4.66699 3 -8v-48c0 -5.33301 -1.33301 -9.66602 -4 -12.999l-539 -643c-2.66699 -3.33301 -6 -5 -10 -5c-2.66699 0 -5 1 -7 3zM465.501 7.5
c-5 5 -7.49902 10.832 -7.49902 17.499v41c0 22.667 4.5 41.5 13.5 56.5s19.667 26.667 32 35s29.166 18.166 50.499 29.499c24.667 12.667 41.167 24 49.5 34s12.5 22 12.5 36s-4.66699 25.333 -14 34s-21.666 13 -36.999 13c-20.667 0 -44.334 -8.33301 -71.001 -25
c-2.66699 -1.33301 -5 -2 -7 -2c-4 0 -7 1.66699 -9 5l-15 26c-0.666992 1.33301 -1 3.33301 -1 6c0 5.33301 2 9.33301 6 12c32.667 20.667 66 31 100 31c30.667 0 55.5 -8.5 74.5 -25.5s28.5 -39.833 28.5 -68.5c0 -25.333 -5.83301 -46.666 -17.5 -63.999
s-31.5 -33.666 -59.5 -48.999l-33.5 -17.5c-17 -9 -29.333 -18.333 -37 -28s-11.5 -20.5 -11.5 -32.5v-20h138c4 0 7.16699 -1.33301 9.5 -4s3.5 -6 3.5 -10v-25c0 -3.33301 -1.33301 -6.33301 -4 -9s-5.66699 -4 -9 -4h-167c-6.66699 0 -12.5 2.5 -17.5 7.5z" />
    <glyph glyph-name="threequarters" unicode="&#xbe;" horiz-adv-x="723" 
d="M101 -10c-2 2 -3 4.66699 -3 8v48c0 5.33301 1.33301 9.66602 4 12.999l539 643c2.66699 3.33301 6 5 10 5c2.66699 0 5 -1 7 -3s3 -4.66699 3 -8v-48c0 -5.33301 -1.33301 -9.66602 -4 -12.999l-539 -643c-2.66699 -3.33301 -6 -5 -10 -5c-2.66699 0 -5 1 -7 3z
M104.5 362.5c-20.333 11 -36.498 26.167 -48.498 45.5c-2 3.33301 -3 6.33301 -3 9c0 4.66699 1.66699 8 5 10l21 15c3.33301 2 6.33301 3 9 3c5.33301 0 9.66602 -2.66699 12.999 -8c8.66699 -12.667 19.167 -22.334 31.5 -29.001s24.833 -10 37.5 -10
c18.667 0 34.167 6.33301 46.5 19s18.5 28.667 18.5 48c0 18.667 -6.16699 34.334 -18.5 47.001s-27.5 19 -45.5 19h-3l-9 -12c-2 -3.33301 -5.33301 -5 -10 -5c-4 0 -7.33301 1 -10 3l-19 13c-2.66699 2 -4.33398 4.5 -5.00098 7.5s0 6.16699 2 9.5l73 103h-94
c-3.33301 0 -6.16602 1.16699 -8.49902 3.5s-3.5 5.16602 -3.5 8.49902v29c0 3.33301 1.16699 6.16602 3.5 8.49902s5.16602 3.5 8.49902 3.5h138c8.66699 0 16 -2.83301 22 -8.5s9 -12.5 9 -20.5c0 -7.33301 -2.33301 -13.666 -7 -18.999l-56 -78
c25.333 -6.66699 46.166 -20.167 62.499 -40.5s24.5 -44.166 24.5 -71.499c0 -32.667 -11.667 -60.667 -35 -84s-51.333 -35 -84 -35c-23.333 0 -45.166 5.5 -65.499 16.5zM578.502 3.5c-2.33301 2.33301 -3.50293 5.16309 -3.50293 8.49609v71h-128
c-5.33301 0 -10.333 2.16699 -15 6.5s-7 9.5 -7 15.5v23l132 213c4.66699 6.66699 10.334 10 17.001 10h35c5.33301 0 9.83301 -1.66699 13.5 -5s5.5 -7.66602 5.5 -12.999v-199h28c3.33301 0 6.16602 -1.16699 8.49902 -3.5s3.5 -5.16602 3.5 -8.49902v-27
c0 -3.33301 -1.16699 -6.16602 -3.5 -8.49902s-5.16602 -3.5 -8.49902 -3.5h-28v-71c0 -3.33301 -1.16699 -6.16602 -3.5 -8.49902s-5.16602 -3.5 -8.49902 -3.5h-29c-3.33301 0 -6.16602 1.16699 -8.49902 3.5zM574.999 133.997v140l-87 -140h87z" />
    <glyph glyph-name="questiondown" unicode="&#xbf;" horiz-adv-x="455" 
d="M203 471.5c-12 12.333 -18 27.166 -18 44.499s6 32.166 18 44.499s26.667 18.5 44 18.5c18 0 33.167 -6.16699 45.5 -18.5s18.5 -27.166 18.5 -44.499s-6.16699 -32.166 -18.5 -44.499s-27.5 -18.5 -45.5 -18.5c-17.333 0 -32 6.16699 -44 18.5zM114.5 -96.5
c-30.333 27 -45.5 62.5 -45.5 106.5c0 30 6.33301 55.333 19 76s30 42 52 64l14 14c26.667 26 45.667 46.5 57 61.5s17 31.167 17 48.5c0 13.333 -3.66699 30 -11 50l-1 4c0 6 2.66699 10 8 12l43 19l8 2c6.66699 0 10.667 -2.33301 12 -7c14.667 -28.667 22 -57 22 -85
c0 -28.667 -7.16699 -53.334 -21.5 -74.001s-37.833 -46 -70.5 -76c-22.667 -21.333 -40 -40 -52 -56s-18 -33.333 -18 -52c0 -21.333 8 -39.166 24 -53.499s37.333 -21.5 64 -21.5c19.333 0 38.5 4.16699 57.5 12.5s36.5 18.5 52.5 30.5c4 2.66699 7.33301 4 10 4
c4 0 7.66699 -2.33301 11 -7l20 -31c2.66699 -3.33301 4 -7 4 -11c0 -6.66699 -3 -12.334 -9 -17.001c-18 -15.333 -40.833 -28.166 -68.5 -38.499s-55.834 -15.5 -84.501 -15.5c-45.333 0 -83.166 13.5 -113.499 40.5z" />
    <glyph glyph-name="Agrave" unicode="&#xc0;" horiz-adv-x="610" 
d="M37.5 6.5c-3 4.33301 -3.5 9.49902 -1.5 15.499l217 660c1.33301 4 3.83301 7.16699 7.5 9.5s7.5 3.5 11.5 3.5h66c4 0 7.83301 -1.16699 11.5 -3.5s6.16699 -5.5 7.5 -9.5l217 -660c0.666992 -1.33301 1 -3.66602 1 -6.99902c0 -4 -1.5 -7.5 -4.5 -10.5
s-6.83301 -4.5 -11.5 -4.5h-49c-4 0 -7.83301 1.16699 -11.5 3.5s-6.16699 5.5 -7.5 9.5l-56 174h-260l-56 -174c-0.666992 -4 -3 -7.16699 -7 -9.5s-8 -3.5 -12 -3.5h-49c-6 0 -10.5 2.16699 -13.5 6.5zM412 259.999l-107 331l-107 -331h214zM278 763.999l-80.998 92.999
c-2.66699 2.66699 -4 6 -4 10s1.16699 7.16699 3.5 9.5s5.83301 3.5 10.5 3.5h67c13.333 0 22.666 -6.33301 27.999 -19l37 -90c1.33301 -4 2 -6.33301 2 -7c0 -3.33301 -1.16699 -6.16602 -3.5 -8.49902s-5.5 -3.5 -9.5 -3.5h-24c-10.667 0 -19.334 4 -26.001 12z" />
    <glyph glyph-name="Aacute" unicode="&#xc1;" horiz-adv-x="610" 
d="M37.5 6.5c-3 4.33301 -3.5 9.49902 -1.5 15.499l217 660c1.33301 4 3.83301 7.16699 7.5 9.5s7.5 3.5 11.5 3.5h66c4 0 7.83301 -1.16699 11.5 -3.5s6.16699 -5.5 7.5 -9.5l217 -660c0.666992 -1.33301 1 -3.66602 1 -6.99902c0 -4 -1.5 -7.5 -4.5 -10.5
s-6.83301 -4.5 -11.5 -4.5h-49c-4 0 -7.83301 1.16699 -11.5 3.5s-6.16699 5.5 -7.5 9.5l-56 174h-260l-56 -174c-0.666992 -4 -3 -7.16699 -7 -9.5s-8 -3.5 -12 -3.5h-49c-6 0 -10.5 2.16699 -13.5 6.5zM412 259.999l-107 331l-107 -331h214zM280 757.499
c-2 3.66699 -1.99805 8.16699 0.00195312 13.5l37 90c5.33301 12.667 14.666 19 27.999 19h67c4 0 7.33301 -1.16699 10 -3.5s4 -5.5 4 -9.5s-1.33301 -7.33301 -4 -10l-81 -93c-6.66699 -8 -15.334 -12 -26.001 -12h-24c-5.33301 0 -9 1.83301 -11 5.5z" />
    <glyph glyph-name="Acircumflex" unicode="&#xc2;" horiz-adv-x="610" 
d="M37.5 6.5c-3 4.33301 -3.5 9.49902 -1.5 15.499l217 660c1.33301 4 3.83301 7.16699 7.5 9.5s7.5 3.5 11.5 3.5h66c4 0 7.83301 -1.16699 11.5 -3.5s6.16699 -5.5 7.5 -9.5l217 -660c0.666992 -1.33301 1 -3.66602 1 -6.99902c0 -4 -1.5 -7.5 -4.5 -10.5
s-6.83301 -4.5 -11.5 -4.5h-49c-4 0 -7.83301 1.16699 -11.5 3.5s-6.16699 5.5 -7.5 9.5l-56 174h-260l-56 -174c-0.666992 -4 -3 -7.16699 -7 -9.5s-8 -3.5 -12 -3.5h-49c-6 0 -10.5 2.16699 -13.5 6.5zM412 259.999l-107 331l-107 -331h214zM172.5 758.499
c-2.33301 4.33301 -1.83398 8.49902 1.49902 12.499l81 100c4 6 10 9 18 9h64c8 0 14 -3 18 -9l81 -100c2 -2 3 -4.33301 3 -7c0 -3.33301 -1.16699 -6.16602 -3.5 -8.49902s-5.5 -3.5 -9.5 -3.5h-33c-8 0 -16.333 3.33301 -25 10l-63 49l-63 -49
c-8.66699 -6.66699 -16.667 -10 -24 -10h-34c-5.33301 0 -9.16602 2.16699 -11.499 6.5z" />
    <glyph glyph-name="Atilde" unicode="&#xc3;" horiz-adv-x="610" 
d="M37.5 6.5c-3 4.33301 -3.5 9.49902 -1.5 15.499l217 660c1.33301 4 3.83301 7.16699 7.5 9.5s7.5 3.5 11.5 3.5h66c4 0 7.83301 -1.16699 11.5 -3.5s6.16699 -5.5 7.5 -9.5l217 -660c0.666992 -1.33301 1 -3.66602 1 -6.99902c0 -4 -1.5 -7.5 -4.5 -10.5
s-6.83301 -4.5 -11.5 -4.5h-49c-4 0 -7.83301 1.16699 -11.5 3.5s-6.16699 5.5 -7.5 9.5l-56 174h-260l-56 -174c-0.666992 -4 -3 -7.16699 -7 -9.5s-8 -3.5 -12 -3.5h-49c-6 0 -10.5 2.16699 -13.5 6.5zM412 259.999l-107 331l-107 -331h214zM336.5 768.999
c-11.667 3.33301 -25.499 7.99707 -41.499 13.9971c-26.667 9.33301 -44 14 -52 14c-8.66699 0 -15.5 -1.33301 -20.5 -4s-9.5 -7 -13.5 -13c-2 -3.33301 -3.83301 -5.16602 -5.5 -5.49902s-4.5 -0.166016 -8.5 0.500977l-28 9c-6 2 -8.66699 6.33301 -8 13
c5.33301 20.667 16.833 37.5 34.5 50.5s37.834 19.5 60.501 19.5c11.333 0 22.666 -1.66699 33.999 -5s25.666 -8 42.999 -14c24.667 -10 42 -15 52 -15c14.667 0 25.667 5.66699 33 17c2.66699 3.33301 5 5.33301 7 6s5 0.333984 9 -0.999023l27 -8
c7.33301 -2.66699 10 -7 8 -13c-4.66699 -20.667 -16 -37.5 -34 -50.5s-38.667 -19.5 -62 -19.5c-11.333 0 -22.833 1.66699 -34.5 5z" />
    <glyph glyph-name="Adieresis" unicode="&#xc4;" horiz-adv-x="610" 
d="M37.5 6.5c-3 4.33301 -3.5 9.49902 -1.5 15.499l217 660c1.33301 4 3.83301 7.16699 7.5 9.5s7.5 3.5 11.5 3.5h66c4 0 7.83301 -1.16699 11.5 -3.5s6.16699 -5.5 7.5 -9.5l217 -660c0.666992 -1.33301 1 -3.66602 1 -6.99902c0 -4 -1.5 -7.5 -4.5 -10.5
s-6.83301 -4.5 -11.5 -4.5h-49c-4 0 -7.83301 1.16699 -11.5 3.5s-6.16699 5.5 -7.5 9.5l-56 174h-260l-56 -174c-0.666992 -4 -3 -7.16699 -7 -9.5s-8 -3.5 -12 -3.5h-49c-6 0 -10.5 2.16699 -13.5 6.5zM412 259.999l-107 331l-107 -331h214zM150 768.999
c-2.66699 2.66699 -4 6 -4 10v87c0 4 1.33301 7.33301 4 10s6 4 10 4h48c4 0 7.33301 -1.33301 10 -4s4 -6 4 -10v-87c0 -4 -1.33301 -7.33301 -4 -10s-6 -4 -10 -4h-48c-4 0 -7.33301 1.33301 -10 4zM392 768.999c-2.66699 2.66699 -4 6 -4 10v87c0 4 1.33301 7.33301 4 10
s6 4 10 4h48c4 0 7.33301 -1.33301 10 -4s4 -6 4 -10v-87c0 -4 -1.33301 -7.33301 -4 -10s-6 -4 -10 -4h-48c-4 0 -7.33301 1.33301 -10 4z" />
    <glyph glyph-name="Aring" unicode="&#xc5;" horiz-adv-x="610" 
d="M247 763c-16 16 -24 35.333 -24 58s8 42 24 58s35.333 24 58 24s42 -8 58 -24s24 -35.333 24 -58s-8 -42 -24 -58s-35.333 -24 -58 -24s-42 8 -58 24zM325.5 800.5c5.66699 5.66699 8.5 12.5 8.5 20.5s-2.83301 14.833 -8.5 20.5s-12.5 8.5 -20.5 8.5
s-14.833 -2.83301 -20.5 -8.5s-8.5 -12.5 -8.5 -20.5s2.83301 -14.833 8.5 -20.5s12.5 -8.5 20.5 -8.5s14.833 2.83301 20.5 8.5zM37.5 6.5c-3 4.33301 -3.5 9.49902 -1.5 15.499l217 660c1.33301 4 3.83301 7.16699 7.5 9.5s7.5 3.5 11.5 3.5h66
c4 0 7.83301 -1.16699 11.5 -3.5s6.16699 -5.5 7.5 -9.5l217 -660c0.666992 -1.33301 1 -3.66602 1 -6.99902c0 -4 -1.5 -7.5 -4.5 -10.5s-6.83301 -4.5 -11.5 -4.5h-49c-4 0 -7.83301 1.16699 -11.5 3.5s-6.16699 5.5 -7.5 9.5l-56 174h-260l-56 -174
c-0.666992 -4 -3 -7.16699 -7 -9.5s-8 -3.5 -12 -3.5h-49c-6 0 -10.5 2.16699 -13.5 6.5zM412 259.999l-107 331l-107 -331h214z" />
    <glyph glyph-name="AE" unicode="&#xc6;" horiz-adv-x="871" 
d="M4 3.5c-2.66699 2.33301 -4 5.16797 -4 8.50098s1.33301 6.66602 4 9.99902l427 660c5.33301 8.66699 13 13 23 13h348c4 0 7.33301 -1.33301 10 -4s4 -6 4 -10v-49c0 -4 -1.33301 -7.33301 -4 -10s-6 -4 -10 -4h-283v-214h216c4 0 7.33301 -1.33301 10 -4s4 -6 4 -10
v-47c0 -4 -1.33301 -7.33301 -4 -10s-6 -4 -10 -4h-216v-252h283c4 0 7.33301 -1.33301 10 -4s4 -6 4 -10v-49c0 -4 -1.33301 -7.33301 -4 -10s-6 -4 -10 -4h-329c-10 0 -18.5 3.5 -25.5 10.5s-10.5 15.5 -10.5 25.5v151h-232l-110 -174
c-5.33301 -8.66699 -13.333 -13 -24 -13h-57c-4 0 -7.33301 1.16699 -10 3.5zM437 260.002v292l-185 -292h185z" />
    <glyph glyph-name="Ccedilla" unicode="&#xc7;" horiz-adv-x="546" 
d="M189 20c-36.667 22 -65.667 51.6641 -87 88.9971s-32 78 -32 122v234c0 44 10.667 84.667 32 122s50.333 67 87 89s76.667 33 120 33c35.333 0 68.333 -6.16699 99 -18.5s57.667 -30.166 81 -53.499c3.33301 -2.66699 5 -6.66699 5 -12c0 -4.66699 -1.66699 -9 -5 -13
c-14 -16 -23 -26 -27 -30c-4.66699 -3.33301 -9.33398 -5 -14.001 -5c-5.33301 0 -10.333 2.33301 -15 7c-33.333 32 -74.333 48 -123 48c-28.667 0 -55 -7.66699 -79 -23s-43 -35.833 -57 -61.5s-21 -53.167 -21 -82.5v-234c0 -29.333 7 -56.833 21 -82.5
s33 -46.167 57 -61.5s50.333 -23 79 -23c48.667 0 89.667 16 123 48c4.66699 4.66699 9.66699 7 15 7c4.66699 0 9.33398 -1.66699 14.001 -5c4 -4 13 -14 27 -30c3.33301 -3.33301 5 -7.66602 5 -12.999c0 -4.66699 -1.66699 -8.66699 -5 -12
c-23.333 -23.333 -50.333 -41.166 -81 -53.499s-63.667 -18.5 -99 -18.5c-43.333 0 -83.333 11 -120 33zM257 -209.003c-7.33301 0 -12.667 3.33008 -16 9.99707l-14 35c-0.666992 1.33301 -1 3 -1 5c0 4.66699 3 8.33398 9 11.001c22 8.66699 33 25.334 33 50.001v19
c0 4 1.16699 7.33301 3.5 10s5.5 4 9.5 4h52c4.66699 0 8.66699 -1.66699 12 -5s5 -7.66602 5 -12.999v-11c0 -32 -9.33301 -57.5 -28 -76.5s-39 -31.833 -61 -38.5h-4z" />
    <glyph glyph-name="Egrave" unicode="&#xc8;" horiz-adv-x="524" 
d="M100.5 10.5c-7 7 -10.5 15.5 -10.5 25.5v623c0 10 3.5 18.5 10.5 25.5s15.5 10.5 25.5 10.5h329c4 0 7.33301 -1.33301 10 -4s4 -6 4 -10v-49c0 -4 -1.33301 -7.33301 -4 -10s-6 -4 -10 -4h-283v-214h216c4 0 7.33301 -1.33301 10 -4s4 -6 4 -10v-47
c0 -4 -1.33301 -7.33301 -4 -10s-6 -4 -10 -4h-216v-252h283c4 0 7.33301 -1.33301 10 -4s4 -6 4 -10v-49c0 -4 -1.33301 -7.33301 -4 -10s-6 -4 -10 -4h-329c-10 0 -18.5 3.5 -25.5 10.5zM253 764l-80.998 92.999c-2.66699 2.66699 -4 6 -4 10s1.16699 7.16699 3.5 9.5
s5.83301 3.5 10.5 3.5h67c13.333 0 22.666 -6.33301 27.999 -19l37 -90c1.33301 -4 2 -6.33301 2 -7c0 -3.33301 -1.16699 -6.16602 -3.5 -8.49902s-5.5 -3.5 -9.5 -3.5h-24c-10.667 0 -19.334 4 -26.001 12z" />
    <glyph glyph-name="Eacute" unicode="&#xc9;" horiz-adv-x="524" 
d="M100.5 10.5c-7 7 -10.5 15.5 -10.5 25.5v623c0 10 3.5 18.5 10.5 25.5s15.5 10.5 25.5 10.5h329c4 0 7.33301 -1.33301 10 -4s4 -6 4 -10v-49c0 -4 -1.33301 -7.33301 -4 -10s-6 -4 -10 -4h-283v-214h216c4 0 7.33301 -1.33301 10 -4s4 -6 4 -10v-47
c0 -4 -1.33301 -7.33301 -4 -10s-6 -4 -10 -4h-216v-252h283c4 0 7.33301 -1.33301 10 -4s4 -6 4 -10v-49c0 -4 -1.33301 -7.33301 -4 -10s-6 -4 -10 -4h-329c-10 0 -18.5 3.5 -25.5 10.5zM255 757.5c-2 3.66699 -1.99805 8.16699 0.00195312 13.5l37 90
c5.33301 12.667 14.666 19 27.999 19h67c4 0 7.33301 -1.16699 10 -3.5s4 -5.5 4 -9.5s-1.33301 -7.33301 -4 -10l-81 -93c-6.66699 -8 -15.334 -12 -26.001 -12h-24c-5.33301 0 -9 1.83301 -11 5.5z" />
    <glyph glyph-name="Ecircumflex" unicode="&#xca;" horiz-adv-x="524" 
d="M100.5 10.5c-7 7 -10.5 15.5 -10.5 25.5v623c0 10 3.5 18.5 10.5 25.5s15.5 10.5 25.5 10.5h329c4 0 7.33301 -1.33301 10 -4s4 -6 4 -10v-49c0 -4 -1.33301 -7.33301 -4 -10s-6 -4 -10 -4h-283v-214h216c4 0 7.33301 -1.33301 10 -4s4 -6 4 -10v-47
c0 -4 -1.33301 -7.33301 -4 -10s-6 -4 -10 -4h-216v-252h283c4 0 7.33301 -1.33301 10 -4s4 -6 4 -10v-49c0 -4 -1.33301 -7.33301 -4 -10s-6 -4 -10 -4h-329c-10 0 -18.5 3.5 -25.5 10.5zM147.5 758.5c-2.33301 4.33301 -1.83398 8.49902 1.49902 12.499l81 100
c4 6 10 9 18 9h64c8 0 14 -3 18 -9l81 -100c2 -2 3 -4.33301 3 -7c0 -3.33301 -1.16699 -6.16602 -3.5 -8.49902s-5.5 -3.5 -9.5 -3.5h-33c-8 0 -16.333 3.33301 -25 10l-63 49l-63 -49c-8.66699 -6.66699 -16.667 -10 -24 -10h-34c-5.33301 0 -9.16602 2.16699 -11.499 6.5
z" />
    <glyph glyph-name="Edieresis" unicode="&#xcb;" horiz-adv-x="524" 
d="M100.5 10.5c-7 7 -10.5 15.5 -10.5 25.5v623c0 10 3.5 18.5 10.5 25.5s15.5 10.5 25.5 10.5h329c4 0 7.33301 -1.33301 10 -4s4 -6 4 -10v-49c0 -4 -1.33301 -7.33301 -4 -10s-6 -4 -10 -4h-283v-214h216c4 0 7.33301 -1.33301 10 -4s4 -6 4 -10v-47
c0 -4 -1.33301 -7.33301 -4 -10s-6 -4 -10 -4h-216v-252h283c4 0 7.33301 -1.33301 10 -4s4 -6 4 -10v-49c0 -4 -1.33301 -7.33301 -4 -10s-6 -4 -10 -4h-329c-10 0 -18.5 3.5 -25.5 10.5zM125 769c-2.66699 2.66699 -4 6 -4 10v87c0 4 1.33301 7.33301 4 10s6 4 10 4h48
c4 0 7.33301 -1.33301 10 -4s4 -6 4 -10v-87c0 -4 -1.33301 -7.33301 -4 -10s-6 -4 -10 -4h-48c-4 0 -7.33301 1.33301 -10 4zM367 769c-2.66699 2.66699 -4 6 -4 10v87c0 4 1.33301 7.33301 4 10s6 4 10 4h48c4 0 7.33301 -1.33301 10 -4s4 -6 4 -10v-87
c0 -4 -1.33301 -7.33301 -4 -10s-6 -4 -10 -4h-48c-4 0 -7.33301 1.33301 -10 4z" />
    <glyph glyph-name="Igrave" unicode="&#xcc;" horiz-adv-x="442" 
d="M69 4c-2.66699 2.66699 -4 6 -4 10v47c0 4 1.33301 7.33301 4 10s6 4 10 4h101v545h-101c-4 0 -7.33301 1.33301 -10 4s-4 6 -4 10v47c0 4 1.33301 7.33301 4 10s6 4 10 4h284c4 0 7.33301 -1.33301 10 -4s4 -6 4 -10v-47c0 -4 -1.33301 -7.33301 -4 -10s-6 -4 -10 -4
h-101v-545h101c4 0 7.33301 -1.33301 10 -4s4 -6 4 -10v-47c0 -4 -1.33301 -7.33301 -4 -10s-6 -4 -10 -4h-284c-4 -0 -7.33301 1.33301 -10 4zM194 764l-80.998 92.999c-2.66699 2.66699 -4 6 -4 10s1.16699 7.16699 3.5 9.5s5.83301 3.5 10.5 3.5h67
c13.333 0 22.666 -6.33301 27.999 -19l37 -90c1.33301 -4 2 -6.33301 2 -7c0 -3.33301 -1.16699 -6.16602 -3.5 -8.49902s-5.5 -3.5 -9.5 -3.5h-24c-10.667 0 -19.334 4 -26.001 12z" />
    <glyph glyph-name="Iacute" unicode="&#xcd;" horiz-adv-x="442" 
d="M69 4c-2.66699 2.66699 -4 6 -4 10v47c0 4 1.33301 7.33301 4 10s6 4 10 4h101v545h-101c-4 0 -7.33301 1.33301 -10 4s-4 6 -4 10v47c0 4 1.33301 7.33301 4 10s6 4 10 4h284c4 0 7.33301 -1.33301 10 -4s4 -6 4 -10v-47c0 -4 -1.33301 -7.33301 -4 -10s-6 -4 -10 -4
h-101v-545h101c4 0 7.33301 -1.33301 10 -4s4 -6 4 -10v-47c0 -4 -1.33301 -7.33301 -4 -10s-6 -4 -10 -4h-284c-4 -0 -7.33301 1.33301 -10 4zM196 757.5c-2 3.66699 -1.99805 8.16699 0.00195312 13.5l37 90c5.33301 12.667 14.666 19 27.999 19h67
c4 0 7.33301 -1.16699 10 -3.5s4 -5.5 4 -9.5s-1.33301 -7.33301 -4 -10l-81 -93c-6.66699 -8 -15.334 -12 -26.001 -12h-24c-5.33301 0 -9 1.83301 -11 5.5z" />
    <glyph glyph-name="Icircumflex" unicode="&#xce;" horiz-adv-x="442" 
d="M69 4c-2.66699 2.66699 -4 6 -4 10v47c0 4 1.33301 7.33301 4 10s6 4 10 4h101v545h-101c-4 0 -7.33301 1.33301 -10 4s-4 6 -4 10v47c0 4 1.33301 7.33301 4 10s6 4 10 4h284c4 0 7.33301 -1.33301 10 -4s4 -6 4 -10v-47c0 -4 -1.33301 -7.33301 -4 -10s-6 -4 -10 -4
h-101v-545h101c4 0 7.33301 -1.33301 10 -4s4 -6 4 -10v-47c0 -4 -1.33301 -7.33301 -4 -10s-6 -4 -10 -4h-284c-4 -0 -7.33301 1.33301 -10 4zM88.5 758.5c-2.33301 4.33301 -1.83398 8.49902 1.49902 12.499l81 100c4 6 10 9 18 9h64c8 0 14 -3 18 -9l81 -100
c2 -2 3 -4.33301 3 -7c0 -3.33301 -1.16699 -6.16602 -3.5 -8.49902s-5.5 -3.5 -9.5 -3.5h-33c-8 0 -16.333 3.33301 -25 10l-63 49l-63 -49c-8.66699 -6.66699 -16.667 -10 -24 -10h-34c-5.33301 0 -9.16602 2.16699 -11.499 6.5z" />
    <glyph glyph-name="Idieresis" unicode="&#xcf;" horiz-adv-x="442" 
d="M69 4c-2.66699 2.66699 -4 6 -4 10v47c0 4 1.33301 7.33301 4 10s6 4 10 4h101v545h-101c-4 0 -7.33301 1.33301 -10 4s-4 6 -4 10v47c0 4 1.33301 7.33301 4 10s6 4 10 4h284c4 0 7.33301 -1.33301 10 -4s4 -6 4 -10v-47c0 -4 -1.33301 -7.33301 -4 -10s-6 -4 -10 -4
h-101v-545h101c4 0 7.33301 -1.33301 10 -4s4 -6 4 -10v-47c0 -4 -1.33301 -7.33301 -4 -10s-6 -4 -10 -4h-284c-4 -0 -7.33301 1.33301 -10 4zM66 769c-2.66699 2.66699 -4 6 -4 10v87c0 4 1.33301 7.33301 4 10s6 4 10 4h48c4 0 7.33301 -1.33301 10 -4s4 -6 4 -10v-87
c0 -4 -1.33301 -7.33301 -4 -10s-6 -4 -10 -4h-48c-4 0 -7.33301 1.33301 -10 4zM308 769c-2.66699 2.66699 -4 6 -4 10v87c0 4 1.33301 7.33301 4 10s6 4 10 4h48c4 0 7.33301 -1.33301 10 -4s4 -6 4 -10v-87c0 -4 -1.33301 -7.33301 -4 -10s-6 -4 -10 -4h-48
c-4 0 -7.33301 1.33301 -10 4z" />
    <glyph glyph-name="Eth" unicode="&#xd0;" horiz-adv-x="630" 
d="M435 659.5c40 -23.667 71.667 -55.667 95 -96s35 -84.5 35 -132.5v-167c0 -48 -11.667 -92.167 -35 -132.5s-55 -72.333 -95 -96s-83.667 -35.5 -131 -35.5h-178c-10 0 -18.5 3.5 -25.5 10.5s-10.5 15.5 -10.5 25.5v278h-63c-4 0 -7.33301 1.33301 -10 4s-4 6 -4 10v41
c0 4 1.33301 7.33301 4 10s6 4 10 4h63v276c0 10 3.5 18.5 10.5 25.5s15.5 10.5 25.5 10.5h178c47.333 0 91 -11.833 131 -35.5zM483 439c0 32.667 -8 62.666 -24 89.999s-37.667 49 -65 65s-57.333 24 -90 24h-132v-235h137c4 0 7.33301 -1.33301 10 -4s4 -6 4 -10v-41
c0 -4 -1.33301 -7.33301 -4 -10s-6 -4 -10 -4h-137v-237h132c32.667 0 62.667 8 90 24s49 37.833 65 65.5s24 57.834 24 90.501v182z" />
    <glyph glyph-name="Ntilde" unicode="&#xd1;" horiz-adv-x="680" 
d="M94 4c-2.66699 2.66699 -4 6 -4 10v660c0 6 2 11 6 15s9 6 15 6h59c5.33301 0 10.333 -1.16699 15 -3.5s8.33398 -5.83301 11.001 -10.5l316 -552v552c0 4 1.33301 7.33301 4 10s6 4 10 4h50c4 0 7.33301 -1.33301 10 -4s4 -6 4 -10v-660c0 -6 -2 -11 -6 -15
s-9 -6 -15 -6h-60c-5.33301 0 -10.333 1.16699 -15 3.5s-8.33398 5.83301 -11.001 10.5l-315 551v-551c0 -4 -1.33301 -7.33301 -4 -10s-6 -4 -10 -4h-50c-4 -0 -7.33301 1.33301 -10 4zM371.5 769c-11.667 3.33301 -25.499 7.99707 -41.499 13.9971
c-26.667 9.33301 -44 14 -52 14c-8.66699 0 -15.5 -1.33301 -20.5 -4s-9.5 -7 -13.5 -13c-2 -3.33301 -3.83301 -5.16602 -5.5 -5.49902s-4.5 -0.166016 -8.5 0.500977l-28 9c-6 2 -8.66699 6.33301 -8 13c5.33301 20.667 16.833 37.5 34.5 50.5s37.834 19.5 60.501 19.5
c11.333 0 22.666 -1.66699 33.999 -5s25.666 -8 42.999 -14c24.667 -10 42 -15 52 -15c14.667 0 25.667 5.66699 33 17c2.66699 3.33301 5 5.33301 7 6s5 0.333984 9 -0.999023l27 -8c7.33301 -2.66699 10 -7 8 -13c-4.66699 -20.667 -16 -37.5 -34 -50.5
s-38.667 -19.5 -62 -19.5c-11.333 0 -22.833 1.66699 -34.5 5z" />
    <glyph glyph-name="Ograve" unicode="&#xd2;" horiz-adv-x="630" 
d="M192.5 20c-37.667 22 -67.5 51.667 -89.5 89s-33 78 -33 122v233c0 44 11 84.667 33 122s51.833 67 89.5 89s78.5 33 122.5 33s84.833 -11 122.5 -33s67.5 -51.667 89.5 -89s33 -78 33 -122v-233c0 -44 -11 -84.667 -33 -122s-51.833 -67 -89.5 -89s-78.5 -33 -122.5 -33
s-84.833 11 -122.5 33zM396.5 87c25 15.333 44.833 35.833 59.5 61.5s22 53.167 22 82.5v233c0 29.333 -7.33301 56.833 -22 82.5s-34.5 46.167 -59.5 61.5s-52.167 23 -81.5 23s-56.5 -7.66699 -81.5 -23s-44.833 -35.833 -59.5 -61.5s-22 -53.167 -22 -82.5v-233
c0 -29.333 7.33301 -56.833 22 -82.5s34.5 -46.167 59.5 -61.5s52.167 -23 81.5 -23s56.5 7.66699 81.5 23zM288 764l-80.998 92.999c-2.66699 2.66699 -4 6 -4 10s1.16699 7.16699 3.5 9.5s5.83301 3.5 10.5 3.5h67c13.333 0 22.666 -6.33301 27.999 -19l37 -90
c1.33301 -4 2 -6.33301 2 -7c0 -3.33301 -1.16699 -6.16602 -3.5 -8.49902s-5.5 -3.5 -9.5 -3.5h-24c-10.667 0 -19.334 4 -26.001 12z" />
    <glyph glyph-name="Oacute" unicode="&#xd3;" horiz-adv-x="630" 
d="M192.5 20c-37.667 22 -67.5 51.667 -89.5 89s-33 78 -33 122v233c0 44 11 84.667 33 122s51.833 67 89.5 89s78.5 33 122.5 33s84.833 -11 122.5 -33s67.5 -51.667 89.5 -89s33 -78 33 -122v-233c0 -44 -11 -84.667 -33 -122s-51.833 -67 -89.5 -89s-78.5 -33 -122.5 -33
s-84.833 11 -122.5 33zM396.5 87c25 15.333 44.833 35.833 59.5 61.5s22 53.167 22 82.5v233c0 29.333 -7.33301 56.833 -22 82.5s-34.5 46.167 -59.5 61.5s-52.167 23 -81.5 23s-56.5 -7.66699 -81.5 -23s-44.833 -35.833 -59.5 -61.5s-22 -53.167 -22 -82.5v-233
c0 -29.333 7.33301 -56.833 22 -82.5s34.5 -46.167 59.5 -61.5s52.167 -23 81.5 -23s56.5 7.66699 81.5 23zM290 757.5c-2 3.66699 -1.99805 8.16699 0.00195312 13.5l37 90c5.33301 12.667 14.666 19 27.999 19h67c4 0 7.33301 -1.16699 10 -3.5s4 -5.5 4 -9.5
s-1.33301 -7.33301 -4 -10l-81 -93c-6.66699 -8 -15.334 -12 -26.001 -12h-24c-5.33301 0 -9 1.83301 -11 5.5z" />
    <glyph glyph-name="Ocircumflex" unicode="&#xd4;" horiz-adv-x="630" 
d="M192.5 20c-37.667 22 -67.5 51.667 -89.5 89s-33 78 -33 122v233c0 44 11 84.667 33 122s51.833 67 89.5 89s78.5 33 122.5 33s84.833 -11 122.5 -33s67.5 -51.667 89.5 -89s33 -78 33 -122v-233c0 -44 -11 -84.667 -33 -122s-51.833 -67 -89.5 -89s-78.5 -33 -122.5 -33
s-84.833 11 -122.5 33zM396.5 87c25 15.333 44.833 35.833 59.5 61.5s22 53.167 22 82.5v233c0 29.333 -7.33301 56.833 -22 82.5s-34.5 46.167 -59.5 61.5s-52.167 23 -81.5 23s-56.5 -7.66699 -81.5 -23s-44.833 -35.833 -59.5 -61.5s-22 -53.167 -22 -82.5v-233
c0 -29.333 7.33301 -56.833 22 -82.5s34.5 -46.167 59.5 -61.5s52.167 -23 81.5 -23s56.5 7.66699 81.5 23zM182.5 758.5c-2.33301 4.33301 -1.83398 8.49902 1.49902 12.499l81 100c4 6 10 9 18 9h64c8 0 14 -3 18 -9l81 -100c2 -2 3 -4.33301 3 -7
c0 -3.33301 -1.16699 -6.16602 -3.5 -8.49902s-5.5 -3.5 -9.5 -3.5h-33c-8 0 -16.333 3.33301 -25 10l-63 49l-63 -49c-8.66699 -6.66699 -16.667 -10 -24 -10h-34c-5.33301 0 -9.16602 2.16699 -11.499 6.5z" />
    <glyph glyph-name="Otilde" unicode="&#xd5;" horiz-adv-x="630" 
d="M192.5 20c-37.667 22 -67.5 51.667 -89.5 89s-33 78 -33 122v233c0 44 11 84.667 33 122s51.833 67 89.5 89s78.5 33 122.5 33s84.833 -11 122.5 -33s67.5 -51.667 89.5 -89s33 -78 33 -122v-233c0 -44 -11 -84.667 -33 -122s-51.833 -67 -89.5 -89s-78.5 -33 -122.5 -33
s-84.833 11 -122.5 33zM396.5 87c25 15.333 44.833 35.833 59.5 61.5s22 53.167 22 82.5v233c0 29.333 -7.33301 56.833 -22 82.5s-34.5 46.167 -59.5 61.5s-52.167 23 -81.5 23s-56.5 -7.66699 -81.5 -23s-44.833 -35.833 -59.5 -61.5s-22 -53.167 -22 -82.5v-233
c0 -29.333 7.33301 -56.833 22 -82.5s34.5 -46.167 59.5 -61.5s52.167 -23 81.5 -23s56.5 7.66699 81.5 23zM346.5 769c-11.667 3.33301 -25.499 7.99707 -41.499 13.9971c-26.667 9.33301 -44 14 -52 14c-8.66699 0 -15.5 -1.33301 -20.5 -4s-9.5 -7 -13.5 -13
c-2 -3.33301 -3.83301 -5.16602 -5.5 -5.49902s-4.5 -0.166016 -8.5 0.500977l-28 9c-6 2 -8.66699 6.33301 -8 13c5.33301 20.667 16.833 37.5 34.5 50.5s37.834 19.5 60.501 19.5c11.333 0 22.666 -1.66699 33.999 -5s25.666 -8 42.999 -14c24.667 -10 42 -15 52 -15
c14.667 0 25.667 5.66699 33 17c2.66699 3.33301 5 5.33301 7 6s5 0.333984 9 -0.999023l27 -8c7.33301 -2.66699 10 -7 8 -13c-4.66699 -20.667 -16 -37.5 -34 -50.5s-38.667 -19.5 -62 -19.5c-11.333 0 -22.833 1.66699 -34.5 5z" />
    <glyph glyph-name="Odieresis" unicode="&#xd6;" horiz-adv-x="630" 
d="M192.5 20c-37.667 22 -67.5 51.667 -89.5 89s-33 78 -33 122v233c0 44 11 84.667 33 122s51.833 67 89.5 89s78.5 33 122.5 33s84.833 -11 122.5 -33s67.5 -51.667 89.5 -89s33 -78 33 -122v-233c0 -44 -11 -84.667 -33 -122s-51.833 -67 -89.5 -89s-78.5 -33 -122.5 -33
s-84.833 11 -122.5 33zM396.5 87c25 15.333 44.833 35.833 59.5 61.5s22 53.167 22 82.5v233c0 29.333 -7.33301 56.833 -22 82.5s-34.5 46.167 -59.5 61.5s-52.167 23 -81.5 23s-56.5 -7.66699 -81.5 -23s-44.833 -35.833 -59.5 -61.5s-22 -53.167 -22 -82.5v-233
c0 -29.333 7.33301 -56.833 22 -82.5s34.5 -46.167 59.5 -61.5s52.167 -23 81.5 -23s56.5 7.66699 81.5 23zM160 769c-2.66699 2.66699 -4 6 -4 10v87c0 4 1.33301 7.33301 4 10s6 4 10 4h48c4 0 7.33301 -1.33301 10 -4s4 -6 4 -10v-87c0 -4 -1.33301 -7.33301 -4 -10
s-6 -4 -10 -4h-48c-4 0 -7.33301 1.33301 -10 4zM402 769c-2.66699 2.66699 -4 6 -4 10v87c0 4 1.33301 7.33301 4 10s6 4 10 4h48c4 0 7.33301 -1.33301 10 -4s4 -6 4 -10v-87c0 -4 -1.33301 -7.33301 -4 -10s-6 -4 -10 -4h-48c-4 0 -7.33301 1.33301 -10 4z" />
    <glyph glyph-name="multiply" unicode="&#xd7;" horiz-adv-x="517" 
d="M449 147c2 -4 3 -7.66797 3 -11.001c0 -4 -1 -7 -3 -9l-27 -27c-3.33301 -3.33301 -7 -5 -11 -5c-2.66699 0 -6 1.33301 -10 4l-142 142l-142 -142c-4 -2.66699 -7.33301 -4 -10 -4s-6 1.33301 -10 4l-27 27c-3.33301 4.66699 -5 8.33398 -5 11.001s1.33301 6 4 10
l142 142l-141 141c-2.66699 2.66699 -4 6 -4 10s1.66699 7.66699 5 11l27 27c2 2 5 3 9 3c3.33301 0 7 -1 11 -3l141 -141l141 141c2.66699 2.66699 6 4 10 4s7.66699 -1.66699 11 -5l27 -27c2.66699 -2.66699 4 -6 4 -10s-1.33301 -7.33301 -4 -10l-141 -141z" />
    <glyph glyph-name="Oslash" unicode="&#xd8;" horiz-adv-x="644" 
d="M586 692.5c2 -1.66699 2.99902 -3.83203 2.99902 -6.49902c0 -2 -1 -4.66699 -3 -8l-57 -85c24.667 -40 37 -83 37 -129v-233c0 -44 -11 -84.667 -33 -122s-51.833 -67 -89.5 -89s-78.5 -33 -122.5 -33c-29.333 0 -57.666 5 -84.999 15s-52 24.333 -74 43l-22 -33
c-2 -3.33301 -5 -6.16602 -9 -8.49902s-8 -3.5 -12 -3.5h-53c-4.66699 0 -8 1.66699 -10 5s-1.66699 7.33301 1 12l57 84c-25.333 40 -38 83.333 -38 130v233c0 44 11 84.667 33 122s51.833 67 89.5 89s78.5 33 122.5 33c30 0 58.833 -5.33301 86.5 -16
s52.5 -25.334 74.5 -44.001l23 35c2 3.33301 5 6.16602 9 8.49902s8 3.5 12 3.5h52c3.33301 0 6 -0.833008 8 -2.5zM165.999 179.002l270 402c-14.667 16 -32 28.333 -52 37s-41 13 -63 13c-29.333 0 -56.5 -7.66699 -81.5 -23s-44.833 -35.833 -59.5 -61.5
s-22 -53.167 -22 -82.5v-233c0 -16.667 2.66699 -34 8 -52zM475.999 514.002l-269 -401.999c15.333 -14.667 32.833 -26.334 52.5 -35.001s40.167 -13 61.5 -13c29.333 0 56.5 7.66699 81.5 23s44.833 35.833 59.5 61.5s22 53.167 22 82.5v233c0 16 -2.66699 32.667 -8 50z
" />
    <glyph glyph-name="Ugrave" unicode="&#xd9;" horiz-adv-x="671" 
d="M211 20c-37.333 22 -66.835 53.167 -88.502 93.5s-32.5 86.166 -32.5 137.499v430c0 4 1.33301 7.33301 4 10s6 4 10 4h54c4 0 7.33301 -1.33301 10 -4s4 -6 4 -10v-435c0 -36 7.16699 -67.667 21.5 -95s33.833 -48.333 58.5 -63s52.667 -22 84 -22
c30.667 0 58.334 7.33301 83.001 22s44.167 35.667 58.5 63s21.5 59 21.5 95v435c0 4 1.33301 7.33301 4 10s6 4 10 4h54c4 0 7.33301 -1.33301 10 -4s4 -6 4 -10v-430c0 -51.333 -10.833 -97.166 -32.5 -137.499s-51.167 -71.5 -88.5 -93.5s-78.666 -33 -123.999 -33
c-46 0 -87.667 11 -125 33zM307.998 764l-80.998 92.999c-2.66699 2.66699 -4 6 -4 10s1.16699 7.16699 3.5 9.5s5.83301 3.5 10.5 3.5h67c13.333 0 22.666 -6.33301 27.999 -19l37 -90c1.33301 -4 2 -6.33301 2 -7c0 -3.33301 -1.16699 -6.16602 -3.5 -8.49902
s-5.5 -3.5 -9.5 -3.5h-24c-10.667 0 -19.334 4 -26.001 12z" />
    <glyph glyph-name="Uacute" unicode="&#xda;" horiz-adv-x="671" 
d="M211 20c-37.333 22 -66.835 53.167 -88.502 93.5s-32.5 86.166 -32.5 137.499v430c0 4 1.33301 7.33301 4 10s6 4 10 4h54c4 0 7.33301 -1.33301 10 -4s4 -6 4 -10v-435c0 -36 7.16699 -67.667 21.5 -95s33.833 -48.333 58.5 -63s52.667 -22 84 -22
c30.667 0 58.334 7.33301 83.001 22s44.167 35.667 58.5 63s21.5 59 21.5 95v435c0 4 1.33301 7.33301 4 10s6 4 10 4h54c4 0 7.33301 -1.33301 10 -4s4 -6 4 -10v-430c0 -51.333 -10.833 -97.166 -32.5 -137.499s-51.167 -71.5 -88.5 -93.5s-78.666 -33 -123.999 -33
c-46 0 -87.667 11 -125 33zM309.998 757.5c-2 3.66699 -1.99805 8.16699 0.00195312 13.5l37 90c5.33301 12.667 14.666 19 27.999 19h67c4 0 7.33301 -1.16699 10 -3.5s4 -5.5 4 -9.5s-1.33301 -7.33301 -4 -10l-81 -93c-6.66699 -8 -15.334 -12 -26.001 -12h-24
c-5.33301 0 -9 1.83301 -11 5.5z" />
    <glyph glyph-name="Ucircumflex" unicode="&#xdb;" horiz-adv-x="671" 
d="M211 20c-37.333 22 -66.835 53.167 -88.502 93.5s-32.5 86.166 -32.5 137.499v430c0 4 1.33301 7.33301 4 10s6 4 10 4h54c4 0 7.33301 -1.33301 10 -4s4 -6 4 -10v-435c0 -36 7.16699 -67.667 21.5 -95s33.833 -48.333 58.5 -63s52.667 -22 84 -22
c30.667 0 58.334 7.33301 83.001 22s44.167 35.667 58.5 63s21.5 59 21.5 95v435c0 4 1.33301 7.33301 4 10s6 4 10 4h54c4 0 7.33301 -1.33301 10 -4s4 -6 4 -10v-430c0 -51.333 -10.833 -97.166 -32.5 -137.499s-51.167 -71.5 -88.5 -93.5s-78.666 -33 -123.999 -33
c-46 0 -87.667 11 -125 33zM202.498 758.5c-2.33301 4.33301 -1.83398 8.49902 1.49902 12.499l81 100c4 6 10 9 18 9h64c8 0 14 -3 18 -9l81 -100c2 -2 3 -4.33301 3 -7c0 -3.33301 -1.16699 -6.16602 -3.5 -8.49902s-5.5 -3.5 -9.5 -3.5h-33c-8 0 -16.333 3.33301 -25 10
l-63 49l-63 -49c-8.66699 -6.66699 -16.667 -10 -24 -10h-34c-5.33301 0 -9.16602 2.16699 -11.499 6.5z" />
    <glyph glyph-name="Udieresis" unicode="&#xdc;" horiz-adv-x="671" 
d="M211 20c-37.333 22 -66.835 53.167 -88.502 93.5s-32.5 86.166 -32.5 137.499v430c0 4 1.33301 7.33301 4 10s6 4 10 4h54c4 0 7.33301 -1.33301 10 -4s4 -6 4 -10v-435c0 -36 7.16699 -67.667 21.5 -95s33.833 -48.333 58.5 -63s52.667 -22 84 -22
c30.667 0 58.334 7.33301 83.001 22s44.167 35.667 58.5 63s21.5 59 21.5 95v435c0 4 1.33301 7.33301 4 10s6 4 10 4h54c4 0 7.33301 -1.33301 10 -4s4 -6 4 -10v-430c0 -51.333 -10.833 -97.166 -32.5 -137.499s-51.167 -71.5 -88.5 -93.5s-78.666 -33 -123.999 -33
c-46 0 -87.667 11 -125 33zM179.998 769c-2.66699 2.66699 -4 6 -4 10v87c0 4 1.33301 7.33301 4 10s6 4 10 4h48c4 0 7.33301 -1.33301 10 -4s4 -6 4 -10v-87c0 -4 -1.33301 -7.33301 -4 -10s-6 -4 -10 -4h-48c-4 0 -7.33301 1.33301 -10 4zM421.998 769
c-2.66699 2.66699 -4 6 -4 10v87c0 4 1.33301 7.33301 4 10s6 4 10 4h48c4 0 7.33301 -1.33301 10 -4s4 -6 4 -10v-87c0 -4 -1.33301 -7.33301 -4 -10s-6 -4 -10 -4h-48c-4 0 -7.33301 1.33301 -10 4z" />
    <glyph glyph-name="Yacute" unicode="&#xdd;" horiz-adv-x="567" 
d="M247 4c-2.66699 2.66699 -3.99805 6 -3.99805 10v321l-205 333c-2 4 -3 7.33301 -3 10c0 5.33301 1.66699 9.5 5 12.5s7.66602 4.5 12.999 4.5h54c6 0 11 -3 15 -9l162 -267l161 267c4 6 9 9 15 9h54c5.33301 0 9.66602 -1.5 12.999 -4.5s5 -7.16699 5 -12.5
c0 -2.66699 -1 -6 -3 -10l-204 -330v-324c0 -4 -1.33301 -7.33301 -4 -10s-6 -4 -10 -4h-54c-4 -0 -7.33301 1.33301 -10 4zM259.002 757.5c-2 3.66699 -1.99805 8.16699 0.00195312 13.5l37 90c5.33301 12.667 14.666 19 27.999 19h67c4 0 7.33301 -1.16699 10 -3.5
s4 -5.5 4 -9.5s-1.33301 -7.33301 -4 -10l-81 -93c-6.66699 -8 -15.334 -12 -26.001 -12h-24c-5.33301 0 -9 1.83301 -11 5.5z" />
    <glyph glyph-name="Thorn" unicode="&#xde;" horiz-adv-x="557" 
d="M94 4c-2.66699 2.66699 -4 6 -4 10v667c0 4 1.33301 7.33301 4 10s6 4 10 4h54c4 0 7.33301 -1.33301 10 -4s4 -6 4 -10v-115h122c40 0 76.667 -9.66699 110 -29s59.666 -45.333 78.999 -78s29 -68.667 29 -108s-9.66699 -75.333 -29 -108s-45.666 -58.667 -78.999 -78
s-70 -29 -110 -29h-122v-122c0 -4 -1.33301 -7.33301 -4 -10s-6 -4 -10 -4h-54c-4 -0 -7.33301 1.33301 -10 4zM289 213c25.333 0 48.666 6.16895 69.999 18.502s38.166 29.166 50.499 50.499s18.5 44.333 18.5 69s-6.16699 47.667 -18.5 69s-29.166 38.166 -50.499 50.499
s-44.666 18.5 -69.999 18.5h-117v-276h117z" />
    <glyph glyph-name="germandbls" unicode="&#xdf;" horiz-adv-x="587" 
d="M94 -189c-2.66699 2.66699 -4.00293 5.99902 -4.00293 9.99902v719c0 44.667 8.66699 84.5 26 119.5s42 62.333 74 82s69.333 29.5 112 29.5c36 0 68.5 -7 97.5 -21s51.833 -33.333 68.5 -58s25 -52.667 25 -84c0 -36 -9.16699 -66 -27.5 -90s-43.833 -49 -76.5 -75
c-17.333 -13.333 -30 -24.333 -38 -33s-12 -17.334 -12 -26.001c0 -9.33301 5 -17.833 15 -25.5s25.667 -17.167 47 -28.5c28 -14.667 51.5 -28.667 70.5 -42s35.5 -31.333 49.5 -54s21 -50.334 21 -83.001s-7.33301 -61.167 -22 -85.5s-34.834 -43 -60.501 -56
s-53.834 -19.5 -84.501 -19.5c-19.333 0 -40.166 2.33301 -62.499 7s-40.166 10.334 -53.499 17.001c-5.33301 2.66699 -8.83301 5.16699 -10.5 7.5s-2.5 5.83301 -2.5 10.5l1 44c0 4.66699 1.5 8 4.5 10s6.5 2.33301 10.5 1c42.667 -17.333 79 -26 109 -26
c27.333 0 49.666 7.66699 66.999 23s26 36.333 26 63c0 18.667 -4.66699 34.834 -14 48.501s-20.666 25 -33.999 34s-31.666 19.5 -54.999 31.5c-33.333 17.333 -58.5 33.833 -75.5 49.5s-25.5 36.5 -25.5 62.5c0 23.333 6.33301 43 19 59s32.334 34.667 59.001 56
c26 21.333 45.333 39.833 58 55.5s19 34.834 19 57.501c0 28 -10.167 51.333 -30.5 70s-48.166 28 -83.499 28c-42.667 0 -75.5 -14.333 -98.5 -43s-34.5 -69 -34.5 -121v-714c0 -4 -1.33301 -7.33301 -4 -10s-6 -4 -10 -4h-50c-4 0 -7.33301 1.33301 -10 4z" />
    <glyph glyph-name="agrave" unicode="&#xe0;" horiz-adv-x="560" 
d="M99 30.5c-32.667 29 -48.999 67.1689 -48.999 114.502c0 44 14.833 80.333 44.5 109s71.167 46.667 124.5 54l130 18c19.333 2.66699 33.333 9.16699 42 19.5s13 25.166 13 44.499v8c0 32 -12.5 57.833 -37.5 77.5s-56.167 29.5 -93.5 29.5
c-29.333 0 -54.833 -5.83301 -76.5 -17.5s-38.834 -27.834 -51.501 -48.501c-5.33301 -8.66699 -12 -13 -20 -13c-4 0 -8.33301 1.66699 -13 5l-27 18c-6 5.33301 -9 11 -9 17c0 2.66699 1 6 3 10c19.333 32 45.833 57.167 79.5 75.5s72.5 27.5 116.5 27.5
c40 0 75.667 -7.5 107 -22.5s55.5 -36.167 72.5 -63.5s25.5 -59 25.5 -95v-384c0 -4 -1.33301 -7.33301 -4 -10s-6 -4 -10 -4h-42c-4 -0 -7.33301 1.33301 -10 4s-4 6 -4 10v69c-20.667 -30 -47.167 -53.5 -79.5 -70.5s-67.5 -25.5 -105.5 -25.5
c-51.333 0 -93.333 14.5 -126 43.5zM322.001 83.002c26.667 17.333 47.499 39.168 62.499 65.501s22.5 52.166 22.5 77.499v41c-16 -2 -67.333 -9 -154 -21l-28 -4c-66.667 -10 -100 -41.333 -100 -94c0 -27.333 10 -49.333 30 -66s46 -25 78 -25
c32.667 0 62.334 8.66699 89.001 26zM247 643.004l-80.998 92.999c-2.66699 2.66699 -4 6 -4 10s1.16699 7.16699 3.5 9.5s5.83301 3.5 10.5 3.5h67c13.333 0 22.666 -6.33301 27.999 -19l37 -90c1.33301 -4 2 -6.33301 2 -7c0 -3.33301 -1.16699 -6.16602 -3.5 -8.49902
s-5.5 -3.5 -9.5 -3.5h-24c-10.667 0 -19.334 4 -26.001 12z" />
    <glyph glyph-name="aacute" unicode="&#xe1;" horiz-adv-x="560" 
d="M99 30.5c-32.667 29 -48.999 67.1689 -48.999 114.502c0 44 14.833 80.333 44.5 109s71.167 46.667 124.5 54l130 18c19.333 2.66699 33.333 9.16699 42 19.5s13 25.166 13 44.499v8c0 32 -12.5 57.833 -37.5 77.5s-56.167 29.5 -93.5 29.5
c-29.333 0 -54.833 -5.83301 -76.5 -17.5s-38.834 -27.834 -51.501 -48.501c-5.33301 -8.66699 -12 -13 -20 -13c-4 0 -8.33301 1.66699 -13 5l-27 18c-6 5.33301 -9 11 -9 17c0 2.66699 1 6 3 10c19.333 32 45.833 57.167 79.5 75.5s72.5 27.5 116.5 27.5
c40 0 75.667 -7.5 107 -22.5s55.5 -36.167 72.5 -63.5s25.5 -59 25.5 -95v-384c0 -4 -1.33301 -7.33301 -4 -10s-6 -4 -10 -4h-42c-4 -0 -7.33301 1.33301 -10 4s-4 6 -4 10v69c-20.667 -30 -47.167 -53.5 -79.5 -70.5s-67.5 -25.5 -105.5 -25.5
c-51.333 0 -93.333 14.5 -126 43.5zM322.001 83.002c26.667 17.333 47.499 39.168 62.499 65.501s22.5 52.166 22.5 77.499v41c-16 -2 -67.333 -9 -154 -21l-28 -4c-66.667 -10 -100 -41.333 -100 -94c0 -27.333 10 -49.333 30 -66s46 -25 78 -25
c32.667 0 62.334 8.66699 89.001 26zM249 636.504c-2 3.66699 -1.99805 8.16699 0.00195312 13.5l37 90c5.33301 12.667 14.666 19 27.999 19h67c4 0 7.33301 -1.16699 10 -3.5s4 -5.5 4 -9.5s-1.33301 -7.33301 -4 -10l-81 -93c-6.66699 -8 -15.334 -12 -26.001 -12h-24
c-5.33301 0 -9 1.83301 -11 5.5z" />
    <glyph glyph-name="acircumflex" unicode="&#xe2;" horiz-adv-x="560" 
d="M99 30.5c-32.667 29 -48.999 67.1689 -48.999 114.502c0 44 14.833 80.333 44.5 109s71.167 46.667 124.5 54l130 18c19.333 2.66699 33.333 9.16699 42 19.5s13 25.166 13 44.499v8c0 32 -12.5 57.833 -37.5 77.5s-56.167 29.5 -93.5 29.5
c-29.333 0 -54.833 -5.83301 -76.5 -17.5s-38.834 -27.834 -51.501 -48.501c-5.33301 -8.66699 -12 -13 -20 -13c-4 0 -8.33301 1.66699 -13 5l-27 18c-6 5.33301 -9 11 -9 17c0 2.66699 1 6 3 10c19.333 32 45.833 57.167 79.5 75.5s72.5 27.5 116.5 27.5
c40 0 75.667 -7.5 107 -22.5s55.5 -36.167 72.5 -63.5s25.5 -59 25.5 -95v-384c0 -4 -1.33301 -7.33301 -4 -10s-6 -4 -10 -4h-42c-4 -0 -7.33301 1.33301 -10 4s-4 6 -4 10v69c-20.667 -30 -47.167 -53.5 -79.5 -70.5s-67.5 -25.5 -105.5 -25.5
c-51.333 0 -93.333 14.5 -126 43.5zM322.001 83.002c26.667 17.333 47.499 39.168 62.499 65.501s22.5 52.166 22.5 77.499v41c-16 -2 -67.333 -9 -154 -21l-28 -4c-66.667 -10 -100 -41.333 -100 -94c0 -27.333 10 -49.333 30 -66s46 -25 78 -25
c32.667 0 62.334 8.66699 89.001 26zM141.5 637.504c-2.33301 4.33301 -1.83398 8.49902 1.49902 12.499l81 100c4 6 10 9 18 9h64c8 0 14 -3 18 -9l81 -100c2 -2 3 -4.33301 3 -7c0 -3.33301 -1.16699 -6.16602 -3.5 -8.49902s-5.5 -3.5 -9.5 -3.5h-33
c-8 0 -16.333 3.33301 -25 10l-63 49l-63 -49c-8.66699 -6.66699 -16.667 -10 -24 -10h-34c-5.33301 0 -9.16602 2.16699 -11.499 6.5z" />
    <glyph glyph-name="atilde" unicode="&#xe3;" horiz-adv-x="560" 
d="M99 30.5c-32.667 29 -48.999 67.1689 -48.999 114.502c0 44 14.833 80.333 44.5 109s71.167 46.667 124.5 54l130 18c19.333 2.66699 33.333 9.16699 42 19.5s13 25.166 13 44.499v8c0 32 -12.5 57.833 -37.5 77.5s-56.167 29.5 -93.5 29.5
c-29.333 0 -54.833 -5.83301 -76.5 -17.5s-38.834 -27.834 -51.501 -48.501c-5.33301 -8.66699 -12 -13 -20 -13c-4 0 -8.33301 1.66699 -13 5l-27 18c-6 5.33301 -9 11 -9 17c0 2.66699 1 6 3 10c19.333 32 45.833 57.167 79.5 75.5s72.5 27.5 116.5 27.5
c40 0 75.667 -7.5 107 -22.5s55.5 -36.167 72.5 -63.5s25.5 -59 25.5 -95v-384c0 -4 -1.33301 -7.33301 -4 -10s-6 -4 -10 -4h-42c-4 -0 -7.33301 1.33301 -10 4s-4 6 -4 10v69c-20.667 -30 -47.167 -53.5 -79.5 -70.5s-67.5 -25.5 -105.5 -25.5
c-51.333 0 -93.333 14.5 -126 43.5zM322.001 83.002c26.667 17.333 47.499 39.168 62.499 65.501s22.5 52.166 22.5 77.499v41c-16 -2 -67.333 -9 -154 -21l-28 -4c-66.667 -10 -100 -41.333 -100 -94c0 -27.333 10 -49.333 30 -66s46 -25 78 -25
c32.667 0 62.334 8.66699 89.001 26zM305.5 648.004c-11.667 3.33301 -25.499 7.99707 -41.499 13.9971c-26.667 9.33301 -44 14 -52 14c-8.66699 0 -15.5 -1.33301 -20.5 -4s-9.5 -7 -13.5 -13c-2 -3.33301 -3.83301 -5.16602 -5.5 -5.49902s-4.5 -0.166016 -8.5 0.500977
l-28 9c-6 2 -8.66699 6.33301 -8 13c5.33301 20.667 16.833 37.5 34.5 50.5s37.834 19.5 60.501 19.5c11.333 0 22.666 -1.66699 33.999 -5s25.666 -8 42.999 -14c24.667 -10 42 -15 52 -15c14.667 0 25.667 5.66699 33 17c2.66699 3.33301 5 5.33301 7 6
s5 0.333984 9 -0.999023l27 -8c7.33301 -2.66699 10 -7 8 -13c-4.66699 -20.667 -16 -37.5 -34 -50.5s-38.667 -19.5 -62 -19.5c-11.333 0 -22.833 1.66699 -34.5 5z" />
    <glyph glyph-name="adieresis" unicode="&#xe4;" horiz-adv-x="560" 
d="M99 30.5c-32.667 29 -48.999 67.1689 -48.999 114.502c0 44 14.833 80.333 44.5 109s71.167 46.667 124.5 54l130 18c19.333 2.66699 33.333 9.16699 42 19.5s13 25.166 13 44.499v8c0 32 -12.5 57.833 -37.5 77.5s-56.167 29.5 -93.5 29.5
c-29.333 0 -54.833 -5.83301 -76.5 -17.5s-38.834 -27.834 -51.501 -48.501c-5.33301 -8.66699 -12 -13 -20 -13c-4 0 -8.33301 1.66699 -13 5l-27 18c-6 5.33301 -9 11 -9 17c0 2.66699 1 6 3 10c19.333 32 45.833 57.167 79.5 75.5s72.5 27.5 116.5 27.5
c40 0 75.667 -7.5 107 -22.5s55.5 -36.167 72.5 -63.5s25.5 -59 25.5 -95v-384c0 -4 -1.33301 -7.33301 -4 -10s-6 -4 -10 -4h-42c-4 -0 -7.33301 1.33301 -10 4s-4 6 -4 10v69c-20.667 -30 -47.167 -53.5 -79.5 -70.5s-67.5 -25.5 -105.5 -25.5
c-51.333 0 -93.333 14.5 -126 43.5zM322.001 83.002c26.667 17.333 47.499 39.168 62.499 65.501s22.5 52.166 22.5 77.499v41c-16 -2 -67.333 -9 -154 -21l-28 -4c-66.667 -10 -100 -41.333 -100 -94c0 -27.333 10 -49.333 30 -66s46 -25 78 -25
c32.667 0 62.334 8.66699 89.001 26zM119 648.004c-2.66699 2.66699 -4 6 -4 10v87c0 4 1.33301 7.33301 4 10s6 4 10 4h48c4 0 7.33301 -1.33301 10 -4s4 -6 4 -10v-87c0 -4 -1.33301 -7.33301 -4 -10s-6 -4 -10 -4h-48c-4 0 -7.33301 1.33301 -10 4zM361 648.004
c-2.66699 2.66699 -4 6 -4 10v87c0 4 1.33301 7.33301 4 10s6 4 10 4h48c4 0 7.33301 -1.33301 10 -4s4 -6 4 -10v-87c0 -4 -1.33301 -7.33301 -4 -10s-6 -4 -10 -4h-48c-4 0 -7.33301 1.33301 -10 4z" />
    <glyph glyph-name="aring" unicode="&#xe5;" horiz-adv-x="560" 
d="M99 30.5c-32.667 29 -48.999 67.1689 -48.999 114.502c0 44 14.833 80.333 44.5 109s71.167 46.667 124.5 54l130 18c19.333 2.66699 33.333 9.16699 42 19.5s13 25.166 13 44.499v8c0 32 -12.5 57.833 -37.5 77.5s-56.167 29.5 -93.5 29.5
c-29.333 0 -54.833 -5.83301 -76.5 -17.5s-38.834 -27.834 -51.501 -48.501c-5.33301 -8.66699 -12 -13 -20 -13c-4 0 -8.33301 1.66699 -13 5l-27 18c-6 5.33301 -9 11 -9 17c0 2.66699 1 6 3 10c19.333 32 45.833 57.167 79.5 75.5s72.5 27.5 116.5 27.5
c40 0 75.667 -7.5 107 -22.5s55.5 -36.167 72.5 -63.5s25.5 -59 25.5 -95v-384c0 -4 -1.33301 -7.33301 -4 -10s-6 -4 -10 -4h-42c-4 -0 -7.33301 1.33301 -10 4s-4 6 -4 10v69c-20.667 -30 -47.167 -53.5 -79.5 -70.5s-67.5 -25.5 -105.5 -25.5
c-51.333 0 -93.333 14.5 -126 43.5zM322.001 83.002c26.667 17.333 47.499 39.168 62.499 65.501s22.5 52.166 22.5 77.499v41c-16 -2 -67.333 -9 -154 -21l-28 -4c-66.667 -10 -100 -41.333 -100 -94c0 -27.333 10 -49.333 30 -66s46 -25 78 -25
c32.667 0 62.334 8.66699 89.001 26zM216 641.004c-16 16 -24 35.333 -24 58s8 42 24 58s35.333 24 58 24s42 -8 58 -24s24 -35.333 24 -58s-8 -42 -24 -58s-35.333 -24 -58 -24s-42 8 -58 24zM294.5 678.504c5.66699 5.66699 8.5 12.5 8.5 20.5s-2.83301 14.833 -8.5 20.5
s-12.5 8.5 -20.5 8.5s-14.833 -2.83301 -20.5 -8.5s-8.5 -12.5 -8.5 -20.5s2.83301 -14.833 8.5 -20.5s12.5 -8.5 20.5 -8.5s14.833 2.83301 20.5 8.5z" />
    <glyph glyph-name="ae" unicode="&#xe6;" horiz-adv-x="899" 
d="M99 30.5c-32.667 29 -48.9961 67.168 -48.9961 114.501c0 44 14.833 80.333 44.5 109s71.167 46.667 124.5 54l130 18c19.333 2.66699 33.333 9.16699 42 19.5s13 25.166 13 44.499v8c0 32 -12.5 57.833 -37.5 77.5s-56.167 29.5 -93.5 29.5
c-29.333 0 -54.833 -5.83301 -76.5 -17.5s-38.834 -27.834 -51.501 -48.501c-5.33301 -8.66699 -12 -13 -20 -13c-4 0 -8.33301 1.66699 -13 5l-27 18c-6 5.33301 -9 11 -9 17c0 2.66699 1 6 3 10c19.333 32 45.833 57.167 79.5 75.5s72.5 27.5 116.5 27.5
c40 0 75.333 -7.33301 106 -22s54.667 -35.334 72 -62.001c20 26 44.833 46.5 74.5 61.5s61.834 22.5 96.501 22.5c39.333 0 75.666 -9.66699 108.999 -29s59.666 -45.833 78.999 -79.5s29 -70.167 29 -109.5v-68c0 -10 -3.5 -18.5 -10.5 -25.5s-15.5 -10.5 -25.5 -10.5
h-320v-44c0 -25.333 6.16699 -48.666 18.5 -69.999s29.166 -38.166 50.499 -50.499s44.666 -18.5 69.999 -18.5h145c4 0 7.33301 -1.33301 10 -4s4 -6 4 -10v-46c0 -4 -1.33301 -7.33301 -4 -10s-6 -4 -10 -4h-145c-40 -0 -76.667 9.83301 -110 29.5
s-59.333 46.167 -78 79.5c-20.667 -37.333 -50 -67 -88 -89s-79 -33 -123 -33c-51.333 0 -93.333 14.5 -126 43.5zM763.004 329.001l-0.00390625 37c0 25.333 -6.16699 48.666 -18.5 69.999s-29.166 38.166 -50.499 50.499s-44.666 18.5 -69.999 18.5
s-48.666 -6.16699 -69.999 -18.5s-38.166 -29.166 -50.499 -50.499s-18.5 -44.666 -18.5 -69.999v-37h278zM322 83.001c26.667 17.333 47.499 39.168 62.499 65.501s22.5 52.166 22.5 77.499v41c-16 -2 -67.333 -9 -154 -21l-28 -4c-66.667 -10 -100 -41.333 -100 -94
c0 -27.333 10 -49.333 30 -66s46 -25 78 -25c32.667 0 62.334 8.66699 89.001 26z" />
    <glyph glyph-name="ccedilla" unicode="&#xe7;" horiz-adv-x="492" 
d="M173 16c-33.333 19.333 -59.665 45.832 -78.998 79.499s-29 70.167 -29 109.5v156c0 39.333 9.66699 75.833 29 109.5s45.666 60.167 78.999 79.5s69.666 29 108.999 29c28.667 0 55.834 -5.33301 81.501 -16s48.167 -25.334 67.5 -44.001c4 -4 6 -8.66699 6 -14
c0 -4.66699 -2 -9.66699 -6 -15c-6.66699 -7.33301 -14.334 -15 -23.001 -23c-4.66699 -4 -9.66699 -6 -15 -6c-6 0 -11.333 2.33301 -16 7c-26.667 24.667 -58.334 37 -95.001 37c-25.333 0 -48.666 -6.16699 -69.999 -18.5s-38.166 -29.166 -50.499 -50.499
s-18.5 -44.666 -18.5 -69.999v-166c0 -25.333 6.16699 -48.666 18.5 -69.999s29.166 -38.166 50.499 -50.499s44.666 -18.5 69.999 -18.5c36.667 0 68.334 12.333 95.001 37c4.66699 4.66699 10 7 16 7c5.33301 0 10.333 -2 15 -6c8 -6.66699 15.667 -14.334 23 -23.001
c4 -4 6 -9 6 -15c0 -5.33301 -2 -10 -6 -14c-19.333 -18.667 -41.833 -33.334 -67.5 -44.001s-52.834 -16 -81.501 -16c-39.333 0 -75.666 9.66699 -108.999 29zM230.001 -209.001c-7.33301 0 -12.667 3.33008 -16 9.99707l-14 35c-0.666992 1.33301 -1 3 -1 5
c0 4.66699 3 8.33398 9 11.001c22 8.66699 33 25.334 33 50.001v19c0 4 1.16699 7.33301 3.5 10s5.5 4 9.5 4h52c4.66699 0 8.66699 -1.66699 12 -5s5 -7.66602 5 -12.999v-11c0 -32 -9.33301 -57.5 -28 -76.5s-39 -31.833 -61 -38.5h-4z" />
    <glyph glyph-name="egrave" unicode="&#xe8;" horiz-adv-x="557" 
d="M173 29c-33.333 19.333 -59.6621 45.8311 -78.9951 79.498s-29 70.167 -29 109.5v143c0 39.333 9.66699 75.833 29 109.5s45.666 60.167 78.999 79.5s69.666 29 108.999 29s75.666 -9.66699 108.999 -29s59.666 -45.833 78.999 -79.5s29 -70.167 29 -109.5v-68
c0 -10 -3.5 -18.5 -10.5 -25.5s-15.5 -10.5 -25.5 -10.5h-320v-44c0 -25.333 6.16699 -48.666 18.5 -69.999s29.166 -38.166 50.499 -50.499s44.666 -18.5 69.999 -18.5h145c4 0 7.33301 -1.33301 10 -4s4 -6 4 -10v-46c0 -4 -1.33301 -7.33301 -4 -10s-6 -4 -10 -4h-145
c-39.333 0 -75.666 9.66699 -108.999 29zM421.004 328.998l-0.00390625 37c0 25.333 -6.16699 48.666 -18.5 69.999s-29.166 38.166 -50.499 50.499s-44.666 18.5 -69.999 18.5s-48.666 -6.16699 -69.999 -18.5s-38.166 -29.166 -50.499 -50.499
s-18.5 -44.666 -18.5 -69.999v-37h278zM255 642.998l-80.998 92.999c-2.66699 2.66699 -4 6 -4 10s1.16699 7.16699 3.5 9.5s5.83301 3.5 10.5 3.5h67c13.333 0 22.666 -6.33301 27.999 -19l37 -90c1.33301 -4 2 -6.33301 2 -7c0 -3.33301 -1.16699 -6.16602 -3.5 -8.49902
s-5.5 -3.5 -9.5 -3.5h-24c-10.667 0 -19.334 4 -26.001 12z" />
    <glyph glyph-name="eacute" unicode="&#xe9;" horiz-adv-x="557" 
d="M173 29c-33.333 19.333 -59.6621 45.8311 -78.9951 79.498s-29 70.167 -29 109.5v143c0 39.333 9.66699 75.833 29 109.5s45.666 60.167 78.999 79.5s69.666 29 108.999 29s75.666 -9.66699 108.999 -29s59.666 -45.833 78.999 -79.5s29 -70.167 29 -109.5v-68
c0 -10 -3.5 -18.5 -10.5 -25.5s-15.5 -10.5 -25.5 -10.5h-320v-44c0 -25.333 6.16699 -48.666 18.5 -69.999s29.166 -38.166 50.499 -50.499s44.666 -18.5 69.999 -18.5h145c4 0 7.33301 -1.33301 10 -4s4 -6 4 -10v-46c0 -4 -1.33301 -7.33301 -4 -10s-6 -4 -10 -4h-145
c-39.333 0 -75.666 9.66699 -108.999 29zM421.004 328.998l-0.00390625 37c0 25.333 -6.16699 48.666 -18.5 69.999s-29.166 38.166 -50.499 50.499s-44.666 18.5 -69.999 18.5s-48.666 -6.16699 -69.999 -18.5s-38.166 -29.166 -50.499 -50.499
s-18.5 -44.666 -18.5 -69.999v-37h278zM257 636.498c-2 3.66699 -1.99805 8.16699 0.00195312 13.5l37 90c5.33301 12.667 14.666 19 27.999 19h67c4 0 7.33301 -1.16699 10 -3.5s4 -5.5 4 -9.5s-1.33301 -7.33301 -4 -10l-81 -93c-6.66699 -8 -15.334 -12 -26.001 -12h-24
c-5.33301 0 -9 1.83301 -11 5.5z" />
    <glyph glyph-name="ecircumflex" unicode="&#xea;" horiz-adv-x="557" 
d="M173 29c-33.333 19.333 -59.6621 45.8311 -78.9951 79.498s-29 70.167 -29 109.5v143c0 39.333 9.66699 75.833 29 109.5s45.666 60.167 78.999 79.5s69.666 29 108.999 29s75.666 -9.66699 108.999 -29s59.666 -45.833 78.999 -79.5s29 -70.167 29 -109.5v-68
c0 -10 -3.5 -18.5 -10.5 -25.5s-15.5 -10.5 -25.5 -10.5h-320v-44c0 -25.333 6.16699 -48.666 18.5 -69.999s29.166 -38.166 50.499 -50.499s44.666 -18.5 69.999 -18.5h145c4 0 7.33301 -1.33301 10 -4s4 -6 4 -10v-46c0 -4 -1.33301 -7.33301 -4 -10s-6 -4 -10 -4h-145
c-39.333 0 -75.666 9.66699 -108.999 29zM421.004 328.998l-0.00390625 37c0 25.333 -6.16699 48.666 -18.5 69.999s-29.166 38.166 -50.499 50.499s-44.666 18.5 -69.999 18.5s-48.666 -6.16699 -69.999 -18.5s-38.166 -29.166 -50.499 -50.499
s-18.5 -44.666 -18.5 -69.999v-37h278zM149.5 637.498c-2.33301 4.33301 -1.83398 8.49902 1.49902 12.499l81 100c4 6 10 9 18 9h64c8 0 14 -3 18 -9l81 -100c2 -2 3 -4.33301 3 -7c0 -3.33301 -1.16699 -6.16602 -3.5 -8.49902s-5.5 -3.5 -9.5 -3.5h-33
c-8 0 -16.333 3.33301 -25 10l-63 49l-63 -49c-8.66699 -6.66699 -16.667 -10 -24 -10h-34c-5.33301 0 -9.16602 2.16699 -11.499 6.5z" />
    <glyph glyph-name="edieresis" unicode="&#xeb;" horiz-adv-x="557" 
d="M173 29c-33.333 19.333 -59.6621 45.8311 -78.9951 79.498s-29 70.167 -29 109.5v143c0 39.333 9.66699 75.833 29 109.5s45.666 60.167 78.999 79.5s69.666 29 108.999 29s75.666 -9.66699 108.999 -29s59.666 -45.833 78.999 -79.5s29 -70.167 29 -109.5v-68
c0 -10 -3.5 -18.5 -10.5 -25.5s-15.5 -10.5 -25.5 -10.5h-320v-44c0 -25.333 6.16699 -48.666 18.5 -69.999s29.166 -38.166 50.499 -50.499s44.666 -18.5 69.999 -18.5h145c4 0 7.33301 -1.33301 10 -4s4 -6 4 -10v-46c0 -4 -1.33301 -7.33301 -4 -10s-6 -4 -10 -4h-145
c-39.333 0 -75.666 9.66699 -108.999 29zM421.004 328.998l-0.00390625 37c0 25.333 -6.16699 48.666 -18.5 69.999s-29.166 38.166 -50.499 50.499s-44.666 18.5 -69.999 18.5s-48.666 -6.16699 -69.999 -18.5s-38.166 -29.166 -50.499 -50.499
s-18.5 -44.666 -18.5 -69.999v-37h278zM127 647.998c-2.66699 2.66699 -4 6 -4 10v87c0 4 1.33301 7.33301 4 10s6 4 10 4h48c4 0 7.33301 -1.33301 10 -4s4 -6 4 -10v-87c0 -4 -1.33301 -7.33301 -4 -10s-6 -4 -10 -4h-48c-4 0 -7.33301 1.33301 -10 4zM369 647.998
c-2.66699 2.66699 -4 6 -4 10v87c0 4 1.33301 7.33301 4 10s6 4 10 4h48c4 0 7.33301 -1.33301 10 -4s4 -6 4 -10v-87c0 -4 -1.33301 -7.33301 -4 -10s-6 -4 -10 -4h-48c-4 0 -7.33301 1.33301 -10 4z" />
    <glyph glyph-name="igrave" unicode="&#xec;" horiz-adv-x="393" 
d="M173.5 10.5c-7 7 -10.5 15.5 -10.5 25.5v456h-104c-4 0 -7.33301 1.33301 -10 4s-4 6 -4 10v46c0 4 1.33301 7.33301 4 10s6 4 10 4h146c10 0 18.5 -3.5 25.5 -10.5s10.5 -15.5 10.5 -25.5v-456h103c4 0 7.33301 -1.33301 10 -4s4 -6 4 -10v-46
c0 -4 -1.33301 -7.33301 -4 -10s-6 -4 -10 -4h-145c-10 0 -18.5 3.5 -25.5 10.5zM164 643l-80.998 92.999c-2.66699 2.66699 -4 6 -4 10s1.16699 7.16699 3.5 9.5s5.83301 3.5 10.5 3.5h67c13.333 0 22.666 -6.33301 27.999 -19l37 -90c1.33301 -4 2 -6.33301 2 -7
c0 -3.33301 -1.16699 -6.16602 -3.5 -8.49902s-5.5 -3.5 -9.5 -3.5h-24c-10.667 0 -19.334 4 -26.001 12z" />
    <glyph glyph-name="iacute" unicode="&#xed;" horiz-adv-x="393" 
d="M173.5 10.5c-7 7 -10.5 15.5 -10.5 25.5v456h-104c-4 0 -7.33301 1.33301 -10 4s-4 6 -4 10v46c0 4 1.33301 7.33301 4 10s6 4 10 4h146c10 0 18.5 -3.5 25.5 -10.5s10.5 -15.5 10.5 -25.5v-456h103c4 0 7.33301 -1.33301 10 -4s4 -6 4 -10v-46
c0 -4 -1.33301 -7.33301 -4 -10s-6 -4 -10 -4h-145c-10 0 -18.5 3.5 -25.5 10.5zM166 636.5c-2 3.66699 -1.99805 8.16699 0.00195312 13.5l37 90c5.33301 12.667 14.666 19 27.999 19h67c4 0 7.33301 -1.16699 10 -3.5s4 -5.5 4 -9.5s-1.33301 -7.33301 -4 -10l-81 -93
c-6.66699 -8 -15.334 -12 -26.001 -12h-24c-5.33301 0 -9 1.83301 -11 5.5z" />
    <glyph glyph-name="icircumflex" unicode="&#xee;" horiz-adv-x="393" 
d="M173.5 10.5c-7 7 -10.5 15.5 -10.5 25.5v456h-104c-4 0 -7.33301 1.33301 -10 4s-4 6 -4 10v46c0 4 1.33301 7.33301 4 10s6 4 10 4h146c10 0 18.5 -3.5 25.5 -10.5s10.5 -15.5 10.5 -25.5v-456h103c4 0 7.33301 -1.33301 10 -4s4 -6 4 -10v-46
c0 -4 -1.33301 -7.33301 -4 -10s-6 -4 -10 -4h-145c-10 0 -18.5 3.5 -25.5 10.5zM58.5 637.5c-2.33301 4.33301 -1.83398 8.49902 1.49902 12.499l81 100c4 6 10 9 18 9h64c8 0 14 -3 18 -9l81 -100c2 -2 3 -4.33301 3 -7c0 -3.33301 -1.16699 -6.16602 -3.5 -8.49902
s-5.5 -3.5 -9.5 -3.5h-33c-8 0 -16.333 3.33301 -25 10l-63 49l-63 -49c-8.66699 -6.66699 -16.667 -10 -24 -10h-34c-5.33301 0 -9.16602 2.16699 -11.499 6.5z" />
    <glyph glyph-name="idieresis" unicode="&#xef;" horiz-adv-x="393" 
d="M173.5 10.5c-7 7 -10.5 15.5 -10.5 25.5v456h-104c-4 0 -7.33301 1.33301 -10 4s-4 6 -4 10v46c0 4 1.33301 7.33301 4 10s6 4 10 4h146c10 0 18.5 -3.5 25.5 -10.5s10.5 -15.5 10.5 -25.5v-456h103c4 0 7.33301 -1.33301 10 -4s4 -6 4 -10v-46
c0 -4 -1.33301 -7.33301 -4 -10s-6 -4 -10 -4h-145c-10 0 -18.5 3.5 -25.5 10.5zM36 648c-2.66699 2.66699 -4 6 -4 10v87c0 4 1.33301 7.33301 4 10s6 4 10 4h48c4 0 7.33301 -1.33301 10 -4s4 -6 4 -10v-87c0 -4 -1.33301 -7.33301 -4 -10s-6 -4 -10 -4h-48
c-4 0 -7.33301 1.33301 -10 4zM278 648c-2.66699 2.66699 -4 6 -4 10v87c0 4 1.33301 7.33301 4 10s6 4 10 4h48c4 0 7.33301 -1.33301 10 -4s4 -6 4 -10v-87c0 -4 -1.33301 -7.33301 -4 -10s-6 -4 -10 -4h-48c-4 0 -7.33301 1.33301 -10 4z" />
    <glyph glyph-name="eth" unicode="&#xf0;" horiz-adv-x="574" 
d="M173 16c-33.333 19.333 -59.668 45.833 -79.001 79.5s-29 70.167 -29 109.5v103c0 40 9.66699 76.667 29 110s45.666 59.666 78.999 78.999s69.666 29 108.999 29c46.667 0 89 -13.667 127 -41c-12.667 54.667 -38.334 100.334 -77.001 137.001l-138 -65
c-1.33301 -0.666992 -3 -1 -5 -1c-3.33301 0 -6.16602 1.16699 -8.49902 3.5s-3.5 5.16602 -3.5 8.49902v40c0 3.33301 1 6.66602 3 9.99902s4.66699 5.66602 8 6.99902l81 38c-34 15.333 -71.333 23 -112 23c-3.33301 0 -6.33301 1.5 -9 4.5s-4 6.16699 -4 9.5v45
c0 4 1.33301 7.33301 4 10s6.33398 4 11.001 4c73.333 0 137.333 -19.333 192 -58l121 57c1.33301 0.666992 3 1 5 1c3.33301 0 6.16602 -1.16699 8.49902 -3.5s3.5 -5.16602 3.5 -8.49902v-40c0 -3.33301 -1 -6.66602 -3 -9.99902s-4.66699 -5.66602 -8 -6.99902l-75 -35
c20 -21.333 38.333 -48.333 55 -81c16 -34 26.833 -71.5 32.5 -112.5s8.5 -89.5 8.5 -145.5v-111c0 -39.333 -9.66699 -75.833 -29 -109.5s-45.666 -60.167 -78.999 -79.5s-69.666 -29 -108.999 -29s-75.666 9.66699 -108.999 29zM351.998 79.5
c21.333 12.333 38.166 29.166 50.499 50.499s18.5 44.666 18.5 69.999v113c0 25.333 -6.16699 48.666 -18.5 69.999s-29.166 38.166 -50.499 50.499s-44.666 18.5 -69.999 18.5s-48.666 -6.16699 -69.999 -18.5s-38.166 -29.166 -50.499 -50.499
s-18.5 -44.666 -18.5 -69.999v-113c0 -25.333 6.16699 -48.666 18.5 -69.999s29.166 -38.166 50.499 -50.499s44.666 -18.5 69.999 -18.5s48.666 6.16699 69.999 18.5z" />
    <glyph glyph-name="ntilde" unicode="&#xf1;" horiz-adv-x="594" 
d="M94 5c-2.66699 2.66699 -4.00098 6 -4.00098 10v537c0 4 1.33301 7.33301 4 10s6 4 10 4h50c4 0 7.33301 -1.33301 10 -4s4 -6 4 -10v-55c17.333 27.333 39.833 48 67.5 62s58.834 21 93.501 21c56.667 0 102.5 -17.333 137.5 -52s52.5 -80.334 52.5 -137.001v-376
c0 -4 -1.33301 -7.33301 -4 -10s-6 -4 -10 -4h-50c-4 0 -7.33301 1.33301 -10 4s-4 6 -4 10v361c0 42.667 -11.167 75.167 -33.5 97.5s-52.5 33.5 -90.5 33.5c-44.667 0 -80.667 -14.667 -108 -44s-41 -69.666 -41 -120.999v-327c0 -4 -1.33301 -7.33301 -4 -10
s-6 -4 -10 -4h-50c-4 0 -7.33301 1.33301 -10 4zM336.499 648c-11.667 3.33301 -25.499 7.99707 -41.499 13.9971c-26.667 9.33301 -44 14 -52 14c-8.66699 0 -15.5 -1.33301 -20.5 -4s-9.5 -7 -13.5 -13c-2 -3.33301 -3.83301 -5.16602 -5.5 -5.49902
s-4.5 -0.166016 -8.5 0.500977l-28 9c-6 2 -8.66699 6.33301 -8 13c5.33301 20.667 16.833 37.5 34.5 50.5s37.834 19.5 60.501 19.5c11.333 0 22.666 -1.66699 33.999 -5s25.666 -8 42.999 -14c24.667 -10 42 -15 52 -15c14.667 0 25.667 5.66699 33 17
c2.66699 3.33301 5 5.33301 7 6s5 0.333984 9 -0.999023l27 -8c7.33301 -2.66699 10 -7 8 -13c-4.66699 -20.667 -16 -37.5 -34 -50.5s-38.667 -19.5 -62 -19.5c-11.333 0 -22.833 1.66699 -34.5 5z" />
    <glyph glyph-name="ograve" unicode="&#xf2;" horiz-adv-x="564" 
d="M173 16c-33.333 19.333 -59.666 45.833 -78.999 79.5s-29 70.167 -29 109.5v156c0 39.333 9.66699 75.833 29 109.5s45.666 60.167 78.999 79.5s69.666 29 108.999 29s75.666 -9.66699 108.999 -29s59.666 -45.833 78.999 -79.5s29 -70.167 29 -109.5v-156
c0 -39.333 -9.66699 -75.833 -29 -109.5s-45.666 -60.167 -78.999 -79.5s-69.666 -29 -108.999 -29s-75.666 9.66699 -108.999 29zM352 79.5c21.333 12.333 38.166 29.166 50.499 50.499s18.5 44.666 18.5 69.999v166c0 25.333 -6.16699 48.666 -18.5 69.999
s-29.166 38.166 -50.499 50.499s-44.666 18.5 -69.999 18.5s-48.666 -6.16699 -69.999 -18.5s-38.166 -29.166 -50.499 -50.499s-18.5 -44.666 -18.5 -69.999v-166c0 -25.333 6.16699 -48.666 18.5 -69.999s29.166 -38.166 50.499 -50.499s44.666 -18.5 69.999 -18.5
s48.666 6.16699 69.999 18.5zM253 643l-80.998 92.999c-2.66699 2.66699 -4 6 -4 10s1.16699 7.16699 3.5 9.5s5.83301 3.5 10.5 3.5h67c13.333 0 22.666 -6.33301 27.999 -19l37 -90c1.33301 -4 2 -6.33301 2 -7c0 -3.33301 -1.16699 -6.16602 -3.5 -8.49902
s-5.5 -3.5 -9.5 -3.5h-24c-10.667 0 -19.334 4 -26.001 12z" />
    <glyph glyph-name="oacute" unicode="&#xf3;" horiz-adv-x="564" 
d="M173 16c-33.333 19.333 -59.666 45.833 -78.999 79.5s-29 70.167 -29 109.5v156c0 39.333 9.66699 75.833 29 109.5s45.666 60.167 78.999 79.5s69.666 29 108.999 29s75.666 -9.66699 108.999 -29s59.666 -45.833 78.999 -79.5s29 -70.167 29 -109.5v-156
c0 -39.333 -9.66699 -75.833 -29 -109.5s-45.666 -60.167 -78.999 -79.5s-69.666 -29 -108.999 -29s-75.666 9.66699 -108.999 29zM352 79.5c21.333 12.333 38.166 29.166 50.499 50.499s18.5 44.666 18.5 69.999v166c0 25.333 -6.16699 48.666 -18.5 69.999
s-29.166 38.166 -50.499 50.499s-44.666 18.5 -69.999 18.5s-48.666 -6.16699 -69.999 -18.5s-38.166 -29.166 -50.499 -50.499s-18.5 -44.666 -18.5 -69.999v-166c0 -25.333 6.16699 -48.666 18.5 -69.999s29.166 -38.166 50.499 -50.499s44.666 -18.5 69.999 -18.5
s48.666 6.16699 69.999 18.5zM255 636.5c-2 3.66699 -1.99805 8.16699 0.00195312 13.5l37 90c5.33301 12.667 14.666 19 27.999 19h67c4 0 7.33301 -1.16699 10 -3.5s4 -5.5 4 -9.5s-1.33301 -7.33301 -4 -10l-81 -93c-6.66699 -8 -15.334 -12 -26.001 -12h-24
c-5.33301 0 -9 1.83301 -11 5.5z" />
    <glyph glyph-name="ocircumflex" unicode="&#xf4;" horiz-adv-x="564" 
d="M173 16c-33.333 19.333 -59.666 45.833 -78.999 79.5s-29 70.167 -29 109.5v156c0 39.333 9.66699 75.833 29 109.5s45.666 60.167 78.999 79.5s69.666 29 108.999 29s75.666 -9.66699 108.999 -29s59.666 -45.833 78.999 -79.5s29 -70.167 29 -109.5v-156
c0 -39.333 -9.66699 -75.833 -29 -109.5s-45.666 -60.167 -78.999 -79.5s-69.666 -29 -108.999 -29s-75.666 9.66699 -108.999 29zM352 79.5c21.333 12.333 38.166 29.166 50.499 50.499s18.5 44.666 18.5 69.999v166c0 25.333 -6.16699 48.666 -18.5 69.999
s-29.166 38.166 -50.499 50.499s-44.666 18.5 -69.999 18.5s-48.666 -6.16699 -69.999 -18.5s-38.166 -29.166 -50.499 -50.499s-18.5 -44.666 -18.5 -69.999v-166c0 -25.333 6.16699 -48.666 18.5 -69.999s29.166 -38.166 50.499 -50.499s44.666 -18.5 69.999 -18.5
s48.666 6.16699 69.999 18.5zM147.5 637.5c-2.33301 4.33301 -1.83398 8.49902 1.49902 12.499l81 100c4 6 10 9 18 9h64c8 0 14 -3 18 -9l81 -100c2 -2 3 -4.33301 3 -7c0 -3.33301 -1.16699 -6.16602 -3.5 -8.49902s-5.5 -3.5 -9.5 -3.5h-33c-8 0 -16.333 3.33301 -25 10
l-63 49l-63 -49c-8.66699 -6.66699 -16.667 -10 -24 -10h-34c-5.33301 0 -9.16602 2.16699 -11.499 6.5z" />
    <glyph glyph-name="otilde" unicode="&#xf5;" horiz-adv-x="564" 
d="M173 16c-33.333 19.333 -59.666 45.833 -78.999 79.5s-29 70.167 -29 109.5v156c0 39.333 9.66699 75.833 29 109.5s45.666 60.167 78.999 79.5s69.666 29 108.999 29s75.666 -9.66699 108.999 -29s59.666 -45.833 78.999 -79.5s29 -70.167 29 -109.5v-156
c0 -39.333 -9.66699 -75.833 -29 -109.5s-45.666 -60.167 -78.999 -79.5s-69.666 -29 -108.999 -29s-75.666 9.66699 -108.999 29zM352 79.5c21.333 12.333 38.166 29.166 50.499 50.499s18.5 44.666 18.5 69.999v166c0 25.333 -6.16699 48.666 -18.5 69.999
s-29.166 38.166 -50.499 50.499s-44.666 18.5 -69.999 18.5s-48.666 -6.16699 -69.999 -18.5s-38.166 -29.166 -50.499 -50.499s-18.5 -44.666 -18.5 -69.999v-166c0 -25.333 6.16699 -48.666 18.5 -69.999s29.166 -38.166 50.499 -50.499s44.666 -18.5 69.999 -18.5
s48.666 6.16699 69.999 18.5zM311.5 648c-11.667 3.33301 -25.499 7.99707 -41.499 13.9971c-26.667 9.33301 -44 14 -52 14c-8.66699 0 -15.5 -1.33301 -20.5 -4s-9.5 -7 -13.5 -13c-2 -3.33301 -3.83301 -5.16602 -5.5 -5.49902s-4.5 -0.166016 -8.5 0.500977l-28 9
c-6 2 -8.66699 6.33301 -8 13c5.33301 20.667 16.833 37.5 34.5 50.5s37.834 19.5 60.501 19.5c11.333 0 22.666 -1.66699 33.999 -5s25.666 -8 42.999 -14c24.667 -10 42 -15 52 -15c14.667 0 25.667 5.66699 33 17c2.66699 3.33301 5 5.33301 7 6s5 0.333984 9 -0.999023
l27 -8c7.33301 -2.66699 10 -7 8 -13c-4.66699 -20.667 -16 -37.5 -34 -50.5s-38.667 -19.5 -62 -19.5c-11.333 0 -22.833 1.66699 -34.5 5z" />
    <glyph glyph-name="odieresis" unicode="&#xf6;" horiz-adv-x="564" 
d="M173 16c-33.333 19.333 -59.666 45.833 -78.999 79.5s-29 70.167 -29 109.5v156c0 39.333 9.66699 75.833 29 109.5s45.666 60.167 78.999 79.5s69.666 29 108.999 29s75.666 -9.66699 108.999 -29s59.666 -45.833 78.999 -79.5s29 -70.167 29 -109.5v-156
c0 -39.333 -9.66699 -75.833 -29 -109.5s-45.666 -60.167 -78.999 -79.5s-69.666 -29 -108.999 -29s-75.666 9.66699 -108.999 29zM352 79.5c21.333 12.333 38.166 29.166 50.499 50.499s18.5 44.666 18.5 69.999v166c0 25.333 -6.16699 48.666 -18.5 69.999
s-29.166 38.166 -50.499 50.499s-44.666 18.5 -69.999 18.5s-48.666 -6.16699 -69.999 -18.5s-38.166 -29.166 -50.499 -50.499s-18.5 -44.666 -18.5 -69.999v-166c0 -25.333 6.16699 -48.666 18.5 -69.999s29.166 -38.166 50.499 -50.499s44.666 -18.5 69.999 -18.5
s48.666 6.16699 69.999 18.5zM125 648c-2.66699 2.66699 -4 6 -4 10v87c0 4 1.33301 7.33301 4 10s6 4 10 4h48c4 0 7.33301 -1.33301 10 -4s4 -6 4 -10v-87c0 -4 -1.33301 -7.33301 -4 -10s-6 -4 -10 -4h-48c-4 0 -7.33301 1.33301 -10 4zM367 648
c-2.66699 2.66699 -4 6 -4 10v87c0 4 1.33301 7.33301 4 10s6 4 10 4h48c4 0 7.33301 -1.33301 10 -4s4 -6 4 -10v-87c0 -4 -1.33301 -7.33301 -4 -10s-6 -4 -10 -4h-48c-4 0 -7.33301 1.33301 -10 4z" />
    <glyph glyph-name="divide" unicode="&#xf7;" horiz-adv-x="626" 
d="M271 425.5c-12 12.333 -18 26.5 -18 42.5c0 15.333 6 29 18 41s25.667 18 41 18c16.667 0 31 -6 43 -18s18 -25.667 18 -41c0 -16 -6 -30.167 -18 -42.5s-26.333 -18.5 -43 -18.5c-15.333 0 -29 6.16699 -41 18.5zM69 257.5c-2.66699 2.33301 -4 5.83301 -4 10.5v42
c0 4.66699 1.33301 8.16699 4 10.5s6 3.5 10 3.5h468c4 0 7.33301 -1.16699 10 -3.5s4 -5.83301 4 -10.5v-42c0 -4.66699 -1.33301 -8.16699 -4 -10.5s-6 -3.5 -10 -3.5h-468c-4 0 -7.33301 1.16699 -10 3.5zM271 69.5c-12 12.333 -18 26.5 -18 42.5c0 15.333 6 29 18 41
s25.667 18 41 18c16.667 0 31 -6 43 -18s18 -25.667 18 -41c0 -16 -6 -30.167 -18 -42.5s-26.333 -18.5 -43 -18.5c-15.333 0 -29 6.16699 -41 18.5z" />
    <glyph glyph-name="oslash" unicode="&#xf8;" horiz-adv-x="564" 
d="M477 456.5c14.667 -29.667 21.998 -61.5 21.998 -95.5v-156c0 -39.333 -9.66699 -75.833 -29 -109.5s-45.666 -60.167 -78.999 -79.5s-69.666 -29 -108.999 -29c-28 0 -54.667 5 -80 15l-47 -114c-3.33301 -8 -9.33301 -12 -18 -12h-45c-2.66699 0 -4.83398 1 -6.50098 3
s-1.83398 4.66699 -0.500977 8l61 148c-25.333 20 -45.166 44.833 -59.499 74.5s-21.5 61.5 -21.5 95.5v156c0 39.333 9.66699 75.833 29 109.5s45.666 60.167 78.999 79.5s69.666 29 108.999 29c28 0 54.667 -5 80 -15l47 114c2.66699 8 8.66699 12 18 12h44
c2.66699 0 4.83398 -1 6.50098 -3s1.83398 -4.66699 0.500977 -8l-60 -148c24.667 -20 44.334 -44.833 59.001 -74.5zM175.998 110l157.998 384.998c-18 6.66699 -35.333 10 -52 10c-25.333 0 -48.666 -6.16699 -69.999 -18.5s-38.166 -29.166 -50.499 -50.499
s-18.5 -44.666 -18.5 -69.999v-166c0 -34.667 11 -64.667 33 -90zM420.996 365.998c0 34.667 -11.3311 65.002 -33.998 91.002l-157 -386c18 -6.66699 35.333 -10 52 -10c25.333 0 48.666 6.16699 69.999 18.5s38.166 29.166 50.499 50.499s18.5 44.666 18.5 69.999v166z
" />
    <glyph glyph-name="ugrave" unicode="&#xf9;" horiz-adv-x="594" 
d="M127.5 39c-35 34.667 -52.499 80.334 -52.499 137.001v376c0 4 1.33301 7.33301 4 10s6 4 10 4h50c4 0 7.33301 -1.33301 10 -4s4 -6 4 -10v-361c0 -42 11.333 -74.333 34 -97s52.667 -34 90 -34c44.667 0 80.667 14.667 108 44s41 69.666 41 120.999v327
c0 4 1.33301 7.33301 4 10s6 4 10 4h50c4 0 7.33301 -1.33301 10 -4s4 -6 4 -10v-538c0 -4 -1.33301 -7.33301 -4 -10s-6 -4 -10 -4h-50c-4 -0 -7.33301 1.33301 -10 4s-4 6 -4 10v56c-17.333 -27.333 -39.833 -48 -67.5 -62s-58.834 -21 -93.501 -21
c-56.667 0 -102.5 17.333 -137.5 52zM261.001 643l-80.998 92.999c-2.66699 2.66699 -4 6 -4 10s1.16699 7.16699 3.5 9.5s5.83301 3.5 10.5 3.5h67c13.333 0 22.666 -6.33301 27.999 -19l37 -90c1.33301 -4 2 -6.33301 2 -7c0 -3.33301 -1.16699 -6.16602 -3.5 -8.49902
s-5.5 -3.5 -9.5 -3.5h-24c-10.667 0 -19.334 4 -26.001 12z" />
    <glyph glyph-name="uacute" unicode="&#xfa;" horiz-adv-x="594" 
d="M127.5 39c-35 34.667 -52.499 80.334 -52.499 137.001v376c0 4 1.33301 7.33301 4 10s6 4 10 4h50c4 0 7.33301 -1.33301 10 -4s4 -6 4 -10v-361c0 -42 11.333 -74.333 34 -97s52.667 -34 90 -34c44.667 0 80.667 14.667 108 44s41 69.666 41 120.999v327
c0 4 1.33301 7.33301 4 10s6 4 10 4h50c4 0 7.33301 -1.33301 10 -4s4 -6 4 -10v-538c0 -4 -1.33301 -7.33301 -4 -10s-6 -4 -10 -4h-50c-4 -0 -7.33301 1.33301 -10 4s-4 6 -4 10v56c-17.333 -27.333 -39.833 -48 -67.5 -62s-58.834 -21 -93.501 -21
c-56.667 0 -102.5 17.333 -137.5 52zM263.001 636.5c-2 3.66699 -1.99805 8.16699 0.00195312 13.5l37 90c5.33301 12.667 14.666 19 27.999 19h67c4 0 7.33301 -1.16699 10 -3.5s4 -5.5 4 -9.5s-1.33301 -7.33301 -4 -10l-81 -93c-6.66699 -8 -15.334 -12 -26.001 -12h-24
c-5.33301 0 -9 1.83301 -11 5.5z" />
    <glyph glyph-name="ucircumflex" unicode="&#xfb;" horiz-adv-x="594" 
d="M127.5 39c-35 34.667 -52.499 80.334 -52.499 137.001v376c0 4 1.33301 7.33301 4 10s6 4 10 4h50c4 0 7.33301 -1.33301 10 -4s4 -6 4 -10v-361c0 -42 11.333 -74.333 34 -97s52.667 -34 90 -34c44.667 0 80.667 14.667 108 44s41 69.666 41 120.999v327
c0 4 1.33301 7.33301 4 10s6 4 10 4h50c4 0 7.33301 -1.33301 10 -4s4 -6 4 -10v-538c0 -4 -1.33301 -7.33301 -4 -10s-6 -4 -10 -4h-50c-4 -0 -7.33301 1.33301 -10 4s-4 6 -4 10v56c-17.333 -27.333 -39.833 -48 -67.5 -62s-58.834 -21 -93.501 -21
c-56.667 0 -102.5 17.333 -137.5 52zM155.501 637.5c-2.33301 4.33301 -1.83398 8.49902 1.49902 12.499l81 100c4 6 10 9 18 9h64c8 0 14 -3 18 -9l81 -100c2 -2 3 -4.33301 3 -7c0 -3.33301 -1.16699 -6.16602 -3.5 -8.49902s-5.5 -3.5 -9.5 -3.5h-33
c-8 0 -16.333 3.33301 -25 10l-63 49l-63 -49c-8.66699 -6.66699 -16.667 -10 -24 -10h-34c-5.33301 0 -9.16602 2.16699 -11.499 6.5z" />
    <glyph glyph-name="udieresis" unicode="&#xfc;" horiz-adv-x="594" 
d="M127.5 39c-35 34.667 -52.499 80.334 -52.499 137.001v376c0 4 1.33301 7.33301 4 10s6 4 10 4h50c4 0 7.33301 -1.33301 10 -4s4 -6 4 -10v-361c0 -42 11.333 -74.333 34 -97s52.667 -34 90 -34c44.667 0 80.667 14.667 108 44s41 69.666 41 120.999v327
c0 4 1.33301 7.33301 4 10s6 4 10 4h50c4 0 7.33301 -1.33301 10 -4s4 -6 4 -10v-538c0 -4 -1.33301 -7.33301 -4 -10s-6 -4 -10 -4h-50c-4 -0 -7.33301 1.33301 -10 4s-4 6 -4 10v56c-17.333 -27.333 -39.833 -48 -67.5 -62s-58.834 -21 -93.501 -21
c-56.667 0 -102.5 17.333 -137.5 52zM133.001 648c-2.66699 2.66699 -4 6 -4 10v87c0 4 1.33301 7.33301 4 10s6 4 10 4h48c4 0 7.33301 -1.33301 10 -4s4 -6 4 -10v-87c0 -4 -1.33301 -7.33301 -4 -10s-6 -4 -10 -4h-48c-4 0 -7.33301 1.33301 -10 4zM375.001 648
c-2.66699 2.66699 -4 6 -4 10v87c0 4 1.33301 7.33301 4 10s6 4 10 4h48c4 0 7.33301 -1.33301 10 -4s4 -6 4 -10v-87c0 -4 -1.33301 -7.33301 -4 -10s-6 -4 -10 -4h-48c-4 0 -7.33301 1.33301 -10 4z" />
    <glyph glyph-name="yacute" unicode="&#xfd;" horiz-adv-x="533" 
d="M169 -187c-3.33301 4 -4 9.00098 -2 15.001l58 166l-199 550c-0.666992 1.33301 -1 3.66602 -1 6.99902c0 4 1.5 7.5 4.5 10.5s6.83301 4.5 11.5 4.5h46c4 0 7.83301 -1.16699 11.5 -3.5s6.16699 -5.5 7.5 -9.5l157 -448l156 448c1.33301 4 3.83301 7.16699 7.5 9.5
s7.5 3.5 11.5 3.5h44c6 0 10.5 -2.16699 13.5 -6.5s3.5 -9.5 1.5 -15.5l-256 -724c-1.33301 -4 -3.83301 -7.16699 -7.5 -9.5s-7.5 -3.5 -11.5 -3.5h-39c-6 0 -10.667 2 -14 6zM242 636.501c-2 3.66699 -1.99805 8.16699 0.00195312 13.5l37 90
c5.33301 12.667 14.666 19 27.999 19h67c4 0 7.33301 -1.16699 10 -3.5s4 -5.5 4 -9.5s-1.33301 -7.33301 -4 -10l-81 -93c-6.66699 -8 -15.334 -12 -26.001 -12h-24c-5.33301 0 -9 1.83301 -11 5.5z" />
    <glyph glyph-name="thorn" unicode="&#xfe;" horiz-adv-x="590" 
d="M94 -189c-2.66699 2.66699 -3.99902 5.99902 -3.99902 9.99902v924c0 4 1.33301 7.33301 4 10s6 4 10 4h46c4 0 7.33301 -1.33301 10 -4s4 -6 4 -10v-232c19.333 20.667 42.166 36.834 68.499 48.501s54.166 17.5 83.499 17.5c38 0 73 -9.33301 105 -28
s57.333 -44 76 -76s28 -67 28 -105v-174c0 -38 -9.33301 -73 -28 -105s-44 -57.333 -76 -76s-67 -28 -105 -28c-28.667 0 -55.667 5.5 -81 16.5s-47.666 26.167 -66.999 45.5v-228c0 -4 -1.33301 -7.33301 -4 -10s-6 -4 -10 -4h-50c-4 0 -7.33301 1.33301 -10 4z
M378.001 79.499c21.333 12.333 38.166 29.166 50.499 50.499s18.5 44.666 18.5 69.999v166c0 25.333 -6.16699 48.666 -18.5 69.999s-29.166 38.166 -50.499 50.499s-44.666 18.5 -69.999 18.5s-48.833 -6.16699 -70.5 -18.5s-38.667 -29.166 -51 -50.499
s-18.5 -44.666 -18.5 -69.999v-166c0 -25.333 6.16699 -48.666 18.5 -69.999s29.333 -38.166 51 -50.499s45.167 -18.5 70.5 -18.5s48.666 6.16699 69.999 18.5z" />
    <glyph glyph-name="ydieresis" unicode="&#xff;" horiz-adv-x="533" 
d="M169 -187c-3.33301 4 -4 9.00098 -2 15.001l58 166l-199 550c-0.666992 1.33301 -1 3.66602 -1 6.99902c0 4 1.5 7.5 4.5 10.5s6.83301 4.5 11.5 4.5h46c4 0 7.83301 -1.16699 11.5 -3.5s6.16699 -5.5 7.5 -9.5l157 -448l156 448c1.33301 4 3.83301 7.16699 7.5 9.5
s7.5 3.5 11.5 3.5h44c6 0 10.5 -2.16699 13.5 -6.5s3.5 -9.5 1.5 -15.5l-256 -724c-1.33301 -4 -3.83301 -7.16699 -7.5 -9.5s-7.5 -3.5 -11.5 -3.5h-39c-6 0 -10.667 2 -14 6zM112 648.001c-2.66699 2.66699 -4 6 -4 10v87c0 4 1.33301 7.33301 4 10s6 4 10 4h48
c4 0 7.33301 -1.33301 10 -4s4 -6 4 -10v-87c0 -4 -1.33301 -7.33301 -4 -10s-6 -4 -10 -4h-48c-4 0 -7.33301 1.33301 -10 4zM354 648.001c-2.66699 2.66699 -4 6 -4 10v87c0 4 1.33301 7.33301 4 10s6 4 10 4h48c4 0 7.33301 -1.33301 10 -4s4 -6 4 -10v-87
c0 -4 -1.33301 -7.33301 -4 -10s-6 -4 -10 -4h-48c-4 0 -7.33301 1.33301 -10 4z" />
    <glyph glyph-name="Amacron" unicode="&#x100;" horiz-adv-x="610" 
d="M37.5 6.5c-3 4.33301 -3.5 9.49902 -1.5 15.499l217 660c1.33301 4 3.83301 7.16699 7.5 9.5s7.5 3.5 11.5 3.5h66c4 0 7.83301 -1.16699 11.5 -3.5s6.16699 -5.5 7.5 -9.5l217 -660c0.666992 -1.33301 1 -3.66602 1 -6.99902c0 -4 -1.5 -7.5 -4.5 -10.5
s-6.83301 -4.5 -11.5 -4.5h-49c-4 0 -7.83301 1.16699 -11.5 3.5s-6.16699 5.5 -7.5 9.5l-56 174h-260l-56 -174c-0.666992 -4 -3 -7.16699 -7 -9.5s-8 -3.5 -12 -3.5h-49c-6 0 -10.5 2.16699 -13.5 6.5zM412 259.999l-107 331l-107 -331h214zM164 787.499
c-2.66699 2.33301 -4 5.5 -4 9.5v37c0 4 1.33301 7.16699 4 9.5s6 3.5 10 3.5h260c4 0 7.33301 -1.16699 10 -3.5s4 -5.5 4 -9.5v-37c0 -4 -1.33301 -7.16699 -4 -9.5s-6 -3.5 -10 -3.5h-260c-4 0 -7.33301 1.16699 -10 3.5z" />
    <glyph glyph-name="amacron" unicode="&#x101;" horiz-adv-x="560" 
d="M99 30.5c-32.667 29 -48.999 67.1689 -48.999 114.502c0 44 14.833 80.333 44.5 109s71.167 46.667 124.5 54l130 18c19.333 2.66699 33.333 9.16699 42 19.5s13 25.166 13 44.499v8c0 32 -12.5 57.833 -37.5 77.5s-56.167 29.5 -93.5 29.5
c-29.333 0 -54.833 -5.83301 -76.5 -17.5s-38.834 -27.834 -51.501 -48.501c-5.33301 -8.66699 -12 -13 -20 -13c-4 0 -8.33301 1.66699 -13 5l-27 18c-6 5.33301 -9 11 -9 17c0 2.66699 1 6 3 10c19.333 32 45.833 57.167 79.5 75.5s72.5 27.5 116.5 27.5
c40 0 75.667 -7.5 107 -22.5s55.5 -36.167 72.5 -63.5s25.5 -59 25.5 -95v-384c0 -4 -1.33301 -7.33301 -4 -10s-6 -4 -10 -4h-42c-4 -0 -7.33301 1.33301 -10 4s-4 6 -4 10v69c-20.667 -30 -47.167 -53.5 -79.5 -70.5s-67.5 -25.5 -105.5 -25.5
c-51.333 0 -93.333 14.5 -126 43.5zM322.001 83.002c26.667 17.333 47.499 39.168 62.499 65.501s22.5 52.166 22.5 77.499v41c-16 -2 -67.333 -9 -154 -21l-28 -4c-66.667 -10 -100 -41.333 -100 -94c0 -27.333 10 -49.333 30 -66s46 -25 78 -25
c32.667 0 62.334 8.66699 89.001 26zM133 666.504c-2.66699 2.33301 -4 5.5 -4 9.5v37c0 4 1.33301 7.16699 4 9.5s6 3.5 10 3.5h260c4 0 7.33301 -1.16699 10 -3.5s4 -5.5 4 -9.5v-37c0 -4 -1.33301 -7.16699 -4 -9.5s-6 -3.5 -10 -3.5h-260c-4 0 -7.33301 1.16699 -10 3.5
z" />
    <glyph glyph-name="Abreve" unicode="&#x102;" horiz-adv-x="610" 
d="M37.5 6.5c-3 4.33301 -3.5 9.49902 -1.5 15.499l217 660c1.33301 4 3.83301 7.16699 7.5 9.5s7.5 3.5 11.5 3.5h66c4 0 7.83301 -1.16699 11.5 -3.5s6.16699 -5.5 7.5 -9.5l217 -660c0.666992 -1.33301 1 -3.66602 1 -6.99902c0 -4 -1.5 -7.5 -4.5 -10.5
s-6.83301 -4.5 -11.5 -4.5h-49c-4 0 -7.83301 1.16699 -11.5 3.5s-6.16699 5.5 -7.5 9.5l-56 174h-260l-56 -174c-0.666992 -4 -3 -7.16699 -7 -9.5s-8 -3.5 -12 -3.5h-49c-6 0 -10.5 2.16699 -13.5 6.5zM412 259.999l-107 331l-107 -331h214zM227 781.499
c-22.667 12.333 -37.998 24.501 -45.998 36.501c-2.66699 5.33301 -4 8.66602 -4 9.99902c0 4 2 7.33301 6 10l32 28c2 2 4 3 6 3c2.66699 0 5.33398 -1.33301 8.00098 -4c0.666992 -0.666992 6.66699 -5.5 18 -14.5s31.666 -13.5 60.999 -13.5c16 0 29.667 2.33301 41 7
s23.666 12 36.999 22c4.66699 4 9 4 13 0l32 -29c3.33301 -3.33301 5 -6.66602 5 -9.99902c0 -2.66699 -1 -5.66699 -3 -9c-4 -6 -11.667 -13.333 -23 -22s-26 -16.334 -44 -23.001s-37.667 -10 -59 -10c-30.667 0 -57.334 6.16699 -80.001 18.5z" />
    <glyph glyph-name="abreve" unicode="&#x103;" horiz-adv-x="560" 
d="M99 30.5c-32.667 29 -48.999 67.1689 -48.999 114.502c0 44 14.833 80.333 44.5 109s71.167 46.667 124.5 54l130 18c19.333 2.66699 33.333 9.16699 42 19.5s13 25.166 13 44.499v8c0 32 -12.5 57.833 -37.5 77.5s-56.167 29.5 -93.5 29.5
c-29.333 0 -54.833 -5.83301 -76.5 -17.5s-38.834 -27.834 -51.501 -48.501c-5.33301 -8.66699 -12 -13 -20 -13c-4 0 -8.33301 1.66699 -13 5l-27 18c-6 5.33301 -9 11 -9 17c0 2.66699 1 6 3 10c19.333 32 45.833 57.167 79.5 75.5s72.5 27.5 116.5 27.5
c40 0 75.667 -7.5 107 -22.5s55.5 -36.167 72.5 -63.5s25.5 -59 25.5 -95v-384c0 -4 -1.33301 -7.33301 -4 -10s-6 -4 -10 -4h-42c-4 -0 -7.33301 1.33301 -10 4s-4 6 -4 10v69c-20.667 -30 -47.167 -53.5 -79.5 -70.5s-67.5 -25.5 -105.5 -25.5
c-51.333 0 -93.333 14.5 -126 43.5zM322.001 83.002c26.667 17.333 47.499 39.168 62.499 65.501s22.5 52.166 22.5 77.499v41c-16 -2 -67.333 -9 -154 -21l-28 -4c-66.667 -10 -100 -41.333 -100 -94c0 -27.333 10 -49.333 30 -66s46 -25 78 -25
c32.667 0 62.334 8.66699 89.001 26zM196 660.504c-22.667 12.333 -37.998 24.501 -45.998 36.501c-2.66699 5.33301 -4 8.66602 -4 9.99902c0 4 2 7.33301 6 10l32 28c2 2 4 3 6 3c2.66699 0 5.33398 -1.33301 8.00098 -4c0.666992 -0.666992 6.66699 -5.5 18 -14.5
s31.666 -13.5 60.999 -13.5c16 0 29.667 2.33301 41 7s23.666 12 36.999 22c4.66699 4 9 4 13 0l32 -29c3.33301 -3.33301 5 -6.66602 5 -9.99902c0 -2.66699 -1 -5.66699 -3 -9c-4 -6 -11.667 -13.333 -23 -22s-26 -16.334 -44 -23.001s-37.667 -10 -59 -10
c-30.667 0 -57.334 6.16699 -80.001 18.5z" />
    <glyph glyph-name="Aogonek" unicode="&#x104;" horiz-adv-x="614" 
d="M454.5 -173.5c-21 15.667 -31.5 36.167 -31.5 61.5c0 22 6.83301 43.333 20.5 64s30.167 39 49.5 55l-58 180h-260l-56 -174c-0.666992 -4 -3 -7.16699 -7 -9.5s-8 -3.5 -12 -3.5h-49c-6 0 -10.5 2.16699 -13.5 6.5s-3.5 9.5 -1.5 15.5l217 660
c1.33301 4 3.83301 7.16699 7.5 9.5s7.5 3.5 11.5 3.5h66c4 0 7.83301 -1.16699 11.5 -3.5s6.16699 -5.5 7.5 -9.5l211 -639c1.33301 -5.33301 2 -9.33301 2 -12c0 -10 -4 -19 -12 -27c-20.667 -22 -35.167 -40 -43.5 -54s-12.5 -27.333 -12.5 -40c0 -24.667 14 -37 42 -37
h27c4 0 7.5 -1.5 10.5 -4.5s4.5 -6.5 4.5 -10.5v-40c0 -4 -1.5 -7.5 -4.5 -10.5s-6.5 -4.5 -10.5 -4.5h-40c-30 0 -55.5 7.83301 -76.5 23.5zM411 260l-106 331l-107 -331h213z" />
    <glyph glyph-name="aogonek" unicode="&#x105;" horiz-adv-x="565" 
d="M363.5 -173.5c-21 15.667 -31.5 36.1709 -31.5 61.5039c0 22.667 7.83301 44.667 23.5 66s33.834 39.666 54.501 54.999v74c-20.667 -30 -47.167 -53.5 -79.5 -70.5s-67.5 -25.5 -105.5 -25.5c-51.333 0 -93.333 14.5 -126 43.5s-49 67.167 -49 114.5
c0 44 14.833 80.333 44.5 109s71.167 46.667 124.5 54l130 18c19.333 2.66699 33.333 9.16699 42 19.5s13 25.166 13 44.499v8c0 32 -12.5 57.833 -37.5 77.5s-56.167 29.5 -93.5 29.5c-29.333 0 -54.833 -5.83301 -76.5 -17.5s-38.834 -27.834 -51.501 -48.501
c-5.33301 -8.66699 -12 -13 -20 -13c-4 0 -8.33301 1.66699 -13 5l-27 18c-6 4 -9 9.66699 -9 17c0 2.66699 1 6 3 10c19.333 32 45.833 57.167 79.5 75.5s72.5 27.5 116.5 27.5c40 0 75.667 -7.5 107 -22.5s55.5 -36.167 72.5 -63.5s25.5 -59 25.5 -95v-370
c0 -10 -4.33301 -19.333 -13 -28c-19.333 -20 -33.5 -36.333 -42.5 -49s-13.5 -26.334 -13.5 -41.001c0 -24.667 14 -37 42 -37h17c4 0 7.5 -1.5 10.5 -4.5s4.5 -6.5 4.5 -10.5v-40c0 -4 -1.5 -7.5 -4.5 -10.5s-6.5 -4.5 -10.5 -4.5h-30c-30 0 -55.5 7.83301 -76.5 23.5z
M322 83.0039c26.667 17.333 47.499 39.168 62.499 65.501s22.5 52.166 22.5 77.499v41c-16 -2 -67.333 -9 -154 -21l-28 -4c-66.667 -10 -100 -41.333 -100 -94c0 -27.333 10 -49.333 30 -66s46 -25 78 -25c32.667 0 62.334 8.66699 89.001 26z" />
    <glyph glyph-name="Cacute" unicode="&#x106;" horiz-adv-x="546" 
d="M189 20c-36.667 22 -65.667 51.6641 -87 88.9971s-32 78 -32 122v234c0 44 10.667 84.667 32 122s50.333 67 87 89s76.667 33 120 33c35.333 0 68.333 -6.16699 99 -18.5s57.667 -30.166 81 -53.499c3.33301 -2.66699 5 -6.66699 5 -12c0 -4.66699 -1.66699 -9 -5 -13
c-14 -16 -23 -26 -27 -30c-4.66699 -3.33301 -9.33398 -5 -14.001 -5c-5.33301 0 -10.333 2.33301 -15 7c-33.333 32 -74.333 48 -123 48c-28.667 0 -55 -7.66699 -79 -23s-43 -35.833 -57 -61.5s-21 -53.167 -21 -82.5v-234c0 -29.333 7 -56.833 21 -82.5
s33 -46.167 57 -61.5s50.333 -23 79 -23c48.667 0 89.667 16 123 48c4.66699 4.66699 9.66699 7 15 7c4.66699 0 9.33398 -1.66699 14.001 -5c4 -4 13 -14 27 -30c3.33301 -3.33301 5 -7.66602 5 -12.999c0 -4.66699 -1.66699 -8.66699 -5 -12
c-23.333 -23.333 -50.333 -41.166 -81 -53.499s-63.667 -18.5 -99 -18.5c-43.333 0 -83.333 11 -120 33zM284 757.497c-2 3.66699 -1.99805 8.16699 0.00195312 13.5l37 90c5.33301 12.667 14.666 19 27.999 19h67c4 0 7.33301 -1.16699 10 -3.5s4 -5.5 4 -9.5
s-1.33301 -7.33301 -4 -10l-81 -93c-6.66699 -8 -15.334 -12 -26.001 -12h-24c-5.33301 0 -9 1.83301 -11 5.5z" />
    <glyph glyph-name="cacute" unicode="&#x107;" horiz-adv-x="492" 
d="M173 16c-33.333 19.333 -59.665 45.832 -78.998 79.499s-29 70.167 -29 109.5v156c0 39.333 9.66699 75.833 29 109.5s45.666 60.167 78.999 79.5s69.666 29 108.999 29c28.667 0 55.834 -5.33301 81.501 -16s48.167 -25.334 67.5 -44.001c4 -4 6 -8.66699 6 -14
c0 -4.66699 -2 -9.66699 -6 -15c-6.66699 -7.33301 -14.334 -15 -23.001 -23c-4.66699 -4 -9.66699 -6 -15 -6c-6 0 -11.333 2.33301 -16 7c-26.667 24.667 -58.334 37 -95.001 37c-25.333 0 -48.666 -6.16699 -69.999 -18.5s-38.166 -29.166 -50.499 -50.499
s-18.5 -44.666 -18.5 -69.999v-166c0 -25.333 6.16699 -48.666 18.5 -69.999s29.166 -38.166 50.499 -50.499s44.666 -18.5 69.999 -18.5c36.667 0 68.334 12.333 95.001 37c4.66699 4.66699 10 7 16 7c5.33301 0 10.333 -2 15 -6c8 -6.66699 15.667 -14.334 23 -23.001
c4 -4 6 -9 6 -15c0 -5.33301 -2 -10 -6 -14c-19.333 -18.667 -41.833 -33.334 -67.5 -44.001s-52.834 -16 -81.501 -16c-39.333 0 -75.666 9.66699 -108.999 29zM249.001 636.499c-2 3.66699 -1.99805 8.16699 0.00195312 13.5l37 90c5.33301 12.667 14.666 19 27.999 19h67
c4 0 7.33301 -1.16699 10 -3.5s4 -5.5 4 -9.5s-1.33301 -7.33301 -4 -10l-81 -93c-6.66699 -8 -15.334 -12 -26.001 -12h-24c-5.33301 0 -9 1.83301 -11 5.5z" />
    <glyph glyph-name="Cdotaccent" unicode="&#x10a;" horiz-adv-x="546" 
d="M189 20c-36.667 22 -65.667 51.6641 -87 88.9971s-32 78 -32 122v234c0 44 10.667 84.667 32 122s50.333 67 87 89s76.667 33 120 33c35.333 0 68.333 -6.16699 99 -18.5s57.667 -30.166 81 -53.499c3.33301 -2.66699 5 -6.66699 5 -12c0 -4.66699 -1.66699 -9 -5 -13
c-14 -16 -23 -26 -27 -30c-4.66699 -3.33301 -9.33398 -5 -14.001 -5c-5.33301 0 -10.333 2.33301 -15 7c-33.333 32 -74.333 48 -123 48c-28.667 0 -55 -7.66699 -79 -23s-43 -35.833 -57 -61.5s-21 -53.167 -21 -82.5v-234c0 -29.333 7 -56.833 21 -82.5
s33 -46.167 57 -61.5s50.333 -23 79 -23c48.667 0 89.667 16 123 48c4.66699 4.66699 9.66699 7 15 7c4.66699 0 9.33398 -1.66699 14.001 -5c4 -4 13 -14 27 -30c3.33301 -3.33301 5 -7.66602 5 -12.999c0 -4.66699 -1.66699 -8.66699 -5 -12
c-23.333 -23.333 -50.333 -41.166 -81 -53.499s-63.667 -18.5 -99 -18.5c-43.333 0 -83.333 11 -120 33zM275 768.997c-2.66699 2.66699 -4 6 -4 10v87c0 4 1.33301 7.33301 4 10s6 4 10 4h48c4 0 7.33301 -1.33301 10 -4s4 -6 4 -10v-87c0 -4 -1.33301 -7.33301 -4 -10
s-6 -4 -10 -4h-48c-4 0 -7.33301 1.33301 -10 4z" />
    <glyph glyph-name="cdotaccent" unicode="&#x10b;" horiz-adv-x="492" 
d="M173 16c-33.333 19.333 -59.665 45.832 -78.998 79.499s-29 70.167 -29 109.5v156c0 39.333 9.66699 75.833 29 109.5s45.666 60.167 78.999 79.5s69.666 29 108.999 29c28.667 0 55.834 -5.33301 81.501 -16s48.167 -25.334 67.5 -44.001c4 -4 6 -8.66699 6 -14
c0 -4.66699 -2 -9.66699 -6 -15c-6.66699 -7.33301 -14.334 -15 -23.001 -23c-4.66699 -4 -9.66699 -6 -15 -6c-6 0 -11.333 2.33301 -16 7c-26.667 24.667 -58.334 37 -95.001 37c-25.333 0 -48.666 -6.16699 -69.999 -18.5s-38.166 -29.166 -50.499 -50.499
s-18.5 -44.666 -18.5 -69.999v-166c0 -25.333 6.16699 -48.666 18.5 -69.999s29.166 -38.166 50.499 -50.499s44.666 -18.5 69.999 -18.5c36.667 0 68.334 12.333 95.001 37c4.66699 4.66699 10 7 16 7c5.33301 0 10.333 -2 15 -6c8 -6.66699 15.667 -14.334 23 -23.001
c4 -4 6 -9 6 -15c0 -5.33301 -2 -10 -6 -14c-19.333 -18.667 -41.833 -33.334 -67.5 -44.001s-52.834 -16 -81.501 -16c-39.333 0 -75.666 9.66699 -108.999 29zM240.001 647.999c-2.66699 2.66699 -4 6 -4 10v87c0 4 1.33301 7.33301 4 10s6 4 10 4h48
c4 0 7.33301 -1.33301 10 -4s4 -6 4 -10v-87c0 -4 -1.33301 -7.33301 -4 -10s-6 -4 -10 -4h-48c-4 0 -7.33301 1.33301 -10 4z" />
    <glyph glyph-name="Ccaron" unicode="&#x10c;" horiz-adv-x="546" 
d="M189 20c-36.667 22 -65.667 51.6641 -87 88.9971s-32 78 -32 122v234c0 44 10.667 84.667 32 122s50.333 67 87 89s76.667 33 120 33c35.333 0 68.333 -6.16699 99 -18.5s57.667 -30.166 81 -53.499c3.33301 -2.66699 5 -6.66699 5 -12c0 -4.66699 -1.66699 -9 -5 -13
c-14 -16 -23 -26 -27 -30c-4.66699 -3.33301 -9.33398 -5 -14.001 -5c-5.33301 0 -10.333 2.33301 -15 7c-33.333 32 -74.333 48 -123 48c-28.667 0 -55 -7.66699 -79 -23s-43 -35.833 -57 -61.5s-21 -53.167 -21 -82.5v-234c0 -29.333 7 -56.833 21 -82.5
s33 -46.167 57 -61.5s50.333 -23 79 -23c48.667 0 89.667 16 123 48c4.66699 4.66699 9.66699 7 15 7c4.66699 0 9.33398 -1.66699 14.001 -5c4 -4 13 -14 27 -30c3.33301 -3.33301 5 -7.66602 5 -12.999c0 -4.66699 -1.66699 -8.66699 -5 -12
c-23.333 -23.333 -50.333 -41.166 -81 -53.499s-63.667 -18.5 -99 -18.5c-43.333 0 -83.333 11 -120 33zM263 760.997l-80.999 100.001c-2 2 -3 4.33301 -3 7c0 3.33301 1.16699 6.16602 3.5 8.49902s5.5 3.5 9.5 3.5h33c8 0 16.333 -3.33301 25 -10l63 -49l63 49
c8.66699 6.66699 16.667 10 24 10h34c5.33301 0 9.16602 -2.16699 11.499 -6.5s1.83301 -8.5 -1.5 -12.5l-81 -100c-4 -6 -10 -9 -18 -9h-64c-8 0 -14 3 -18 9z" />
    <glyph glyph-name="ccaron" unicode="&#x10d;" horiz-adv-x="492" 
d="M173 16c-33.333 19.333 -59.665 45.832 -78.998 79.499s-29 70.167 -29 109.5v156c0 39.333 9.66699 75.833 29 109.5s45.666 60.167 78.999 79.5s69.666 29 108.999 29c28.667 0 55.834 -5.33301 81.501 -16s48.167 -25.334 67.5 -44.001c4 -4 6 -8.66699 6 -14
c0 -4.66699 -2 -9.66699 -6 -15c-6.66699 -7.33301 -14.334 -15 -23.001 -23c-4.66699 -4 -9.66699 -6 -15 -6c-6 0 -11.333 2.33301 -16 7c-26.667 24.667 -58.334 37 -95.001 37c-25.333 0 -48.666 -6.16699 -69.999 -18.5s-38.166 -29.166 -50.499 -50.499
s-18.5 -44.666 -18.5 -69.999v-166c0 -25.333 6.16699 -48.666 18.5 -69.999s29.166 -38.166 50.499 -50.499s44.666 -18.5 69.999 -18.5c36.667 0 68.334 12.333 95.001 37c4.66699 4.66699 10 7 16 7c5.33301 0 10.333 -2 15 -6c8 -6.66699 15.667 -14.334 23 -23.001
c4 -4 6 -9 6 -15c0 -5.33301 -2 -10 -6 -14c-19.333 -18.667 -41.833 -33.334 -67.5 -44.001s-52.834 -16 -81.501 -16c-39.333 0 -75.666 9.66699 -108.999 29zM228.001 639.999l-80.999 100.001c-2 2 -3 4.33301 -3 7c0 3.33301 1.16699 6.16602 3.5 8.49902
s5.5 3.5 9.5 3.5h33c8 0 16.333 -3.33301 25 -10l63 -49l63 49c8.66699 6.66699 16.667 10 24 10h34c5.33301 0 9.16602 -2.16699 11.499 -6.5s1.83301 -8.5 -1.5 -12.5l-81 -100c-4 -6 -10 -9 -18 -9h-64c-8 0 -14 3 -18 9z" />
    <glyph glyph-name="Dcaron" unicode="&#x10e;" horiz-adv-x="630" 
d="M100.5 10.5c-7 7 -10.5 15.5 -10.5 25.5v623c0 10 3.5 18.5 10.5 25.5s15.5 10.5 25.5 10.5h178c47.333 0 91 -11.833 131 -35.5s71.667 -55.667 95 -96s35 -84.5 35 -132.5v-167c0 -48 -11.667 -92.167 -35 -132.5s-55 -72.333 -95 -96s-83.667 -35.5 -131 -35.5h-178
c-10 0 -18.5 3.5 -25.5 10.5zM304 77c32.667 0 62.667 7.99902 90 23.999s49 37.833 65 65.5s24 57.834 24 90.501v182c0 32.667 -8 62.667 -24 90s-37.667 49 -65 65s-57.333 24 -90 24h-132v-541h132zM228 760.999l-80.999 100.001c-2 2 -3 4.33301 -3 7
c0 3.33301 1.16699 6.16602 3.5 8.49902s5.5 3.5 9.5 3.5h33c8 0 16.333 -3.33301 25 -10l63 -49l63 49c8.66699 6.66699 16.667 10 24 10h34c5.33301 0 9.16602 -2.16699 11.499 -6.5s1.83301 -8.5 -1.5 -12.5l-81 -100c-4 -6 -10 -9 -18 -9h-64c-8 0 -14 3 -18 9z" />
    <glyph glyph-name="dcaron" unicode="&#x10f;" horiz-adv-x="595" 
d="M169 15c-32 18.667 -57.333 44 -76 76s-28 67 -28 105v174c0 38 9.33301 73 28 105s44.167 57.333 76.5 76s67.5 28 105.5 28c27.333 0 53.833 -5 79.5 -15s48.167 -24 67.5 -42v223c0 4 1.33301 7.33301 4 10s6 4 10 4h50c4 0 7.33301 -1.33301 10 -4s4 -6 4 -10v-731
c0 -4 -1.33301 -7.33301 -4 -10s-6 -4 -10 -4h-46c-4 -0 -7.33301 1.33301 -10 4s-4 6 -4 10v44c-18.667 -22.667 -41.167 -40.167 -67.5 -52.5s-54.5 -18.5 -84.5 -18.5c-38 0 -73 9.33301 -105 28zM558 636.5c-2 3.66699 -1.99805 8.16699 0.00195312 13.5l37 90
c5.33301 12.667 14.666 19 27.999 19h67c4.66699 0 8.16699 -1.16699 10.5 -3.5s3.5 -5.5 3.5 -9.5s-1.33301 -7.33301 -4 -10l-81 -93c-6.66699 -8 -15.334 -12 -26.001 -12h-24c-5.33301 0 -9 1.83301 -11 5.5zM352.502 79.5c21.667 12.333 38.667 29.166 51 50.499
s18.5 44.666 18.5 69.999v166c0 25.333 -6.16699 48.666 -18.5 69.999s-29.333 38.166 -51 50.499s-45.167 18.5 -70.5 18.5s-48.666 -6.16699 -69.999 -18.5s-38.166 -29.166 -50.499 -50.499s-18.5 -44.666 -18.5 -69.999v-166c0 -25.333 6.16699 -48.666 18.5 -69.999
s29.166 -38.166 50.499 -50.499s44.666 -18.5 69.999 -18.5s48.833 6.16699 70.5 18.5z" />
    <glyph glyph-name="Dcroat" unicode="&#x110;" horiz-adv-x="630" 
d="M435 659.5c40 -23.667 71.667 -55.667 95 -96s35 -84.5 35 -132.5v-167c0 -48 -11.667 -92.167 -35 -132.5s-55 -72.333 -95 -96s-83.667 -35.5 -131 -35.5h-178c-10 0 -18.5 3.5 -25.5 10.5s-10.5 15.5 -10.5 25.5v278h-63c-4 0 -7.33301 1.33301 -10 4s-4 6 -4 10v41
c0 4 1.33301 7.33301 4 10s6 4 10 4h63v276c0 10 3.5 18.5 10.5 25.5s15.5 10.5 25.5 10.5h178c47.333 0 91 -11.833 131 -35.5zM483 439c0 32.667 -8 62.666 -24 89.999s-37.667 49 -65 65s-57.333 24 -90 24h-132v-235h137c4 0 7.33301 -1.33301 10 -4s4 -6 4 -10v-41
c0 -4 -1.33301 -7.33301 -4 -10s-6 -4 -10 -4h-137v-237h132c32.667 0 62.667 8 90 24s49 37.833 65 65.5s24 57.834 24 90.501v182z" />
    <glyph glyph-name="dcroat" unicode="&#x111;" horiz-adv-x="607" 
d="M567 671c2.66699 -2.66699 4 -6 4 -10v-32c0 -4 -1.33301 -7.33301 -4 -10s-6 -4 -10 -4h-57v-601c0 -4 -1.33301 -7.33301 -4 -10s-6 -4 -10 -4h-46c-4 -0 -7.33301 1.33301 -10 4s-4 6 -4 10v44c-18.667 -22.667 -41.167 -40.167 -67.5 -52.5s-54.5 -18.5 -84.5 -18.5
c-38 0 -73 9.33301 -105 28s-57.333 44 -76 76s-28 67 -28 105v174c0 38 9.33301 73 28 105s44.167 57.333 76.5 76s67.5 28 105.5 28c27.333 0 53.833 -5 79.5 -15s48.167 -24 67.5 -42v93h-89c-4 0 -7.33301 1.33301 -10 4s-4 6 -4 10v32c0 4 1.33301 7.33301 4 10
s6 4 10 4h89v70c0 4 1.33301 7.33301 4 10s6 4 10 4h50c4 0 7.33301 -1.33301 10 -4s4 -6 4 -10v-70h57c4 0 7.33301 -1.33301 10 -4zM422 366c0 25.333 -6.16699 48.666 -18.5 69.999s-29.333 38.166 -51 50.499s-45.167 18.5 -70.5 18.5s-48.666 -6.16699 -69.999 -18.5
s-38.166 -29.166 -50.499 -50.499s-18.5 -44.666 -18.5 -69.999v-166c0 -25.333 6.16699 -48.666 18.5 -69.999s29.166 -38.166 50.499 -50.499s44.666 -18.5 69.999 -18.5s48.833 6.16699 70.5 18.5s38.667 29.166 51 50.499s18.5 44.666 18.5 69.999v166z" />
    <glyph glyph-name="Emacron" unicode="&#x112;" horiz-adv-x="524" 
d="M100.5 10.5c-7 7 -10.5 15.5 -10.5 25.5v623c0 10 3.5 18.5 10.5 25.5s15.5 10.5 25.5 10.5h329c4 0 7.33301 -1.33301 10 -4s4 -6 4 -10v-49c0 -4 -1.33301 -7.33301 -4 -10s-6 -4 -10 -4h-283v-214h216c4 0 7.33301 -1.33301 10 -4s4 -6 4 -10v-47
c0 -4 -1.33301 -7.33301 -4 -10s-6 -4 -10 -4h-216v-252h283c4 0 7.33301 -1.33301 10 -4s4 -6 4 -10v-49c0 -4 -1.33301 -7.33301 -4 -10s-6 -4 -10 -4h-329c-10 0 -18.5 3.5 -25.5 10.5zM139 787.5c-2.66699 2.33301 -4 5.5 -4 9.5v37c0 4 1.33301 7.16699 4 9.5
s6 3.5 10 3.5h260c4 0 7.33301 -1.16699 10 -3.5s4 -5.5 4 -9.5v-37c0 -4 -1.33301 -7.16699 -4 -9.5s-6 -3.5 -10 -3.5h-260c-4 0 -7.33301 1.16699 -10 3.5z" />
    <glyph glyph-name="emacron" unicode="&#x113;" horiz-adv-x="557" 
d="M173 29c-33.333 19.333 -59.6621 45.8311 -78.9951 79.498s-29 70.167 -29 109.5v143c0 39.333 9.66699 75.833 29 109.5s45.666 60.167 78.999 79.5s69.666 29 108.999 29s75.666 -9.66699 108.999 -29s59.666 -45.833 78.999 -79.5s29 -70.167 29 -109.5v-68
c0 -10 -3.5 -18.5 -10.5 -25.5s-15.5 -10.5 -25.5 -10.5h-320v-44c0 -25.333 6.16699 -48.666 18.5 -69.999s29.166 -38.166 50.499 -50.499s44.666 -18.5 69.999 -18.5h145c4 0 7.33301 -1.33301 10 -4s4 -6 4 -10v-46c0 -4 -1.33301 -7.33301 -4 -10s-6 -4 -10 -4h-145
c-39.333 0 -75.666 9.66699 -108.999 29zM421.004 328.998l-0.00390625 37c0 25.333 -6.16699 48.666 -18.5 69.999s-29.166 38.166 -50.499 50.499s-44.666 18.5 -69.999 18.5s-48.666 -6.16699 -69.999 -18.5s-38.166 -29.166 -50.499 -50.499
s-18.5 -44.666 -18.5 -69.999v-37h278zM141 666.498c-2.66699 2.33301 -4 5.5 -4 9.5v37c0 4 1.33301 7.16699 4 9.5s6 3.5 10 3.5h260c4 0 7.33301 -1.16699 10 -3.5s4 -5.5 4 -9.5v-37c0 -4 -1.33301 -7.16699 -4 -9.5s-6 -3.5 -10 -3.5h-260
c-4 0 -7.33301 1.16699 -10 3.5z" />
    <glyph glyph-name="Edotaccent" unicode="&#x116;" horiz-adv-x="524" 
d="M100.5 10.5c-7 7 -10.5 15.5 -10.5 25.5v623c0 10 3.5 18.5 10.5 25.5s15.5 10.5 25.5 10.5h329c4 0 7.33301 -1.33301 10 -4s4 -6 4 -10v-49c0 -4 -1.33301 -7.33301 -4 -10s-6 -4 -10 -4h-283v-214h216c4 0 7.33301 -1.33301 10 -4s4 -6 4 -10v-47
c0 -4 -1.33301 -7.33301 -4 -10s-6 -4 -10 -4h-216v-252h283c4 0 7.33301 -1.33301 10 -4s4 -6 4 -10v-49c0 -4 -1.33301 -7.33301 -4 -10s-6 -4 -10 -4h-329c-10 0 -18.5 3.5 -25.5 10.5zM246 769c-2.66699 2.66699 -4 6 -4 10v87c0 4 1.33301 7.33301 4 10s6 4 10 4h48
c4 0 7.33301 -1.33301 10 -4s4 -6 4 -10v-87c0 -4 -1.33301 -7.33301 -4 -10s-6 -4 -10 -4h-48c-4 0 -7.33301 1.33301 -10 4z" />
    <glyph glyph-name="edotaccent" unicode="&#x117;" horiz-adv-x="557" 
d="M173 29c-33.333 19.333 -59.6621 45.8311 -78.9951 79.498s-29 70.167 -29 109.5v143c0 39.333 9.66699 75.833 29 109.5s45.666 60.167 78.999 79.5s69.666 29 108.999 29s75.666 -9.66699 108.999 -29s59.666 -45.833 78.999 -79.5s29 -70.167 29 -109.5v-68
c0 -10 -3.5 -18.5 -10.5 -25.5s-15.5 -10.5 -25.5 -10.5h-320v-44c0 -25.333 6.16699 -48.666 18.5 -69.999s29.166 -38.166 50.499 -50.499s44.666 -18.5 69.999 -18.5h145c4 0 7.33301 -1.33301 10 -4s4 -6 4 -10v-46c0 -4 -1.33301 -7.33301 -4 -10s-6 -4 -10 -4h-145
c-39.333 0 -75.666 9.66699 -108.999 29zM421.004 328.998l-0.00390625 37c0 25.333 -6.16699 48.666 -18.5 69.999s-29.166 38.166 -50.499 50.499s-44.666 18.5 -69.999 18.5s-48.666 -6.16699 -69.999 -18.5s-38.166 -29.166 -50.499 -50.499
s-18.5 -44.666 -18.5 -69.999v-37h278zM248 647.998c-2.66699 2.66699 -4 6 -4 10v87c0 4 1.33301 7.33301 4 10s6 4 10 4h48c4 0 7.33301 -1.33301 10 -4s4 -6 4 -10v-87c0 -4 -1.33301 -7.33301 -4 -10s-6 -4 -10 -4h-48c-4 0 -7.33301 1.33301 -10 4z" />
    <glyph glyph-name="Eogonek" unicode="&#x118;" horiz-adv-x="532" 
d="M352.5 -173.5c-21 15.667 -31.5 36.168 -31.5 61.501c0 20.667 6.5 40.5 19.5 59.5s28.833 36.5 47.5 52.5h-262c-10 0 -18.5 3.5 -25.5 10.5s-10.5 15.5 -10.5 25.5v623c0 10 3.5 18.5 10.5 25.5s15.5 10.5 25.5 10.5h329c4 0 7.33301 -1.33301 10 -4s4 -6 4 -10v-49
c0 -4 -1.33301 -7.33301 -4 -10s-6 -4 -10 -4h-283v-214h216c4 0 7.33301 -1.33301 10 -4s4 -6 4 -10v-47c0 -4 -1.33301 -7.33301 -4 -10s-6 -4 -10 -4h-216v-252h283c4 0 7.33301 -1.33301 10 -4s4 -6 4 -10v-35c0 -10 -4.33301 -19.333 -13 -28
c-19.333 -20 -33.5 -36.333 -42.5 -49s-13.5 -26.334 -13.5 -41.001c0 -24.667 14 -37 42 -37h20c4 0 7.5 -1.5 10.5 -4.5s4.5 -6.5 4.5 -10.5v-40c0 -4 -1.5 -7.5 -4.5 -10.5s-6.5 -4.5 -10.5 -4.5h-33c-30 0 -55.5 7.83301 -76.5 23.5z" />
    <glyph glyph-name="eogonek" unicode="&#x119;" horiz-adv-x="557" 
d="M324.5 -173.5c-21 15.667 -31.4961 36.166 -31.4961 61.499c0 20.667 6.5 40.5 19.5 59.5s28.833 36.5 47.5 52.5h-78c-39.333 0 -75.666 9.66699 -108.999 29s-59.666 45.833 -78.999 79.5s-29 70.167 -29 109.5v143c0 39.333 9.66699 75.833 29 109.5
s45.666 60.167 78.999 79.5s69.666 29 108.999 29s75.666 -9.66699 108.999 -29s59.666 -45.833 78.999 -79.5s29 -70.167 29 -109.5v-68c0 -10 -3.5 -18.5 -10.5 -25.5s-15.5 -10.5 -25.5 -10.5h-320v-44c0 -25.333 6.16699 -48.666 18.5 -69.999
s29.166 -38.166 50.499 -50.499s44.666 -18.5 69.999 -18.5h145c4 0 7.33301 -1.33301 10 -4s4 -6 4 -10v-32c0 -10 -4.33301 -19.333 -13 -28c-19.333 -20 -33.5 -36.333 -42.5 -49s-13.5 -26.334 -13.5 -41.001c0 -24.667 14 -37 42 -37h17c4 0 7.5 -1.5 10.5 -4.5
s4.5 -6.5 4.5 -10.5v-40c0 -4 -1.5 -7.5 -4.5 -10.5s-6.5 -4.5 -10.5 -4.5h-30c-30 0 -55.5 7.83301 -76.5 23.5zM421.004 328.999l-0.00390625 37c0 25.333 -6.16699 48.666 -18.5 69.999s-29.166 38.166 -50.499 50.499s-44.666 18.5 -69.999 18.5
s-48.666 -6.16699 -69.999 -18.5s-38.166 -29.166 -50.499 -50.499s-18.5 -44.666 -18.5 -69.999v-37h278z" />
    <glyph glyph-name="Ecaron" unicode="&#x11a;" horiz-adv-x="524" 
d="M100.5 10.5c-7 7 -10.5 15.5 -10.5 25.5v623c0 10 3.5 18.5 10.5 25.5s15.5 10.5 25.5 10.5h329c4 0 7.33301 -1.33301 10 -4s4 -6 4 -10v-49c0 -4 -1.33301 -7.33301 -4 -10s-6 -4 -10 -4h-283v-214h216c4 0 7.33301 -1.33301 10 -4s4 -6 4 -10v-47
c0 -4 -1.33301 -7.33301 -4 -10s-6 -4 -10 -4h-216v-252h283c4 0 7.33301 -1.33301 10 -4s4 -6 4 -10v-49c0 -4 -1.33301 -7.33301 -4 -10s-6 -4 -10 -4h-329c-10 0 -18.5 3.5 -25.5 10.5zM234 761l-80.999 100.001c-2 2 -3 4.33301 -3 7
c0 3.33301 1.16699 6.16602 3.5 8.49902s5.5 3.5 9.5 3.5h33c8 0 16.333 -3.33301 25 -10l63 -49l63 49c8.66699 6.66699 16.667 10 24 10h34c5.33301 0 9.16602 -2.16699 11.499 -6.5s1.83301 -8.5 -1.5 -12.5l-81 -100c-4 -6 -10 -9 -18 -9h-64c-8 0 -14 3 -18 9z" />
    <glyph glyph-name="ecaron" unicode="&#x11b;" horiz-adv-x="557" 
d="M173 29c-33.333 19.333 -59.6621 45.8311 -78.9951 79.498s-29 70.167 -29 109.5v143c0 39.333 9.66699 75.833 29 109.5s45.666 60.167 78.999 79.5s69.666 29 108.999 29s75.666 -9.66699 108.999 -29s59.666 -45.833 78.999 -79.5s29 -70.167 29 -109.5v-68
c0 -10 -3.5 -18.5 -10.5 -25.5s-15.5 -10.5 -25.5 -10.5h-320v-44c0 -25.333 6.16699 -48.666 18.5 -69.999s29.166 -38.166 50.499 -50.499s44.666 -18.5 69.999 -18.5h145c4 0 7.33301 -1.33301 10 -4s4 -6 4 -10v-46c0 -4 -1.33301 -7.33301 -4 -10s-6 -4 -10 -4h-145
c-39.333 0 -75.666 9.66699 -108.999 29zM421.004 328.998l-0.00390625 37c0 25.333 -6.16699 48.666 -18.5 69.999s-29.166 38.166 -50.499 50.499s-44.666 18.5 -69.999 18.5s-48.666 -6.16699 -69.999 -18.5s-38.166 -29.166 -50.499 -50.499
s-18.5 -44.666 -18.5 -69.999v-37h278zM236 639.998l-80.999 100.001c-2 2 -3 4.33301 -3 7c0 3.33301 1.16699 6.16602 3.5 8.49902s5.5 3.5 9.5 3.5h33c8 0 16.333 -3.33301 25 -10l63 -49l63 49c8.66699 6.66699 16.667 10 24 10h34
c5.33301 0 9.16602 -2.16699 11.499 -6.5s1.83301 -8.5 -1.5 -12.5l-81 -100c-4 -6 -10 -9 -18 -9h-64c-8 0 -14 3 -18 9z" />
    <glyph glyph-name="Gbreve" unicode="&#x11e;" horiz-adv-x="617" 
d="M192 21c-37.333 22 -67 51.667 -89 89s-33 78 -33 122v233c0 44 11 84.667 33 122s51.667 67 89 89s78 33 122 33c36.667 0 71 -6.33301 103 -19s59.667 -30.667 83 -54c3.33301 -2.66699 5 -6.66699 5 -12c0 -4.66699 -1.66699 -9 -5 -13
c-4.66699 -5.33301 -14 -15 -28 -29c-4.66699 -3.33301 -9.33398 -5 -14.001 -5c-5.33301 0 -10.333 2.33301 -15 7c-34 32 -76.667 48 -128 48c-29.333 0 -56.5 -7.66699 -81.5 -23s-44.833 -35.833 -59.5 -61.5s-22 -53.167 -22 -82.5v-233
c0 -29.333 7.33301 -56.833 22 -82.5s34.5 -46.167 59.5 -61.5s52.167 -23 81.5 -23s56.333 7.33301 81 22s44.334 34.5 59.001 59.5s22 52.167 22 81.5v79h-141c-4 0 -7.33301 1.33301 -10 4s-4 6 -4 10v46c0 4 1.33301 7.33301 4 10s6 4 10 4h185
c10 0 18.5 -3.5 25.5 -10.5s10.5 -15.5 10.5 -25.5v-113c0 -44 -10.833 -84.667 -32.5 -122s-51.167 -67 -88.5 -89s-78 -33 -122 -33s-84.667 11 -122 33zM236 781.5c-22.667 12.333 -37.998 24.501 -45.998 36.501c-2.66699 5.33301 -4 8.66602 -4 9.99902
c0 4 2 7.33301 6 10l32 28c2 2 4 3 6 3c2.66699 0 5.33398 -1.33301 8.00098 -4c0.666992 -0.666992 6.66699 -5.5 18 -14.5s31.666 -13.5 60.999 -13.5c16 0 29.667 2.33301 41 7s23.666 12 36.999 22c4.66699 4 9 4 13 0l32 -29c3.33301 -3.33301 5 -6.66602 5 -9.99902
c0 -2.66699 -1 -5.66699 -3 -9c-4 -6 -11.667 -13.333 -23 -22s-26 -16.334 -44 -23.001s-37.667 -10 -59 -10c-30.667 0 -57.334 6.16699 -80.001 18.5z" />
    <glyph glyph-name="gbreve" unicode="&#x11f;" horiz-adv-x="585" 
d="M124.5 -171c-39.667 23.333 -59.499 57.998 -59.499 103.998c0 23.333 5.33301 45.666 16 66.999s25 39 43 53c-16.667 11.333 -28.834 22.833 -36.501 34.5s-11.5 25.834 -11.5 42.501c0 20.667 5.83301 40.334 17.5 59.001s27.5 34.334 47.5 47.001
c-22.667 17.333 -40.334 38.833 -53.001 64.5s-19 54.167 -19 85.5c0 38 9.16699 71.667 27.5 101s43.166 52 74.499 68s66 24 104 24c26 0 52 -4.33301 78 -13h198c4 0 7.33301 -1.33301 10 -4s4 -6 4 -10v-46c0 -4 -1.33301 -7.33301 -4 -10s-6 -4 -10 -4h-101
c20.667 -30 31 -65.333 31 -106c0 -38 -9.16699 -71.667 -27.5 -101s-43.166 -52 -74.499 -68s-66 -24 -104 -24c-25.333 0 -51.666 4.33301 -78.999 13c-14.667 -6.66699 -26 -15.334 -34 -26.001s-12 -22 -12 -34c0 -15.333 6.66699 -26.666 20 -33.999
c10.667 -6 26.334 -10.333 47.001 -13s53 -6 97 -10l39 -3c32 -2.66699 59.5 -7 82.5 -13s42.667 -17.667 59 -35s24.5 -42.666 24.5 -75.999c0 -54.667 -22.333 -96.334 -67 -125.001s-102.334 -43 -173.001 -43c-63.333 0 -114.833 11.667 -154.5 35zM369.501 296.498
c23.667 23 35.5 52.833 35.5 89.5s-11.833 66.5 -35.5 89.5s-55.167 34.5 -94.5 34.5s-70.833 -11.5 -94.5 -34.5s-35.5 -52.833 -35.5 -89.5s11.833 -66.5 35.5 -89.5s55.167 -34.5 94.5 -34.5s70.833 11.5 94.5 34.5zM402.001 -115.002
c29.333 14.667 43.999 37.667 43.999 69c0 16 -4.16699 28 -12.5 36s-19.666 13.5 -33.999 16.5s-35.5 5.83301 -63.5 8.5c-6 0.666992 -20.167 1.83398 -42.5 3.50098s-46.833 4.16699 -73.5 7.5c-16 2 -29.333 4 -40 6c-13.333 -10 -23.833 -22.333 -31.5 -37
s-11.5 -29.667 -11.5 -45c0 -30.667 14.167 -52.834 42.5 -66.501s64.5 -20.5 108.5 -20.5c46.667 0 84.667 7.33301 114 22zM197 660.498c-22.667 12.333 -37.998 24.501 -45.998 36.501c-2.66699 5.33301 -4 8.66602 -4 9.99902c0 4 2 7.33301 6 10l32 28c2 2 4 3 6 3
c2.66699 0 5.33398 -1.33301 8.00098 -4c0.666992 -0.666992 6.66699 -5.5 18 -14.5s31.666 -13.5 60.999 -13.5c16 0 29.667 2.33301 41 7s23.666 12 36.999 22c4.66699 4 9 4 13 0l32 -29c3.33301 -3.33301 5 -6.66602 5 -9.99902c0 -2.66699 -1 -5.66699 -3 -9
c-4 -6 -11.667 -13.333 -23 -22s-26 -16.334 -44 -23.001s-37.667 -10 -59 -10c-30.667 0 -57.334 6.16699 -80.001 18.5z" />
    <glyph glyph-name="Gdotaccent" unicode="&#x120;" horiz-adv-x="617" 
d="M192 21c-37.333 22 -67 51.667 -89 89s-33 78 -33 122v233c0 44 11 84.667 33 122s51.667 67 89 89s78 33 122 33c36.667 0 71 -6.33301 103 -19s59.667 -30.667 83 -54c3.33301 -2.66699 5 -6.66699 5 -12c0 -4.66699 -1.66699 -9 -5 -13
c-4.66699 -5.33301 -14 -15 -28 -29c-4.66699 -3.33301 -9.33398 -5 -14.001 -5c-5.33301 0 -10.333 2.33301 -15 7c-34 32 -76.667 48 -128 48c-29.333 0 -56.5 -7.66699 -81.5 -23s-44.833 -35.833 -59.5 -61.5s-22 -53.167 -22 -82.5v-233
c0 -29.333 7.33301 -56.833 22 -82.5s34.5 -46.167 59.5 -61.5s52.167 -23 81.5 -23s56.333 7.33301 81 22s44.334 34.5 59.001 59.5s22 52.167 22 81.5v79h-141c-4 0 -7.33301 1.33301 -10 4s-4 6 -4 10v46c0 4 1.33301 7.33301 4 10s6 4 10 4h185
c10 0 18.5 -3.5 25.5 -10.5s10.5 -15.5 10.5 -25.5v-113c0 -44 -10.833 -84.667 -32.5 -122s-51.167 -67 -88.5 -89s-78 -33 -122 -33s-84.667 11 -122 33zM280 769c-2.66699 2.66699 -4 6 -4 10v87c0 4 1.33301 7.33301 4 10s6 4 10 4h48c4 0 7.33301 -1.33301 10 -4
s4 -6 4 -10v-87c0 -4 -1.33301 -7.33301 -4 -10s-6 -4 -10 -4h-48c-4 0 -7.33301 1.33301 -10 4z" />
    <glyph glyph-name="gdotaccent" unicode="&#x121;" horiz-adv-x="585" 
d="M124.5 -171c-39.667 23.333 -59.499 57.998 -59.499 103.998c0 23.333 5.33301 45.666 16 66.999s25 39 43 53c-16.667 11.333 -28.834 22.833 -36.501 34.5s-11.5 25.834 -11.5 42.501c0 20.667 5.83301 40.334 17.5 59.001s27.5 34.334 47.5 47.001
c-22.667 17.333 -40.334 38.833 -53.001 64.5s-19 54.167 -19 85.5c0 38 9.16699 71.667 27.5 101s43.166 52 74.499 68s66 24 104 24c26 0 52 -4.33301 78 -13h198c4 0 7.33301 -1.33301 10 -4s4 -6 4 -10v-46c0 -4 -1.33301 -7.33301 -4 -10s-6 -4 -10 -4h-101
c20.667 -30 31 -65.333 31 -106c0 -38 -9.16699 -71.667 -27.5 -101s-43.166 -52 -74.499 -68s-66 -24 -104 -24c-25.333 0 -51.666 4.33301 -78.999 13c-14.667 -6.66699 -26 -15.334 -34 -26.001s-12 -22 -12 -34c0 -15.333 6.66699 -26.666 20 -33.999
c10.667 -6 26.334 -10.333 47.001 -13s53 -6 97 -10l39 -3c32 -2.66699 59.5 -7 82.5 -13s42.667 -17.667 59 -35s24.5 -42.666 24.5 -75.999c0 -54.667 -22.333 -96.334 -67 -125.001s-102.334 -43 -173.001 -43c-63.333 0 -114.833 11.667 -154.5 35zM369.501 296.498
c23.667 23 35.5 52.833 35.5 89.5s-11.833 66.5 -35.5 89.5s-55.167 34.5 -94.5 34.5s-70.833 -11.5 -94.5 -34.5s-35.5 -52.833 -35.5 -89.5s11.833 -66.5 35.5 -89.5s55.167 -34.5 94.5 -34.5s70.833 11.5 94.5 34.5zM402.001 -115.002
c29.333 14.667 43.999 37.667 43.999 69c0 16 -4.16699 28 -12.5 36s-19.666 13.5 -33.999 16.5s-35.5 5.83301 -63.5 8.5c-6 0.666992 -20.167 1.83398 -42.5 3.50098s-46.833 4.16699 -73.5 7.5c-16 2 -29.333 4 -40 6c-13.333 -10 -23.833 -22.333 -31.5 -37
s-11.5 -29.667 -11.5 -45c0 -30.667 14.167 -52.834 42.5 -66.501s64.5 -20.5 108.5 -20.5c46.667 0 84.667 7.33301 114 22zM241 647.998c-2.66699 2.66699 -4 6 -4 10v87c0 4 1.33301 7.33301 4 10s6 4 10 4h48c4 0 7.33301 -1.33301 10 -4s4 -6 4 -10v-87
c0 -4 -1.33301 -7.33301 -4 -10s-6 -4 -10 -4h-48c-4 0 -7.33301 1.33301 -10 4z" />
    <glyph glyph-name="Gcommaaccent" unicode="&#x122;" horiz-adv-x="617" 
d="M192 21c-37.333 22 -67 51.667 -89 89s-33 78 -33 122v233c0 44 11 84.667 33 122s51.667 67 89 89s78 33 122 33c36.667 0 71 -6.33301 103 -19s59.667 -30.667 83 -54c3.33301 -2.66699 5 -6.66699 5 -12c0 -4.66699 -1.66699 -9 -5 -13
c-4.66699 -5.33301 -14 -15 -28 -29c-4.66699 -3.33301 -9.33398 -5 -14.001 -5c-5.33301 0 -10.333 2.33301 -15 7c-34 32 -76.667 48 -128 48c-29.333 0 -56.5 -7.66699 -81.5 -23s-44.833 -35.833 -59.5 -61.5s-22 -53.167 -22 -82.5v-233
c0 -29.333 7.33301 -56.833 22 -82.5s34.5 -46.167 59.5 -61.5s52.167 -23 81.5 -23s56.333 7.33301 81 22s44.334 34.5 59.001 59.5s22 52.167 22 81.5v79h-141c-4 0 -7.33301 1.33301 -10 4s-4 6 -4 10v46c0 4 1.33301 7.33301 4 10s6 4 10 4h185
c10 0 18.5 -3.5 25.5 -10.5s10.5 -15.5 10.5 -25.5v-113c0 -44 -10.833 -84.667 -32.5 -122s-51.167 -67 -88.5 -89s-78 -33 -122 -33s-84.667 11 -122 33zM213 -187.5c-2 3.66699 -1.99805 8.16699 0.00195312 13.5l37 90c5.33301 12.667 14.666 19 27.999 19h67
c4 0 7.33301 -1.33301 10 -4s4 -5.66699 4 -9c0 -4 -1.33301 -7.33301 -4 -10l-81 -93c-6.66699 -8 -15.334 -12 -26.001 -12h-24c-5.33301 0 -9 1.83301 -11 5.5z" />
    <glyph glyph-name="gcommaaccent" unicode="&#x123;" horiz-adv-x="585" 
d="M230 635c-2.66699 2.66699 -3.99902 5.66699 -3.99902 9c0 4 1.33301 7.33301 4 10l92 105c6.66699 8 15.334 12 26.001 12h24c5.33301 0 9.16602 -1.83301 11.499 -5.5s2.16602 -8.16699 -0.500977 -13.5l-48 -102c-6 -12.667 -15.333 -19 -28 -19h-67
c-4 0 -7.33301 1.33301 -10 4zM124.501 -171c-39.667 23.333 -59.499 57.998 -59.499 103.998c0 23.333 5.33301 45.666 16 66.999s25 39 43 53c-16.667 11.333 -28.834 22.833 -36.501 34.5s-11.5 25.834 -11.5 42.501c0 20.667 5.83301 40.334 17.5 59.001
s27.5 34.334 47.5 47.001c-22.667 17.333 -40.334 38.833 -53.001 64.5s-19 54.167 -19 85.5c0 38 9.16699 71.667 27.5 101s43.166 52 74.499 68s66 24 104 24c26 0 52 -4.33301 78 -13h198c4 0 7.33301 -1.33301 10 -4s4 -6 4 -10v-46c0 -4 -1.33301 -7.33301 -4 -10
s-6 -4 -10 -4h-101c20.667 -30 31 -65.333 31 -106c0 -38 -9.16699 -71.667 -27.5 -101s-43.166 -52 -74.499 -68s-66 -24 -104 -24c-25.333 0 -51.666 4.33301 -78.999 13c-14.667 -6.66699 -26 -15.334 -34 -26.001s-12 -22 -12 -34c0 -15.333 6.66699 -26.666 20 -33.999
c10.667 -6 26.334 -10.333 47.001 -13s53 -6 97 -10l39 -3c32 -2.66699 59.5 -7 82.5 -13s42.667 -17.667 59 -35s24.5 -42.666 24.5 -75.999c0 -54.667 -22.333 -96.334 -67 -125.001s-102.334 -43 -173.001 -43c-63.333 0 -114.833 11.667 -154.5 35zM369.502 296.498
c23.667 23 35.5 52.833 35.5 89.5s-11.833 66.5 -35.5 89.5s-55.167 34.5 -94.5 34.5s-70.833 -11.5 -94.5 -34.5s-35.5 -52.833 -35.5 -89.5s11.833 -66.5 35.5 -89.5s55.167 -34.5 94.5 -34.5s70.833 11.5 94.5 34.5zM402.002 -115.002
c29.333 14.667 43.999 37.667 43.999 69c0 16 -4.16699 28 -12.5 36s-19.666 13.5 -33.999 16.5s-35.5 5.83301 -63.5 8.5c-6 0.666992 -20.167 1.83398 -42.5 3.50098s-46.833 4.16699 -73.5 7.5c-16 2 -29.333 4 -40 6c-13.333 -10 -23.833 -22.333 -31.5 -37
s-11.5 -29.667 -11.5 -45c0 -30.667 14.167 -52.834 42.5 -66.501s64.5 -20.5 108.5 -20.5c46.667 0 84.667 7.33301 114 22z" />
    <glyph glyph-name="Hbar" unicode="&#x126;" horiz-adv-x="680" 
d="M586 691c2.66699 -2.66699 4 -6 4 -10v-667c0 -4 -1.33301 -7.33301 -4 -10s-6 -4 -10 -4h-54c-4 -0 -7.33301 1.33301 -10 4s-4 6 -4 10v315h-336v-315c0 -4 -1.33301 -7.33301 -4 -10s-6 -4 -10 -4h-54c-4 -0 -7.33301 1.33301 -10 4s-4 6 -4 10v667
c0 4 1.33301 7.33301 4 10s6 4 10 4h54c4 0 7.33301 -1.33301 10 -4s4 -6 4 -10v-115h336v115c0 4 1.33301 7.33301 4 10s6 4 10 4h54c4 0 7.33301 -1.33301 10 -4zM508 404v93h-336v-93h336z" />
    <glyph glyph-name="hbar" unicode="&#x127;" horiz-adv-x="596" 
d="M468.5 527c35 -34.667 52.499 -80.334 52.499 -137.001v-375c0 -4 -1.5 -7.5 -4.5 -10.5s-6.5 -4.5 -10.5 -4.5h-49c-4 0 -7.33301 1.33301 -10 4s-4 6 -4 10v361c0 42.667 -11.167 75.167 -33.5 97.5s-52.5 33.5 -90.5 33.5c-44.667 0 -80.667 -14.667 -108 -44
s-41 -69.666 -41 -120.999v-326c0 -4 -1.5 -7.5 -4.5 -10.5s-6.5 -4.5 -10.5 -4.5h-48c-4 0 -7.5 1.5 -10.5 4.5s-4.5 6.5 -4.5 10.5v600h-73c-4 0 -7.33301 1.33301 -10 4s-4 6 -4 10v32c0 4 1.33301 7.33301 4 10s6 4 10 4h73v69c0 4 1.5 7.5 4.5 10.5s6.5 4.5 10.5 4.5
h48c4 0 7.5 -1.5 10.5 -4.5s4.5 -6.5 4.5 -10.5v-69h93c4 0 7.33301 -1.33301 10 -4s4 -6 4 -10v-32c0 -4 -1.33301 -7.33301 -4 -10s-6 -4 -10 -4h-93v-119c17.333 27.333 39.833 48 67.5 62s58.834 21 93.501 21c56.667 0 102.5 -17.333 137.5 -52z" />
    <glyph glyph-name="Imacron" unicode="&#x12a;" horiz-adv-x="442" 
d="M69 4c-2.66699 2.66699 -4 6 -4 10v47c0 4 1.33301 7.33301 4 10s6 4 10 4h101v545h-101c-4 0 -7.33301 1.33301 -10 4s-4 6 -4 10v47c0 4 1.33301 7.33301 4 10s6 4 10 4h284c4 0 7.33301 -1.33301 10 -4s4 -6 4 -10v-47c0 -4 -1.33301 -7.33301 -4 -10s-6 -4 -10 -4
h-101v-545h101c4 0 7.33301 -1.33301 10 -4s4 -6 4 -10v-47c0 -4 -1.33301 -7.33301 -4 -10s-6 -4 -10 -4h-284c-4 -0 -7.33301 1.33301 -10 4zM80 787.5c-2.66699 2.33301 -4 5.5 -4 9.5v37c0 4 1.33301 7.16699 4 9.5s6 3.5 10 3.5h260c4 0 7.33301 -1.16699 10 -3.5
s4 -5.5 4 -9.5v-37c0 -4 -1.33301 -7.16699 -4 -9.5s-6 -3.5 -10 -3.5h-260c-4 0 -7.33301 1.16699 -10 3.5z" />
    <glyph glyph-name="imacron" unicode="&#x12b;" horiz-adv-x="393" 
d="M173.5 10.5c-7 7 -10.5 15.5 -10.5 25.5v456h-104c-4 0 -7.33301 1.33301 -10 4s-4 6 -4 10v46c0 4 1.33301 7.33301 4 10s6 4 10 4h146c10 0 18.5 -3.5 25.5 -10.5s10.5 -15.5 10.5 -25.5v-456h103c4 0 7.33301 -1.33301 10 -4s4 -6 4 -10v-46
c0 -4 -1.33301 -7.33301 -4 -10s-6 -4 -10 -4h-145c-10 0 -18.5 3.5 -25.5 10.5zM50 666.5c-2.66699 2.33301 -4 5.5 -4 9.5v37c0 4 1.33301 7.16699 4 9.5s6 3.5 10 3.5h260c4 0 7.33301 -1.16699 10 -3.5s4 -5.5 4 -9.5v-37c0 -4 -1.33301 -7.16699 -4 -9.5
s-6 -3.5 -10 -3.5h-260c-4 0 -7.33301 1.16699 -10 3.5z" />
    <glyph glyph-name="Iogonek" unicode="&#x12e;" horiz-adv-x="437" 
d="M260.5 -173.5c-21 15.667 -31.5 36.168 -31.5 61.501c0 20.667 6.5 40.5 19.5 59.5s28.833 36.5 47.5 52.5h-217c-4 0 -7.33301 1.33301 -10 4s-4 6 -4 10v49c0 4 1.33301 7.33301 4 10s6 4 10 4h101v541h-101c-4 0 -7.33301 1.33301 -10 4s-4 6 -4 10v49
c0 4 1.33301 7.33301 4 10s6 4 10 4h284c4 0 7.33301 -1.33301 10 -4s4 -6 4 -10v-49c0 -4 -1.33301 -7.33301 -4 -10s-6 -4 -10 -4h-101v-541h101c4 0 7.33301 -1.33301 10 -4s4 -6 4 -10v-35c0 -10 -4.33301 -19.333 -13 -28c-19.333 -20 -33.5 -36.333 -42.5 -49
s-13.5 -26.334 -13.5 -41.001c0 -24.667 14 -37 42 -37h17c4 0 7.5 -1.5 10.5 -4.5s4.5 -6.5 4.5 -10.5v-40c0 -4 -1.5 -7.5 -4.5 -10.5s-6.5 -4.5 -10.5 -4.5h-30c-30 0 -55.5 7.83301 -76.5 23.5z" />
    <glyph glyph-name="iogonek" unicode="&#x12f;" horiz-adv-x="393" 
d="M165 668c-2.66699 2.66699 -4 6 -4 10v87c0 4 1.33301 7.33301 4 10s6 4 10 4h48c4 0 7.33301 -1.33301 10 -4s4 -6 4 -10v-87c0 -4 -1.33301 -7.33301 -4 -10s-6 -4 -10 -4h-48c-4 0 -7.33301 1.33301 -10 4zM241.5 -173.5c-21 15.667 -31.5 36.168 -31.5 61.501
c0 20.667 6.5 40.5 19.5 59.5s28.833 36.5 47.5 52.5h-78c-10 0 -18.5 3.5 -25.5 10.5s-10.5 15.5 -10.5 25.5v456h-104c-4 0 -7.33301 1.33301 -10 4s-4 6 -4 10v46c0 4 1.33301 7.33301 4 10s6 4 10 4h146c10 0 18.5 -3.5 25.5 -10.5s10.5 -15.5 10.5 -25.5v-456h103
c4 0 7.33301 -1.33301 10 -4s4 -6 4 -10v-32c0 -10 -4.33301 -19.333 -13 -28c-19.333 -20 -33.5 -36.333 -42.5 -49s-13.5 -26.334 -13.5 -41.001c0 -24.667 14 -37 42 -37h17c4 0 7.5 -1.5 10.5 -4.5s4.5 -6.5 4.5 -10.5v-40c0 -4 -1.5 -7.5 -4.5 -10.5
s-6.5 -4.5 -10.5 -4.5h-30c-30 0 -55.5 7.83301 -76.5 23.5z" />
    <glyph glyph-name="Idotaccent" unicode="&#x130;" horiz-adv-x="442" 
d="M69 4c-2.66699 2.66699 -4 6 -4 10v47c0 4 1.33301 7.33301 4 10s6 4 10 4h101v545h-101c-4 0 -7.33301 1.33301 -10 4s-4 6 -4 10v47c0 4 1.33301 7.33301 4 10s6 4 10 4h284c4 0 7.33301 -1.33301 10 -4s4 -6 4 -10v-47c0 -4 -1.33301 -7.33301 -4 -10s-6 -4 -10 -4
h-101v-545h101c4 0 7.33301 -1.33301 10 -4s4 -6 4 -10v-47c0 -4 -1.33301 -7.33301 -4 -10s-6 -4 -10 -4h-284c-4 -0 -7.33301 1.33301 -10 4zM187 769c-2.66699 2.66699 -4 6 -4 10v87c0 4 1.33301 7.33301 4 10s6 4 10 4h48c4 0 7.33301 -1.33301 10 -4s4 -6 4 -10v-87
c0 -4 -1.33301 -7.33301 -4 -10s-6 -4 -10 -4h-48c-4 0 -7.33301 1.33301 -10 4z" />
    <glyph glyph-name="dotlessi" unicode="&#x131;" horiz-adv-x="393" 
d="M173.5 10.5c-7 7 -10.5 15.5 -10.5 25.5v456h-104c-4 0 -7.33301 1.33301 -10 4s-4 6 -4 10v46c0 4 1.33301 7.33301 4 10s6 4 10 4h146c10 0 18.5 -3.5 25.5 -10.5s10.5 -15.5 10.5 -25.5v-456h103c4 0 7.33301 -1.33301 10 -4s4 -6 4 -10v-46
c0 -4 -1.33301 -7.33301 -4 -10s-6 -4 -10 -4h-145c-10 0 -18.5 3.5 -25.5 10.5z" />
    <glyph glyph-name="Kcommaaccent" unicode="&#x136;" horiz-adv-x="563" 
d="M94.5 3.5c-3 2.33301 -4.5 5.50098 -4.5 9.50098v668c0 4 1.33301 7.33301 4 10s6 4 10 4h54c4 0 7.33301 -1.33301 10 -4s4 -6 4 -10v-298h29l242 303c5.33301 6 11.333 9 18 9h63c4.66699 0 8.16699 -1.16699 10.5 -3.5s3.5 -5.5 3.5 -9.5s-1.33301 -7.33301 -4 -10
l-259 -321l258 -326c2.66699 -2.66699 4 -6 4 -10c0 -4.66699 -1.5 -8.33398 -4.5 -11.001s-6.5 -4 -10.5 -4h-63c-6 0 -11.667 3 -17 9l-237 299h-33v-295c0 -4 -1.5 -7.16699 -4.5 -9.5s-6.5 -3.5 -10.5 -3.5h-52c-4 0 -7.5 1.16699 -10.5 3.5zM215 -187.499
c-2 3.66699 -1.99805 8.16699 0.00195312 13.5l37 90c5.33301 12.667 14.666 19 27.999 19h67c4 0 7.33301 -1.33301 10 -4s4 -5.66699 4 -9c0 -4 -1.33301 -7.33301 -4 -10l-81 -93c-6.66699 -8 -15.334 -12 -26.001 -12h-24c-5.33301 0 -9 1.83301 -11 5.5z" />
    <glyph glyph-name="kcommaaccent" unicode="&#x137;" horiz-adv-x="537" 
d="M94.5 3.5c-3 2.33301 -4.5 5.49902 -4.5 9.49902v732c0 4 1.33301 7.33301 4 10s6 4 10 4h50c4 0 7.33301 -1.33301 10 -4s4 -6 4 -10v-399h41l197 211c5.33301 6 11 9 17 9h65c4 0 7.16699 -1.16699 9.5 -3.5s3.5 -5.16602 3.5 -8.49902c0 -4 -1.33301 -7.33301 -4 -10
l-222 -232l234 -292c2 -2.66699 3 -5.33398 3 -8.00098c0 -3.33301 -1 -6.16602 -3 -8.49902s-5 -3.5 -9 -3.5h-65c-6 0 -11.667 3 -17 9l-209 263h-41v-259c0 -4 -1.5 -7.16699 -4.5 -9.5s-6.5 -3.5 -10.5 -3.5h-48c-4 0 -7.5 1.16699 -10.5 3.5zM192 -187.501
c-2 3.66699 -1.99805 8.16699 0.00195312 13.5l37 90c5.33301 12.667 14.666 19 27.999 19h67c4 0 7.33301 -1.33301 10 -4s4 -5.66699 4 -9c0 -4 -1.33301 -7.33301 -4 -10l-81 -93c-6.66699 -8 -15.334 -12 -26.001 -12h-24c-5.33301 0 -9 1.83301 -11 5.5z" />
    <glyph glyph-name="Lacute" unicode="&#x139;" horiz-adv-x="474" 
d="M100.5 10.5c-7 7 -10.5 15.5 -10.5 25.5v645c0 4 1.33301 7.33301 4 10s6 4 10 4h54c4 0 7.33301 -1.33301 10 -4s4 -6 4 -10v-604h253c4 0 7.33301 -1.33301 10 -4s4 -6 4 -10v-49c0 -4 -1.33301 -7.33301 -4 -10s-6 -4 -10 -4h-299c-10 0 -18.5 3.5 -25.5 10.5z
M105 757.5c-2 3.66699 -1.99805 8.16699 0.00195312 13.5l37 90c5.33301 12.667 14.666 19 27.999 19h67c4 0 7.33301 -1.16699 10 -3.5s4 -5.5 4 -9.5s-1.33301 -7.33301 -4 -10l-81 -93c-6.66699 -8 -15.334 -12 -26.001 -12h-24c-5.33301 0 -9 1.83301 -11 5.5z" />
    <glyph glyph-name="lacute" unicode="&#x13a;" horiz-adv-x="350" 
d="M132.5 10.5c-7 7 -10.5 15.5 -10.5 25.5v649h-93c-4 0 -7.33301 1.33301 -10 4s-4 6 -4 10v46c0 4 1.33301 7.33301 4 10s6 4 10 4h135c10 0 18.5 -3.5 25.5 -10.5s10.5 -15.5 10.5 -25.5v-649h106c4 0 7.33301 -1.33301 10 -4s4 -6 4 -10v-46
c0 -4 -1.33301 -7.33301 -4 -10s-6 -4 -10 -4h-148c-10 0 -18.5 3.5 -25.5 10.5zM142 829.5c-2 3.66699 -1.99805 8.16699 0.00195312 13.5l37 90c5.33301 12.667 14.666 19 27.999 19h67c4 0 7.33301 -1.16699 10 -3.5s4 -5.5 4 -9.5s-1.33301 -7.33301 -4 -10l-81 -93
c-6.66699 -8 -15.334 -12 -26.001 -12h-24c-5.33301 0 -9 1.83301 -11 5.5z" />
    <glyph glyph-name="Lcommaaccent" unicode="&#x13b;" horiz-adv-x="474" 
d="M100.5 10.5c-7 7 -10.5 15.5 -10.5 25.5v645c0 4 1.33301 7.33301 4 10s6 4 10 4h54c4 0 7.33301 -1.33301 10 -4s4 -6 4 -10v-604h253c4 0 7.33301 -1.33301 10 -4s4 -6 4 -10v-49c0 -4 -1.33301 -7.33301 -4 -10s-6 -4 -10 -4h-299c-10 0 -18.5 3.5 -25.5 10.5z
M171 -187.5c-2 3.66699 -1.99805 8.16699 0.00195312 13.5l37 90c5.33301 12.667 14.666 19 27.999 19h67c4 0 7.33301 -1.33301 10 -4s4 -5.66699 4 -9c0 -4 -1.33301 -7.33301 -4 -10l-81 -93c-6.66699 -8 -15.334 -12 -26.001 -12h-24c-5.33301 0 -9 1.83301 -11 5.5z
" />
    <glyph glyph-name="lcommaaccent" unicode="&#x13c;" horiz-adv-x="350" 
d="M132.5 10.5c-7 7 -10.5 15.5 -10.5 25.5v649h-93c-4 0 -7.33301 1.33301 -10 4s-4 6 -4 10v46c0 4 1.33301 7.33301 4 10s6 4 10 4h135c10 0 18.5 -3.5 25.5 -10.5s10.5 -15.5 10.5 -25.5v-649h106c4 0 7.33301 -1.33301 10 -4s4 -6 4 -10v-46
c0 -4 -1.33301 -7.33301 -4 -10s-6 -4 -10 -4h-148c-10 0 -18.5 3.5 -25.5 10.5zM123 -187.5c-2 3.66699 -1.99805 8.16699 0.00195312 13.5l37 90c5.33301 12.667 14.666 19 27.999 19h67c4 0 7.33301 -1.33301 10 -4s4 -5.66699 4 -9c0 -4 -1.33301 -7.33301 -4 -10
l-81 -93c-6.66699 -8 -15.334 -12 -26.001 -12h-24c-5.33301 0 -9 1.83301 -11 5.5z" />
    <glyph glyph-name="Lcaron" unicode="&#x13d;" horiz-adv-x="474" 
d="M100.5 10.5c-7 7 -10.5 15.5 -10.5 25.5v645c0 4 1.33301 7.33301 4 10s6 4 10 4h54c4 0 7.33301 -1.33301 10 -4s4 -6 4 -10v-604h253c4 0 7.33301 -1.33301 10 -4s4 -6 4 -10v-49c0 -4 -1.33301 -7.33301 -4 -10s-6 -4 -10 -4h-299c-10 0 -18.5 3.5 -25.5 10.5z
M311 572.5c-2 3.66699 -1.99805 8.16699 0.00195312 13.5l37 90c5.33301 12.667 14.666 19 27.999 19h67c4.66699 0 8.16699 -1.16699 10.5 -3.5s3.5 -5.5 3.5 -9.5s-1.33301 -7.33301 -4 -10l-81 -93c-6.66699 -8 -15.334 -12 -26.001 -12h-24
c-5.33301 0 -9 1.83301 -11 5.5z" />
    <glyph glyph-name="lcaron" unicode="&#x13e;" horiz-adv-x="362" 
d="M132.5 10.5c-7 7 -10.5 15.5 -10.5 25.5v649h-93c-4 0 -7.33301 1.33301 -10 4s-4 6 -4 10v46c0 4 1.33301 7.33301 4 10s6 4 10 4h135c10 0 18.5 -3.5 25.5 -10.5s10.5 -15.5 10.5 -25.5v-649h106c4 0 7.33301 -1.33301 10 -4s4 -6 4 -10v-46
c0 -4 -1.33301 -7.33301 -4 -10s-6 -4 -10 -4h-148c-10 0 -18.5 3.5 -25.5 10.5zM276 636.5c-2 3.66699 -1.99805 8.16699 0.00195312 13.5l37 90c5.33301 12.667 14.666 19 27.999 19h67c4.66699 0 8.16699 -1.16699 10.5 -3.5s3.5 -5.5 3.5 -9.5s-1.33301 -7.33301 -4 -10
l-81 -93c-6.66699 -8 -15.334 -12 -26.001 -12h-24c-5.33301 0 -9 1.83301 -11 5.5z" />
    <glyph glyph-name="Lslash" unicode="&#x141;" horiz-adv-x="489" 
d="M450 73c2.66699 -2.66699 4 -6 4 -10v-49c0 -4 -1.33301 -7.33301 -4 -10s-6 -4 -10 -4h-299c-10 0 -18.5 3.5 -25.5 10.5s-10.5 15.5 -10.5 25.5v214l-62 -55c-4 -2.66699 -7.33301 -4 -10 -4c-3.33301 0 -6.33301 1.33301 -9 4s-4 6.33398 -4 11.001v51
c0 4.66699 2 9 6 13l79 70v341c0 4 1.33301 7.33301 4 10s6 4 10 4h54c4 0 7.33301 -1.33301 10 -4s4 -6 4 -10v-269l128 113c4 2.66699 7.33301 4 10 4c3.33301 0 6.33301 -1.33301 9 -4s4 -6.33398 4 -11.001v-50c0 -4.66699 -2 -9 -6 -13l-145 -128v-246h253
c4 0 7.33301 -1.33301 10 -4z" />
    <glyph glyph-name="lslash" unicode="&#x142;" horiz-adv-x="395" 
d="M230 385v-311h106c4 0 7.33301 -1.33301 10 -4s4 -6 4 -10v-46c0 -4 -1.33301 -7.33301 -4 -10s-6 -4 -10 -4h-148c-10 0 -18.5 3.5 -25.5 10.5s-10.5 15.5 -10.5 25.5v277l-84 -78c-4 -2.66699 -7.33301 -4 -10 -4c-3.33301 0 -6.33301 1.33301 -9 4
s-4 6.33398 -4 11.001v51c0 4.66699 2 9 6 13l101 93v282h-93c-4 0 -7.33301 1.33301 -10 4s-4 6 -4 10v46c0 4 1.33301 7.33301 4 10s6 4 10 4h135c10 0 18.5 -3.5 25.5 -10.5s10.5 -15.5 10.5 -25.5v-248l97 90c4 2.66699 7.33301 4 10 4c3.33301 0 6.33301 -1.33301 9 -4
s4 -6.33398 4 -11.001v-51c0 -4.66699 -2 -9 -6 -13z" />
    <glyph glyph-name="Nacute" unicode="&#x143;" horiz-adv-x="680" 
d="M94 4c-2.66699 2.66699 -4 6 -4 10v660c0 6 2 11 6 15s9 6 15 6h59c5.33301 0 10.333 -1.16699 15 -3.5s8.33398 -5.83301 11.001 -10.5l316 -552v552c0 4 1.33301 7.33301 4 10s6 4 10 4h50c4 0 7.33301 -1.33301 10 -4s4 -6 4 -10v-660c0 -6 -2 -11 -6 -15
s-9 -6 -15 -6h-60c-5.33301 0 -10.333 1.16699 -15 3.5s-8.33398 5.83301 -11.001 10.5l-315 551v-551c0 -4 -1.33301 -7.33301 -4 -10s-6 -4 -10 -4h-50c-4 -0 -7.33301 1.33301 -10 4zM315 757.5c-2 3.66699 -1.99805 8.16699 0.00195312 13.5l37 90
c5.33301 12.667 14.666 19 27.999 19h67c4 0 7.33301 -1.16699 10 -3.5s4 -5.5 4 -9.5s-1.33301 -7.33301 -4 -10l-81 -93c-6.66699 -8 -15.334 -12 -26.001 -12h-24c-5.33301 0 -9 1.83301 -11 5.5z" />
    <glyph glyph-name="nacute" unicode="&#x144;" horiz-adv-x="594" 
d="M94 5c-2.66699 2.66699 -4.00098 6 -4.00098 10v537c0 4 1.33301 7.33301 4 10s6 4 10 4h50c4 0 7.33301 -1.33301 10 -4s4 -6 4 -10v-55c17.333 27.333 39.833 48 67.5 62s58.834 21 93.501 21c56.667 0 102.5 -17.333 137.5 -52s52.5 -80.334 52.5 -137.001v-376
c0 -4 -1.33301 -7.33301 -4 -10s-6 -4 -10 -4h-50c-4 0 -7.33301 1.33301 -10 4s-4 6 -4 10v361c0 42.667 -11.167 75.167 -33.5 97.5s-52.5 33.5 -90.5 33.5c-44.667 0 -80.667 -14.667 -108 -44s-41 -69.666 -41 -120.999v-327c0 -4 -1.33301 -7.33301 -4 -10
s-6 -4 -10 -4h-50c-4 0 -7.33301 1.33301 -10 4zM279.999 636.5c-2 3.66699 -1.99805 8.16699 0.00195312 13.5l37 90c5.33301 12.667 14.666 19 27.999 19h67c4 0 7.33301 -1.16699 10 -3.5s4 -5.5 4 -9.5s-1.33301 -7.33301 -4 -10l-81 -93
c-6.66699 -8 -15.334 -12 -26.001 -12h-24c-5.33301 0 -9 1.83301 -11 5.5z" />
    </font>
</defs>
</svg>
