<?xml version="1.0" standalone="no"?>
<!DOCTYPE svg PUBLIC "-//W3C//DTD SVG 1.1//EN" "http://www.w3.org/Graphics/SVG/1.1/DTD/svg11.dtd" >
<svg xmlns="http://www.w3.org/2000/svg" xmlns:xlink="http://www.w3.org/1999/xlink" version="1.1">
<metadata>
Created by FontForge 20170910 at Thu Jun 23 15:12:38 2011
 By Jimmy Wärting
Copyright 1991, Atech Software, Carlsbad CA 
</metadata>
<defs>
<font id="Nachlaot" horiz-adv-x="564" >
  <font-face 
    font-family="Nachlaot"
    font-weight="400"
    font-stretch="normal"
    units-per-em="1000"
    panose-1="0 0 0 0 0 0 0 0 0 0"
    ascent="800"
    descent="-200"
    bbox="-363 -246 483 725"
    underline-thickness="50"
    underline-position="-130"
    unicode-range="U+0020-FB4E"
  />
<missing-glyph 
 />
    <glyph glyph-name=".notdef" 
 />
    <glyph glyph-name="glyph1" horiz-adv-x="0" 
 />
    <glyph glyph-name="glyph2" 
 />
    <glyph glyph-name="space" unicode=" " 
 />
    <glyph glyph-name="space" unicode="&#xa0;" 
 />
    <glyph glyph-name="exclam" unicode="!" horiz-adv-x="202" 
d="M31 61l23 -30l-31 -32l-23 29l31 33v0zM30 86l42 206l63 60q-4 -41 -13 -78.5t-25 -71.5q-15 -33 -31.5 -61.5t-35.5 -54.5v0z" />
    <glyph glyph-name="quotedbl" unicode="&#x22;" horiz-adv-x="208" 
d="M1 214q9 17 14.5 32.5t8.5 30.5v7.5t1 10.5q0 6 0.5 12t1.5 12l42 27q2 -6 2.5 -12t0.5 -12q0 -7 -1 -13.5t-3 -14.5q-1 -7 -4.5 -14.5t-8.5 -17.5q-4 -8 -9.5 -15t-11.5 -14q-6 -5 -14 -9.5t-19 -9.5v0zM75 214q9 17 14.5 32.5t8.5 30.5q0 2 0.5 3.5t0.5 3.5v3v3v2
q0 1 1 3v2.5v2.5v10.5v8.5l42 27q2 -6 2.5 -12t0.5 -12q0 -7 -1 -13.5t-3 -14.5q-1 -7 -5 -16.5t-12 -23.5q-6 -12 -18 -22t-31 -18v0z" />
    <glyph glyph-name="numbersign" unicode="#" horiz-adv-x="537" 
d="M301 199h76l-6 -18h-79q-5 -15 -9.5 -26t-9.5 -19q-3 -7 -10.5 -20.5t-21.5 -35.5q-12 -20 -28.5 -40.5t-39.5 -40.5l66 182h-106q-7 -22 -18.5 -45t-27.5 -48q-14 -24 -32 -46.5t-41 -42.5l63 182h-75l6 19h75l66 198h-76l7 19h74l36 113l65 36l-45 -149h106l33 113
l65 36l-45 -150h76l-6 -18h-75l-63 -199v0zM142 200h104l62 198h-103l-63 -198v0z" />
    <glyph glyph-name="dollar" unicode="$" horiz-adv-x="530" 
d="M119 82l63 164q-7 4 -18 16t-25 32q-13 20 -20 38t-8 34q0 33 9.5 57t28.5 39q20 15 38.5 26.5t36.5 18.5t29.5 10t16.5 4h8.5t7.5 1l33 80l98 41l-53 -131l49 -20q15 -7 29.5 -19t27.5 -31l-84 -72q1 2 1.5 4.5t1.5 6.5q0 2 0.5 4t0.5 4q0 1 0.5 3t0.5 4q0 4 -0.5 7.5
t-1.5 7.5q-1 3 -2.5 6.5t-3.5 7.5q-2 5 -6 10t-10 9q-4 5 -9.5 8.5t-11.5 7.5l-53 -140q9 -2 24 -17.5t37 -44.5q20 -26 29 -49.5t9 -43.5v-2.5v-3.5q-3 -25 -13.5 -44.5t-29.5 -33.5q-18 -13 -37.5 -24.5t-41.5 -20.5q-21 -8 -39 -12t-33 -5q-9 0 -18 1t-20 2
q-2 -3 -4 -5.5t-3 -4.5q-2 -2 -4 -4.5t-4 -5.5q-3 -3 -8 -8.5t-13 -12.5q-3 -4 -6.5 -7.5l-7.5 -7.5q-4 -3 -8 -6.5t-8 -7.5q-7 -7 -15.5 -13t-18.5 -11l41 111q-2 0 -5 1t-8 3q-4 2 -11.5 7t-20.5 14q-11 9 -20.5 18.5t-17.5 19.5q-7 10 -13 22t-11 27l75 67
q-1 -7 -2 -14.5t-1 -15.5q0 -13 3 -26t9 -27q6 -13 11.5 -22t9.5 -14q2 -2 4.5 -4t4.5 -4q3 -3 5.5 -5t5.5 -4v0zM288 179q-9 11 -18 19t-18 12q-2 -7 -4.5 -13t-5.5 -12q-1 -5 -5 -14.5t-12 -23.5q-6 -13 -12 -24.5t-12 -21.5q-2 -4 -4.5 -8.5t-5.5 -8.5q-2 -5 -5 -9t-6 -9
q17 3 35.5 7.5t37.5 10.5t31.5 17.5t19.5 27.5q0 2 0.5 3.5t0.5 3.5q0 1 0.5 2.5t0.5 2.5q0 8 -4.5 17t-13.5 21v0zM223 466q-15 -7 -23.5 -18.5t-11.5 -28.5v-2.5v-3.5q-1 -1 -1 -2.5v-3.5q0 -8 2 -15.5t6 -13.5q6 -7 13 -12.5t15 -10.5l46 125h-1.5h-1.5q-7 0 -18 -3
t-25 -11v0z" />
    <glyph glyph-name="percent" unicode="%" horiz-adv-x="390" 
d="M190 83q0 13 2 25t6 23q5 17 13.5 30t20.5 23q11 10 25 14.5t30 5.5q14 0 25.5 -6t20.5 -18t13.5 -26.5t4.5 -32.5q0 -6 -0.5 -11.5t-1.5 -10.5t-3 -10.5t-4 -11.5q-3 -14 -12 -27.5t-24 -26.5q-14 -12 -30 -17.5t-33 -5.5q-12 0 -21.5 5.5t-17.5 17.5q-7 12 -10 27
t-4 33v0zM222 30q3 -5 7 -7.5t10 -3.5q8 0 18 5.5t23 15.5q12 11 20 20.5t12 18.5l5.5 16.5t4.5 14.5t2.5 14t0.5 14q0 11 -1.5 19t-5.5 14q-3 6 -8.5 9t-14.5 4q-8 0 -18 -5.5t-22 -17.5q-10 -10 -17 -20t-10 -20l-2 -8q-1 -4 -2 -9l-2 -8q-1 -4 -2 -9q-1 -8 -2 -15t-1 -12
q0 -9 1 -16.5t4 -13.5v0zM0 0l270 345l83 36l-196 -251q-15 -18 -29 -32.5t-28 -26.5q-13 -11 -25.5 -21t-25.5 -20q-12 -9 -24 -16.5t-25 -13.5v0zM9 260q0 13 2 25t6 23q5 17 13.5 30t20.5 23q12 11 25.5 16t29.5 5q14 0 25.5 -6t20.5 -18q9 -11 13.5 -25.5t4.5 -32.5
q0 -10 -2 -21.5t-7 -23.5q-4 -16 -13.5 -30t-23.5 -26q-13 -11 -28.5 -16.5t-32.5 -6.5q-13 0 -22.5 6t-17.5 18q-7 12 -10 27t-4 33v0zM41 207q2 -5 6 -7.5t11 -3.5q9 0 19.5 5.5t22.5 15.5q12 11 20.5 22t13.5 24q5 12 7 25t3 27q0 11 -1.5 19t-5.5 14q-3 6 -8.5 9
t-14.5 4q-7 0 -17 -5.5t-22 -16.5q-11 -10 -18.5 -22t-12.5 -26q-4 -13 -5.5 -26t-2.5 -27q0 -9 1 -16.5t4 -14.5v0z" />
    <glyph glyph-name="ampersand" unicode="&#x26;" horiz-adv-x="395" 
d="M249 71q-4 -10 -9 -20t-13 -20q-6 -7 -16 -13t-24 -11q-13 -4 -28 -6t-32 -2q-19 0 -37 2.5t-35 9.5q-16 7 -26.5 16.5t-15.5 22.5q-4 12 -6.5 24t-3.5 24q0 21 6.5 40t19.5 35q13 17 29 27.5t35 15.5q-6 5 -10.5 11.5t-8.5 13.5q-3 8 -4.5 16t-1.5 17q0 14 3 26t10 24
q7 11 15.5 19.5t18.5 15.5q11 6 18.5 10t13.5 5q5 2 10.5 2.5t12.5 1.5q15 0 28 -6.5t23 -20.5q10 -13 14.5 -30t5.5 -37q-1 6 -8 13t-19 15t-24 11.5t-24 3.5q-15 0 -25.5 -5.5t-16.5 -17.5q-3 -5 -4.5 -10t-3.5 -10q-1 -6 -2 -11t-1 -10q0 -11 3 -21t9 -20
q6 -8 14.5 -13.5t19.5 -9.5q-1 1 -1.5 1h-2.5q-7 -1 -20.5 -10t-34.5 -27q-23 -20 -34.5 -39t-12.5 -38q0 -4 2.5 -11t7.5 -17q5 -8 11.5 -15t14.5 -13q8 -4 15.5 -6.5t14.5 -3.5q9 0 17.5 3t15.5 9q8 6 15.5 13.5t14.5 17.5q3 5 6 9t6 9q3 4 5.5 8.5t4.5 8.5q5 8 7 17t2 20
v7t-1 5l-22 -1l-17 -6l-21 -11q0 8 4 16.5t11 18.5q8 9 18.5 13.5t24.5 5.5h86q6 0 11 1t9 3q5 2 10 5t9 8q0 -7 -4 -15.5t-13 -19.5q-8 -9 -18 -13.5t-23 -5.5l-22 1q2 -7 2.5 -14t0.5 -14q0 -12 -2 -24t-7 -24v0z" />
    <glyph glyph-name="quotesingle" unicode="'" horiz-adv-x="145" 
d="M1 214q9 17 14.5 32.5t8.5 30.5v7.5t1 10.5q0 6 0.5 12t1.5 12l42 27q2 -6 2.5 -12t0.5 -12q0 -7 -1 -13.5t-3 -14.5q-1 -7 -4.5 -14.5t-8.5 -17.5q-4 -8 -9.5 -15t-11.5 -14q-6 -5 -14 -9.5t-19 -9.5v0z" />
    <glyph glyph-name="parenleft" unicode="(" horiz-adv-x="294" 
d="M128 515q12 17 27.5 35.5t34.5 39.5h51q-23 -31 -42 -60.5t-34 -57.5q-14 -27 -27 -55.5t-24 -60.5l-18.5 -55.5t-15.5 -48.5q-5 -21 -9 -41l-8 -40l-12 -236h-51v248q5 38 11 70.5t15 59.5t21 55t27 56q15 29 28.5 51.5t25.5 39.5v0z" />
    <glyph glyph-name="parenright" unicode=")" horiz-adv-x="294" 
d="M113 24q-10 -15 -25.5 -33.5t-36.5 -40.5l-51 -1q24 32 43.5 62t35.5 59q15 29 28 58t24 60q11 30 18.5 54t13.5 42q5 18 9.5 38.5t8.5 43.5l9 239h51v-248q-4 -38 -11 -70.5t-16 -60.5q-8 -26 -20 -54t-28 -58q-15 -29 -28 -51.5t-25 -38.5v0z" />
    <glyph glyph-name="asterisk" unicode="*" horiz-adv-x="414" 
d="M98 555l44 28l72 -125l64 118l47 -25l-68 -123h135l1 -50l-138 3l75 -126l-44 -27l-72 125l-68 -117l-51 22l71 120l-142 3l3 53l142 -3l-71 124v0z" />
    <glyph glyph-name="plus" unicode="+" horiz-adv-x="357" 
d="M24 87q20 21 35.5 43.5t27.5 47.5q9 19 16 37t13 36h-116l10 33h115l36 106l78 44l-56 -150h109l-10 -33h-116q0 -9 -2.5 -19t-7.5 -22q-4 -10 -15 -25t-28 -35q-16 -18 -30.5 -31t-28.5 -21l-19.5 -6.5t-10.5 -4.5v0z" />
    <glyph glyph-name="comma" unicode="," horiz-adv-x="135" 
d="M0 -69q9 17 14.5 33t8.5 31q1 3 1 5.5v5.5v2q0 1 1 3v2.5v2.5v11v9l42 27q2 -7 2.5 -13t0.5 -12q0 -14 -4 -28.5t-13 -30.5q-8 -16 -21 -27.5t-32 -19.5v-1z" />
    <glyph glyph-name="hyphen" unicode="-" horiz-adv-x="357" 
d="M284 248h-282l10 34h282l-10 -34v0z" />
    <glyph glyph-name="slash" unicode="/" horiz-adv-x="390" 
d="M0 0l270 345l83 36l-196 -251q-15 -18 -29 -32.5t-28 -26.5q-13 -11 -25.5 -21t-25.5 -20q-12 -9 -24 -16.5t-25 -13.5v0z" />
    <glyph glyph-name="zero" unicode="0" horiz-adv-x="390" 
d="M32 155q0 26 4 48.5t11 43.5q11 29 25.5 53t33.5 43q19 18 41.5 27t50.5 10q26 0 45.5 -10t34.5 -31q15 -19 22.5 -44t7.5 -57v-12q0 -6 -1 -11q0 -6 -1 -12l-2 -12q-1 -10 -6.5 -27.5t-16.5 -43.5q-9 -24 -24 -45t-36 -40q-19 -17 -43.5 -25.5t-53.5 -9.5
q-21 0 -37.5 11.5t-30.5 33.5q-12 23 -18 50t-6 60v0zM86 59q4 -9 10.5 -13.5t16.5 -5.5q15 0 32.5 9t38.5 27q20 18 34.5 39.5t24.5 46.5q9 25 13.5 50t5.5 51q0 18 -3 32.5t-9 24.5q-6 11 -15 16t-22 6q-13 0 -30 -10t-37 -31q-19 -19 -32 -41t-21 -47q-7 -23 -11 -47.5
t-4 -50.5q0 -18 2 -31.5t6 -24.5v0z" />
    <glyph glyph-name="one" unicode="1" horiz-adv-x="390" 
d="M164 314l-31 3l108 81q-3 -34 -11 -74.5t-22 -87.5q-13 -46 -25.5 -81t-26.5 -59q-13 -22 -22 -37t-16 -23q-6 -7 -14.5 -16t-19.5 -21q10 31 17 54.5t12 39.5t10 37.5t12 49.5l29 134v0z" />
    <glyph glyph-name="two" unicode="2" horiz-adv-x="386" 
d="M177 281l-61 -21v5t-1 7q0 21 8.5 39t26.5 34t37.5 23.5t41.5 8.5q18 0 33.5 -5t28.5 -16q13 -10 20 -19.5t8 -19.5q0 -4 0.5 -8t0.5 -6q0 -3 0.5 -5t0.5 -4v-2.5v-3.5q0 -19 -7 -36.5t-21 -33.5q-13 -15 -29 -25t-36 -16q-18 -5 -34.5 -9.5t-31.5 -9.5q-17 -6 -32 -15
t-29 -23q-13 -13 -22 -29t-15 -36q18 5 36 7.5t36 3.5q9 0 21 -1.5t28 -6.5q15 -4 25.5 -5.5t16.5 -2.5q4 0 11.5 0.5t18.5 1.5q11 2 26 9.5t35 20.5q-8 -20 -15.5 -34.5t-15.5 -23.5q-7 -7 -16.5 -12t-23.5 -8q-13 -1 -22 -2t-14 -2q-7 0 -18 1.5t-27 4.5q-15 3 -26.5 4.5
t-19.5 2.5q-30 0 -60 -3t-60 -10q4 26 13 49.5t23 44.5t28 36t29 25q15 9 36 19.5t48 23.5q27 12 44.5 21t26.5 16q8 7 12 23.5t5 43.5q0 7 -3 14t-10 14q-6 7 -13 10.5t-16 4.5q-10 0 -19 -6t-17 -20q-6 -10 -8.5 -18t-2.5 -14v-2.5t1 -3.5v0z" />
    <glyph glyph-name="three" unicode="3" horiz-adv-x="386" 
d="M123 313q-13 -8 -20 -15t-8 -14q0 20 7 36.5t20 31.5q14 14 29.5 21t33.5 8q13 0 26.5 -5.5t29.5 -16.5q15 -10 22.5 -26t7.5 -39q0 -12 -3 -23.5t-10 -22.5q-6 -10 -14 -18t-19 -14q15 -11 26.5 -21.5t19.5 -21.5q8 -9 11.5 -20.5t4.5 -25.5q0 -15 -4.5 -31t-15.5 -33
q-10 -16 -22 -27.5t-28 -19.5q-14 -6 -30 -9t-34 -4q-20 0 -38.5 4t-35.5 13q-16 9 -27.5 22t-17.5 29l43 24q2 -13 9 -24t18 -21q11 -9 24 -13.5t27 -4.5q5 0 9 0.5t9 1.5q4 1 8.5 2.5t8.5 3.5q8 5 14 11t12 13q5 8 9 14.5t6 13.5q2 6 2.5 11.5t1.5 9.5q0 15 -6.5 28
t-20.5 24q-13 11 -26.5 16t-29.5 5l13 42q12 1 22 4.5t19 10.5q8 7 11.5 16t4.5 22q0 4 -1.5 11t-4.5 17q-2 11 -11.5 16t-26.5 5q-13 0 -27 -4t-28 -13v0z" />
    <glyph glyph-name="four" unicode="4" horiz-adv-x="390" 
d="M128 -2l53 180h-168q28 38 56.5 69t57.5 56q29 24 53.5 42t43.5 31q19 12 40.5 24t46.5 24l-57 -191h79l-94 -55l-34 -118l-77 -62v0zM101 233h97l36 127q-19 -10 -36 -21.5t-32 -25.5q-13 -12 -23 -22.5t-17 -20.5q-6 -8 -12 -17t-13 -20v0z" />
    <glyph glyph-name="five" unicode="5" horiz-adv-x="390" 
d="M60 169l63 203l14 2q7 1 15 2h4q2 0 3 1h4h3h5.5t4.5 1h40t36 1q17 0 33.5 0.5t32.5 1.5l-14 -48h-147l-29 -104q6 7 19 13t34 12q17 5 30 7.5t22 2.5h2h2q1 -1 2 -1h2q20 -4 34.5 -13.5t23.5 -24.5q8 -13 12 -29.5t5 -36.5q0 -32 -11.5 -61.5t-35.5 -55.5
q-23 -25 -48 -43.5t-51 -31.5q-25 -12 -45.5 -20.5t-35.5 -13.5q-13 -5 -29 -7t-36 -2l12 35q33 1 61 8t51 22q23 13 40 25.5t27 24.5q11 11 18.5 22.5t11.5 23.5q5 12 8 21.5t4 16.5q2 7 2.5 13t0.5 11q0 12 -3 22t-10 19q-6 9 -12.5 16t-14.5 12q-7 5 -14.5 7t-16.5 3
q-7 0 -15.5 -2t-17.5 -7q-8 -4 -16.5 -10.5t-16.5 -14.5q-7 -7 -13.5 -15t-11.5 -17q-4 -7 -7.5 -12.5t-6.5 -10.5l-24 32v0z" />
    <glyph glyph-name="six" unicode="6" horiz-adv-x="390" 
d="M89 315q26 41 67.5 66t98.5 35q-28 -13 -49 -28.5t-37 -33.5q-15 -17 -25.5 -30t-16.5 -23q-3 -4 -5.5 -9t-4.5 -10q-2 -6 -4.5 -11.5t-5.5 -11.5q7 8 16 14t21 12q12 5 25 7.5t27 3.5q23 0 42.5 -7t35.5 -22q17 -14 25 -33.5t8 -44.5q0 -3 -1.5 -15.5t-6.5 -35.5
q-3 -22 -13.5 -45t-30.5 -47q-18 -22 -43.5 -33.5t-58.5 -12.5q-26 0 -47 12t-38 36q-15 24 -22.5 51.5t-8.5 58.5q0 38 13 77.5t39 79.5v0zM172 54h9t8 1q17 2 30 11.5t23 25.5t14.5 34t5.5 38q0 19 -4.5 35t-13.5 30t-22 20.5t-31 7.5q-5 0 -13.5 -1.5t-20.5 -6.5
q-11 -3 -21.5 -13t-20.5 -28q-9 -16 -13.5 -34t-4.5 -38q0 -17 4.5 -31.5t14.5 -27.5q9 -11 23 -16.5t33 -6.5v0z" />
    <glyph glyph-name="seven" unicode="7" horiz-adv-x="390" 
d="M68 309q-9 -3 -19.5 -7.5t-24.5 -12.5l41 80q9 1 16 1.5t13 1.5q6 0 10.5 0.5t7.5 1.5q4 1 8 1h8h2.5t3.5 1v0h2h2h2q11 0 27 -1.5t38 -6.5q23 -3 39 -4.5t26 -2.5q20 2 41 6.5t43 13.5q-26 -22 -48 -45t-40 -46q-17 -22 -33 -48.5t-31 -57.5q-14 -30 -24.5 -56
t-18.5 -49q-6 -22 -10.5 -48t-8.5 -54l-75 -73q8 59 21.5 109.5t32.5 93.5q20 42 35 72t25 48q11 17 26 38t34 46q-16 -2 -26 -3t-15 -2h-7.5h-7.5q-6 0 -15 1t-21 4q-11 2 -19.5 3t-14.5 2q-12 0 -23 -1.5t-22 -5.5v0z" />
    <glyph glyph-name="eight" unicode="8" horiz-adv-x="390" 
d="M72 192q19 20 36.5 29.5t34.5 9.5q-4 8 -7.5 15.5t-6.5 15.5q-1 8 -2 17t-2 20q2 16 9 30t20 27q12 12 25 18t27 7q16 0 30 -5.5t27 -17.5q12 -11 18 -25t7 -31q0 -13 -6 -26t-18 -26q-12 -12 -22 -18.5t-19 -8.5q5 -5 9 -10.5t9 -11.5q4 -6 8.5 -12.5t8.5 -13.5
q5 -7 8 -13.5t6 -12.5q2 -7 3 -13.5t1 -13.5q0 -25 -7.5 -47t-22.5 -40q-15 -17 -36.5 -25.5t-50.5 -9.5q-25 0 -47 7t-41 22q-18 14 -27 34.5t-9 47.5q0 21 9 41.5t28 39.5v0zM128 198q-3 -1 -5.5 -2.5t-4.5 -3.5l-4.5 -4.5l-5.5 -5.5q-6 -7 -10.5 -15t-9.5 -17
q-3 -7 -4.5 -14.5t-2.5 -15.5q0 -18 7.5 -33t22.5 -29q15 -13 31.5 -19t34.5 -7q11 0 21 4t19 12t13.5 18t4.5 23q0 17 -6 33t-20 31q-13 14 -25.5 27t-26.5 25q-8 -1 -15 -2.5t-14 -4.5v0zM226 249q5 5 9 9.5t6 10.5q3 7 4.5 14t2.5 15q0 11 -3.5 20t-11.5 17
q-7 8 -15 11.5t-19 4.5q-8 0 -15 -3t-14 -9q-5 -5 -7.5 -11.5t-3.5 -14.5q0 -11 4.5 -23.5t14.5 -26.5q10 -12 16.5 -18t11.5 -6h1v0q4 1 8.5 3.5t10.5 6.5v0z" />
    <glyph glyph-name="nine" unicode="9" horiz-adv-x="390" 
d="M125 -38q-24 -13 -45 -22t-40 -15q23 13 44 30.5t41 39.5q20 20 34 37.5t23 31.5t17.5 31.5t16.5 37.5q-1 -3 -10.5 -9t-27.5 -16q-16 -9 -30.5 -13.5t-27.5 -4.5q-19 0 -34 8.5t-27 24.5q-10 17 -15.5 36t-6.5 41q0 31 11.5 61t34.5 60t46 45t47 15q29 0 51 -10.5
t38 -33.5q15 -22 22.5 -48t7.5 -58t-5 -59t-16 -50q-10 -22 -25 -44t-35 -45q-19 -22 -41 -39t-48 -31v-1zM138 134q8 0 16 1.5t17 4.5q14 4 24.5 13t19.5 23q8 14 12 29t5 33q0 17 -4 31.5t-13 26.5q-8 12 -21 18t-31 6q-5 0 -13.5 -1.5t-19.5 -4.5q-10 -2 -20 -11t-20 -25
q-9 -15 -13.5 -31.5t-4.5 -35.5q0 -16 4 -29.5t13 -25.5q8 -10 20.5 -15.5t28.5 -6.5v0z" />
    <glyph glyph-name="colon" unicode=":" horiz-adv-x="202" 
d="M31 61l23 -30l-31 -32l-23 29l31 33v0zM99 273l23 -30l-32 -32l-23 29l32 33v0z" />
    <glyph glyph-name="semicolon" unicode=";" horiz-adv-x="202" 
d="M0 -69q9 17 14.5 33t8.5 31q1 3 1 5.5v5.5v2q0 1 1 3v2.5v2.5v11v9l42 27q2 -7 2.5 -13t0.5 -12q0 -14 -4 -28.5t-13 -30.5q-8 -16 -21 -27.5t-32 -19.5v-1zM114 272l23 -30l-31 -32l-23 29l31 33v0z" />
    <glyph glyph-name="less" unicode="&#x3c;" horiz-adv-x="378" 
d="M287 311l-210 -97l92 -89q14 -12 23.5 -25.5t16.5 -29.5q6 -14 10 -24.5t6 -18.5q2 -7 2.5 -13.5t1.5 -13.5l-231 234l320 149l-31 -72v0z" />
    <glyph glyph-name="equal" unicode="=" horiz-adv-x="357" 
d="M284 181h-282l10 33h282l-10 -33v0zM313 248h-282l10 34h282l-10 -34v0z" />
    <glyph glyph-name="greater" unicode="&#x3e;" horiz-adv-x="378" 
d="M34 70l209 96l-91 89q-13 12 -22 24.5t-16 25.5q-6 12 -10 21.5t-7 16.5q-2 7 -3 16t-2 22l231 -234l-321 -149l32 72v0z" />
    <glyph glyph-name="question" unicode="?" horiz-adv-x="265" 
d="M31 61l23 -30l-31 -32l-23 29l31 33v0zM33 298q-13 -3 -21.5 -6t-11.5 -6q5 13 13.5 23t20.5 18q11 8 24 11.5t28 4.5q22 0 41.5 -6t36.5 -20q17 -12 25.5 -28.5t9.5 -37.5q0 -22 -7 -38t-21 -26q-10 -4 -20 -7.5t-20 -6.5q-11 -4 -21 -7.5t-20 -7.5q-4 -4 -7.5 -11
t-5.5 -18q-1 -4 -1.5 -8t-0.5 -8q-1 -4 -1.5 -7t-1.5 -6q0 -5 -1.5 -8.5t-6.5 -5.5q-1 -1 -4 -1h-6h-2h-2q-1 -1 -2 -1h-2q-10 0 -15.5 3.5t-5.5 10.5q0 12 2.5 24t8.5 24q5 12 12 21t16 16q18 5 32.5 10t26.5 12q11 6 16 15.5t6 22.5q0 15 -4 26.5t-13 18.5q-8 8 -19 11.5
t-25 4.5q-11 0 -24 -1.5t-27 -4.5v0z" />
    <glyph glyph-name="at" unicode="@" horiz-adv-x="500" 
 />
    <glyph glyph-name="exclamdown" unicode="&#xa1;" horiz-adv-x="500" 
 />
    <glyph glyph-name="cent" unicode="&#xa2;" horiz-adv-x="500" 
 />
    <glyph glyph-name="sterling" unicode="&#xa3;" horiz-adv-x="500" 
 />
    <glyph glyph-name="currency" unicode="&#xa4;" horiz-adv-x="500" 
 />
    <glyph glyph-name="yen" unicode="&#xa5;" horiz-adv-x="500" 
 />
    <glyph glyph-name="brokenbar" unicode="&#xa6;" 
 />
    <glyph glyph-name="section" unicode="&#xa7;" horiz-adv-x="500" 
 />
    <glyph glyph-name="dieresis" unicode="&#xa8;" horiz-adv-x="500" 
 />
    <glyph glyph-name="copyright" unicode="&#xa9;" horiz-adv-x="500" 
 />
    <glyph glyph-name="ordfeminine" unicode="&#xaa;" horiz-adv-x="500" 
 />
    <glyph glyph-name="guillemotleft" unicode="&#xab;" horiz-adv-x="500" 
 />
    <glyph glyph-name="logicalnot" unicode="&#xac;" 
 />
    <glyph glyph-name="sfthyphen" unicode="&#xad;" 
 />
    <glyph glyph-name="registered" unicode="&#xae;" horiz-adv-x="500" 
 />
    <glyph glyph-name="overstore" unicode="&#xaf;" 
 />
    <glyph glyph-name="glyph50" unicode="&#xb0;" 
 />
    <glyph glyph-name="plusminus" unicode="&#xb1;" horiz-adv-x="500" 
 />
    <glyph glyph-name="twosuperior" unicode="&#xb2;" 
 />
    <glyph glyph-name="threesuperior" unicode="&#xb3;" 
 />
    <glyph glyph-name="acute" unicode="&#xb4;" horiz-adv-x="500" 
 />
    <glyph glyph-name="mu" unicode="&#xb5;" horiz-adv-x="500" 
 />
    <glyph glyph-name="paragraph" unicode="&#xb6;" horiz-adv-x="500" 
 />
    <glyph glyph-name="middot" unicode="&#xb7;" 
 />
    <glyph glyph-name="cedilla" unicode="&#xb8;" horiz-adv-x="500" 
 />
    <glyph glyph-name="onesuperior" unicode="&#xb9;" 
 />
    <glyph glyph-name="ordmasculine" unicode="&#xba;" horiz-adv-x="500" 
 />
    <glyph glyph-name="guillemotright" unicode="&#xbb;" horiz-adv-x="500" 
 />
    <glyph glyph-name="onequarter" unicode="&#xbc;" 
 />
    <glyph glyph-name="onehalf" unicode="&#xbd;" 
 />
    <glyph glyph-name="threequarters" unicode="&#xbe;" 
 />
    <glyph glyph-name="questiondown" unicode="&#xbf;" horiz-adv-x="500" 
 />
    <glyph glyph-name="Agrave" unicode="&#xc0;" horiz-adv-x="500" 
 />
    <glyph glyph-name="Aacute" unicode="&#xc1;" horiz-adv-x="500" 
 />
    <glyph glyph-name="Acircumflex" unicode="&#xc2;" horiz-adv-x="500" 
 />
    <glyph glyph-name="Atilde" unicode="&#xc3;" horiz-adv-x="500" 
 />
    <glyph glyph-name="Adieresis" unicode="&#xc4;" horiz-adv-x="500" 
 />
    <glyph glyph-name="Aring" unicode="&#xc5;" horiz-adv-x="500" 
 />
    <glyph glyph-name="AE" unicode="&#xc6;" horiz-adv-x="500" 
 />
    <glyph glyph-name="Ccedilla" unicode="&#xc7;" horiz-adv-x="500" 
 />
    <glyph glyph-name="Egrave" unicode="&#xc8;" horiz-adv-x="500" 
 />
    <glyph glyph-name="Eacute" unicode="&#xc9;" horiz-adv-x="500" 
 />
    <glyph glyph-name="Ecircumflex" unicode="&#xca;" horiz-adv-x="500" 
 />
    <glyph glyph-name="Edieresis" unicode="&#xcb;" horiz-adv-x="500" 
 />
    <glyph glyph-name="Igrave" unicode="&#xcc;" horiz-adv-x="500" 
 />
    <glyph glyph-name="Iacute" unicode="&#xcd;" horiz-adv-x="500" 
 />
    <glyph glyph-name="Icircumflex" unicode="&#xce;" horiz-adv-x="500" 
 />
    <glyph glyph-name="Idieresis" unicode="&#xcf;" horiz-adv-x="500" 
 />
    <glyph glyph-name="Eth" unicode="&#xd0;" 
 />
    <glyph glyph-name="Ntilde" unicode="&#xd1;" horiz-adv-x="500" 
 />
    <glyph glyph-name="Ograve" unicode="&#xd2;" 
 />
    <glyph glyph-name="Oacute" unicode="&#xd3;" horiz-adv-x="500" 
 />
    <glyph glyph-name="Ocircumflex" unicode="&#xd4;" horiz-adv-x="500" 
 />
    <glyph glyph-name="Otilde" unicode="&#xd5;" horiz-adv-x="500" 
 />
    <glyph glyph-name="Odieresis" unicode="&#xd6;" horiz-adv-x="500" 
 />
    <glyph glyph-name="multiply" unicode="&#xd7;" 
 />
    <glyph glyph-name="Oslash" unicode="&#xd8;" horiz-adv-x="500" 
 />
    <glyph glyph-name="Ugrave" unicode="&#xd9;" horiz-adv-x="500" 
 />
    <glyph glyph-name="Uacute" unicode="&#xda;" horiz-adv-x="500" 
 />
    <glyph glyph-name="Ucircumflex" unicode="&#xdb;" horiz-adv-x="500" 
 />
    <glyph glyph-name="Udieresis" unicode="&#xdc;" horiz-adv-x="500" 
 />
    <glyph glyph-name="Yacute" unicode="&#xdd;" 
 />
    <glyph glyph-name="Thorn" unicode="&#xde;" 
 />
    <glyph glyph-name="germandbls" unicode="&#xdf;" horiz-adv-x="500" 
 />
    <glyph glyph-name="agrave" unicode="&#xe0;" horiz-adv-x="500" 
 />
    <glyph glyph-name="aacute" unicode="&#xe1;" horiz-adv-x="500" 
 />
    <glyph glyph-name="acircumflex" unicode="&#xe2;" horiz-adv-x="500" 
 />
    <glyph glyph-name="atilde" unicode="&#xe3;" horiz-adv-x="500" 
 />
    <glyph glyph-name="adieresis" unicode="&#xe4;" horiz-adv-x="500" 
 />
    <glyph glyph-name="aring" unicode="&#xe5;" horiz-adv-x="500" 
 />
    <glyph glyph-name="ae" unicode="&#xe6;" horiz-adv-x="500" 
 />
    <glyph glyph-name="ccedilla" unicode="&#xe7;" horiz-adv-x="500" 
 />
    <glyph glyph-name="egrave" unicode="&#xe8;" horiz-adv-x="500" 
 />
    <glyph glyph-name="eacute" unicode="&#xe9;" horiz-adv-x="500" 
 />
    <glyph glyph-name="ecircumflex" unicode="&#xea;" horiz-adv-x="500" 
 />
    <glyph glyph-name="edieresis" unicode="&#xeb;" horiz-adv-x="500" 
 />
    <glyph glyph-name="igrave" unicode="&#xec;" horiz-adv-x="500" 
 />
    <glyph glyph-name="iacute" unicode="&#xed;" horiz-adv-x="500" 
 />
    <glyph glyph-name="icircumflex" unicode="&#xee;" horiz-adv-x="500" 
 />
    <glyph glyph-name="idieresis" unicode="&#xef;" horiz-adv-x="500" 
 />
    <glyph glyph-name="eth" unicode="&#xf0;" 
 />
    <glyph glyph-name="ntilde" unicode="&#xf1;" horiz-adv-x="500" 
 />
    <glyph glyph-name="ograve" unicode="&#xf2;" horiz-adv-x="500" 
 />
    <glyph glyph-name="oacute" unicode="&#xf3;" horiz-adv-x="500" 
 />
    <glyph glyph-name="ocircumflex" unicode="&#xf4;" horiz-adv-x="500" 
 />
    <glyph glyph-name="otilde" unicode="&#xf5;" horiz-adv-x="500" 
 />
    <glyph glyph-name="odieresis" unicode="&#xf6;" horiz-adv-x="500" 
 />
    <glyph glyph-name="divide" unicode="&#xf7;" 
 />
    <glyph glyph-name="oslash" unicode="&#xf8;" horiz-adv-x="500" 
 />
    <glyph glyph-name="ugrave" unicode="&#xf9;" horiz-adv-x="500" 
 />
    <glyph glyph-name="uacute" unicode="&#xfa;" horiz-adv-x="500" 
 />
    <glyph glyph-name="ucircumflex" unicode="&#xfb;" horiz-adv-x="500" 
 />
    <glyph glyph-name="udieresis" unicode="&#xfc;" horiz-adv-x="500" 
 />
    <glyph glyph-name="yacute" unicode="&#xfd;" 
 />
    <glyph glyph-name="thorn" unicode="&#xfe;" 
 />
    <glyph glyph-name="ydieresis" unicode="&#xff;" horiz-adv-x="500" 
 />
    <glyph glyph-name="Abreve" unicode="&#x102;" 
 />
    <glyph glyph-name="abreve" unicode="&#x103;" 
 />
    <glyph glyph-name="Aogonek" unicode="&#x104;" 
 />
    <glyph glyph-name="aogonek" unicode="&#x105;" 
 />
    <glyph glyph-name="Cacute" unicode="&#x106;" 
 />
    <glyph glyph-name="cacute" unicode="&#x107;" 
 />
    <glyph glyph-name="Ccaron" unicode="&#x10c;" 
 />
    <glyph glyph-name="ccaron" unicode="&#x10d;" 
 />
    <glyph glyph-name="Dcaron" unicode="&#x10e;" 
 />
    <glyph glyph-name="dcaron" unicode="&#x10f;" 
 />
    <glyph glyph-name="Dslash" unicode="&#x110;" 
 />
    <glyph glyph-name="dslash" unicode="&#x111;" 
 />
    <glyph glyph-name="Eogonek" unicode="&#x118;" 
 />
    <glyph glyph-name="eogonek" unicode="&#x119;" 
 />
    <glyph glyph-name="Ecaron" unicode="&#x11a;" 
 />
    <glyph glyph-name="ecaron" unicode="&#x11b;" 
 />
    <glyph glyph-name="Gbreve" unicode="&#x11e;" 
 />
    <glyph glyph-name="gbreve" unicode="&#x11f;" 
 />
    <glyph glyph-name="Idot" unicode="&#x130;" 
 />
    <glyph glyph-name="dotlessi" unicode="&#x131;" horiz-adv-x="500" 
 />
    <glyph glyph-name="Lacute" unicode="&#x139;" 
 />
    <glyph glyph-name="lacute" unicode="&#x13a;" 
 />
    <glyph glyph-name="Lcaron" unicode="&#x13d;" 
 />
    <glyph glyph-name="lcaron" unicode="&#x13e;" 
 />
    <glyph glyph-name="Ldot" unicode="&#x13f;" 
 />
    <glyph glyph-name="ldot" unicode="&#x140;" 
 />
    <glyph glyph-name="Lslash" unicode="&#x141;" 
 />
    <glyph glyph-name="lslash" unicode="&#x142;" 
 />
    <glyph glyph-name="Nacute" unicode="&#x143;" 
 />
    <glyph glyph-name="nacute" unicode="&#x144;" 
 />
    <glyph glyph-name="Ncaron" unicode="&#x147;" 
 />
    <glyph glyph-name="ncaron" unicode="&#x148;" 
 />
    <glyph glyph-name="Odblacute" unicode="&#x150;" 
 />
    <glyph glyph-name="odblacute" unicode="&#x151;" 
 />
    <glyph glyph-name="OE" unicode="&#x152;" horiz-adv-x="500" 
 />
    <glyph glyph-name="oe" unicode="&#x153;" horiz-adv-x="500" 
 />
    <glyph glyph-name="Racute" unicode="&#x154;" 
 />
    <glyph glyph-name="racute" unicode="&#x155;" 
 />
    <glyph glyph-name="Rcaron" unicode="&#x158;" 
 />
    <glyph glyph-name="rcaron" unicode="&#x159;" 
 />
    <glyph glyph-name="Sacute" unicode="&#x15a;" 
 />
    <glyph glyph-name="sacute" unicode="&#x15b;" 
 />
    <glyph glyph-name="Scedilla" unicode="&#x15e;" 
 />
    <glyph glyph-name="scedilla" unicode="&#x15f;" 
 />
    <glyph glyph-name="Scaron" unicode="&#x160;" 
 />
    <glyph glyph-name="scaron" unicode="&#x161;" 
 />
    <glyph glyph-name="Tcedilla" unicode="&#x162;" 
 />
    <glyph glyph-name="tcedilla" unicode="&#x163;" 
 />
    <glyph glyph-name="Tcaron" unicode="&#x164;" 
 />
    <glyph glyph-name="tcaron" unicode="&#x165;" 
 />
    <glyph glyph-name="Uring" unicode="&#x16e;" 
 />
    <glyph glyph-name="uring" unicode="&#x16f;" 
 />
    <glyph glyph-name="udblacute" unicode="&#x170;" 
 />
    <glyph glyph-name="Udblacute" unicode="&#x171;" 
 />
    <glyph glyph-name="Ydieresis" unicode="&#x178;" horiz-adv-x="500" 
 />
    <glyph glyph-name="Zacute" unicode="&#x179;" 
 />
    <glyph glyph-name="zacute" unicode="&#x17a;" 
 />
    <glyph glyph-name="Zdot" unicode="&#x17b;" 
 />
    <glyph glyph-name="zdot" unicode="&#x17c;" 
 />
    <glyph glyph-name="Zcaron" unicode="&#x17d;" 
 />
    <glyph glyph-name="zcaron" unicode="&#x17e;" 
 />
    <glyph glyph-name="florin" unicode="&#x192;" horiz-adv-x="500" 
 />
    <glyph glyph-name="hungarumlaut" unicode="&#x2ba;" horiz-adv-x="500" 
 />
    <glyph glyph-name="tilde" unicode="&#x2c6;" horiz-adv-x="500" 
 />
    <glyph glyph-name="caron" unicode="&#x2c7;" horiz-adv-x="500" 
 />
    <glyph glyph-name="macron" unicode="&#x2c9;" horiz-adv-x="500" 
 />
    <glyph glyph-name="breve" unicode="&#x2d8;" horiz-adv-x="500" 
 />
    <glyph glyph-name="dotaccent" unicode="&#x2d9;" horiz-adv-x="500" 
 />
    <glyph glyph-name="ring" unicode="&#x2da;" horiz-adv-x="500" 
 />
    <glyph glyph-name="ogonek" unicode="&#x2db;" horiz-adv-x="500" 
 />
    <glyph glyph-name="circumflex" unicode="&#x2dc;" horiz-adv-x="500" 
 />
    <glyph glyph-name="Gamma" unicode="&#x393;" 
 />
    <glyph glyph-name="Theta" unicode="&#x398;" 
 />
    <glyph glyph-name="summation" unicode="&#x3a3;" 
 />
    <glyph glyph-name="Phi" unicode="&#x3a6;" 
 />
    <glyph glyph-name="Omega" unicode="&#x3a9;" 
 />
    <glyph glyph-name="alpha" unicode="&#x3b1;" 
 />
    <glyph glyph-name="delta" unicode="&#x3b4;" 
 />
    <glyph glyph-name="epsilon" unicode="&#x3b5;" 
 />
    <glyph glyph-name="pi" unicode="&#x3c0;" 
 />
    <glyph glyph-name="sigma" unicode="&#x3c3;" 
 />
    <glyph glyph-name="tau" unicode="&#x3c4;" 
 />
    <glyph glyph-name="phi" unicode="&#x3c6;" 
 />
    <glyph glyph-name="afii57793" unicode="&#x5b4;" horiz-adv-x="0" 
d="M59 -17l23 -30l-31 -32l-23 29l31 33v0z" />
    <glyph glyph-name="afii57798" unicode="&#x5b7;" horiz-adv-x="0" 
d="M24 -49l-22 -56l300 1l23 55h-301z" />
    <glyph glyph-name="afii57797" unicode="&#x5b8;" horiz-adv-x="0" 
d="M24 -55l-22 -56h127l-23 -67l76 2l24 66h96l23 55h-301z" />
    <glyph glyph-name="afii57807" unicode="&#x5bc;" horiz-adv-x="0" 
d="M66 125l24 -30l-32 -32l-22 29l30 33v0z" />
    <glyph glyph-name="afii57645" unicode="&#x5be;" horiz-adv-x="359" 
d="M24 277l-22 -56l300 1l23 55h-301z" />
    <glyph glyph-name="afii57841" unicode="&#x5bf;" horiz-adv-x="0" 
d="M26 364l-22 -56l300 1l24 55h-302z" />
    <glyph glyph-name="afii57803" unicode="&#x5c2;" horiz-adv-x="400" 
d="M48 446q0 11 7 18.5t17 7.5t17 -7.5t7 -18.5t-7 -18.5t-17 -7.5t-17 7.5t-7 18.5z" />
    <glyph glyph-name="afii57664" unicode="&#x5d0;" horiz-adv-x="482" 
d="M387 309q8 -1 14 -6t10 -14q0 -1 1 -3t2 -6q2 -3 2.5 -5t0.5 -4l-46 -40q-7 11 -11.5 18t-8.5 11q-2 3 -7.5 5.5t-15.5 3.5h-2q-1 0 -2 1h-3h-2q-16 -1 -33 -11t-36 -30q-21 -22 -31.5 -45.5t-10.5 -49.5q0 -16 4 -30t12 -25q8 -10 15.5 -16.5t16.5 -8.5q8 -1 15 -2
t12 -1q10 0 20 2.5t20 6.5q10 5 17 10t11 11q-4 -16 -14 -30.5t-27 -26.5q-16 -12 -30.5 -18t-28.5 -6q-20 0 -38 5.5t-34 15.5q-15 11 -23.5 22.5t-10.5 24.5q-1 14 -2 24.5t-1 18.5q0 20 4.5 37.5t13.5 33.5t17 27.5t15 18.5q7 8 16 16t21 18q11 9 26.5 17.5t34.5 16.5
t35.5 11.5t32.5 4.5h7.5t7.5 -1q3 0 6.5 -0.5t7.5 -1.5v0zM48 117q5 11 9 22.5t9 23.5q4 12 8.5 24t8.5 25q8 26 14.5 47.5t11.5 39.5t9.5 40t10.5 47l66 53q-3 -24 -7.5 -48t-10.5 -48q-5 -22 -14.5 -51t-23.5 -65q-13 -34 -24 -59t-20 -42q-8 -15 -16.5 -28t-18.5 -24
q-8 -10 -15 -18t-14 -14q-6 -5 -12.5 -11t-14.5 -13q13 26 23.5 51t20.5 48v0z" />
    <glyph glyph-name="afii57665" unicode="&#x5d1;" horiz-adv-x="472" 
d="M169 255q-13 -4 -24.5 -12t-20.5 -20q10 21 25 36.5t36 25.5q20 10 43.5 14.5t49.5 5.5q29 0 52 -10.5t41 -31.5t27 -48t9 -61q0 -25 -9.5 -51t-29.5 -53q-19 -25 -41 -37.5t-46 -12.5q-10 0 -25.5 12t-36.5 37q-19 25 -36 37t-31 13q-3 0 -9.5 -1.5t-17.5 -5.5
q-10 -3 -19.5 -11.5t-19.5 -22.5q-9 -13 -13.5 -29t-5.5 -33l-62 -44q0 35 10 64t31 55q20 26 46.5 40t59.5 17q26 0 47.5 -4t39.5 -13q18 -7 30.5 -16.5t19.5 -20.5q7 -10 11 -16t6 -8q1 0 1.5 -0.5t1.5 -0.5l1 -1h1q5 0 7.5 2.5t3.5 6.5q6 9 10.5 18t7.5 18t4.5 19.5
t1.5 23.5v10.5t-1 7.5v10q-1 8 -3 15t-5 15q-4 7 -9 14.5t-12 14.5q-6 7 -12 12.5t-11 9.5q-6 4 -12 7.5t-12 5.5q-11 3 -21.5 4.5t-20.5 2.5q-15 0 -29.5 -2.5t-28.5 -7.5v0z" />
    <glyph glyph-name="afii57666" unicode="&#x5d2;" horiz-adv-x="429" 
d="M205 354q8 15 19 29t27 27q-1 -11 -2 -24t-2 -29q0 -16 1 -30.5t4 -28.5q2 -13 7 -27.5t13 -31.5q8 -16 17 -30.5t19 -28.5q5 -6 11 -12.5t13 -12.5t15 -12.5t17 -12.5l-44 -50q-22 21 -51 31.5t-64 11.5q-26 0 -49 -7.5t-43 -22.5q-19 -15 -31 -31.5t-18 -35.5
q-5 -18 -7.5 -33.5t-3.5 -29.5q0 -26 7 -49t21 -45q14 -21 27.5 -32.5t26.5 -14.5q14 -2 23 -3t14 -2q20 0 40 7t41 21q21 13 34 24.5t17 20.5q-3 -29 -15 -53t-33 -43q-19 -20 -43.5 -29.5t-53.5 -9.5q-32 0 -60 11.5t-52 35.5q-23 23 -34.5 51t-12.5 61q0 31 5.5 57
t17.5 48q11 22 30.5 44.5t47.5 46.5q28 23 60.5 37t69.5 19q-10 14 -18 27.5t-14 27.5q-4 14 -6.5 30.5t-2.5 35.5q0 18 4 34.5t11 32.5v0z" />
    <glyph glyph-name="afii57667" unicode="&#x5d3;" horiz-adv-x="315" 
d="M47 269q-18 -3 -29.5 -6t-16.5 -8q8 12 23 22.5t37 19.5t36.5 14t22.5 6q8 2 14 2.5t11 0.5q16 0 32 -4t33 -12q17 -7 26 -15.5t10 -17.5q2 -8 2.5 -14t1.5 -11q0 -17 -9 -33.5t-28 -33.5q-17 -14 -31.5 -21t-26.5 -7h-1h-1l2 -6q1 -3 2 -5q1 -3 1.5 -6t0.5 -6v-10.5
t1 -15.5q0 -22 -12.5 -41t-38.5 -34q-25 -13 -48 -20t-45 -7h-3h-5h-2h-2q-1 0 -1.5 0.5t-1.5 0.5q14 7 28.5 15t30.5 18q15 9 23.5 21t10.5 28v1.5v1.5v0v2q0 10 -6 18.5t-19 15.5q-13 8 -22.5 12t-15.5 5l40 43q11 -7 22 -11t24 -5q14 0 26 3.5t23 10.5q11 8 16 17.5
t5 22.5q0 14 -6.5 24t-20.5 17q-13 8 -27.5 11.5t-31.5 3.5q-9 0 -22.5 -1.5t-31.5 -5.5v0z" />
    <glyph glyph-name="afii57668" unicode="&#x5d4;" horiz-adv-x="430" 
d="M62 164q-6 0 -10.5 -0.5t-8.5 -2.5q5 10 12 17.5t17 12.5t20.5 7.5t22.5 3.5q12 0 22.5 -2.5t19.5 -7.5q9 -4 14.5 -10t7.5 -14q2 -7 2.5 -14t1.5 -13q0 -12 -2.5 -23t-8.5 -22q-4 -9 -11 -19t-17 -21q-9 -10 -22.5 -20t-33.5 -19q-9 -4 -18.5 -7.5t-18.5 -5.5
q-9 -3 -18.5 -3.5t-18.5 -0.5h-8h-6q4 1 13.5 6t25.5 15q15 10 26.5 19t18.5 18q7 8 13 16.5t11 16.5t7.5 16.5t3.5 16.5q0 5 -1.5 10.5t-5.5 10.5q-3 5 -8 8t-13 6q-6 2 -13 3t-16 2v0zM90 268q-16 -3 -28.5 -6.5t-20.5 -8.5q17 17 34.5 29t36.5 19q19 8 41 11.5t48 3.5
t50 -5.5t47 -17.5q23 -10 36.5 -24t19.5 -31q5 -16 7.5 -28t3.5 -20q0 -16 -4 -32.5t-12 -32.5q-8 -17 -20 -33t-29 -33q-31 -30 -56.5 -44.5t-46.5 -14.5h-1.5h-1.5q8 0 23 14t37 42q11 14 19.5 27.5t14.5 27.5t9 27.5t3 27.5q0 12 -3 25t-10 27q-6 14 -18 25t-30 18
q-17 7 -38 10t-46 4q-15 0 -31 -1.5t-34 -5.5v0z" />
    <glyph glyph-name="afii57669" unicode="&#x5d5;" horiz-adv-x="277" 
d="M42 84q9 17 17.5 37t16.5 42q12 32 21 60t16 51q6 23 11.5 49.5t10.5 57.5l77 53q0 -18 -10 -58.5t-31 -105.5q-19 -63 -38 -107t-37 -70q-16 -24 -30.5 -41t-26.5 -28q-18 -10 -28 -16t-12 -8q13 24 23.5 45l19.5 39v0z" />
    <glyph glyph-name="afii57670" unicode="&#x5d6;" horiz-adv-x="375" 
d="M155 253q6 13 10.5 26t7.5 27l70 43q0 -7 -0.5 -13.5t-0.5 -12.5q-1 -7 -2 -13.5t-3 -13.5q-3 -12 -9 -27t-16 -35q-9 -18 -19 -34.5t-22 -31.5q-11 -14 -20 -24.5t-17 -18.5h4t8 1q14 0 29 -1.5t33 -6.5q18 -4 32.5 -10.5t24.5 -16.5q11 -9 19 -19.5t14 -22.5t9 -24
t3 -24q0 -22 -7.5 -44.5t-23.5 -45.5q-15 -23 -34 -41.5t-42 -34.5q-22 -15 -46 -28.5t-50 -26.5q-25 -12 -53 -18t-58 -6q-13 0 -26 1t-27 4q-14 2 -26 6t-24 10q-12 5 -20.5 12t-13.5 15q-5 10 -8.5 18.5t-6.5 14.5q19 -10 34.5 -17t29.5 -11q13 -4 28.5 -5.5t35.5 -2.5
q34 0 64 4.5t56 14.5q26 9 49.5 25t45.5 39q22 22 32.5 47t11.5 53q0 16 -4 30.5t-12 26.5q-7 12 -18.5 20t-27.5 12q-15 5 -32 7t-37 2q-13 0 -26.5 -1t-27.5 -4q-12 -2 -19.5 -4.5t-10.5 -5.5q18 14 33 28.5t28 29.5t24.5 31.5t21.5 34.5q11 18 18.5 33.5t13.5 28.5v0z
" />
    <glyph glyph-name="afii57671" unicode="&#x5d7;" horiz-adv-x="481" 
d="M30 60q8 15 13.5 26.5t9.5 20.5q8 18 15 33t12 27q5 11 8 21.5t6 20.5q2 10 3.5 21t4.5 24q2 13 2.5 22t1.5 14v5.5t-2 3.5l-9 7l65 41l11 -35q2 -7 2.5 -14t1.5 -14v-6v-6q0 -2 -0.5 -4t-0.5 -4q0 -1 -0.5 -2.5t-0.5 -3.5q2 5 16 14t39 23t49 20.5t47 7.5q5 0 9 -0.5
t9 -0.5q4 -1 8.5 -2t8.5 -3q8 -2 15.5 -6t14.5 -10q7 -5 11.5 -12t8.5 -17q3 -8 4.5 -18t2.5 -21q0 -21 -4.5 -43.5t-13.5 -48.5q-8 -25 -26 -47.5t-47 -44.5q-28 -21 -50.5 -33t-40.5 -15q5 2 18.5 15t36.5 38q23 26 36 48t16 41t4.5 30t1.5 15q0 20 -4.5 35.5t-13.5 28.5
q-9 12 -20.5 18t-25.5 7q-20 0 -36 -3.5t-28 -11.5q-10 -7 -19.5 -15.5t-17.5 -19.5q-7 -9 -18.5 -28t-26.5 -48q-15 -28 -28.5 -49.5t-26.5 -36.5q-12 -13 -21 -22.5t-16 -15.5q-10 -6 -21 -12t-23 -13l14 28l15 30v0z" />
    <glyph glyph-name="afii57672" unicode="&#x5d8;" horiz-adv-x="355" 
d="M223 346q-11 -8 -21.5 -16t-19.5 -16q-10 -9 -18.5 -17t-16.5 -16q-16 -17 -29.5 -33.5t-24.5 -32.5q-10 -15 -16 -28.5t-8 -27.5q-1 -12 -2 -22.5t-1 -19.5q0 -15 2.5 -27t7.5 -23q5 -9 13.5 -13.5t21.5 -5.5q10 0 18.5 2.5t15.5 8.5q7 5 12 11.5t9 14.5t6.5 16t4.5 17
t2.5 16.5t1.5 13.5q0 4 -0.5 8t-0.5 8l-2 8q-1 4 -3 8l58 53q2 -6 3.5 -12t2.5 -14q1 -4 1 -7.5v-8.5v-2.5t1 -3.5v-1v-1v-2v-2q0 -11 -1 -21.5t-4 -21.5q-1 -9 -6 -21.5t-14 -29.5q-7 -15 -21.5 -29.5t-37.5 -28.5q-21 -13 -41.5 -20t-40.5 -7q-3 0 -8.5 1t-13.5 2
q-7 2 -12.5 4t-10.5 6q-3 3 -7.5 10t-10.5 18q-5 11 -7.5 21.5t-3.5 22.5q0 6 0.5 13t1.5 14q2 8 3.5 17.5t3.5 21.5t10.5 29.5t24.5 40.5q15 23 32.5 43t37.5 38q20 17 40 31t41 25q20 11 43.5 18.5t50.5 13.5q-10 -5 -27 -16t-40 -28v0z" />
    <glyph glyph-name="afii57673" unicode="&#x5d9;" horiz-adv-x="157" 
d="M14 228q2 6 4.5 14t4.5 18q1 8 1.5 14.5t1.5 12.5q0 2 0.5 3t0.5 3v2.5v2.5v2.5t1 2.5v2.5v2.5l64 47q0 -16 -1.5 -30.5t-6.5 -28.5q-3 -12 -10 -25.5t-19 -29.5q-10 -14 -24 -24.5t-31 -18.5q5 8 8 15.5t6 14.5v0z" />
    <glyph glyph-name="afii57674" unicode="&#x5da;" horiz-adv-x="513" 
d="M53 -191q-7 -6 -14 -13t-13 -14q-7 -7 -13.5 -14t-12.5 -14l107 288q5 14 17 29.5t31 31.5q20 16 37 23.5t32 8.5q15 0 32.5 -10t38.5 -31q20 -20 32.5 -30t17.5 -11q11 2 18.5 11t13.5 25q5 17 7.5 35t3.5 37q0 22 -7.5 39.5t-24.5 31.5q-15 14 -31 20.5t-33 7.5
q-22 0 -45.5 -3.5t-49.5 -11.5q-12 -4 -22 -7.5t-18 -6.5q-8 -4 -13.5 -7.5t-8.5 -7.5q5 14 20 30.5t40 35.5t49.5 28t49.5 10q33 0 60.5 -9.5t49.5 -29.5q22 -19 32.5 -46t11.5 -63q0 -30 -11 -58.5t-34 -57.5q-22 -28 -43.5 -41.5t-41.5 -14.5q-13 0 -29 11.5t-36 33.5
q-18 23 -30.5 35t-20.5 14h-1.5h-1.5q-10 0 -21.5 -20t-25.5 -60q-13 -41 -26 -73.5t-26 -56.5q-6 -12 -12 -22t-11 -20q-6 -9 -12 -17t-12 -15v-1z" />
    <glyph glyph-name="afii57675" unicode="&#x5db;" horiz-adv-x="411" 
d="M127 262q-22 -8 -35.5 -15.5t-18.5 -15.5q8 23 22.5 40.5t36.5 28.5q21 11 46.5 16.5t56.5 6.5q29 -2 50.5 -12.5t34.5 -29.5q13 -18 19 -43t7 -58q-3 -34 -21 -63t-53 -55q-34 -25 -59.5 -38.5t-43.5 -17.5q-16 -2 -33.5 -3.5t-37.5 -2.5q-18 0 -30.5 -0.5t-20.5 -1.5
q-4 -1 -7.5 -1.5t-6.5 -1.5q-3 0 -5.5 -0.5t-5.5 -1.5q-4 -2 -9.5 -3.5t-11.5 -2.5q4 9 8 15.5t9 12.5t10 11t12 9q6 4 11.5 6.5t9.5 4.5q5 2 12.5 4t19.5 6q11 3 19.5 4.5t15.5 2.5h13t15 1h22h20.5t13.5 1t12 4.5t17 10.5q9 6 17 16t15 24q6 14 9 29t4 31q0 20 -5.5 36.5
t-16.5 30.5q-10 14 -26 22t-39 11q-13 0 -31 -4.5t-41 -13.5v0z" />
    <glyph glyph-name="afii57676" unicode="&#x5dc;" horiz-adv-x="429" 
d="M237 225l-51 -33q-1 -4 -4 -10t-8 -14l-9.5 -19t-17.5 -33q-10 -19 -27 -38.5t-42 -41.5q-21 -19 -35 -27.5t-22 -8.5h-2h-2q-7 4 -11 12t-5 21q0 12 4 26.5t12 32.5q8 17 16.5 31t18.5 25q9 11 19 19t20 14q11 6 21.5 12t21.5 12l97 302q6 12 13 25t16 27t19.5 25
t22.5 19t21 12.5t16 5.5q6 2 14 2.5t18 0.5q9 -1 18 -3.5t19 -7.5q9 -3 14.5 -10.5t8.5 -21.5q2 -12 2.5 -20.5t1.5 -13.5q0 -27 -10.5 -55t-32.5 -58q-21 -29 -43.5 -43.5t-47.5 -15.5q9 5 19.5 18.5t23.5 35.5t19 42t7 39q0 17 -1 28.5t-3 18.5q-1 6 -5 11t-12 9
q-6 3 -11 4.5t-10 2.5q-12 0 -21 -6t-15 -19q-5 -12 -9.5 -25t-9.5 -27l-74 -288l38 6v0zM108 157q-13 -7 -24 -17.5t-20 -25.5q-3 -5 -6 -11t-6 -13q-2 -6 -3 -11.5t-2 -10.5q0 -3 1 -4.5t3 -3.5q1 -1 1.5 -1h1.5q3 0 7 2t8 6q5 6 11.5 14.5t13.5 18.5q7 11 10 25t4 32v0z
" />
    <glyph glyph-name="afii57677" unicode="&#x5dd;" horiz-adv-x="487" 
d="M390 299q11 -13 18.5 -30t13.5 -39q0 -20 -3 -38t-10 -35q-6 -15 -16 -31.5t-24 -36.5q-15 -18 -31.5 -33.5t-34.5 -29.5q-18 -12 -36.5 -18t-38.5 -7q-8 0 -17.5 1.5t-20.5 5.5q-10 3 -20 9t-21 15q-10 8 -17 16t-12 15q-1 -9 -9 -25t-22 -38q-13 -23 -24 -38t-20 -24
q-7 -9 -18 -17.5t-26 -15.5q13 25 23.5 47t18.5 42q8 18 15.5 40t16.5 47q8 25 15.5 48.5t14.5 46.5q3 11 6 23l6 24q2 12 5 24t6 25l74 68l-3 -65q12 8 25 16.5t28 16.5q7 4 14 7t14 5t14 3.5t14 1.5q30 0 50.5 -6t31.5 -20v0zM161 144q0 -30 14.5 -51t43.5 -33
q8 -3 15.5 -4.5t14.5 -1.5q17 0 32.5 6t30.5 18t24.5 25t13.5 26q4 14 5.5 26t2.5 23q0 18 -4.5 33.5t-14.5 28.5q-9 13 -19.5 20.5t-22.5 9.5q-11 2 -18.5 3t-11.5 2q-16 0 -30 -4.5t-27 -15.5q-12 -9 -21 -22t-16 -30q-6 -16 -9 -30.5t-3 -28.5v0z" />
    <glyph glyph-name="afii57678" unicode="&#x5de;" horiz-adv-x="540" 
d="M143 251q0 11 -0.5 23t-2.5 25l70 46q3 -20 7 -36.5t8 -30.5q5 -12 11.5 -28t15.5 -36q9 -19 19 -37t22 -36q9 32 23 58.5t33 48.5q20 22 36.5 38t31.5 26t31.5 18t34.5 15q-21 -18 -38 -35t-31 -34q-12 -16 -24 -36.5t-24 -46.5q-11 -25 -19 -48.5t-13 -45.5
q-4 -21 -6.5 -46t-2.5 -53q-10 6 -19.5 13.5t-18.5 15.5q-8 8 -17 17.5t-20 21.5q-10 12 -19 24t-17 25q-7 12 -14 25t-14 28q-5 -16 -12 -30.5t-17 -28.5q-8 -12 -22 -27t-34 -33q-19 -17 -44 -30t-56 -21q23 14 41 29t32 31q14 17 26.5 38t22.5 47t14.5 52t5.5 54v0z" />
    <glyph glyph-name="afii57679" unicode="&#x5df;" horiz-adv-x="310" 
d="M103 38q17 50 36.5 115.5t41.5 145.5l65 36l-104 -345q-10 -30 -23 -57.5t-29 -52.5q-15 -24 -26 -40.5t-19 -26.5q-7 -9 -16.5 -20.5t-23.5 -25.5q11 30 22 58.5t21 57.5q11 27 24.5 66t30.5 89v0z" />
    <glyph glyph-name="afii57680" unicode="&#x5e0;" horiz-adv-x="352" 
d="M89 -104l135 408l63 24l-128 -393q-12 -27 -33 -53.5t-51 -52.5q-28 -26 -55.5 -41.5t-54.5 -21.5q-27 -5 -49 -7.5t-40 -3.5q-31 0 -63.5 8.5t-66.5 25.5l40 47q29 -17 58.5 -26t59.5 -10q18 0 40.5 4.5t50.5 13.5q25 8 48.5 27.5t45.5 51.5v-1z" />
    <glyph glyph-name="afii57681" unicode="&#x5e1;" horiz-adv-x="429" 
d="M135 1q-11 0 -21 1.5t-20 5.5q-45 18 -67.5 50t-22.5 78q0 35 9 63t28 50q19 21 39.5 35.5t43.5 22.5t45.5 12t45.5 5q29 0 53.5 -6t46.5 -18q21 -12 32.5 -24t12.5 -26q2 -13 2.5 -22t1.5 -16q0 -19 -4.5 -37t-15.5 -35q-9 -16 -22.5 -33t-32.5 -34q-17 -16 -36 -29
t-40 -24q-20 -9 -39.5 -13.5t-38.5 -5.5v0zM100 69q9 -11 22.5 -16.5t32.5 -6.5q35 0 61 10t43 31q17 20 25 46.5t9 58.5q0 9 -1.5 17.5t-5.5 16.5q-3 8 -8.5 16.5t-12.5 17.5q-13 17 -32 25t-45 9q-26 0 -47.5 -11.5t-38.5 -34.5q-16 -22 -24.5 -45.5t-8.5 -49.5
q0 -5 1.5 -14t4.5 -22q3 -12 9 -24t16 -24v0z" />
    <glyph glyph-name="afii57682" unicode="&#x5e2;" horiz-adv-x="410" 
d="M318 434h13.5t16.5 1q-7 -2 -14 -5t-13 -7q-6 -3 -12 -6.5t-14 -8.5l-35 -25q8 -16 13 -31t8 -29q3 -13 4.5 -27.5t2.5 -29.5q0 -26 -7 -54t-22 -59q-13 -29 -33.5 -55.5t-48.5 -50.5q-26 -22 -50.5 -33.5t-47.5 -12.5q-4 0 -11 1t-17 2q-4 1 -8 3t-8 6q-4 3 -8 8t-8 12
q-7 13 -11 28t-4 34q0 17 2.5 33.5t7.5 34.5q5 17 13.5 34.5t19.5 36.5t27.5 39t38.5 42t37 34.5t23 16.5l-62 41l50 35l40 -15l3 -1.5l3 -1.5q1 -1 2.5 -2t2.5 -2q2 -1 8 -4.5t16 -11.5q8 5 15 8l14 6q6 3 12.5 5.5t13.5 4.5t13.5 3.5t13.5 2.5v0zM227 275q0 2 -0.5 3
t-0.5 2t-0.5 1.5t-0.5 1.5q0 5 -0.5 9.5t-2.5 10.5q0 5 -4 15.5t-13 26.5q-12 -4 -30 -21.5t-42 -48.5q-23 -30 -36 -52.5t-17 -37.5q-3 -14 -4.5 -24.5t-3.5 -17.5q-1 -4 -1 -7.5v-8.5v-2.5v-3.5q-1 0 -1 -0.5v-1.5v-2v-2q0 -14 2.5 -26t7.5 -22q5 -9 12.5 -13.5t19.5 -4.5
q7 0 13.5 2t13.5 6q6 5 12.5 11t13.5 15q13 17 22 33.5t16 34.5q6 17 10.5 33t7.5 32q3 15 4.5 27t1.5 22v4.5v5.5v0z" />
    <glyph glyph-name="afii57683" unicode="&#x5e3;" horiz-adv-x="463" 
d="M67 162q15 14 33 25t39 20q6 24 12 45t12 40l14.5 43.5t18.5 58.5l55 151q2 12 9 23.5t20 22.5q12 11 22 17.5t18 10.5q4 2 8 3t7 3q4 1 7.5 2.5t6.5 2.5q6 2 12 3l12 2q8 0 15.5 -2.5t14.5 -7.5q6 -4 11 -10.5t9 -15.5q3 -8 4.5 -14.5t2.5 -11.5q0 -14 -6 -31t-18 -37
q-12 -19 -20.5 -28.5t-14.5 -10.5q14 -6 24.5 -14.5t17.5 -19.5q8 -10 11.5 -23t4.5 -28q0 -10 -2.5 -21.5t-8.5 -24.5q-4 -12 -13 -21.5t-23 -17.5q-12 -7 -25.5 -10t-28.5 -4q-17 0 -31.5 4.5t-26.5 14.5h5t7 -1q15 0 28.5 5.5t25.5 15.5q12 11 18 23.5t7 28.5
q0 20 -6 33.5t-19 21.5q-12 8 -24 13.5t-26 9.5q2 0 9.5 5t20.5 15q12 9 20 16.5t12 14.5q4 6 6.5 12t4.5 13q2 6 2 11.5v10.5q-1 9 -3.5 15.5t-7.5 10.5q-3 4 -7 5.5t-9 2.5q-4 0 -10 -2.5t-14 -7.5q-7 -4 -11.5 -8.5t-6.5 -9.5l-92 -330l37 4l-50 -33q-5 -14 -10.5 -26.5
t-12.5 -23.5q-5 -10 -9.5 -18.5t-8.5 -14.5q-3 -6 -7 -13t-10 -16q-5 -7 -10.5 -15t-10.5 -16q-4 -4 -9 -8.5t-10 -8.5q-6 -5 -11.5 -9t-11.5 -9q-10 -8 -21 -12t-22 -5h-2.5t-2.5 1q-2 0 -3 0.5l-3 1.5l-2 2q-1 1 -2 3q-1 1 -2 3t-2 5q-1 5 -2 9.5t-1 10.5q0 11 1 20.5
t4 18.5q2 9 6 19t11 20q6 10 17 21.5t27 25.5v0zM80 130q-8 -7 -13.5 -15.5t-7.5 -18.5q-1 -7 -2 -12.5t-1 -10.5q0 -6 1.5 -9t4.5 -3q5 0 10.5 4.5t12.5 14.5q8 9 13 19t8 20q2 5 3 9.5t2 9.5q2 5 3 9.5t2 9.5q-9 -6 -18 -12.5t-18 -14.5v0z" />
    <glyph glyph-name="afii57684" unicode="&#x5e4;" horiz-adv-x="483" 
d="M107 256q-14 -3 -27 -9.5t-25 -17.5q17 22 38.5 37t48.5 23q26 8 55.5 12t61.5 5q33 0 61 -10q24 -10 51 -34q23 -21 34.5 -48.5t12.5 -62.5q0 -21 -4.5 -42t-13.5 -43q-9 -21 -21.5 -40.5t-29.5 -37.5q-16 -18 -37 -34t-47 -29q-25 -13 -44.5 -19t-33.5 -7q-30 0 -55 2
t-45 7q-19 4 -33.5 11t-25.5 18q-9 10 -15 20t-9 20q-1 7 -4 29q-2 12 -2 26q0 22 17 55q15 30 46 58t59.5 41.5t55.5 14.5q23 0 43 -4.5t37 -15.5q17 -10 25 -25.5t8 -37.5q0 -16 -9 -33.5t-29 -36.5q-18 -18 -37 -27t-39 -9q-7 0 -14 1.5t-14 5.5q15 0 28.5 6t26.5 18
q12 12 18 25.5t6 28.5q0 2 -1 6.5l-3 13.5q-1 8 -6 15.5t-14 16.5q-8 8 -17.5 12t-20.5 5q-21 0 -39 -10t-35 -31q-15 -20 -22.5 -42t-7.5 -47q0 -19 8.5 -36.5t26.5 -33.5q17 -15 36 -22.5t41 -8.5q6 0 19 1.5t34 5.5q21 3 42 18t43 43q21 28 31.5 59t11.5 65q0 24 -8 46
t-25 42q-16 20 -31.5 30.5t-31.5 12.5q-12 2 -21.5 2.5t-17.5 0.5q-1 0 -2 1h-1h-2h-2q-3 0 -7 0.5t-8 0.5q-5 0 -9.5 0.5t-10.5 0.5q-19 0 -36.5 -1.5t-32.5 -6.5v0z" />
    <glyph glyph-name="afii57685" unicode="&#x5e5;" horiz-adv-x="513" 
d="M154 479h7t5 -1q-4 0 -17 -9t-35 -28q-21 -18 -32.5 -33t-14.5 -29q-1 -12 -2 -21t-2 -17q0 -15 3.5 -26.5t10.5 -19.5q8 -7 20.5 -11t30.5 -4q13 0 22 1t15 3t10.5 4.5t8.5 5.5q3 12 6.5 25t7.5 28q4 14 8.5 29.5t10.5 32.5q3 8 5.5 16t4.5 15t4.5 13.5t5.5 12.5
q5 11 12.5 27t17.5 36q11 20 24.5 39t31.5 36q17 17 35 25t37 9q11 0 22 -4t24 -12q12 -7 18 -20.5t7 -33.5q0 -16 -4 -33t-13 -35q-8 -17 -19 -35t-25 -38q-13 -19 -36.5 -41t-56.5 -48q-32 -25 -50 -37.5t-23 -14.5l-17 -64l30 5l-41 -29q-3 -8 -9 -21.5t-16 -32.5
q-9 -18 -21 -35t-27 -34q-14 -16 -28.5 -29.5t-30.5 -26.5q-12 -9 -22.5 -14t-20.5 -5h-1.5h-1.5h-1h-1h-1.5h-1.5q-4 1 -6.5 5t-2.5 11q0 11 3.5 24.5t10.5 30.5t14.5 31t17.5 27q9 12 20.5 24t26.5 24q14 11 26.5 21t25.5 20l12 47q-1 0 -8.5 -2.5t-22.5 -8.5
q-13 -4 -27.5 -6.5t-30.5 -2.5q-9 0 -16.5 1t-13.5 2q-6 2 -12 5.5t-13 10.5q-6 6 -11.5 14.5t-10.5 19.5q-4 11 -5.5 21.5t-2.5 21.5q0 20 4.5 36t13.5 27t23.5 23.5t34.5 25.5t38.5 19t37.5 7v0zM89 90q-1 -4 -1 -6.5v-4.5v-1.5v-1.5v-3.5t1 -1.5h1v0v0h1q2 0 6 2.5t9 7.5
q5 6 8.5 11.5t6.5 9.5q3 5 7 14t9 22q5 14 7.5 21.5l3.5 10.5q-9 -4 -15.5 -9t-11.5 -10q-4 -4 -8.5 -11t-9.5 -16q-4 -7 -7.5 -15.5t-6.5 -18.5v0zM266 402q-6 -25 -9 -43.5t-4 -29.5q17 8 30.5 17.5t24.5 22.5q11 12 23.5 27.5t25.5 34.5q4 6 7.5 13l7.5 15q3 8 6.5 16.5
t7.5 17.5q6 18 9 32.5t4 26.5q0 15 -3 23.5t-11 10.5q-6 2 -11 2.5t-10 0.5q-14 0 -24 -6t-17 -19q-6 -12 -15 -35t-22 -58q-3 -7 -7.5 -24.5t-12.5 -44.5v0z" />
    <glyph glyph-name="afii57686" unicode="&#x5e6;" horiz-adv-x="470" 
d="M46 17q-12 8 -24 20.5t-23 29.5l59 41q4 -12 14 -22.5t26 -21.5q16 -9 28 -13.5t21 -4.5q12 0 24 4t24 12q11 8 22 20.5t21 29.5t14.5 35t5.5 38q0 6 -0.5 12t-1.5 12q-1 5 -3 11l-4 12q-4 9 -7.5 14t-5.5 6q-1 2 -8 13t-21 32q-13 21 -20 31.5t-9 11.5q11 0 35 15.5
t62 46.5t59 53.5t26 38.5q5 15 7 28.5t3 25.5q0 14 -3 28t-10 29q-6 15 -16.5 28.5t-25.5 26.5q-14 12 -29 18t-31 6q-43 0 -83.5 -10t-78.5 -30q-37 -19 -70 -39t-63 -41q4 14 13 27t22 27q13 13 30.5 26.5t39.5 26.5q44 27 85 40.5t79 13.5q56 0 96 -10t63 -30
q23 -19 34 -47t12 -64q0 -10 -1 -24t-4 -32q-1 -16 -16.5 -36.5t-44.5 -45.5q-28 -24 -56 -45.5t-57 -41.5q5 -1 14.5 -13.5t25.5 -36.5q15 -23 22.5 -48t7.5 -51q0 -39 -19.5 -73.5t-60.5 -65.5q-39 -30 -74 -45t-67 -16q-16 0 -30.5 4t-27.5 13v0z" />
    <glyph glyph-name="afii57687" unicode="&#x5e7;" horiz-adv-x="414" 
d="M25 80q7 26 13.5 54t13.5 59l65 37q-5 -36 -11 -65.5t-14 -52.5q-6 -22 -14.5 -48t-20.5 -55q-10 -27 -18.5 -47.5t-16.5 -34.5q-6 -14 -13 -27.5t-15 -28.5q-5 -7 -9.5 -13.5t-8.5 -13.5q-5 -6 -10 -12.5t-10 -13.5q-5 -6 -10.5 -12.5t-11.5 -12.5t-12 -12.5t-13 -12.5
q14 31 26 58.5t22 50.5q9 22 18 47t19 53l16 52q8 26 15 51v0zM80 272q-18 -4 -30 -10t-20 -14q13 17 26.5 29t29.5 21q15 8 30 13t31 7q15 2 25 2.5t15 1.5q20 0 38 -3t36 -9q17 -6 32.5 -16.5t28.5 -25.5q14 -14 20.5 -33t6.5 -42q0 -20 -6 -42t-19 -45q-12 -22 -31.5 -41
t-46.5 -35q-25 -15 -46.5 -22.5t-39.5 -7.5q-9 0 -16.5 2.5t-14.5 8.5q-6 5 -13.5 14.5t-16.5 23.5q3 -1 6 -1.5t6 -0.5q4 -1 8 -1.5t8 -1.5h16.5t16.5 -1q29 0 50 8.5t36 26.5q14 17 21 39t8 49q0 19 -4.5 35.5t-15.5 31.5q-10 14 -21.5 24t-25.5 15q-13 5 -26.5 7t-28.5 3
q-18 0 -36 -2.5t-37 -7.5v0z" />
    <glyph glyph-name="afii57688" unicode="&#x5e8;" horiz-adv-x="309" 
d="M34 255q-10 -2 -17.5 -6t-12.5 -9q7 14 19 25.5t29 21.5t36 14.5t39 5.5q5 0 14 -1t23 -3q14 -1 27.5 -9.5t26.5 -24.5q13 -14 19 -31.5t7 -39.5q0 -31 -9 -58t-28 -50q-18 -21 -36 -37.5t-38 -28.5q-18 -10 -31 -16t-21 -8q5 2 16.5 17.5t29.5 43.5t28.5 48.5t13.5 34.5
t4.5 23.5t1.5 15.5q0 11 -2.5 21t-8.5 19q-4 9 -12 16t-19 12q-10 5 -23 7t-30 3q-13 0 -24 -1.5t-22 -4.5v0z" />
    <glyph glyph-name="afii57689" unicode="&#x5e9;" horiz-adv-x="400" 
d="M233 131q8 15 12.5 28t5.5 24l61 17q-4 -18 -10 -35t-16 -34q-9 -15 -21 -30t-28 -32q-15 -15 -32 -27.5t-37 -23.5q-19 -9 -34.5 -13.5t-28.5 -4.5q-17 0 -34.5 6.5t-35.5 20.5q-17 14 -25.5 33t-9.5 44q0 26 4.5 51.5t13.5 51.5t20 49t24 44q13 20 35.5 42t55.5 47
q33 24 61.5 36t53.5 12q17 0 29.5 -5.5t19.5 -17.5q7 -11 11 -18t5 -11q2 -2 2.5 -6t0.5 -9q0 -21 -6 -40.5t-18 -38.5q-11 -18 -31 -37t-49 -39q-28 -19 -51 -32.5t-43 -21.5q-19 -7 -36.5 -12t-34.5 -7q-1 -6 -2 -11.5t-1 -10.5q0 -9 2 -19t6 -21q3 -10 7.5 -18.5
t11.5 -14.5q6 -5 14 -7.5t18 -3.5q14 0 23.5 2.5t16.5 7.5t15.5 12.5t18.5 19.5q11 11 20 24t16 29v0zM253 385q-4 6 -12 9t-19 4q-12 0 -24 -4.5t-25 -14.5q-12 -9 -27 -27.5t-34 -47.5q-5 -9 -9.5 -16.5t-8.5 -15.5q-3 -6 -6 -13.5t-6 -18.5q-1 -4 -2 -8.5t-2 -8.5
q-2 -5 -3 -9t-2 -9q-1 -7 -2 -15.5t-1 -18.5q18 0 35 4t33 11q15 8 29.5 16t28.5 18q14 9 23.5 19.5t16.5 23.5q6 12 11 23.5t9 22.5q3 11 4.5 22t2.5 21q0 10 -2.5 18t-7.5 15v0z" />
    <glyph glyph-name="afii57690" unicode="&#x5ea;" horiz-adv-x="465" 
d="M1 1l105 324l78 39l-25 -91q5 5 16 12t27 15t29.5 12.5t26.5 7.5q12 2 19.5 2.5t11.5 1.5h7h6q26 0 45 -8t30 -25q11 -16 16.5 -31t6.5 -29q0 -15 -3.5 -32.5t-11.5 -37.5q-7 -19 -15.5 -36t-19.5 -31q-10 -13 -25 -27t-35 -29q-19 -14 -38.5 -23t-39.5 -14q11 8 20.5 16
t16.5 15q8 8 15.5 18.5t15.5 23.5q8 14 15.5 30t14.5 35q7 20 10 36.5t4 30.5q0 12 -4 23.5t-12 22.5q-7 11 -21.5 17.5t-37.5 10.5q-10 0 -19 -0.5t-17 -2.5q-6 -1 -14 -4t-19 -8q-10 -4 -18 -12t-16 -19l-79 -234q-9 -23 -20.5 -45t-25.5 -41q-13 -20 -30 -37.5t-38 -33.5
t-40 -28t-36 -22q-17 -9 -32.5 -14.5t-30.5 -6.5q-15 -2 -25 -2.5t-14 -0.5h-8t-6 -1q-30 0 -61 7.5t-63 24.5l33 55q16 -8 31 -15t32 -11q15 -4 32 -5.5t37 -2.5q45 0 76.5 10.5t50.5 33.5q18 22 30 40.5t19 35.5l12 30q6 15 11 30v0z" />
    <glyph glyph-name="afii57716" unicode="&#x5f0;" horiz-adv-x="401" 
d="M166 84q9 17 17.5 37t16.5 42q12 32 21 60t16 51q6 23 11.5 49.5t10.5 57.5l77 53q0 -18 -10 -58.5t-31 -105.5q-19 -63 -38 -107t-37 -70q-16 -24 -30.5 -41t-26.5 -28q-18 -10 -28 -16t-12 -8q13 24 23.5 45l19.5 39v0zM42 84q9 17 17.5 37t16.5 42q12 32 21 60t16 51
q6 23 11.5 49.5t10.5 57.5l77 53q0 -18 -10 -58.5t-31 -105.5q-19 -63 -38 -107t-37 -70q-16 -24 -30.5 -41t-26.5 -28q-18 -10 -28 -16t-12 -8q13 24 23.5 45l19.5 39v0z" />
    <glyph glyph-name="afii57717" unicode="&#x5f1;" horiz-adv-x="277" 
d="M18 299q2 6 4.5 14t4.5 18q1 8 1.5 14.5t1.5 12.5q0 2 0.5 3t0.5 3v2.5v2.5v2.5t1 2.5v2.5v2.5l64 47q0 -16 -1.5 -30.5t-6.5 -28.5q-3 -12 -10 -25.5t-19 -29.5q-10 -14 -24 -24.5t-31 -18.5q5 8 8 15.5t6 14.5v0zM42 84q9 17 17.5 37t16.5 42q12 32 21 60t16 51
q6 23 11.5 49.5t10.5 57.5l77 53q0 -18 -10 -58.5t-31 -105.5q-19 -63 -38 -107t-37 -70q-16 -24 -30.5 -41t-26.5 -28q-18 -10 -28 -16t-12 -8q13 24 23.5 45l19.5 39v0z" />
    <glyph glyph-name="afii57718" unicode="&#x5f2;" horiz-adv-x="252" 
d="M253 521zM108 228q2 6 5 14t5 18q0 8 1 14.5t1 12.5q0 2 1 3t1 3v2.5v2.5v2.5v2.5v2.5v2.5l64 47q0 -16 -1 -31q0 -4 -7 -28q-2 -12 -9 -25.5t-19 -29.5q-10 -14 -24 -24.5t-32 -18.5q6 8 9 15.5t5 14.5v0zM14 228q2 6 4.5 14t4.5 18q1 8 1.5 14.5t1.5 12.5q0 2 0.5 3
t0.5 3v2.5v2.5v2.5t1 2.5v2.5v2.5l64 47q0 -16 -1.5 -30.5t-6.5 -28.5q-3 -12 -10 -25.5t-19 -29.5q-10 -14 -24 -24.5t-31 -18.5q5 8 8 15.5t6 14.5v0z" />
    <glyph glyph-name="glyph250" unicode="&#x2013;" horiz-adv-x="500" 
 />
    <glyph glyph-name="emdash" unicode="&#x2014;" horiz-adv-x="500" 
 />
    <glyph glyph-name="underscoredbl" unicode="&#x2017;" 
 />
    <glyph glyph-name="quoteleft" unicode="&#x2018;" horiz-adv-x="500" 
 />
    <glyph glyph-name="quoteright" unicode="&#x2019;" horiz-adv-x="500" 
 />
    <glyph glyph-name="quotesinglbase" unicode="&#x201a;" 
 />
    <glyph glyph-name="quotedblleft" unicode="&#x201c;" horiz-adv-x="500" 
 />
    <glyph glyph-name="quotedblright" unicode="&#x201d;" horiz-adv-x="500" 
 />
    <glyph glyph-name="quotedblbase" unicode="&#x201e;" horiz-adv-x="500" 
 />
    <glyph glyph-name="dagger" unicode="&#x2020;" horiz-adv-x="500" 
 />
    <glyph glyph-name="daggerdbl" unicode="&#x2021;" horiz-adv-x="500" 
 />
    <glyph glyph-name="glyph261" unicode="&#x2022;" horiz-adv-x="500" 
 />
    <glyph glyph-name="ellipsis" unicode="&#x2026;" horiz-adv-x="500" 
 />
    <glyph glyph-name="perthousand" unicode="&#x2030;" horiz-adv-x="500" 
 />
    <glyph glyph-name="guilsinglleft" unicode="&#x2039;" horiz-adv-x="500" 
 />
    <glyph glyph-name="guilsinglright" unicode="&#x203a;" horiz-adv-x="500" 
 />
    <glyph glyph-name="exclamdbl" unicode="&#x203c;" 
 />
    <glyph glyph-name="nsuperior" unicode="&#x207f;" 
 />
    <glyph glyph-name="franc" unicode="&#x20a3;" 
 />
    <glyph glyph-name="peseta" unicode="&#x20a7;" 
 />
    <glyph glyph-name="trademark" unicode="&#x2122;" horiz-adv-x="500" 
 />
    <glyph glyph-name="arrowleft" unicode="&#x2190;" 
 />
    <glyph glyph-name="arrowup" unicode="&#x2191;" 
 />
    <glyph glyph-name="arrowright" unicode="&#x2192;" 
 />
    <glyph glyph-name="arrowdown" unicode="&#x2193;" 
 />
    <glyph glyph-name="arrowboth" unicode="&#x2194;" 
 />
    <glyph glyph-name="arrowupdn" unicode="&#x2195;" 
 />
    <glyph glyph-name="arrowupdnbase" unicode="&#x21a8;" 
 />
    <glyph glyph-name="partialdiff" unicode="&#x2202;" 
 />
    <glyph glyph-name="Delta" unicode="&#x2206;" 
 />
    <glyph glyph-name="product" unicode="&#x220f;" 
 />
    <glyph glyph-name="minus" unicode="&#x2212;" 
 />
    <glyph glyph-name="fraction" unicode="&#x2215;" horiz-adv-x="500" 
 />
    <glyph glyph-name="periodcentered" unicode="&#x2219;" horiz-adv-x="500" 
 />
    <glyph glyph-name="radical" unicode="&#x221a;" 
 />
    <glyph glyph-name="infinity" unicode="&#x221e;" 
 />
    <glyph glyph-name="orthogonal" unicode="&#x221f;" 
 />
    <glyph glyph-name="intersection" unicode="&#x2229;" 
 />
    <glyph glyph-name="integral" unicode="&#x222b;" 
 />
    <glyph glyph-name="approxequal" unicode="&#x2248;" 
 />
    <glyph glyph-name="notequal" unicode="&#x2260;" 
 />
    <glyph glyph-name="equivalence" unicode="&#x2261;" 
 />
    <glyph glyph-name="lessequal" unicode="&#x2264;" 
 />
    <glyph glyph-name="greaterequal" unicode="&#x2265;" 
 />
    <glyph glyph-name="house" unicode="&#x2302;" 
 />
    <glyph glyph-name="revlogicalnot" unicode="&#x2310;" 
 />
    <glyph glyph-name="integraltp" unicode="&#x2320;" 
 />
    <glyph glyph-name="integralbt" unicode="&#x2321;" 
 />
    <glyph glyph-name="2500" unicode="&#x2500;" 
 />
    <glyph glyph-name="2502" unicode="&#x2502;" 
 />
    <glyph glyph-name="250c" unicode="&#x250c;" 
 />
    <glyph glyph-name="2510" unicode="&#x2510;" 
 />
    <glyph glyph-name="2514" unicode="&#x2514;" 
 />
    <glyph glyph-name="2518" unicode="&#x2518;" 
 />
    <glyph glyph-name="251c" unicode="&#x251c;" 
 />
    <glyph glyph-name="2524" unicode="&#x2524;" 
 />
    <glyph glyph-name="252c" unicode="&#x252c;" 
 />
    <glyph glyph-name="2534" unicode="&#x2534;" 
 />
    <glyph glyph-name="253c" unicode="&#x253c;" 
 />
    <glyph glyph-name="2550" unicode="&#x2550;" 
 />
    <glyph glyph-name="2551" unicode="&#x2551;" 
 />
    <glyph glyph-name="2552" unicode="&#x2552;" 
 />
    <glyph glyph-name="2553" unicode="&#x2553;" 
 />
    <glyph glyph-name="2554" unicode="&#x2554;" 
 />
    <glyph glyph-name="2555" unicode="&#x2555;" 
 />
    <glyph glyph-name="2556" unicode="&#x2556;" 
 />
    <glyph glyph-name="2557" unicode="&#x2557;" 
 />
    <glyph glyph-name="2558" unicode="&#x2558;" 
 />
    <glyph glyph-name="2559" unicode="&#x2559;" 
 />
    <glyph glyph-name="255a" unicode="&#x255a;" 
 />
    <glyph glyph-name="255b" unicode="&#x255b;" 
 />
    <glyph glyph-name="255c" unicode="&#x255c;" 
 />
    <glyph glyph-name="255d" unicode="&#x255d;" 
 />
    <glyph glyph-name="255e" unicode="&#x255e;" 
 />
    <glyph glyph-name="255f" unicode="&#x255f;" 
 />
    <glyph glyph-name="2560" unicode="&#x2560;" 
 />
    <glyph glyph-name="2561" unicode="&#x2561;" 
 />
    <glyph glyph-name="2562" unicode="&#x2562;" 
 />
    <glyph glyph-name="2563" unicode="&#x2563;" 
 />
    <glyph glyph-name="2564" unicode="&#x2564;" 
 />
    <glyph glyph-name="2565" unicode="&#x2565;" 
 />
    <glyph glyph-name="2566" unicode="&#x2566;" 
 />
    <glyph glyph-name="2567" unicode="&#x2567;" 
 />
    <glyph glyph-name="2568" unicode="&#x2568;" 
 />
    <glyph glyph-name="2569" unicode="&#x2569;" 
 />
    <glyph glyph-name="256a" unicode="&#x256a;" 
 />
    <glyph glyph-name="256b" unicode="&#x256b;" 
 />
    <glyph glyph-name="256c" unicode="&#x256c;" 
 />
    <glyph glyph-name="upblock" unicode="&#x2580;" 
 />
    <glyph glyph-name="dnblock" unicode="&#x2584;" 
 />
    <glyph glyph-name="block" unicode="&#x2588;" 
 />
    <glyph glyph-name="lfblock" unicode="&#x258c;" 
 />
    <glyph glyph-name="rtblock" unicode="&#x2590;" 
 />
    <glyph glyph-name="ltshade" unicode="&#x2591;" 
 />
    <glyph glyph-name="shade" unicode="&#x2592;" 
 />
    <glyph glyph-name="dkshade" unicode="&#x2593;" 
 />
    <glyph glyph-name="filledbox" unicode="&#x25a0;" 
 />
    <glyph glyph-name="filledrect" unicode="&#x25ac;" 
 />
    <glyph glyph-name="triagup" unicode="&#x25b2;" 
 />
    <glyph glyph-name="triagrt" unicode="&#x25ba;" 
 />
    <glyph glyph-name="triagdn" unicode="&#x25bc;" 
 />
    <glyph glyph-name="triaglf" unicode="&#x25c4;" 
 />
    <glyph glyph-name="lozenge" unicode="&#x25ca;" 
 />
    <glyph glyph-name="circle" unicode="&#x25cb;" 
 />
    <glyph glyph-name="invbullet" unicode="&#x25d8;" 
 />
    <glyph glyph-name="invcircle" unicode="&#x25d9;" 
 />
    <glyph glyph-name="smileface" unicode="&#x263a;" 
 />
    <glyph glyph-name="invsmileface" unicode="&#x263b;" 
 />
    <glyph glyph-name="sun" unicode="&#x263c;" 
 />
    <glyph glyph-name="female" unicode="&#x2640;" 
 />
    <glyph glyph-name="male" unicode="&#x2642;" 
 />
    <glyph glyph-name="spade" unicode="&#x2660;" 
 />
    <glyph glyph-name="club" unicode="&#x2663;" 
 />
    <glyph glyph-name="heart" unicode="&#x2665;" 
 />
    <glyph glyph-name="diamond" unicode="&#x2666;" 
 />
    <glyph glyph-name="musicalnote" unicode="&#x266a;" 
 />
    <glyph glyph-name="musicalnotedbl" unicode="&#x266b;" 
 />
    <glyph glyph-name="apple" unicode="&#xf000;" 
 />
    <glyph glyph-name="fi" unicode="&#xf001;" 
 />
    <glyph glyph-name="fl" unicode="&#xf002;" 
 />
    <glyph glyph-name="uniFB1D" unicode="&#xfb1d;" horiz-adv-x="157" 
d="M44 154l24 -30l-32 -32l-22 30l30 32v0zM14 228q2 6 4.5 14t4.5 18q1 8 1.5 14.5t1.5 12.5q0 2 0.5 3t0.5 3v2.5v2.5v2.5t1 2.5v2.5v2.5l64 47q0 -16 -1.5 -30.5t-6.5 -28.5q-3 -12 -10 -25.5t-19 -29.5q-10 -14 -24 -24.5t-31 -18.5q5 8 8 15.5t6 14.5v0z" />
    <glyph glyph-name="uniFB1F" unicode="&#xfb1f;" horiz-adv-x="274" 
d="M21 127l-21 -55h159l24 58zM253 521zM130 234q2 6 5 14t5 18q0 8 1 15t1 13q0 2 1 3t1 3v2v2v3v3v2v2l64 48q0 -16 -1 -31t-7 -29q-2 -12 -9 -25t-19 -29q-10 -14 -24 -25t-32 -19q6 8 9 16t5 14v0zM14 228q2 6 4.5 14t4.5 18q1 8 1.5 14.5t1.5 12.5q0 2 0.5 3t0.5 3v2.5
v2.5v2.5t1 2.5v2.5v2.5l64 47q0 -16 -1.5 -30.5t-6.5 -28.5q-3 -12 -10 -25.5t-19 -29.5q-10 -14 -24 -24.5t-31 -18.5q5 8 8 15.5t6 14.5v0z" />
    <glyph glyph-name="uniFB2B" unicode="&#xfb2b;" horiz-adv-x="400" 
d="M31 459l23 -30l-31 -32l-23 29l31 33v0zM233 131q8 15 12.5 28t5.5 24l61 17q-4 -18 -10 -35t-16 -34q-9 -15 -21 -30t-28 -32q-15 -15 -32 -27.5t-37 -23.5q-19 -9 -34.5 -13.5t-28.5 -4.5q-17 0 -34.5 6.5t-35.5 20.5q-17 14 -25.5 33t-9.5 44q0 26 4.5 51.5t13.5 51.5
t20 49t24 44q13 20 35.5 42t55.5 47q33 24 61.5 36t53.5 12q17 0 29.5 -5.5t19.5 -17.5q7 -11 11 -18t5 -11q2 -2 2.5 -6t0.5 -9q0 -21 -6 -40.5t-18 -38.5q-11 -18 -31 -37t-49 -39q-28 -19 -51 -32.5t-43 -21.5q-19 -7 -36.5 -12t-34.5 -7q-1 -6 -2 -11.5t-1 -10.5
q0 -9 2 -19t6 -21q3 -10 7.5 -18.5t11.5 -14.5q6 -5 14 -7.5t18 -3.5q14 0 23.5 2.5t16.5 7.5t15.5 12.5t18.5 19.5q11 11 20 24t16 29v0zM253 385q-4 6 -12 9t-19 4q-12 0 -24 -4.5t-25 -14.5q-12 -9 -27 -27.5t-34 -47.5q-5 -9 -9.5 -16.5t-8.5 -15.5q-3 -6 -6 -13.5
t-6 -18.5q-1 -4 -2 -8.5t-2 -8.5q-2 -5 -3 -9t-2 -9q-1 -7 -2 -15.5t-1 -18.5q18 0 35 4t33 11q15 8 29.5 16t28.5 18q14 9 23.5 19.5t16.5 23.5q6 12 11 23.5t9 22.5q3 11 4.5 22t2.5 21q0 10 -2.5 18t-7.5 15v0z" />
    <glyph glyph-name="uniFB2E" unicode="&#xfb2e;" horiz-adv-x="482" 
d="M24 -55l-22 -56l300 1l23 55h-301zM387 309q8 -1 14 -6t10 -14q0 -1 1 -3t2 -6q2 -3 2.5 -5t0.5 -4l-46 -40q-7 11 -11.5 18t-8.5 11q-2 3 -7.5 5.5t-15.5 3.5h-2q-1 0 -2 1h-3h-2q-16 -1 -33 -11t-36 -30q-21 -22 -31.5 -45.5t-10.5 -49.5q0 -16 4 -30t12 -25
q8 -10 15.5 -16.5t16.5 -8.5q8 -1 15 -2t12 -1q10 0 20 2.5t20 6.5q10 5 17 10t11 11q-4 -16 -14 -30.5t-27 -26.5q-16 -12 -30.5 -18t-28.5 -6q-20 0 -38 5.5t-34 15.5q-15 11 -23.5 22.5t-10.5 24.5q-1 14 -2 24.5t-1 18.5q0 20 4.5 37.5t13.5 33.5t17 27.5t15 18.5
q7 8 16 16t21 18q11 9 26.5 17.5t34.5 16.5t35.5 11.5t32.5 4.5h7.5t7.5 -1q3 0 6.5 -0.5t7.5 -1.5v0zM48 117q5 11 9 22.5t9 23.5q4 12 8.5 24t8.5 25q8 26 14.5 47.5t11.5 39.5t9.5 40t10.5 47l66 53q-3 -24 -7.5 -48t-10.5 -48q-5 -22 -14.5 -51t-23.5 -65
q-13 -34 -24 -59t-20 -42q-8 -15 -16.5 -28t-18.5 -24q-8 -10 -15 -18t-14 -14q-6 -5 -12.5 -11t-14.5 -13q13 26 23.5 51t20.5 48v0z" />
    <glyph glyph-name="uniFB2F" unicode="&#xfb2f;" horiz-adv-x="482" 
d="M24 -55l-22 -56h127l-23 -67l76 2l24 66h96l23 55h-301zM387 309q8 -1 14 -6t10 -14q0 -1 1 -3t2 -6q2 -3 2.5 -5t0.5 -4l-46 -40q-7 11 -11.5 18t-8.5 11q-2 3 -7.5 5.5t-15.5 3.5h-2q-1 0 -2 1h-3h-2q-16 -1 -33 -11t-36 -30q-21 -22 -31.5 -45.5t-10.5 -49.5
q0 -16 4 -30t12 -25q8 -10 15.5 -16.5t16.5 -8.5q8 -1 15 -2t12 -1q10 0 20 2.5t20 6.5q10 5 17 10t11 11q-4 -16 -14 -30.5t-27 -26.5q-16 -12 -30.5 -18t-28.5 -6q-20 0 -38 5.5t-34 15.5q-15 11 -23.5 22.5t-10.5 24.5q-1 14 -2 24.5t-1 18.5q0 20 4.5 37.5t13.5 33.5
t17 27.5t15 18.5q7 8 16 16t21 18q11 9 26.5 17.5t34.5 16.5t35.5 11.5t32.5 4.5h7.5t7.5 -1q3 0 6.5 -0.5t7.5 -1.5v0zM48 117q5 11 9 22.5t9 23.5q4 12 8.5 24t8.5 25q8 26 14.5 47.5t11.5 39.5t9.5 40t10.5 47l66 53q-3 -24 -7.5 -48t-10.5 -48q-5 -22 -14.5 -51
t-23.5 -65q-13 -34 -24 -59t-20 -42q-8 -15 -16.5 -28t-18.5 -24q-8 -10 -15 -18t-14 -14q-6 -5 -12.5 -11t-14.5 -13q13 26 23.5 51t20.5 48v0z" />
    <glyph glyph-name="uniFB35" unicode="&#xfb35;" horiz-adv-x="278" 
d="M32 292l23 -30l-31 -32l-23 29l31 33v0zM42 84q9 17 17.5 37t16.5 42q12 32 21 60t16 51q6 23 11.5 49.5t10.5 57.5l77 53q0 -18 -10 -58.5t-31 -105.5q-19 -63 -38 -107t-37 -70q-16 -24 -30.5 -41t-26.5 -28q-18 -10 -28 -16t-12 -8q13 24 23.5 45l19.5 39v0z" />
    <glyph glyph-name="uniFB44" unicode="&#xfb44;" horiz-adv-x="484" 
d="M150 120l22 -30l-30 -32l-24 29l32 33v0zM107 256q-14 -3 -27 -9.5t-25 -17.5q17 22 38.5 37t48.5 23q26 8 55.5 12t61.5 5q33 0 61 -10q24 -10 51 -34q23 -21 34.5 -48.5t12.5 -62.5q0 -21 -4.5 -42t-13.5 -43q-9 -21 -21.5 -40.5t-29.5 -37.5q-16 -18 -37 -34t-47 -29
q-25 -13 -44.5 -19t-33.5 -7q-30 0 -55 2t-45 7q-19 4 -33.5 11t-25.5 18q-9 10 -15 20t-9 20q-1 7 -4 29q-2 12 -2 26q0 22 17 55q15 30 46 58t59.5 41.5t55.5 14.5q23 0 43 -4.5t37 -15.5q17 -10 25 -25.5t8 -37.5q0 -16 -9 -33.5t-29 -36.5q-18 -18 -37 -27t-39 -9
q-7 0 -14 1.5t-14 5.5q15 0 28.5 6t26.5 18q12 12 18 25.5t6 28.5q0 2 -1 6.5l-3 13.5q-1 8 -6 15.5t-14 16.5q-8 8 -17.5 12t-20.5 5q-21 0 -39 -10t-35 -31q-15 -20 -22.5 -42t-7.5 -47q0 -19 8.5 -36.5t26.5 -33.5q17 -15 36 -22.5t41 -8.5q6 0 19 1.5t34 5.5q21 3 42 18
t43 43q21 28 31.5 59t11.5 65q0 24 -8 46t-25 42q-16 20 -31.5 30.5t-31.5 12.5q-12 2 -21.5 2.5t-17.5 0.5q-1 0 -2 1h-1h-2h-2q-3 0 -7 0.5t-8 0.5q-5 0 -9.5 0.5t-10.5 0.5q-19 0 -36.5 -1.5t-32.5 -6.5v0z" />
    <glyph glyph-name="uniFB4A" unicode="&#xfb4a;" horiz-adv-x="465" 
d="M215 172l23 -30l-31 -32l-23 30l31 32v0zM1 1l105 324l78 39l-25 -91q5 5 16 12t27 15t29.5 12.5t26.5 7.5q12 2 19.5 2.5t11.5 1.5h7h6q26 0 45 -8t30 -25q11 -16 16.5 -31t6.5 -29q0 -15 -3.5 -32.5t-11.5 -37.5q-7 -19 -15.5 -36t-19.5 -31q-10 -13 -25 -27t-35 -29
q-19 -14 -38.5 -23t-39.5 -14q11 8 20.5 16t16.5 15q8 8 15.5 18.5t15.5 23.5q8 14 15.5 30t14.5 35q7 20 10 36.5t4 30.5q0 12 -4 23.5t-12 22.5q-7 11 -21.5 17.5t-37.5 10.5q-10 0 -19 -0.5t-17 -2.5q-6 -1 -14 -4t-19 -8q-10 -4 -18 -12t-16 -19l-79 -234
q-9 -23 -20.5 -45t-25.5 -41q-13 -20 -30 -37.5t-38 -33.5t-40 -28t-36 -22q-17 -9 -32.5 -14.5t-30.5 -6.5q-15 -2 -25 -2.5t-14 -0.5h-8t-6 -1q-30 0 -61 7.5t-63 24.5l33 55q16 -8 31 -15t32 -11q15 -4 32 -5.5t37 -2.5q45 0 76.5 10.5t50.5 33.5q18 22 30 40.5t19 35.5
l12 30q6 15 11 30v0z" />
    <glyph glyph-name="uniFB4C" unicode="&#xfb4c;" horiz-adv-x="472" 
d="M113 426l-22 -56l300 1l23 55h-301zM169 255q-13 -4 -24.5 -12t-20.5 -20q10 21 25 36.5t36 25.5q20 10 43.5 14.5t49.5 5.5q29 0 52 -10.5t41 -31.5t27 -48t9 -61q0 -25 -9.5 -51t-29.5 -53q-19 -25 -41 -37.5t-46 -12.5q-10 0 -25.5 12t-36.5 37q-19 25 -36 37t-31 13
q-3 0 -9.5 -1.5t-17.5 -5.5q-10 -3 -19.5 -11.5t-19.5 -22.5q-9 -13 -13.5 -29t-5.5 -33l-62 -44q0 35 10 64t31 55q20 26 46.5 40t59.5 17q26 0 47.5 -4t39.5 -13q18 -7 30.5 -16.5t19.5 -20.5q7 -10 11 -16t6 -8q1 0 1.5 -0.5t1.5 -0.5l1 -1h1q5 0 7.5 2.5t3.5 6.5
q6 9 10.5 18t7.5 18t4.5 19.5t1.5 23.5v10.5t-1 7.5v10q-1 8 -3 15t-5 15q-4 7 -9 14.5t-12 14.5q-6 7 -12 12.5t-11 9.5q-6 4 -12 7.5t-12 5.5q-11 3 -21.5 4.5t-20.5 2.5q-15 0 -29.5 -2.5t-28.5 -7.5v0z" />
    <glyph glyph-name="uniFB4E" unicode="&#xfb4e;" horiz-adv-x="487" 
d="M122 426l-22 -56l300 1l23 55h-301zM107 256q-14 -3 -27 -9.5t-25 -17.5q17 22 38.5 37t48.5 23q26 8 55.5 12t61.5 5q33 0 61 -10q24 -10 51 -34q23 -21 34.5 -48.5t12.5 -62.5q0 -21 -4.5 -42t-13.5 -43q-9 -21 -21.5 -40.5t-29.5 -37.5q-16 -18 -37 -34t-47 -29
q-25 -13 -44.5 -19t-33.5 -7q-30 0 -55 2t-45 7q-19 4 -33.5 11t-25.5 18q-9 10 -15 20t-9 20q-1 7 -4 29q-2 12 -2 26q0 22 17 55q15 30 46 58t59.5 41.5t55.5 14.5q23 0 43 -4.5t37 -15.5q17 -10 25 -25.5t8 -37.5q0 -16 -9 -33.5t-29 -36.5q-18 -18 -37 -27t-39 -9
q-7 0 -14 1.5t-14 5.5q15 0 28.5 6t26.5 18q12 12 18 25.5t6 28.5q0 2 -1 6.5l-3 13.5q-1 8 -6 15.5t-14 16.5q-8 8 -17.5 12t-20.5 5q-21 0 -39 -10t-35 -31q-15 -20 -22.5 -42t-7.5 -47q0 -19 8.5 -36.5t26.5 -33.5q17 -15 36 -22.5t41 -8.5q6 0 19 1.5t34 5.5q21 3 42 18
t43 43q21 28 31.5 59t11.5 65q0 24 -8 46t-25 42q-16 20 -31.5 30.5t-31.5 12.5q-12 2 -21.5 2.5t-17.5 0.5q-1 0 -2 1h-1h-2h-2q-3 0 -7 0.5t-8 0.5q-5 0 -9.5 0.5t-10.5 0.5q-19 0 -36.5 -1.5t-32.5 -6.5v0z" />
    <glyph glyph-name="degree" horiz-adv-x="500" 
 />
    <glyph glyph-name="bullet" horiz-adv-x="500" 
 />
    <glyph glyph-name="endash" 
 />
  </font>
</defs>
</svg>
