<?xml version="1.0" standalone="no"?>
<!DOCTYPE svg PUBLIC "-//W3C//DTD SVG 1.1//EN" "http://www.w3.org/Graphics/SVG/1.1/DTD/svg11.dtd" >
<svg xmlns="http://www.w3.org/2000/svg" xmlns:xlink="http://www.w3.org/1999/xlink" version="1.1">
<metadata>
Created by FontForge 20170910 at Mon Sep 10 19:18:47 2012
 By Jimmy Wärting
Noot is a trademark of Amos Jerbi
</metadata>
<defs>
<font id="Noot" horiz-adv-x="783" >
  <font-face 
    font-family="Noot"
    font-weight="400"
    font-stretch="normal"
    units-per-em="2048"
    panose-1="0 0 0 0 0 0 0 0 0 0"
    ascent="1638"
    descent="-410"
    x-height="1139"
    cap-height="1519"
    bbox="-407 -1046 2521 2052"
    underline-thickness="150"
    underline-position="-292"
    stemh="92"
    stemv="268"
    unicode-range="U+0020-FB4F"
  />
<missing-glyph horiz-adv-x="616" 
 />
    <glyph glyph-name=".notdef" horiz-adv-x="616" 
 />
    <glyph glyph-name="space" unicode=" " horiz-adv-x="616" 
 />
    <glyph glyph-name="exclam" unicode="!" horiz-adv-x="741" 
d="M122 1470c0 0 269 67 546 38l-162 -1470l-76 -60l-224 -20s-108 1031 -84 1512zM512 -316c0 -75 -104 -148 -179 -148c-68 0 -153 47 -153 124c0 85 122 117 195 117c62 0 107 -11 132 -68c5 -8 5 -16 5 -25z" />
    <glyph glyph-name="quotedbl" unicode="&#x22;" horiz-adv-x="850" 
d="M92 1492c0 0 123 9 288 -6c0 0 -22 -398 -28 -604l-8 -10l-224 -2c-13 200 -53 595 -53 595zM502 860c0 0 123 -9 288 6c0 0 -22 398 -28 604l-8 10l-224 2c-13 -200 -53 -595 -53 -595z" />
    <glyph glyph-name="numbersign" unicode="#" horiz-adv-x="1431" 
d="M644 1402l-55 -318c107 -4 223 -10 342 -17c28 111 59 222 90 328c0 0 117 42 173 17l-60 -345c96 -7 192 -15 285 -25c0 0 5 -79 -9 -140l-343 -4l-48 -269c155 4 277 6 339 7l22 -16l-1 -223l-344 4l-54 -308l-249 16l-12 24c12 56 33 164 63 300l-307 4l-55 -314
l-209 -64l-12 24c12 57 34 167 64 306l-243 3c-14 61 42 180 42 180c80 9 162 16 245 22c21 93 44 193 69 296l-265 -3l-71 233l22 16c63 -1 186 -3 344 -7c26 103 55 207 84 306c0 0 97 -8 153 -33zM878 896l-293 -4l-49 -285c110 7 178 12 278 15z" />
    <glyph glyph-name="dollar" unicode="$" horiz-adv-x="1332" 
d="M863 1473l-18 -179c62 4 109 5 132 5l123 -1s70 -222 13 -616l-752 9l25 -257l832 -2l29 -18s28 -475 -10 -619c0 0 -2 -11 -12 -46l-354 -9l22 -222c-201 -37 -325 10 -325 10l20 205l-476 -12s-44 84 0 291c0 0 737 -13 737 -11l-13 169l-19 15l-602 59l-20 977
c99 18 208 33 312 45l-19 197s174 47 375 10z" />
    <glyph glyph-name="percent" unicode="%" horiz-adv-x="1560" 
d="M1269 280c6 66 -27 68 -96 68c-165 0 -181 -32 -181 -32c-15 -25 -1 -91 -1 -91l16 -75l21 -30c16 -15 164 0 164 -2s32 11 32 11c34 3 39 85 45 151zM529 1250c6 66 -27 68 -96 68c-165 0 -181 -32 -181 -32c-15 -25 -1 -91 -1 -91l16 -75l21 -30c16 -15 164 0 164 -2
s32 11 32 11c34 3 39 85 45 151zM652 1144c0 -52 -7 -169 -42 -212c-45 -57 -266 -76 -336 -76c-44 0 -143 3 -174 36c-55 57 -80 228 -80 304c0 64 8 137 62 184s214 56 282 56c60 0 195 -9 236 -52c44 -47 52 -178 52 -240zM1166 1444l-598 -1486l-244 34l-8 32
c83 192 383 885 687 1446c0 0 101 19 163 -26zM1520 266c0 -222 -104 -252 -306 -252c-62 0 -241 9 -284 66c-33 45 -40 144 -40 194c0 66 10 210 52 258c44 50 230 60 290 60c54 0 184 -4 222 -48c46 -52 66 -210 66 -278z" />
    <glyph glyph-name="ampersand" unicode="&#x26;" horiz-adv-x="1300" 
d="M410 330c0 0 49 -4 61 3c13 1 132 70 147 79l15 9l-167 183c-141 -78 -157 -122 -159 -156c-4 -78 103 -118 103 -118zM570 1096c6 43 -46 95 -46 95s-33 23 -47 30c-22 8 -116 -58 -116 -58l-8 -6l125 -160c82 37 89 81 92 99zM1234 500l-5 -57l-229 -168l175 -212
s-117 -64 -119 -64s-35 6 -35 6l-147 216l-258 -190s-223 -13 -226 -13c-2 0 -339 379 -339 379c-27 272 309 473 309 473l-255 381c168 215 493 244 493 244s149 -193 199 -501l-137 -184l154 -182l198 138z" />
    <glyph glyph-name="parenleft" unicode="(" horiz-adv-x="770" 
d="M422 664c-14 -252 14 -992 203 -1173l13 -40l-31 -29c-383 150 -579 921 -561 1254c19 342 117 1287 664 1192c-306 -160 -288 -1204 -288 -1204z" />
    <glyph glyph-name="parenright" unicode=")" horiz-adv-x="729" 
d="M314 664c0 0 17 1044 -288 1204c547 95 645 -850 664 -1192c18 -333 -178 -1104 -561 -1254l-32 29l14 40c188 181 216 921 203 1173z" />
    <glyph glyph-name="asterisk" unicode="*" horiz-adv-x="1076" 
d="M276 1406l194 -284l24 378s93 8 260 -72l-58 -274l276 90l42 -224l-290 -38l212 -232l-246 -152l-174 280l-196 -270l-44 20l-188 182l224 210l-220 222c58 137 184 164 184 164z" />
    <glyph glyph-name="plus" unicode="+" horiz-adv-x="1084" 
d="M129 664l-17 224l246 22l-18 272l272 12c8 -128 12 -266 12 -266l278 10l14 -236l-272 -14l30 -352l-272 -11l-26 23v316h-247z" />
    <glyph glyph-name="comma" unicode="," horiz-adv-x="558" 
d="M217 -115l-97 7l-25 45l-13 105s-12 94 12 126c0 0 26 43 254 23c96 -8 157 -24 141 -114l-130 -430l-32 -12l-136 21l55 195z" />
    <glyph glyph-name="hyphen" unicode="-" 
d="M713 596l-609 31l-40 17s-1 270 -1 274c0 2 656 10 656 10c-3 -108 -6 -332 -6 -332z" />
    <glyph glyph-name="period" unicode="." horiz-adv-x="501" 
d="M415 108c0 -75 -105 -148 -179 -148c-68 0 -154 47 -154 124c0 85 122 117 196 117c62 0 107 -11 132 -68c5 -8 5 -16 5 -25z" />
    <glyph glyph-name="slash" unicode="/" horiz-adv-x="1041" 
d="M996 1444l-598 -1486l-344 54l-8 32c83 192 383 885 687 1446c0 0 201 -1 263 -46z" />
    <glyph glyph-name="zero" unicode="0" horiz-adv-x="1458" 
d="M915 1022c11 113 -50 117 -177 117c-302 0 -332 -56 -332 -56c-28 -42 3 -658 3 -658l25 -147l38 -52c30 -25 302 0 302 -3s58 19 58 19c63 5 72 667 83 780zM1323 1458l39 -50s96 -814 -139 -1340c0 0 -86 -86 -86 -83s-712 -138 -939 86l-19 69s-164 666 -75 1250
c0 0 70 82 67 68s601 117 1152 0z" />
    <glyph glyph-name="one" unicode="1" 
d="M100 1350c0 0 160 121 603 147l-27 -1498l-284 -19l-37 23s-23 937 -23 942c0 3 -11 15 -11 15c-6 0 -231 9 -231 9c-7 151 10 381 10 381z" />
    <glyph glyph-name="two" unicode="2" horiz-adv-x="1332" 
d="M144 -1c-9 35 -12 46 -12 46c-38 144 -10 619 -10 619l30 18l832 2l25 257l-752 -9c-57 394 13 586 13 586l122 1c87 1 479 -23 782 -78l-20 -947l-602 -59l-19 -15s-12 -167 -12 -169c-1 -2 736 11 736 11c44 -207 0 -291 0 -291z" />
    <glyph glyph-name="three" unicode="3" horiz-adv-x="1368" 
d="M1182 1484l-62 -1510l-997 -17c-17 188 22 285 22 285l739 33l-9 139l-35 28l-476 -3c-62 120 20 341 20 335s444 -16 444 -16l-11 275l-704 27c-42 188 -7 398 -7 398s376 96 1076 26z" />
    <glyph glyph-name="four" unicode="4" horiz-adv-x="1426" 
d="M1356 813c0 0 35 -226 32 -360l-282 11l26 -454c-168 -27 -267 0 -267 0l-17 458l-39 31l-722 43c-21 425 -3 932 -3 932s309 30 395 14l18 -674l25 -19c5 3 319 -8 319 -8c-3 5 -23 705 -23 705s133 71 291 63v-734s247 -8 247 -8z" />
    <glyph glyph-name="five" unicode="5" horiz-adv-x="1332" 
d="M1225 19l-1113 -28s-44 84 0 291c0 0 737 -13 737 -11s-13 169 -13 169l-19 15l-602 59l-20 917c303 55 695 79 782 78l123 -1s70 -162 13 -556l-752 9l25 -257l832 -2l29 -18s28 -475 -10 -619c0 0 -2 -11 -12 -46z" />
    <glyph glyph-name="six" unicode="6" horiz-adv-x="1419" 
d="M491 319c0 -10 0 -20 6 -31c30 -69 86 -83 162 -83c90 0 241 39 241 144c0 94 -105 152 -189 152c-91 0 -220 -90 -220 -182zM530 772c0 0 691 -32 748 -44c14 -81 22 -82 22 -169c0 -90 -6 -452 -13 -545c-122 -44 -959 -33 -1133 -11c0 0 -35 1223 115 1496
c0 0 769 -47 1018 -77l-15 -403s-320 11 -499 11c-19 0 -213 4 -223 -28c-38 -122 -20 -230 -20 -230z" />
    <glyph glyph-name="seven" unicode="7" horiz-adv-x="1200" 
d="M273 551l406 44l33 247c-3 5 -17 25 -17 25l-609 -15l-35 27l44 570s466 86 984 53c0 0 -89 -971 -87 -968c1 1 154 17 154 17c20 -149 -4 -244 -4 -242c0 3 -174 -3 -174 -3l-32 -283l-38 -32c4 -1 -296 27 -296 27l58 310l-375 -38c-44 77 -12 261 -12 261z" />
    <glyph glyph-name="eight" unicode="8" horiz-adv-x="1420" 
d="M893 473c0 10 0 20 -6 31c-30 69 -86 83 -162 83c-90 0 -241 -39 -241 -144c0 -94 105 -152 189 -152c91 0 220 90 220 182zM893 993c0 10 0 20 -6 31c-30 69 -86 83 -162 83c-90 0 -241 -39 -241 -144c0 -94 105 -152 189 -152c91 0 220 90 220 182zM1230 757l-110 -55
s2 -191 4 -196s80 -17 80 -17c-2 -347 -129 -505 -129 -505l-786 20l-42 22c-129 269 -103 558 -100 552c2 -3 94 34 94 28s-8 183 -8 183l-78 24c-101 463 35 672 35 672s631 50 1102 -27c0 0 36 -455 -62 -701z" />
    <glyph glyph-name="nine" unicode="9" horiz-adv-x="1306" 
d="M883 1183c0 10 0 20 -6 31c-30 69 -86 83 -162 83c-90 0 -241 -39 -241 -144c0 -94 105 -152 189 -152c91 0 220 90 220 182zM844 650c-34 49 -691 32 -748 44c-14 81 -22 82 -22 169c0 90 6 512 13 605c122 44 959 73 1133 51c0 0 35 -1293 -115 -1566
c0 0 -769 17 -1018 47l15 403s320 -11 499 -11c19 0 213 -4 223 28c38 122 20 230 20 230z" />
    <glyph glyph-name="colon" unicode=":" horiz-adv-x="503" 
d="M412 144c0 -75 -104 -148 -179 -148c-68 0 -153 47 -153 124c0 85 122 117 195 117c62 0 107 -11 132 -68c5 -8 5 -16 5 -25zM412 594c0 -75 -104 -148 -179 -148c-68 0 -153 47 -153 124c0 85 122 117 195 117c62 0 107 -11 132 -68c5 -8 5 -16 5 -25z" />
    <glyph glyph-name="semicolon" unicode=";" horiz-adv-x="582" 
d="M247 -5l-97 7l-25 45l-13 105s-12 94 12 126c0 0 26 43 254 23c96 -8 157 -24 141 -114l-130 -430l-32 -12l-136 21l55 195zM412 664c0 -75 -104 -148 -179 -148c-68 0 -153 47 -153 124c0 85 122 117 195 117c62 0 107 -11 132 -68c5 -8 5 -16 5 -25z" />
    <glyph glyph-name="less" unicode="&#x3c;" horiz-adv-x="930" 
d="M36 685c0 0 440 337 746 525l96 -327l-507 -214c71 -32 450 -187 450 -187l39 -28l1 -169l-51 -37c11 3 -774 437 -774 437z" />
    <glyph glyph-name="equal" unicode="=" horiz-adv-x="1154" 
d="M1103 446l-1009 31l-40 17s-1 210 -1 214c0 2 1056 10 1056 10c-3 -108 -6 -272 -6 -272zM59 1178l1007 -72l39 -19s-9 -239 -9 -243c0 -2 -1055 33 -1055 33c7 107 18 301 18 301z" />
    <glyph glyph-name="greater" unicode="&#x3e;" horiz-adv-x="930" 
d="M888 685c0 0 -785 -434 -774 -437l-51 37l2 169l39 28s379 155 450 187l-508 214l96 327c307 -188 746 -525 746 -525z" />
    <glyph glyph-name="question" unicode="?" horiz-adv-x="1306" 
d="M1185 150c-77 -23 -245 -11 -245 -11l-10 -10s-2 -17 -2 -31c-1 -51 1 -167 1 -167c-164 -54 -281 -6 -284 -9s4 427 4 427l13 15h73c99 0 118 30 121 52c12 73 8 111 -22 154c-34 49 -691 32 -748 44c-14 81 -22 82 -22 169c0 90 6 552 13 645c174 20 959 73 1133 51
c0 0 52 -867 33 -1051l-20 -197s-1 -16 -4 -38s-34 -43 -34 -43zM952 -376c0 -75 -104 -148 -179 -148c-68 0 -153 47 -153 124c0 85 122 117 195 117c62 0 107 -11 132 -68c5 -8 5 -16 5 -25z" />
    <glyph glyph-name="at" unicode="@" horiz-adv-x="1458" 
d="M853 504c-3 5 -171 -4 -180 -17c-17 -24 5 -143 5 -143s5 -34 9 -41c6 -11 136 -4 136 -4l17 10s15 192 13 195zM1158 136c56 142 66 891 77 1010c13 131 -58 135 -205 135c-349 0 -664 -65 -664 -65c-33 -48 3 -891 3 -891l29 -171l44 -60c27 -22 558 -5 555 -5
c-92 33 -126 52 -126 52s-56 94 -57 90c-123 -15 -271 -19 -271 -19c-98 180 -62 335 -62 335c99 91 403 83 405 83c-1 148 -139 181 -139 181l-278 14l16 215c223 17 480 -15 567 -25c3 -47 15 -289 6 -333l-90 -425l132 -100zM1323 1418l39 -50s96 -814 -139 -1340
c0 0 -86 -86 -86 -83s-712 -138 -939 86l-19 69s-164 666 -75 1250c0 0 70 82 67 68s601 117 1152 0z" />
    <glyph glyph-name="A" unicode="A" horiz-adv-x="1157" 
d="M169 1478c249 61 655 11 752 2c58 -500 130 -953 178 -1455c-72 0 -203 -5 -286 -2c-18 65 -10 19 -48 282l-181 12l-15 -308l-481 24l-34 38c25 512 68 936 115 1407zM527 573l247 -14l-20 321c-239 17 -232 -14 -232 -14z" />
    <glyph glyph-name="B" unicode="B" horiz-adv-x="1360" 
d="M1231 757c0 0 100 -307 -54 -703l-36 -19l-406 -10l-534 33c-2 407 -19 1410 -16 1413l14 16c280 75 676 16 815 14l119 -18s94 -313 12 -501c-23 -23 -111 -89 -134 -112zM427 973l237 -14c55 93 71 215 0 291c-33 0 -242 -14 -242 -14s-16 -185 5 -263zM472 404
l308 -18c71 120 93 278 0 378c-42 0 -314 -18 -314 -18s-21 -242 6 -342z" />
    <glyph glyph-name="C" unicode="C" horiz-adv-x="1262" 
d="M127 1509c174 22 849 -31 1023 -51c7 -93 13 -515 13 -605c0 0 -33 -193 -22 -169c-57 -12 -684 5 -718 -44c-39 -55 -30 -118 -30 -118s32 -125 40 -142c15 -23 204 -28 223 -28c179 0 207 12 399 11l5 -373c-249 -30 -818 -77 -818 -77c-61 156 -100 333 -122 510
c-69 540 7 1086 7 1086z" />
    <glyph glyph-name="D" unicode="D" horiz-adv-x="1365" 
d="M193 12c0 0 -13 1403 -2 1485c141 11 705 8 953 -185c72 -131 119 -462 126 -687c6 -224 -16 -340 -168 -513c-77 -89 -909 -100 -909 -100zM487 363l237 -14c55 93 71 525 0 601c-33 0 -242 -14 -242 -14s-16 -495 5 -573z" />
    <glyph glyph-name="E" unicode="E" horiz-adv-x="1333" 
d="M1148 1114c0 0 -66 -9 -470 -29c0 0 -12 -152 32 -276l259 1s124 2 122 4s15 -99 15 -99v-124s-167 -12 -493 -15l-7 -253l25 -27l488 -4s-26 2 -28 4s45 -29 45 -29l10 -284s72 8 -254 5s-580 17 -602 22s-42 66 -64 125c-45 120 -39 1136 -35 1200s41 144 41 144
l858 22l63 -4s46 -226 -5 -383z" />
    <glyph glyph-name="F" unicode="F" horiz-adv-x="1252" 
d="M526 23l-29 -24l-298 1s-52 1271 -48 1335s41 144 41 144l858 22l63 -4s46 -226 -5 -383c0 0 -66 -9 -470 -29c0 0 -12 -152 32 -276l259 1s124 2 122 4s15 -99 15 -99v-124s-227 -12 -553 -15l-17 -41z" />
    <glyph glyph-name="G" unicode="G" horiz-adv-x="1241" 
d="M137 1549c174 22 629 -31 803 -51c7 -93 13 -445 13 -535c0 0 -26 -152 -24 -169h2c-1 -3 -2 -3 -2 0c-65 -12 -462 4 -496 -44c-39 -55 -30 -118 -30 -118s32 -335 40 -352c15 -23 204 -28 223 -28c48 0 86 1 118 2l-8 165l-107 7l-9 125s272 54 535 30l23 -264
l-142 -11l-6 -276c-249 -30 -818 -77 -818 -77c-260 495 -115 1596 -115 1596z" />
    <glyph glyph-name="H" unicode="H" horiz-adv-x="1310" 
d="M185 1424c0 0 179 41 286 21l-6 -515c0 -5 17 -24 17 -24l203 7l5 158l14 434s324 45 459 -30l21 -1475s-413 14 -413 30s-20 540 -20 543s-190 -2 -190 -2s-25 -551 -22 -551c0 0 -281 12 -284 13s-48 19 -49 20c-3 2 -21 1371 -21 1371z" />
    <glyph glyph-name="I" unicode="I" horiz-adv-x="873" 
d="M136 452l150 -1s-4 369 1 551l-133 4l-18 14c-21 17 -29 499 -29 499c53 15 471 48 613 -1c0 0 37 -317 17 -444c-25 -1 -155 -6 -183 -9c-3 -176 -11 -477 -17 -687c26 -3 133 -8 160 -10c20 -127 -17 -354 -17 -354c-142 -49 -520 -16 -573 -1c0 0 -34 340 29 439z" />
    <glyph glyph-name="J" unicode="J" horiz-adv-x="1353" 
d="M704 1136l-18 14c-52 162 -29 299 -29 299c53 15 381 48 523 -1c0 0 37 -237 17 -364c-36 -2 -79 -6 -124 -11c15 -582 30 -949 30 -949l-53 -52c-38 -14 -202 -47 -240 -52c-322 -39 -685 34 -685 34c-36 273 -20 450 -2 676c206 16 257 16 398 2l19 -303
c1 -17 279 19 279 19s-13 422 -18 685c-54 -6 -97 3 -97 3z" />
    <glyph glyph-name="K" unicode="K" horiz-adv-x="1328" 
d="M1126 133l-144 -119l-56 14c-243 245 -407 411 -467 488c-7 -287 -13 -467 -13 -467l-205 1l-34 46c-33 430 -7 1384 -7 1384l50 15s113 9 273 -28c5 -1 2 -183 -3 -439c225 273 436 458 436 458l48 -11s219 -178 289 -292c6 -10 -386 -372 -550 -534
c134 -162 383 -516 383 -516z" />
    <glyph glyph-name="L" unicode="L" horiz-adv-x="1225" 
d="M1169 -6l-23 -23l-905 19l-34 46c-33 430 -7 1454 -7 1454l50 15s103 9 263 -28c6 -1 0 -489 -7 -843c266 -2 533 -30 674 -46c7 -93 13 -355 13 -445z" />
    <glyph glyph-name="M" unicode="M" horiz-adv-x="1445" 
d="M813 1177l157 253l50 15s133 9 293 -28c13 -3 -27 -1428 -27 -1428l-275 -19l-8 517l-221 -165l-202 279s11 -365 11 -387c1 -21 -5 -235 -5 -235l-32 -10l-323 21l-34 46c-33 430 -7 1464 -7 1464l50 15s230 29 350 -36z" />
    <glyph glyph-name="N" unicode="N" horiz-adv-x="1310" 
d="M902 637l8 863c5 13 50 15 50 15s103 9 263 -28c13 -3 -27 -1518 -27 -1518l-385 11s-127 209 -138 227s-183 324 -183 324s11 -296 11 -317c1 -21 -5 -225 -5 -225l-32 -10l-253 11l-34 46c-33 430 -7 1304 -7 1304l50 15s203 9 363 -28l1 -1s202 -408 211 -428
s107 -261 107 -261z" />
    <glyph glyph-name="O" unicode="O" horiz-adv-x="1278" 
d="M759 800c7 79 -35 82 -124 82c-212 0 -253 -40 -253 -40c-19 -29 2 -270 2 -270l18 -103l27 -36c21 -18 231 0 231 -3c0 -2 41 14 41 14c44 3 50 277 58 356zM1123 1458l39 -50s96 -814 -139 -1340c0 0 -86 -86 -86 -83s-482 -138 -709 86l-19 69s-164 666 -75 1250
l67 68s371 117 922 0z" />
    <glyph glyph-name="P" unicode="P" horiz-adv-x="1243" 
d="M729 1036l-307 -5s-13 -142 -10 -169c-2 -27 10 -98 10 -98s59 -12 88 -9c29 -3 220 19 220 19c23 100 -1 262 -1 262zM472 527v-496l-43 -21l-217 15c-17 747 -37 1389 -37 1389l53 52c38 14 202 47 240 52c322 39 685 -34 685 -34c36 -273 0 -740 -18 -966
c-426 -32 -518 -3 -663 9z" />
    <glyph glyph-name="Q" unicode="Q" horiz-adv-x="1392" 
d="M198 111l-19 69s-144 626 -55 1210l67 68s381 117 932 0l39 -50s32 -529 -67 -1010c-4 2 30 -2 47 6c18 2 122 58 122 58l37 -10l77 -148l-281 -192h-22l-148 89c0 1 -5 -21 -5 -21c-32 -133 -473 -200 -724 -69zM749 800c7 79 -35 82 -124 82c-212 0 -253 -40 -253 -40
c-19 -29 2 -270 2 -270l18 -103l27 -36c21 -18 231 0 231 -3c0 -2 41 14 41 14c44 3 50 277 58 356z" />
    <glyph glyph-name="R" unicode="R" horiz-adv-x="1356" 
d="M1035 574c0 0 244 -247 308 -347c-68 -64 -107 -116 -177 -173l-117 -67l-5 -3c-2 2 -35 4 -34 5l-320 517c-89 5 -147 15 -218 21v-496l-43 -21l-217 15c-17 747 -37 1409 -37 1409l53 52c38 14 152 27 190 32c322 39 735 -14 735 -14c36 -271 -8 -738 -118 -930z
M729 1036l-307 -5s-13 -142 -10 -169c-2 -27 10 -98 10 -98s59 -12 88 -9c29 -3 220 19 220 19c23 100 -1 262 -1 262z" />
    <glyph glyph-name="S" unicode="S" horiz-adv-x="1321" 
d="M1213 25l-1040 20c-16 31 -17 271 -17 271s20 35 23 37c0 0 421 -58 444 -58c0 0 14 85 22 147c-383 19 -530 63 -530 63c-11 0 2 833 49 895c0 0 26 36 28 37c18 14 844 68 895 58c19 -4 45 -757 23 -761c-23 -5 -702 0 -702 0l-14 -140l846 -45l16 -17
s-22 -498 -43 -507z" />
    <glyph glyph-name="T" unicode="T" horiz-adv-x="1172" 
d="M86 630c-74 339 -9 899 -9 899c174 22 849 -31 1023 -51c7 -93 37 -667 17 -794c-99 -6 -187 -16 -384 -26c-8 -346 -17 -649 -17 -649l-245 21l-34 46c-12 151 -16 337 -17 566c-114 -5 -310 -10 -334 -12z" />
    <glyph glyph-name="U" unicode="U" horiz-adv-x="1427" 
d="M204 58l-19 35c7 77 2 1114 17 1336c133 9 499 -2 553 -16c4 -164 -19 -844 -19 -903l255 17c-4 455 9 953 9 953l50 15s103 9 263 -28c13 -3 -37 -1448 -37 -1448z" />
    <glyph glyph-name="V" unicode="V" horiz-adv-x="1307" 
d="M805 -26l-272 34l-438 1241l16 44s200 148 384 183c6 1 194 -568 194 -568l221 534l58 14s95 24 278 -84c5 -3 -325 -976 -344 -1043c-6 -21 -97 -355 -97 -355z" />
    <glyph glyph-name="W" unicode="W" horiz-adv-x="1380" 
d="M641 802l232 -308s-12 764 -11 786c0 21 5 225 5 225l32 10l323 -11l34 -46c33 -430 7 -1464 7 -1464l-50 -15s-230 -29 -350 36l-243 352l-157 -323l-50 -15s-113 -19 -273 18c-13 3 27 1428 27 1428l275 9l28 -997l107 198z" />
    <glyph glyph-name="X" unicode="X" horiz-adv-x="1448" 
d="M611 6l-407 245l-5 57c62 126 164 304 272 486c-199 269 -365 503 -365 503l31 42s77 69 228 135c4 2 129 -169 283 -384c161 263 276 428 276 428l51 -13s290 -164 409 -277c5 -5 -187 -293 -392 -620c140 -197 308 -440 308 -440l-197 -146l-55 17
c-48 55 -166 216 -229 296c-119 -188 -208 -329 -208 -329z" />
    <glyph glyph-name="Y" unicode="Y" horiz-adv-x="1426" 
d="M776 19l-255 31l-34 46c-23 297 -11 570 -4 663l-2 5c-199 269 -405 533 -405 533l31 42s77 69 228 135c4 2 129 -169 283 -384c161 263 276 428 276 428l51 -13s290 -154 409 -267c4 -4 -397 -432 -573 -606c-8 -152 -5 -613 -5 -613z" />
    <glyph glyph-name="Z" unicode="Z" horiz-adv-x="1303" 
d="M698 647c-223 -15 -455 -30 -532 -37c-74 339 -9 899 -9 899c174 22 849 -31 1023 -51c7 -93 37 -667 17 -794c2 -6 -231 -177 -457 -340c214 -1 370 -10 370 -10l15 -50s9 -93 -28 -253c-3 -13 -928 27 -928 27l-19 215c136 110 393 287 548 394z" />
    <glyph glyph-name="bracketleft" unicode="[" horiz-adv-x="642" 
d="M590 1592l-258 -34c6 -200 42 -1646 42 -1646l192 -34l6 -374l-49 -30l-427 36c-105 608 3 2463 3 2463l37 33l442 -16z" />
    <glyph glyph-name="backslash" unicode="\" horiz-adv-x="1041" 
d="M46 1464c62 45 263 46 263 46c304 -561 604 -1254 687 -1446l-8 -32l-344 -54z" />
    <glyph glyph-name="bracketright" unicode="]" horiz-adv-x="642" 
d="M294 1558l-258 34l12 398l442 16l37 -33s108 -1855 3 -2463l-427 -36l-49 30l6 374l192 34s36 1446 42 1646z" />
    <glyph glyph-name="asciicircum" unicode="^" horiz-adv-x="1022" 
d="M490 1512c0 0 324 -450 502 -762l-330 -86l-198 514c-34 -70 -201 -444 -201 -444l-29 -38l-169 4l-35 52c2 -11 460 760 460 760z" />
    <glyph glyph-name="underscore" unicode="_" horiz-adv-x="1164" 
d="M1153 -4l-1109 31l-40 17s-1 230 -1 234c0 2 1156 20 1156 20c-3 -108 -6 -302 -6 -302z" />
    <glyph glyph-name="a" unicode="a" horiz-adv-x="1077" 
d="M600 321c-3 4 -162 -4 -170 -16c-16 -23 5 -136 5 -136s4 -32 8 -39c6 -10 129 -3 129 -3l16 9s14 182 12 185zM957 -34l-96 -118l-41 6l-235 92s-31 69 -32 64c-157 -19 -346 -24 -346 -24c-125 230 -79 427 -79 427c126 116 514 106 516 106c0 69 -34 103 -34 103
l-23 38l-474 38l20 494c284 22 712 -19 823 -32c4 -60 20 -519 8 -575l-115 -541z" />
    <glyph glyph-name="b" unicode="b" horiz-adv-x="1164" 
d="M725 509c-13 18 -258 31 -262 24c-3 -4 18 -285 18 -285l25 -13s189 -11 199 4c6 11 12 60 12 60s32 174 8 210zM1047 1021c0 0 54 -596 -95 -870c0 0 -74 -104 -267 -111c0 0 -135 -4 -223 39l-11 -57l-299 -19l-29 39c-28 366 -6 1707 -6 1707l43 13s188 7 324 -24
c2 -1 1 -373 1 -373l-11 -231s443 6 573 -113z" />
    <glyph glyph-name="c" unicode="c" horiz-adv-x="975" 
d="M87 544l33 619c119 15 669 -21 787 -35c5 -63 9 -351 9 -412c0 0 -22 -132 -15 -116c-39 -8 -465 4 -489 -30c-26 -37 -21 -80 -21 -80s22 -225 27 -237c11 -15 140 -19 152 -19c122 0 142 8 272 8l4 -185c-170 -20 -475 -52 -648 -52c-79 25 -111 539 -111 539z" />
    <glyph glyph-name="d" unicode="d" horiz-adv-x="1164" 
d="M118 1021c130 119 573 113 573 113l-11 231s-1 372 1 373c136 31 324 24 324 24l43 -13s22 -1341 -6 -1707l-29 -39l-299 19l-11 57c-88 -43 -223 -39 -223 -39c-193 7 -267 111 -267 111c-149 274 -95 870 -95 870zM440 509c-24 -36 8 -210 8 -210s6 -49 12 -60
c9 -15 199 -4 199 -4l24 13s22 281 19 285c-5 7 -249 -6 -262 -24z" />
    <glyph glyph-name="e" unicode="e" horiz-adv-x="1001" 
d="M722 300h164c1 -2 -12 -151 -57 -251c0 0 -42 -28 -42 -26s-439 -97 -599 61l-13 48s-115 558 -53 969l47 48s311 82 699 0l27 -36s27 -355 5 -615c-1 -18 -445 -13 -445 -15l-8 -25c-14 -20 1 -177 1 -177l12 -68l19 -24c15 -11 163 0 163 -1c67 4 65 50 70 102z
M454 659c2 -35 259 -20 259 -20s6 94 8 117c6 55 -24 57 -87 57c-148 0 -177 -27 -177 -27c-8 -12 -6 -77 -3 -127z" />
    <glyph glyph-name="f" unicode="f" horiz-adv-x="955" 
d="M138 552l-10 148l129 -4c5 190 11 431 11 431l20 202l26 66l295 20l214 -30c71 -151 -17 -497 -17 -497l-248 3l-21 -31c2 -25 4 -149 5 -174l185 -6v-158s-26 -20 -46 -20c-6 -2 -58 -2 -128 1c3 -259 -9 -467 -9 -467l-50 -15s-83 -9 -243 28c-6 1 -4 262 0 497
c-66 3 -113 6 -113 6z" />
    <glyph glyph-name="g" unicode="g" horiz-adv-x="1117" 
d="M680 -115c8 51 5 152 5 152l3 204c-130 4 -440 -7 -570 112c0 0 -54 426 95 700c0 0 74 104 267 111c0 0 135 4 223 -39l1 57l279 -1l29 -39c18 -232 13 -855 9 -1145c0 0 -29 -461 -398 -443c-429 22 -434 156 -434 156s-14 44 -17 44s-3 156 -3 156l23 42l175 10
s14 -184 14 -188s164 -23 164 -23c90 -13 123 63 135 134zM691 425c2 4 -16 241 -16 241l-21 12s-160 8 -168 -5c-5 -9 -11 -51 -11 -51s-27 -146 -6 -176c11 -16 218 -27 222 -21z" />
    <glyph glyph-name="h" unicode="h" horiz-adv-x="1107" 
d="M416 1020c68 28 332 73 544 17c0 0 70 -405 14 -1045c-1 -4 -339 11 -339 11s-18 673 -30 674c-83 7 -152 4 -152 4l-84 -19c-9 -299 -23 -673 -23 -673l-185 1l-34 46c-33 430 -7 1634 -7 1634l50 15s83 9 243 -28c2 0 3 -595 3 -637z" />
    <glyph glyph-name="i" unicode="i" horiz-adv-x="537" 
d="M171 -10l-34 46c-33 430 -7 1134 -7 1134l50 15s93 9 253 -28c13 -3 -27 -1168 -27 -1168zM432 1474c0 -75 -104 -148 -179 -148c-68 0 -153 47 -153 124c0 85 122 117 195 117c62 0 107 -11 132 -68c5 -8 5 -16 5 -25z" />
    <glyph glyph-name="j" unicode="j" horiz-adv-x="717" 
d="M612 1474c0 -75 -104 -148 -179 -148c-68 0 -153 47 -153 124c0 85 122 117 195 117c62 0 107 -11 132 -68c5 -8 5 -16 5 -25zM596 -261l-20 -202l-26 -96l-265 -20l-214 30c-71 151 17 527 17 527l208 -3l21 31c-33 430 -7 1164 -7 1164l50 15s93 9 253 -28
c13 -3 -17 -1418 -17 -1418z" />
    <glyph glyph-name="k" unicode="k" horiz-adv-x="1214" 
d="M866 113l-144 -119l-56 14c-243 245 -257 301 -317 378c-7 -287 -13 -377 -13 -377l-175 1l-34 46c-33 430 -7 1424 -7 1424l50 15s73 9 233 -28c5 -1 12 -433 7 -689c225 273 366 408 366 408l48 -11s229 -208 299 -322c6 -10 -326 -282 -490 -444
c134 -162 233 -296 233 -296z" />
    <glyph glyph-name="l" unicode="l" horiz-adv-x="512" 
d="M161 -10l-34 46c-33 430 -7 1434 -7 1434l50 15s93 9 253 -28c13 -3 -27 -1468 -27 -1468z" />
    <glyph glyph-name="m" unicode="m" horiz-adv-x="1614" 
d="M1486 36l-34 -46l-195 -1s-14 374 -23 673l-84 19s-80 5 -167 -3c6 -184 4 -420 -19 -686c-1 -4 -299 11 -299 11s-18 673 -30 674c-83 7 -172 4 -172 4l-84 -19c-9 -299 -23 -673 -23 -673l-195 1l-34 46c-33 430 -7 1164 -7 1164l50 15s93 9 253 -28c2 0 3 -25 3 -67
c68 28 516 78 1067 10c0 0 26 -664 -7 -1094z" />
    <glyph glyph-name="n" unicode="n" horiz-adv-x="1051" 
d="M426 1130c68 28 272 73 484 17c0 0 70 -515 14 -1155c-1 -4 -299 11 -299 11s-18 673 -30 674c-83 7 -132 4 -132 4l-84 -19c-9 -299 -23 -673 -23 -673l-195 1l-34 46c-33 430 -7 1174 -7 1174l50 15s93 9 253 -28c2 0 3 -25 3 -67z" />
    <glyph glyph-name="o" unicode="o" horiz-adv-x="975" 
d="M535 605c5 50 -22 52 -79 52c-134 0 -160 -25 -160 -25c-12 -18 1 -108 1 -108l12 -65l16 -24c14 -11 147 0 147 -1s26 9 26 9c28 2 32 112 37 162zM848 1099l27 -36s68 -592 -98 -961c0 0 -60 -61 -60 -59s-389 -97 -549 61l-23 48s-105 528 -43 939l47 48
s311 42 699 -40z" />
    <glyph glyph-name="p" unicode="p" horiz-adv-x="1206" 
d="M1098 134c-130 -119 -573 -113 -573 -113l11 -231s1 -292 -1 -293c-136 -31 -334 -24 -334 -24l-43 13s-22 1261 6 1627l29 39l309 -19l11 -57c88 43 223 39 223 39c193 -7 267 -111 267 -111c149 -274 95 -870 95 -870zM776 226c24 36 -8 210 -8 210s-6 49 -12 60
c-9 15 -199 4 -199 4l-24 -13s-22 -281 -19 -285c5 -7 249 6 262 24z" />
    <glyph glyph-name="q" unicode="q" horiz-adv-x="1183" 
d="M440 226c13 -18 257 -31 262 -24c3 4 -19 285 -19 285l-24 13s-190 11 -199 -4c-6 -11 -12 -60 -12 -60s-32 -174 -8 -210zM118 134c0 0 -54 596 95 870c0 0 74 104 267 111c0 0 135 4 223 -39l11 57l339 19l29 -39c28 -366 6 -1627 6 -1627l-43 -13s-228 -7 -364 24
c-2 1 -1 293 -1 293l11 231s-443 -6 -573 113z" />
    <glyph glyph-name="r" unicode="r" horiz-adv-x="952" 
d="M456 1120c68 28 228 82 374 37c0 0 27 -505 14 -505c-10 0 -351 29 -351 29l-44 -19c-9 -299 -23 -673 -23 -673l-265 1l-34 46c-33 430 -7 1164 -7 1164l50 15s123 9 283 -28c2 0 3 -25 3 -67z" />
    <glyph glyph-name="s" unicode="s" horiz-adv-x="1024" 
d="M833 1194c14 -3 33 -491 17 -494c-17 -3 -462 0 -462 0l-10 -122l567 -33l11 -13s-17 -509 -31 -509c-10 0 -336 -6 -542 2c-136 5 -212 12 -216 12c-8 0 -12 188 -12 188s15 25 16 27c0 0 308 -43 324 -43c0 0 20 133 26 178c-279 14 -396 46 -396 46c-9 0 2 647 36 692
c0 0 18 26 20 27c13 10 615 49 652 42z" />
    <glyph glyph-name="t" unicode="t" horiz-adv-x="906" 
d="M88 716l10 148s47 3 113 6c-4 235 -6 496 0 497c160 37 243 28 243 28l50 -15s12 -208 9 -467c70 3 122 3 128 1c20 0 46 -20 46 -20v-158l-185 -6c-1 -25 -3 -149 -5 -174l21 -31l248 3s88 -346 17 -497l-214 -30l-295 20l-26 66l-20 202s-6 241 -11 431z" />
    <glyph glyph-name="u" unicode="u" horiz-adv-x="1062" 
d="M628 94c-69 -28 -272 -73 -484 -17c0 0 -70 465 -14 1105c0 4 299 -11 299 -11s18 -673 30 -674c83 -7 132 -4 132 -4l84 19c8 299 23 673 23 673l195 -1l34 -46c33 -430 7 -1124 7 -1124l-50 -15s-93 -9 -253 28c-2 0 -3 25 -3 67z" />
    <glyph glyph-name="v" unicode="v" horiz-adv-x="1039" 
d="M803 271l-81 -273l-350 -13l-321 1021l12 32s297 129 432 154c4 1 152 -447 152 -447l142 433l43 9s108 -30 154 -61c3 -2 -183 -855 -183 -855z" />
    <glyph glyph-name="w" unicode="w" horiz-adv-x="1236" 
d="M692 557l143 -180s-9 570 -9 586s4 207 4 207l24 8l241 -8l25 -35c25 -320 5 -1130 5 -1130l-37 -11s-171 -21 -261 27l-151 202l-117 -190l-37 -12s-304 -4 -423 24c-10 2 20 1103 20 1103l395 7l30 -823l110 158z" />
    <glyph glyph-name="x" unicode="x" horiz-adv-x="1184" 
d="M823 17l-39 12l-157 196c-68 -102 -127 -191 -164 -249l-359 224l-4 40c39 77 128 220 226 372l-242 350l23 30s114 79 221 126c1 1 74 -101 173 -238c118 178 215 319 215 319l36 -9s276 -166 360 -247c2 -2 -155 -230 -319 -472c127 -176 229 -320 229 -320z" />
    <glyph glyph-name="y" unicode="y" horiz-adv-x="1149" 
d="M189 -133l260 397l-376 717l15 32s244 147 380 162c5 1 201 -376 201 -376l162 350l43 7s176 -88 219 -122c3 -3 -328 -904 -328 -904l-297 -492c-124 -4 -280 227 -279 229z" />
    <glyph glyph-name="z" unicode="z" horiz-adv-x="1083" 
d="M331 393l359 286c-185 -13 -512 -10 -583 8c-61 281 5 503 5 503c144 19 704 -5 848 -22c6 -77 31 -493 14 -598c2 -5 -258 -237 -446 -373c178 -1 354 -8 354 -8l12 -41s28 -29 -3 -162c-2 -11 -769 22 -769 22l-11 180z" />
    <glyph glyph-name="braceleft" unicode="{" horiz-adv-x="847" 
d="M794 1612l-258 -34c2 -59 12 -583 12 -583l-8 -35l-174 -190l185 -190l27 -648l192 -34l6 -364l-49 -30l-447 36c-40 110 -46 996 -46 996l-178 182s171 212 172 216l55 1029l137 33l362 -16z" />
    <glyph glyph-name="bar" unicode="|" horiz-adv-x="448" 
d="M386 1496c0 0 29 -1312 40 -1542l-374 -8s-33 630 10 1570z" />
    <glyph glyph-name="braceright" unicode="}" horiz-adv-x="842" 
d="M314 1578l-258 34l12 368l362 16l137 -33l55 -1029c1 -4 172 -216 172 -216l-178 -182s-6 -886 -46 -996l-447 -36l-49 30l6 364l192 34l27 648l185 190l-174 190l-8 35s10 524 12 583z" />
    <glyph glyph-name="asciitilde" unicode="~" horiz-adv-x="1207" 
d="M956 1138l196 -260l-322 -218l-378 156l-170 -156l-172 230s75 160 312 256l352 -128z" />
    <glyph glyph-name="quotesingle" unicode="'" horiz-adv-x="786" 
d="M635 2052c0 0 100 -154 119 -295c0 0 -380 -225 -519 -299c-15 -8 -45 11 -53 6l-150 336s227 134 603 252z" />
    <glyph glyph-name="grave" unicode="`" horiz-adv-x="1914" 
d="M870 1726l319 -304l-1 -42l-102 -162s-326 199 -390 260z" />
    <glyph glyph-name="registered" unicode="&#xae;" horiz-adv-x="1458" 
d="M1235 1656c13 131 -58 135 -205 135c-349 0 -664 -65 -664 -65c-33 -48 3 -891 3 -891l29 -171l44 -60c35 -29 630 0 630 -3c0 -4 67 22 67 22c73 6 83 902 96 1033zM1323 1928l39 -50s96 -814 -139 -1340c0 0 -86 -86 -86 -83s-712 -138 -939 86l-19 69
s-164 666 -75 1250c0 0 70 82 67 68s601 117 1152 0zM888 1432c-4 -34 -6 -233 -25 -234c0 0 -18 -7 -18 -6s-81 -7 -90 1l-12 15l-7 45s-10 184 -1 197c0 0 9 17 100 17c38 0 56 -1 53 -35zM520 1140l1 -261l220 -23l8 11c-3 80 -7 46 -34 245c24 -3 39 -4 64 -4l112 -286
l152 15l3 13c-32 74 -39 79 -139 264c28 3 47 7 47 7c0 -1 26 24 26 24c71 158 42 472 42 472l-12 15c-165 36 -507 -4 -506 0c1 5 -20 -20 -20 -20c-26 -175 23 -445 23 -445l5 -21c3 -2 6 -4 8 -6z" />
    <glyph glyph-name="copyright" unicode="&#xa9;" horiz-adv-x="1458" 
d="M1235 1636c13 131 -58 135 -205 135c-349 0 -664 -65 -664 -65c-33 -48 3 -891 3 -891l29 -171l44 -60c35 -29 630 0 630 -3c0 -4 67 22 67 22c73 6 83 902 96 1033zM1323 1908l39 -50s96 -814 -139 -1340c0 0 -86 -86 -86 -83s-712 -138 -939 86l-19 69
s-164 666 -75 1250c0 0 70 82 67 68s601 117 1152 0zM545 1520c0 0 -76 -428 58 -818l99 -2s286 31 365 41l-3 111c-96 1 -115 -5 -204 -5c-10 0 -104 2 -112 14c-4 8 -10 46 -10 46s-24 131 -5 159c17 24 346 16 374 22c7 40 11 41 11 84c0 45 -3 276 -6 323
c-87 10 -480 36 -567 25z" />
    <glyph glyph-name="NULL" horiz-adv-x="0" 
 />
    <glyph glyph-name="NULL" horiz-adv-x="0" 
 />
    <glyph glyph-name="Euro" unicode="&#x20ac;" horiz-adv-x="1510" 
d="M301 303l-189 -17s-2 -6 -11 102l187 9c-7 64 -11 98 -13 124l-181 6l-40 17s-1 60 -1 64c0 1 65 2 213 3c-26 256 41 998 41 998c174 22 959 -31 1133 -51c7 -93 13 -555 13 -645c0 -87 -8 -88 -22 -169c-57 -12 -714 5 -748 -44c-11 -16 -15 -48 -15 -86l401 14
c-3 -108 -6 -102 -6 -102l-390 -16c4 -44 10 -67 14 -95c279 12 449 24 449 23c0 -4 1 -44 1 -44l-39 -19l-397 -40c4 -19 8 -37 12 -45c15 -23 204 -28 223 -28c179 0 217 12 409 11l5 -223c-249 -30 -675 -77 -928 -77c-62 20 -100 181 -121 330z" />
    <glyph glyph-name="Inverted" unicode="&#xa1;" horiz-adv-x="610" 
d="M72 1480c0 0 209 57 486 28l-132 -1500l-56 -40h-254s-68 1031 -44 1512zM422 -316c0 -75 -104 -148 -179 -148c-68 0 -153 47 -153 124c0 85 122 117 195 117c62 0 107 -11 132 -68c5 -8 5 -16 5 -25z" />
    <glyph glyph-name="InvertQ" unicode="&#xbf;" horiz-adv-x="1026" 
d="M845 330c-77 -23 -245 -11 -245 -11l-10 -10s-2 -17 -2 -31c-1 -51 1 -167 1 -167c-164 -54 -191 -6 -194 -9s4 427 4 427l13 15h73c99 0 98 30 101 52c12 73 8 301 -22 344c-34 49 -441 32 -498 44c-14 81 -22 232 -22 319c0 90 6 52 13 145c174 20 639 73 813 51
c0 0 40 -396 33 -581l-20 -507s-1 -16 -4 -38s-34 -43 -34 -43zM662 -196c0 -75 -104 -148 -179 -148c-68 0 -153 47 -153 124c0 85 122 117 195 117c62 0 107 -11 132 -68c5 -8 5 -16 5 -25z" />
    <glyph glyph-name="Div" unicode="&#xf7;" horiz-adv-x="2571" 
d="M1208 366c-46 116 -59 250 -39 403s68 279 141 379c90 121 186 173 293 153c105 -8 186 -82 241 -222c26 -65 42 -136 47 -212l630 -65l-128 -143l-500 140c-1 -39 -4 -81 -10 -124c-20 -152 -67 -279 -141 -379c-89 -121 -186 -172 -291 -153c-107 9 -188 83 -243 223v0
zM1446 1050c-58 -80 -96 -181 -111 -302c-16 -123 -8 -230 28 -323c26 -68 64 -108 109 -118c46 -2 91 27 134 86c59 81 95 182 111 305c16 122 6 229 -29 321c-26 68 -62 108 -108 119c-45 1 -90 -28 -134 -88zM1585 860c4 -40 4 -88 -2 -146c-6 -56 -15 -104 -28 -144
c-13 -38 -26 -58 -38 -57c-11 1 -21 23 -25 64s-2 90 4 147c5 56 13 104 27 143c13 39 25 59 38 58c12 -2 20 -23 24 -65zM1622 899c52 -146 38 -271 -42 -375c60 107 75 232 42 375zM1665 862c59 -120 50 -230 -29 -331c57 99 67 208 29 331zM371 783
c15 129 65 208 150 238c83 39 175 19 275 -61c84 -67 151 -161 202 -284c50 -121 71 -235 58 -340v-1c-14 -128 -65 -208 -151 -239c-83 -39 -174 -19 -275 61c-84 66 -151 161 -201 283c-14 33 -26 65 -35 97l-201 -243l-118 64l304 240c-12 64 -15 126 -8 185zM512 767
c-9 -83 9 -175 49 -272s92 -173 160 -226c49 -39 92 -52 130 -42c35 19 57 59 63 122c9 85 -8 177 -48 274s-93 171 -160 224c-50 40 -92 54 -130 43c-36 -18 -57 -60 -64 -123zM750 670c9 4 22 -9 40 -36c17 -27 34 -60 50 -102s25 -78 31 -110c5 -31 4 -49 -5 -52
c-10 -4 -23 9 -40 35c-18 27 -35 61 -51 103c-16 41 -27 78 -32 109s-2 49 7 53zM683 602c-3 -100 27 -182 90 -244c-80 61 -110 142 -90 244zM708 639c5 -114 42 -206 108 -275c-80 62 -118 154 -108 275z" />
    <glyph glyph-name="sheva" unicode="&#x5b0;" 
d="M118 -595c-9 -50 -89 -87 -139 -78c-46 8 -98 50 -88 102c10 57 96 64 146 55c41 -7 70 -20 80 -62c3 -6 2 -11 1 -17zM123 -379c-13 -49 -96 -80 -145 -67c-45 12 -92 59 -79 110c15 56 101 56 150 43c40 -11 68 -26 75 -69c2 -6 0 -11 -1 -17z" />
    <glyph glyph-name="hatafsegol" unicode="&#x5b1;" 
d="M718 -605c-9 -50 -89 -87 -139 -78c-46 8 -98 50 -88 102c10 57 96 64 146 55c41 -7 70 -20 80 -62c3 -6 2 -11 1 -17zM723 -389c-13 -49 -96 -80 -145 -67c-45 12 -92 59 -79 110c15 56 101 56 150 43c40 -11 68 -26 75 -69c2 -6 0 -11 -1 -17zM-152 -345
c0 -51 -72 -102 -123 -102c-47 0 -105 33 -105 85c0 58 84 81 134 81c42 0 73 -8 90 -47c4 -6 4 -11 4 -17zM138 -342c-3 -52 66 -106 117 -109c46 -2 106 27 109 79c4 58 -79 85 -129 88c-42 2 -73 -4 -93 -42c-3 -5 -4 -11 -4 -16zM-102 -598c14 -49 98 -76 146 -62
c45 14 91 62 76 112c-17 56 -103 54 -151 39c-40 -12 -68 -29 -73 -71c-2 -7 0 -12 2 -18zM97 -421c-30 -42 -118 -41 -159 -11c-38 27 -66 87 -36 130c34 47 115 16 156 -13c34 -25 55 -49 46 -91c-1 -6 -4 -11 -7 -15z" />
    <glyph glyph-name="hatafpatah" unicode="&#x5b2;" 
d="M333 -544c0 0 3 124 6 232c0 0 -656 -8 -656 -10c0 -4 1 -174 1 -174l40 -17zM740 -655c-24 -45 -111 -56 -156 -33c-42 22 -78 78 -54 124c27 52 111 32 156 9c38 -20 61 -41 58 -83c1 -7 -2 -12 -4 -17zM734 -345c0 -51 -72 -102 -123 -102c-47 0 -105 33 -105 85
c0 58 84 81 134 81c42 0 73 -8 90 -47c4 -6 4 -11 4 -17z" />
    <glyph glyph-name="hatafqamats" unicode="&#x5b3;" 
d="M333 -544c0 0 3 124 6 232c0 0 -656 -8 -656 -10c0 -4 1 -174 1 -174l40 -17l197 -1l-16 -258l268 27l-42 241zM740 -655c-24 -45 -111 -56 -156 -33c-42 22 -78 78 -54 124c27 52 111 32 156 9c38 -20 61 -41 58 -83c1 -7 -2 -12 -4 -17zM734 -345
c0 -51 -72 -102 -123 -102c-47 0 -105 33 -105 85c0 58 84 81 134 81c42 0 73 -8 90 -47c4 -6 4 -11 4 -17z" />
    <glyph glyph-name="hiriq" unicode="&#x5b4;" horiz-adv-x="1575" 
d="M118 -345c0 -51 -72 -102 -123 -102c-47 0 -105 33 -105 85c0 58 84 81 134 81c42 0 73 -8 90 -47c4 -6 4 -11 4 -17z" />
    <glyph glyph-name="tsere" unicode="&#x5b5;" 
d="M33 -374c-2 6 -3 11 -1 17c6 43 34 58 75 69c48 14 135 14 150 -42c14 -51 -34 -98 -79 -110c-49 -14 -132 17 -145 66zM-42 -345c0 6 0 11 -4 17c-17 39 -48 47 -90 47c-50 0 -134 -23 -134 -81c0 -52 58 -85 105 -85c51 0 123 51 123 102z" />
    <glyph glyph-name="segol" unicode="&#x5b6;" 
d="M-42 -345c0 -51 -72 -102 -123 -102c-47 0 -105 33 -105 85c0 58 84 81 134 81c42 0 73 -8 90 -47c4 -6 4 -11 4 -17zM63 -448c28 -42 116 -44 158 -16c39 26 70 85 40 129c-32 48 -114 20 -156 -8c-35 -23 -56 -47 -49 -89c0 -6 4 -11 7 -16zM-174 -557
c-6 -51 61 -109 111 -114c46 -5 107 21 113 73c6 58 -74 89 -124 94c-42 5 -74 0 -95 -37c-4 -5 -5 -10 -5 -16z" />
    <glyph glyph-name="patah" unicode="&#x5b7;" 
d="M333 -514l-609 31l-40 17s-1 170 -1 174c0 2 656 10 656 10c-3 -108 -6 -232 -6 -232z" />
    <glyph glyph-name="qamats" unicode="&#x5b8;" 
d="M333 -514l-202 40l42 -241l-268 -27l16 258l-197 1l-40 17s-1 170 -1 174c0 2 656 10 656 10c-3 -108 -6 -232 -6 -232z" />
    <glyph glyph-name="holam" unicode="&#x5b9;" 
d="M118 1535c0 -51 -72 -102 -123 -102c-47 0 -105 33 -105 85c0 58 84 81 134 81c42 0 73 -8 90 -47c4 -6 4 -11 4 -17z" />
    <glyph glyph-name="holamhaser" unicode="&#x5ba;" 
d="M318 765c0 -51 -72 -102 -123 -102c-47 0 -105 33 -105 85c0 58 84 81 134 81c42 0 73 -8 90 -47c4 -6 4 -11 4 -17z" />
    <glyph glyph-name="qubuts" unicode="&#x5bb;" 
d="M438 -445c0 -51 -72 -102 -123 -102c-47 0 -105 33 -105 85c0 58 84 81 134 81c42 0 73 -8 90 -47c4 -6 4 -11 4 -17zM608 -585c33 -39 9 -124 -30 -156c-36 -30 -101 -43 -135 -2c-37 45 13 115 52 147c33 27 61 41 99 22c7 -2 10 -7 14 -11zM808 -965
c-26 -44 -114 -51 -157 -26c-41 24 -75 81 -48 126c29 50 112 28 156 2c36 -21 59 -43 54 -86c0 -6 -2 -11 -5 -16z" />
    <glyph glyph-name="dagesh" unicode="&#x5bc;" 
d="M88 615c0 -51 -72 -102 -123 -102c-47 0 -105 33 -105 85c0 58 84 81 134 81c42 0 73 -8 90 -47c4 -6 4 -11 4 -17z" />
    <glyph glyph-name="makaf" unicode="&#x5be;" 
d="M713 626l-609 31l-40 17s-1 170 -1 174c0 2 656 10 656 10c-3 -108 -6 -232 -6 -232z" />
    <glyph glyph-name="rafe" unicode="&#x5bf;" 
d="M293 1666l-609 31l-40 17s-1 170 -1 174c0 2 656 10 656 10c-3 -108 -6 -232 -6 -232z" />
    <glyph glyph-name="paseq" unicode="&#x5c0;" horiz-adv-x="448" 
d="M386 1496c0 0 29 -1312 40 -1542l-374 -8s-33 630 10 1570z" />
    <glyph glyph-name="sofpasuq" unicode="&#x5c3;" horiz-adv-x="411" 
d="M333 396l-239 1l-40 17s-1 270 -1 274c0 2 286 10 286 10c-3 -108 -6 -302 -6 -302zM386 1354l-30 -409l-17 -39s-290 -2 -294 -2c-2 0 -10 456 -10 456c108 -3 351 -6 351 -6z" />
    <glyph glyph-name="alef" unicode="&#x5d0;" horiz-adv-x="1671" 
d="M210 1516c0 0 206 67 448 -15c0 0 148 -245 137 -229s212 -392 212 -392s-32 400 -8 638c0 0 350 28 579 -30c0 0 -2 -705 0 -705s-389 17 -389 17c0 -1 212 -368 207 -356c-4 12 198 -378 198 -378l-307 -54l-238 407s-284 533 -281 522s3 -213 3 -213
c1 -56 13 -718 13 -718c-12 -1 -25 -22 -37 -22c-281 -12 -589 22 -586 22s24 911 24 820c0 -19 25 686 25 686z" />
    <glyph glyph-name="bet" unicode="&#x5d1;" horiz-adv-x="1841" 
d="M1662 396l81 -8l-15 -368s-699 -12 -696 -12s-586 0 -586 0s-245 3 -262 7c-13 3 46 243 46 243l48 27s409 18 431 15s353 -3 353 0c0 0 -5 150 -3 180s-14 163 -14 163l-869 23l-53 419s-18 429 -7 440c0 0 1100 30 1220 -15c59 -22 110 -132 115 -154s11 -489 14 -489
s8 -468 8 -468z" />
    <glyph glyph-name="gimel" unicode="&#x5d2;" horiz-adv-x="1359" 
d="M340 528c116 3 277 19 277 19s144 9 195 9c22 0 19 11 19 14s-22 177 -22 177l-63 7s-157 11 -140 11s-488 2 -488 2s33 508 33 519s29 254 29 254s689 11 761 9c63 -2 303 -35 303 -41s25 -627 -2 -1493c0 0 -365 -15 -376 -15s-27 8 -27 8l9 243s-7 7 -15 18
s-211 5 -220 -1c-16 -11 -5 -326 -7 -326s-33 -12 -41 -12s-384 10 -387 10s42 349 42 349c58 220 120 239 120 239z" />
    <glyph glyph-name="dalet" unicode="&#x5d3;" horiz-adv-x="1493" 
d="M186 1538c0 0 667 27 1211 -33l-10 -448l-20 -193l-261 -26l-3 -98c-2 -53 12 -760 12 -760s-205 12 -208 15s-41 25 -41 25l-6 712l-542 14l-116 11c-48 419 -16 781 -16 781z" />
    <glyph glyph-name="he" unicode="&#x5d4;" horiz-adv-x="1547" 
d="M698 0l23 551s-404 20 -404 18s-18 -19 -34 -62l-27 -485l224 -32l176 -11zM146 776l37 559s42 199 53 210c0 0 953 13 1118 -44l77 -35c5 -22 16 -336 32 -662c10 -210 -5 -834 -5 -834h-254s-51 17 -49 15s14 542 14 542s-8 202 -14 218l-210 8z" />
    <glyph glyph-name="vav" unicode="&#x5d5;" horiz-adv-x="887" 
d="M592 -10l-37 23s-23 757 -23 762c0 3 -11 15 -11 15c-6 0 -341 9 -341 9c-20 250 0 721 0 721l50 15s403 9 563 -28c13 -3 -27 -1498 -27 -1498z" />
    <glyph glyph-name="zain" unicode="&#x5d6;" horiz-adv-x="1288" 
d="M333 1611l35 -4c126 -31 458 -135 843 -387l-189 -608l-128 50l-88 50l-122 -335s22 -133 71 -367c0 0 -235 -28 -238 -25s-41 25 -41 25c-19 53 -49 247 -49 247l103 397l-406 208c10 38 32 326 209 749z" />
    <glyph glyph-name="het" unicode="&#x5d7;" horiz-adv-x="1607" 
d="M1490 10l-50 -6l-177 16l-7 309s0 260 3 271s-6 43 -19 56s-376 24 -376 24c-8 1 -234 16 -253 6s-38 -78 -38 -78s2 -638 5 -638s-352 -20 -349 -20s-47 23 -47 23l-11 1431l8 114s80 23 83 21c5 -3 722 8 724 6s422 -46 465 -80s71 -448 71 -451s-38 -981 -32 -1004z
" />
    <glyph glyph-name="tet" unicode="&#x5d8;" horiz-adv-x="1997" 
d="M1877 594c0 0 -9 -435 -221 -584c0 0 -50 -11 -117 -12c-327 -6 -1283 -9 -1311 35c-86 231 -58 1438 -58 1438c416 89 597 -27 597 -27l43 -50s-3 -478 -3 -514c0 -54 16 -306 19 -309s10 -156 61 -191s97 -62 97 -62s459 21 502 18l22 48c6 -3 15 293 15 293l-27 24
s-407 50 -407 48s-55 776 -47 846c0 0 563 -19 810 -104c87 -30 25 -897 25 -897z" />
    <glyph glyph-name="yod" unicode="&#x5d9;" horiz-adv-x="908" 
d="M552 780l-17 23s-3 157 -3 162c0 3 -11 15 -11 15c-6 0 -341 -21 -341 -21c-20 250 0 631 0 631l50 15s536 -21 573 -68c23 -29 -17 -778 -17 -778z" />
    <glyph glyph-name="finalkaf" unicode="&#x5da;" horiz-adv-x="1352" 
d="M983 701l-742 -35l-41 12c-18 226 -54 583 -18 856c322 -6 423 13 745 -26c38 -5 202 -38 240 -52l53 -52s73 -568 73 -1829l-217 -25l-43 21z" />
    <glyph glyph-name="kaf" unicode="&#x5db;" horiz-adv-x="1458" 
d="M1320 1579c0 0 169 -1194 -115 -1576c0 0 -679 47 -928 77l5 223c192 1 230 -11 409 -11c19 0 208 5 223 28c8 17 30 92 30 92s39 203 0 258c-34 49 -691 32 -748 44c-14 81 -22 82 -22 169c0 90 6 552 13 645c174 20 959 73 1133 51z" />
    <glyph glyph-name="lamed" unicode="&#x5dc;" horiz-adv-x="1681" 
d="M1202 652c-225 -5 -952 -24 -952 -24c-130 476 -51 1229 -55 1245c0 0 391 68 737 -2c0 0 -11 -220 -32 -503c0 0 291 -6 678 -17c0 0 114 -743 -498 -1346l-173 88l-23 41c300 301 318 518 318 518z" />
    <glyph glyph-name="finalmem" unicode="&#x5dd;" horiz-adv-x="1823" 
d="M971 542c0 0 261 -35 463 12c0 0 58 395 21 495c0 0 -297 61 -542 -4c0 0 3 -424 58 -503zM128 1002c0 0 -29 470 7 509c0 0 1031 53 1257 26c0 0 275 -10 275 -33s66 -795 58 -934c0 0 -32 -524 -29 -524c4 0 -687 -66 -752 -70c-64 -3 -547 10 -589 40
c0 0 -77 856 -35 958l-31 35c4 3 -161 -7 -161 -7z" />
    <glyph glyph-name="mem" unicode="&#x5de;" horiz-adv-x="2013" 
d="M1927 1432l-24 -1422s-64 -44 -88 -40s-520 8 -520 8l-16 104l20 394l232 -24l63 32v168v102l-79 58s-64 44 -280 48s-388 -32 -412 -144s12 -676 12 -676l-37 -30l-223 20c-44 0 -48 450 -48 454v396l-20 60l-150 5c-75 2 -246 13 -246 13l-37 586c262 36 483 0 483 0
s14 -466 14 -470s152 398 152 398s28 76 80 84s608 -8 608 -8s475 -54 516 -116z" />
    <glyph glyph-name="finalnun" unicode="&#x5df;" horiz-adv-x="972" 
d="M612 -470l-67 33s-3 1397 -3 1402c0 3 -11 15 -11 15c-6 0 -351 9 -351 9c-20 250 0 531 0 531l50 15s573 3 613 -28c48 -37 -7 -1968 -7 -1968z" />
    <glyph glyph-name="nun" unicode="&#x5e0;" horiz-adv-x="1391" 
d="M928 632c-2 2 17 458 15 537c-127 1 -238 10 -238 10c-20 250 -10 351 -10 351s321 43 533 -13c0 0 96 -654 56 -1409l-56 -56c-696 -88 -1086 -6 -1086 -6c-42 98 32 601 32 601c248 36 758 -19 754 -15z" />
    <glyph glyph-name="samekh" unicode="&#x5e1;" horiz-adv-x="1616" 
d="M1115 1037l-680 -17c-21 -110 6 -515 75 -553c26 -10 220 -17 259 -17c52 0 234 27 273 57c35 14 73 530 73 530zM1505 570c0 0 -72 -381 -643 -559l-138 5s-487 10 -529 40c0 0 -127 922 -20 1455l967 26l305 -13s68 -815 58 -954z" />
    <glyph glyph-name="ayin" unicode="&#x5e2;" horiz-adv-x="1763" 
d="M176 464l31 33c5 -5 404 -38 404 -38l-41 1020h164s111 -17 109 -15s16 -432 16 -432l9 -329c124 -44 276 18 276 18c-1 376 -1 800 -1 800c157 51 523 5 523 5l-34 -1472l-24 -35c-184 -17 -935 -34 -1449 30c0 0 -25 159 17 415z" />
    <glyph glyph-name="finalpe" unicode="&#x5e3;" horiz-adv-x="1479" 
d="M1073 691l-637 -15s-4 -90 -1 -202l264 -12s13 -277 0 -298c0 0 -226 -43 -499 -26c-18 226 -54 1123 -18 1396c322 -6 513 13 835 -26c38 -5 202 -38 240 -52l53 -52s73 -568 73 -1829l-217 -25l-43 21z" />
    <glyph glyph-name="pe" unicode="&#x5e4;" horiz-adv-x="1656" 
d="M1520 1070c23 -186 76 -581 -48 -1070c0 0 -1194 -43 -1194 -47s-64 47 -64 47c8 0 -36 333 -36 333c232 13 1055 18 1055 18c3 114 16 266 15 313c-1 120 -26 252 -68 352l-544 20s-5 -82 -11 -162l264 -12s13 -277 0 -298c0 0 -508 -37 -699 -26
c-18 226 -18 780 -18 1006c322 -6 653 13 975 -26c38 -5 272 -38 310 -52c0 0 46 -252 63 -396z" />
    <glyph glyph-name="finaltsadi" unicode="&#x5e5;" horiz-adv-x="1500" 
d="M128 1404c285 120 547 32 547 32c12 -10 62 -72 62 -72s14 -476 14 -480s111 207 111 207c0 4 -46 499 -46 499s299 54 599 0c5 -43 -13 -686 -13 -686s-171 -12 -246 -13c-30 -1 -180 -14 -180 -14s-99 -209 -123 -321s12 -946 12 -946s-117 -24 -191 1
c-25 8 -37 36 -49 39c0 0 2 690 2 694s-50 336 -50 336l-20 60s-100 -6 -130 -5c-75 2 -266 23 -266 23z" />
    <glyph glyph-name="tsadi" unicode="&#x5e6;" horiz-adv-x="1674" 
d="M802 503l20 -4c-16 40 -524 982 -524 982c73 40 473 44 480 30c0 0 128 -245 117 -229s222 -392 222 -392s9 354 12 338s4 297 4 297c187 41 405 -27 405 -27s41 -367 60 -865c2 0 -569 17 -569 17c0 -3 345 -594 345 -594l-39 -22l-821 -24c-184 -5 -306 -7 -370 -4
c-37 1 -54 24 -53 24c3 0 21 395 56 569z" />
    <glyph glyph-name="kof" unicode="&#x5e7;" horiz-adv-x="1628" 
d="M885 548c-206 62 -409 -12 -409 -12l42 -935l197 -7l175 8l40 26zM189 896c0 0 -48 328 7 629c0 0 966 50 1305 -119c5 -22 25 -226 22 -552s-105 -694 -105 -694h-224s-51 17 -49 15s14 462 14 462l5 222c-190 8 -899 -3 -975 37z" />
    <glyph glyph-name="resh" unicode="&#x5e8;" horiz-adv-x="1532" 
d="M926 800l-760 16s-6 417 50 699c0 0 767 95 1195 -39c5 -22 35 -356 32 -682s-5 -794 -5 -794l-234 -20s-51 37 -49 35s4 522 4 522l-14 228c-41 19 -219 35 -219 35z" />
    <glyph glyph-name="shin" unicode="&#x5e9;" horiz-adv-x="1795" 
d="M573 1501c0 0 9 -416 29 -820c0 0 152 -12 276 32l-1 359s-2 474 -4 472s99 15 99 15h124s12 -717 15 -1043l253 -7l27 25l4 588s-2 324 -4 322s29 45 29 45l284 10s-8 -278 -5 -604s-17 -780 -22 -802s-66 -42 -125 -64c-120 -45 -1136 -39 -1200 -35s-144 41 -144 41
l-24 1029l-4 442s236 46 393 -5z" />
    <glyph glyph-name="tav" unicode="&#x5ea;" horiz-adv-x="1703" 
d="M516 683c4 -20 -31 821 -31 821s590 129 1096 -28c5 -22 25 -326 22 -652s-25 -834 -25 -834l-205 19l-29 31s8 850 -9 865c-30 27 -517 -18 -517 -18c-9 -38 50 -917 50 -917c-597 -33 -704 17 -704 17s-21 527 28 712c0 0 328 -20 324 -16z" />
    <glyph glyph-name="geresh" unicode="&#x5f3;" horiz-adv-x="1914" 
d="M982 1753c0 0 117 -90 170 -191c0 0 -226 -273 -311 -367c-9 -10 -37 -3 -42 -9l-204 213s135 163 387 354z" />
    <glyph glyph-name="gershayim" unicode="&#x5f4;" horiz-adv-x="1914" 
d="M982 1753c0 0 117 -90 170 -191c0 0 -226 -273 -311 -367c-9 -10 -37 -3 -42 -9l-204 213s135 163 387 354zM1429 1690c0 0 118 -89 170 -190c0 0 -226 -273 -311 -367c-9 -10 -37 -4 -41 -10l-205 213s135 163 387 354z" />
    <glyph glyph-name="newshekel" unicode="&#x20aa;" horiz-adv-x="1777" 
d="M418 466c-113 -36 -343 -3 -343 -3l3 317l18 740s58 27 104 30c45 3 946 6 1032 -26c42 -16 86 -30 90 -46c3 -15 18 -342 16 -576s3 -434 3 -434l-316 7s-23 34 -21 32c1 -1 3 232 3 232s-9 451 -3 422c2 -12 -20 18 -20 18l-545 -15c-14 -291 -21 -698 -21 -698z
M879 1043c-112 36 -372 3 -372 3l3 -317l17 -740s58 -27 104 -30c46 -2 876 -6 962 26c43 16 86 30 90 46c3 15 18 342 16 576s4 434 4 434l-247 -7s-22 -34 -21 -32c2 1 3 -232 3 -232s-9 -451 -3 -422c3 12 -19 -18 -19 -18l-516 15c-14 291 -21 698 -21 698z" />
    <glyph glyph-name="yodhiriq" unicode="&#xfb1d;" horiz-adv-x="908" 
d="M552 780l-17 23s-3 157 -3 162c0 3 -11 15 -11 15c-6 0 -341 -21 -341 -21c-20 250 0 631 0 631l50 15s536 -21 573 -68c23 -29 -17 -778 -17 -778zM775 25c0 -52 -72 -102 -122 -102c-47 0 -105 32 -105 85c0 58 83 80 133 80c43 0 74 -8 91 -47c3 -5 3 -11 3 -16z" />
    <glyph glyph-name="shinshindot" unicode="&#xfb2a;" horiz-adv-x="1795" 
d="M573 1501c0 0 9 -416 29 -820c0 0 152 -12 276 32l-1 359s-2 474 -4 472s99 15 99 15h124s12 -717 15 -1043l253 -7l27 25l4 588s-2 324 -4 322s29 45 29 45l284 10s-8 -278 -5 -604s-17 -780 -22 -802s-66 -42 -125 -64c-120 -45 -1136 -39 -1200 -35s-144 41 -144 41
l-24 1029l-4 442s236 46 393 -5zM1673 1683c0 -52 -72 -102 -122 -102c-47 0 -105 32 -105 85c0 58 83 80 133 80c43 0 74 -8 91 -47c3 -5 3 -11 3 -16z" />
    <glyph glyph-name="shinsindot" unicode="&#xfb2b;" horiz-adv-x="1795" 
d="M573 1501c0 0 9 -416 29 -820c0 0 152 -12 276 32l-1 359s-2 474 -4 472s99 15 99 15h124s12 -717 15 -1043l253 -7l27 25l4 588s-2 324 -4 322s29 45 29 45l284 10s-8 -278 -5 -604s-17 -780 -22 -802s-66 -42 -125 -64c-120 -45 -1136 -39 -1200 -35s-144 41 -144 41
l-24 1029l-4 442s236 46 393 -5zM449 1713c0 -51 -72 -101 -122 -101c-47 0 -105 32 -105 85c0 58 83 80 134 80c42 0 73 -8 90 -47c3 -5 3 -11 3 -17z" />
    <glyph glyph-name="shindageshshindot" unicode="&#xfb2c;" horiz-adv-x="1795" 
d="M573 1501c0 0 9 -416 29 -820c0 0 152 -12 276 32l-1 359s-2 474 -4 472s99 15 99 15h124s12 -717 15 -1043l253 -7l27 25l4 588s-2 324 -4 322s29 45 29 45l284 10s-8 -278 -5 -604s-17 -780 -22 -802s-66 -42 -125 -64c-120 -45 -1136 -39 -1200 -35s-144 41 -144 41
l-24 1029l-4 442s236 46 393 -5zM1677 1686c0 -57 -80 -113 -136 -113c-52 0 -117 36 -117 94c0 65 93 90 148 90c48 0 82 -9 101 -53c4 -6 4 -12 4 -18zM837 956c0 -46 -64 -91 -109 -91c-42 0 -94 29 -94 76c0 51 74 71 119 71c38 0 65 -7 81 -41c3 -5 3 -10 3 -15z" />
    <glyph glyph-name="shindageshsindot" unicode="&#xfb2d;" horiz-adv-x="1795" 
d="M573 1501c0 0 9 -416 29 -820c0 0 152 -12 276 32l-1 359s-2 474 -4 472s99 15 99 15h124s12 -717 15 -1043l253 -7l27 25l4 588s-2 324 -4 322s29 45 29 45l284 10s-8 -278 -5 -604s-17 -780 -22 -802s-66 -42 -125 -64c-120 -45 -1136 -39 -1200 -35s-144 41 -144 41
l-24 1029l-4 442s236 46 393 -5zM837 956c0 -46 -64 -91 -109 -91c-42 0 -94 29 -94 76c0 51 74 71 119 71c38 0 65 -7 81 -41c3 -5 3 -10 3 -15zM475 1697c0 -51 -72 -101 -122 -101c-47 0 -105 32 -105 85c0 58 83 80 133 80c43 0 74 -8 91 -47c3 -5 3 -11 3 -17z" />
    <glyph glyph-name="alefpatah" unicode="&#xfb2e;" horiz-adv-x="1671" 
d="M210 1516c0 0 206 67 448 -15c0 0 148 -245 137 -229s212 -392 212 -392s-32 400 -8 638c0 0 350 28 579 -30c0 0 -2 -705 0 -705s-389 17 -389 17c0 -1 212 -368 207 -356c-4 12 198 -378 198 -378l-307 -54l-238 407s-284 533 -281 522s3 -213 3 -213
c1 -56 13 -718 13 -718c-12 -1 -25 -22 -37 -22c-281 -12 -589 22 -586 22s24 911 24 820c0 -19 25 686 25 686zM1223 -394l-609 31l-40 17s-1 170 -1 174c0 2 656 10 656 10c-3 -108 -6 -232 -6 -232z" />
    <glyph glyph-name="alefkamats" unicode="&#xfb2f;" horiz-adv-x="1671" 
d="M210 1516c0 0 206 67 448 -15c0 0 148 -245 137 -229s212 -392 212 -392s-32 400 -8 638c0 0 350 28 579 -30c0 0 -2 -705 0 -705s-389 17 -389 17c0 -1 212 -368 207 -356c-4 12 198 -378 198 -378l-307 -54l-238 407s-284 533 -281 522s3 -213 3 -213
c1 -56 13 -718 13 -718c-12 -1 -25 -22 -37 -22c-281 -12 -589 22 -586 22s24 911 24 820c0 -19 25 686 25 686zM1223 -384l-202 40l42 -241l-268 -27l16 258l-197 1l-40 17s-1 170 -1 174c0 2 656 10 656 10c-3 -108 -6 -232 -6 -232z" />
    <glyph glyph-name="alefmapiq" unicode="&#xfb30;" horiz-adv-x="1671" 
d="M210 1516c0 0 206 67 448 -15c0 0 148 -245 137 -229s212 -392 212 -392s-32 400 -8 638c0 0 350 28 579 -30c0 0 -2 -705 0 -705s-389 17 -389 17c0 -1 212 -368 207 -356c-4 12 198 -378 198 -378l-307 -54l-238 407s-284 533 -281 522s3 -213 3 -213
c1 -56 13 -718 13 -718c-12 -1 -25 -22 -37 -22c-281 -12 -589 22 -586 22s24 911 24 820c0 -19 25 686 25 686zM1078 215c0 -51 -72 -102 -123 -102c-47 0 -105 33 -105 85c0 58 84 81 134 81c42 0 73 -8 90 -47c4 -6 4 -11 4 -17z" />
    <glyph glyph-name="betdagesh" unicode="&#xfb31;" horiz-adv-x="1841" 
d="M1662 376l81 -8l-15 -368s-699 -12 -696 -12s-586 0 -586 0s-245 3 -262 7c-13 3 46 243 46 243l48 27s409 18 431 15s353 -3 353 0c0 0 -5 150 -3 180s-14 163 -14 163l-869 23l-53 419s-18 429 -7 440c0 0 1100 30 1220 -15c59 -22 110 -132 115 -154s11 -489 14 -489
s8 -468 8 -468zM658 465c0 -51 -72 -102 -123 -102c-47 0 -105 33 -105 85c0 58 84 81 134 81c42 0 73 -8 90 -47c4 -6 4 -11 4 -17z" />
    <glyph glyph-name="gimeldagesh" unicode="&#xfb32;" horiz-adv-x="1359" 
d="M340 508c116 3 277 19 277 19s144 9 195 9c22 0 19 11 19 14s-22 177 -22 177l-63 7s-157 11 -140 11s-488 2 -488 2s33 508 33 519s29 254 29 254s689 11 761 9c63 -2 303 -35 303 -41s25 -627 -2 -1493c0 0 -365 -15 -376 -15s-27 8 -27 8l9 243s-7 7 -15 18
s-211 5 -220 -1c-16 -11 -5 -326 -7 -326s-33 -12 -41 -12s-384 10 -387 10s42 349 42 349c58 220 120 239 120 239zM438 646c0 5 0 10 -3 15c-15 35 -43 42 -80 42c-45 0 -119 -20 -119 -72c0 -46 51 -75 93 -75c45 0 109 44 109 90z" />
    <glyph glyph-name="daleddagesh" unicode="&#xfb33;" horiz-adv-x="1493" 
d="M186 1568c0 0 667 27 1211 -33l-10 -478l-20 -193l-261 -26l-3 -98c-2 -53 12 -760 12 -760s-205 12 -208 15s-41 25 -41 25l-6 712l-542 14l-116 11c-48 419 -16 811 -16 811zM658 445c0 6 0 11 -4 17c-17 39 -48 47 -90 47c-50 0 -134 -23 -134 -81
c0 -52 58 -85 105 -85c51 0 123 51 123 102z" />
    <glyph glyph-name="hedagesh" unicode="&#xfb34;" horiz-adv-x="1547" 
d="M698 0l23 551s-404 20 -404 18s-18 -19 -34 -62l-27 -485l224 -32l176 -11zM146 776l37 559s42 229 53 240c0 0 953 13 1118 -44l77 -35c5 -22 16 -366 32 -692c10 -210 -5 -834 -5 -834h-254s-51 17 -49 15s14 542 14 542s-8 202 -14 218l-210 8zM1035 457
c0 -51 -72 -101 -122 -101c-47 0 -105 32 -105 84c0 59 83 81 134 81c42 0 73 -8 90 -47c3 -6 3 -11 3 -17z" />
    <glyph glyph-name="vavdagesh" unicode="&#xfb35;" horiz-adv-x="887" 
d="M592 -10l-37 23s-23 757 -23 762c0 3 -11 15 -11 15c-6 0 -341 9 -341 9c-20 250 0 721 0 721l50 15s403 9 563 -28c13 -3 -27 -1498 -27 -1498zM428 515c0 6 0 11 -4 17c-17 39 -48 47 -90 47c-50 0 -134 -23 -134 -81c0 -52 58 -85 105 -85c51 0 123 51 123 102z" />
    <glyph glyph-name="tetdagesh" unicode="&#xfb38;" horiz-adv-x="1997" 
d="M1877 614c0 0 -9 -455 -221 -604c0 0 -50 -11 -117 -12c-327 -6 -1283 -9 -1311 35c-86 231 -58 1438 -58 1438c416 89 597 -27 597 -27l43 -50s-3 -478 -3 -514c0 -54 16 -306 19 -309s10 -156 61 -191s97 -62 97 -62s459 21 502 18l22 48c6 -3 15 313 15 313l-27 24
s-407 50 -407 48s-55 776 -47 846c0 0 563 -19 810 -104c87 -30 25 -897 25 -897zM1418 525c0 -51 -72 -102 -123 -102c-47 0 -105 33 -105 85c0 58 84 81 134 81c42 0 73 -8 90 -47c4 -6 4 -11 4 -17z" />
    <glyph glyph-name="yoddagesh" unicode="&#xfb39;" horiz-adv-x="908" 
d="M552 660l-17 23s-3 157 -3 162c0 3 -11 15 -11 15c-6 0 -341 -21 -341 -21c-20 250 0 681 0 681l50 15s536 -21 573 -68c23 -29 -17 -828 -17 -828zM408 676c0 5 0 10 -3 15c-15 35 -43 42 -80 42c-45 0 -119 -20 -119 -72c0 -46 51 -75 93 -75c45 0 109 44 109 90z" />
    <glyph glyph-name="khafdagesh" unicode="&#xfb3b;" horiz-adv-x="1458" 
d="M1320 1579c0 0 169 -1194 -115 -1576c0 0 -679 47 -928 77l5 223c192 1 230 -11 409 -11c19 0 208 5 223 28c8 17 30 92 30 92s39 203 0 258c-34 49 -691 32 -748 44c-14 81 -22 82 -22 169c0 90 6 552 13 645c174 20 959 73 1133 51zM778 496c0 5 0 10 -3 15
c-15 35 -43 42 -80 42c-45 0 -119 -20 -119 -72c0 -46 51 -75 93 -75c45 0 109 44 109 90z" />
    <glyph glyph-name="lameddagesh" unicode="&#xfb3c;" horiz-adv-x="1681" 
d="M1202 652c-225 -5 -952 -24 -952 -24c-130 476 -51 1229 -55 1245c0 0 391 68 737 -2c0 0 -11 -220 -32 -503c0 0 291 -6 678 -17c0 0 114 -743 -498 -1346l-173 88l-23 41c300 301 318 518 318 518zM858 415c0 6 0 11 -4 17c-17 39 -48 47 -90 47
c-50 0 -134 -23 -134 -81c0 -52 58 -85 105 -85c51 0 123 51 123 102z" />
    <glyph glyph-name="memdagseh" unicode="&#xfb3e;" horiz-adv-x="2050" 
d="M1967 1452l-24 -1442s-64 -44 -88 -40s-520 8 -520 8l-16 104l20 414l232 -24l63 32v168v102l-79 58s-64 44 -280 48s-428 -32 -452 -144s12 -696 12 -696l-37 -30l-223 20c-44 0 -48 470 -48 474v396l-20 60l-150 5c-75 2 -246 13 -246 13l-37 586c262 36 483 0 483 0
s14 -466 14 -470s152 398 152 398s28 76 80 84s648 -8 648 -8s475 -54 516 -116zM1148 525c0 6 0 11 -4 17c-17 39 -48 47 -90 47c-50 0 -134 -23 -134 -81c0 -52 58 -85 105 -85c51 0 123 51 123 102z" />
    <glyph glyph-name="nundagesh" unicode="&#xfb40;" horiz-adv-x="1391" 
d="M928 632c-2 2 17 598 15 677c-127 1 -238 10 -238 10c-20 250 -10 351 -10 351s321 43 533 -13c0 0 96 -794 56 -1549l-56 -56c-696 -88 -1086 -6 -1086 -6c-42 98 32 601 32 601c248 36 758 -19 754 -15zM758 845c0 6 0 11 -4 17c-17 39 -48 47 -90 47
c-50 0 -134 -23 -134 -81c0 -52 58 -85 105 -85c51 0 123 51 123 102z" />
    <glyph glyph-name="samekhdagesh" unicode="&#xfb41;" horiz-adv-x="1667" 
d="M1175 1097l-740 -17c-21 -110 6 -515 75 -553c26 -10 280 -17 319 -17c52 0 234 27 273 57c35 14 73 530 73 530zM1565 630c0 0 -72 -441 -643 -619l-138 5s-547 10 -589 40c0 0 -127 982 -20 1515c0 0 830 53 1057 26c0 0 274 -10 275 -33c0 0 68 -795 58 -934zM958 795
c0 6 0 11 -4 17c-17 39 -48 47 -90 47c-50 0 -134 -23 -134 -81c0 -52 58 -85 105 -85c51 0 123 51 123 102z" />
    <glyph glyph-name="finalpedagesh" unicode="&#xfb43;" horiz-adv-x="1479" 
d="M1073 691l-637 -15s-4 -90 -1 -202l264 -12s13 -277 0 -298c0 0 -226 -43 -499 -26c-18 226 -54 1113 -18 1386c322 -6 513 13 835 -26c38 -5 202 -38 240 -52l53 -52s73 -558 73 -1819l-217 -25l-43 21zM978 535c0 -51 -72 -102 -123 -102c-47 0 -105 33 -105 85
c0 58 84 81 134 81c42 0 73 -8 90 -47c4 -6 4 -11 4 -17z" />
    <glyph glyph-name="pedagesh" unicode="&#xfb44;" horiz-adv-x="1656" 
d="M1520 1200c23 -186 76 -641 -48 -1130c0 0 -1194 -43 -1194 -47s-64 47 -64 47c8 0 -36 393 -36 393c201 31 1055 18 1055 18c3 114 16 266 15 313c-1 120 -26 252 -68 352l-544 -30s-5 -32 -11 -112l264 -12s13 -277 0 -298c0 0 -510 -50 -699 -26
c-18 226 -18 780 -18 1006c322 -6 653 13 975 -26c38 -5 272 -38 310 -52c0 0 46 -252 63 -396zM1188 855c0 -51 -72 -102 -123 -102c-47 0 -105 33 -105 85c0 58 84 81 134 81c42 0 73 -8 90 -47c4 -6 4 -11 4 -17z" />
    <glyph glyph-name="tsadidagesh" unicode="&#xfb46;" horiz-adv-x="1674" 
d="M802 503l20 -4c-16 40 -524 982 -524 982c73 40 473 44 480 30c0 0 128 -245 117 -229s222 -392 222 -392s9 354 12 338s4 297 4 297c187 41 405 -27 405 -27s41 -367 60 -865c2 0 -569 17 -569 17c0 -3 345 -594 345 -594l-39 -22l-821 -24c-184 -5 -306 -7 -370 -4
c-37 1 -54 24 -53 24c3 0 21 395 56 569zM578 755c0 -51 -72 -102 -123 -102c-47 0 -105 33 -105 85c0 58 84 81 134 81c42 0 73 -8 90 -47c4 -6 4 -11 4 -17z" />
    <glyph glyph-name="kofdagesh" unicode="&#xfb47;" horiz-adv-x="1628" 
d="M885 548c-206 62 -409 -12 -409 -12l42 -935l197 -7l175 8l40 26zM189 896c0 0 -48 328 7 629c0 0 966 50 1305 -119c5 -22 25 -226 22 -552s-105 -694 -105 -694h-224s-51 17 -49 15s14 462 14 462l5 222c-190 8 -899 -3 -975 37zM886 747c0 -52 -72 -102 -122 -102
c-47 0 -105 32 -105 85c0 58 83 80 134 80c42 0 73 -8 90 -47c3 -5 3 -11 3 -16z" />
    <glyph glyph-name="shindagesh" unicode="&#xfb49;" horiz-adv-x="1795" 
d="M573 1501c0 0 9 -416 29 -820c0 0 152 -12 276 32l-1 359s-2 474 -4 472s99 15 99 15h124s12 -717 15 -1043l253 -7l27 25l4 588s-2 324 -4 322s29 45 29 45l284 10s-8 -278 -5 -604s-17 -780 -22 -802s-66 -42 -125 -64c-120 -45 -1136 -39 -1200 -35s-144 41 -144 41
l-24 1029l-4 442s236 46 393 -5zM1358 1045c0 -51 -72 -102 -123 -102c-47 0 -105 33 -105 85c0 58 84 81 134 81c42 0 73 -8 90 -47c4 -6 4 -11 4 -17z" />
    <glyph glyph-name="tavdagesh" unicode="&#xfb4a;" horiz-adv-x="1703" 
d="M516 683c4 -20 -31 821 -31 821s590 129 1096 -28c5 -22 25 -326 22 -652s-25 -834 -25 -834l-205 19l-29 31s8 850 -9 865c-30 27 -517 -18 -517 -18c-9 -38 50 -917 50 -917c-597 -33 -704 17 -704 17s-21 527 28 712c0 0 328 -20 324 -16zM1178 615
c0 -51 -72 -102 -123 -102c-47 0 -105 33 -105 85c0 58 84 81 134 81c42 0 73 -8 90 -47c4 -6 4 -11 4 -17z" />
    <glyph glyph-name="vavholam" unicode="&#xfb4b;" horiz-adv-x="887" 
d="M592 -10l-37 23s-23 757 -23 762c0 3 -11 15 -11 15c-6 0 -341 9 -341 9c-20 250 0 721 0 721l50 15s403 9 563 -28c13 -3 -27 -1498 -27 -1498zM628 1705c0 -51 -72 -102 -123 -102c-47 0 -105 33 -105 85c0 58 84 81 134 81c42 0 73 -8 90 -47c4 -6 4 -11 4 -17z" />
    <glyph glyph-name="betrafe" unicode="&#xfb4c;" horiz-adv-x="1841" 
d="M1662 376l81 -8l-15 -368s-699 -12 -696 -12s-586 0 -586 0s-245 3 -262 7c-13 3 46 243 46 243l48 27s409 18 431 15s353 -3 353 0c0 0 -5 150 -3 180s-14 163 -14 163l-869 23l-53 419s-18 429 -7 440c0 0 1100 30 1220 -15c59 -22 110 -132 115 -154s11 -489 14 -489
s8 -468 8 -468zM1223 1626l-1119 31l-40 17s-1 170 -1 174c0 2 1166 10 1166 10c-3 -108 -6 -232 -6 -232z" />
    <glyph glyph-name="khafrafe" unicode="&#xfb4d;" horiz-adv-x="1458" 
d="M1320 1639c0 0 169 -1254 -115 -1636c0 0 -679 47 -928 77l5 223c192 1 230 -11 409 -11c19 0 208 5 223 28c8 17 20 92 20 92s49 263 10 318c-34 49 -691 32 -748 44c-14 81 -22 82 -22 169c0 90 6 552 13 645c174 20 959 73 1133 51zM1303 1746l-1119 31l-40 17
s-1 170 -1 174c0 2 1166 10 1166 10c-3 -108 -6 -232 -6 -232z" />
    <glyph glyph-name="perafe" unicode="&#xfb4e;" horiz-adv-x="1656" 
d="M1520 1200c23 -186 76 -641 -48 -1130c0 0 -1194 -43 -1194 -47s-64 47 -64 47c8 0 -36 393 -36 393c201 31 1055 18 1055 18c3 114 16 266 15 313c-1 120 -26 252 -68 352l-544 -30s-5 -32 -11 -112l264 -12s13 -277 0 -298c0 0 -510 -50 -699 -26
c-18 226 -18 780 -18 1006c322 -6 653 13 975 -26c38 -5 272 -38 310 -52c0 0 46 -252 63 -396zM1363 1726l-1119 31l-40 17s-1 170 -1 174c0 2 1166 10 1166 10c-3 -108 -6 -232 -6 -232z" />
    <glyph glyph-name="aleflamed" unicode="&#xfb4f;" horiz-adv-x="1930" 
d="M800 1418l158 -7s148 -245 137 -229s212 -392 212 -392s-32 400 -8 638c0 0 350 28 579 -30c0 0 -2 -705 0 -705s-389 17 -389 17c0 -1 212 -368 207 -356c-4 12 198 -378 198 -378l-307 -54l-238 407s-234 393 -231 382c-225 -5 -968 -23 -968 -23
c-130 476 -51 1229 -55 1245c0 0 414 99 737 -2c0 0 -11 -230 -32 -513z" />
    <glyph glyph-name="vavholamhaser" horiz-adv-x="887" 
d="M592 -10l-37 23s-23 757 -23 762c0 3 -11 15 -11 15c-6 0 -341 9 -341 9c-20 250 0 721 0 721l50 15s403 9 563 -28c13 -3 -27 -1498 -27 -1498zM268 1725c0 -51 -72 -102 -123 -102c-47 0 -105 33 -105 85c0 58 84 81 134 81c42 0 73 -8 90 -47c4 -6 4 -11 4 -17z" />
    <glyph glyph-name="finalkafsheva" unicode="&#x2c2;" horiz-adv-x="1352" 
d="M983 691l-742 -35l-41 12c-18 226 -54 583 -18 856c322 -6 423 13 745 -26c38 -5 202 -38 240 -52l53 -52s73 -558 73 -1819l-217 -25l-43 21zM649 338c0 -51 -72 -101 -122 -101c-47 0 -105 32 -105 85c0 58 83 80 134 80c42 0 73 -8 90 -47c3 -5 3 -11 3 -17zM442 63
c0 -51 72 -101 122 -101c47 0 105 32 105 85c0 58 -83 80 -134 80c-42 0 -73 -8 -90 -47c-3 -5 -3 -11 -3 -17z" />
    <glyph glyph-name="finalkafqamats" unicode="&#x2c3;" horiz-adv-x="1352" 
d="M983 691l-742 -35l-41 12c-18 226 -54 583 -18 856c322 -6 423 13 745 -26c38 -5 202 -38 240 -52l53 -52s73 -558 73 -1819l-217 -25l-43 21zM732 188c0 0 1 122 -33 191c0 0 -340 -33 -340 -35c1 -3 14 -159 14 -159l22 -14l104 8l6 -181l140 35l-36 164z" />
    <glyph glyph-name="hatafpatah_meteg" 
d="M345 -1020l31 419l17 40s90 1 94 1c2 0 10 -466 10 -466c-108 3 -152 6 -152 6zM848 -945c-9 -50 -89 -87 -139 -78c-46 8 -98 50 -88 102c10 57 96 64 146 55c41 -7 70 -20 80 -62c3 -6 2 -11 1 -17zM853 -729c-13 -49 -96 -80 -145 -67c-45 12 -92 59 -79 110
c15 56 101 56 150 43c40 -11 68 -26 75 -69c2 -6 0 -11 -1 -17zM298 -729l-419 31l-40 17s-1 90 -1 94c0 2 466 10 466 10c-3 -108 -6 -152 -6 -152z" />
    <glyph glyph-name="hatafqamats_meteg" 
d="M345 -1020l31 419l17 40s90 1 94 1c2 0 10 -466 10 -466c-108 3 -152 6 -152 6zM848 -945c-9 -50 -89 -87 -139 -78c-46 8 -98 50 -88 102c10 57 96 64 146 55c41 -7 70 -20 80 -62c3 -6 2 -11 1 -17zM853 -729c-13 -49 -96 -80 -145 -67c-45 12 -92 59 -79 110
c15 56 101 56 150 43c40 -11 68 -26 75 -69c2 -6 0 -11 -1 -17zM243 -814c0 0 3 124 6 232c0 0 -656 -8 -656 -10c0 -4 1 -174 1 -174l40 -17l197 -1l-16 -258l268 27l-42 241z" />
    <glyph glyph-name="hatafsegol_leftmeteg" 
d="M216 -688c0 -54 -75 -108 -129 -108c-49 0 -110 35 -110 90c0 61 88 85 140 85c45 0 77 -9 95 -50c4 -6 4 -11 4 -17zM326 -797c30 -44 122 -46 166 -16c41 27 74 89 42 135c-34 50 -119 22 -164 -8c-36 -24 -58 -50 -51 -94c0 -6 4 -11 7 -17zM78 -911
c-7 -54 64 -114 116 -120c48 -5 113 22 119 77c6 61 -78 94 -130 99c-45 5 -78 0 -100 -39c-4 -6 -5 -11 -5 -17zM-225 -1020l31 419l17 40s90 1 94 1c2 0 10 -466 10 -466c-108 3 -152 6 -152 6zM848 -945c-9 -50 -89 -87 -139 -78c-46 8 -98 50 -88 102
c10 57 96 64 146 55c41 -7 70 -20 80 -62c3 -6 2 -11 1 -17zM853 -729c-13 -49 -96 -80 -145 -67c-45 12 -92 59 -79 110c15 56 101 56 150 43c40 -11 68 -26 75 -69c2 -6 0 -11 -1 -17z" />
    <glyph glyph-name="hatafpatah_leftmeteg" 
d="M526 -708l-419 -31s-3 44 -6 152c0 0 466 -8 466 -10c0 -4 -1 -94 -1 -94zM853 -729c1 6 3 11 1 17c-7 43 -35 58 -75 69c-49 13 -135 13 -150 -43c-13 -51 34 -98 79 -110c49 -13 132 18 145 67zM848 -945c1 6 2 11 -1 17c-10 42 -39 55 -80 62c-50 9 -136 2 -146 -55
c-10 -52 42 -94 88 -102c50 -9 130 28 139 78zM29 -611l31 -419s-44 -3 -152 -6c0 0 8 466 10 466c4 0 94 -1 94 -1z" />
    <glyph glyph-name="hatafqamats_leftmeteg" 
d="M-295 -1040l31 419l17 40s90 1 94 1c2 0 10 -466 10 -466c-108 3 -152 6 -152 6zM848 -945c-9 -50 -89 -87 -139 -78c-46 8 -98 50 -88 102c10 57 96 64 146 55c41 -7 70 -20 80 -62c3 -6 2 -11 1 -17zM853 -729c-13 -49 -96 -80 -145 -67c-45 12 -92 59 -79 110
c15 56 101 56 150 43c40 -11 68 -26 75 -69c2 -6 0 -11 -1 -17zM563 -814c0 0 3 124 6 232c0 0 -656 -8 -656 -10c0 -4 1 -174 1 -174l40 -17l197 -1l-16 -258l268 27l-42 241z" />
  </font>
</defs>
</svg>
