<?xml version="1.0" standalone="no"?>
<!DOCTYPE svg PUBLIC "-//W3C//DTD SVG 1.1//EN" "http://www.w3.org/Graphics/SVG/1.1/DTD/svg11.dtd" >
<svg xmlns="http://www.w3.org/2000/svg" xmlns:xlink="http://www.w3.org/1999/xlink" version="1.1">
<metadata>
Created by FontForge 20170910 at Wed Dec  7 16:33:12 2011
 By Jimmy Wärting
Le patin helvete was designed by OSP - Harrisson, Ludi, Sebastien Sanfilippo. It is based on Free Sans.
</metadata>
<defs>
<font id="OSP_Le-patin-helvete" horiz-adv-x="1000" >
  <font-face 
    font-family="OSP_Le-patin-helvete"
    font-weight="400"
    font-stretch="normal"
    units-per-em="1000"
    panose-1="2 11 5 4 2 2 2 2 2 4"
    ascent="800"
    descent="-200"
    x-height="524"
    cap-height="729"
    bbox="-701 -462 1632 1141"
    underline-thickness="50"
    underline-position="-251"
    unicode-range="U+0020-FFFD"
  />
<missing-glyph horiz-adv-x="500" 
d="M468 977v-977h-401v977h401zM401 910h-267v-843h267v843z" />
    <glyph glyph-name="uni0587" unicode="&#x565;&#x582;" horiz-adv-x="545" 
d="M217 -8q-43 0 -74 15t-45.5 37.5t-20.5 40t-6 30.5l-1 608h86v-568q0 -88 80 -88q71 0 107 37.5t36 105.5v146h86l-1 -285h80l1 -68l-163 -1v82q-28 -36 -41.5 -50t-44.5 -27t-79 -15z" />
    <glyph glyph-name="ff" unicode="ff" horiz-adv-x="667" 
d="M206 68h71v-68h-225v68h71v388h-70v68h70v89q0 56 32.5 87.5t90.5 31.5q23 0 47 -5v-69q-19 1 -29 1q-58 0 -58 -53v-82h87v-68h-87v-388zM522 68h71v-68h-225v68h71v388h-70v68h70v89q0 56 32.5 87.5t90.5 31.5q23 0 47 -5v-69q-19 1 -29 1q-58 0 -58 -53v-82h87v-68
h-87v-388z" />
    <glyph glyph-name="fi" unicode="fi" horiz-adv-x="658" 
d="M546 735v-105h-84v105h84zM463 456v-388h-71v-68h225v68h-71v456h-154v-68h71zM206 68h71v-68h-225v68h71v388h-70v68h70v89q0 56 32.5 87.5t90.5 31.5q23 0 47 -5v-69q-19 1 -29 1q-58 0 -58 -53v-82h87v-68h-87v-388z" />
    <glyph glyph-name="fl" unicode="fl" horiz-adv-x="659" 
d="M206 68h71v-68h-225v68h71v388h-70v68h70v89q0 56 32.5 87.5t90.5 31.5q23 0 47 -5v-69q-19 1 -29 1q-58 0 -58 -53v-82h87v-68h-87v-388zM462 661v-593h-71v-68h226v68h-71v661h-155v-68h71z" />
    <glyph glyph-name="ffi" unicode="ffi" horiz-adv-x="778" 
d="M258 524v-68h-87v-456h-83v456h-70v68h70v89q0 56 32.5 87.5t90.5 31.5q23 0 47 -5v-69q-19 1 -29 1q-58 0 -58 -53v-82h87zM530 524v-68h-87v-456h-83v456h-70v68h70v89q0 56 32.5 87.5t90.5 31.5q23 0 47 -5v-69q-19 1 -29 1q-58 0 -58 -53v-82h87zM714 524v-524h-83
v524h83zM714 729v-105h-83v105h83z" />
    <glyph glyph-name="ffl" unicode="ffl" horiz-adv-x="778" 
d="M258 524v-68h-87v-456h-83v456h-70v68h70v89q0 56 32.5 87.5t90.5 31.5q23 0 47 -5v-69q-19 1 -29 1q-58 0 -58 -53v-82h87zM535 524v-68h-87v-456h-83v456h-70v68h70v89q0 56 32.5 87.5t90.5 31.5q23 0 47 -5v-69q-19 1 -29 1q-58 0 -58 -53v-82h87zM708 729v-729h-83
v729h83z" />
    <glyph glyph-name=".notdef" horiz-adv-x="500" 
d="M468 977v-977h-401v977h401zM401 910h-267v-843h267v843z" />
    <glyph glyph-name=".null" horiz-adv-x="0" 
 />
    <glyph glyph-name="nonmarkingreturn" horiz-adv-x="333" 
 />
    <glyph glyph-name="space" unicode=" " horiz-adv-x="278" 
 />
    <glyph glyph-name="exclam" unicode="!" horiz-adv-x="278" 
d="M208 729v-338l-22 -223h-39l-22 223v338h83zM208 104v-104h-84v104h84z" />
    <glyph glyph-name="quotedbl" unicode="&#x22;" horiz-adv-x="355" 
d="M52 709h93v-111l-27 -134h-39l-27 134v111zM212 709h93v-111l-27 -134h-39l-27 134v111z" />
    <glyph glyph-name="numbersign" unicode="#" horiz-adv-x="556" 
d="M485 697l-36 -196h93v-68h-106l-31 -174h105v-68h-117l-39 -211h-76l38 211h-124l-39 -211h-76l38 211h-101v68h114l31 174h-108v68h121l36 196h76l-36 -196h125l35 196h77zM360 433h-124l-32 -174h125z" />
    <glyph glyph-name="dollar" unicode="$" horiz-adv-x="556" 
d="M518 195q0 -96 -55.5 -153.5t-160.5 -64.5v-103h-59v103q-101 7 -155.5 62t-54.5 152v17h79q2 -20 2.5 -26.5t3.5 -25t6.5 -26t10 -22.5t15.5 -22.5t22 -16.5t31 -14.5t40 -8.5v272q-93 28 -126 52q-71 51 -71 146q0 85 50.5 136.5t146.5 63.5v54h59v-54
q91 -7 142.5 -59.5t51.5 -137.5h-79q-1 55 -33 90t-82 37v-249q4 -1 30 -8t40 -12t39.5 -16t41 -24.5t32.5 -33t25 -47.5t8 -61zM243 405v240q-56 -8 -86 -39t-30 -80q0 -90 116 -121zM302 46q67 8 100.5 45t33.5 92q0 49 -28.5 76t-105.5 50v-263z" />
    <glyph glyph-name="percent" unicode="%" horiz-adv-x="889" 
d="M199 685q72 0 121.5 -50t49.5 -123q0 -69 -50 -119t-120 -50t-120.5 50.5t-50.5 120.5t50 120.5t120 50.5zM199 615q-41 0 -71 -29.5t-30 -71.5q0 -41 30 -71t72 -30q41 0 71 29.5t30 70.5q0 43 -29.5 72.5t-72.5 29.5zM609 709h66l-395 -729h-66zM688 322
q72 0 121.5 -50t49.5 -122q0 -69 -50.5 -119t-119.5 -50q-71 0 -121 50.5t-50 120.5t50 120t120 50zM688 252q-41 0 -71 -29.5t-30 -70.5q0 -42 30 -71.5t72 -29.5q41 0 71 29.5t30 69.5q0 43 -29.5 72.5t-72.5 29.5z" />
    <glyph glyph-name="ampersand" unicode="&#x26;" horiz-adv-x="667" 
d="M466 78q-11 -10 -23 -22.5t-31.5 -26.5t-40.5 -25.5t-51.5 -19t-62.5 -7.5q-92 0 -148.5 54.5t-56.5 144.5q0 68 34.5 113.5t127.5 99.5q-47 59 -64 93.5t-17 69.5q0 66 50 111.5t121 45.5t117 -44t46 -113q0 -54 -30 -92t-108 -82l133 -163q31 55 31 115v4h80
q0 -94 -58 -183l122 -151h-109zM285 431q59 37 81 63t22 60q0 37 -24.5 61t-62.5 24q-39 0 -62.5 -23.5t-23.5 -62.5q0 -27 12.5 -48.5t57.5 -73.5zM418 137l-160 200q-68 -43 -95 -77.5t-27 -76.5q0 -53 38.5 -90.5t92.5 -37.5q73 0 151 82z" />
    <glyph glyph-name="quotesingle" unicode="'" horiz-adv-x="191" 
d="M48 709h94v-111l-27 -134h-40l-27 134v111z" />
    <glyph glyph-name="parenleft" unicode="(" horiz-adv-x="333" 
d="M236 729h55q-137 -221 -137 -470q0 -248 137 -471h-55q-75 98 -119 225.5t-44 245.5t44 245t119 225z" />
    <glyph glyph-name="parenright" unicode=")" horiz-adv-x="333" 
d="M93 -212h-55q137 221 137 470q0 248 -137 471h55q75 -98 119 -225.5t44 -245.5t-44 -245t-119 -225z" />
    <glyph glyph-name="asterisk" unicode="*" horiz-adv-x="389" 
d="M160 729h63l-5 -112l106 38l19 -59l-108 -30l70 -89l-51 -36l-62 93l-63 -93l-50 36l69 89l-108 30l19 59l106 -38z" />
    <glyph glyph-name="plus" unicode="+" horiz-adv-x="584" 
d="M534 267v-70h-207v-207h-70v207h-207v70h207v207h70v-207h207z" />
    <glyph glyph-name="comma" unicode="," horiz-adv-x="278" 
d="M87 104h105v-120q0 -131 -105 -131v38q35 1 47.5 20t12.5 71v18h-60v104z" />
    <glyph glyph-name="hyphen" unicode="-" horiz-adv-x="333" 
d="M284 312v-72h-238v72h238z" />
    <glyph glyph-name="period" unicode="." horiz-adv-x="278" 
d="M191 104v-104h-104v104h104z" />
    <glyph glyph-name="slash" unicode="/" horiz-adv-x="278" 
d="M229 729h55l-237 -749h-55z" />
    <glyph glyph-name="zero" unicode="0" horiz-adv-x="577" 
d="M56 343q0 89 15 157t38 106.5t55 62.5t61.5 32t62.5 8q232 0 232 -372q0 -175 -59.5 -267.5t-172.5 -92.5q-114 0 -173 93.5t-59 272.5zM146 342q0 -292 140 -292q74 0 109 72t35 223q0 286 -142 286t-142 -289z" />
    <glyph glyph-name="one" unicode="1" horiz-adv-x="425" 
d="M203 505h-157v63q102 13 133 36t54 105h58v-628h94v-81h-276v81h94v424z" />
    <glyph glyph-name="two" unicode="2" horiz-adv-x="595" 
d="M71 463q7 246 234 246q101 0 164 -58t63 -150q0 -132 -150 -214l-100 -54q-65 -35 -93 -68t-35 -78h279v81h94v-168h-472q6 117 47 180.5t152 126.5l92 52q96 55 96 140q0 57 -40 95t-100 38q-133 0 -143 -169h-88z" />
    <glyph glyph-name="three" unicode="3" horiz-adv-x="593" 
d="M298 632q-76 0 -104.5 -41.5t-30.5 -110.5h-88q5 229 222 229q101 0 158.5 -52t57.5 -143q0 -108 -99 -147q64 -22 92 -61.5t28 -107.5q0 -101 -65.5 -161t-174.5 -60q-218 0 -234 229h88q5 -77 41 -114t108 -37q69 0 108 37.5t39 104.5q0 129 -147 129l-37 -1h-11v75
q95 2 134.5 24t39.5 87q0 56 -33.5 88.5t-91.5 32.5z" />
    <glyph glyph-name="four" unicode="4" horiz-adv-x="591" 
d="M345 170h-299v93l322 446h65v-460h105v-79h-105v-89h94v-81h-276v81h94v89zM345 249v310l-222 -310h222z" />
    <glyph glyph-name="five" unicode="5" horiz-adv-x="587" 
d="M497 709v-87h-295l-28 -198q59 43 131 43q102 0 165.5 -65.5t63.5 -170.5q0 -112 -68 -183t-175 -71q-41 0 -75.5 9t-57 21.5t-41 33t-28 36t-18 39t-10.5 32.5t-5 26h88q31 -119 145 -119q72 0 113.5 44t41.5 120q0 79 -42 124.5t-113 45.5q-41 0 -70 -14.5t-60 -51.5
h-81l53 386h366z" />
    <glyph glyph-name="six" unicode="6" horiz-adv-x="585" 
d="M56 323q0 94 17 165.5t42.5 112.5t61 66.5t67 33.5t66.5 8q81 0 134.5 -49t66.5 -136h-88q-11 51 -42 79t-77 28q-76 0 -116.5 -69.5t-41.5 -199.5q58 79 163 79q95 0 156 -63t61 -162q0 -104 -65.5 -171.5t-166.5 -67.5q-238 0 -238 346zM298 363q-65 0 -106 -41.5
t-41 -107.5q0 -68 41 -113.5t103 -45.5q61 0 101 43.5t40 110.5q0 71 -37 112.5t-101 41.5z" />
    <glyph glyph-name="seven" unicode="7" horiz-adv-x="530" 
d="M514 709v-74q-120 -160 -189.5 -312.5t-98.5 -322.5h-94q40 175 102 308t189 314h-289v-81h-94v168h474z" />
    <glyph glyph-name="eight" unicode="8" horiz-adv-x="593" 
d="M413 373q122 -58 122 -177q0 -97 -66.5 -158t-171.5 -61t-171.5 61.5t-66.5 158.5q0 118 121 176q-54 34 -75 66t-21 81q0 83 59.5 136t153.5 53t153.5 -53t59.5 -136q0 -50 -21 -82t-76 -65zM174 519q0 -50 33.5 -80.5t89.5 -30.5q55 0 89 30t34 80q0 52 -33.5 82.5
t-89.5 30.5t-89.5 -30.5t-33.5 -81.5zM295 55q67 0 108.5 38.5t41.5 101.5q0 62 -41 100.5t-107 38.5t-107 -38.5t-41 -100.5t40.5 -101t105.5 -39z" />
    <glyph glyph-name="nine" unicode="9" horiz-adv-x="585" 
d="M529 363q0 -94 -17 -165.5t-42.5 -112.5t-61 -66.5t-67.5 -33.5t-67 -8q-81 0 -134.5 49t-66.5 136h88q11 -51 42 -79t77 -28q76 0 116.5 69.5t41.5 199.5q-66 -79 -162 -79t-157 63t-61 162q0 104 65.5 171.5t166.5 67.5q239 0 239 -346zM289 632q-61 0 -101 -44
t-40 -111q0 -71 37 -112.5t101 -41.5t105.5 42t41.5 107q0 69 -41 114.5t-103 45.5z" />
    <glyph glyph-name="colon" unicode=":" horiz-adv-x="278" 
d="M214 104v-104h-104v104h104zM214 524v-104h-104v104h104z" />
    <glyph glyph-name="semicolon" unicode=";" horiz-adv-x="278" 
d="M215 524v-104h-104v104h104zM110 104h105v-120q0 -131 -105 -131v38q35 1 47.5 20t12.5 71v18h-60v104z" />
    <glyph glyph-name="less" unicode="&#x3c;" horiz-adv-x="584" 
d="M45 198v69l489 207v-79l-394 -161l394 -164v-79z" />
    <glyph glyph-name="equal" unicode="=" horiz-adv-x="584" 
d="M534 353v-70h-484v70h484zM534 181v-70h-484v70h484z" />
    <glyph glyph-name="greater" unicode="&#x3e;" horiz-adv-x="584" 
d="M539 267v-69l-489 -207v79l394 161l-394 164v79z" />
    <glyph glyph-name="question" unicode="?" horiz-adv-x="556" 
d="M509 549q0 -46 -18.5 -83t-44.5 -61.5t-52.5 -47t-45 -51t-18.5 -60.5v-47h-90v55q0 37 18.5 70t45 57t52.5 48t44.5 54.5t18.5 65.5q0 51 -35 82.5t-93 31.5q-73 0 -101 -41t-28 -115h-85q0 115 55.5 174.5t163.5 59.5q97 0 155 -52t58 -140zM330 104v-104h-90v104h90z
" />
    <glyph glyph-name="at" unicode="@" horiz-adv-x="1045" 
d="M695 501h94v-81h-37l-64 -199q-12 -35 -12 -50q0 -18 15 -31t35 -13q64 0 116 71t52 159q0 125 -104.5 216t-247.5 91q-158 0 -275.5 -117t-117.5 -274q0 -143 108 -240.5t267 -97.5q79 0 193 32l28 -67q-112 -42 -226 -42q-124 0 -229 53.5t-165.5 145.5t-60.5 201
q0 98 42 192.5t116 161.5q66 60 155 94.5t178 34.5q175 0 300.5 -110t125.5 -262q0 -123 -86 -223q-76 -89 -186 -89q-96 0 -110 77q-66 -72 -142 -72q-70 0 -116.5 52.5t-46.5 130.5q0 109 78 193t179 84q84 0 122 -87zM483 126q65 0 110.5 83t45.5 159q0 38 -27 64t-67 26
q-63 0 -112 -65t-49 -149q0 -49 29 -83.5t70 -34.5z" />
    <glyph glyph-name="A" unicode="A" horiz-adv-x="904" 
d="M542 0v81h96l-47 138h-281l-49 -138h96v-81h-287v81h93l202 567h-65v81h214l228 -648h92v-81h-292zM565 297l-112 332l-120 -332h232z" />
    <glyph glyph-name="B" unicode="B" horiz-adv-x="811" 
d="M717 208q0 -94 -59 -151t-156 -57h-423v81h94v567h-94v81h390q61 0 106 -18t67.5 -47.5t32.5 -59t10 -60.5q0 -112 -101 -159q70 -27 101.5 -69t31.5 -108zM493 82q49 0 80 21.5t41 47.5t10 56q0 57 -34 91.5t-97 34.5h-227v-251h227zM446 647h-180v-232h180
q146 0 146 116t-146 116z" />
    <glyph glyph-name="C" unicode="C" horiz-adv-x="821" 
d="M423 741q49 0 100 -16.5t93 -65.5v83h88v-239h-95q-16 78 -62.5 117t-134.5 39q-107 0 -168 -81q-61 -80 -61 -220q0 -139 64 -219q65 -80 173 -80q90 0 138 50.5t65 156.5h96q-33 -289 -300 -289q-75 0 -134.5 25.5t-95.5 64.5q-36 41 -59 91q-23 54 -31.5 101.5
t-8.5 96.5q0 51 8.5 99t32.5 102q24 52 59 92q36 40 96.5 66t136.5 26z" />
    <glyph glyph-name="D" unicode="D" horiz-adv-x="842" 
d="M173 729h281q139 0 218 -97t79 -267t-79.5 -267.5t-217.5 -97.5h-375v81h94v567h-94v81h94zM266 82h172q108 0 164 72t56 210q0 139 -56 211t-164 72h-172v-565z" />
    <glyph glyph-name="E" unicode="E" horiz-adv-x="792" 
d="M173 730h505v-183h-89v101h-323v-233h397v-82h-397v-250h341v101h89v-183h-617v81h94v567h-94v81h94z" />
    <glyph glyph-name="F" unicode="F" horiz-adv-x="740" 
d="M173 729h489v-163h-94v81h-302v-233h348v-82h-348v-251h94v-81h-281v81h94v567h-94v81h94z" />
    <glyph glyph-name="G" unicode="G" horiz-adv-x="863" 
d="M183 362q0 -44 11.5 -97t40.5 -98.5t80 -76.5t129 -31q99 0 164 63t65 161v20h-222v82h304v-389h-59l-23 97q-104 -116 -249 -116q-148 0 -241 106t-93 274q0 48 9 96t34 102q13 26 28 49.5t34 43.5q38 40 101 66.5t144 26.5q78 0 130.5 -21.5t85.5 -63.5v91h89v-239h-95
q-15 70 -71 110.5t-140 40.5q-116 0 -186 -82q-70 -80 -70 -215z" />
    <glyph glyph-name="H" unicode="H" horiz-adv-x="903" 
d="M641 332h-375v-251h94v-81h-281v81h94v567h-94v81h281v-81h-94v-234h375v234h-94v81h94h187v-81h-94v-567h94v-81h-281v81h94v251z" />
    <glyph glyph-name="I" unicode="I" horiz-adv-x="436" 
d="M267 729h94v-81h-94v-567h94v-81h-282v81h94v567h-94v81h188z" />
    <glyph glyph-name="J" unicode="J" horiz-adv-x="641" 
d="M285 55q64 0 88 42t24 119v432h-94v81h281v-81h-94v-466q0 -95 -55.5 -150t-150.5 -55q-94 0 -148.5 52t-54.5 141v64h95v-47q0 -64 28 -98t81 -34z" />
    <glyph glyph-name="K" unicode="K" horiz-adv-x="810" 
d="M756 729v-81h-88l-216 -216l243 -351h101v-81h-251v81h41l-201 293l-119 -119v-174h94v-81h-281v81h94v567h-94v81h94h93h94v-81h-94v-288l283 288h-44v81h251z" />
    <glyph glyph-name="L" unicode="L" horiz-adv-x="707" 
d="M626 183v-183h-547v81h94v567h-94v81h94h93h94v-81h-94v-566h271v101h89z" />
    <glyph glyph-name="M" unicode="M" horiz-adv-x="1028" 
d="M566 0h-98l-207 611v-530h94v-81h-276v81h94v567h-94v81h94h129l216 -635l212 635h223v-81h-94v-567h94v-81h-276v81h94v530z" />
    <glyph glyph-name="N" unicode="N" horiz-adv-x="894" 
d="M355 81v-81h-276v81h94v567h-94v81h195l381 -596v596h88h94v-81h-94v-648h-105l-377 591v-510h94z" />
    <glyph glyph-name="O" unicode="O" horiz-adv-x="884" 
d="M794 353q0 -162 -96 -269t-256 -107q-158 0 -255 105.5t-97 276.5t97 276.5t254 105.5q160 0 256.5 -106t96.5 -282zM441 659q-116 0 -187 -82.5t-71 -217.5t71.5 -217.5t187.5 -82.5t187.5 82t71.5 214q0 138 -71 221t-189 83z" />
    <glyph glyph-name="P" unicode="P" horiz-adv-x="790" 
d="M173 729h301q108 0 166.5 -55.5t58.5 -158.5q0 -93 -56.5 -149.5t-147.5 -56.5h-229v-228h94v-81h-281v81h94v567h-94v81h94zM266 391h194q67 0 104.5 34t37.5 94t-37.5 94t-104.5 34h-194v-256z" />
    <glyph glyph-name="Q" unicode="Q" horiz-adv-x="884" 
d="M785 -1l-47 -58l-105 87q-86 -51 -191 -51q-158 0 -255 105.5t-97 276.5t97 276.5t255 105.5q157 0 254.5 -105t97.5 -275q0 -172 -103 -285zM533 205l89 -73q79 89 79 228q0 134 -71.5 216.5t-187.5 82.5t-187.5 -82.5t-71.5 -217.5t71 -217.5t187 -82.5q60 0 120 28
l-74 62z" />
    <glyph glyph-name="R" unicode="R" horiz-adv-x="876" 
d="M360 81v-81h-281v81h94v567h-94v81h430q107 0 164.5 -50.5t57.5 -144.5q0 -62 -27 -103t-88 -71q32 -14 53.5 -33t31 -43t12.5 -45t3 -50q0 -9 -0.5 -26t-0.5 -25q0 -33 5 -57h86v-81h-160q-20 46 -20 119v65q0 67 -29 98.5t-91 31.5h-240v-233h94zM634 521q0 72 -38 99
t-105 27h-225v-251h225q74 0 108.5 30t34.5 95z" />
    <glyph glyph-name="S" unicode="S" horiz-adv-x="771" 
d="M392 59q59 0 95.5 13t56.5 33t27 43t7 43q0 82 -134 118l-181 48q-143 38 -143 170q0 49 18 89t51.5 67.5t81.5 42.5t108 15q22 0 46 -1.5t47.5 -8.5t47 -20t45.5 -36v72h87v-232h-94q-1 72 -47.5 110t-134.5 38q-75 0 -119 -34t-44 -89q0 -42 27 -66t93 -42l183 -49
q75 -20 115 -68t40 -115q0 -33 -12.5 -72t-45 -72.5t-87.5 -56t-140 -22.5q-48 0 -98.5 10.5t-92 39t-69 78t-28.5 127.5h88v-5q0 -28 9 -57.5t32 -54t63 -40.5t102 -16z" />
    <glyph glyph-name="T" unicode="T" horiz-adv-x="678" 
d="M296 81v566h-151v-101h-89v183h572v-183h-89v101h-150v-566h94v-81h-281v81h94z" />
    <glyph glyph-name="U" unicode="U" horiz-adv-x="876" 
d="M341 729v-81h-94v-431q0 -79 50.5 -118.5t135.5 -39.5q88 0 138 42t50 116v431h-94v81h281v-81h-94v-431q0 -110 -76.5 -175t-204.5 -65q-130 0 -204.5 64.5t-74.5 175.5v431h-94v81h187h94z" />
    <glyph glyph-name="V" unicode="V" horiz-adv-x="823" 
d="M466 0h-100l-233 648h-83v81h248v-81h-66l186 -536l175 536h-67v81h247v-81h-82z" />
    <glyph glyph-name="W" unicode="W" horiz-adv-x="1033" 
d="M1023 729v-81h-74l-164 -648h-102l-168 599l-163 -599h-102l-166 648h-74v81h251v-81h-76l119 -511l162 592h100l166 -592l115 511h-75v81h251z" />
    <glyph glyph-name="X" unicode="X" horiz-adv-x="855" 
d="M321 81v-81h-251v81h100l202 293l-187 274h-99v81h251v-81h-41l134 -205l135 205h-41v81h249v-81h-100l-190 -274l202 -293h100v-81h-253v81h41l-146 223l-147 -223h41z" />
    <glyph glyph-name="Y" unicode="Y" horiz-adv-x="786" 
d="M298 729v-81h-65l165 -274l160 274h-66v81h259v-81h-84l-224 -362v-205h94v-81h-281v81h94v205l-230 362h-85v81h263z" />
    <glyph glyph-name="Z" unicode="Z" horiz-adv-x="731" 
d="M201 647v-81h-94v163h525v-84l-436 -563h344v81h94v-163h-555v82l438 565h-316z" />
    <glyph glyph-name="bracketleft" unicode="[" horiz-adv-x="278" 
d="M250 729v-72h-103v-797h103v-72h-186v941h186z" />
    <glyph glyph-name="backslash" unicode="\" horiz-adv-x="278" 
d="M47 729l237 -749h-55l-237 749h55z" />
    <glyph glyph-name="bracketright" unicode="]" horiz-adv-x="278" 
d="M23 -212v72h103v797h-103v72h186v-941h-186z" />
    <glyph glyph-name="asciicircum" unicode="^" horiz-adv-x="469" 
d="M197 709h73l155 -380h-69l-122 300l-121 -300h-69z" />
    <glyph glyph-name="underscore" unicode="_" horiz-adv-x="556" 
d="M578 -126v-50h-600v50h600z" />
    <glyph glyph-name="grave" unicode="`" horiz-adv-x="333" 
d="M135 740l96 -148h-60l-149 148h113z" />
    <glyph glyph-name="a" unicode="a" horiz-adv-x="612" 
d="M580 68v-68h-144v69q-34 -49 -73.5 -70.5t-93.5 -21.5q-106 0 -167 76.5t-61 209.5q0 125 61.5 200.5t163.5 75.5q108 0 161 -81v67h83v-457h70zM280 461q-68 0 -110 -56t-42 -147q0 -92 42 -147.5t111 -55.5q66 0 106 55t40 146q0 94 -40 149.5t-107 55.5z" />
    <glyph glyph-name="b" unicode="b" horiz-adv-x="624" 
d="M106 0v661h-71v68h154v-276q57 86 161.5 86t164.5 -74t60 -202.5t-62 -207t-167.5 -78.5t-164.5 90v-67h-75zM488 257q0 92 -41.5 148t-109.5 56t-108 -55.5t-40 -147.5t40 -147.5t107 -55.5t109.5 55.5t42.5 146.5z" />
    <glyph glyph-name="c" unicode="c" horiz-adv-x="551" 
d="M282 539q17 0 35 -3.5t36 -11t34.5 -20.5t30.5 -33v71h71v-194h-84q-8 55 -40 84.5t-84 29.5q-69 0 -107 -55t-38 -154q0 -94 39 -146.5t108 -52.5q107 0 128 126h84q-8 -97 -64 -150t-150 -53q-107 0 -170 74q-62 76 -62 202q0 130 63 208q64 78 170 78z" />
    <glyph glyph-name="d" unicode="d" horiz-adv-x="632" 
d="M289 461q-68 0 -110 -56t-42 -147q0 -92 42 -147.5t111 -55.5q66 0 106 55t40 146q0 94 -40 149.5t-107 55.5zM590 68v-68h-145v69q-34 -49 -73.5 -70.5t-93.5 -21.5q-106 0 -167 76.5t-61 209.5q0 125 61.5 200.5t163.5 75.5q108 0 161 -81l1 203h-72v68h154v-661h71z
" />
    <glyph glyph-name="e" unicode="e" horiz-adv-x="569" 
d="M522 234h-386q1 -72 28 -112q43 -68 126 -68q102 0 137 105h84q-16 -86 -75 -134t-149 -48q-110 0 -174 74.5t-64 203.5t65.5 206.5t174.5 77.5q74 0 130.5 -37t81.5 -101q21 -55 21 -167zM138 302h294q1 2 1 6q0 65 -42 109.5t-103 44.5q-63 0 -104 -43.5t-46 -116.5z
" />
    <glyph glyph-name="f" unicode="f" horiz-adv-x="351" 
d="M206 68h71v-68h-225v68h71v388h-70v68h70v89q0 56 32.5 87.5t90.5 31.5q23 0 47 -5v-69q-19 1 -29 1q-58 0 -58 -53v-82h87v-68h-87v-388z" />
    <glyph glyph-name="g" unicode="g" horiz-adv-x="614" 
d="M282 462q-67 0 -106 -55t-39 -149q0 -95 39 -149.5t107 -54.5q66 0 104 53.5t38 147.5q0 98 -37.5 152.5t-105.5 54.5zM510 456v-370q0 -75 -9 -125.5t-33 -93.5t-71.5 -64t-120.5 -21q-92 0 -147 42t-62 116h85q14 -88 127 -88q84 0 115 47.5t31 144.5v27
q-35 -50 -72.5 -72t-86.5 -22q-92 0 -154 75.5t-62 200.5q0 128 61.5 207t161.5 79q98 0 160 -91v76h148v-68h-71z" />
    <glyph glyph-name="h" unicode="h" horiz-adv-x="641" 
d="M117 661h-71v68h154v-277q37 48 74.5 67.5t93.5 19.5q76 0 120 -39q45 -37 45 -104v-328h71v-68h-154v363q0 55 -33.5 79t-74.5 24q-64 0 -103 -48.5t-39 -128.5v-221h71v-68h-225v68h71v593z" />
    <glyph glyph-name="i" unicode="i" horiz-adv-x="320" 
d="M208 729v-105h-84v105h84zM125 456v-388h-71v-68h225v68h-71v456h-154v-68h71z" />
    <glyph glyph-name="j" unicode="j" horiz-adv-x="304" 
d="M125 456h-71v68h154v-633q0 -109 -143 -109q-13 0 -28 3v71q17 -1 20 -1q38 0 53 15t15 54v532zM208 729v-105h-83v105h83z" />
    <glyph glyph-name="k" unicode="k" horiz-adv-x="608" 
d="M120 661h-71v68h154v-427l222 222h107l-182 -181l173 -275h72v-68h-134l-177 284l-81 -80v-204h-154v68h71v593z" />
    <glyph glyph-name="l" unicode="l" horiz-adv-x="314" 
d="M46 661v68h155v-661h71v-68h-226v68h71v593h-71z" />
    <glyph glyph-name="m" unicode="m" horiz-adv-x="914" 
d="M574 68v-68h-155v361q0 50 -25.5 77.5t-71.5 27.5q-51 0 -87 -40t-36 -97v-261h71v-68h-226v68h71v388h-71v68h148v-74q34 47 71.5 68t89.5 21q97 0 141 -80q37 44 73 62t88 18q73 0 112.5 -37.5t39.5 -108.5v-325h71v-68h-155v361q0 50 -25.5 77.5t-71.5 27.5
q-51 0 -87 -40t-36 -97v-261h71z" />
    <glyph glyph-name="n" unicode="n" horiz-adv-x="639" 
d="M603 68v-68h-154v363q0 47 -29 75t-79 28q-64 0 -103 -48.5t-39 -128.5v-221h71v-68h-226v68h71v388h-71v68h148v-88q35 55 75.5 79t98.5 24q76 0 121 -39t45 -104v-328h71z" />
    <glyph glyph-name="o" unicode="o" horiz-adv-x="571" 
d="M286 539q113 0 175.5 -74.5t62.5 -210.5q0 -129 -63.5 -203t-173.5 -74q-112 0 -174.5 74.5t-62.5 206.5t63 206.5t173 74.5zM287 462q-70 0 -110 -54.5t-40 -149.5t40 -149.5t110 -54.5q69 0 109.5 54.5t40.5 146.5q0 97 -39.5 152t-110.5 55z" />
    <glyph glyph-name="p" unicode="p" horiz-adv-x="620" 
d="M333 461q-66 0 -106 -55.5t-40 -147.5t40 -147.5t106 -55.5q68 0 110 55.5t42 144.5q0 94 -41.5 150t-110.5 56zM32 456v68h148v-79q59 94 167 94q104 0 164.5 -77t60.5 -209q0 -125 -61.5 -200.5t-162.5 -75.5q-97 0 -161 78v-205h71v-68h-226v68h71v606h-71z" />
    <glyph glyph-name="q" unicode="q" horiz-adv-x="623" 
d="M289 461q-69 0 -111 -56t-42 -147q0 -92 42 -147.5t111 -55.5q66 0 106 55t40 145q0 94 -39.5 150t-106.5 56zM518 -150h71v-68h-225v68h71v210q-57 -83 -162 -83q-104 0 -164 74t-60 201q0 130 62 208.5t166 78.5q107 0 167 -85v70h145v-68h-71v-606z" />
    <glyph glyph-name="r" unicode="r" horiz-adv-x="401" 
d="M44 456v68h148v-95q36 59 69.5 84.5t73.5 25.5q11 0 32 -3v-85q-84 -2 -126 -39q-41 -37 -42 -140l-1 -204h72v-68h-226v68h71v388h-71z" />
    <glyph glyph-name="s" unicode="s" horiz-adv-x="528" 
d="M140 156q6 -47 32.5 -74.5t95.5 -27.5q55 0 88.5 22.5t33.5 59.5q0 29 -19 46t-62 27l-78 19q-93 22 -129.5 55.5t-36.5 95.5q0 73 55 116.5t146 43.5t140 -42t50 -119h-88q-3 84 -105 84q-51 0 -81 -21.5t-30 -57.5q0 -28 23 -45.5t74 -29.5l80 -19q78 -19 113 -53.5
t35 -92.5q0 -76 -58.5 -121t-157.5 -45q-203 0 -209 179h88z" />
    <glyph glyph-name="t" unicode="t" horiz-adv-x="340" 
d="M285 524v-68h-86v-352q0 -28 9.5 -37.5t36.5 -9.5q25 0 40 4v-70q-39 -7 -68 -7q-49 0 -75 21.5t-26 61.5v389h-71v68h71v144h83v-144h86z" />
    <glyph glyph-name="u" unicode="u" horiz-adv-x="627" 
d="M31 456v68h154v-371q0 -47 29 -75t79 -28q65 0 104 48q39 49 39 129v229h-71v68h154v-456h71v-68h-146v73q-37 -52 -77 -74t-98 -22q-76 0 -121.5 39t-45.5 104v336h-71z" />
    <glyph glyph-name="v" unicode="v" horiz-adv-x="600" 
d="M25 456v68h165l140 -425l124 357h-47v68h165l-201 -524h-91l-160 456h-95z" />
    <glyph glyph-name="w" unicode="w" horiz-adv-x="896" 
d="M778 456l-134 -456h-95l-106 411l-101 -411h-94l-132 456h-91v68h234v-68h-53l89 -340l100 408h102l103 -408l87 340h-54v68h236v-68h-91z" />
    <glyph glyph-name="x" unicode="x" horiz-adv-x="620" 
d="M222 68h36v-68h-207v68h80l136 199l-129 189h-77v68h207v-68h-36l81 -122l82 122h-39v68h208v-68h-78l-129 -185l136 -203h76v-68h-209v68h37l-87 133z" />
    <glyph glyph-name="y" unicode="y" horiz-adv-x="576" 
d="M25 456v68h153l134 -408l121 340h-47v68h161l-233 -634q-41 -108 -135 -108q-31 0 -56 13v75q27 -6 44 -6q26 0 41 12q15 11 26 39l32 83l-154 458h-87z" />
    <glyph glyph-name="z" unicode="z" horiz-adv-x="520" 
d="M398 141h71v-141h-426v75l313 376h-221v-68h-71v141h391v-74l-311 -377h254v68z" />
    <glyph glyph-name="braceleft" unicode="{" horiz-adv-x="334" 
d="M276 729v-65h-15q-37 0 -50 -14t-13 -53v-181q0 -69 -18 -104t-64 -53q82 -38 82 -158v-181q0 -39 13 -53t50 -14h15v-65h-46q-52 0 -80.5 34.5t-28.5 96.5v167q0 69 -17 99t-61 39v69q44 9 61 38.5t17 99.5v167q0 62 28.5 96.5t80.5 34.5h46z" />
    <glyph glyph-name="bar" unicode="|" horiz-adv-x="260" 
d="M100 729h60v-941h-60v941z" />
    <glyph glyph-name="braceright" unicode="}" horiz-adv-x="334" 
d="M29 -212v65h16q37 0 50.5 14t13.5 53v181q0 120 82 157q-82 38 -82 158v181q0 39 -13.5 53t-50.5 14h-16v65h47q52 0 81 -34.5t29 -96.5v-167q0 -69 16.5 -99t59.5 -39v-69q-43 -9 -59.5 -39t-16.5 -99v-167q0 -62 -29 -96.5t-81 -34.5h-47z" />
    <glyph glyph-name="asciitilde" unicode="~" horiz-adv-x="584" 
d="M181 371q-47 0 -53 -78h-53q4 70 31.5 107.5t76.5 37.5q27 0 54 -16l117 -69q28 -17 50 -17q27 0 39 16.5t12 53.5v5h53v-16q0 -58 -28.5 -92.5t-76.5 -34.5q-39 0 -81 26l-98 63q-23 14 -43 14z" />
    <glyph glyph-name="uni0080" horiz-adv-x="578" 
d="M474 83h83v-83h-83v83zM65 369q6 170 210 170q97 0 147 -36.5t50 -106.5v-308q0 -41 45 -41q9 0 18 2v-63q-35 -9 -57 -9q-40 0 -60.5 18.5t-25.5 58.5q-84 -77 -178 -77q-79 0 -125.5 42t-46.5 113q0 23 4.5 42t10 33.5t19.5 27t23.5 20.5t32 15.5t34.5 11t42 8.5t44 7
t50 7q49 6 68 19t19 39v22q0 38 -30.5 58t-86.5 20q-58 0 -88 -22.5t-35 -70.5h-84zM232 50q69 0 113 36.5t44 78.5v94q-25 -12 -75.5 -20t-87.5 -14t-67 -28.5t-30 -62.5t27 -62t76 -22z" />
    <glyph glyph-name="nonbreakingspace" unicode="&#xa0;" horiz-adv-x="278" 
 />
    <glyph glyph-name="exclamdown" unicode="&#xa1;" horiz-adv-x="278" 
d="M122 -205v338l22 223h39l22 -223v-338h-83zM122 420v104h84v-104h-84z" />
    <glyph glyph-name="cent" unicode="&#xa2;" horiz-adv-x="556" 
d="M312 462v-409q96 11 114 127h84q-5 -90 -58 -144.5t-140 -58.5v-97h-42v98q-101 9 -159.5 82.5t-58.5 192.5q0 122 58.5 198t159.5 87v90h42v-89q88 -6 137.5 -55.5t54.5 -135.5h-84q-5 50 -33.5 80t-74.5 34zM270 55v406q-131 -24 -131 -208q0 -85 34.5 -136.5
t96.5 -61.5z" />
    <glyph glyph-name="sterling" unicode="&#xa3;" horiz-adv-x="556" 
d="M147 523q0 -28 7.5 -50t26.5 -53t25 -44h160v-55h-136q15 -43 15 -71q0 -39 -25.5 -80t-92.5 -109q59 39 122 39q33 0 85 -15.5t76 -15.5q40 0 83 30l42 -66q-57 -56 -131 -56q-43 0 -110 23t-102 23q-53 0 -109 -37l-48 66q69 59 97 102t28 89q0 38 -24 78h-110v55h81
q-34 57 -43.5 81.5t-9.5 57.5q0 91 68.5 152.5t169.5 61.5q29 0 55.5 -4.5t57.5 -19.5t53 -39.5t37.5 -68t16.5 -100.5h-88q-4 154 -136 154q-64 0 -102.5 -35t-38.5 -93z" />
    <glyph glyph-name="currency" unicode="&#xa4;" horiz-adv-x="556" 
d="M485 190l-58 -54l-53 53q-40 -30 -100 -30q-53 0 -94 25l-51 -51l-56 57l48 49q-32 43 -32 102q0 57 32 102l-54 55l56 53l55 -55q44 26 97 26q58 0 98 -28l59 53l57 -58l-55 -55q26 -41 26 -93q0 -50 -29 -97zM274 445q-44 0 -75 -31t-31 -74t31.5 -73.5t75.5 -30.5
q43 0 74.5 30.5t31.5 72.5q0 44 -31 75t-76 31z" />
    <glyph glyph-name="yen" unicode="&#xa5;" horiz-adv-x="556" 
d="M495 354v-51h-170v-77h170v-51h-170v-175h-88v175h-172v51h172v77h-172v51h151l-205 355h85l185 -322l179 322h85l-201 -355h151z" />
    <glyph glyph-name="brokenbar" unicode="&#xa6;" horiz-adv-x="260" 
d="M100 729h60v-401h-60v401zM100 189h60v-401h-60v401z" />
    <glyph glyph-name="section" unicode="&#xa7;" horiz-adv-x="556" 
d="M162 -14q0 -69 30.5 -95.5t71.5 -26.5q43 0 69.5 24t26.5 62q0 50 -55 88l-170 117q-49 34 -70.5 71t-21.5 86q0 50 25 85.5t80 64.5q-44 51 -44 102q0 69 53.5 117t131.5 48t126.5 -49t48.5 -128v-28h-84v26q0 47 -26.5 74.5t-70.5 27.5q-38 0 -63.5 -24t-25.5 -61
q0 -22 12.5 -39t44.5 -38l146 -94q61 -39 85 -76t24 -91q0 -115 -109 -156q30 -34 41.5 -60t11.5 -58q0 -72 -53.5 -120t-133.5 -48q-24 0 -47 4t-49 17.5t-45.5 34.5t-32 58t-12.5 85h85zM188 229l166 -123q73 39 73 102q0 61 -73 112l-161 109q-39 -26 -55 -48.5
t-16 -52.5t13 -50t53 -49z" />
    <glyph glyph-name="dieresis" unicode="&#xa8;" horiz-adv-x="333" 
d="M134 715v-103h-104v103h104zM296 715v-103h-104v103h104z" />
    <glyph glyph-name="copyright" unicode="&#xa9;" horiz-adv-x="737" 
d="M552 312q-6 -27 -9.5 -41t-17 -46t-30 -50t-48.5 -33.5t-72 -15.5q-86 0 -140 64.5t-54 166.5q0 105 54.5 170t142.5 65q131 0 166 -155h-71q-13 50 -35.5 71.5t-62.5 21.5q-57 0 -91 -46.5t-34 -125.5q0 -72 34.5 -121t90.5 -49q86 0 106 124h71zM751 361
q0 -160 -112.5 -271.5t-274.5 -111.5q-154 0 -265.5 113t-111.5 269q0 158 112 270t270 112t270 -111.5t112 -269.5zM55 360q0 -131 91.5 -225.5t218.5 -94.5q133 0 225.5 93.5t92.5 227.5q0 131 -92 225t-222 94t-222 -94t-92 -226z" />
    <glyph glyph-name="ordfeminine" unicode="&#xaa;" horiz-adv-x="370" 
d="M320 354v-51h-277v51h277zM333 449v-44q-16 -6 -32 -6q-47 0 -55 43q-49 -43 -105 -43q-48 0 -76 26t-28 70q0 49 34 73.5t123 31.5q28 2 38.5 9t10.5 24v13q0 44 -67 44q-34 0 -48.5 -12t-19.5 -44h-59q3 108 129 108q122 0 122 -94v-179q0 -23 23 -23q4 0 10 3z
M243 568q-19 -8 -60.5 -13t-64.5 -16.5t-23 -40.5q0 -47 57 -47q37 0 64 20t27 46v51z" />
    <glyph glyph-name="guillemotleft" unicode="&#xab;" horiz-adv-x="556" 
d="M98 227v89l152 122v-83l-106 -83l106 -83v-83zM303 227v89l152 122v-83l-106 -83l106 -83v-83z" />
    <glyph glyph-name="logicalnot" unicode="&#xac;" horiz-adv-x="584" 
d="M40 375h504v-289h-70v219h-434v70z" />
    <glyph glyph-name="softhyphen" unicode="&#xad;" horiz-adv-x="333" 
d="M284 312v-72h-238v72h238z" />
    <glyph glyph-name="registered" unicode="&#xae;" horiz-adv-x="737" 
d="M751 361q0 -160 -112.5 -271.5t-274.5 -111.5q-154 0 -265.5 113t-111.5 269q0 158 112 270t270 112t270 -111.5t112 -269.5zM55 360q0 -131 91.5 -225.5t218.5 -94.5q133 0 225.5 93.5t92.5 227.5q0 131 -92 225t-222 94t-222 -94t-92 -226zM495 360q27 -18 36.5 -41.5
t9.5 -55.5q0 -6 -0.5 -18.5t-0.5 -17.5q0 -45 23 -62v-25h-79q-15 35 -15 72v5l1 40q0 36 -15 52t-49 16h-134v-185h-70v445h206q141 0 141 -126q0 -34 -11.5 -55t-42.5 -44zM272 388h129q75 0 75 67q0 35 -17.5 51t-57.5 16h-129v-134z" />
    <glyph glyph-name="macron" unicode="&#xaf;" horiz-adv-x="333" 
d="M302 701v-70h-274v70h274z" />
    <glyph glyph-name="degree" unicode="&#xb0;" horiz-adv-x="606" 
d="M303 686q62 0 106.5 -44.5t44.5 -106.5q0 -64 -44.5 -108t-108.5 -44q-61 0 -105.5 45t-44.5 107t44.5 106.5t107.5 44.5zM208 535q0 -39 27.5 -67t65.5 -28q40 0 68 27.5t28 67.5q0 39 -27.5 66.5t-66.5 27.5t-67 -28t-28 -66z" />
    <glyph glyph-name="plusminus" unicode="&#xb1;" horiz-adv-x="584" 
d="M534 416v-70h-207v-207h-70v207h-207v70h207v207h70v-207h207zM534 59v-70h-484v70h484z" />
    <glyph glyph-name="twosuperior" unicode="&#xb2;" horiz-adv-x="351" 
d="M178 656q-26 0 -44 -9t-26.5 -25t-12 -30.5t-4.5 -34.5h-62q4 152 151 152q64 0 105 -35t41 -91q0 -82 -96 -129l-63 -32q-33 -17 -48.5 -34.5t-24.5 -45.5h229v-58h-304q4 73 29.5 111t97.5 76l58 31q59 32 59 79q0 32 -24.5 53.5t-60.5 21.5z" />
    <glyph glyph-name="threesuperior" unicode="&#xb3;" horiz-adv-x="351" 
d="M169 656q-46 0 -63.5 -22.5t-17.5 -66.5h-63q3 142 144 142q64 0 101.5 -32t37.5 -88q0 -59 -57 -85q71 -24 71 -100q0 -61 -42.5 -97.5t-112.5 -36.5q-72 0 -111.5 37t-39.5 105h62q2 -46 24 -67.5t67 -21.5q42 0 66 21.5t24 59.5q0 27 -16 46.5t-42 23.5q-15 2 -66 2
v51q64 0 87 13t23 48q0 32 -20.5 50t-55.5 18z" />
    <glyph glyph-name="acute" unicode="&#xb4;" horiz-adv-x="333" 
d="M188 740h113l-149 -148h-60z" />
    <glyph glyph-name="micro" unicode="&#xb5;" horiz-adv-x="556" 
d="M544 49v-63q-33 -9 -57 -9q-83 0 -86 83q-59 -83 -163 -83q-54 0 -90 26v-223h-83v744h83v-371q0 -47 29 -75t78 -28q65 0 104 48.5t39 128.5v297h83v-436q0 -41 45 -41q8 0 18 2z" />
    <glyph glyph-name="paragraph" unicode="&#xb6;" horiz-adv-x="537" 
d="M255 259q-97 5 -152 70.5t-55 159.5q0 101 65 170.5t159 69.5h250v-64h-57v-842h-64v842h-82v-842h-64v436z" />
    <glyph glyph-name="periodcentered" unicode="&#xb7;" horiz-adv-x="278" 
d="M211 427v-125h-124v125h124z" />
    <glyph glyph-name="cedilla" unicode="&#xb8;" horiz-adv-x="333" 
d="M60 -140q25 -13 50 -23t48 -10t38.5 13t15.5 32q0 37 -46 37q-15 0 -31 -8l-12 7l42 92h38l-23 -56q13 2 28 2q38 0 58.5 -17.5t20.5 -49.5q0 -43 -33 -68t-90 -25q-47 0 -125 34z" />
    <glyph glyph-name="onesuperior" unicode="&#xb9;" horiz-adv-x="240" 
d="M139 580h-99v46l15 1q54 5 72 19.5t31 62.5h43v-425h-62v296z" />
    <glyph glyph-name="ordmasculine" unicode="&#xba;" horiz-adv-x="365" 
d="M314 354v-51h-263v51h263zM182 742q68 0 105 -45t37 -129q0 -79 -37.5 -124t-104.5 -45t-104.5 45t-37.5 127q0 81 37.5 126t104.5 45zM182 690q-39 0 -61.5 -32t-22.5 -87q0 -56 22.5 -88t61.5 -32t61.5 31.5t22.5 86.5q0 57 -22 89t-62 32z" />
    <glyph glyph-name="guillemotright" unicode="&#xbb;" horiz-adv-x="556" 
d="M252 317v-89l-154 -122v83l108 83l-108 83v83zM451 317v-89l-154 -122v83l108 83l-108 83v83z" />
    <glyph glyph-name="onequarter" unicode="&#xbc;" horiz-adv-x="869" 
d="M160 580h-99v46l15 1q54 5 72 19.5t31 62.5h43v-425h-62v296zM643 709h58l-452 -729h-58zM720 100h-188v59l204 266h46v-272h67v-53h-67v-100h-62v100zM720 153v170l-129 -170h129z" />
    <glyph glyph-name="onehalf" unicode="&#xbd;" horiz-adv-x="869" 
d="M160 580h-99v46l15 1q54 5 72 19.5t31 62.5h43v-425h-62v296zM619 709h58l-452 -729h-58zM696 372q-26 0 -44 -9t-26.5 -25t-12 -30.5t-4.5 -34.5h-62q4 152 151 152q64 0 105 -35t41 -91q0 -82 -96 -129l-63 -32q-33 -17 -48.5 -34.5t-24.5 -45.5h229v-58h-304
q4 73 29.5 111t97.5 76l58 31q59 32 59 79q0 32 -24.5 53.5t-60.5 21.5z" />
    <glyph glyph-name="threequarters" unicode="&#xbe;" horiz-adv-x="869" 
d="M169 656q-46 0 -63.5 -22.5t-17.5 -66.5h-63q3 142 144 142q64 0 101.5 -32t37.5 -88q0 -59 -57 -85q71 -24 71 -100q0 -61 -42.5 -97.5t-112.5 -36.5q-72 0 -111.5 37t-39.5 105h62q2 -46 24 -67.5t67 -21.5q42 0 66 21.5t24 59.5q0 27 -16 46.5t-42 23.5q-15 2 -66 2
v51q64 0 87 13t23 48q0 32 -20.5 50t-55.5 18zM653 709h58l-452 -729h-58zM720 100h-188v59l204 266h46v-272h67v-53h-67v-100h-62v100zM720 153v170l-129 -170h129z" />
    <glyph glyph-name="questiondown" unicode="&#xbf;" horiz-adv-x="556" 
d="M96 -25q0 46 18.5 83t44.5 61.5t52.5 47t45 51t18.5 60.5v47h90v-55q0 -37 -18.5 -70t-45 -57t-52.5 -48t-44.5 -54.5t-18.5 -65.5q0 -51 35 -82.5t93 -31.5q73 0 101 41t28 115h85q0 -115 -55.5 -174.5t-163.5 -59.5q-97 0 -155 52t-58 140zM275 420v104h90v-104h-90z
" />
    <glyph glyph-name="Agrave" unicode="&#xc0;" horiz-adv-x="949" 
d="M593 0v81h66l-47 138h-281l-49 -138h66v-81h-287v81h123l202 567h-65v81h214l228 -648h122v-81h-292zM586 297l-112 332l-120 -332h232zM415 939l96 -148h-60l-149 148h113z" />
    <glyph glyph-name="Aacute" unicode="&#xc1;" horiz-adv-x="964" 
d="M602 0v81h66l-47 138h-281l-49 -138h66v-81h-287v81h123l202 567h-65v81h214l228 -648h122v-81h-292zM595 297l-112 332l-120 -332h232zM531 939h113l-149 -148h-60z" />
    <glyph glyph-name="Acircumflex" unicode="&#xc2;" horiz-adv-x="904" 
d="M393 940h95l96 -150h-63l-81 96l-79 -96h-64zM542 0v81h96l-47 138h-281l-49 -138h96v-81h-287v81h93l202 567h-65v81h214l228 -648h92v-81h-292zM565 297l-112 332l-120 -332h232z" />
    <glyph glyph-name="Atilde" unicode="&#xc3;" horiz-adv-x="949" 
d="M372 905q25 0 69 -18.5t64 -18.5q25 0 37 37h58q-15 -104 -89 -104q-20 0 -70 19t-64 19q-23 0 -33 -37h-58q8 49 30.5 76t55.5 27zM563 0v81h96l-47 138h-281l-49 -138h96v-81h-287v81h93l202 567h-65v81h214l228 -648h92v-81h-292zM586 297l-112 332l-120 -332h232z
" />
    <glyph glyph-name="Adieresis" unicode="&#xc4;" horiz-adv-x="949" 
d="M460 904v-103h-104v103h104zM622 904v-103h-104v103h104zM563 0v81h96l-47 138h-281l-49 -138h96v-81h-287v81h93l202 567h-65v81h214l228 -648h92v-81h-292zM586 297l-112 332l-120 -332h232z" />
    <glyph glyph-name="Aring" unicode="&#xc5;" horiz-adv-x="949" 
d="M487 953q37 0 62.5 -25.5t25.5 -62.5q0 -36 -26 -61.5t-62 -25.5t-62 26t-26 62q0 35 26 61t62 26zM487 909q-18 0 -31 -13t-13 -30q0 -18 13 -31t31 -13t31 13t13 30q0 19 -12.5 31.5t-31.5 12.5zM563 0v81h96l-47 138h-281l-49 -138h96v-81h-287v81h93l202 567h-65v81
h214l228 -648h92v-81h-292zM586 297l-112 332l-120 -332h232z" />
    <glyph glyph-name="AE" unicode="&#xc6;" horiz-adv-x="1161" 
d="M70 81h89l266 648h622v-163h-94v81h-277v-233h352v-82h-352v-250h295v82h94v-164h-482v214h-269l-53 -133h96v-81h-287v81zM583 296v351h-100l-138 -351h238z" />
    <glyph glyph-name="Ccedilla" unicode="&#xc7;" horiz-adv-x="821" 
d="M420 58q90 0 137.5 50t65.5 158h96q-33 -289 -298 -289l-13 -33q7 1 13.5 1.5t14.5 0.5q79 0 79 -67q0 -43 -33 -68t-90 -25q-50 0 -125 34l21 40q19 -10 46 -21.5t52 -11.5q23 0 38.5 13t15.5 32q0 37 -46 37q-13 0 -31 -8l-11 7l31 69q-28 4 -49.5 9t-36.5 10
q-30 10 -63 33q-69 49 -106.5 135t-37.5 192q0 51 8.5 99t32.5 102q24 52 59 92q36 40 96.5 66t136.5 26q60 0 107 -18t87 -66v85h88l-1 -239h-95q-16 78 -62 117t-134 39q-108 0 -169 -81q-61 -80 -61 -221q0 -138 64 -218q64 -81 173 -81z" />
    <glyph glyph-name="Egrave" unicode="&#xc8;" horiz-adv-x="792" 
d="M173 730h505v-163h-94v81h-318v-233h397v-82h-397v-250h336v81h94v-163h-617v81h94v567h-94v81h94zM369 939l96 -148h-60l-149 148h113z" />
    <glyph glyph-name="Eacute" unicode="&#xc9;" horiz-adv-x="792" 
d="M173 730h505v-163h-94v81h-318v-233h397v-82h-397v-250h336v81h94v-163h-617v81h94v567h-94v81h94zM355 939h113l-149 -148h-60z" />
    <glyph glyph-name="Ecircumflex" unicode="&#xca;" horiz-adv-x="792" 
d="M360 939h95l96 -150h-63l-81 96l-79 -96h-64zM173 730h505v-183h-89v101h-323v-233h397v-82h-397v-250h341v101h89v-183h-617v81h94v567h-94v81h94z" />
    <glyph glyph-name="Edieresis" unicode="&#xcb;" horiz-adv-x="792" 
d="M367 904v-103h-104v103h104zM529 904v-103h-104v103h104zM173 730h505v-183h-89v101h-323v-233h397v-82h-397v-250h341v101h89v-183h-617v81h94v567h-94v81h94z" />
    <glyph glyph-name="Igrave" unicode="&#xcc;" horiz-adv-x="436" 
d="M173 729h94h94v-81h-94v-567h94v-81h-282v81h94v567h-94v81h94zM192 939l96 -148h-60l-149 148h113z" />
    <glyph glyph-name="Iacute" unicode="&#xcd;" horiz-adv-x="436" 
d="M173 729h94h94v-81h-94v-567h94v-81h-282v81h94v567h-94v81h94zM246 939h113l-149 -148h-60z" />
    <glyph glyph-name="Icircumflex" unicode="&#xce;" horiz-adv-x="441" 
d="M175 940h95l96 -150h-63l-81 96l-79 -96h-64zM268 729h94v-81h-94v-567h94v-81h-282v81h94v567h-94v81h188z" />
    <glyph glyph-name="Idieresis" unicode="&#xcf;" horiz-adv-x="436" 
d="M197 904v-103h-104v103h104zM359 904v-103h-104v103h104zM267 729h94v-81h-94v-567h94v-81h-282v81h94v567h-94v81h188z" />
    <glyph glyph-name="Eth" unicode="&#xd0;" horiz-adv-x="722" 
d="M89 339h-69v67h69v323h282q138 0 217 -97t79 -267t-79 -267.5t-217 -97.5h-282v339zM182 339v-257h173q107 0 163 72t56 211t-56 210.5t-163 71.5h-173v-241h171v-67h-171z" />
    <glyph glyph-name="Ntilde" unicode="&#xd1;" horiz-adv-x="894" 
d="M385 905q25 0 69 -18.5t64 -18.5q25 0 37 37h58q-15 -104 -89 -104q-20 0 -70 19t-64 19q-23 0 -33 -37h-58q8 49 30.5 76t55.5 27zM355 81v-81h-276v81h94v567h-94v81h195l381 -596v596h88h94v-81h-94v-648h-105l-377 591v-510h94z" />
    <glyph glyph-name="Ograve" unicode="&#xd2;" horiz-adv-x="884" 
d="M411 939l96 -148h-60l-149 148h113zM794 353q0 -162 -96 -269t-256 -107q-158 0 -255 105.5t-97 276.5t97 276.5t254 105.5q160 0 256.5 -106t96.5 -282zM441 659q-116 0 -187 -82.5t-71 -217.5t71.5 -217.5t187.5 -82.5t187.5 82t71.5 214q0 138 -71 221t-189 83z" />
    <glyph glyph-name="Oacute" unicode="&#xd3;" horiz-adv-x="884" 
d="M469 939h113l-149 -148h-60zM794 353q0 -162 -96 -269t-256 -107q-158 0 -255 105.5t-97 276.5t97 276.5t254 105.5q160 0 256.5 -106t96.5 -282zM441 659q-116 0 -187 -82.5t-71 -217.5t71.5 -217.5t187.5 -82.5t187.5 82t71.5 214q0 138 -71 221t-189 83z" />
    <glyph glyph-name="Ocircumflex" unicode="&#xd4;" horiz-adv-x="884" 
d="M395 940h95l96 -150h-63l-81 96l-79 -96h-64zM794 353q0 -162 -96 -269t-256 -107q-158 0 -255 105.5t-97 276.5t97 276.5t254 105.5q160 0 256.5 -106t96.5 -282zM441 659q-116 0 -187 -82.5t-71 -217.5t71.5 -217.5t187.5 -82.5t187.5 82t71.5 214q0 138 -71 221
t-189 83z" />
    <glyph glyph-name="Otilde" unicode="&#xd5;" horiz-adv-x="916" 
d="M386 905q25 0 69 -18.5t64 -18.5q25 0 37 37h58q-15 -104 -89 -104q-20 0 -70 19t-64 19q-23 0 -33 -37h-58q8 49 30.5 76t55.5 27zM810 353q0 -162 -96 -269t-256 -107q-158 0 -255 105.5t-97 276.5t97 276.5t254 105.5q160 0 256.5 -106t96.5 -282zM457 659
q-116 0 -187 -82.5t-71 -217.5t71.5 -217.5t187.5 -82.5t187.5 82t71.5 214q0 138 -71 221t-189 83z" />
    <glyph glyph-name="Odieresis" unicode="&#xd6;" horiz-adv-x="884" 
d="M412 904v-103h-104v103h104zM574 904v-103h-104v103h104zM794 353q0 -162 -96 -269t-256 -107q-158 0 -255 105.5t-97 276.5t97 276.5t254 105.5q160 0 256.5 -106t96.5 -282zM441 659q-116 0 -187 -82.5t-71 -217.5t71.5 -217.5t187.5 -82.5t187.5 82t71.5 214
q0 138 -71 221t-189 83z" />
    <glyph glyph-name="multiply" unicode="&#xd7;" horiz-adv-x="584" 
d="M438 427l49 -50l-146 -146l147 -147l-50 -50l-147 147l-146 -146l-50 49l147 147l-146 146l49 49l146 -145z" />
    <glyph glyph-name="Oslash" unicode="&#xd8;" horiz-adv-x="894" 
d="M90 19l81 89q-76 106 -76 252q0 170 97.5 275.5t254.5 105.5q137 0 230 -81l87 95l40 -36l-89 -97q84 -106 84 -264q0 -170 -97.5 -275.5t-254.5 -105.5q-144 0 -241 90l-77 -84zM234 176l384 419q-73 64 -171 64q-116 0 -187.5 -82.5t-71.5 -216.5q0 -104 46 -184z
M653 554l-387 -421q74 -74 181 -74q116 0 187.5 82.5t71.5 216.5q0 114 -53 196z" />
    <glyph glyph-name="Ugrave" unicode="&#xd9;" horiz-adv-x="876" 
d="M154 729h93h94v-81h-94v-431q0 -79 50.5 -118.5t135.5 -39.5q88 0 138 42t50 116v431h-94v81h94h187v-81h-94v-431q0 -110 -76.5 -175t-204.5 -65q-130 0 -204.5 64.5t-74.5 175.5v431h-94v81h94zM397 939l96 -148h-60l-149 148h113z" />
    <glyph glyph-name="Uacute" unicode="&#xda;" horiz-adv-x="876" 
d="M154 729h93h94v-81h-94v-431q0 -79 50.5 -118.5t135.5 -39.5q88 0 138 42t50 116v431h-94v81h281v-81h-94v-431q0 -110 -76.5 -175t-204.5 -65q-130 0 -204.5 64.5t-74.5 175.5v431h-94v81h94zM450 939h113l-149 -148h-60z" />
    <glyph glyph-name="Ucircumflex" unicode="&#xdb;" horiz-adv-x="876" 
d="M381 939h95l96 -150h-63l-81 96l-79 -96h-64zM341 729v-81h-94v-431q0 -79 50.5 -118.5t135.5 -39.5q88 0 138 42t50 116v431h-94v81h281v-81h-94v-431q0 -110 -76.5 -175t-204.5 -65q-130 0 -204.5 64.5t-74.5 175.5v431h-94v81h187h94z" />
    <glyph glyph-name="Udieresis" unicode="&#xdc;" horiz-adv-x="876" 
d="M399 904v-103h-104v103h104zM561 904v-103h-104v103h104zM341 729v-81h-94v-431q0 -79 50.5 -118.5t135.5 -39.5q88 0 138 42t50 116v431h-94v81h281v-81h-94v-431q0 -110 -76.5 -175t-204.5 -65q-130 0 -204.5 64.5t-74.5 175.5v431h-94v81h187h94z" />
    <glyph glyph-name="Yacute" unicode="&#xdd;" horiz-adv-x="897" 
d="M450 939h113l-149 -148h-60zM566 81v-81h-94v81h94zM379 81v-81h-94v81h94zM472 286v-286h-93v286l-281 443h115l214 -355l208 355h111zM781 729v-81h-104v81h104zM636 729v-81h-114v81h114zM328 729v-81h-114v81h114zM179 729v-81h-114v81h114z" />
    <glyph glyph-name="Thorn" unicode="&#xde;" horiz-adv-x="666" 
d="M184 189v-189h-93v729h93v-120h208q104 0 164 -56.5t60 -155.5q0 -91 -57 -149.5t-146 -58.5h-229zM184 271h194q65 0 101.5 34t36.5 94t-36.5 94t-101.5 34h-194v-256z" />
    <glyph glyph-name="germandbls" unicode="&#xdf;" horiz-adv-x="611" 
d="M294 427q155 0 155 113q0 51 -39.5 81.5t-112.5 30.5q-80 0 -111 -36t-31 -106v-510h-88v532q0 89 60.5 142.5t170.5 53.5t174.5 -49t64.5 -131q0 -34 -8.5 -61t-25 -45t-25 -25t-23.5 -17q52 -14 84 -65t32 -101q0 -127 -69 -188t-183 -61q-20 0 -53 7v75q22 -3 44 -3
q170 0 170 150q0 140 -170 140h-16v73z" />
    <glyph glyph-name="agrave" unicode="&#xe0;" horiz-adv-x="612" 
d="M265 740l96 -148h-60l-149 148h113zM580 68v-68h-144v69q-34 -49 -73.5 -70.5t-93.5 -21.5q-106 0 -167 76.5t-61 209.5q0 125 61.5 200.5t163.5 75.5q108 0 161 -81v67h83v-457h70zM280 461q-68 0 -110 -56t-42 -147q0 -92 42 -147.5t111 -55.5q66 0 106 55t40 146
q0 94 -40 149.5t-107 55.5z" />
    <glyph glyph-name="aacute" unicode="&#xe1;" horiz-adv-x="612" 
d="M318 739h113l-149 -148h-60zM580 68v-68h-144v69q-34 -49 -73.5 -70.5t-93.5 -21.5q-106 0 -167 76.5t-61 209.5q0 125 61.5 200.5t163.5 75.5q108 0 161 -81v67h83v-457h70zM280 461q-68 0 -110 -56t-42 -147q0 -92 42 -147.5t111 -55.5q66 0 106 55t40 146
q0 94 -40 149.5t-107 55.5z" />
    <glyph glyph-name="acircumflex" unicode="&#xe2;" horiz-adv-x="612" 
d="M246 741h95l96 -150h-63l-81 96l-79 -96h-64zM580 68v-68h-144v69q-34 -49 -73.5 -70.5t-93.5 -21.5q-106 0 -167 76.5t-61 209.5q0 125 61.5 200.5t163.5 75.5q108 0 161 -81v67h83v-457h70zM280 461q-68 0 -110 -56t-42 -147q0 -92 42 -147.5t111 -55.5q66 0 106 55
t40 146q0 94 -40 149.5t-107 55.5z" />
    <glyph glyph-name="atilde" unicode="&#xe3;" horiz-adv-x="612" 
d="M216 704q25 0 69 -18.5t64 -18.5q25 0 37 37h58q-15 -104 -89 -104q-20 0 -70 19t-64 19q-23 0 -33 -37h-58q8 49 30.5 76t55.5 27zM580 68v-68h-144v69q-34 -49 -73.5 -70.5t-93.5 -21.5q-106 0 -167 76.5t-61 209.5q0 125 61.5 200.5t163.5 75.5q108 0 161 -81v67h83
v-457h70zM280 461q-68 0 -110 -56t-42 -147q0 -92 42 -147.5t111 -55.5q66 0 106 55t40 146q0 94 -40 149.5t-107 55.5z" />
    <glyph glyph-name="adieresis" unicode="&#xe4;" horiz-adv-x="612" 
d="M277 703v-103h-104v103h104zM439 703v-103h-104v103h104zM580 68v-68h-144v69q-34 -49 -73.5 -70.5t-93.5 -21.5q-106 0 -167 76.5t-61 209.5q0 125 61.5 200.5t163.5 75.5q108 0 161 -81v67h83v-457h70zM280 461q-68 0 -110 -56t-42 -147q0 -92 42 -147.5t111 -55.5
q66 0 106 55t40 146q0 94 -40 149.5t-107 55.5z" />
    <glyph glyph-name="aring" unicode="&#xe5;" horiz-adv-x="612" 
d="M303 754q37 0 62.5 -25.5t25.5 -62.5q0 -36 -26 -61.5t-62 -25.5t-62 26t-26 62q0 35 26 61t62 26zM303 710q-18 0 -31 -13t-13 -30q0 -18 13 -31t31 -13t31 13t13 30q0 19 -12.5 31.5t-31.5 12.5zM580 68v-68h-144v69q-34 -49 -73.5 -70.5t-93.5 -21.5q-106 0 -167 76.5
t-61 209.5q0 125 61.5 200.5t163.5 75.5q108 0 161 -81v67h83v-457h70zM280 461q-68 0 -110 -56t-42 -147q0 -92 42 -147.5t111 -55.5q66 0 106 55t40 146q0 94 -40 149.5t-107 55.5z" />
    <glyph glyph-name="ae" unicode="&#xe6;" horiz-adv-x="889" 
d="M459 234q1 -52 16 -89.5t39 -56t48.5 -26.5t50.5 -8q101 0 138 105h84q-16 -85 -75 -133.5t-148 -48.5q-58 0 -105 22t-73 61q-4 6 -16 27q-56 -58 -106.5 -84t-109.5 -26q-76 0 -122 42t-46 113q0 38 13 66.5t34 46.5t56 30t70.5 18t86.5 10t69 17t18 42v22
q0 78 -118 78q-112 0 -122 -93h-84q6 170 208 170q128 0 175 -82q27 38 73 60t100 22q73 0 129 -37t82 -101q21 -55 21 -167h-386zM221 50q70 0 115 40.5t45 66.5v101q-30 -13 -81.5 -21.5t-87 -13.5t-63.5 -27t-28 -62q0 -39 27 -61.5t73 -22.5zM461 302h294
q0 71 -40 115.5t-104 44.5q-63 0 -104 -43.5t-46 -116.5z" />
    <glyph glyph-name="ccedilla" unicode="&#xe7;" horiz-adv-x="551" 
d="M243 -21q-54 10 -92.5 38t-57.5 58q-20 32 -30 71q-5 20 -7.5 35t-4 27t-2 22.5t-0.5 22.5q0 130 63 208q64 78 170 78q91 0 136 -68v71h71v-194h-84q-8 55 -40 84.5t-84 29.5q-69 0 -107 -55t-38 -155q0 -94 39 -146.5t108 -52.5q107 0 128 127h84q-3 -47 -19 -84.5
t-44 -64t-66 -40.5t-84 -14l-13 -33q7 1 14 1.5t14 0.5q37 0 58 -17.5t21 -49.5q0 -43 -33 -68t-90 -25q-47 0 -125 33l21 41q19 -10 46 -21.5t52 -11.5q23 0 38.5 13t15.5 32q0 37 -46 37q-13 0 -31 -8l-12 7z" />
    <glyph glyph-name="egrave" unicode="&#xe8;" horiz-adv-x="569" 
d="M262 740l96 -148h-60l-149 148h113zM522 234h-386q1 -72 28 -112q43 -68 126 -68q102 0 137 105h84q-16 -86 -75 -134t-149 -48q-110 0 -174 74.5t-64 203.5t65.5 206.5t174.5 77.5q74 0 130.5 -37t81.5 -101q21 -55 21 -167zM138 302h294q1 2 1 6q0 65 -42 109.5
t-103 44.5q-63 0 -104 -43.5t-46 -116.5z" />
    <glyph glyph-name="eacute" unicode="&#xe9;" horiz-adv-x="569" 
d="M317 739h113l-149 -148h-60zM522 234h-386q1 -72 28 -112q43 -68 126 -68q102 0 137 105h84q-16 -86 -75 -134t-149 -48q-110 0 -174 74.5t-64 203.5t65.5 206.5t174.5 77.5q74 0 130.5 -37t81.5 -101q21 -55 21 -167zM138 302h294q1 2 1 6q0 65 -42 109.5t-103 44.5
q-63 0 -104 -43.5t-46 -116.5z" />
    <glyph glyph-name="ecircumflex" unicode="&#xea;" horiz-adv-x="569" 
d="M237 742h95l96 -150h-63l-81 96l-79 -96h-64zM522 234h-386q1 -72 28 -112q43 -68 126 -68q102 0 137 105h84q-16 -86 -75 -134t-149 -48q-110 0 -174 74.5t-64 203.5t65.5 206.5t174.5 77.5q74 0 130.5 -37t81.5 -101q21 -55 21 -167zM138 302h294q1 2 1 6
q0 65 -42 109.5t-103 44.5q-63 0 -104 -43.5t-46 -116.5z" />
    <glyph glyph-name="edieresis" unicode="&#xeb;" horiz-adv-x="569" 
d="M257 703v-103h-104v103h104zM419 703v-103h-104v103h104zM522 234h-386q1 -72 28 -112q43 -68 126 -68q102 0 137 105h84q-16 -86 -75 -134t-149 -48q-110 0 -174 74.5t-64 203.5t65.5 206.5t174.5 77.5q74 0 130.5 -37t81.5 -101q21 -55 21 -167zM138 302h294q1 2 1 6
q0 65 -42 109.5t-103 44.5q-63 0 -104 -43.5t-46 -116.5z" />
    <glyph glyph-name="igrave" unicode="&#xec;" horiz-adv-x="347" 
d="M167 738l96 -148h-60l-149 148h113zM152 455v-388h-71v-68h225v68h-71v456h-154v-68h71z" />
    <glyph glyph-name="iacute" unicode="&#xed;" horiz-adv-x="346" 
d="M192 739h113l-149 -148h-60zM125 456v-388h-71v-68h225v68h-71v456h-154v-68h71z" />
    <glyph glyph-name="icircumflex" unicode="&#xee;" horiz-adv-x="382" 
d="M134 741h95l96 -150h-63l-81 96l-79 -96h-64zM156 456v-388h-71v-68h225v68h-71v456h-154v-68h71z" />
    <glyph glyph-name="idieresis" unicode="&#xef;" horiz-adv-x="361" 
d="M158 702v-103h-104v103h104zM320 702v-103h-104v103h104zM146 456v-388h-71v-68h225v68h-71v456h-154v-68h71z" />
    <glyph glyph-name="eth" unicode="&#xf0;" horiz-adv-x="556" 
d="M36 258q0 64 14.5 114.5t37 80.5t52.5 49.5t58 27t56 7.5q24 0 63 -13q-39 40 -98 89l-97 -45l-36 39l85 40q-30 23 -82 52l44 44q37 -16 111 -63l97 45l40 -37l-90 -41q30 -23 51 -40.5t56 -56t56.5 -76.5t38.5 -95.5t17 -119.5q0 -135 -62 -208.5t-175 -73.5t-175 73.5
t-62 207.5zM273 462q-70 0 -110 -54.5t-40 -149.5t40 -149.5t110 -54.5q69 0 109.5 54.5t40.5 146.5q0 97 -39.5 152t-110.5 55z" />
    <glyph glyph-name="ntilde" unicode="&#xf1;" horiz-adv-x="639" 
d="M237 704q25 0 69 -18.5t64 -18.5q25 0 37 37h58q-15 -104 -89 -104q-20 0 -70 19t-64 19q-23 0 -33 -37h-58q8 49 30.5 76t55.5 27zM603 68v-68h-154v363q0 47 -29 75t-79 28q-64 0 -103 -48.5t-39 -128.5v-221h71v-68h-226v68h71v388h-71v68h148v-88q35 55 75.5 79
t98.5 24q76 0 121 -39t45 -104v-328h71z" />
    <glyph glyph-name="ograve" unicode="&#xf2;" horiz-adv-x="571" 
d="M258 741l96 -148h-60l-149 148h113zM286 539q113 0 175.5 -74.5t62.5 -210.5q0 -129 -63.5 -203t-173.5 -74q-112 0 -174.5 74.5t-62.5 206.5t63 206.5t173 74.5zM287 462q-70 0 -110 -54.5t-40 -149.5t40 -149.5t110 -54.5q69 0 109.5 54.5t40.5 146.5q0 97 -39.5 152
t-110.5 55z" />
    <glyph glyph-name="oacute" unicode="&#xf3;" horiz-adv-x="571" 
d="M312 740h113l-149 -148h-60zM286 539q113 0 175.5 -74.5t62.5 -210.5q0 -129 -63.5 -203t-173.5 -74q-112 0 -174.5 74.5t-62.5 206.5t63 206.5t173 74.5zM287 462q-70 0 -110 -54.5t-40 -149.5t40 -149.5t110 -54.5q69 0 109.5 54.5t40.5 146.5q0 97 -39.5 152
t-110.5 55z" />
    <glyph glyph-name="ocircumflex" unicode="&#xf4;" horiz-adv-x="571" 
d="M235 742h95l96 -150h-63l-81 96l-79 -96h-64zM286 539q113 0 175.5 -74.5t62.5 -210.5q0 -129 -63.5 -203t-173.5 -74q-112 0 -174.5 74.5t-62.5 206.5t63 206.5t173 74.5zM287 462q-70 0 -110 -54.5t-40 -149.5t40 -149.5t110 -54.5q69 0 109.5 54.5t40.5 146.5
q0 97 -39.5 152t-110.5 55z" />
    <glyph glyph-name="otilde" unicode="&#xf5;" horiz-adv-x="571" 
d="M205 704q25 0 69 -18.5t64 -18.5q25 0 37 37h58q-15 -104 -89 -104q-20 0 -70 19t-64 19q-23 0 -33 -37h-58q8 49 30.5 76t55.5 27zM286 539q113 0 175.5 -74.5t62.5 -210.5q0 -129 -63.5 -203t-173.5 -74q-112 0 -174.5 74.5t-62.5 206.5t63 206.5t173 74.5zM287 462
q-70 0 -110 -54.5t-40 -149.5t40 -149.5t110 -54.5q69 0 109.5 54.5t40.5 146.5q0 97 -39.5 152t-110.5 55z" />
    <glyph glyph-name="odieresis" unicode="&#xf6;" horiz-adv-x="571" 
d="M258 703v-103h-104v103h104zM420 703v-103h-104v103h104zM286 539q113 0 175.5 -74.5t62.5 -210.5q0 -129 -63.5 -203t-173.5 -74q-112 0 -174.5 74.5t-62.5 206.5t63 206.5t173 74.5zM287 462q-70 0 -110 -54.5t-40 -149.5t40 -149.5t110 -54.5q69 0 109.5 54.5
t40.5 146.5q0 97 -39.5 152t-110.5 55z" />
    <glyph glyph-name="divide" unicode="&#xf7;" horiz-adv-x="584" 
d="M534 271v-70h-484v70h484zM344 104v-104h-104v104h104zM344 472v-104h-104v104h104z" />
    <glyph glyph-name="oslash" unicode="&#xf8;" horiz-adv-x="611" 
d="M529 511l-63 -71q44 -73 44 -182q0 -132 -62.5 -206.5t-173.5 -74.5q-103 0 -163 62l-61 -69l-32 28l66 74q-48 71 -48 186q0 132 63 206.5t174 74.5q101 0 166 -65l58 65zM405 371l-238 -269q43 -48 106 -48q70 0 110 54.5t40 149.5q0 66 -18 113zM144 141l239 269
q-41 52 -110 52q-70 0 -110 -54.5t-40 -149.5q0 -68 21 -117z" />
    <glyph glyph-name="ugrave" unicode="&#xf9;" horiz-adv-x="627" 
d="M280 739l96 -148h-60l-149 148h113zM102 456v-336q0 -65 45.5 -104t121.5 -39q58 0 98 22t77 74v-73h146v68h-71v456h-154v-68h71v-229q0 -80 -39 -129q-39 -48 -104 -48q-50 0 -79 28t-29 75v371h-154v-68h71z" />
    <glyph glyph-name="uacute" unicode="&#xfa;" horiz-adv-x="627" 
d="M333 740h113l-149 -148h-60zM102 456v-336q0 -65 45.5 -104t121.5 -39q58 0 98 22t77 74v-73h146v68h-71v456h-154v-68h71v-229q0 -80 -39 -129q-39 -48 -104 -48q-50 0 -79 28t-29 75v371h-154v-68h71z" />
    <glyph glyph-name="ucircumflex" unicode="&#xfb;" horiz-adv-x="627" 
d="M247 742h95l96 -150h-63l-81 96l-79 -96h-64zM31 456v68h154v-371q0 -47 29 -75t79 -28q65 0 104 48q39 49 39 129v229h-71v68h154v-456h71v-68h-146v73q-37 -52 -77 -74t-98 -22q-76 0 -121.5 39t-45.5 104v336h-71z" />
    <glyph glyph-name="udieresis" unicode="&#xfc;" horiz-adv-x="627" 
d="M255 703v-103h-104v103h104zM417 703v-103h-104v103h104zM31 456v68h154v-371q0 -47 29 -75t79 -28q65 0 104 48q39 49 39 129v229h-71v68h154v-456h71v-68h-146v73q-37 -52 -77 -74t-98 -22q-76 0 -121.5 39t-45.5 104v336h-71z" />
    <glyph glyph-name="yacute" unicode="&#xfd;" horiz-adv-x="634" 
d="M365 739h113l-149 -148h-60zM52 456v68h153l134 -408l121 340h-47v68h161l-233 -634q-41 -108 -135 -108q-31 0 -56 13v75q27 -6 44 -6q26 0 41 12q15 11 26 39l32 83l-154 458h-87z" />
    <glyph glyph-name="thorn" unicode="&#xfe;" horiz-adv-x="555" 
d="M54 -218v932h83v-255q56 80 161 80q102 0 163 -78t61 -208q0 -125 -61.5 -200.5t-162.5 -75.5q-97 0 -161 78v-273h-83zM283 461q-66 0 -106 -55.5t-40 -147.5t40 -147.5t106 -55.5q68 0 110 55.5t42 144.5q0 94 -41.5 150t-110.5 56z" />
    <glyph glyph-name="ydieresis" unicode="&#xff;" horiz-adv-x="576" 
d="M246 703v-103h-104v103h104zM408 703v-103h-104v103h104zM25 456v68h153l134 -408l121 340h-47v68h161l-233 -634q-41 -108 -135 -108q-31 0 -56 13v75q27 -6 44 -6q26 0 41 12q15 11 26 39l32 83l-154 458h-87z" />
    <glyph glyph-name="Amacron" unicode="&#x100;" horiz-adv-x="949" 
d="M626 871v-70h-274v70h274zM593 0v81h66l-47 138h-281l-49 -138h66v-81h-287v81h123l202 567h-65v81h94h120l228 -648h122v-81h-292zM586 297l-112 332l-120 -332h232z" />
    <glyph glyph-name="amacron" unicode="&#x101;" horiz-adv-x="719" 
d="M488 669v-70h-274v70h274zM641 68v-68h-144v69q-34 -49 -73.5 -70.5t-93.5 -21.5q-106 0 -167 76.5t-61 209.5q0 125 61.5 200.5t163.5 75.5q108 0 161 -81v67h83v-457h70zM341 461q-68 0 -110 -56t-42 -147q0 -92 42 -147.5t111 -55.5q66 0 106 55t40 146
q0 94 -40 149.5t-107 55.5z" />
    <glyph glyph-name="Abreve" unicode="&#x102;" horiz-adv-x="949" 
d="M314 932h59q8 -66 92 -66q40 0 64 17t27 49h59q-11 -135 -152 -135q-36 0 -66 9.5t-56 41.5t-27 84zM563 0v81h96l-47 138h-281l-49 -138h96v-81h-287v81h93l202 567h-65v81h214l228 -648h92v-81h-292zM586 297l-112 332l-120 -332h232z" />
    <glyph glyph-name="abreve" unicode="&#x103;" horiz-adv-x="719" 
d="M238 734h59q8 -66 92 -66q40 0 64 17t27 49h59q-11 -135 -152 -135q-36 0 -66 9.5t-56 41.5t-27 84zM692 68v-68h-144v69q-34 -49 -73.5 -70.5t-93.5 -21.5q-106 0 -167 76.5t-61 209.5q0 125 61.5 200.5t163.5 75.5q108 0 161 -81v67h83v-457h70zM392 461
q-68 0 -110 -56t-42 -147q0 -92 42 -147.5t111 -55.5q66 0 106 55t40 146q0 94 -40 149.5t-107 55.5z" />
    <glyph glyph-name="Aogonek" unicode="&#x104;" horiz-adv-x="667" 
d="M616 -205q-56 0 -94 26t-38 68q0 36 25.5 65t71.5 46h-32l-75 219h-281l-77 -219h-99l260 729h120l256 -729h-2q-55 -31 -74.5 -53t-19.5 -53q0 -54 72 -54q37 0 63 10v-45q-48 -10 -76 -10zM448 297l-112 332l-120 -332h232z" />
    <glyph glyph-name="aogonek" unicode="&#x105;" horiz-adv-x="556" 
d="M67 369q6 170 209 170q97 0 147 -36.5t50 -106.5v-308q0 -41 45 -41q9 0 18 2v-63q-76 -30 -76 -91q0 -55 72 -55q38 0 64 10v-45q-42 -10 -71 -10q-30 0 -59 8t-53.5 30t-24.5 55q0 29 15.5 49t52.5 40q-57 10 -63 77q-81 -77 -178 -77q-79 0 -125.5 42t-46.5 113
q0 34 8.5 59.5t27 42.5t38.5 28.5t52 19t58.5 12t67.5 9.5q6 1 9 1q49 6 67.5 18.5t18.5 39.5v22q0 78 -117 78q-58 0 -87.5 -22.5t-34.5 -70.5h-84zM232 50q69 0 113 36.5t44 78.5v94q-25 -12 -75.5 -20t-87.5 -14t-67 -28.5t-30 -62.5t27 -62t76 -22z" />
    <glyph glyph-name="Cacute" unicode="&#x106;" horiz-adv-x="857" 
d="M464 940h113l-149 -148h-60zM440 741q117 0 187 -58v59h94v-239h-95q-16 78 -63 117t-134 39q-106 0 -167.5 -81t-61.5 -219.5t64 -219t173 -80.5q90 0 138 50.5t65 156.5h96q-33 -289 -300 -289q-75 0 -134.5 25.5t-95 64.5t-59 91.5t-32 100.5t-8.5 97.5t8.5 98.5
t32.5 102t59.5 92.5t96 65.5t136.5 26z" />
    <glyph glyph-name="cacute" unicode="&#x107;" horiz-adv-x="665" 
d="M369 740h113l-149 -148h-60zM471 495q-59 43 -136 44q-106 0 -169.5 -78t-63.5 -208q0 -127 62.5 -201.5t169.5 -74.5q94 0 150 53.5t64 149.5h-84q-21 -126 -128 -126q-69 0 -108 53t-39 146q0 98 38.5 153.5t106.5 55.5q52 0 84 -29.5t40 -84.5h84v194h-71v-47z" />
    <glyph glyph-name="Ccircumflex" unicode="&#x108;" horiz-adv-x="857" 
d="M382 940h95l96 -150h-63l-81 96l-79 -96h-64zM440 741q49 0 100 -16.5t93 -65.5v83h88v-239h-95q-16 78 -62.5 117t-134.5 39q-107 0 -168 -81q-61 -80 -61 -220q0 -139 64 -219q65 -80 173 -80q90 0 138 50.5t65 156.5h96q-33 -289 -300 -289q-75 0 -134.5 25.5
t-95.5 64.5q-36 41 -59 91q-23 54 -31.5 101.5t-8.5 96.5q0 51 8.5 99t32.5 102q24 52 59 92q36 40 96.5 66t136.5 26z" />
    <glyph glyph-name="ccircumflex" unicode="&#x109;" horiz-adv-x="500" 
d="M215 715h95l96 -150h-63l-81 96l-79 -96h-64zM263 539q17 0 35 -3.5t36 -11t34.5 -20.5t30.5 -33v71h71v-194h-84q-8 55 -40 84.5t-84 29.5q-69 0 -107 -55t-38 -154q0 -94 39 -146.5t108 -52.5q107 0 128 126h84q-8 -97 -64 -150t-150 -53q-107 0 -170 74
q-62 76 -62 202q0 130 63 208q64 78 170 78z" />
    <glyph glyph-name="Cdotaccent" unicode="&#x10a;" horiz-adv-x="722" 
d="M495 873v-104h-104v104h104zM440 741q49 0 100 -16.5t93 -65.5v83h88v-239h-95q-16 78 -62.5 117t-134.5 39q-107 0 -168 -81q-61 -80 -61 -220q0 -139 64 -219q65 -80 173 -80q90 0 138 50.5t65 156.5h96q-33 -289 -300 -289q-75 0 -134.5 25.5t-95.5 64.5
q-36 41 -59 91q-23 54 -31.5 101.5t-8.5 96.5q0 51 8.5 99t32.5 102q24 52 59 92q36 40 96.5 66t136.5 26z" />
    <glyph glyph-name="cdotaccent" unicode="&#x10b;" horiz-adv-x="500" 
d="M311 669v-104h-104v104h104zM266 539q17 0 35 -3.5t36 -11t34.5 -20.5t30.5 -33v71h71v-194h-84q-8 55 -40 84.5t-84 29.5q-69 0 -107 -55t-38 -154q0 -94 39 -146.5t108 -52.5q107 0 128 126h84q-8 -97 -64 -150t-150 -53q-107 0 -170 74q-62 76 -62 202q0 130 63 208
q64 78 170 78z" />
    <glyph glyph-name="Ccaron" unicode="&#x10c;" horiz-adv-x="821" 
d="M470 790h-95l-96 150h63l81 -96l79 96h64zM423 741q49 0 100 -16.5t93 -65.5v83h88v-239h-95q-16 78 -62.5 117t-134.5 39q-107 0 -168 -81q-61 -80 -61 -220q0 -139 64 -219q65 -80 173 -80q90 0 138 50.5t65 156.5h96q-33 -289 -300 -289q-75 0 -134.5 25.5t-95.5 64.5
q-36 41 -59 91q-23 54 -31.5 101.5t-8.5 96.5q0 51 8.5 99t32.5 102q24 52 59 92q36 40 96.5 66t136.5 26z" />
    <glyph glyph-name="ccaron" unicode="&#x10d;" horiz-adv-x="551" 
d="M320 592h-95l-96 150h63l81 -96l79 96h64zM282 539q17 0 35 -3.5t36 -11t34.5 -20.5t30.5 -33v71h71v-194h-84q-8 55 -40 84.5t-84 29.5q-69 0 -107 -55t-38 -154q0 -94 39 -146.5t108 -52.5q107 0 128 126h84q-8 -97 -64 -150t-150 -53q-107 0 -170 74q-62 76 -62 202
q0 130 63 208q64 78 170 78z" />
    <glyph glyph-name="Dcaron" unicode="&#x10e;" horiz-adv-x="874" 
d="M426 790h-95l-96 150h63l81 -96l79 96h64zM188 729h281q139 0 218 -97t79 -267t-79.5 -267.5t-217.5 -97.5h-375v81h94v567h-94v81h94zM281 82h172q108 0 164 72t56 210q0 139 -56 211t-164 72h-172v-565z" />
    <glyph glyph-name="dcaron" unicode="&#x10f;" horiz-adv-x="722" 
d="M585 729h105v-120q0 -131 -105 -131v38q35 1 47.5 20t12.5 71v18h-60v104zM322 461q-68 0 -110 -56t-42 -147q0 -92 42 -147.5t111 -55.5q66 0 106 55t40 146q0 94 -40 149.5t-107 55.5zM623 68v-68h-145v69q-34 -49 -73.5 -70.5t-93.5 -21.5q-106 0 -167 76.5t-61 209.5
q0 125 61.5 200.5t163.5 75.5q108 0 161 -81l1 203h-72v68h154v-661h71z" />
    <glyph glyph-name="Dcroat" unicode="&#x110;" horiz-adv-x="722" 
d="M89 339h-69v67h69v323h282q138 0 217 -97t79 -267t-79 -267.5t-217 -97.5h-282v339zM182 339v-257h173q107 0 163 72t56 211t-56 210.5t-163 71.5h-173v-241h171v-67h-171z" />
    <glyph glyph-name="dcroat" unicode="&#x111;" horiz-adv-x="556" 
d="M494 653h63v-53h-63v-600h-74v59q-70 -82 -168 -82q-102 0 -164 78.5t-62 208.5q0 124 61.5 199.5t162.5 75.5q97 0 161 -78v139h-150v53h150v76h83v-76zM265 457q-68 0 -110 -55t-42 -144t42 -144t110 -55q66 0 106 54t40 143q0 92 -39.5 146.5t-106.5 54.5z" />
    <glyph glyph-name="Emacron" unicode="&#x112;" horiz-adv-x="824" 
d="M564 871v-70h-274v70h274zM188 82v-81h-94v81h94zM188 730v-81h-94v81h94zM711 164v-81h-94v81h94zM693 648v-81h-94v81h94zM281 333v-250h430v-82h-523v729h505v-82h-412v-233h397v-82h-397z" />
    <glyph glyph-name="emacron" unicode="&#x113;" horiz-adv-x="672" 
d="M478 669v-70h-274v70h274zM574 234h-386q1 -72 28 -112q43 -68 126 -68q102 0 137 105h84q-16 -86 -75 -134t-149 -48q-110 0 -174 74.5t-64 203.5t65.5 206.5t174.5 77.5q74 0 130.5 -37t81.5 -101q21 -55 21 -167zM190 302h294q1 2 1 6q0 65 -42 109.5t-103 44.5
q-63 0 -104 -43.5t-46 -116.5z" />
    <glyph glyph-name="Ebreve" unicode="&#x114;" horiz-adv-x="761" 
d="M283 904h59q8 -66 92 -66q40 0 64 17t27 49h59q-11 -135 -152 -135q-36 0 -66 9.5t-56 41.5t-27 84zM188 730h505v-183h-89v101h-323v-233h397v-82h-397v-250h341v101h89v-183h-617v81h94v567h-94v81h94z" />
    <glyph glyph-name="ebreve" unicode="&#x115;" horiz-adv-x="556" 
d="M263 700h59q8 -66 92 -66q40 0 64 17t27 49h59q-11 -135 -152 -135q-36 0 -66 9.5t-56 41.5t-27 84zM658 234h-386q1 -72 28 -112q43 -68 126 -68q102 0 137 105h84q-16 -86 -75 -134t-149 -48q-110 0 -174 74.5t-64 203.5t65.5 206.5t174.5 77.5q74 0 130.5 -37
t81.5 -101q21 -55 21 -167zM274 302h294q1 2 1 6q0 65 -42 109.5t-103 44.5q-63 0 -104 -43.5t-46 -116.5z" />
    <glyph glyph-name="Edotaccent" unicode="&#x116;" horiz-adv-x="824" 
d="M473 905v-104h-104v104h104zM188 730h505v-183h-89v101h-323v-233h397v-82h-397v-250h341v101h89v-183h-617v81h94v567h-94v81h94z" />
    <glyph glyph-name="edotaccent" unicode="&#x117;" horiz-adv-x="672" 
d="M393 704v-104h-104v104h104zM578 234h-386q1 -72 28 -112q43 -68 126 -68q102 0 137 105h84q-16 -86 -75 -134t-149 -48q-110 0 -174 74.5t-64 203.5t65.5 206.5t174.5 77.5q74 0 130.5 -37t81.5 -101q21 -55 21 -167zM194 302h294q1 2 1 6q0 65 -42 109.5t-103 44.5
q-63 0 -104 -43.5t-46 -116.5z" />
    <glyph glyph-name="Eogonek" unicode="&#x118;" horiz-adv-x="667" 
d="M576 -205q-56 0 -94 26t-38 68q0 36 25.5 65t71.5 46h-451v729h505v-82h-412v-233h397v-82h-397v-250h430v-82h-2q-55 -31 -74.5 -53t-19.5 -53q0 -54 72 -54q37 0 63 10v-45q-48 -10 -76 -10z" />
    <glyph glyph-name="eogonek" unicode="&#x119;" horiz-adv-x="556" 
d="M503 159q-7 -41 -26 -74t-39.5 -55t-40.5 -42t-33 -44t-13 -53q0 -24 19 -37.5t53 -13.5q38 0 64 10v-45q-41 -9 -69 -9q-63 0 -101 24t-38 64q0 20 8 38t19.5 29t23 21t17.5 13q-40 -8 -68 -8q-112 0 -175.5 73.5t-63.5 203.5t65.5 207.5t174.5 77.5q74 0 130.5 -37
t81.5 -101q21 -54 21 -152v-15h-386q1 -52 16.5 -89.5t39.5 -56t48.5 -26.5t49.5 -8q101 0 138 105h84zM424 302v6q0 65 -42 109.5t-103 44.5q-63 0 -104 -43.5t-45 -116.5h294z" />
    <glyph glyph-name="Ecaron" unicode="&#x11a;" horiz-adv-x="824" 
d="M476 790h-95l-96 150h63l81 -96l79 96h64zM188 730h505v-183h-89v101h-323v-233h397v-82h-397v-250h341v101h89v-183h-617v81h94v567h-94v81h94z" />
    <glyph glyph-name="ecaron" unicode="&#x11b;" horiz-adv-x="672" 
d="M395 591h-95l-96 150h63l81 -96l79 96h64zM583 234h-386q1 -72 28 -112q43 -68 126 -68q102 0 137 105h84q-16 -86 -75 -134t-149 -48q-110 0 -174 74.5t-64 203.5t65.5 206.5t174.5 77.5q74 0 130.5 -37t81.5 -101q21 -55 21 -167zM199 302h294q1 2 1 6q0 65 -42 109.5
t-103 44.5q-63 0 -104 -43.5t-46 -116.5z" />
    <glyph glyph-name="Gcircumflex" unicode="&#x11c;" horiz-adv-x="778" 
d="M405 919.158h95l96 -128.979h-63l-81 82.5469l-79 -82.5469h-64zM199 362q0 -44 11.5 -97t40.5 -98.5t80 -76.5t129 -31q99 0 164 63t65 161v20h-222v82h304v-389h-59l-23 97q-104 -116 -249 -116q-148 0 -241 106t-93 274q0 48 9 96t34 102q13 26 28 49.5t34 43.5
q38 40 101 66.5t144 26.5q78 0 130.5 -21.5t85.5 -63.5v91h89v-239h-95q-15 70 -71 110.5t-140 40.5q-116 0 -186 -82q-70 -80 -70 -215z" />
    <glyph glyph-name="gcircumflex" unicode="&#x11d;" horiz-adv-x="627" 
d="M238 741h95l96 -150h-63l-81 96l-79 -96h-64zM284 462q-67 0 -106 -55t-39 -149q0 -95 39 -149.5t107 -54.5q66 0 104 53.5t38 147.5q0 98 -37.5 152.5t-105.5 54.5zM512 456v-370q0 -75 -9 -125.5t-33 -93.5t-71.5 -64t-120.5 -21q-92 0 -147 42t-62 116h85
q14 -88 127 -88q84 0 115 47.5t31 144.5v27q-35 -50 -72.5 -72t-86.5 -22q-92 0 -154 75.5t-62 200.5q0 128 61.5 207t161.5 79q98 0 160 -91v76h148v-68h-71z" />
    <glyph glyph-name="Gbreve" unicode="&#x11e;" horiz-adv-x="899" 
d="M309 932h59q8 -66 92 -66q40 0 64 17t27 49h59q-11 -135 -152 -135q-36 0 -66 9.5t-56 41.5t-27 84zM199 362q0 -44 11.5 -97t40.5 -98.5t80 -76.5t129 -31q99 0 164 63t65 161v20h-222v82h304v-389h-59l-23 97q-104 -116 -249 -116q-148 0 -241 106t-93 274q0 48 9 96
t34 102q13 26 28 49.5t34 43.5q38 40 101 66.5t144 26.5q78 0 130.5 -21.5t85.5 -63.5v91h89v-239h-95q-15 70 -71 110.5t-140 40.5q-116 0 -186 -82q-70 -80 -70 -215z" />
    <glyph glyph-name="gbreve" unicode="&#x11f;" horiz-adv-x="703" 
d="M186 734h59q8 -66 92 -66q40 0 64 17t27 49h59q-11 -135 -152 -135q-36 0 -66 9.5t-56 41.5t-27 84zM342 462q-67 0 -106 -55t-39 -149q0 -95 39 -149.5t107 -54.5q66 0 104 53.5t38 147.5q0 98 -37.5 152.5t-105.5 54.5zM570 456v-370q0 -75 -9 -125.5t-33 -93.5
t-71.5 -64t-120.5 -21q-92 0 -147 42t-62 116h85q14 -88 127 -88q84 0 115 47.5t31 144.5v27q-35 -50 -72.5 -72t-86.5 -22q-92 0 -154 75.5t-62 200.5q0 128 61.5 207t161.5 79q98 0 160 -91v76h148v-68h-71z" />
    <glyph glyph-name="Gdotaccent" unicode="&#x120;" horiz-adv-x="778" 
d="M506 873v-104h-104v104h104zM199 362q0 -44 11.5 -97t40.5 -98.5t80 -76.5t129 -31q99 0 164 63t65 161v20h-222v82h304v-389h-59l-23 97q-104 -116 -249 -116q-148 0 -241 106t-93 274q0 48 9 96t34 102q13 26 28 49.5t34 43.5q38 40 101 66.5t144 26.5
q78 0 130.5 -21.5t85.5 -63.5v91h89v-239h-95q-15 70 -71 110.5t-140 40.5q-116 0 -186 -82q-70 -80 -70 -215z" />
    <glyph glyph-name="gdotaccent" unicode="&#x121;" horiz-adv-x="627" 
d="M339 669v-104h-104v104h104zM294 462q-67 0 -106 -55t-39 -149q0 -95 39 -149.5t107 -54.5q66 0 104 53.5t38 147.5q0 98 -37.5 152.5t-105.5 54.5zM522 456v-370q0 -75 -9 -125.5t-33 -93.5t-71.5 -64t-120.5 -21q-92 0 -147 42t-62 116h85q14 -88 127 -88
q84 0 115 47.5t31 144.5v27q-35 -50 -72.5 -72t-86.5 -22q-92 0 -154 75.5t-62 200.5q0 128 61.5 207t161.5 79q98 0 160 -91v76h148v-68h-71z" />
    <glyph glyph-name="Gcommaaccent" unicode="&#x122;" horiz-adv-x="899" 
d="M387 -82h105v-120q0 -131 -105 -131v38q35 1 47.5 20t12.5 71v18h-60v104zM199 362q0 -44 11.5 -97t40.5 -98.5t80 -76.5t129 -31q99 0 164 63t65 161v20h-222v82h304v-389h-59l-23 97q-104 -116 -249 -116q-148 0 -241 106t-93 274q0 48 9 96t34 102q13 26 28 49.5
t34 43.5q38 40 101 66.5t144 26.5q78 0 130.5 -21.5t85.5 -63.5v91h89v-239h-95q-15 70 -71 110.5t-140 40.5q-116 0 -186 -82q-70 -80 -70 -215z" />
    <glyph glyph-name="gcommaaccent" unicode="&#x123;" horiz-adv-x="697" 
d="M370 583h-81v69q0 88 81 88v-42h-3q-12 0 -19 -1.5t-13 -12t-6 -31.5h41v-70zM335 462q-67 0 -106 -55t-39 -149q0 -95 39 -149.5t107 -54.5q66 0 104 53.5t38 147.5q0 98 -37.5 152.5t-105.5 54.5zM563 456v-370q0 -75 -9 -125.5t-33 -93.5t-71.5 -64t-120.5 -21
q-92 0 -147 42t-62 116h85q14 -88 127 -88q84 0 115 47.5t31 144.5v27q-35 -50 -72.5 -72t-86.5 -22q-92 0 -154 75.5t-62 200.5q0 128 61.5 207t161.5 79q98 0 160 -91v76h148v-68h-71z" />
    <glyph glyph-name="Hcircumflex" unicode="&#x124;" horiz-adv-x="916" 
d="M424 919h95l96 -150h-63l-81 96l-79 -96h-64zM656 332h-375v-251h94v-81h-281v81h94v567h-94v81h281v-81h-94v-234h375v234h-94v81h94h187v-81h-94v-567h94v-81h-281v81h94v251z" />
    <glyph glyph-name="hcircumflex" unicode="&#x125;" horiz-adv-x="698" 
d="M138 919h95l96 -150h-63l-81 96l-79 -96h-64zM247 661h-71v68h154v-277q37 48 74.5 67.5t93.5 19.5q76 0 120 -39q45 -37 45 -104v-328h71v-68h-154v363q0 55 -33.5 79t-74.5 24q-64 0 -103 -48.5t-39 -128.5v-221h71v-68h-225v68h71v593z" />
    <glyph glyph-name="Hbar" unicode="&#x126;" horiz-adv-x="722" 
d="M176 504v-90h375v90h-375zM83 576v153h93v-153h375v153h93v-153h44v-70h-44v-506h-93v332h-374v-332h-94v506h-44v70h44z" />
    <glyph glyph-name="hbar" unicode="&#x127;" horiz-adv-x="556" 
d="M403 363q0 55 -33.5 79t-74.5 24q-64 0 -103 -48.5t-39 -128.5v-289h-83v600h-63v53h63v76h83v-76h150v-53h-150v-148q37 48 74.5 67.5t93.5 19.5q76 0 120.5 -38.5t44.5 -104.5v-396h-83v363z" />
    <glyph glyph-name="Itilde" unicode="&#x128;" horiz-adv-x="466" 
d="M160 873q25 0 69 -18.5t64 -18.5q25 0 37 37h58q-15 -104 -89 -104q-20 0 -70 19t-64 19q-23 0 -33 -37h-58q8 49 30.5 76t55.5 27zM282 729h94v-81h-94v-567h94v-81h-282v81h94v567h-94v81h188z" />
    <glyph glyph-name="itilde" unicode="&#x129;" horiz-adv-x="278" 
d="M66 669q25 0 69 -18.5t64 -18.5q25 0 37 37h58q-15 -104 -89 -104q-20 0 -70 19t-64 19q-23 0 -33 -37h-58q8 49 30.5 76t55.5 27zM24 456v68h154v-456h71v-68h-225v68h71v388h-71z" />
    <glyph glyph-name="Imacron" unicode="&#x12a;" horiz-adv-x="466" 
d="M378 871v-70h-274v70h274zM376 81v-81h-94v81h94zM376 729v-81h-94v81h94zM188 81v-81h-94v81h94zM188 729v-81h-94v81h94zM282 729v-729h-94v729h94z" />
    <glyph glyph-name="imacron" unicode="&#x12b;" horiz-adv-x="278" 
d="M273 669v-70h-274v70h274zM177 524v-524h-83v524h83z" />
    <glyph glyph-name="Ibreve" unicode="&#x12c;" horiz-adv-x="466" 
d="M81 904h59q8 -66 92 -66q40 0 64 17t27 49h59q-11 -135 -152 -135q-36 0 -66 9.5t-56 41.5t-27 84zM282 729h94v-81h-94v-567h94v-81h-282v81h94v567h-94v81h188z" />
    <glyph glyph-name="ibreve" unicode="&#x12d;" horiz-adv-x="278" 
d="M-14 700h59q8 -66 92 -66q40 0 64 17t27 49h59q-11 -135 -152 -135q-36 0 -66 9.5t-56 41.5t-27 84zM24 456v68h154v-456h71v-68h-225v68h71v388h-71z" />
    <glyph glyph-name="Iogonek" unicode="&#x12e;" horiz-adv-x="278" 
d="M158 -205q-56 0 -94 26t-38 68q0 36 25.5 65t71.5 46h-23v729h94v-729q-55 -31 -75 -53t-20 -53q0 -54 72 -54q37 0 63 10v-45q-48 -10 -76 -10z" />
    <glyph glyph-name="iogonek" unicode="&#x12f;" horiz-adv-x="222" 
d="M114 -205q-56 0 -94 26t-38 68q0 33 22.5 61t62.5 45v523h83v-524h-12q-48 -28 -65.5 -49t-17.5 -51q0 -54 72 -54q37 0 63 10v-45q-48 -10 -76 -10zM150 729v-105h-84v105h84z" />
    <glyph glyph-name="Idotaccent" unicode="&#x130;" horiz-adv-x="466" 
d="M293 905v-104h-104v104h104zM282 729h94v-81h-94v-567h94v-81h-282v81h94v567h-94v81h188z" />
    <glyph glyph-name="dotlessi" unicode="&#x131;" horiz-adv-x="320" 
d="M54 456v68h154v-456h71v-68h-225v68h71v388h-71z" />
    <glyph glyph-name="IJ" unicode="&#x132;" horiz-adv-x="700" 
d="M500 55q64 0 88 42t24 119v432h-94v81h281v-81h-94v-466q0 -95 -55.5 -150t-150.5 -55q-94 0 -148.5 52t-54.5 141v64h95v-47q0 -64 28 -98t81 -34zM197 729h94v-81h-94v-567h94v-81h-282v81h94v567h-94v81h188z" />
    <glyph glyph-name="ij" unicode="&#x133;" horiz-adv-x="565" 
d="M386 456h-71v68h154v-633q0 -109 -143 -109q-13 0 -28 3v71q17 -1 20 -1q38 0 53 15t15 54v532zM469 729v-105h-83v105h83zM208 729v-105h-84v105h84zM125 456v-388h-71v-68h225v68h-71v456h-154v-68h71z" />
    <glyph glyph-name="Jcircumflex" unicode="&#x134;" horiz-adv-x="594" 
d="M332 919h95l96 -150h-63l-81 96l-79 -96h-64zM300 55q64 0 88 42t24 119v432h-94v81h281v-81h-94v-466q0 -95 -55.5 -150t-150.5 -55q-94 0 -148.5 52t-54.5 141v64h95v-47q0 -64 28 -98t81 -34z" />
    <glyph glyph-name="jcircumflex" unicode="&#x135;" horiz-adv-x="222" 
d="M70 524h83v-633q0 -109 -143 -109q-13 0 -28 3v71q17 -1 20 -1q38 0 53 15t15 54v600zM65 741h95l96 -150h-63l-81 96l-79 -96h-64z" />
    <glyph glyph-name="Kcommaaccent" unicode="&#x136;" horiz-adv-x="836" 
d="M424 -59h105v-120q0 -131 -105 -131v38q35 1 47.5 20t12.5 71v18h-60v104zM771 729v-81h-88l-216 -216l243 -351h101v-81h-251v81h41l-201 293l-119 -119v-174h94v-81h-281v81h94v567h-94v81h94h93h94v-81h-94v-288l283 288h-44v81h251z" />
    <glyph glyph-name="kcommaaccent" unicode="&#x137;" horiz-adv-x="725" 
d="M270 -59h105v-120q0 -131 -105 -131v38q35 1 47.5 20t12.5 71v18h-60v104zM256 661h-71v68h154v-427l222 222h107l-182 -181l173 -275h72v-68h-134l-177 284l-81 -80v-204h-154v68h71v593z" />
    <glyph glyph-name="kgreenlandic" unicode="&#x138;" horiz-adv-x="500" 
d="M141 524v-222l222 222h107l-272 -260l304 -264h-103l-258 216v-216h-83v524h83z" />
    <glyph glyph-name="Lacute" unicode="&#x139;" horiz-adv-x="737" 
d="M256 939h113l-149 -148h-60zM375 729v-81h-94v81h94zM641 163v-81h-94v81h94zM188 81v-81h-94v81h94zM188 729v-81h-94v81h94zM281 729v-647h360v-82h-453v729h93z" />
    <glyph glyph-name="lacute" unicode="&#x13a;" horiz-adv-x="408" 
d="M272 939h113l-149 -148h-60zM167 661v-593h-71v-68h226v68h-71v661h-155v-68h71z" />
    <glyph glyph-name="Lcommaaccent" unicode="&#x13b;" horiz-adv-x="737" 
d="M344 -59h105v-120q0 -131 -105 -131v38q35 1 47.5 20t12.5 71v18h-60v104zM641 183v-183h-547v81h94v567h-94v81h94h93h94v-81h-94v-566h271v101h89z" />
    <glyph glyph-name="lcommaaccent" unicode="&#x13c;" horiz-adv-x="408" 
d="M169 -59h105v-120q0 -131 -105 -131v38q35 1 47.5 20t12.5 71v18h-60v104zM176 661v68h155v-661h71v-68h-226v68h71v593h-71z" />
    <glyph glyph-name="Lcaron" unicode="&#x13d;" horiz-adv-x="659" 
d="M388 741h105v-120q0 -131 -105 -131v38q35 1 47.5 20t12.5 71v18h-60v104zM641 183v-183h-547v81h94v567h-94v81h94h93h94v-81h-94v-566h271v101h89z" />
    <glyph glyph-name="lcaron" unicode="&#x13e;" horiz-adv-x="387" 
d="M200 729h105v-120q0 -131 -105 -131v38q35 1 47.5 20t12.5 71v18h-60v104zM18 661v68h155v-661h71v-68h-226v68h71v593h-71z" />
    <glyph glyph-name="Ldot" unicode="&#x13f;" horiz-adv-x="659" 
d="M552 427v-125h-124v125h124zM641 183v-183h-547v81h94v567h-94v81h94h93h94v-81h-94v-566h271v101h89z" />
    <glyph glyph-name="ldot" unicode="&#x140;" horiz-adv-x="500" 
d="M433 427v-125h-124v125h124zM94 661v68h155v-661h71v-68h-226v68h71v593h-71z" />
    <glyph glyph-name="Lslash" unicode="&#x141;" horiz-adv-x="556" 
d="M173 406l171 121v-76l-171 -122v-247h379v-82h-472v280l-80 -57v77l80 56v373h93v-323z" />
    <glyph glyph-name="lslash" unicode="&#x142;" horiz-adv-x="222" 
d="M146 421l66 51v-64l-66 -51v-357h-83v313l-63 -50v64l63 50v352h83v-308z" />
    <glyph glyph-name="Nacute" unicode="&#x143;" horiz-adv-x="920" 
d="M499 939h113l-149 -148h-60zM852 729v-81h-94v81h94zM370 81v-81h-94v81h94zM188 81v-81h-94v81h94zM188 729v-81h-94v81h94zM758 729v-729h-105l-377 591v-591h-88v729h101l381 -596v596h88z" />
    <glyph glyph-name="nacute" unicode="&#x144;" horiz-adv-x="724" 
d="M392 739h113l-149 -148h-60zM578 68v328q0 65 -45 104t-121 39q-58 0 -98.5 -24t-75.5 -79v88h-148v-68h71v-388h-71v-68h226v68h-71v221q0 80 39 128.5t103 48.5q50 0 79 -28t29 -75v-363h154v68h-71z" />
    <glyph glyph-name="Ncommaaccent" unicode="&#x145;" horiz-adv-x="920" 
d="M419 -59h105v-120q0 -131 -105 -131v38q35 1 47.5 20t12.5 71v18h-60v104zM370 81v-81h-276v81h94v567h-94v81h195l381 -596v596h88h94v-81h-94v-648h-105l-377 591v-510h94z" />
    <glyph glyph-name="ncommaaccent" unicode="&#x146;" horiz-adv-x="724" 
d="M308 -59h105v-120q0 -131 -105 -131v38q35 1 47.5 20t12.5 71v18h-60v104zM724 68v-68h-154v363q0 47 -29 75t-79 28q-64 0 -103 -48.5t-39 -128.5v-221h71v-68h-226v68h71v388h-71v68h148v-88q35 55 75.5 79t98.5 24q76 0 121 -39t45 -104v-328h71z" />
    <glyph glyph-name="Ncaron" unicode="&#x147;" horiz-adv-x="920" 
d="M519 790h-95l-96 150h63l81 -96l79 96h64zM370 81v-81h-276v81h94v567h-94v81h195l381 -596v596h88h94v-81h-94v-648h-105l-377 591v-510h94z" />
    <glyph glyph-name="ncaron" unicode="&#x148;" horiz-adv-x="724" 
d="M408 591h-95l-96 150h63l81 -96l79 96h64zM724 68v-68h-154v363q0 47 -29 75t-79 28q-64 0 -103 -48.5t-39 -128.5v-221h71v-68h-226v68h71v388h-71v68h148v-88q35 55 75.5 79t98.5 24q76 0 121 -39t45 -104v-328h71z" />
    <glyph glyph-name="napostrophe" unicode="&#x149;" horiz-adv-x="722" 
d="M864 68v-68h-154v363q0 47 -29 75t-79 28q-64 0 -103 -48.5t-39 -128.5v-221h71v-68h-226v68h71v388h-71v68h148v-88q35 55 75.5 79t98.5 24q76 0 121 -39t45 -104v-328h71zM48 709h94v-111l-27 -134h-40l-27 134v111z" />
    <glyph glyph-name="Eng" unicode="&#x14a;" horiz-adv-x="722" 
d="M558 133v596h88v-838q0 -53 -38.5 -81t-109.5 -28q-13 0 -28 3v81q17 -1 20 -1h4q64 0 64 59v49l-394 618v-591h-88v729h101z" />
    <glyph glyph-name="eng" unicode="&#x14b;" horiz-adv-x="556" 
d="M487 396v-505q0 -109 -143 -109q-13 0 -28 3v71q17 -1 20 -1q38 0 53 15t15 54v439q0 47 -29 75t-79 28q-64 0 -103 -48.5t-39 -128.5v-289h-84v524h77v-88q35 55 75.5 79t98.5 24q76 0 121 -39t45 -104z" />
    <glyph glyph-name="Omacron" unicode="&#x14c;" horiz-adv-x="916" 
d="M594 871v-70h-274v70h274zM810 353q0 -162 -96 -269t-256 -107q-158 0 -255 105.5t-97 276.5t97 276.5t254 105.5q160 0 256.5 -106t96.5 -282zM457 659q-116 0 -187 -82.5t-71 -217.5t71.5 -217.5t187.5 -82.5t187.5 82t71.5 214q0 138 -71 221t-189 83z" />
    <glyph glyph-name="omacron" unicode="&#x14d;" horiz-adv-x="675" 
d="M476 669v-70h-274v70h274zM339 539q113 0 175.5 -74.5t62.5 -210.5q0 -129 -63.5 -203t-173.5 -74q-112 0 -174.5 74.5t-62.5 206.5t63 206.5t173 74.5zM340 462q-70 0 -110 -54.5t-40 -149.5t40 -149.5t110 -54.5q69 0 109.5 54.5t40.5 146.5q0 97 -39.5 152t-110.5 55z
" />
    <glyph glyph-name="Obreve" unicode="&#x14e;" horiz-adv-x="778" 
d="M239 904h59q8 -66 92 -66q40 0 64 17t27 49h59q-11 -135 -152 -135q-36 0 -66 9.5t-56 41.5t-27 84zM810 353q0 -162 -96 -269t-256 -107q-158 0 -255 105.5t-97 276.5t97 276.5t254 105.5q160 0 256.5 -106t96.5 -282zM457 659q-116 0 -187 -82.5t-71 -217.5
t71.5 -217.5t187.5 -82.5t187.5 82t71.5 214q0 138 -71 221t-189 83z" />
    <glyph glyph-name="obreve" unicode="&#x14f;" horiz-adv-x="556" 
d="M123 700h59q8 -66 92 -66q40 0 64 17t27 49h59q-11 -135 -152 -135q-36 0 -66 9.5t-56 41.5t-27 84zM424 539q113 0 175.5 -74.5t62.5 -210.5q0 -129 -63.5 -203t-173.5 -74q-112 0 -174.5 74.5t-62.5 206.5t63 206.5t173 74.5zM425 462q-70 0 -110 -54.5t-40 -149.5
t40 -149.5t110 -54.5q69 0 109.5 54.5t40.5 146.5q0 97 -39.5 152t-110.5 55z" />
    <glyph glyph-name="Ohungarumlaut" unicode="&#x150;" horiz-adv-x="916" 
d="M432 940h113l-149 -150h-60zM606 940h113l-149 -150h-60zM810 353q0 -162 -96 -269t-256 -107q-158 0 -255 105.5t-97 276.5t97 276.5t254 105.5q160 0 256.5 -106t96.5 -282zM457 659q-116 0 -187 -82.5t-71 -217.5t71.5 -217.5t187.5 -82.5t187.5 82t71.5 214
q0 138 -71 221t-189 83z" />
    <glyph glyph-name="ohungarumlaut" unicode="&#x151;" horiz-adv-x="675" 
d="M306 740h113l-149 -150h-60zM480 740h113l-149 -150h-60zM424 539q113 0 175.5 -74.5t62.5 -210.5q0 -129 -63.5 -203t-173.5 -74q-112 0 -174.5 74.5t-62.5 206.5t63 206.5t173 74.5zM425 462q-70 0 -110 -54.5t-40 -149.5t40 -149.5t110 -54.5q69 0 109.5 54.5
t40.5 146.5q0 97 -39.5 152t-110.5 55z" />
    <glyph glyph-name="OE" unicode="&#x152;" horiz-adv-x="1102" 
d="M1000 647v-81h-94v81h-241v-238h328v-82h-328v-245h247v81h94v-163h-434v74q-67 -94 -184 -94q-40 0 -78.5 10t-79.5 36.5t-71 67t-49.5 108.5t-19.5 154q0 88 20 157.5t50.5 111.5t71.5 69t79.5 37t77.5 10q121 0 183 -88v76h429v-82h-1zM183 360q0 -73 13 -128
t33.5 -86.5t49 -51t54.5 -26t55 -6.5q125 0 184 120v357q-59 120 -183 120q-31 0 -57.5 -7t-55 -26.5t-48 -51.5t-32.5 -87t-13 -127z" />
    <glyph glyph-name="oe" unicode="&#x153;" horiz-adv-x="944" 
d="M513 234q1 -52 16 -89.5t39 -56t48.5 -26.5t50.5 -8q102 0 137 105h84q-16 -86 -75 -134t-148 -48q-132 0 -194 103q-63 -103 -194 -103q-113 0 -175 73.5t-62 208.5q0 134 62 207t175 73q135 0 196 -106q31 50 81.5 78t111.5 28q74 0 130.5 -37t81.5 -101
q21 -55 21 -167h-386zM127 259q0 -96 40 -150.5t110 -54.5q69 0 109.5 54t40.5 148q0 97 -40 151.5t-110 54.5t-110 -54.5t-40 -148.5zM515 302h294q0 71 -40 115.5t-104 44.5q-63 0 -104 -43.5t-46 -116.5z" />
    <glyph glyph-name="Racute" unicode="&#x154;" horiz-adv-x="904" 
d="M483 939h113l-149 -148h-60zM821 81v-81h-94v81h94zM375 81v-81h-94v81h94zM188 81v-81h-94v81h94zM188 729v-81h-94v81h94zM631 360q32 -14 53.5 -33t31 -43t12.5 -45t3 -50q0 -9 -0.5 -26t-0.5 -25q0 -41 9 -69t35 -46v-23h-113q-20 46 -20 119v65q0 67 -29 98.5
t-91 31.5h-240v-314h-93v729h336q107 0 164.5 -50.5t57.5 -144.5q0 -62 -27 -103t-88 -71zM649 521q0 72 -38 99t-105 27h-225v-251h225q74 0 108.5 30t34.5 95z" />
    <glyph glyph-name="racute" unicode="&#x155;" horiz-adv-x="483" 
d="M308 739h113l-149 -148h-60zM161 456v-388h-71v-68h226v68h-72l1 204q1 103 42 140q42 37 126 39v85q-21 3 -32 3q-40 0 -73.5 -25.5t-69.5 -84.5v95h-148v-68h71z" />
    <glyph glyph-name="Rcommaaccent" unicode="&#x156;" horiz-adv-x="904" 
d="M415 -59h105v-120q0 -131 -105 -131v38q35 1 47.5 20t12.5 71v18h-60v104zM375 81v-81h-281v81h94v567h-94v81h430q107 0 164.5 -50.5t57.5 -144.5q0 -62 -27 -103t-88 -71q32 -14 53.5 -33t31 -43t12.5 -45t3 -50q0 -9 -0.5 -26t-0.5 -25q0 -33 5 -57h86v-81h-160
q-20 46 -20 119v65q0 67 -29 98.5t-91 31.5h-240v-233h94zM649 521q0 72 -38 99t-105 27h-225v-251h225q74 0 108.5 30t34.5 95z" />
    <glyph glyph-name="rcommaaccent" unicode="&#x157;" horiz-adv-x="483" 
d="M149 -59h105v-120q0 -131 -105 -131v38q35 1 47.5 20t12.5 71v18h-60v104zM165 456v68h148v-95q36 59 69.5 84.5t73.5 25.5q11 0 32 -3v-85q-84 -2 -126 -39q-41 -37 -42 -140l-1 -204h72v-68h-226v68h71v388h-71z" />
    <glyph glyph-name="Rcaron" unicode="&#x158;" horiz-adv-x="904" 
d="M504 790h-95l-96 150h63l81 -96l79 96h64zM375 81v-81h-281v81h94v567h-94v81h430q107 0 164.5 -50.5t57.5 -144.5q0 -62 -27 -103t-88 -71q32 -14 53.5 -33t31 -43t12.5 -45t3 -50q0 -9 -0.5 -26t-0.5 -25q0 -33 5 -57h86v-81h-160q-20 46 -20 119v65q0 67 -29 98.5
t-91 31.5h-240v-233h94zM649 521q0 72 -38 99t-105 27h-225v-251h225q74 0 108.5 30t34.5 95z" />
    <glyph glyph-name="rcaron" unicode="&#x159;" horiz-adv-x="483" 
d="M330 591h-95l-96 150h63l81 -96l79 96h64zM165 456v68h148v-95q36 59 69.5 84.5t73.5 25.5q11 0 32 -3v-85q-84 -2 -126 -39q-41 -37 -42 -140l-1 -204h72v-68h-226v68h71v388h-71z" />
    <glyph glyph-name="Sacute" unicode="&#x15a;" horiz-adv-x="808" 
d="M430 941h113l-149 -148h-60zM410 59q56 0 95 13t57.5 34t26 41.5t7.5 43.5q0 82 -134 118l-181 48q-143 38 -143 170q0 99 69.5 156.5t189.5 57.5q111 0 179 -46v52h94v-232h-6h-88q-1 71 -48 109.5t-134 38.5q-74 0 -118.5 -34t-44.5 -89q0 -42 27 -66t93 -42l183 -49
q74 -20 114.5 -68t40.5 -115q0 -29 -7.5 -57.5t-27.5 -59t-51 -53.5t-82.5 -38t-116.5 -15q-41 0 -78.5 6.5t-76.5 24t-67 45t-46.5 73.5t-19.5 106h88v-5q0 -31 9.5 -58t31 -53t64 -41.5t101.5 -15.5z" />
    <glyph glyph-name="sacute" unicode="&#x15b;" horiz-adv-x="640" 
d="M350 740h113l-149 -148h-60zM197 156q6 -47 32.5 -74.5t95.5 -27.5q55 0 88.5 22.5t33.5 59.5q0 29 -19 46t-62 27l-78 19q-93 22 -129.5 55.5t-36.5 95.5q0 73 55 116.5t146 43.5t140 -42t50 -119h-88q-3 84 -105 84q-51 0 -81 -21.5t-30 -57.5q0 -28 23 -45.5t74 -29.5
l80 -19q78 -19 113 -53.5t35 -92.5q0 -76 -58.5 -121t-157.5 -45q-203 0 -209 179h88z" />
    <glyph glyph-name="Scircumflex" unicode="&#x15c;" horiz-adv-x="667" 
d="M288 941h95l96 -150h-63l-81 96l-79 -96h-64zM410 59q59 0 95.5 13t56.5 33t27 43t7 43q0 82 -134 118l-181 48q-143 38 -143 170q0 49 18 89t51.5 67.5t81.5 42.5t108 15q22 0 46 -1.5t47.5 -8.5t47 -20t45.5 -36v72h87v-232h-94q-1 72 -47.5 110t-134.5 38
q-75 0 -119 -34t-44 -89q0 -42 27 -66t93 -42l183 -49q75 -20 115 -68t40 -115q0 -33 -12.5 -72t-45 -72.5t-87.5 -56t-140 -22.5q-48 0 -98.5 10.5t-92 39t-69 78t-28.5 127.5h88v-5q0 -28 9 -57.5t32 -54t63 -40.5t102 -16z" />
    <glyph glyph-name="scircumflex" unicode="&#x15d;" horiz-adv-x="500" 
d="M202 715h95l96 -150h-63l-81 96l-79 -96h-64zM288 156q6 -47 32.5 -74.5t95.5 -27.5q55 0 88.5 22.5t33.5 59.5q0 29 -19 46t-62 27l-78 19q-93 22 -129.5 55.5t-36.5 95.5q0 73 55 116.5t146 43.5t140 -42t50 -119h-88q-3 84 -105 84q-51 0 -81 -21.5t-30 -57.5
q0 -28 23 -45.5t74 -29.5l80 -19q78 -19 113 -53.5t35 -92.5q0 -76 -58.5 -121t-157.5 -45q-203 0 -209 179h88z" />
    <glyph glyph-name="Scedilla" unicode="&#x15e;" horiz-adv-x="667" 
d="M342 59q56 0 95 13t57.5 34t26 41.5t7.5 43.5q0 83 -134 118l-181 48q-143 37 -143 170q0 99 69.5 156.5t189.5 57.5q126 0 196 -59.5t71 -166.5h-88q-1 71 -48 109.5t-134 38.5q-74 0 -118.5 -34t-44.5 -89q0 -42 27 -66t93 -42l183 -49q74 -20 114.5 -68t40.5 -115
q0 -40 -12 -74.5t-41.5 -68.5t-89 -55.5t-143.5 -25.5l-15 -32q14 2 28 2q38 0 58.5 -17.5t20.5 -49.5q0 -43 -33 -68t-90 -25q-47 0 -125 34l21 40q19 -10 46 -21.5t52 -11.5q23 0 38.5 13t15.5 32q0 37 -46 37q-14 0 -31 -7l-11 6l31 69q-9 3 -11 3l-44 7
q-89 19 -140.5 83t-51.5 155v7h88v-5q0 -31 9.5 -58t31 -53t64 -41.5t101.5 -15.5z" />
    <glyph glyph-name="scedilla" unicode="&#x15f;" horiz-adv-x="500" 
d="M122 156q6 -47 32.5 -74.5t95.5 -27.5q55 0 88.5 22.5t33.5 59.5q0 29 -19 46t-62 27l-78 19q-93 22 -129.5 55.5t-36.5 95.5q0 73 55 116.5t146 43.5t140 -42t50 -119h-88q-3 84 -105 84q-51 0 -81 -21.5t-30 -57.5q0 -28 23 -45.5t74 -29.5l80 -19q78 -19 113 -53.5
t35 -92.5q0 -47 -26 -86t-72 -59q-38 -17 -117 -22l-14 -32q14 2 28 2q38 0 58.5 -17.5t20.5 -49.5q0 -43 -33 -68t-90 -25q-47 0 -125 34l21 40q19 -10 46 -21.5t52 -11.5q23 0 38.5 13t15.5 32q0 37 -46 37q-14 0 -31 -7l-11 6l31 71q-168 17 -171 177h88z" />
    <glyph glyph-name="Scaron" unicode="&#x160;" horiz-adv-x="808" 
d="M448 790h-95l-96 150h63l81 -96l79 96h64zM410 59q59 0 95.5 13t56.5 33t27 43t7 43q0 82 -134 118l-181 48q-143 38 -143 170q0 49 18 89t51.5 67.5t81.5 42.5t108 15q22 0 46 -1.5t47.5 -8.5t47 -20t45.5 -36v72h87v-232h-94q-1 72 -47.5 110t-134.5 38q-75 0 -119 -34
t-44 -89q0 -42 27 -66t93 -42l183 -49q75 -20 115 -68t40 -115q0 -33 -12.5 -72t-45 -72.5t-87.5 -56t-140 -22.5q-48 0 -98.5 10.5t-92 39t-69 78t-28.5 127.5h88v-5q0 -28 9 -57.5t32 -54t63 -40.5t102 -16z" />
    <glyph glyph-name="scaron" unicode="&#x161;" horiz-adv-x="528" 
d="M310 591h-95l-96 150h63l81 -96l79 96h64zM140 156q6 -47 32.5 -74.5t95.5 -27.5q55 0 88.5 22.5t33.5 59.5q0 29 -19 46t-62 27l-78 19q-93 22 -129.5 55.5t-36.5 95.5q0 73 55 116.5t146 43.5t140 -42t50 -119h-88q-3 84 -105 84q-51 0 -81 -21.5t-30 -57.5
q0 -28 23 -45.5t74 -29.5l80 -19q78 -19 113 -53.5t35 -92.5q0 -76 -58.5 -121t-157.5 -45q-203 0 -209 179h88z" />
    <glyph glyph-name="uni0162" unicode="&#x162;" horiz-adv-x="611" 
d="M188 -139q25 -13 50 -23t48 -10t38.5 13t15.5 32q0 37 -46 37q-15 0 -31 -8l-12 7l42 91h-32v647h-240v82h572v-82h-239v-647h-23l-23 -55q13 2 28 2q38 0 58.5 -17.5t20.5 -49.5q0 -43 -33 -68t-90 -25q-47 0 -125 34z" />
    <glyph glyph-name="uni0163" unicode="&#x163;" horiz-adv-x="278" 
d="M66 -153q25 -13 50 -23t48 -10t38.5 13t15.5 32q0 37 -46 37q-15 0 -31 -8l-12 7l38 83q-40 4 -61 25t-21 57v396h-71v68h71v144h83v-144h86v-68h-86v-359q0 -28 9.5 -37.5t36.5 -9.5q25 0 40 4v-70q-28 -5 -49 -6l-19 -47q13 2 28 2q38 0 58.5 -17.5t20.5 -49.5
q0 -43 -33 -68t-90 -25q-47 0 -125 34z" />
    <glyph glyph-name="Tcaron" unicode="&#x164;" horiz-adv-x="698" 
d="M400 790h-95l-96 150h63l81 -96l79 96h64zM306 81v566h-151v-101h-89v183h572v-183h-89v101h-150v-566h94v-81h-281v81h94z" />
    <glyph glyph-name="tcaron" unicode="&#x165;" horiz-adv-x="443" 
d="M296 668h105v-120q0 -131 -105 -131v38q35 1 47.5 20t12.5 71v18h-60v104zM412 524v-68h-86v-352q0 -28 9.5 -37.5t36.5 -9.5q25 0 40 4v-70q-39 -7 -68 -7q-49 0 -75 21.5t-26 61.5v389h-71v68h71v144h83v-144h86z" />
    <glyph glyph-name="Tbar" unicode="&#x166;" horiz-adv-x="611" 
d="M120 357v72h141v218h-240v82h572v-82h-239v-218h141v-72h-141v-357h-93v357h-141z" />
    <glyph glyph-name="tbar" unicode="&#x167;" horiz-adv-x="278" 
d="M254 524v-68h-86v-144h79v-72h-79v-143q0 -28 9.5 -37.5t36.5 -9.5q25 0 40 4v-70q-39 -7 -68 -7q-49 0 -75 21.5t-26 61.5v180h-76v72h76v144h-71v68h71v144h83v-144h86z" />
    <glyph glyph-name="Utilde" unicode="&#x168;" horiz-adv-x="910" 
d="M382 873q25 0 69 -18.5t64 -18.5q25 0 37 37h58q-15 -104 -89 -104q-20 0 -70 19t-64 19q-23 0 -33 -37h-58q8 49 30.5 76t55.5 27zM341 729v-81h-94v-431q0 -79 50.5 -118.5t135.5 -39.5q88 0 138 42t50 116v431h-94v81h281v-81h-94v-431q0 -110 -76.5 -175t-204.5 -65
q-130 0 -204.5 64.5t-74.5 175.5v431h-94v81h187h94z" />
    <glyph glyph-name="utilde" unicode="&#x169;" horiz-adv-x="698" 
d="M274 669q25 0 69 -18.5t64 -18.5q25 0 37 37h58q-15 -104 -89 -104q-20 0 -70 19t-64 19q-23 0 -33 -37h-58q8 49 30.5 76t55.5 27zM117 456v68h154v-371q0 -47 29 -75t79 -28q65 0 104 48q39 49 39 129v229h-71v68h154v-456h71v-68h-146v73q-37 -52 -77 -74t-98 -22
q-76 0 -121.5 39t-45.5 104v336h-71z" />
    <glyph glyph-name="Umacron" unicode="&#x16a;" horiz-adv-x="876" 
d="M565 871v-70h-274v70h274zM808 729v-81h-94v81h94zM154 729v-81h-94v81h94zM621 729v-81h-94v81h94zM341 729v-81h-94v81h94zM621 729h93v-512q0 -110 -76.5 -175t-204.5 -65q-130 0 -204.5 64.5t-74.5 175.5v512h93v-512q0 -79 50.5 -118.5t135.5 -39.5q88 0 138 42
t50 116v512z" />
    <glyph glyph-name="umacron" unicode="&#x16b;" horiz-adv-x="699" 
d="M480 669v-70h-274v70h274zM135 456v-336q0 -65 45.5 -104t121.5 -39q58 0 98 22t77 74v-73h146v68h-71v456h-154v-68h71v-229q0 -80 -39 -129q-39 -48 -104 -48q-50 0 -79 28t-29 75v371h-154v-68h71z" />
    <glyph glyph-name="Ubreve" unicode="&#x16c;" horiz-adv-x="910" 
d="M303 904h59q8 -66 92 -66q40 0 64 17t27 49h59q-11 -135 -152 -135q-36 0 -66 9.5t-56 41.5t-27 84zM341 729v-81h-94v-431q0 -79 50.5 -118.5t135.5 -39.5q88 0 138 42t50 116v431h-94v81h281v-81h-94v-431q0 -110 -76.5 -175t-204.5 -65q-130 0 -204.5 64.5
t-74.5 175.5v431h-94v81h187h94z" />
    <glyph glyph-name="ubreve" unicode="&#x16d;" horiz-adv-x="698" 
d="M194 700h59q8 -66 92 -66q40 0 64 17t27 49h59q-11 -135 -152 -135q-36 0 -66 9.5t-56 41.5t-27 84zM117 456v68h154v-371q0 -47 29 -75t79 -28q65 0 104 48q39 49 39 129v229h-71v68h154v-456h71v-68h-146v73q-37 -52 -77 -74t-98 -22q-76 0 -121.5 39t-45.5 104v336
h-71z" />
    <glyph glyph-name="Uring" unicode="&#x16e;" horiz-adv-x="876" 
d="M428 954q37 0 62.5 -25.5t25.5 -62.5q0 -36 -26 -61.5t-62 -25.5t-62 26t-26 62q0 35 26 61t62 26zM428 910q-18 0 -31 -13t-13 -30q0 -18 13 -31t31 -13t31 13t13 30q0 19 -12.5 31.5t-31.5 12.5zM341 729v-81h-94v-431q0 -79 50.5 -118.5t135.5 -39.5q88 0 138 42
t50 116v431h-94v81h281v-81h-94v-431q0 -110 -76.5 -175t-204.5 -65q-130 0 -204.5 64.5t-74.5 175.5v431h-94v81h187h94z" />
    <glyph glyph-name="uring" unicode="&#x16f;" horiz-adv-x="699" 
d="M343 754q37 0 62.5 -25.5t25.5 -62.5q0 -36 -26 -61.5t-62 -25.5t-62 26t-26 62q0 35 26 61t62 26zM343 710q-18 0 -31 -13t-13 -30q0 -18 13 -31t31 -13t31 13t13 30q0 19 -12.5 31.5t-31.5 12.5zM117 456v68h154v-371q0 -47 29 -75t79 -28q65 0 104 48q39 49 39 129
v229h-71v68h154v-456h71v-68h-146v73q-37 -52 -77 -74t-98 -22q-76 0 -121.5 39t-45.5 104v336h-71z" />
    <glyph glyph-name="Uhungarumlaut" unicode="&#x170;" horiz-adv-x="876" 
d="M392 940h113l-149 -150h-60zM566 940h113l-149 -150h-60zM341 729v-81h-94v-431q0 -79 50.5 -118.5t135.5 -39.5q88 0 138 42t50 116v431h-94v81h281v-81h-94v-431q0 -110 -76.5 -175t-204.5 -65q-130 0 -204.5 64.5t-74.5 175.5v431h-94v81h187h94z" />
    <glyph glyph-name="uhungarumlaut" unicode="&#x171;" horiz-adv-x="699" 
d="M313 740h113l-149 -150h-60zM487 740h113l-149 -150h-60zM117 456v68h154v-371q0 -47 29 -75t79 -28q65 0 104 48q39 49 39 129v229h-71v68h154v-456h71v-68h-146v73q-37 -52 -77 -74t-98 -22q-76 0 -121.5 39t-45.5 104v336h-71z" />
    <glyph glyph-name="Uogonek" unicode="&#x172;" horiz-adv-x="722" 
d="M527 -205q-57 0 -95 26t-38 67q0 31 17 54.5t56 47.5q-57 -13 -101 -13q-131 0 -206 64t-75 176v512h93v-512q0 -79 50.5 -118.5t135.5 -39.5q88 0 138 42t50 116v512h93v-512q0 -52 -18.5 -95.5t-44.5 -72t-52 -52.5t-44.5 -50t-18.5 -53q0 -54 72 -54q37 0 63 10v-45
q-48 -10 -75 -10z" />
    <glyph glyph-name="uogonek" unicode="&#x173;" horiz-adv-x="556" 
d="M482 524v-524q-35 -20 -56 -49.5t-21 -58.5q0 -24 18 -38t49 -14q23 0 49 10v-45q-5 -1 -24.5 -5t-27.5 -4q-62 0 -99 25t-37 68q0 62 96 111h-22v73q-37 -52 -77 -74t-98 -22q-76 0 -121.5 39t-45.5 104v404h83v-371q0 -47 29 -75t79 -28q65 0 104 48.5t39 128.5v297h83
z" />
    <glyph glyph-name="Wcircumflex" unicode="&#x174;" horiz-adv-x="944" 
d="M428 919h95l96 -150h-63l-81 96l-79 -96h-64zM1034 729v-81h-74l-164 -648h-102l-168 599l-163 -599h-102l-166 648h-74v81h251v-81h-76l119 -511l162 592h100l166 -592l115 511h-75v81h251z" />
    <glyph glyph-name="wcircumflex" unicode="&#x175;" horiz-adv-x="845" 
d="M375 741h95l96 -150h-63l-81 96l-79 -96h-64zM848 456l-134 -456h-95l-106 411l-101 -411h-94l-132 456h-91v68h234v-68h-53l89 -340l100 408h102l103 -408l87 340h-54v68h236v-68h-91z" />
    <glyph glyph-name="Ycircumflex" unicode="&#x176;" horiz-adv-x="857" 
d="M384 919h95l96 -150h-63l-81 96l-79 -96h-64zM327 729v-81h-65l165 -274l160 274h-66v81h259v-81h-84l-224 -362v-205h94v-81h-281v81h94v205l-230 362h-85v81h263z" />
    <glyph glyph-name="ycircumflex" unicode="&#x177;" horiz-adv-x="500" 
d="M202 741h95l96 -150h-63l-81 96l-79 -96h-64zM95 456v68h153l134 -408l121 340h-47v68h161l-233 -634q-41 -108 -135 -108q-31 0 -56 13v75q27 -6 44 -6q26 0 41 12q15 11 26 39l32 83l-154 458h-87z" />
    <glyph glyph-name="Ydieresis" unicode="&#x178;" horiz-adv-x="786" 
d="M364 904v-103h-104v103h104zM526 904v-103h-104v103h104zM298 729v-81h-65l165 -274l160 274h-66v81h259v-81h-84l-224 -362v-205h94v-81h-281v81h94v205l-230 362h-85v81h263z" />
    <glyph glyph-name="Zacute" unicode="&#x179;" horiz-adv-x="763" 
d="M413 939h113l-149 -148h-60zM648 163v-81h-94v81h94zM215 647v-81h-94v81h94zM646 729v-84l-436 -563h438v-82h-555v82l438 565h-410v82h525z" />
    <glyph glyph-name="zacute" unicode="&#x17a;" horiz-adv-x="621" 
d="M336 739h113l-149 -148h-60zM444 73h-254l311 377v74h-391v-141h71v68h221l-313 -376v-75h426v141h-71v-68z" />
    <glyph glyph-name="Zdotaccent" unicode="&#x17b;" horiz-adv-x="763" 
d="M436 905v-104h-104v104h104zM215 647v-81h-94v163h525v-84l-436 -563h344v81h94v-163h-555v82l438 565h-316z" />
    <glyph glyph-name="zdotaccent" unicode="&#x17c;" horiz-adv-x="621" 
d="M357 704v-104h-104v104h104zM518 141h71v-141h-426v75l313 376h-221v-68h-71v141h391v-74l-311 -377h254v68z" />
    <glyph glyph-name="Zcaron" unicode="&#x17d;" horiz-adv-x="726" 
d="M417 790h-95l-96 150h63l81 -96l79 96h64zM201 647v-81h-94v163h525v-84l-436 -563h344v81h94v-163h-555v82l438 565h-316z" />
    <glyph glyph-name="zcaron" unicode="&#x17e;" horiz-adv-x="520" 
d="M304 591h-95l-96 150h63l81 -96l79 96h64zM398 141h71v-141h-426v75l313 376h-221v-68h-71v141h391v-74l-311 -377h254v68z" />
    <glyph glyph-name="longs" unicode="&#x17f;" horiz-adv-x="278" 
d="M171 0h-83v456h-70v68h70v89q0 56 32.5 87.5t90.5 31.5q23 0 47 -5v-69q-19 1 -29 1q-58 0 -58 -53v-606z" />
    <glyph glyph-name="uni0180" unicode="&#x180;" horiz-adv-x="556" 
d="M89 653v76h83v-76h150v-53h-150v-139q64 78 161 78q101 0 162.5 -75.5t61.5 -199.5q0 -130 -62 -208.5t-164 -78.5q-98 0 -168 82v-59h-74v600h-63v53h63zM318 457q-67 0 -106.5 -54.5t-39.5 -146.5q0 -89 40 -143t106 -54q68 0 110 55t42 144t-42 144t-110 55z" />
    <glyph glyph-name="uni0181" unicode="&#x181;" horiz-adv-x="854" 
d="M586 82q49 0 80 21.5t41 47.5t10 56q0 57 -34 91.5t-97 34.5h-227v-251h227zM539 647h-180v-232h180q146 0 146 116t-146 116zM171 448q-123 0 -123 154q0 49 30.5 88t101.5 39h382q61 0 106 -18t67.5 -47.5t32.5 -59t10 -60.5q0 -112 -101 -159q70 -27 101.5 -69
t31.5 -108q0 -94 -59 -151t-156 -57h-329v642h-82q-49 0 -49 -58q0 -23 13.5 -38t40.5 -15q2 0 10 0.5t19 0.5v-79q-24 -5 -47 -5z" />
    <glyph glyph-name="uni0182" unicode="&#x182;" horiz-adv-x="667" 
d="M623 218q0 -36 -10 -71t-32.5 -69.5t-67 -56t-105.5 -21.5h-329v729h489v-82h-396v-212h180q271 0 271 -215v-2zM399 353h-227v-271h227q39 0 67 13t40.5 35.5t18 43t5.5 43.5t-5.5 44t-18 43t-40.5 35.5t-67 13.5z" />
    <glyph glyph-name="uni0183" unicode="&#x183;" horiz-adv-x="556" 
d="M283 461q-66 0 -106 -55.5t-40 -147.5t40 -147.5t106 -55.5q68 0 110.5 55.5t42.5 144.5q0 94 -41.5 150t-111.5 56zM54 0v729h391v-73h-308v-203q57 86 162 86q104 0 164 -74t60 -201q0 -130 -62 -208.5t-166 -78.5q-107 0 -166 90v-67h-75z" />
    <glyph glyph-name="uni0184" unicode="&#x184;" horiz-adv-x="667" 
d="M172 82h212q64 0 105 41t41 102q0 64 -40.5 104t-105.5 40h-212v-287zM79 729h93v-278h165q150 0 218 -60t68 -162v-3q0 -99 -65 -162.5t-165 -63.5h-314v451l-128 139z" />
    <glyph glyph-name="uni0185" unicode="&#x185;" horiz-adv-x="556" 
d="M283 461q-66 0 -106 -55.5t-40 -147.5t40 -147.5t106 -55.5q68 0 110.5 55.5t42.5 144.5q0 94 -41.5 150t-111.5 56zM54 729h83v-276q57 86 162 86q104 0 164 -74t60 -201q0 -130 -62 -208.5t-166 -78.5q-107 0 -166 90v-67h-75v451l-93 139z" />
    <glyph glyph-name="uni0186" unicode="&#x186;" horiz-adv-x="722" 
d="M319 -23q-49 0 -100 16.5t-93 65.5v-83h-88v239h95q16 -78 62.5 -117t134.5 -39q107 0 168 81q61 80 61 220q0 139 -64 219q-65 80 -173 80q-90 0 -138 -50.5t-65 -156.5h-96q33 289 300 289q75 0 134.5 -25.5t95.5 -64.5q36 -41 59 -91q23 -54 31.5 -101.5t8.5 -96.5
q0 -51 -8.5 -99t-32.5 -102q-24 -52 -59 -92q-36 -40 -96.5 -66t-136.5 -26z" />
    <glyph glyph-name="uni0187" unicode="&#x187;" horiz-adv-x="722" 
d="M48 356q0 50 8.5 99t32.5 102t59.5 92.5t96 65.5t136.5 26q138 0 210 -79q31 59 111 59q23 0 47 -5v-79q-19 1 -29 1q-30 0 -44 -12t-14 -41v-82h-95q-16 78 -63 117t-134 39q-106 0 -167.5 -81t-61.5 -221q0 -137 64 -217.5t173 -80.5q90 0 138 50.5t65 156.5h96
q-33 -289 -300 -289q-75 0 -134.5 25.5t-95 64.5t-59 91.5t-32 100.5t-8.5 97z" />
    <glyph glyph-name="uni0188" unicode="&#x188;" horiz-adv-x="500" 
d="M404 494q25 62 107 62q23 0 47 -5v-69q-19 1 -29 1q-30 0 -44 -12t-14 -41v-82h-84q-8 55 -40 84.5t-84 29.5q-68 0 -106.5 -55.5t-38.5 -153.5q0 -93 39 -146t108 -53q107 0 128 126h84q-8 -96 -64 -149.5t-150 -53.5q-107 0 -169.5 74.5t-62.5 201.5q0 130 63.5 208
t169.5 78q84 0 140 -45z" />
    <glyph glyph-name="uni0189" unicode="&#x189;" horiz-adv-x="722" 
d="M89 339h-69v67h69v323h282q138 0 217 -97t79 -267t-79 -267.5t-217 -97.5h-282v339zM182 339v-257h173q107 0 163 72t56 211t-56 210.5t-163 71.5h-173v-241h171v-67h-171z" />
    <glyph glyph-name="uni018A" unicode="&#x18a;" horiz-adv-x="899" 
d="M359 82h172q108 0 164 72t56 210q0 139 -56 211t-164 72h-172v-565zM171 448q-123 0 -123 154q0 49 30.5 88t101.5 39h367q139 0 218 -97t79 -267t-79.5 -267.5t-217.5 -97.5h-281v642h-82q-49 0 -49 -58q0 -23 13.5 -38t40.5 -15q2 0 10 0.5t19 0.5v-79q-24 -5 -47 -5z
" />
    <glyph glyph-name="uni018B" unicode="&#x18b;" horiz-adv-x="667" 
d="M79 218v2q0 215 271 215h180v212h-396v82h489v-729h-329q-61 0 -105.5 21.5t-67 56t-32.5 69.5t-10 71zM303 82h227v271h-227q-39 0 -67 -13.5t-40.5 -35.5t-18 -43t-5.5 -44t5.5 -43.5t18 -43t40.5 -35.5t67 -13z" />
    <glyph glyph-name="uni018C" unicode="&#x18c;" horiz-adv-x="556" 
d="M294 461q-70 0 -111.5 -56t-41.5 -150q0 -89 42.5 -144.5t110.5 -55.5q66 0 106 55.5t40 147.5t-40 147.5t-106 55.5zM523 0h-75v67q-59 -90 -166 -90q-104 0 -166 78.5t-62 208.5q0 127 60 201t164 74q105 0 162 -86v203h-308v73h391v-729z" />
    <glyph glyph-name="uni018D" unicode="&#x18d;" horiz-adv-x="556" 
d="M529 290q0 -115 -59 -186t-154 -71q-10 0 -34 4l211 -162v-72h-398v72h269l-175 138q-16 13 -35 25.5t-40 36t-38 49.5t-28 67.5t-11 90.5q0 137 60.5 201.5t193.5 64.5q32 0 62.5 -7t63 -25t57 -46t40 -74.5t15.5 -105.5zM285 100q70 0 111 51.5t43 130.5
q0 91 -40 137.5t-108 46.5h-28q-47 0 -69 -16q-32 -24 -50.5 -70.5t-18.5 -99.5q0 -82 41 -131t119 -49z" />
    <glyph glyph-name="uni018E" unicode="&#x18e;" horiz-adv-x="667" 
d="M520 332h-397v82h397v233h-412v82h505v-729h-523v82h430v250z" />
    <glyph glyph-name="uni018F" unicode="&#x18f;" horiz-adv-x="722" 
d="M155 252q5 -33 10 -55.5t18.5 -51t32.5 -45.5t52.5 -29t78.5 -12q86 0 144.5 51t80.5 142h-417zM677 356q0 -49 -8.5 -97t-32 -100.5t-59 -91.5t-95 -64.5t-134.5 -25.5q-300 0 -301 357h536q1 8 1 23q0 140 -61.5 221t-167.5 81q-87 0 -134 -38.5t-63 -117.5h-95
q43 238 281 238q76 0 136.5 -26t96 -65.5t59.5 -92.5t32.5 -102t8.5 -99z" />
    <glyph glyph-name="uni0190" unicode="&#x190;" horiz-adv-x="667" 
d="M333 -23q-81 0 -140 21.5t-89 57t-43 71t-13 73.5q0 125 130 174q-105 45 -105 153q0 99 69.5 156.5t189.5 57.5q126 0 196 -59.5t71 -166.5h-88q-1 71 -48 109.5t-134 38.5q-74 0 -118.5 -34t-44.5 -89q0 -46 47.5 -91.5t110.5 -45.5h88v-82h-108q-67 0 -115 -42
t-48 -88q0 -22 7.5 -42.5t26 -42t57.5 -34.5t95 -13q59 0 101.5 15t64 41t31 53.5t9.5 58.5v5h88q-1 -74 -28 -126.5t-71.5 -79t-90.5 -38t-98 -11.5z" />
    <glyph glyph-name="uni0191" unicode="&#x191;" horiz-adv-x="611" 
d="M90 -76v805h489v-82h-396v-233h348v-82h-348v-441q0 -53 -40.5 -81t-112.5 -28q-13 0 -28 3v81q17 -1 20 -1q68 0 68 59z" />
    <glyph glyph-name="florin" unicode="&#x192;" horiz-adv-x="278" 
d="M258 524v-68h-87v-565q0 -109 -143 -109q-13 0 -28 3v71q17 -1 20 -1q38 0 53 15t15 54v532h-70v68h70v89q0 56 32.5 87.5t90.5 31.5q23 0 47 -5v-69q-19 1 -29 1q-58 0 -58 -53v-82h87z" />
    <glyph glyph-name="uni0193" unicode="&#x193;" horiz-adv-x="778" 
d="M137 362q0 -38 7 -76.5t25 -80.5t46.5 -73.5t75.5 -52t107 -20.5q100 0 164.5 63t64.5 161v20h-222v82h304v-389h-59l-23 97q-104 -116 -249 -116q-148 0 -241 106t-93 274q0 48 9 96.5t34 101.5t62.5 93t101 66.5t143.5 26.5q146 0 230 -82q28 67 115 67q23 0 47 -5v-79
q-19 1 -29 1q-30 0 -44 -12t-14 -41v-82h-95q-15 70 -71.5 110.5t-139.5 40.5q-116 0 -186 -81.5t-70 -215.5z" />
    <glyph glyph-name="uni0194" unicode="&#x194;" horiz-adv-x="667" 
d="M342 67q29 0 29 36q0 35 -28 91q-32 -59 -32 -91q0 -18 9.5 -27t21.5 -9zM217 102q0 31 12 62t65 122l-281 443h115l214 -355l208 355h111l-274 -443q77 -103 77 -176q0 -62 -36 -99.5t-86 -37.5q-44 0 -74.5 26.5t-40.5 54t-10 48.5z" />
    <glyph glyph-name="uni0195" unicode="&#x195;" horiz-adv-x="889" 
d="M559 -23h-55q-49 0 -75 21.5t-26 61.5v303q0 55 -33.5 79t-74.5 24q-64 0 -103 -48.5t-39 -128.5v-289h-83v729h83v-277q37 48 74.5 67.5t93.5 19.5q76 0 120.5 -38.5t44.5 -104.5v-299q0 -47 73 -47q45 0 80 17.5t54 42t31 55t16 52t4 37.5q0 46 -26.5 104t-98.5 109
l102 4q49 -38 80.5 -100.5t31.5 -121.5q0 -19 -7 -49t-26.5 -70t-49 -73t-79.5 -56.5t-112 -23.5z" />
    <glyph glyph-name="uni0196" unicode="&#x196;" horiz-adv-x="278" 
d="M149 729v-632q0 -28 9.5 -37.5t36.5 -9.5q25 0 40 4v-70q-39 -7 -68 -7q-49 0 -75 21.5t-26 61.5v669h83z" />
    <glyph glyph-name="uni0197" unicode="&#x197;" horiz-adv-x="333" 
d="M119 339h-119v67h119v323h94v-323h120v-67h-120v-339h-94v339z" />
    <glyph glyph-name="uni0198" unicode="&#x198;" horiz-adv-x="667" 
d="M172 255v-255h-93v729h93v-369l288 295q65 61 126 61q52 0 86 -31l-56 -62q-10 10 -26 10q-32 0 -63 -31l-169 -170l300 -432h-110l-257 374z" />
    <glyph glyph-name="uni0199" unicode="&#x199;" horiz-adv-x="500" 
d="M58 0v613q0 56 32.5 87.5t90.5 31.5q23 0 47 -5v-69q-19 1 -29 1q-58 0 -58 -53v-304l222 222h107l-182 -181l214 -343h-103l-177 284l-81 -80v-204h-83z" />
    <glyph glyph-name="uni019A" unicode="&#x19a;" horiz-adv-x="333" 
d="M124 339h-124v67h124v323h84v-323h125v-67h-125v-339h-84v339z" />
    <glyph glyph-name="uni019B" unicode="&#x19b;" horiz-adv-x="560" 
d="M132 732q42 0 71 -18t59 -71l136 95v-76l-111 -77l187 -493q8 -19 28 -19q5 0 18 4t16 7l20 -70q-48 -24 -81 -24q-25 0 -41.5 12t-23.5 25.5t-16 40.5l-122 354l-146 -420h-96l198 520l-6 18l-168 -116v77q5 0 144 98q-16 29 -34.5 38t-43.5 9l-54 -8l10 82q33 12 56 12
z" />
    <glyph glyph-name="uni019C" unicode="&#x19c;" horiz-adv-x="833" 
d="M768 0h-83v74q-34 -47 -71.5 -68t-89.5 -21q-97 0 -141 80q-37 -44 -73 -62t-88 -18q-74 0 -116 38t-42 108v598h95v-555q0 -50 23.5 -77.5t68.5 -27.5q51 0 84.5 39.5t33.5 97.5v523h95v-555q0 -105 91 -105q51 0 84.5 39.5t33.5 97.5v523h95v-729z" />
    <glyph glyph-name="uni019D" unicode="&#x19d;" horiz-adv-x="722" 
d="M76 -76v805h101l381 -596v596h88v-729h-105l-377 591v-700q0 -53 -38.5 -81t-109.5 -28q-13 0 -28 3v76q17 -1 20 -1q68 0 68 64z" />
    <glyph glyph-name="uni019E" unicode="&#x19e;" horiz-adv-x="556" 
d="M70 524h77v-88q35 55 75.5 79t98.5 24q76 0 121 -39t45 -104v-596h-83v563q0 47 -29 75t-79 28q-64 0 -103 -48.5t-39 -128.5v-289h-84v524z" />
    <glyph glyph-name="uni019F" unicode="&#x19f;" horiz-adv-x="778" 
d="M742 353q0 -162 -96 -269t-256 -107q-158 0 -255 105.5t-97 276.5t97 276.5t254 105.5q160 0 256.5 -106t96.5 -282zM648 385q-8 125 -77.5 199.5t-181.5 74.5q-109 0 -179.5 -75t-77.5 -199h516zM647 315h-514q12 -117 81.5 -186.5t175.5 -69.5t176 70t81 186z" />
    <glyph glyph-name="Ohorn" unicode="&#x1a0;" horiz-adv-x="778" 
d="M389 659q-116 0 -187 -82.5t-71 -217.5t71.5 -217.5t187.5 -82.5t187.5 82t71.5 214q0 138 -71 221t-189 83zM742 353q0 -162 -96 -269t-256 -107q-158 0 -255 105.5t-97 276.5t97 276.5t254 105.5q62 0 116 -18t87 -36t45 -18q25 0 37 1.5t21 8t9 20.5q0 23 -17 43
l64 54q37 -43 37 -99q0 -93 -107 -109q61 -97 61 -235z" />
    <glyph glyph-name="ohorn" unicode="&#x1a1;" horiz-adv-x="556" 
d="M273 462q-70 0 -110 -54.5t-40 -149.5t40 -149.5t110 -54.5q69 0 109.5 54.5t40.5 146.5q0 97 -39.5 152t-110.5 55zM528 631q37 -43 37 -99q0 -86 -92 -106q37 -69 37 -172q0 -129 -63.5 -203t-173.5 -74q-112 0 -174.5 74.5t-62.5 206.5t63 206.5t173 74.5
q56 0 97 -17.5t54 -17.5q31 0 44.5 6t13.5 24q0 23 -17 43z" />
    <glyph glyph-name="uni01A2" unicode="&#x1a2;" horiz-adv-x="944" 
d="M389 659q-116 0 -187 -82.5t-71 -217.5t71.5 -217.5t187.5 -82.5t187.5 82t71.5 214q0 138 -71 221t-189 83zM742 353q0 -162 -96 -269t-256 -107q-158 0 -255 105.5t-97 276.5t97 276.5t254 105.5q113 0 199 -56q84 61 180 61q83 0 119.5 -51.5t36.5 -135.5v-559h-94
v589q0 30 -15.5 56.5t-52.5 26.5q-38 0 -59 -10t-49 -36q88 -105 88 -273z" />
    <glyph glyph-name="uni01A3" unicode="&#x1a3;" horiz-adv-x="722" 
d="M273 462q-70 0 -110 -54.5t-40 -149.5t40 -149.5t110 -54.5q69 0 109.5 54.5t40.5 146.5q0 97 -39.5 152t-110.5 55zM672 369v-569h-84v589q0 39 -11 60t-45 21q-39 0 -74 -19q52 -73 52 -197q0 -129 -63.5 -203t-173.5 -74q-112 0 -174.5 74.5t-62.5 206.5t63 206.5
t173 74.5q84 0 140 -41q64 41 126 41q70 0 102 -36.5t32 -133.5z" />
    <glyph glyph-name="uni01A4" unicode="&#x1a4;" horiz-adv-x="842" 
d="M359 391h194q67 0 104.5 34t37.5 94t-37.5 94t-104.5 34h-194v-256zM792 515q0 -93 -56.5 -149.5t-147.5 -56.5h-229v-309h-93v642h-82q-49 0 -49 -58q0 -23 13.5 -38t40.5 -15q2 0 10 0.5t19 0.5v-79q-24 -5 -47 -5q-123 0 -123 154q0 49 30.5 88t101.5 39h387
q108 0 166.5 -55.5t58.5 -158.5z" />
    <glyph glyph-name="uni01A5" unicode="&#x1a5;" horiz-adv-x="556" 
d="M284 461q-66 0 -106 -55.5t-40 -147.5t40 -147.5t106 -55.5q68 0 110 55.5t42 144.5q0 94 -41.5 150t-110.5 56zM131 606v-161q59 94 167 94q104 0 164.5 -77t60.5 -209q0 -125 -61.5 -200.5t-162.5 -75.5q-97 0 -161 78v-273h-84v831q0 57 31 88t88 31q21 0 45 -5v-69
q-19 1 -29 1q-58 0 -58 -53z" />
    <glyph glyph-name="uni01A6" unicode="&#x1a6;" horiz-adv-x="666" 
d="M184 271h194q65 0 101.5 34t36.5 94t-36.5 94t-101.5 34h-194v-256zM184 189v-189h-93v729h93v-120h208q104 0 164 -56.5t60 -155.5q0 -116 -86 -174q37 -21 54 -58t18 -76.5t0.5 -77.5t8.5 -69t35 -44v-23h-113q-20 46 -20 119v65q0 67 -29.5 98.5t-90.5 31.5h-209z" />
    <glyph glyph-name="uni01A7" unicode="&#x1a7;" horiz-adv-x="667" 
d="M327 59q59 0 101.5 15.5t64 41.5t31 53t9.5 58v5h88q-1 -60 -19.5 -106t-46.5 -73.5t-67 -45t-76.5 -24t-78.5 -6.5q-65 0 -116.5 15t-82.5 38t-51 53.5t-27.5 59t-7.5 57.5q0 67 40.5 115t114.5 68l183 49q66 18 93 42t27 66q0 55 -44.5 89t-118.5 34q-87 0 -134 -38.5
t-48 -109.5h-88q1 107 71 166.5t196 59.5q120 0 189.5 -57.5t69.5 -156.5q0 -133 -143 -170l-181 -48q-134 -35 -134 -118q0 -23 7.5 -43.5t26 -41.5t57.5 -34t95 -13z" />
    <glyph glyph-name="uni01A8" unicode="&#x1a8;" horiz-adv-x="500" 
d="M371 156h88q-6 -179 -209 -179q-99 0 -157.5 45t-58.5 121q0 58 35 92.5t113 53.5l80 19q51 12 74 29.5t23 45.5q0 36 -30 57.5t-81 21.5q-102 0 -105 -84h-88q1 77 50 119t140 42t146 -43.5t55 -116.5q0 -62 -36.5 -95.5t-129.5 -55.5l-78 -19q-43 -10 -62 -27t-19 -46
q0 -37 33.5 -59.5t88.5 -22.5q69 0 95 27.5t33 74.5z" />
    <glyph glyph-name="uni01A9" unicode="&#x1a9;" horiz-adv-x="611" 
d="M247 365l-217 280v84h525v-82h-410l219 -282l-219 -283h438v-82h-555v82z" />
    <glyph glyph-name="uni01AA" unicode="&#x1aa;" horiz-adv-x="333" 
d="M105 670q-25 0 -43.5 -18t-18.5 -42q0 -25 18.5 -43t43.5 -18t43.5 18t18.5 42q0 26 -18 43.5t-44 17.5zM145 494q-18 -7 -40 -7q-50 0 -86.5 36.5t-36.5 86.5t36.5 86t86.5 36q57 0 90 -34t33 -90v-684q0 -39 15.5 -54t53.5 -15q3 0 20 1v-71q-15 -3 -28 -3
q-144 0 -144 109v603z" />
    <glyph glyph-name="uni01AB" unicode="&#x1ab;" horiz-adv-x="278" 
d="M170 -22q-41 3 -63 24.5t-22 57.5v396h-71v68h71v144h83v-144h86v-68h-86v-359q0 -28 9.5 -37.5t36.5 -9.5q25 0 40 4v-163q0 -109 -144 -109q-13 0 -28 3v71q17 -1 20 -1q38 0 53 15t15 54v54z" />
    <glyph glyph-name="uni01AC" unicode="&#x1ac;" horiz-adv-x="611" 
d="M0 602q0 31 9.5 57t41 47.5t81.5 22.5h461v-82h-239v-647h-93v647h-43h-82q-49 0 -49 -58t54 -58q10 0 29 1v-79q-24 -5 -47 -5q-123 0 -123 154z" />
    <glyph glyph-name="uni01AD" unicode="&#x1ad;" horiz-adv-x="278" 
d="M168 606v-82h86v-68h-86v-359q0 -28 9.5 -37.5t36.5 -9.5q25 0 40 4v-70q-39 -7 -68 -7q-49 0 -75 21.5t-26 61.5v396h-71v68h71v89q0 56 32.5 87.5t90.5 31.5q23 0 47 -5v-69q-19 1 -29 1q-58 0 -58 -53z" />
    <glyph glyph-name="uni01AE" unicode="&#x1ae;" horiz-adv-x="611" 
d="M261 -109v756h-240v82h572v-82h-239v-723q0 -59 68 -59q3 0 20 1v-81q-15 -3 -28 -3q-72 0 -112.5 28t-40.5 81z" />
    <glyph glyph-name="Uhorn" unicode="&#x1af;" horiz-adv-x="722" 
d="M739 856q37 -43 37 -99q0 -102 -131 -111v-429q0 -110 -76.5 -175t-204.5 -65q-130 0 -204.5 64.5t-74.5 175.5v512h93v-512q0 -79 50.5 -118.5t135.5 -39.5q88 0 138 42t50 116v512h93q24 1 35.5 6.5t11.5 23.5q0 23 -17 43z" />
    <glyph glyph-name="uhorn" unicode="&#x1b0;" horiz-adv-x="556" 
d="M586 651q37 -43 37 -99q0 -107 -141 -112v-440h-75v73q-37 -52 -77 -74t-98 -22q-76 0 -121.5 39t-45.5 104v404h83v-371q0 -47 29 -75t79 -28q65 0 104 48.5t39 128.5v297h93q24 1 35.5 6.5t11.5 23.5q0 23 -17 43z" />
    <glyph glyph-name="uni01B1" unicode="&#x1b1;" horiz-adv-x="778" 
d="M303 653q-22 -9 -51.5 -32.5t-63.5 -62t-57 -98t-23 -124.5q0 -113 71 -190t184 -77q109 0 176.5 80t67.5 190q0 99 -52.5 189t-129.5 125v76h264v-72h-164q79 -46 124 -132t45 -187q0 -138 -93.5 -240t-235.5 -102q-154 0 -251 97t-97 241q0 105 52 192t136 131h-176v72
h274v-76z" />
    <glyph glyph-name="uni01B2" unicode="&#x1b2;" horiz-adv-x="722" 
d="M334 -23q-55 0 -93.5 7.5t-77 29.5t-58.5 70.5t-20 122.5v522h93v-562q0 -32 12 -54.5t32 -33.5t40 -15.5t42 -4.5q39 0 74.5 7.5t70.5 27t60.5 50t41.5 79t16 111.5v2q0 56 -10.5 105.5t-36.5 102t-46.5 86.5t-63.5 99h108q142 -190 142 -383q0 -175 -89.5 -272
t-236.5 -97z" />
    <glyph glyph-name="uni01B3" unicode="&#x1b3;" horiz-adv-x="722" 
d="M25 617q-36 78 -37 79q12 7 22.5 14.5t27 13t36.5 5.5q65 0 110 -64l173 -291l214 355h115l-281 -443v-286h-93v286l-179 290q-1 1 -9.5 16t-14 22.5t-16.5 15.5t-22 8q-25 0 -46 -21z" />
    <glyph glyph-name="uni01B4" unicode="&#x1b4;" horiz-adv-x="556" 
d="M437 412l-192 -522q-41 -108 -135 -108q-31 0 -56 13v75q27 -6 44 -6q26 0 41.5 11.5t25.5 39.5l32 85l-177 524h89l134 -408l114 321q41 108 135 108q31 0 56 -13v-75q-27 6 -44 6q-26 0 -41 -11.5t-26 -39.5z" />
    <glyph glyph-name="uni01B5" unicode="&#x1b5;" horiz-adv-x="611" 
d="M581 729v-84l-185 -239h77v-67h-129l-199 -257h438v-82h-555v82l199 257h-87v67h139l187 241h-410v82h525z" />
    <glyph glyph-name="uni01B6" unicode="&#x1b6;" horiz-adv-x="500" 
d="M443 524v-74l-123 -149h83v-67h-138l-133 -161h325v-73h-426v75l132 159h-93v67h149l125 150h-292v73h391z" />
    <glyph glyph-name="uni01B7" unicode="&#x1b7;" horiz-adv-x="611" 
d="M325 466l141 181h-410v82h525v-84l-180 -232q30 -7 52 -15t46.5 -24t40 -37.5t26 -56.5t10.5 -79v-3q-1 -100 -78.5 -160.5t-201.5 -60.5q-248 0 -264 229h88q9 -151 179 -151q81 0 134 38.5t53 103.5q0 158 -237 158v75q21 0 36 5.5t21.5 11.5t18.5 19z" />
    <glyph glyph-name="uni01B8" unicode="&#x1b8;" horiz-adv-x="611" 
d="M288 466q12 -13 18.5 -19t21.5 -11.5t36 -5.5v-75q-237 0 -237 -158q0 -65 53 -103.5t134 -38.5q170 0 179 151h88q-16 -229 -264 -229q-124 0 -201.5 60.5t-78.5 160.5v3q0 44 10.5 79t26 56.5t40 37.5t46.5 24t52 15l-180 232v84h525v-82h-410z" />
    <glyph glyph-name="uni01B9" unicode="&#x1b9;" horiz-adv-x="500" 
d="M198 276l-143 174v74h391v-73h-292l143 -171v-75h-48q-147 0 -147 -128q0 -67 39 -104.5t108 -37.5q72 0 108 37t41 114h88q-16 -229 -234 -229q-109 0 -174.5 60t-65.5 161q0 88 48.5 137.5t137.5 60.5z" />
    <glyph glyph-name="uni01BA" unicode="&#x1ba;" horiz-adv-x="500" 
d="M300 276q183 -21 183 -168q0 -80 -63.5 -129t-160.5 -49q-20 0 -63.5 8.5t-57.5 8.5q-25 0 -25 -16q0 -28 30.5 -44t84.5 -16q87 0 185 38l23 -69q-10 -4 -23.5 -8.5t-27.5 -9.5t-32 -9t-36.5 -7.5t-41.5 -5.5t-47 -2q-97 0 -145.5 38t-48.5 104q0 79 96 79q29 0 75 -8
t54 -8q48 0 96.5 26t48.5 74q0 43 -41.5 72.5t-113.5 29.5h-48v75l143 171h-292v73h391v-74z" />
    <glyph glyph-name="uni01BB" unicode="&#x1bb;" horiz-adv-x="556" 
d="M50 463q7 246 234 246q101 0 164 -58t63 -150q0 -123 -130 -202l87 -36v-77l-167 68l-40 -21q-65 -35 -93 -68t-35 -78h373v-87h-472q6 111 42.5 173t131.5 119l-83 34v77l161 -66l39 22q96 55 96 140q0 57 -40 95t-100 38q-133 0 -143 -169h-88z" />
    <glyph glyph-name="uni01BE" unicode="&#x1be;" horiz-adv-x="556" 
d="M496 171q0 -93 -60 -142.5t-153 -49.5q-104 0 -161.5 62t-57.5 172h79q0 -68 31.5 -115t103.5 -47q63 0 99 28t36 86q0 41 -19 67.5t-46 41t-54 30t-46 46t-19 76.5v30h-71v68h71v144h83v-144h86v-68h-86v-22q0 -31 19 -53.5t46 -39.5t54 -36t46 -53t19 -81z" />
    <glyph glyph-name="uni01BF" unicode="&#x1bf;" horiz-adv-x="556" 
d="M138 360v-334q35 23 47 30.5t51.5 36t59 46.5t51 50.5t47.5 59.5t29 62t13 69q0 41 -27.5 61.5t-69.5 20.5q-104 0 -201 -102zM138 -63v-155h-84v742h84v-80q61 59 108.5 77.5t125.5 18.5q66 0 109.5 -47t43.5 -125q0 -35 -9.5 -69.5t-26.5 -64.5t-40 -59.5t-49.5 -54
t-55.5 -48.5t-57.5 -43t-56 -37t-51 -30.5t-41.5 -24.5z" />
    <glyph glyph-name="uni01C0" unicode="&#x1c0;" horiz-adv-x="260" 
d="M100 729h60v-941h-60v941z" />
    <glyph glyph-name="uni01C1" unicode="&#x1c1;" horiz-adv-x="370" 
d="M210 729h60v-941h-60v941zM100 729h60v-941h-60v941z" />
    <glyph glyph-name="uni01C2" unicode="&#x1c2;" horiz-adv-x="584" 
d="M260 729h60v-376h214v-70h-214v-102h214v-70h-214v-323h-60v323h-210v70h210v102h-210v70h210v376z" />
    <glyph glyph-name="uni01C3" unicode="&#x1c3;" horiz-adv-x="278" 
d="M208 729v-338l-22 -223h-39l-22 223v338h83zM208 104v-104h-84v104h84z" />
    <glyph glyph-name="uni01C4" unicode="&#x1c4;" horiz-adv-x="1311" 
d="M1131 790h-95l-96 150h63l81 -96l79 96h64zM1348 163v-81h-94v81h94zM915 647v-81h-94v81h94zM1346 729v-84l-436 -563h438v-82h-555v82l438 565h-410v82h525zM188 81v-81h-94v81h94zM188 729v-81h-94v81h94zM188 0v729h281q139 0 218 -97t79 -267t-79.5 -267.5
t-217.5 -97.5h-281zM281 82h172q108 0 164 72t56 210q0 139 -56 211t-164 72h-172v-565z" />
    <glyph glyph-name="uni01C5" unicode="&#x1c5;" horiz-adv-x="1208" 
d="M1064 590h-95l-96 150h63l81 -96l79 96h64zM1152 73h-254l311 377v74h-391v-141h71v68h221l-313 -376v-75h426v141h-71v-68zM188 81v-81h-94v81h94zM188 729v-81h-94v81h94zM188 0v729h281q139 0 218 -97t79 -267t-79.5 -267.5t-217.5 -97.5h-281zM281 82h172
q108 0 164 72t56 210q0 139 -56 211t-164 72h-172v-565z" />
    <glyph glyph-name="uni01C6" unicode="&#x1c6;" horiz-adv-x="1056" 
d="M912 590h-95l-96 150h63l81 -96l79 96h64zM1000 73h-254l311 377v74h-391v-141h71v68h221l-313 -376v-75h426v141h-71v-68zM343 461q67 0 107 -55.5t40 -149.5q0 -91 -40 -146t-106 -55q-69 0 -111 55.5t-42 147.5q0 91 42 147t110 56zM573 68v661h-154v-68h72l-1 -203
q-53 81 -161 81q-102 0 -163.5 -75.5t-61.5 -200.5q0 -133 61 -209.5t167 -76.5q54 0 93.5 21.5t73.5 70.5v-69h145v68h-71z" />
    <glyph glyph-name="uni01C7" unicode="&#x1c7;" horiz-adv-x="1056" 
d="M856 55q64 0 88 42t24 119v432h-94v81h281v-81h-94v-466q0 -95 -55.5 -150t-150.5 -55q-94 0 -148.5 52t-54.5 141v64h95v-47q0 -64 28 -98t81 -34zM641 183v-183h-547v81h94v567h-94v81h94h93h94v-81h-94v-566h271v101h89z" />
    <glyph glyph-name="uni01C8" unicode="&#x1c8;" horiz-adv-x="778" 
d="M785 456h-71v68h154v-633q0 -109 -143 -109q-13 0 -28 3v71q17 -1 20 -1q38 0 53 15t15 54v532zM868 729v-105h-83v105h83zM641 183v-183h-547v81h94v567h-94v81h94h93h94v-81h-94v-566h271v101h89z" />
    <glyph glyph-name="uni01C9" unicode="&#x1c9;" horiz-adv-x="444" 
d="M451 456h-71v68h154v-633q0 -109 -143 -109q-13 0 -28 3v71q17 -1 20 -1q38 0 53 15t15 54v532zM534 729v-105h-83v105h83zM176 661v68h155v-661h71v-68h-226v68h71v593h-71z" />
    <glyph glyph-name="uni01CA" unicode="&#x1ca;" horiz-adv-x="1158" 
d="M1008 55q64 0 88 42t24 119v432h-94v81h281v-81h-94v-466q0 -95 -55.5 -150t-150.5 -55q-94 0 -148.5 52t-54.5 141v64h95v-47q0 -64 28 -98t81 -34zM370 81v-81h-276v81h94v567h-94v81h195l381 -596v596h88h94v-81h-94v-648h-105l-377 591v-510h94z" />
    <glyph glyph-name="uni01CB" unicode="&#x1cb;" horiz-adv-x="944" 
d="M951 456h-71v68h154v-633q0 -109 -143 -109q-13 0 -28 3v71q17 -1 20 -1q38 0 53 15t15 54v532zM1034 729v-105h-83v105h83zM370 81v-81h-276v81h94v567h-94v81h195l381 -596v596h88h94v-81h-94v-648h-105l-377 591v-510h94z" />
    <glyph glyph-name="uni01CC" unicode="&#x1cc;" horiz-adv-x="778" 
d="M785 456h-71v68h154v-633q0 -109 -143 -109q-13 0 -28 3v71q17 -1 20 -1q38 0 53 15t15 54v532zM868 729v-105h-83v105h83zM724 68v-68h-154v363q0 47 -29 75t-79 28q-64 0 -103 -48.5t-39 -128.5v-221h71v-68h-226v68h71v388h-71v68h148v-88q35 55 75.5 79t98.5 24
q76 0 121 -39t45 -104v-328h71z" />
    <glyph glyph-name="uni01CD" unicode="&#x1cd;" horiz-adv-x="860" 
d="M489 781h-95l-96 150h63l81 -96l79 96h64zM563 0v81h96l-47 138h-281l-49 -138h96v-81h-287v81h93l202 567h-65v81h214l228 -648h92v-81h-292zM586 297l-112 332l-120 -332h232z" />
    <glyph glyph-name="uni01CE" unicode="&#x1ce;" horiz-adv-x="627" 
d="M322 580h-95l-96 150h63l81 -96l79 96h64zM692 68v-68h-144v69q-34 -49 -73.5 -70.5t-93.5 -21.5q-106 0 -167 76.5t-61 209.5q0 125 61.5 200.5t163.5 75.5q108 0 161 -81v67h83v-457h70zM392 461q-68 0 -110 -56t-42 -147q0 -92 42 -147.5t111 -55.5q66 0 106 55
t40 146q0 94 -40 149.5t-107 55.5z" />
    <glyph glyph-name="uni01CF" unicode="&#x1cf;" horiz-adv-x="466" 
d="M278 781h-95l-96 150h63l81 -96l79 96h64zM282 729h94v-81h-94v-567h94v-81h-282v81h94v567h-94v81h188z" />
    <glyph glyph-name="uni01D0" unicode="&#x1d0;" horiz-adv-x="278" 
d="M185 580h-95l-96 150h63l81 -96l79 96h64zM24 456v68h154v-456h71v-68h-225v68h71v388h-71z" />
    <glyph glyph-name="uni01D1" unicode="&#x1d1;" horiz-adv-x="778" 
d="M436 781h-95l-96 150h63l81 -96l79 96h64zM810 353q0 -162 -96 -269t-256 -107q-158 0 -255 105.5t-97 276.5t97 276.5t254 105.5q160 0 256.5 -106t96.5 -282zM457 659q-116 0 -187 -82.5t-71 -217.5t71.5 -217.5t187.5 -82.5t187.5 82t71.5 214q0 138 -71 221t-189 83z
" />
    <glyph glyph-name="uni01D2" unicode="&#x1d2;" horiz-adv-x="556" 
d="M320 580h-95l-96 150h63l81 -96l79 96h64zM424 539q113 0 175.5 -74.5t62.5 -210.5q0 -129 -63.5 -203t-173.5 -74q-112 0 -174.5 74.5t-62.5 206.5t63 206.5t173 74.5zM425 462q-70 0 -110 -54.5t-40 -149.5t40 -149.5t110 -54.5q69 0 109.5 54.5t40.5 146.5
q0 97 -39.5 152t-110.5 55z" />
    <glyph glyph-name="uni01D3" unicode="&#x1d3;" horiz-adv-x="910" 
d="M500 781h-95l-96 150h63l81 -96l79 96h64zM341 729v-81h-94v-431q0 -79 50.5 -118.5t135.5 -39.5q88 0 138 42t50 116v431h-94v81h281v-81h-94v-431q0 -110 -76.5 -175t-204.5 -65q-130 0 -204.5 64.5t-74.5 175.5v431h-94v81h187h94z" />
    <glyph glyph-name="uni01D4" unicode="&#x1d4;" horiz-adv-x="698" 
d="M392 580h-95l-96 150h63l81 -96l79 96h64zM117 456v68h154v-371q0 -47 29 -75t79 -28q65 0 104 48q39 49 39 129v229h-71v68h154v-456h71v-68h-146v73q-37 -52 -77 -74t-98 -22q-76 0 -121.5 39t-45.5 104v336h-71z" />
    <glyph glyph-name="uni01D5" unicode="&#x1d5;" horiz-adv-x="910" 
d="M590 1024v-70h-274v70h274zM399 904v-103h-104v103h104zM561 904v-103h-104v103h104zM808 729v-81h-94v81h94zM154 729v-81h-94v81h94zM621 729v-81h-94v81h94zM341 729v-81h-94v81h94zM621 729h93v-512q0 -110 -76.5 -175t-204.5 -65q-130 0 -204.5 64.5t-74.5 175.5
v512h93v-512q0 -79 50.5 -118.5t135.5 -39.5q88 0 138 42t50 116v512z" />
    <glyph glyph-name="uni01D6" unicode="&#x1d6;" horiz-adv-x="698" 
d="M482 825v-70h-274v70h274zM314 702v-103h-104v103h104zM476 702v-103h-104v103h104zM135 456v-336q0 -65 45.5 -104t121.5 -39q58 0 98 22t77 74v-73h146v68h-71v456h-154v-68h71v-229q0 -80 -39 -129q-39 -48 -104 -48q-50 0 -79 28t-29 75v371h-154v-68h71z" />
    <glyph glyph-name="uni01D7" unicode="&#x1d7;" horiz-adv-x="910" 
d="M519 1102h113l-149 -148h-60zM399 904v-103h-104v103h104zM561 904v-103h-104v103h104zM808 729v-81h-94v81h94zM154 729v-81h-94v81h94zM621 729v-81h-94v81h94zM341 729v-81h-94v81h94zM621 729h93v-512q0 -110 -76.5 -175t-204.5 -65q-130 0 -204.5 64.5t-74.5 175.5
v512h93v-512q0 -79 50.5 -118.5t135.5 -39.5q88 0 138 42t50 116v512z" />
    <glyph glyph-name="uni01D8" unicode="&#x1d8;" horiz-adv-x="698" 
d="M411 903h113l-149 -148h-60zM314 702v-103h-104v103h104zM476 702v-103h-104v103h104zM135 456v-336q0 -65 45.5 -104t121.5 -39q58 0 98 22t77 74v-73h146v68h-71v456h-154v-68h71v-229q0 -80 -39 -129q-39 -48 -104 -48q-50 0 -79 28t-29 75v371h-154v-68h71z" />
    <glyph glyph-name="uni01D9" unicode="&#x1d9;" horiz-adv-x="910" 
d="M500 954h-95l-96 150h63l81 -96l79 96h64zM399 904v-103h-104v103h104zM561 904v-103h-104v103h104zM808 729v-81h-94v81h94zM154 729v-81h-94v81h94zM621 729v-81h-94v81h94zM341 729v-81h-94v81h94zM621 729h93v-512q0 -110 -76.5 -175t-204.5 -65q-130 0 -204.5 64.5
t-74.5 175.5v512h93v-512q0 -79 50.5 -118.5t135.5 -39.5q88 0 138 42t50 116v512z" />
    <glyph glyph-name="uni01DA" unicode="&#x1da;" horiz-adv-x="698" 
d="M393 755h-95l-96 150h63l81 -96l79 96h64zM314 702v-103h-104v103h104zM476 702v-103h-104v103h104zM135 456v-336q0 -65 45.5 -104t121.5 -39q58 0 98 22t77 74v-73h146v68h-71v456h-154v-68h71v-229q0 -80 -39 -129q-39 -48 -104 -48q-50 0 -79 28t-29 75v371h-154v-68
h71z" />
    <glyph glyph-name="uni01DB" unicode="&#x1db;" horiz-adv-x="910" 
d="M387 1102l96 -148h-60l-149 148h113zM399 904v-103h-104v103h104zM561 904v-103h-104v103h104zM808 729v-81h-94v81h94zM154 729v-81h-94v81h94zM621 729v-81h-94v81h94zM341 729v-81h-94v81h94zM621 729h93v-512q0 -110 -76.5 -175t-204.5 -65q-130 0 -204.5 64.5
t-74.5 175.5v512h93v-512q0 -79 50.5 -118.5t135.5 -39.5q88 0 138 42t50 116v512z" />
    <glyph glyph-name="uni01DC" unicode="&#x1dc;" horiz-adv-x="698" 
d="M279 903l96 -148h-60l-149 148h113zM314 702v-103h-104v103h104zM476 702v-103h-104v103h104zM135 456v-336q0 -65 45.5 -104t121.5 -39q58 0 98 22t77 74v-73h146v68h-71v456h-154v-68h71v-229q0 -80 -39 -129q-39 -48 -104 -48q-50 0 -79 28t-29 75v371h-154v-68h71z
" />
    <glyph glyph-name="uni01DD" unicode="&#x1dd;" horiz-adv-x="556" 
d="M167 282h386q-1 72 -28 112q-43 68 -126 68q-102 0 -137 -105h-84q16 86 75 134t149 48q110 0 174 -74.5t64 -203.5t-65.5 -206.5t-174.5 -77.5q-74 0 -130.5 37t-81.5 101q-21 55 -21 167zM551 214h-294q-1 -2 -1 -6q0 -65 42 -109.5t103 -44.5q63 0 104 43.5t46 116.5z
" />
    <glyph glyph-name="uni01DE" unicode="&#x1de;" horiz-adv-x="860" 
d="M577 1024v-70h-274v70h274zM460 904v-103h-104v103h104zM622 904v-103h-104v103h104zM593 0v81h66l-47 138h-281l-49 -138h66v-81h-287v81h123l202 567h-65v81h94h120l228 -648h122v-81h-292zM586 297l-112 332l-120 -332h232z" />
    <glyph glyph-name="uni01DF" unicode="&#x1df;" horiz-adv-x="627" 
d="M410 825v-70h-274v70h274zM322 702v-103h-104v103h104zM484 702v-103h-104v103h104zM641 68v-68h-144v69q-34 -49 -73.5 -70.5t-93.5 -21.5q-106 0 -167 76.5t-61 209.5q0 125 61.5 200.5t163.5 75.5q108 0 161 -81v67h83v-457h70zM341 461q-68 0 -110 -56t-42 -147
q0 -92 42 -147.5t111 -55.5q66 0 106 55t40 146q0 94 -40 149.5t-107 55.5z" />
    <glyph glyph-name="uni01E0" unicode="&#x1e0;" horiz-adv-x="860" 
d="M579 995v-70h-274v70h274zM494 885v-104h-104v104h104zM593 0v81h66l-47 138h-281l-49 -138h66v-81h-287v81h123l202 567h-65v81h94h120l228 -648h122v-81h-292zM586 297l-112 332l-120 -332h232z" />
    <glyph glyph-name="uni01E1" unicode="&#x1e1;" horiz-adv-x="627" 
d="M412 793v-70h-274v70h274zM327 683v-104h-104v104h104zM641 68v-68h-144v69q-34 -49 -73.5 -70.5t-93.5 -21.5q-106 0 -167 76.5t-61 209.5q0 125 61.5 200.5t163.5 75.5q108 0 161 -81v67h83v-457h70zM341 461q-68 0 -110 -56t-42 -147q0 -92 42 -147.5t111 -55.5
q66 0 106 55t40 146q0 94 -40 149.5t-107 55.5z" />
    <glyph glyph-name="uni01E2" unicode="&#x1e2;" 
d="M758 900v-70h-274v70h274zM-44 81h89l266 648h622v-163h-94v81h-277v-233h352v-82h-352v-250h295v82h94v-164h-482v214h-269l-53 -133h96v-81h-287v81zM469 296v351h-100l-138 -351h238z" />
    <glyph glyph-name="uni01E3" unicode="&#x1e3;" horiz-adv-x="889" 
d="M576 701v-70h-274v70h274zM459 234q1 -52 16 -89.5t39 -56t48.5 -26.5t50.5 -8q101 0 138 105h84q-16 -85 -75 -133.5t-148 -48.5q-58 0 -105 22t-73 61q-4 6 -16 27q-56 -58 -106.5 -84t-109.5 -26q-76 0 -122 42t-46 113q0 38 13 66.5t34 46.5t56 30t70.5 18t86.5 10
t69 17t18 42v22q0 78 -118 78q-112 0 -122 -93h-84q6 170 208 170q128 0 175 -82q27 38 73 60t100 22q73 0 129 -37t82 -101q21 -55 21 -167h-386zM221 50q70 0 115 40.5t45 66.5v101q-30 -13 -81.5 -21.5t-87 -13.5t-63.5 -27t-28 -62q0 -39 27 -61.5t73 -22.5zM461 302
h294q0 71 -40 115.5t-104 44.5q-63 0 -104 -43.5t-46 -116.5z" />
    <glyph glyph-name="uni01E4" unicode="&#x1e4;" horiz-adv-x="778" 
d="M137 362q0 -38 7 -76.5t25 -80.5t46.5 -73.5t75.5 -52t107 -20.5q70 0 125 33t82 90h-200v58h218q4 19 4 43v20h-222v82h304v-145h53v-58h-53v-186h-59l-23 97q-104 -116 -249 -116q-148 0 -241 106t-93 274q0 48 9 96.5t34 101.5t62.5 93t101 66.5t143.5 26.5
q125 0 205.5 -61t99.5 -172h-95q-15 70 -71.5 110.5t-139.5 40.5q-116 0 -186 -81.5t-70 -215.5z" />
    <glyph glyph-name="uni01E5" unicode="&#x1e5;" horiz-adv-x="556" 
d="M261 462q-67 0 -106 -55t-39 -149q0 -95 39 -149.5t107 -54.5q66 0 104 53.5t38 147.5q0 98 -37.5 152.5t-105.5 54.5zM131 -60q14 -88 127 -88q71 0 109 40h-99v52h126q10 36 10 100v27q-35 -50 -72.5 -72t-86.5 -22q-92 0 -154 75.5t-62 200.5q0 128 61.5 207t161.5 79
q98 0 160 -91v76h77v-438q0 -91 -11 -142h36v-52h-53q-23 -54 -76.5 -82t-129.5 -28q-92 0 -147 42t-62 116h85z" />
    <glyph glyph-name="Gcaron" unicode="&#x1e6;" horiz-adv-x="778" 
d="M442 781h-95l-96 150h63l81 -96l79 96h64zM199 362q0 -44 11.5 -97t40.5 -98.5t80 -76.5t129 -31q99 0 164 63t65 161v20h-222v82h304v-389h-59l-23 97q-104 -116 -249 -116q-148 0 -241 106t-93 274q0 48 9 96t34 102q13 26 28 49.5t34 43.5q38 40 101 66.5t144 26.5
q78 0 130.5 -21.5t85.5 -63.5v91h89v-239h-95q-15 70 -71 110.5t-140 40.5q-116 0 -186 -82q-70 -80 -70 -215z" />
    <glyph glyph-name="gcaron" unicode="&#x1e7;" horiz-adv-x="627" 
d="M300 580h-95l-96 150h63l81 -96l79 96h64zM420 462q-67 0 -106 -55t-39 -149q0 -95 39 -149.5t107 -54.5q66 0 104 53.5t38 147.5q0 98 -37.5 152.5t-105.5 54.5zM648 456v-370q0 -75 -9 -125.5t-33 -93.5t-71.5 -64t-120.5 -21q-92 0 -147 42t-62 116h85q14 -88 127 -88
q84 0 115 47.5t31 144.5v27q-35 -50 -72.5 -72t-86.5 -22q-92 0 -154 75.5t-62 200.5q0 128 61.5 207t161.5 79q98 0 160 -91v76h148v-68h-71z" />
    <glyph glyph-name="uni01E8" unicode="&#x1e8;" horiz-adv-x="761" 
d="M507 781h-95l-96 150h63l81 -96l79 96h64zM771 729v-81h-88l-216 -216l243 -351h101v-81h-251v81h41l-201 293l-119 -119v-174h94v-81h-281v81h94v567h-94v81h94h93h94v-81h-94v-288l283 288h-44v81h251z" />
    <glyph glyph-name="uni01E9" unicode="&#x1e9;" horiz-adv-x="604" 
d="M148 769h-95l-96 150h63l81 -96l79 96h64zM256 661h-71v68h154v-427l222 222h107l-182 -181l173 -275h72v-68h-134l-177 284l-81 -80v-204h-154v68h71v593z" />
    <glyph glyph-name="uni01EA" unicode="&#x1ea;" horiz-adv-x="778" 
d="M390 -221q-56 0 -94 26t-38 68q0 34 22.5 61.5t63.5 45.5q-139 15 -222.5 118t-83.5 261q0 171 97 276.5t254 105.5q160 0 256.5 -106t96.5 -282q0 -101 -39 -184t-114 -134.5t-175 -56.5q-48 -28 -65.5 -49t-17.5 -51q0 -54 72 -54q37 0 63 10v-45q-48 -10 -76 -10z
M389 659q-116 0 -187 -82.5t-71 -217.5t71.5 -217.5t187.5 -82.5t187.5 82t71.5 214q0 138 -71 221t-189 83z" />
    <glyph glyph-name="uni01EB" unicode="&#x1eb;" horiz-adv-x="556" 
d="M273 -221q-56 0 -94 26t-38 68q0 34 23 62t65 45q-92 15 -142.5 87.5t-50.5 190.5q0 132 63 206.5t173 74.5q113 0 175.5 -74.5t62.5 -210.5q0 -121 -56.5 -194.5t-156.5 -81.5q-48 -28 -65.5 -49t-17.5 -51q0 -54 72 -54q37 0 63 10v-45q-48 -10 -76 -10zM273 462
q-70 0 -110 -54.5t-40 -149.5t40 -149.5t110 -54.5q69 0 109.5 54.5t40.5 146.5q0 97 -39.5 152t-110.5 55z" />
    <glyph glyph-name="uni01EC" unicode="&#x1ec;" horiz-adv-x="778" 
d="M526 851v-70h-274v70h274zM390 -221q-56 0 -94 26t-38 68q0 34 22.5 61.5t63.5 45.5q-139 15 -222.5 118t-83.5 261q0 171 97 276.5t254 105.5q160 0 256.5 -106t96.5 -282q0 -101 -39 -184t-114 -134.5t-175 -56.5q-48 -28 -65.5 -49t-17.5 -51q0 -54 72 -54q37 0 63 10
v-45q-48 -10 -76 -10zM389 659q-116 0 -187 -82.5t-71 -217.5t71.5 -217.5t187.5 -82.5t187.5 82t71.5 214q0 138 -71 221t-189 83z" />
    <glyph glyph-name="uni01ED" unicode="&#x1ed;" horiz-adv-x="556" 
d="M409 650v-70h-274v70h274zM273 -221q-56 0 -94 26t-38 68q0 34 23 62t65 45q-92 15 -142.5 87.5t-50.5 190.5q0 132 63 206.5t173 74.5q113 0 175.5 -74.5t62.5 -210.5q0 -121 -56.5 -194.5t-156.5 -81.5q-48 -28 -65.5 -49t-17.5 -51q0 -54 72 -54q37 0 63 10v-45
q-48 -10 -76 -10zM273 462q-70 0 -110 -54.5t-40 -149.5t40 -149.5t110 -54.5q69 0 109.5 54.5t40.5 146.5q0 97 -39.5 152t-110.5 55z" />
    <glyph glyph-name="uni01EE" unicode="&#x1ee;" horiz-adv-x="611" 
d="M366 801h-95l-96 150h63l81 -96l79 96h64zM325 466l141 181h-410v82h525v-84l-180 -232q30 -7 52 -15t46.5 -24t40 -37.5t26 -56.5t10.5 -79v-3q-1 -100 -78.5 -160.5t-201.5 -60.5q-248 0 -264 229h88q9 -151 179 -151q81 0 134 38.5t53 103.5q0 158 -237 158v75
q21 0 36 5.5t21.5 11.5t18.5 19z" />
    <glyph glyph-name="uni01EF" unicode="&#x1ef;" horiz-adv-x="500" 
d="M295 589h-95l-96 150h63l81 -96l79 96h64zM300 276q89 -11 137.5 -60.5t48.5 -137.5q0 -101 -65.5 -161t-174.5 -60q-218 0 -234 229h88q5 -77 41 -114t108 -37q69 0 108 37.5t39 104.5q0 128 -147 128h-48v75l143 171h-292v73h391v-74z" />
    <glyph glyph-name="uni01F0" unicode="&#x1f0;" horiz-adv-x="222" 
d="M70 524h83v-633q0 -109 -143 -109q-13 0 -28 3v71q17 -1 20 -1q38 0 53 15t15 54v600zM159 565h-95l-96 150h63l81 -96l79 96h64z" />
    <glyph glyph-name="uni01F1" unicode="&#x1f1;" horiz-adv-x="1333" 
d="M937 647v-81h-94v163h525v-84l-436 -563h344v81h94v-163h-555v82l438 565h-316zM188 729h281q139 0 218 -97t79 -267t-79.5 -267.5t-217.5 -97.5h-375v81h94v567h-94v81h94zM281 82h172q108 0 164 72t56 210q0 139 -56 211t-164 72h-172v-565z" />
    <glyph glyph-name="uni01F2" unicode="&#x1f2;" horiz-adv-x="1222" 
d="M1240 141h71v-141h-426v75l313 376h-221v-68h-71v141h391v-74l-311 -377h254v68zM188 729h281q139 0 218 -97t79 -267t-79.5 -267.5t-217.5 -97.5h-375v81h94v567h-94v81h94zM281 82h172q108 0 164 72t56 210q0 139 -56 211t-164 72h-172v-565z" />
    <glyph glyph-name="uni01F3" unicode="&#x1f3;" horiz-adv-x="1056" 
d="M1074 141h71v-141h-426v75l313 376h-221v-68h-71v141h391v-74l-311 -377h254v68zM429 461q-68 0 -110 -56t-42 -147q0 -92 42 -147.5t111 -55.5q66 0 106 55t40 146q0 94 -40 149.5t-107 55.5zM730 68v-68h-145v69q-34 -49 -73.5 -70.5t-93.5 -21.5q-106 0 -167 76.5
t-61 209.5q0 125 61.5 200.5t163.5 75.5q108 0 161 -81l1 203h-72v68h154v-661h71z" />
    <glyph glyph-name="uni01F4" unicode="&#x1f4;" horiz-adv-x="778" 
d="M460 929h113l-149 -148h-60zM199 362q0 -44 11.5 -97t40.5 -98.5t80 -76.5t129 -31q99 0 164 63t65 161v20h-222v82h304v-389h-59l-23 97q-104 -116 -249 -116q-148 0 -241 106t-93 274q0 48 9 96t34 102q13 26 28 49.5t34 43.5q38 40 101 66.5t144 26.5
q78 0 130.5 -21.5t85.5 -63.5v91h89v-239h-95q-15 70 -71 110.5t-140 40.5q-116 0 -186 -82q-70 -80 -70 -215z" />
    <glyph glyph-name="uni01F5" unicode="&#x1f5;" horiz-adv-x="627" 
d="M318 728h113l-149 -148h-60zM420 462q-67 0 -106 -55t-39 -149q0 -95 39 -149.5t107 -54.5q66 0 104 53.5t38 147.5q0 98 -37.5 152.5t-105.5 54.5zM648 456v-370q0 -75 -9 -125.5t-33 -93.5t-71.5 -64t-120.5 -21q-92 0 -147 42t-62 116h85q14 -88 127 -88
q84 0 115 47.5t31 144.5v27q-35 -50 -72.5 -72t-86.5 -22q-92 0 -154 75.5t-62 200.5q0 128 61.5 207t161.5 79q98 0 160 -91v76h148v-68h-71z" />
    <glyph glyph-name="uni01F8" unicode="&#x1f8;" horiz-adv-x="913" 
d="M390 929l96 -148h-60l-149 148h113zM370 81v-81h-276v81h94v567h-94v81h195l381 -596v596h88h94v-81h-94v-648h-105l-377 591v-510h94z" />
    <glyph glyph-name="uni01F9" unicode="&#x1f9;" horiz-adv-x="698" 
d="M275 728l96 -148h-60l-149 148h113zM724 68v-68h-154v363q0 47 -29 75t-79 28q-64 0 -103 -48.5t-39 -128.5v-221h71v-68h-226v68h71v388h-71v68h148v-88q35 55 75.5 79t98.5 24q76 0 121 -39t45 -104v-328h71z" />
    <glyph glyph-name="Aringacute" unicode="&#x1fa;" horiz-adv-x="860" 
d="M506 1141h113l-149 -148h-60zM487 953q37 0 62.5 -25.5t25.5 -62.5q0 -36 -26 -61.5t-62 -25.5t-62 26t-26 62q0 35 26 61t62 26zM487 909q-18 0 -31 -13t-13 -30q0 -18 13 -31t31 -13t31 13t13 30q0 19 -12.5 31.5t-31.5 12.5zM593 0v81h66l-47 138h-281l-49 -138h66
v-81h-287v81h123l202 567h-65v81h94h120l228 -648h122v-81h-292zM586 297l-112 332l-120 -332h232z" />
    <glyph glyph-name="aringacute" unicode="&#x1fb;" horiz-adv-x="627" 
d="M341 942h113l-149 -148h-60zM351 754q37 0 62.5 -25.5t25.5 -62.5q0 -36 -26 -61.5t-62 -25.5t-62 26t-26 62q0 35 26 61t62 26zM351 710q-18 0 -31 -13t-13 -30q0 -18 13 -31t31 -13t31 13t13 30q0 19 -12.5 31.5t-31.5 12.5zM641 68v-68h-144v69q-34 -49 -73.5 -70.5
t-93.5 -21.5q-106 0 -167 76.5t-61 209.5q0 125 61.5 200.5t163.5 75.5q108 0 161 -81v67h83v-457h70zM341 461q-68 0 -110 -56t-42 -147q0 -92 42 -147.5t111 -55.5q66 0 106 55t40 146q0 94 -40 149.5t-107 55.5z" />
    <glyph glyph-name="AEacute" unicode="&#x1fc;" 
d="M687 929h113l-149 -148h-60zM-44 81h89l266 648h622v-163h-94v81h-277v-233h352v-82h-352v-250h295v82h94v-164h-482v214h-269l-53 -133h96v-81h-287v81zM469 296v351h-100l-138 -351h238z" />
    <glyph glyph-name="aeacute" unicode="&#x1fd;" horiz-adv-x="889" 
d="M505 728h113l-149 -148h-60zM459 234q1 -52 16 -89.5t39 -56t48.5 -26.5t50.5 -8q101 0 138 105h84q-16 -85 -75 -133.5t-148 -48.5q-58 0 -105 22t-73 61q-4 6 -16 27q-56 -58 -106.5 -84t-109.5 -26q-76 0 -122 42t-46 113q0 38 13 66.5t34 46.5t56 30t70.5 18t86.5 10
t69 17t18 42v22q0 78 -118 78q-112 0 -122 -93h-84q6 170 208 170q128 0 175 -82q27 38 73 60t100 22q73 0 129 -37t82 -101q21 -55 21 -167h-386zM221 50q70 0 115 40.5t45 66.5v101q-30 -13 -81.5 -21.5t-87 -13.5t-63.5 -27t-28 -62q0 -39 27 -61.5t73 -22.5zM461 302
h294q0 71 -40 115.5t-104 44.5q-63 0 -104 -43.5t-46 -116.5z" />
    <glyph glyph-name="Oslashacute" unicode="&#x1fe;" horiz-adv-x="778" 
d="M456 943h113l-149 -148h-60zM31 19l81 89q-76 106 -76 252q0 170 97.5 275.5t254.5 105.5q137 0 230 -81l87 95l40 -36l-89 -97q84 -106 84 -264q0 -170 -97.5 -275.5t-254.5 -105.5q-144 0 -241 90l-77 -84zM175 176l384 419q-73 64 -171 64q-116 0 -187.5 -82.5
t-71.5 -216.5q0 -104 46 -184zM594 554l-387 -421q74 -74 181 -74q116 0 187.5 82.5t71.5 216.5q0 114 -53 196z" />
    <glyph glyph-name="oslashacute" unicode="&#x1ff;" horiz-adv-x="611" 
d="M339 728h113l-149 -148h-60zM529 511l-63 -71q44 -73 44 -182q0 -132 -62.5 -206.5t-173.5 -74.5q-103 0 -163 62l-61 -69l-32 28l66 74q-48 71 -48 186q0 132 63 206.5t174 74.5q101 0 166 -65l58 65zM405 371l-238 -269q43 -48 106 -48q70 0 110 54.5t40 149.5
q0 66 -18 113zM144 141l239 269q-41 52 -110 52q-70 0 -110 -54.5t-40 -149.5q0 -68 21 -117z" />
    <glyph glyph-name="uni0200" unicode="&#x200;" horiz-adv-x="860" 
d="M395 931l96 -150h-60l-149 150h113zM221 931l96 -150h-60l-149 150h113zM563 0v81h96l-47 138h-281l-49 -138h96v-81h-287v81h93l202 567h-65v81h214l228 -648h92v-81h-292zM586 297l-112 332l-120 -332h232z" />
    <glyph glyph-name="uni0201" unicode="&#x201;" horiz-adv-x="627" 
d="M255 730l96 -150h-60l-149 150h113zM81 730l96 -150h-60l-149 150h113zM692 68v-68h-144v69q-34 -49 -73.5 -70.5t-93.5 -21.5q-106 0 -167 76.5t-61 209.5q0 125 61.5 200.5t163.5 75.5q108 0 161 -81v67h83v-457h70zM392 461q-68 0 -110 -56t-42 -147q0 -92 42 -147.5
t111 -55.5q66 0 106 55t40 146q0 94 -40 149.5t-107 55.5z" />
    <glyph glyph-name="uni0202" unicode="&#x202;" horiz-adv-x="860" 
d="M590 781h-59q-8 66 -92 66q-40 0 -64 -17t-27 -49h-59q11 135 152 135q36 0 66 -9.5t56 -41.5t27 -84zM593 0v81h66l-47 138h-281l-49 -138h66v-81h-287v81h123l202 567h-65v81h94h120l228 -648h122v-81h-292zM586 297l-112 332l-120 -332h232z" />
    <glyph glyph-name="uni0203" unicode="&#x203;" horiz-adv-x="627" 
d="M420 579h-59q-8 66 -92 66q-40 0 -64 -17t-27 -49h-59q11 135 152 135q36 0 66 -9.5t56 -41.5t27 -84zM641 68v-68h-144v69q-34 -49 -73.5 -70.5t-93.5 -21.5q-106 0 -167 76.5t-61 209.5q0 125 61.5 200.5t163.5 75.5q108 0 161 -81v67h83v-457h70zM341 461
q-68 0 -110 -56t-42 -147q0 -92 42 -147.5t111 -55.5q66 0 106 55t40 146q0 94 -40 149.5t-107 55.5z" />
    <glyph glyph-name="uni0204" unicode="&#x204;" horiz-adv-x="761" 
d="M317 931l96 -150h-60l-149 150h113zM143 931l96 -150h-60l-149 150h113zM188 730h505v-183h-89v101h-323v-233h397v-82h-397v-250h341v101h89v-183h-617v81h94v567h-94v81h94z" />
    <glyph glyph-name="uni0205" unicode="&#x205;" horiz-adv-x="556" 
d="M245 730l96 -150h-60l-149 150h113zM71 730l96 -150h-60l-149 150h113zM658 234h-386q1 -72 28 -112q43 -68 126 -68q102 0 137 105h84q-16 -86 -75 -134t-149 -48q-110 0 -174 74.5t-64 203.5t65.5 206.5t174.5 77.5q74 0 130.5 -37t81.5 -101q21 -55 21 -167zM274 302
h294q1 2 1 6q0 65 -42 109.5t-103 44.5q-63 0 -104 -43.5t-46 -116.5z" />
    <glyph glyph-name="uni0206" unicode="&#x206;" horiz-adv-x="761" 
d="M490 781h-59q-8 66 -92 66q-40 0 -64 -17t-27 -49h-59q11 135 152 135q36 0 66 -9.5t56 -41.5t27 -84zM188 82v-81h-94v81h94zM188 730v-81h-94v81h94zM711 164v-81h-94v81h94zM693 648v-81h-94v81h94zM281 333v-250h430v-82h-523v729h505v-82h-412v-233h397v-82h-397z
" />
    <glyph glyph-name="uni0207" unicode="&#x207;" horiz-adv-x="556" 
d="M430 579h-59q-8 66 -92 66q-40 0 -64 -17t-27 -49h-59q11 135 152 135q36 0 66 -9.5t56 -41.5t27 -84zM574 234h-386q1 -72 28 -112q43 -68 126 -68q102 0 137 105h84q-16 -86 -75 -134t-149 -48q-110 0 -174 74.5t-64 203.5t65.5 206.5t174.5 77.5q74 0 130.5 -37
t81.5 -101q21 -55 21 -167zM190 302h294q1 2 1 6q0 65 -42 109.5t-103 44.5q-63 0 -104 -43.5t-46 -116.5z" />
    <glyph glyph-name="uni0208" unicode="&#x208;" horiz-adv-x="466" 
d="M208 931l96 -150h-60l-149 150h113zM34 931l96 -150h-60l-149 150h113zM282 729h94v-81h-94v-567h94v-81h-282v81h94v567h-94v81h188z" />
    <glyph glyph-name="uni0209" unicode="&#x209;" horiz-adv-x="278" 
d="M112 730l96 -150h-60l-149 150h113zM-62 730l96 -150h-60l-149 150h113zM24 456v68h154v-456h71v-68h-225v68h71v388h-71z" />
    <glyph glyph-name="uni020A" unicode="&#x20a;" horiz-adv-x="466" 
d="M382 781h-59q-8 66 -92 66q-40 0 -64 -17t-27 -49h-59q11 135 152 135q36 0 66 -9.5t56 -41.5t27 -84zM376 81v-81h-94v81h94zM376 729v-81h-94v81h94zM188 81v-81h-94v81h94zM188 729v-81h-94v81h94zM282 729v-729h-94v729h94z" />
    <glyph glyph-name="uni020B" unicode="&#x20b;" horiz-adv-x="278" 
d="M286 579h-59q-8 66 -92 66q-40 0 -64 -17t-27 -49h-59q11 135 152 135q36 0 66 -9.5t56 -41.5t27 -84zM177 524v-524h-83v524h83z" />
    <glyph glyph-name="uni020C" unicode="&#x20c;" horiz-adv-x="778" 
d="M363 931l96 -150h-60l-149 150h113zM189 931l96 -150h-60l-149 150h113zM810 353q0 -162 -96 -269t-256 -107q-158 0 -255 105.5t-97 276.5t97 276.5t254 105.5q160 0 256.5 -106t96.5 -282zM457 659q-116 0 -187 -82.5t-71 -217.5t71.5 -217.5t187.5 -82.5t187.5 82
t71.5 214q0 138 -71 221t-189 83z" />
    <glyph glyph-name="uni020D" unicode="&#x20d;" horiz-adv-x="556" 
d="M258 730l96 -150h-60l-149 150h113zM84 730l96 -150h-60l-149 150h113zM424 539q113 0 175.5 -74.5t62.5 -210.5q0 -129 -63.5 -203t-173.5 -74q-112 0 -174.5 74.5t-62.5 206.5t63 206.5t173 74.5zM425 462q-70 0 -110 -54.5t-40 -149.5t40 -149.5t110 -54.5
q69 0 109.5 54.5t40.5 146.5q0 97 -39.5 152t-110.5 55z" />
    <glyph glyph-name="uni020E" unicode="&#x20e;" horiz-adv-x="778" 
d="M540 781h-59q-8 66 -92 66q-40 0 -64 -17t-27 -49h-59q11 135 152 135q36 0 66 -9.5t56 -41.5t27 -84zM810 353q0 -162 -96 -269t-256 -107q-158 0 -255 105.5t-97 276.5t97 276.5t254 105.5q160 0 256.5 -106t96.5 -282zM457 659q-116 0 -187 -82.5t-71 -217.5
t71.5 -217.5t187.5 -82.5t187.5 82t71.5 214q0 138 -71 221t-189 83z" />
    <glyph glyph-name="uni020F" unicode="&#x20f;" horiz-adv-x="556" 
d="M425 579h-59q-8 66 -92 66q-40 0 -64 -17t-27 -49h-59q11 135 152 135q36 0 66 -9.5t56 -41.5t27 -84zM339 539q113 0 175.5 -74.5t62.5 -210.5q0 -129 -63.5 -203t-173.5 -74q-112 0 -174.5 74.5t-62.5 206.5t63 206.5t173 74.5zM340 462q-70 0 -110 -54.5t-40 -149.5
t40 -149.5t110 -54.5q69 0 109.5 54.5t40.5 146.5q0 97 -39.5 152t-110.5 55z" />
    <glyph glyph-name="uni0210" unicode="&#x210;" horiz-adv-x="864" 
d="M424 931l96 -150h-60l-149 150h113zM250 931l96 -150h-60l-149 150h113zM375 81v-81h-281v81h94v567h-94v81h430q107 0 164.5 -50.5t57.5 -144.5q0 -62 -27 -103t-88 -71q32 -14 53.5 -33t31 -43t12.5 -45t3 -50q0 -9 -0.5 -26t-0.5 -25q0 -33 5 -57h86v-81h-160
q-20 46 -20 119v65q0 67 -29 98.5t-91 31.5h-240v-233h94zM649 521q0 72 -38 99t-105 27h-225v-251h225q74 0 108.5 30t34.5 95z" />
    <glyph glyph-name="uni0211" unicode="&#x211;" horiz-adv-x="404" 
d="M250 730l96 -150h-60l-149 150h113zM76 730l96 -150h-60l-149 150h113zM165 456v68h148v-95q36 59 69.5 84.5t73.5 25.5q11 0 32 -3v-85q-84 -2 -126 -39q-41 -37 -42 -140l-1 -204h72v-68h-226v68h71v388h-71z" />
    <glyph glyph-name="uni0212" unicode="&#x212;" horiz-adv-x="1083" 
d="M511 788h-59q-8 66 -92 66q-40 0 -64 -17t-27 -49h-59q11 135 152 135q36 0 66 -9.5t56 -41.5t27 -84zM821 81v-81h-94v81h94zM375 81v-81h-94v81h94zM188 81v-81h-94v81h94zM188 729v-81h-94v81h94zM631 360q32 -14 53.5 -33t31 -43t12.5 -45t3 -50q0 -9 -0.5 -26
t-0.5 -25q0 -41 9 -69t35 -46v-23h-113q-20 46 -20 119v65q0 67 -29 98.5t-91 31.5h-240v-314h-93v729h336q107 0 164.5 -50.5t57.5 -144.5q0 -62 -27 -103t-88 -71zM649 521q0 72 -38 99t-105 27h-225v-251h225q74 0 108.5 30t34.5 95z" />
    <glyph glyph-name="uni0213" unicode="&#x213;" horiz-adv-x="483" 
d="M436 579h-59q-8 66 -92 66q-40 0 -64 -17t-27 -49h-59q11 135 152 135q36 0 66 -9.5t56 -41.5t27 -84zM161 456v-388h-71v-68h226v68h-72l1 204q1 103 42 140q42 37 126 39v85q-21 3 -32 3q-40 0 -73.5 -25.5t-69.5 -84.5v95h-148v-68h71z" />
    <glyph glyph-name="uni0214" unicode="&#x214;" horiz-adv-x="910" 
d="M463 931l96 -150h-60l-149 150h113zM289 931l96 -150h-60l-149 150h113zM341 729v-81h-94v-431q0 -79 50.5 -118.5t135.5 -39.5q88 0 138 42t50 116v431h-94v81h281v-81h-94v-431q0 -110 -76.5 -175t-204.5 -65q-130 0 -204.5 64.5t-74.5 175.5v431h-94v81h187h94z" />
    <glyph glyph-name="uni0215" unicode="&#x215;" horiz-adv-x="698" 
d="M345 730l96 -150h-60l-149 150h113zM171 730l96 -150h-60l-149 150h113zM117 456v68h154v-371q0 -47 29 -75t79 -28q65 0 104 48q39 49 39 129v229h-71v68h154v-456h71v-68h-146v73q-37 -52 -77 -74t-98 -22q-76 0 -121.5 39t-45.5 104v336h-71z" />
    <glyph glyph-name="uni0216" unicode="&#x216;" horiz-adv-x="910" 
d="M604 781h-59q-8 66 -92 66q-40 0 -64 -17t-27 -49h-59q11 135 152 135q36 0 66 -9.5t56 -41.5t27 -84zM808 729v-81h-94v81h94zM154 729v-81h-94v81h94zM621 729v-81h-94v81h94zM341 729v-81h-94v81h94zM621 729h93v-512q0 -110 -76.5 -175t-204.5 -65
q-130 0 -204.5 64.5t-74.5 175.5v512h93v-512q0 -79 50.5 -118.5t135.5 -39.5q88 0 138 42t50 116v512z" />
    <glyph glyph-name="uni0217" unicode="&#x217;" horiz-adv-x="698" 
d="M495 579h-59q-8 66 -92 66q-40 0 -64 -17t-27 -49h-59q11 135 152 135q36 0 66 -9.5t56 -41.5t27 -84zM135 456v-336q0 -65 45.5 -104t121.5 -39q58 0 98 22t77 74v-73h146v68h-71v456h-154v-68h71v-229q0 -80 -39 -129q-39 -48 -104 -48q-50 0 -79 28t-29 75v371h-154
v-68h71z" />
    <glyph glyph-name="Scommaaccent" unicode="&#x218;" horiz-adv-x="667" 
d="M342 59q56 0 95 13t57.5 34t26 41.5t7.5 43.5q0 83 -134 118l-181 48q-143 37 -143 170q0 99 69.5 156.5t189.5 57.5q126 0 196 -59.5t71 -166.5h-88q-1 71 -48 109.5t-134 38.5q-74 0 -118.5 -34t-44.5 -89q0 -42 27 -66t93 -42l183 -49q74 -20 114.5 -68t40.5 -115
q0 -29 -7.5 -57.5t-27.5 -59t-51 -53.5t-82.5 -38t-116.5 -15q-41 0 -78.5 6.5t-76.5 24t-67 45t-46.5 73.5t-19.5 106h88v-5q0 -31 9.5 -58t31 -53t64 -41.5t101.5 -15.5zM291 -60h100v-103q0 -56 -26 -88.5t-72 -32.5h-2v38q55 0 55 78v8h-55v100z" />
    <glyph glyph-name="scommaaccent" unicode="&#x219;" horiz-adv-x="500" 
d="M122 156q6 -47 32.5 -74.5t95.5 -27.5q55 0 88.5 22.5t33.5 59.5q0 29 -19 46t-62 27l-78 19q-93 22 -129.5 55.5t-36.5 95.5q0 73 55 116.5t146 43.5t140 -42t50 -119h-88q-3 84 -105 84q-51 0 -81 -21.5t-30 -57.5q0 -28 23 -45.5t74 -29.5l80 -19q78 -19 113 -53.5
t35 -92.5q0 -76 -58.5 -121t-157.5 -45q-203 0 -209 179h88zM197 -60h100v-103q0 -56 -26 -88.5t-72 -32.5h-2v38q55 0 55 78v8h-55v100z" />
    <glyph glyph-name="Tcommaaccent" unicode="&#x21a;" horiz-adv-x="611" 
d="M354 647v-647h-93v647h-240v82h572v-82h-239zM260 -60h100v-103q0 -56 -26 -88.5t-72 -32.5h-2v38q55 0 55 78v8h-55v100z" />
    <glyph glyph-name="tcommaaccent" unicode="&#x21b;" horiz-adv-x="278" 
d="M254 524v-68h-86v-359q0 -28 9.5 -37.5t36.5 -9.5q25 0 40 4v-70q-39 -7 -68 -7q-49 0 -75 21.5t-26 61.5v396h-71v68h71v144h83v-144h86zM111 -60h100v-103q0 -56 -26 -88.5t-72 -32.5h-2v38q55 0 55 78v8h-55v100z" />
    <glyph glyph-name="uni021E" unicode="&#x21e;" horiz-adv-x="916" 
d="M519 781h-95l-96 150h63l81 -96l79 96h64zM656 332h-375v-251h94v-81h-281v81h94v567h-94v81h281v-81h-94v-234h375v234h-94v81h94h187v-81h-94v-567h94v-81h-281v81h94v251z" />
    <glyph glyph-name="uni021F" unicode="&#x21f;" horiz-adv-x="698" 
d="M238 769h-95l-96 150h63l81 -96l79 96h64zM247 661h-71v68h154v-277q37 48 74.5 67.5t93.5 19.5q76 0 120 -39q45 -37 45 -104v-328h71v-68h-154v363q0 55 -33.5 79t-74.5 24q-64 0 -103 -48.5t-39 -128.5v-221h71v-68h-225v68h71v593z" />
    <glyph glyph-name="uni0224" unicode="&#x224;" horiz-adv-x="611" 
d="M581 729v-84l-436 -563h438v-189q0 -109 -144 -109q-13 0 -28 3v71q17 -1 20 -1q38 0 53 15t15 54v74h-471v82l438 565h-410v82h525z" />
    <glyph glyph-name="uni0225" unicode="&#x225;" horiz-adv-x="500" 
d="M373 0h-342v75l313 376h-292v73h391v-74l-311 -377h325v-180q0 -109 -144 -109q-13 0 -28 3v71q17 -1 20 -1q38 0 53 15t15 54v74z" />
    <glyph glyph-name="uni0226" unicode="&#x226;" horiz-adv-x="860" 
d="M494 885v-104h-104v104h104zM563 0v81h96l-47 138h-281l-49 -138h96v-81h-287v81h93l202 567h-65v81h214l228 -648h92v-81h-292zM586 297l-112 332l-120 -332h232z" />
    <glyph glyph-name="uni0227" unicode="&#x227;" horiz-adv-x="627" 
d="M327 684v-104h-104v104h104zM692 68v-68h-144v69q-34 -49 -73.5 -70.5t-93.5 -21.5q-106 0 -167 76.5t-61 209.5q0 125 61.5 200.5t163.5 75.5q108 0 161 -81v67h83v-457h70zM392 461q-68 0 -110 -56t-42 -147q0 -92 42 -147.5t111 -55.5q66 0 106 55t40 146
q0 94 -40 149.5t-107 55.5z" />
    <glyph glyph-name="uni0228" unicode="&#x228;" horiz-adv-x="667" 
d="M228 -133q25 -13 50 -23t48 -10t38.5 13t15.5 32q0 37 -46 37q-15 0 -31 -8l-12 7l39 85h-240v729h505v-82h-412v-233h397v-82h-397v-250h430v-82h-245l-20 -49q13 2 28 2q38 0 58.5 -17.5t20.5 -49.5q0 -43 -33 -68t-90 -25q-47 0 -125 34z" />
    <glyph glyph-name="uni0229" unicode="&#x229;" horiz-adv-x="556" 
d="M154 -156q25 -13 50 -23t48 -10t38.5 13t15.5 32q0 37 -46 37q-15 0 -31 -8l-12 7l39 86q-101 7 -158.5 81t-57.5 196q0 129 65.5 206.5t174.5 77.5q74 0 130.5 -37t81.5 -101q21 -55 21 -167h-386q1 -72 28 -112q43 -68 126 -68q102 0 137 105h84q-15 -82 -69.5 -129.5
t-138.5 -52.5l-20 -49q13 2 28 2q38 0 58.5 -17.5t20.5 -49.5q0 -43 -33 -68t-90 -25q-47 0 -125 34zM129 302h294q1 2 1 6q0 65 -42 109.5t-103 44.5q-63 0 -104 -43.5t-46 -116.5z" />
    <glyph glyph-name="uni022A" unicode="&#x22a;" horiz-adv-x="778" 
d="M527 1024v-70h-274v70h274zM428 904v-103h-104v103h104zM590 904v-103h-104v103h104zM810 353q0 -162 -96 -269t-256 -107q-158 0 -255 105.5t-97 276.5t97 276.5t254 105.5q160 0 256.5 -106t96.5 -282zM457 659q-116 0 -187 -82.5t-71 -217.5t71.5 -217.5t187.5 -82.5
t187.5 82t71.5 214q0 138 -71 221t-189 83z" />
    <glyph glyph-name="uni022B" unicode="&#x22b;" horiz-adv-x="556" 
d="M410 825v-70h-274v70h274zM310 702v-103h-104v103h104zM472 702v-103h-104v103h104zM339 539q113 0 175.5 -74.5t62.5 -210.5q0 -129 -63.5 -203t-173.5 -74q-112 0 -174.5 74.5t-62.5 206.5t63 206.5t173 74.5zM340 462q-70 0 -110 -54.5t-40 -149.5t40 -149.5
t110 -54.5q69 0 109.5 54.5t40.5 146.5q0 97 -39.5 152t-110.5 55z" />
    <glyph glyph-name="uni022C" unicode="&#x22c;" horiz-adv-x="778" 
d="M533 1026v-70h-274v70h274zM386 905q25 0 69 -18.5t64 -18.5q25 0 37 37h58q-15 -104 -89 -104q-20 0 -70 19t-64 19q-23 0 -33 -37h-58q8 49 30.5 76t55.5 27zM810 353q0 -162 -96 -269t-256 -107q-158 0 -255 105.5t-97 276.5t97 276.5t254 105.5q160 0 256.5 -106
t96.5 -282zM457 659q-116 0 -187 -82.5t-71 -217.5t71.5 -217.5t187.5 -82.5t187.5 82t71.5 214q0 138 -71 221t-189 83z" />
    <glyph glyph-name="uni022D" unicode="&#x22d;" horiz-adv-x="556" 
d="M416 827v-70h-274v70h274zM268 703q25 0 69 -18.5t64 -18.5q25 0 37 37h58q-15 -104 -89 -104q-20 0 -70 19t-64 19q-23 0 -33 -37h-58q8 49 30.5 76t55.5 27zM339 539q113 0 175.5 -74.5t62.5 -210.5q0 -129 -63.5 -203t-173.5 -74q-112 0 -174.5 74.5t-62.5 206.5
t63 206.5t173 74.5zM340 462q-70 0 -110 -54.5t-40 -149.5t40 -149.5t110 -54.5q69 0 109.5 54.5t40.5 146.5q0 97 -39.5 152t-110.5 55z" />
    <glyph glyph-name="uni022E" unicode="&#x22e;" horiz-adv-x="778" 
d="M441 885v-104h-104v104h104zM810 353q0 -162 -96 -269t-256 -107q-158 0 -255 105.5t-97 276.5t97 276.5t254 105.5q160 0 256.5 -106t96.5 -282zM457 659q-116 0 -187 -82.5t-71 -217.5t71.5 -217.5t187.5 -82.5t187.5 82t71.5 214q0 138 -71 221t-189 83z" />
    <glyph glyph-name="uni022F" unicode="&#x22f;" horiz-adv-x="556" 
d="M324 684v-104h-104v104h104zM424 539q113 0 175.5 -74.5t62.5 -210.5q0 -129 -63.5 -203t-173.5 -74q-112 0 -174.5 74.5t-62.5 206.5t63 206.5t173 74.5zM425 462q-70 0 -110 -54.5t-40 -149.5t40 -149.5t110 -54.5q69 0 109.5 54.5t40.5 146.5q0 97 -39.5 152
t-110.5 55z" />
    <glyph glyph-name="uni0230" unicode="&#x230;" horiz-adv-x="778" 
d="M526 995v-70h-274v70h274zM441 885v-104h-104v104h104zM810 353q0 -162 -96 -269t-256 -107q-158 0 -255 105.5t-97 276.5t97 276.5t254 105.5q160 0 256.5 -106t96.5 -282zM457 659q-116 0 -187 -82.5t-71 -217.5t71.5 -217.5t187.5 -82.5t187.5 82t71.5 214
q0 138 -71 221t-189 83z" />
    <glyph glyph-name="uni0231" unicode="&#x231;" horiz-adv-x="556" 
d="M409 793v-70h-274v70h274zM324 683v-104h-104v104h104zM339 539q113 0 175.5 -74.5t62.5 -210.5q0 -129 -63.5 -203t-173.5 -74q-112 0 -174.5 74.5t-62.5 206.5t63 206.5t173 74.5zM340 462q-70 0 -110 -54.5t-40 -149.5t40 -149.5t110 -54.5q69 0 109.5 54.5
t40.5 146.5q0 97 -39.5 152t-110.5 55z" />
    <glyph glyph-name="uni0232" unicode="&#x232;" horiz-adv-x="857" 
d="M568 851v-70h-274v70h274zM327 729v-81h-65l165 -274l160 274h-66v81h259v-81h-84l-224 -362v-205h94v-81h-281v81h94v205l-230 362h-85v81h263z" />
    <glyph glyph-name="uni0233" unicode="&#x233;" horiz-adv-x="500" 
d="M386 650v-70h-274v70h274zM95 456v68h153l134 -408l121 340h-47v68h161l-233 -634q-41 -108 -135 -108q-31 0 -56 13v75q27 -6 44 -6q26 0 41 12q15 11 26 39l32 83l-154 458h-87z" />
    <glyph glyph-name="dotlessj" unicode="&#x237;" horiz-adv-x="222" 
d="M70 524h83v-633q0 -109 -143 -109q-13 0 -28 3v71q17 -1 20 -1q38 0 53 15t15 54v600z" />
    <glyph glyph-name="uni0250" unicode="&#x250;" horiz-adv-x="627" 
d="M109 448v68h144v-69q34 49 73.5 70.5t93.5 21.5q106 0 167 -76.5t61 -209.5q0 -125 -61.5 -200.5t-163.5 -75.5q-108 0 -161 81v-67h-83v457h-70zM409 55q68 0 110 56t42 147q0 92 -42 147.5t-111 55.5q-66 0 -106 -55t-40 -146q0 -94 40 -149.5t107 -55.5z" />
    <glyph glyph-name="uni0251" unicode="&#x251;" horiz-adv-x="556" 
d="M397 263q0 87 -39.5 147.5t-109.5 60.5q-63 0 -99 -63.5t-36 -146.5q0 -81 42.5 -141t109.5 -60q64 0 98 59.5t34 143.5zM233 -14q-75 0 -141 77t-66 195q0 122 56 201t164 79q90 0 156 -80v66h83v-436q0 -41 45 -41q9 0 18 2v-63q-35 -9 -57 -9q-40 0 -61.5 18.5
t-26.5 61.5q-38 -36 -75 -53t-95 -18z" />
    <glyph glyph-name="uni0252" unicode="&#x252;" horiz-adv-x="556" 
d="M156 261q0 -87 39.5 -147.5t109.5 -60.5q63 0 99 63.5t36 146.5q0 81 -42.5 141t-109.5 60q-64 0 -98 -59.5t-34 -143.5zM320 538q75 0 141 -77t66 -195q0 -122 -56 -201t-164 -79q-90 0 -156 80v-66h-83v436q0 41 -45 41q-9 0 -18 -2v63q35 9 57 9q40 0 61.5 -18.5
t26.5 -61.5q38 36 75 53t95 18z" />
    <glyph glyph-name="uni0253" unicode="&#x253;" horiz-adv-x="556" 
d="M283 461q-66 0 -106 -55.5t-40 -147.5t40 -147.5t106 -55.5q68 0 110.5 55.5t42.5 144.5q0 94 -41.5 150t-111.5 56zM54 0v613q0 56 32.5 87.5t90.5 31.5q23 0 47 -5v-69q-19 1 -29 1q-58 0 -58 -53v-153q57 86 162 86q104 0 164 -74t60 -201q0 -130 -62 -208.5
t-166 -78.5q-107 0 -166 90v-67h-75z" />
    <glyph glyph-name="uni0254" unicode="&#x254;" horiz-adv-x="500" 
d="M364 -23q-17 0 -35 3.5t-36 11t-34.5 20.5t-30.5 33v-71h-71v194h84q8 -55 40 -84.5t84 -29.5q69 0 107 55t38 154q0 94 -39 146.5t-108 52.5q-107 0 -128 -126h-84q8 97 64 150t150 53q107 0 170 -74q62 -76 62 -202q0 -130 -63 -208q-64 -78 -170 -78z" />
    <glyph glyph-name="uni0255" unicode="&#x255;" horiz-adv-x="500" 
d="M264 54q56 0 90 13t34 35q-2 17 -5 26t-15.5 15.5t-35.5 6.5q-45 0 -138 -77q29 -19 70 -19zM464 98q0 -48 -45.5 -84.5t-154.5 -36.5q-78 0 -134 41q-48 -42 -71 -60l-48 60l68 54q-48 73 -48 181q0 130 63.5 208t169.5 78q91 0 145.5 -49t61.5 -142h-84q-8 55 -40 84.5
t-84 29.5q-68 0 -106.5 -55.5t-38.5 -153.5q0 -78 27 -126q28 24 49.5 41.5t37 29t30 18t29 9.5t34.5 3q24 0 45.5 -5t44 -18t36 -40.5t13.5 -66.5z" />
    <glyph glyph-name="uni0256" unicode="&#x256;" horiz-adv-x="556" 
d="M265 461q-68 0 -110 -56t-42 -147q0 -92 42 -147.5t111 -55.5q66 0 106 55t40 146q0 94 -40 149.5t-107 55.5zM421 69q-34 -49 -73.5 -70.5t-93.5 -21.5q-106 0 -167 76.5t-61 209.5q0 125 61.5 200.5t163.5 75.5q108 0 161 -81v271h83v-805q0 -38 17 -53.5t56 -15.5
q3 0 20 1v-71q-15 -3 -28 -3q-139 0 -139 109v178z" />
    <glyph glyph-name="uni0257" unicode="&#x257;" horiz-adv-x="556" 
d="M265 461q-68 0 -110 -56t-42 -147q0 -92 42 -147.5t111 -55.5q66 0 106 55t40 146q0 94 -40 149.5t-107 55.5zM495 606v-606h-74v69q-34 -49 -73.5 -70.5t-93.5 -21.5q-106 0 -167 76.5t-61 209.5q0 125 61.5 200.5t163.5 75.5q108 0 161 -81v155q0 56 32.5 87.5
t90.5 31.5q23 0 47 -5v-69q-19 1 -29 1q-58 0 -58 -53z" />
    <glyph glyph-name="uni0258" unicode="&#x258;" horiz-adv-x="556" 
d="M40 234q0 112 21 167q25 64 81.5 101t130.5 37q109 0 174.5 -77.5t65.5 -206.5t-64 -203.5t-174 -74.5q-90 0 -149 48t-75 134h84q35 -105 137 -105q83 0 126 68q27 40 28 112h-386zM424 302q-5 73 -46 116.5t-104 43.5q-61 0 -103 -44.5t-42 -109.5q0 -4 1 -6h294z" />
    <glyph glyph-name="uni0259" unicode="&#x259;" horiz-adv-x="556" 
d="M167 282h386q-1 72 -28 112q-43 68 -126 68q-102 0 -137 -105h-84q16 86 75 134t149 48q110 0 174 -74.5t64 -203.5t-65.5 -206.5t-174.5 -77.5q-74 0 -130.5 37t-81.5 101q-21 55 -21 167zM551 214h-294q-1 -2 -1 -6q0 -65 42 -109.5t103 -44.5q63 0 104 43.5t46 116.5z
" />
    <glyph glyph-name="uni025B" unicode="&#x25b;" horiz-adv-x="500" 
d="M371 156h88q-6 -179 -209 -179q-99 0 -157.5 45t-58.5 121q0 86 86 124q-65 37 -65 112q0 73 55 116.5t146 43.5t140 -42t50 -119h-88q-3 84 -105 84q-51 0 -81 -21.5t-30 -57.5q0 -33 24.5 -59.5t72.5 -26.5h62v-76h-74q-43 0 -72.5 -27t-29.5 -58q0 -37 32 -59.5
t86 -22.5q69 0 95 27.5t33 74.5z" />
    <glyph glyph-name="uni025C" unicode="&#x25c;" horiz-adv-x="500" 
d="M122 156q6 -47 32.5 -74.5t95.5 -27.5q54 0 86 22.5t32 59.5q0 31 -29.5 58t-72.5 27h-74v76h62q48 0 72.5 26.5t24.5 59.5q0 36 -30 57.5t-81 21.5q-102 0 -105 -84h-88q1 77 50 119t140 42t146 -43.5t55 -116.5q0 -75 -65 -112q86 -38 86 -124q0 -76 -58.5 -121
t-157.5 -45q-203 0 -209 179h88z" />
    <glyph glyph-name="uni025E" unicode="&#x25e;" horiz-adv-x="500" 
d="M34 270q1 136 49.5 202.5t170.5 66.5q92 0 148 -43.5t56 -116.5q0 -40 -15.5 -66.5t-49.5 -45.5q44 -20 65 -49.5t21 -74.5q0 -76 -57 -121t-156 -45q-121 0 -176.5 66t-55.5 223v4zM257 462q-71 0 -102.5 -44.5t-31.5 -159.5q0 -109 35.5 -156.5t114.5 -47.5
q54 0 84.5 22.5t30.5 59.5q0 31 -29.5 58t-72.5 27h-53v76h41q48 0 72.5 26.5t24.5 59.5q0 36 -31.5 57.5t-82.5 21.5z" />
    <glyph glyph-name="uni025F" unicode="&#x25f;" horiz-adv-x="222" 
d="M70 524h83v-212h77v-72h-77v-349q0 -109 -143 -109q-13 0 -28 3v71q17 -1 20 -1q38 0 53 15t15 54v316h-78v72h78v212z" />
    <glyph glyph-name="uni0260" unicode="&#x260;" horiz-adv-x="556" 
d="M261 462q-67 0 -106 -55t-39 -149q0 -95 39 -149.5t107 -54.5q66 0 104 53.5t38 147.5q0 98 -37.5 152.5t-105.5 54.5zM258 -148q84 0 115 47t31 145v27q-35 -50 -72.5 -72t-86.5 -22q-92 0 -154 75.5t-62 200.5q0 128 61.5 207t161.5 79q98 0 160 -91v83q0 57 30 88
t87 31q23 0 47 -5v-69q-19 1 -29 1q-30 0 -44 -12t-14 -41v-438q0 -75 -9 -125.5t-33 -93.5t-71.5 -64t-120.5 -21q-92 0 -147 42t-62 116h85q14 -88 127 -88z" />
    <glyph glyph-name="uni0261" unicode="&#x261;" horiz-adv-x="556" 
d="M261 462q-67 0 -106 -55t-39 -149q0 -95 39 -149.5t107 -54.5q66 0 104 53.5t38 147.5q0 98 -37.5 152.5t-105.5 54.5zM245 -23q-92 0 -154 75.5t-62 200.5q0 128 61.5 207t161.5 79q98 0 158 -89q3 35 21 58t49 23t61 -11l-14 -72q-11 3 -16 3q-22 0 -22 -37v-328
q0 -75 -9 -125.5t-33 -93.5t-71.5 -64t-120.5 -21q-92 0 -147 42t-62 116h85q14 -88 127 -88q84 0 115 47.5t31 144.5v27q-35 -50 -72.5 -72t-86.5 -22z" />
    <glyph glyph-name="uni0262" unicode="&#x262;" horiz-adv-x="546" 
d="M118 255q0 -97 38.5 -150t136.5 -53q46 0 94 42.5t48 108.5v15h-137v61h225v-288h-44l-17 72q-76 -86 -184 -86q-110 0 -178.5 77t-68.5 201q0 35 7 71t25 75.5t46 69t75 49t106 19.5q93 0 152 -45t74 -127h-86q-11 51 -44.5 73t-96.5 22q-85 0 -128 -53.5t-43 -153.5z
" />
    <glyph glyph-name="uni0263" unicode="&#x263;" horiz-adv-x="500" 
d="M251 -147q14 0 14 35q0 20 -15 67q-13 -40 -13 -68q0 -14 3.5 -22.5t6 -10t4.5 -1.5zM153 -105q0 47 52 184l-38 95l-150 350h90l143 -334l143 334h90l-150 -350l-38 -96q52 -138 52 -178q0 -70 -27.5 -100t-65.5 -30t-62 21.5t-31.5 47.5t-7.5 56z" />
    <glyph glyph-name="uni0264" unicode="&#x264;" horiz-adv-x="556" 
d="M164 542q52 0 110 -63q59 63 112 63q62 0 110 -72t48 -137h-76q0 29 -25 80t-53 51q-11 0 -31 -15.5t-35 -33.5q43 -64 73 -137t30 -110q0 -54 -13.5 -93.5t-36 -60t-45.5 -29.5t-48 -9q-61 0 -108 45t-47 147q0 41 28 113.5t69 135.5q-37 46 -60 46t-49 -44.5t-29 -85.5
h-76q4 84 53 146.5t99 62.5zM275 347q-69 -109 -69 -180q0 -63 22.5 -88.5t51.5 -25.5q27 0 43.5 19.5t21.5 44t5 53.5q0 23 -22 74.5t-53 102.5z" />
    <glyph glyph-name="uni0265" unicode="&#x265;" horiz-adv-x="698" 
d="M569 -137h71v-68h-154v277q-37 -48 -74.5 -67.5t-93.5 -19.5q-76 0 -120 39q-45 37 -45 104v328h-71v68h154v-363q0 -55 33.5 -79t74.5 -24q64 0 103 48.5t39 128.5v221h-71v68h225v-68h-71v-593z" />
    <glyph glyph-name="uni0266" unicode="&#x266;" horiz-adv-x="556" 
d="M403 363q0 55 -33.5 79t-74.5 24q-64 0 -103 -48.5t-39 -128.5v-289h-83v613q0 56 32.5 87.5t90.5 31.5q23 0 47 -5v-69q-19 1 -29 1q-58 0 -58 -53v-154q37 48 74.5 67.5t93.5 19.5q76 0 120.5 -38.5t44.5 -104.5v-396h-83v363z" />
    <glyph glyph-name="uni0267" unicode="&#x267;" horiz-adv-x="556" 
d="M403 363q0 55 -33.5 79t-74.5 24q-64 0 -103 -48.5t-39 -128.5v-289h-83v613q0 56 32.5 87.5t90.5 31.5q23 0 47 -5v-69q-19 1 -29 1q-58 0 -58 -53v-154q37 48 74.5 67.5t93.5 19.5q76 0 120.5 -38.5t44.5 -104.5v-505q0 -109 -143 -109q-13 0 -28 3v71q17 -1 20 -1
q38 0 53 15t15 54v439z" />
    <glyph glyph-name="uni0268" unicode="&#x268;" horiz-adv-x="222" 
d="M150 729v-105h-84v105h84zM67 312v212h83v-212h80v-72h-80v-240h-83v240h-75v72h75z" />
    <glyph glyph-name="uni0269" unicode="&#x269;" horiz-adv-x="222" 
d="M149 524v-427q0 -28 9.5 -37.5t36.5 -9.5q25 0 40 4v-70q-39 -7 -68 -7q-49 0 -75 21.5t-26 61.5v464h83z" />
    <glyph glyph-name="uni026A" unicode="&#x26a;" horiz-adv-x="278" 
d="M12 524h238v-72h-73v-380h73v-72h-238v72h82v380h-82v72z" />
    <glyph glyph-name="uni026D" unicode="&#x26d;" horiz-adv-x="222" 
d="M68 -109v838h84v-805q0 -39 15 -54t53 -15q3 0 20 1v-71q-15 -3 -28 -3q-144 0 -144 109z" />
    <glyph glyph-name="uni026E" unicode="&#x26e;" horiz-adv-x="611" 
d="M400 276q89 -11 137.5 -60.5t48.5 -137.5q0 -101 -65.5 -161t-174.5 -60q-149 0 -202 103l73 46q15 -24 25.5 -36.5t38 -23.5t68.5 -11q69 0 108 37.5t39 104.5q0 129 -147 129q-23 -1 -37 -1h-11v75l143 171h-292v-451h-84v729h84v-205h391v-74z" />
    <glyph glyph-name="uni026F" unicode="&#x26f;" horiz-adv-x="972" 
d="M379 456v68h155v-361q0 -50 25.5 -77.5t71.5 -27.5q51 0 87 40t36 97v261h-71v68h226v-68h-71v-388h71v-68h-148v74q-34 -47 -71.5 -68t-89.5 -21q-97 0 -141 80q-37 -44 -73 -62t-88 -18q-73 0 -112.5 37.5t-39.5 108.5v325h-71v68h155v-361q0 -50 25.5 -77.5
t71.5 -27.5q51 0 87 40t36 97v261h-71z" />
    <glyph glyph-name="uni0270" unicode="&#x270;" horiz-adv-x="833" 
d="M762 -200h-77v274q-34 -47 -71.5 -68t-89.5 -21q-97 0 -141 80q-37 -44 -73 -62t-88 -18q-73 0 -112.5 37.5t-39.5 108.5v393h84v-361q0 -50 25.5 -77.5t71.5 -27.5q51 0 87 40t36 97v329h84v-361q0 -50 25.5 -77.5t71.5 -27.5q51 0 87 40t36 97v329h84v-724z" />
    <glyph glyph-name="uni0271" unicode="&#x271;" horiz-adv-x="833" 
d="M70 524h77v-74q34 47 71.5 68t89.5 21q97 0 141 -80q37 44 73 62t88 18q73 0 112.5 -37.5t39.5 -108.5v-502q0 -109 -144 -109q-13 0 -28 3v71q17 -1 20 -1q38 0 53 15t15 54v437q0 50 -25.5 77.5t-71.5 27.5q-51 0 -87 -40t-36 -97v-329h-84v361q0 50 -25.5 77.5
t-71.5 27.5q-51 0 -87 -40t-36 -97v-329h-84v524z" />
    <glyph glyph-name="uni0272" unicode="&#x272;" horiz-adv-x="556" 
d="M70 524h77v-88q35 55 75.5 79t98.5 24q76 0 121 -39t45 -104v-396h-83v363q0 47 -29 75t-79 28q-64 0 -103 -48.5t-39 -128.5v-398q0 -109 -144 -109q-13 0 -28 3v71q17 -1 20 -1q38 0 53 15t15 54v600z" />
    <glyph glyph-name="uni0273" unicode="&#x273;" horiz-adv-x="556" 
d="M70 524h77v-88q35 55 75.5 79t98.5 24q76 0 121 -39t45 -104l1 -472q0 -39 15 -54t53 -15q3 0 20 1v-71q-15 -3 -28 -3q-144 0 -144 109v472q0 47 -29 75t-79 28q-64 0 -103 -48.5t-39 -128.5v-289h-84v524z" />
    <glyph glyph-name="uni0274" unicode="&#x274;" horiz-adv-x="567" 
d="M497 524v-524h-109l-235 413v-413h-83v524h108l235 -413v413h84z" />
    <glyph glyph-name="uni0275" unicode="&#x275;" horiz-adv-x="556" 
d="M272 539q113 0 175.5 -74.5t62.5 -210.5q0 -129 -63.5 -203t-173.5 -74q-112 0 -174.5 74.5t-62.5 206.5t63 206.5t173 74.5zM422 290q-8 82 -46.5 127t-102.5 45t-103 -45.5t-46 -126.5h298zM421 220h-296q8 -78 47 -122t101 -44t101 44t47 122z" />
    <glyph glyph-name="uni0276" unicode="&#x276;" horiz-adv-x="778" 
d="M273 462q-70 0 -110 -54.5t-40 -149.5t40 -149.5t110 -54.5q95 0 133 98v212q-36 98 -133 98zM736 449h-246v-142h212v-76h-212v-155h250v-76h-334v15q-55 -38 -133 -38q-112 0 -174.5 74.5t-62.5 206.5t63 206.5t173 74.5q78 0 134 -37v22h330v-75z" />
    <glyph glyph-name="uni0277" unicode="&#x277;" horiz-adv-x="722" 
d="M611 235q0 58 -14.5 100t-37 66.5t-57 38.5t-67 18.5t-74.5 4.5q-130 0 -190 -56.5t-60 -171.5q0 -73 25.5 -122.5t83.5 -49.5q55 0 77 28.5t22 61.5v223h84v-223q0 -34 23.5 -62t74.5 -28q40 0 66 26.5t35 62.5t9 83zM27 241q0 41 7 78t29 79.5t57.5 73t97.5 50.5
t143 20t142.5 -19.5t97 -50t57.5 -72t29.5 -79.5t7.5 -80q0 -70 -18 -122t-48 -78t-60.5 -38t-63.5 -12q-96 0 -144 90q-46 -90 -144 -90q-94 0 -142 72t-48 178z" />
    <glyph glyph-name="uni0278" unicode="&#x278;" horiz-adv-x="741" 
d="M57 262q0 117 68 193.5t208 76.5v180h88v-180q122 0 199 -75.5t77 -196.5q0 -56 -14.5 -103t-46 -85.5t-86.5 -60t-129 -21.5v-190h-88v190q-122 0 -199 75.5t-77 196.5zM141 261q0 -83 48.5 -136.5t143.5 -53.5v380q-98 0 -145 -55.5t-47 -134.5zM613 261
q0 83 -47.5 136.5t-144.5 53.5v-380q101 0 146.5 52.5t45.5 137.5z" />
    <glyph glyph-name="uni0279" unicode="&#x279;" horiz-adv-x="404" 
d="M467 68v-68h-148v95q-36 -59 -69.5 -84.5t-73.5 -25.5q-11 0 -32 3v85q84 2 126 39q41 37 42 140l1 204h-72v68h226v-68h-71v-388h71z" />
    <glyph glyph-name="uni027A" unicode="&#x27a;" horiz-adv-x="333" 
d="M69 73q84 2 126 39t42 140v477h84v-729h-77v95q-36 -59 -69.5 -84.5t-73.5 -25.5q-11 0 -32 3v85z" />
    <glyph glyph-name="uni027B" unicode="&#x27b;" horiz-adv-x="333" 
d="M69 73q84 2 126 39t42 140v272h84v-600q0 -39 15 -54t53 -15q3 0 20 1v-71q-15 -3 -28 -3q-137 0 -137 109v204q-36 -59 -69.5 -84.5t-73.5 -25.5q-11 0 -32 3v85z" />
    <glyph glyph-name="uni027C" unicode="&#x27c;" horiz-adv-x="333" 
d="M321 451q-84 -2 -126 -39t-42 -140v-472h-84v724h77v-95q36 59 69.5 84.5t73.5 25.5q11 0 32 -3v-85z" />
    <glyph glyph-name="uni027D" unicode="&#x27d;" horiz-adv-x="333" 
d="M321 451q-84 -2 -126 -39t-42 -140v-348q0 -39 15 -54t53 -15q3 0 20 1v-71q-15 -3 -28 -3q-144 0 -144 109v633h77v-95q36 59 69.5 84.5t73.5 25.5q11 0 32 -3v-85z" />
    <glyph glyph-name="uni027E" unicode="&#x27e;" horiz-adv-x="384" 
d="M168 0h-84v430q0 109 144 109t144 -109v-33h-84q0 37 -13 52.5t-47 16.5q-34 -1 -47 -16.5t-13 -52.5v-397z" />
    <glyph glyph-name="uni027F" unicode="&#x27f;" horiz-adv-x="369" 
d="M273 0v397q0 37 -13 52.5t-47 16.5q-34 -1 -47 -16.5t-13 -52.5h-84v33q0 109 144 109t144 -109v-430h-84z" />
    <glyph glyph-name="uni0280" unicode="&#x280;" horiz-adv-x="546" 
d="M457 375q0 -72 -41 -110t-108 -44l205 -221h-103l-203 218h-69v-218h-84v524h248q44 0 76 -15t48.5 -39t23.5 -47.5t7 -47.5zM366 364v6q0 36 -24.5 57.5t-66.5 21.5h-137v-155h137q91 0 91 70z" />
    <glyph glyph-name="uni0281" unicode="&#x281;" horiz-adv-x="546" 
d="M457 149q0 -24 -7 -47.5t-23.5 -47.5t-48.5 -39t-76 -15h-248v524h84v-218h69l203 218h103l-205 -221q67 -6 108 -44t41 -110zM366 160q0 70 -91 70h-137v-155h137q42 0 66.5 21.5t24.5 57.5v6z" />
    <glyph glyph-name="uni0282" unicode="&#x282;" horiz-adv-x="500" 
d="M34 -107v263h88q6 -47 32.5 -74.5t95.5 -27.5q55 0 88.5 22.5t33.5 59.5q0 29 -19 46t-62 27l-78 19q-93 22 -129.5 55.5t-36.5 95.5q0 73 55 116.5t146 43.5t140 -42t50 -119h-88q-3 84 -105 84q-51 0 -81 -21.5t-30 -57.5q0 -28 23 -45.5t74 -29.5l80 -19
q78 -19 113 -53.5t35 -92.5q0 -76 -58.5 -121t-157.5 -45q-78 0 -125 25v-76q0 -39 15 -54t53 -15q3 0 20 1v-71q-15 -3 -28 -3q-144 0 -144 109z" />
    <glyph glyph-name="uni0283" unicode="&#x283;" horiz-adv-x="278" 
d="M180 606v-715q0 -109 -144 -109q-13 0 -28 3v71q17 -1 20 -1q38 0 53.5 15t15.5 54v689q0 56 32.5 87.5t90.5 31.5q23 0 47 -5v-69q-19 1 -29 1q-58 0 -58 -53z" />
    <glyph glyph-name="uni0284" unicode="&#x284;" horiz-adv-x="278" 
d="M258 312v-68h-87v-353q0 -109 -143 -109q-13 0 -28 3v71q17 -1 20 -1q38 0 53 15t15 54v320h-70v68h70v301q0 56 32.5 87.5t90.5 31.5q23 0 47 -5v-69q-19 1 -29 1q-58 0 -58 -53v-294h87z" />
    <glyph glyph-name="uni0285" unicode="&#x285;" horiz-adv-x="278" 
d="M95 413q0 53 -58 53q-10 0 -29 -1v69q24 5 47 5q58 0 90.5 -31.5t32.5 -87.5v-496q0 -39 15.5 -54t53.5 -15q3 0 20 1v-71q-15 -3 -28 -3q-144 0 -144 109v522z" />
    <glyph glyph-name="uni0286" unicode="&#x286;" horiz-adv-x="444" 
d="M83 -103q0 -17 17.5 -29.5t57.5 -12.5q48 0 65.5 16t17.5 48q-60 16 -94 16q-35 0 -49.5 -11.5t-14.5 -26.5zM6 -99q0 42 23.5 68.5t51.5 35t60 8.5q51 0 100 -13v613q0 56 32.5 87.5t90.5 31.5q23 0 47 -5v-69q-19 1 -29 1q-58 0 -58 -53v-631q34 -10 117 -41l-26 -72
q-20 7 -91 32q0 -112 -156 -112q-86 0 -124 36.5t-38 82.5z" />
    <glyph glyph-name="uni0287" unicode="&#x287;" horiz-adv-x="278" 
d="M110 145v68h86v352q0 28 -9.5 37.5t-36.5 9.5q-25 0 -40 -4v70q39 7 68 7q49 0 75 -21.5t26 -61.5v-389h71v-68h-71v-144h-83v144h-86z" />
    <glyph glyph-name="uni0288" unicode="&#x288;" horiz-adv-x="278" 
d="M254 524v-68h-86v-554q0 -28 9.5 -37.5t36.5 -9.5q25 0 40 4v-70q-39 -7 -68 -7q-49 0 -75 21.5t-26 61.5v591h-71v68h71v144h83v-144h86z" />
    <glyph glyph-name="uni0289" unicode="&#x289;" horiz-adv-x="556" 
d="M482 0h-75v73q-37 -52 -77 -74t-98 -22q-76 0 -121.5 39t-45.5 104v120h-73v72h73v212h83v-212h251v212h83v-212h78v-72h-78v-240zM148 240v-87q0 -47 29 -75t79 -28q65 0 104 48.5t39 128.5v13h-251z" />
    <glyph glyph-name="uni028A" unicode="&#x28a;" horiz-adv-x="626" 
d="M470 471q49 -38 80.5 -100.5t31.5 -121.5q0 -19 -7 -49t-26.5 -70t-49 -73t-79.5 -56.5t-112 -23.5q-65 0 -116 23.5t-79.5 56.5t-47.5 73.5t-25 69.5t-6 49q0 59 31.5 121.5t80.5 100.5h-110v73h212v-77q-72 -51 -98.5 -109t-26.5 -104q0 -20 9 -50t27.5 -66.5t57.5 -62
t91 -25.5q44 0 78.5 17.5t54 42t32 55t16.5 52.5t4 37q0 46 -26.5 104t-98.5 109v77h212v-73h-110z" />
    <glyph glyph-name="uni028B" unicode="&#x28b;" horiz-adv-x="539" 
d="M222 -23h-55q-49 0 -75 21.5t-26 61.5v464h83v-427q0 -47 73 -47q45 0 80 17.5t54 42t31 55t16 52t4 37.5q0 46 -26.5 104t-98.5 109l102 4q49 -38 80.5 -100.5t31.5 -121.5q0 -19 -7 -49t-26.5 -70t-49 -73t-79.5 -56.5t-112 -23.5z" />
    <glyph glyph-name="uni028C" unicode="&#x28c;" horiz-adv-x="561" 
d="M539 68v-68h-165l-140 425l-124 -357h47v-68h-165l201 524h91l160 -456h95z" />
    <glyph glyph-name="uni028D" unicode="&#x28d;" horiz-adv-x="845" 
d="M6 68l134 456h95l106 -411l101 411h94l132 -456h91v-68h-234v68h53l-89 340l-100 -408h-102l-103 408l-87 -340h54v-68h-236v68h91z" />
    <glyph glyph-name="uni028E" unicode="&#x28e;" horiz-adv-x="500" 
d="M543 68v-68h-153l-134 408l-121 -340h47v-68h-161l233 634q41 108 135 108q31 0 56 -13v-75q-27 6 -44 6q-26 0 -41 -12q-15 -11 -26 -39l-32 -83l154 -458h87z" />
    <glyph glyph-name="uni028F" unicode="&#x28f;" horiz-adv-x="556" 
d="M319 202v-202h-83v202l-204 322h97l149 -246l145 246h95z" />
    <glyph glyph-name="uni0290" unicode="&#x290;" horiz-adv-x="500" 
d="M373 0h-342v75l313 376h-292v73h391v-74l-311 -377h325v-147q0 -39 15 -54t53 -15q3 0 20 1v-71q-15 -3 -28 -3q-144 0 -144 109v107z" />
    <glyph glyph-name="uni0291" unicode="&#x291;" horiz-adv-x="500" 
d="M479 95q0 -54 -41.5 -74.5t-119.5 -20.5v-96h-72v96h-215v75l313 376h-292v73h391v-74l-311 -377h114v29q0 45 33 76t85 31q43 0 79 -26.5t36 -87.5zM363 136q-24 0 -34.5 -10.5t-10.5 -23.5v-29h10q38 0 55 3.5t20 8.5t3 19q0 32 -43 32z" />
    <glyph glyph-name="uni0292" unicode="&#x292;" horiz-adv-x="500" 
d="M300 276q89 -11 137.5 -60.5t48.5 -137.5q0 -101 -65.5 -161t-174.5 -60q-218 0 -234 229h88q5 -77 41 -114t108 -37q69 0 108 37.5t39 104.5q0 128 -147 128h-48v75l143 171h-292v73h391v-74z" />
    <glyph glyph-name="uni0294" unicode="&#x294;" horiz-adv-x="556" 
d="M270 632q-76 0 -104.5 -41.5t-30.5 -110.5h-88q5 229 222 229q101 0 158.5 -52t57.5 -143q0 -57 -33.5 -108t-89.5 -65q-26 -7 -57 -11v-330h-84v400q95 2 134.5 24t39.5 87q0 56 -33.5 88.5t-91.5 32.5z" />
    <glyph glyph-name="uni0295" unicode="&#x295;" horiz-adv-x="556" 
d="M397 480q-2 74 -32.5 113t-102.5 39q-58 0 -91.5 -32.5t-33.5 -88.5q0 -65 39.5 -87t134.5 -24v-400h-84v330q-31 4 -57 11q-56 14 -89.5 65t-33.5 108q0 91 57.5 143t158.5 52q217 0 222 -229h-88z" />
    <glyph glyph-name="uni0296" unicode="&#x296;" horiz-adv-x="556" 
d="M262 77q76 0 104.5 41.5t30.5 110.5h88q-5 -229 -222 -229q-101 0 -158.5 52t-57.5 143q0 57 33.5 108t89.5 65q26 7 57 11v330h84v-400q-95 -2 -134.5 -24t-39.5 -87q0 -56 33.5 -88.5t91.5 -32.5z" />
    <glyph glyph-name="uni0297" unicode="&#x297;" horiz-adv-x="722" 
d="M48 356q0 50 8.5 99t32.5 102t59.5 92.5t96 65.5t136.5 26q238 0 281 -238h-95q-16 78 -63 117t-134 39q-106 0 -167.5 -81t-61.5 -221v-191q0 -136 64 -216.5t173 -80.5q90 0 138 50.5t65 156.5h96q-33 -289 -300 -289q-75 0 -134.5 25.5t-95 64.5t-59 91t-32 100
t-8.5 97v191z" />
    <glyph glyph-name="uni0298" unicode="&#x298;" horiz-adv-x="778" 
d="M810 353q0 -162 -96 -269t-256 -107q-158 0 -255 105.5t-97 276.5t97 276.5t254 105.5q160 0 256.5 -106t96.5 -282zM457 659q-116 0 -187 -82.5t-71 -217.5t71.5 -217.5t187.5 -82.5t187.5 82t71.5 214q0 138 -71 221t-189 83zM438 359q0 -22 -14.5 -37t-34.5 -15
t-34.5 15t-14.5 37q0 21 14.5 36t34.5 15t34.5 -15t14.5 -36z" />
    <glyph glyph-name="uni0299" unicode="&#x299;" horiz-adv-x="522" 
d="M289 524q82 0 117 -40t35 -92q0 -81 -69 -115q50 -20 73 -50t23 -77q0 -65 -42 -107.5t-113 -42.5h-243v524h219zM357 376q0 29 -23 51t-82 22h-98v-142h98q59 0 82 20.5t23 48.5zM377 161q0 70 -91 70h-132v-155h132q42 0 66.5 21.5t24.5 57.5v6z" />
    <glyph glyph-name="uni029A" unicode="&#x29a;" horiz-adv-x="500" 
d="M479 262q0 -156 -55 -220.5t-177 -64.5q-99 0 -156 45t-57 121q0 86 86 124q-65 37 -65 112q0 73 56 116.5t148 43.5q126 0 173 -62t47 -215zM256 462q-51 0 -82.5 -21.5t-31.5 -57.5q0 -33 24.5 -59.5t72.5 -26.5h41v-76h-53q-43 0 -72.5 -27t-29.5 -58
q0 -37 30.5 -59.5t84.5 -22.5q79 0 114.5 47.5t35.5 156.5q0 115 -31.5 159.5t-102.5 44.5z" />
    <glyph glyph-name="uni029B" unicode="&#x29b;" horiz-adv-x="546" 
d="M118 255q0 -97 38.5 -150t136.5 -53q46 0 94 42.5t48 108.5v15h-137v61h225v-288h-44l-17 72q-76 -86 -184 -86q-110 0 -178.5 77t-68.5 201q0 35 7 71t25 75.5t46 69t75 49t106 19.5q99 0 158 -50q30 55 108 55q23 0 47 -5v-69q-19 1 -29 1q-58 0 -58 -53v-51h-86
q-11 51 -44.5 73t-96.5 22q-85 0 -128 -53.5t-43 -153.5z" />
    <glyph glyph-name="uni029C" unicode="&#x29c;" horiz-adv-x="558" 
d="M70 524h84v-215h250v215h84v-524h-84v233h-250v-233h-84v524z" />
    <glyph glyph-name="uni029D" unicode="&#x29d;" horiz-adv-x="444" 
d="M324 729v-105h-83v105h83zM6 -99q0 42 23.5 68.5t51.5 35t60 8.5q51 0 100 -13v524h83v-549q34 -10 117 -41l-26 -72q-20 7 -91 32q0 -112 -156 -112q-86 0 -124 36.5t-38 82.5zM83 -103q0 -17 17.5 -29.5t57.5 -12.5q48 0 65.5 16t17.5 48q-60 16 -94 16
q-35 0 -49.5 -11.5t-14.5 -26.5z" />
    <glyph glyph-name="uni029E" unicode="&#x29e;" horiz-adv-x="604" 
d="M576 -133h71v-68h-154v427l-222 -222h-107l182 181l-173 275h-72v68h134l177 -284l81 80v204h154v-68h-71v-593z" />
    <glyph glyph-name="uni029F" unicode="&#x29f;" horiz-adv-x="430" 
d="M70 0v524h84v-448h226v-76h-310z" />
    <glyph glyph-name="uni02A0" unicode="&#x2a0;" horiz-adv-x="556" 
d="M266 461q-69 0 -111 -56t-42 -147q0 -92 42 -147.5t111 -55.5q66 0 106 55t40 145q0 94 -39.5 150t-106.5 56zM418 458v73q0 57 30 88t87 31q23 0 47 -5v-69q-19 1 -29 1q-30 0 -44 -12t-14 -41v-742h-83v278q-57 -83 -162 -83q-104 0 -164 74t-60 201q0 130 62 208.5
t166 78.5q103 0 164 -81z" />
    <glyph glyph-name="uni02A1" unicode="&#x2a1;" horiz-adv-x="556" 
d="M270 632q-76 0 -104.5 -41.5t-30.5 -110.5h-88q5 229 222 229q101 0 158.5 -52t57.5 -143q0 -57 -33.5 -108t-89.5 -65q-26 -7 -57 -11v-18h109v-72h-109v-240h-84v240h-105v72h105v88q95 2 134.5 24t39.5 87q0 56 -33.5 88.5t-91.5 32.5z" />
    <glyph glyph-name="uni02A2" unicode="&#x2a2;" horiz-adv-x="556" 
d="M397 480q-2 74 -32.5 113t-102.5 39q-58 0 -91.5 -32.5t-33.5 -88.5q0 -65 39.5 -87t134.5 -24v-88h105v-72h-105v-240h-84v240h-109v72h109v18q-31 4 -57 11q-56 14 -89.5 65t-33.5 108q0 91 57.5 143t158.5 52q217 0 222 -229h-88z" />
    <glyph glyph-name="uni02A3" unicode="&#x2a3;" horiz-adv-x="944" 
d="M265 461q-68 0 -110 -56t-42 -147q0 -92 42 -147.5t111 -55.5q66 0 106 55t40 146q0 94 -40 149.5t-107 55.5zM883 524v-74l-311 -377h325v-73h-476v69q-34 -49 -73.5 -70.5t-93.5 -21.5q-106 0 -167 76.5t-61 209.5q0 125 61.5 200.5t163.5 75.5q108 0 161 -81v271h83
v-205h388zM495 451v-347l289 347h-289z" />
    <glyph glyph-name="uni02A4" unicode="&#x2a4;" horiz-adv-x="944" 
d="M740 276q89 -11 137.5 -60.5t48.5 -137.5q0 -101 -65.5 -161t-174.5 -60q-149 0 -202 103l73 46q15 -24 25.5 -36.5t38 -23.5t68.5 -11q69 0 108 37.5t39 104.5q0 129 -147 129q-23 -1 -37 -1h-11v75l143 171h-289v-451h-74v69q-34 -49 -73.5 -70.5t-93.5 -21.5
q-106 0 -167 76.5t-61 209.5q0 125 61.5 200.5t163.5 75.5q108 0 161 -81v271h83v-205h388v-74zM265 461q-68 0 -110 -56t-42 -147q0 -92 42 -147.5t111 -55.5q66 0 106 55t40 146q0 94 -40 149.5t-107 55.5z" />
    <glyph glyph-name="uni02A5" unicode="&#x2a5;" horiz-adv-x="944" 
d="M265 461q-68 0 -110 -56t-42 -147q0 -92 42 -147.5t111 -55.5q66 0 106 55t40 146q0 94 -40 149.5t-107 55.5zM805 136q-24 0 -34.5 -10.5t-10.5 -23.5v-29h10q38 0 55 3.5t20 8.5t3 19q0 32 -43 32zM921 95q0 -54 -41.5 -74.5t-119.5 -20.5v-96h-72v96h-267v69
q-34 -49 -73.5 -70.5t-93.5 -21.5q-106 0 -167 76.5t-61 209.5q0 125 61.5 200.5t163.5 75.5q108 0 161 -81v271h83v-205h390v-74l-311 -377h114v29q0 45 33 76t85 31q43 0 79 -26.5t36 -87.5zM495 451v-350l291 350h-291z" />
    <glyph glyph-name="uni02BE" unicode="&#x2be;" horiz-adv-x="333" 
d="M149 579v44q18 0 31 13t13 30q0 18 -13 31t-31 13v44q36 0 62 -26t26 -62q0 -35 -26 -61t-62 -26z" />
    <glyph glyph-name="uni02BF" unicode="&#x2bf;" horiz-adv-x="333" 
d="M167 754v-44q-18 0 -31 -13t-13 -30q0 -18 13 -31t31 -13v-44q-36 0 -62 26t-26 62q0 35 26 61t62 26z" />
    <glyph glyph-name="circumflex" unicode="&#x2c6;" horiz-adv-x="333" 
d="M116 741h95l96 -150h-63l-81 96l-79 -96h-64z" />
    <glyph glyph-name="caron" unicode="&#x2c7;" horiz-adv-x="333" 
d="M210 591h-95l-96 150h63l81 -96l79 96h64z" />
    <glyph glyph-name="uni02C9" unicode="&#x2c9;" horiz-adv-x="333" 
d="M302 701v-70h-274v70h274z" />
    <glyph glyph-name="uni02CA" unicode="&#x2ca;" horiz-adv-x="333" 
d="M188 740h113l-149 -148h-60z" />
    <glyph glyph-name="uni02CB" unicode="&#x2cb;" horiz-adv-x="333" 
d="M135 740l96 -148h-60l-149 148h113z" />
    <glyph glyph-name="uni02D2" unicode="&#x2d2;" horiz-adv-x="333" 
d="M149 189v44q18 0 31 13t13 30q0 18 -13 31t-31 13v44q36 0 62 -26t26 -62q0 -35 -26 -61t-62 -26z" />
    <glyph glyph-name="uni02D3" unicode="&#x2d3;" horiz-adv-x="333" 
d="M167 365v-44q-18 0 -31 -13t-13 -30q0 -18 13 -31t31 -13v-44q-36 0 -62 26t-26 62q0 35 26 61t62 26z" />
    <glyph glyph-name="breve" unicode="&#x2d8;" horiz-adv-x="333" 
d="M15 732h59q8 -66 92 -66q40 0 64 17t27 49h59q-11 -135 -152 -135q-36 0 -66 9.5t-56 41.5t-27 84z" />
    <glyph glyph-name="dotaccent" unicode="&#x2d9;" horiz-adv-x="333" 
d="M219 716v-104h-104v104h104z" />
    <glyph glyph-name="ring" unicode="&#x2da;" horiz-adv-x="333" 
d="M167 754q37 0 62.5 -25.5t25.5 -62.5q0 -36 -26 -61.5t-62 -25.5t-62 26t-26 62q0 35 26 61t62 26zM167 710q-18 0 -31 -13t-13 -30q0 -18 13 -31t31 -13t31 13t13 30q0 19 -12.5 31.5t-31.5 12.5z" />
    <glyph glyph-name="ogonek" unicode="&#x2db;" horiz-adv-x="333" 
d="M189 -205q-56 0 -94 26t-38 68q0 36 25.5 65t71.5 46h70q-55 -31 -74.5 -53t-19.5 -53q0 -54 72 -54q37 0 63 10v-45q-48 -10 -76 -10z" />
    <glyph glyph-name="tilde" unicode="&#x2dc;" horiz-adv-x="333" 
d="M91 717q25 0 69 -18.5t64 -18.5q25 0 37 37h58q-15 -104 -89 -104q-20 0 -70 19t-64 19q-23 0 -33 -37h-58q8 49 30.5 76t55.5 27z" />
    <glyph glyph-name="hungarumlaut" unicode="&#x2dd;" horiz-adv-x="333" 
d="M61 740h113l-149 -150h-60zM235 740h113l-149 -150h-60z" />
    <glyph glyph-name="gravecomb" unicode="&#x300;" horiz-adv-x="0" 
d="M-197 740l96 -148h-60l-149 148h113z" />
    <glyph glyph-name="acutecomb" unicode="&#x301;" horiz-adv-x="0" 
d="M-144 740h113l-149 -148h-60z" />
    <glyph glyph-name="uni0302" unicode="&#x302;" horiz-adv-x="0" 
d="M-216 741h95l96 -150h-63l-81 96l-79 -96h-64z" />
    <glyph glyph-name="tildecomb" unicode="&#x303;" horiz-adv-x="0" 
d="M-241 717q25 0 69 -18.5t64 -18.5q25 0 37 37h58q-15 -104 -89 -104q-20 0 -70 19t-64 19q-23 0 -33 -37h-58q8 49 30.5 76t55.5 27z" />
    <glyph glyph-name="uni0304" unicode="&#x304;" horiz-adv-x="0" 
d="M-30 701v-70h-274v70h274z" />
    <glyph glyph-name="uni0305" unicode="&#x305;" horiz-adv-x="0" 
d="M115 701v-72h-566v72h566z" />
    <glyph glyph-name="uni0306" unicode="&#x306;" horiz-adv-x="0" 
d="M-317 732h59q8 -66 92 -66q40 0 64 17t27 49h59q-11 -135 -152 -135q-36 0 -66 9.5t-56 41.5t-27 84z" />
    <glyph glyph-name="uni0307" unicode="&#x307;" horiz-adv-x="0" 
d="M-113 716v-104h-104v104h104z" />
    <glyph glyph-name="diaeresiscomb" unicode="&#x308;" horiz-adv-x="0" 
d="M-198 715v-103h-104v103h104zM-36 715v-103h-104v103h104z" />
    <glyph glyph-name="hookabovecomb" unicode="&#x309;" horiz-adv-x="0" 
d="M-219 582v-18h-44v64h44q18 0 31 12t13 29q0 19 -12.5 31.5t-31.5 12.5q-20 0 -33 -16l-32 32q28 28 65 28t62.5 -25.5t25.5 -62.5q0 -36 -26 -61.5t-62 -25.5z" />
    <glyph glyph-name="uni030A" unicode="&#x30a;" horiz-adv-x="0" 
d="M-165 754q37 0 62.5 -25.5t25.5 -62.5q0 -36 -26 -61.5t-62 -25.5t-62 26t-26 62q0 35 26 61t62 26zM-165 710q-18 0 -31 -13t-13 -30q0 -18 13 -31t31 -13t31 13t13 30q0 19 -12.5 31.5t-31.5 12.5z" />
    <glyph glyph-name="uni030B" unicode="&#x30b;" horiz-adv-x="0" 
d="M-235 741h113l-149 -150h-60zM-61 741h113l-149 -150h-60z" />
    <glyph glyph-name="uni030C" unicode="&#x30c;" horiz-adv-x="0" 
d="M-122 591h-95l-96 150h63l81 -96l79 96h64z" />
    <glyph glyph-name="uni030D" unicode="&#x30d;" horiz-adv-x="0" 
d="M-219 836h94v-111l-27 -134h-40l-27 134v111z" />
    <glyph glyph-name="uni030E" unicode="&#x30e;" horiz-adv-x="0" 
d="M-297 836h93v-111l-27 -134h-39l-27 134v111zM-137 836h93v-111l-27 -134h-39l-27 134v111z" />
    <glyph glyph-name="uni030F" unicode="&#x30f;" horiz-adv-x="0" 
d="M-164 740l96 -150h-60l-149 150h113zM-338 740l96 -150h-60l-149 150h113z" />
    <glyph glyph-name="uni0310" unicode="&#x310;" horiz-adv-x="0" 
d="M-113 815v-104h-104v104h104zM-317 732h59q8 -66 92 -66q40 0 64 17t27 49h59q-11 -135 -152 -135q-36 0 -66 9.5t-56 41.5t-27 84z" />
    <glyph glyph-name="uni0311" unicode="&#x311;" horiz-adv-x="0" 
d="M-16 597h-59q-8 66 -92 66q-40 0 -64 -17t-27 -49h-59q11 135 152 135q36 0 66 -9.5t56 -41.5t27 -84z" />
    <glyph glyph-name="uni0312" unicode="&#x312;" horiz-adv-x="0" 
d="M-130 583h-81v69q0 88 81 88v-42h-3q-12 0 -19 -1.5t-13 -12t-6 -31.5h41v-70z" />
    <glyph glyph-name="uni0313" unicode="&#x313;" horiz-adv-x="0" 
d="M-202 740h81v-69q0 -88 -81 -88v42h3q12 0 19 1.5t13 12t6 31.5h-41v70z" />
    <glyph glyph-name="uni0314" unicode="&#x314;" horiz-adv-x="0" 
d="M-128 740v-70h-41q0 -21 6 -31.5t13 -12t19 -1.5h3v-42q-81 0 -81 88v69h81z" />
    <glyph glyph-name="uni0315" unicode="&#x315;" horiz-adv-x="0" 
d="M-208 740h81v-69q0 -88 -81 -88v42h3q12 0 19 1.5t13 12t6 31.5h-41v70z" />
    <glyph glyph-name="uni0316" unicode="&#x316;" horiz-adv-x="0" 
d="M-197 -59l96 -148h-60l-149 148h113z" />
    <glyph glyph-name="uni0317" unicode="&#x317;" horiz-adv-x="0" 
d="M-144 -59h113l-149 -148h-60z" />
    <glyph glyph-name="uni0318" unicode="&#x318;" horiz-adv-x="0" 
d="M-147 -60h72v-238h-72v83h-133v72h133v83z" />
    <glyph glyph-name="uni0319" unicode="&#x319;" horiz-adv-x="0" 
d="M-183 -298h-72v238h72v-83h133v-72h-133v-83z" />
    <glyph glyph-name="uni031A" unicode="&#x31a;" horiz-adv-x="0" 
d="M-305 701h274v-274h-70v204h-204v70z" />
    <glyph glyph-name="uni031B" unicode="&#x31b;" horiz-adv-x="0" 
d="M30 651q37 -43 37 -99q0 -112 -159 -112h-45v84h73q24 1 35.5 6.5t11.5 23.5q0 23 -17 43z" />
    <glyph glyph-name="uni031C" unicode="&#x31c;" horiz-adv-x="0" 
d="M-104 -210q-27 -25 -62 -25q-37 0 -62.5 25.5t-25.5 62.5q0 36 26 61.5t62 25.5t61 -25l-31 -31q-12 12 -30 12t-31 -13t-13 -30q0 -19 12.5 -31.5t31.5 -12.5q17 0 31 12z" />
    <glyph glyph-name="uni031D" unicode="&#x31d;" horiz-adv-x="0" 
d="M-284 -215v72h83v83h72v-83h83v-72h-238z" />
    <glyph glyph-name="uni031E" unicode="&#x31e;" horiz-adv-x="0" 
d="M-46 -60v-72h-83v-83h-72v83h-83v72h238z" />
    <glyph glyph-name="uni031F" unicode="&#x31f;" horiz-adv-x="0" 
d="M-46 -143v-72h-83v-83h-72v83h-83v72h83v83h72v-83h83z" />
    <glyph glyph-name="uni0320" unicode="&#x320;" horiz-adv-x="0" 
d="M-46 -100v-72h-238v72h238z" />
    <glyph glyph-name="uni0321" unicode="&#x321;" horiz-adv-x="0" 
d="M-83 45h83v-154q0 -109 -143 -109q-13 0 -28 3v71q17 -1 20 -1q38 0 53 15t15 54v121z" />
    <glyph glyph-name="uni0322" unicode="&#x322;" horiz-adv-x="0" 
d="M0 45v-121q0 -39 15 -54t53 -15q3 0 20 1v-71q-15 -3 -28 -3q-143 0 -143 109v154h83z" />
    <glyph glyph-name="dotbelowcomb" unicode="&#x323;" horiz-adv-x="0" 
d="M-113 -60v-104h-104v104h104z" />
    <glyph glyph-name="uni0324" unicode="&#x324;" horiz-adv-x="0" 
d="M-198 -58v-103h-104v103h104zM-36 -58v-103h-104v103h104z" />
    <glyph glyph-name="uni0325" unicode="&#x325;" horiz-adv-x="0" 
d="M-165 -61q37 0 62.5 -25.5t25.5 -62.5q0 -36 -26 -61.5t-62 -25.5t-62 26t-26 62q0 35 26 61t62 26zM-165 -105q-18 0 -31 -13t-13 -30q0 -18 13 -31t31 -13t31 13t13 30q0 19 -12.5 31.5t-31.5 12.5z" />
    <glyph glyph-name="uni0326" unicode="&#x326;" horiz-adv-x="0" 
d="M-228 -60h100v-103q0 -56 -26 -88.5t-72 -32.5h-2v38q55 0 55 78v8h-55v100z" />
    <glyph glyph-name="uni0327" unicode="&#x327;" horiz-adv-x="0" 
d="M-272 -140q25 -13 50 -23t48 -10t38.5 13t15.5 32q0 37 -46 37q-15 0 -31 -8l-12 7l42 92h38l-23 -56q13 2 28 2q38 0 58.5 -17.5t20.5 -49.5q0 -43 -33 -68t-90 -25q-47 0 -125 34z" />
    <glyph glyph-name="ogonekcmb" unicode="&#x328;" horiz-adv-x="0" 
d="M-143 -205q-56 0 -94 26t-38 68q0 36 25.5 65t71.5 46h70q-55 -31 -74.5 -53t-19.5 -53q0 -54 72 -54q37 0 63 10v-45q-48 -10 -76 -10z" />
    <glyph glyph-name="uni0329" unicode="&#x329;" horiz-adv-x="0" 
d="M-120 -305h-94v111l27 134h40l27 -134v-111z" />
    <glyph glyph-name="uni032A" unicode="&#x32a;" horiz-adv-x="0" 
d="M-305 -60h274v-137h-70v67h-134v-67h-70v137z" />
    <glyph glyph-name="uni032B" unicode="&#x32b;" horiz-adv-x="0" 
d="M-39 -59q25 -27 25 -62q0 -37 -25.5 -62.5t-62.5 -25.5q-38 0 -65 30q-27 -30 -66 -30q-36 0 -61.5 26t-25.5 62q0 34 25 61l31 -31q-12 -14 -12 -30q0 -18 13 -31t30 -13q19 0 31.5 12.5t12.5 31.5v49h44v-49q0 -18 13 -31t30 -13q19 0 31.5 12.5t12.5 31.5q0 17 -12 31
z" />
    <glyph glyph-name="uni032C" unicode="&#x32c;" horiz-adv-x="0" 
d="M-122 -208h-95l-96 150h63l81 -96l79 96h64z" />
    <glyph glyph-name="uni032D" unicode="&#x32d;" horiz-adv-x="0" 
d="M-217 -59h95l96 -150h-63l-81 96l-79 -96h-64z" />
    <glyph glyph-name="uni032E" unicode="&#x32e;" horiz-adv-x="0" 
d="M-317 -67h59q8 -66 92 -66q40 0 64 17t27 49h59q-11 -135 -152 -135q-36 0 -66 9.5t-56 41.5t-27 84z" />
    <glyph glyph-name="uni032F" unicode="&#x32f;" horiz-adv-x="0" 
d="M-16 -203h-59q-8 66 -92 66q-40 0 -64 -17t-27 -49h-59q11 135 152 135q36 0 66 -9.5t56 -41.5t27 -84z" />
    <glyph glyph-name="uni0330" unicode="&#x330;" horiz-adv-x="0" 
d="M-241 -82q25 0 69 -18.5t64 -18.5q25 0 37 37h58q-15 -104 -89 -104q-20 0 -70 19t-64 19q-23 0 -33 -37h-58q8 49 30.5 76t55.5 27z" />
    <glyph glyph-name="uni0331" unicode="&#x331;" horiz-adv-x="0" 
d="M-30 -98v-70h-274v70h274z" />
    <glyph glyph-name="uni0332" unicode="&#x332;" horiz-adv-x="0" 
d="M126 -96v-72h-566v72h566z" />
    <glyph glyph-name="uni0333" unicode="&#x333;" horiz-adv-x="0" 
d="M115 -210v-72h-566v72h566zM115 -67v-72h-566v72h566z" />
    <glyph glyph-name="uni0334" unicode="&#x334;" horiz-adv-x="0" 
d="M-363 313q25 0 69 -18.5t64 -18.5q25 0 37 37h58q-15 -104 -89 -104q-20 0 -70 19t-64 19q-23 0 -33 -37h-58q8 49 30.5 76t55.5 27z" />
    <glyph glyph-name="uni0335" unicode="&#x335;" horiz-adv-x="0" 
d="M-136 303v-70h-274v70h274z" />
    <glyph glyph-name="uni0336" unicode="&#x336;" horiz-adv-x="0" 
d="M17 302v-72h-566v72h566z" />
    <glyph glyph-name="uni0337" unicode="&#x337;" horiz-adv-x="0" 
d="M-89 616h76l-612 -613h-76z" />
    <glyph glyph-name="uni0338" unicode="&#x338;" horiz-adv-x="0" 
d="M-89 749h76l-612 -810h-76z" />
    <glyph glyph-name="uni0339" unicode="&#x339;" horiz-adv-x="0" 
d="M-228 -85q27 25 62 25q37 0 62.5 -25.5t25.5 -62.5q0 -36 -26 -61.5t-62 -25.5q-34 0 -61 25l31 31q14 -12 30 -12q18 0 31 13t13 30q0 19 -12.5 31.5t-31.5 12.5q-17 0 -31 -12z" />
    <glyph glyph-name="uni033A" unicode="&#x33a;" horiz-adv-x="0" 
d="M-31 -198h-274v137h70v-67h134v67h70v-137z" />
    <glyph glyph-name="uni033B" unicode="&#x33b;" horiz-adv-x="0" 
d="M-331 -60h274v-274h-274v274zM-127 -264v134h-134v-134h134z" />
    <glyph glyph-name="uni033C" unicode="&#x33c;" horiz-adv-x="0" 
d="M-327 -209q-25 27 -25 62q0 37 25.5 62.5t62.5 25.5q38 0 65 -30q27 30 66 30q36 0 61.5 -26t25.5 -62q0 -34 -25 -61l-31 31q12 14 12 30q0 18 -13 31t-30 13q-19 0 -31.5 -12.5t-12.5 -31.5v-49h-44v49q0 18 -13 31t-30 13q-19 0 -31.5 -12.5t-12.5 -31.5q0 -17 12 -31
z" />
    <glyph glyph-name="uni033D" unicode="&#x33d;" horiz-adv-x="0" 
d="M-78 755l32 -24l-95 -71l95 -72l-32 -24l-96 71l-95 -71l-32 24l95 72l-95 71l32 24l95 -71z" />
    <glyph glyph-name="uni033E" unicode="&#x33e;" horiz-adv-x="0" 
d="M-119 646q0 -24 -27 -41t-76 -23v44q37 6 37 24q0 13 -19 64.5t-19 68.5q0 55 104 67v-44q-37 -9 -37 -28q0 -13 18.5 -63.5t18.5 -68.5z" />
    <glyph glyph-name="uni033F" unicode="&#x33f;" horiz-adv-x="0" 
d="M-18 656v-72h-566v72h566zM-18 800v-72h-566v72h566z" />
    <glyph glyph-name="uni0340" unicode="&#x340;" horiz-adv-x="0" 
d="M-197 741l96 -148h-60l-149 148h113z" />
    <glyph glyph-name="uni0341" unicode="&#x341;" horiz-adv-x="0" 
d="M-145 740h113l-149 -148h-60z" />
    <glyph glyph-name="uni0342" unicode="&#x342;" horiz-adv-x="0" 
d="M-257 709q25 0 69 -18.5t64 -18.5q25 0 37 37h58q-15 -104 -89 -104q-20 0 -70 19t-64 19q-23 0 -33 -37h-58q8 49 30.5 76t55.5 27z" />
    <glyph glyph-name="uni0343" unicode="&#x343;" horiz-adv-x="0" 
d="M-202 740h81v-69q0 -88 -81 -88v42h3q12 0 19 1.5t13 12t6 31.5h-41v70z" />
    <glyph glyph-name="diaeresistonosnosp" unicode="&#x344;" horiz-adv-x="0" 
d="M-127 880h113l-149 -148h-60zM-198 703v-103h-104v103h104zM-36 703v-103h-104v103h104z" />
    <glyph glyph-name="uni0345" unicode="&#x345;" horiz-adv-x="0" 
d="M-216 -186q19 0 22.5 5t6.5 19h25q0 -42 -16.5 -51.5t-65.5 -9.5q-74 0 -74 79v99h76v-19v-50q0 -40 5 -56t21 -16z" />
    <glyph glyph-name="uni0346" unicode="&#x346;" horiz-adv-x="0" 
d="M-305 748h274v-137h-70v67h-134v-67h-70v137z" />
    <glyph glyph-name="uni0347" unicode="&#x347;" horiz-adv-x="0" 
d="M114 -211v-72h-566v72h566zM114 -67v-72h-566v72h566z" />
    <glyph glyph-name="uni0348" unicode="&#x348;" horiz-adv-x="0" 
d="M-89 -297h-94v111l27 134h40l27 -134v-111zM-244 -297h-94v111l27 134h40l27 -134v-111z" />
    <glyph glyph-name="uni0349" unicode="&#x349;" horiz-adv-x="0" 
d="M-270 -93h144v-144h-60v31q0 56 -2 56h-82v57z" />
    <glyph glyph-name="uni034A" unicode="&#x34a;" horiz-adv-x="0" 
d="M-201 647l-30 -52h-67l43 71q-15 5 -23 5q-23 0 -33 -37h-58q8 49 30.5 76t55.5 27q25 0 62 -15l39 64h62l-49 -84q10 -2 19 -2q25 0 37 37h58q-15 -104 -89 -104q-18 0 -57 14z" />
    <glyph glyph-name="uni034B" unicode="&#x34b;" horiz-adv-x="0" 
d="M-244 669v-104h-104v104h104zM-146 905v-104h-104v104h104zM-321 787q25 0 69 -18.5t64 -18.5q25 0 37 37h58q-15 -104 -89 -104q-20 0 -70 19t-64 19q-23 0 -33 -37h-58q8 49 30.5 76t55.5 27z" />
    <glyph glyph-name="uni034C" unicode="&#x34c;" horiz-adv-x="0" 
d="M-280 818q25 0 69 -18.5t64 -18.5q25 0 37 37h58q-15 -104 -89 -104q-20 0 -70 19t-64 19q-23 0 -33 -37h-58q8 49 30.5 76t55.5 27zM-280 678q25 0 69 -18.5t64 -18.5q25 0 37 37h58q-15 -104 -89 -104q-20 0 -70 19t-64 19q-23 0 -33 -37h-58q8 49 30.5 76t55.5 27z
" />
    <glyph glyph-name="uni034D" unicode="&#x34d;" horiz-adv-x="0" 
d="M-485.5 -133.25h385q-32.5 25.5 -46.5 38.0625t-39 38.8125l18.5 12q27 -24 38.75 -34.125t35.25 -28.3125t50.5 -36.1875q-27 -18 -50.5 -36.1875t-35.25 -28.3125t-38.75 -34.125l-18.5 12q25 26.25 39 38.8125t46.5 38.0625h-385q32.5 -25.5 46.5 -38.0625
t39 -38.8125l-18.5 -12q-27 24 -38.75 34.125t-35.25 28.3125t-50.5 36.1875q27 18 50.5 36.1875t35.25 28.3125t38.75 34.125l18.5 -12q-25 -26.25 -39 -38.8125t-46.5 -38.0625z" />
    <glyph glyph-name="uni034E" unicode="&#x34e;" horiz-adv-x="0" 
d="M-255 -300h-21v202q-18 -20 -75 -64l-13 13q52 45 98 94q56 -57 99 -94l-13 -13q-65 53 -75 64v-202z" />
    <glyph glyph-name="uni0350" unicode="&#x350;" horiz-adv-x="0" 
d="M-42 687v-33l-317 -101v38l256 79l-256 80v38z" />
    <glyph glyph-name="uni0351" unicode="&#x351;" horiz-adv-x="0" 
d="M-78 604q-27 -25 -62 -25q-37 0 -62.5 25.5t-25.5 62.5q0 36 26 61.5t62 25.5t61 -25l-31 -31q-12 12 -30 12t-31 -13t-13 -30q0 -19 12.5 -31.5t31.5 -12.5q17 0 31 12z" />
    <glyph glyph-name="uni0352" unicode="&#x352;" horiz-adv-x="0" 
d="M-146 668v-104h-104v104h104zM-49 665h-59q-8 66 -92 66q-40 0 -64 -17t-27 -49h-59q11 135 152 135q36 0 66 -9.5t56 -41.5t27 -84z" />
    <glyph glyph-name="uni0353" unicode="&#x353;" horiz-adv-x="0" 
d="M-207 -37l32 -24l-95 -71l95 -72l-32 -24l-96 71l-95 -71l-32 24l95 72l-95 71l32 24l95 -71z" />
    <glyph glyph-name="uni0354" unicode="&#x354;" horiz-adv-x="0" 
d="M-409 -153v29l275 87v-33l-222 -68l222 -69v-33z" />
    <glyph glyph-name="uni0355" unicode="&#x355;" horiz-adv-x="0" 
d="M-162 -121v-25l-233 -74v28l188 58l-188 59v28z" />
    <glyph glyph-name="uni0356" unicode="&#x356;" horiz-adv-x="0" 
d="M-259 -131v-25l-233 -74v28l188 58l-188 59v28zM-161 -56h33l99 -175h-38l-77 141l-78 -141h-38z" />
    <glyph glyph-name="uni0357" unicode="&#x357;" horiz-adv-x="0" 
d="M-228 729q27 25 62 25q37 0 62.5 -25.5t25.5 -62.5q0 -36 -26 -61.5t-62 -25.5q-34 0 -61 25l31 31q14 -12 30 -12q18 0 31 13t13 30q0 19 -12.5 31.5t-31.5 12.5q-17 0 -31 -12z" />
    <glyph glyph-name="uni0358" unicode="&#x358;" horiz-adv-x="0" 
d="M1 716v-104h-104v104h104z" />
    <glyph glyph-name="uni0359" unicode="&#x359;" horiz-adv-x="0" 
d="M-312 -68h47l-4 -84l80 28l14 -44l-81 -22l53 -67l-39 -27l-46 70l-47 -70l-38 27l52 67l-81 22l14 44l80 -28z" />
    <glyph glyph-name="uni035A" unicode="&#x35a;" horiz-adv-x="0" 
d="M-425 -49q15 0 30.5 -5t28 -13t25 -17.5t21 -18t16.5 -14.5q7 8 21 19.5t28.5 22.5t34 18.5t37.5 7.5q25 0 44 -10.5t28.5 -26t14 -28.5t4.5 -23q0 -34 -25 -62t-61 -28h-4.5h-4.5q-18 2 -35 8t-30.5 15.5t-22 16.5t-18 16.5l-11.5 11.5q-20 -17 -36.5 -32t-39.5 -25.5
t-50 -10.5q-36 0 -61 28t-25 62q0 10 4.5 23.5t14 29t28.5 25.5t44 10zM-483 -141q0 -16 14.5 -36t45.5 -20q12 0 23 3.5t20.5 9.5t19.5 13.5t18 16t17 16.5q-5 5 -17 14l-26 20q-12 9 -28 15.5t-30 6.5q-26 0 -41.5 -19t-15.5 -40zM-185 -197q31 0 45.5 20t14.5 36
q0 21 -15.5 40t-41.5 19q-14 0 -30.5 -6.5t-29 -16t-24.5 -19t-17 -14.5q9 -8 17 -16.5t18 -16t19.5 -13.5t20.5 -9.5t23 -3.5z" />
    <glyph glyph-name="uni035B" unicode="&#x35b;" horiz-adv-x="0" 
d="M-281 800h65l-37 -101l150 1l-57 -154h-63l39 95h-153z" />
    <glyph glyph-name="uni035C" unicode="&#x35c;" horiz-adv-x="0" 
d="M217 -101q19 7 28.5 11t20.5 11.5t16 18t6 25.5h46q-2 -32 -10.5 -54.5t-25.5 -37.5t-34.5 -24t-48.5 -19q-34 -12 -94 -20.5t-120.5 -8.5t-120.5 8.5t-94 20.5q-31 10 -48.5 19t-34.5 24t-25.5 37.5t-10.5 54.5h46q2 -29 18 -41t53 -25q36 -12 96 -21t120 -9t120.5 9
t96.5 21z" />
    <glyph glyph-name="uni035D" unicode="&#x35d;" horiz-adv-x="0" 
d="M221 711q19 7 28.5 11t20.5 11.5t16 18t6 25.5h46q-2 -32 -10.5 -54.5t-25.5 -37.5t-34.5 -24t-48.5 -19q-34 -12 -94 -20.5t-120.5 -8.5t-120.5 8.5t-94 20.5q-31 10 -48.5 19t-34.5 24t-25.5 37.5t-10.5 54.5h46q2 -29 18 -41t53 -25q36 -12 96 -21t120 -9t120.5 9
t96.5 21z" />
    <glyph glyph-name="uni035E" unicode="&#x35e;" horiz-adv-x="0" 
d="M-324 676h648v-65h-648v65z" />
    <glyph glyph-name="uni035F" unicode="&#x35f;" horiz-adv-x="0" 
d="M-324 -119h648v-65h-648v65z" />
    <glyph glyph-name="uni0360" unicode="&#x360;" horiz-adv-x="0" 
d="M-207 672q-51 0 -84.5 -21t-38.5 -57h-43q6 70 49.5 107.5t119.5 37.5q42 0 84 -16l182 -69q45 -17 78 -17q68 0 90 16t22 59h51q0 -41 -14 -70.5t-38.5 -44.5t-52 -21.5t-59.5 -6.5q-61 0 -126 26l-153 63q-37 14 -67 14z" />
    <glyph glyph-name="uni0361" unicode="&#x361;" horiz-adv-x="0" 
d="M-216 698q-19 -7 -28.5 -11t-20.5 -11.5t-16 -18t-6 -25.5h-46q2 32 10.5 54.5t25.5 37.5t34.5 24t48.5 19q34 12 94 20.5t120.5 8.5t120.5 -8.5t94 -20.5q31 -10 48.5 -19t34.5 -24t25.5 -37.5t10.5 -54.5h-46q-2 29 -18 41t-53 25q-36 12 -96 21t-120 9t-120.5 -9
t-96.5 -21z" />
    <glyph glyph-name="uni0362" unicode="&#x362;" horiz-adv-x="0" 
d="M-300 -168v46h484l-59 53l-10 10l37 28l8 -7q49 -44 124 -97l14 -11l-14 -10q-75 -53 -124 -97l-8 -7l-37 28l10 10l59 54h-484z" />
    <glyph glyph-name="uni0363" unicode="&#x363;" horiz-adv-x="0" 
d="M-335 719q2 65 79 65q75 0 75 -55v-117q0 -15 17 -15q4 0 7 1v-24q-13 -4 -21 -4q-30 0 -33 29q-32 -29 -68 -29q-30 0 -47.5 16t-17.5 43q0 16 5.5 27t12 17t22 10.5t25.5 6t34 4.5q18 3 25.5 7.5t7.5 15.5v8q0 30 -45 30q-43 0 -47 -36h-31zM-272 598q26 0 43 14t17 30
v35q-11 -4 -38.5 -7.5t-44 -12t-16.5 -27.5q0 -32 39 -32z" />
    <glyph glyph-name="uni0364" unicode="&#x364;" horiz-adv-x="0" 
d="M-183 668h-146q0 -28 10 -43q17 -26 48 -26q39 0 52 40h32q-6 -32 -28.5 -50.5t-56.5 -18.5q-42 0 -66 28.5t-24 77.5t24.5 78.5t66.5 29.5q28 0 49.5 -14t30.5 -39q8 -20 8 -63zM-329 694h112q1 0 1 2q0 25 -16 42t-40 17q-23 0 -39 -17t-18 -44z" />
    <glyph glyph-name="uni0365" unicode="&#x365;" horiz-adv-x="0" 
d="M-253 772v-199h-32v199h32zM-253 852v-40h-32v40h32z" />
    <glyph glyph-name="uni0366" unicode="&#x366;" horiz-adv-x="0" 
d="M-275 784q43 0 66.5 -28.5t23.5 -80.5q0 -49 -24 -77t-66 -28t-66 28.5t-24 78.5t24 78.5t66 28.5zM-275 755q-26 0 -41.5 -21t-15.5 -57t15 -57t42 -21q26 0 41.5 21t15.5 56q0 37 -15 58t-42 21z" />
    <glyph glyph-name="uni0367" unicode="&#x367;" horiz-adv-x="0" 
d="M-180 579h-29v28q-26 -36 -66 -36q-29 0 -46.5 14.5t-17.5 39.5v153h32v-141q0 -18 11 -28.5t30 -10.5q25 0 39.5 18.5t14.5 49.5v112h32v-199z" />
    <glyph glyph-name="uni0368" unicode="&#x368;" horiz-adv-x="0" 
d="M-165 712h-31q-6 44 -48 44q-26 0 -40.5 -21.5t-14.5 -58.5q0 -35 15 -55.5t41 -20.5q41 0 49 48h32q-3 -36 -24.5 -56.5t-57.5 -20.5q-40 0 -64 28.5t-24 76.5q0 50 24.5 79.5t64.5 29.5q34 0 55 -19t23 -54z" />
    <glyph glyph-name="uni0369" unicode="&#x369;" horiz-adv-x="0" 
d="M-170 856v-277h-29v26q-24 -35 -63 -35q-40 0 -63.5 29t-23.5 80q0 47 23.5 76t62.5 29q41 0 61 -31v103h32zM-258 754q-26 0 -42 -21t-16 -56t16 -56t43 -21q25 0 40 21t15 55q0 36 -15 57t-41 21z" />
    <glyph glyph-name="uni036A" unicode="&#x36a;" horiz-adv-x="0" 
d="M-200 708q0 21 -13 30t-29 9q-24 0 -39 -18.5t-15 -48.5v-110h-31v277h31v-105q26 33 64 33q29 0 46 -14.5t17 -40.5v-150h-31v138z" />
    <glyph glyph-name="uni036B" unicode="&#x36b;" horiz-adv-x="0" 
d="M-402 771h29v-28q24 34 61 34t54 -30q25 30 61 30q28 0 42.5 -14.5t14.5 -41.5v-149h-31v137q0 19 -10 29.5t-27 10.5q-20 0 -33.5 -15t-13.5 -37v-125h-32v137q0 40 -37 40q-19 0 -33 -15t-14 -37v-125h-31v199z" />
    <glyph glyph-name="uni036C" unicode="&#x36c;" horiz-adv-x="0" 
d="M-191 743q-32 0 -48 -14t-16 -54v-103h-32v199h29v-36q26 42 55 42q4 0 12 -1v-33z" />
    <glyph glyph-name="uni036D" unicode="&#x36d;" horiz-adv-x="0" 
d="M-216 778v-26h-33v-136q0 -11 3.5 -14.5t13.5 -3.5t16 1v-26q-15 -3 -26 -3q-39 0 -39 32v150h-27v26h27v55h32v-55h33z" />
    <glyph glyph-name="uni036E" unicode="&#x36e;" horiz-adv-x="0" 
d="M-260 570h-35l-69 200h35l53 -162l57 162h35z" />
    <glyph glyph-name="uni036F" unicode="&#x36f;" horiz-adv-x="0" 
d="M-250 673l69 -103h-37l-50 77l-51 -77h-36l71 102l-67 98h36l48 -73l48 73h36z" />
    <glyph glyph-name="uni0374" unicode="&#x374;" horiz-adv-x="199" 
d="M156 716l-106 -136l-11 64l66 136z" />
    <glyph glyph-name="uni0375" unicode="&#x375;" horiz-adv-x="199" 
d="M22 -130l106 136l11 -64l-66 -136z" />
    <glyph glyph-name="uni037A" unicode="&#x37a;" horiz-adv-x="332" 
d="M231 -216q19 0 22.5 5t6.5 19h25q0 -42 -16.5 -51.5t-65.5 -9.5q-74 0 -74 79v99h76v-19v-50q0 -40 5 -56t21 -16z" />
    <glyph glyph-name="uni037E" unicode="&#x37e;" horiz-adv-x="278" 
d="M215 524v-104h-104v104h104zM110 104h105v-120q0 -131 -105 -131v38q35 1 47.5 20t12.5 71v18h-60v104z" />
    <glyph glyph-name="tonos" unicode="&#x384;" horiz-adv-x="333" 
d="M211 740h113l-149 -148h-60z" />
    <glyph glyph-name="dieresistonos" unicode="&#x385;" horiz-adv-x="333" 
d="M261 905h113l-149 -148h-60zM134 715v-103h-104v103h104zM296 715v-103h-104v103h104z" />
    <glyph glyph-name="Alphatonos" unicode="&#x386;" horiz-adv-x="860" 
d="M206 741h113l-149 -148h-60zM593 0v81h66l-47 138h-281l-49 -138h66v-81h-287v81h123l202 567h-65v81h94h120l228 -648h122v-81h-292zM586 297l-112 332l-120 -332h232z" />
    <glyph glyph-name="anoteleia" unicode="&#x387;" horiz-adv-x="278" 
d="M187 252q0 -22 -14.5 -37t-34.5 -15t-34.5 15t-14.5 37q0 21 14.5 36t34.5 15t34.5 -15t14.5 -36z" />
    <glyph glyph-name="Epsilontonos" unicode="&#x388;" horiz-adv-x="786" 
d="M310 82v-81h-94v81h94zM310 730v-81h-94v81h94zM833 164v-81h-94v81h94zM815 648v-81h-94v81h94zM403 333v-250h430v-82h-523v729h505v-82h-412v-233h397v-82h-397zM56 740h113l-149 -148h-60z" />
    <glyph glyph-name="Etatonos" unicode="&#x389;" horiz-adv-x="916" 
d="M976 81v-81h-94v81h94zM976 729v-81h-94v81h94zM789 729v-81h-94v81h94zM789 81v-81h-94v81h94zM508 81v-81h-94v81h94zM508 729v-81h-94v81h94zM321 81v-81h-94v81h94zM321 729v-81h-94v81h94zM789 332h-375v-332h-93v729h93v-315h375v315h93v-729h-93v332zM56 740h113
l-149 -148h-60z" />
    <glyph glyph-name="Iotatonos" unicode="&#x38a;" horiz-adv-x="369" 
d="M491 81v-81h-94v81h94zM491 729v-81h-94v81h94zM303 81v-81h-94v81h94zM303 729v-81h-94v81h94zM397 729v-729h-94v729h94zM56 740h113l-149 -148h-60z" />
    <glyph glyph-name="Omicrontonos" unicode="&#x38c;" horiz-adv-x="833" 
d="M74 732h113l-149 -148h-60zM870 353q0 -162 -96 -269t-256 -107q-158 0 -255 105.5t-97 276.5t97 276.5t254 105.5q160 0 256.5 -106t96.5 -282zM517 659q-116 0 -187 -82.5t-71 -217.5t71.5 -217.5t187.5 -82.5t187.5 82t71.5 214q0 138 -71 221t-189 83z" />
    <glyph glyph-name="Upsilontonos" unicode="&#x38e;" horiz-adv-x="845" 
d="M56 741h113l-149 -148h-60zM741 87v-81h-94v81h94zM554 87v-81h-94v81h94zM1015 735v-81h-94v81h94zM810 735v-81h-94v81h94zM482 735v-81h-94v81h94zM273 735v-81h-94v81h94zM647 292v-286h-93v286l-281 443h115l214 -355l208 355h111z" />
    <glyph glyph-name="Omegatonos" unicode="&#x38f;" horiz-adv-x="778" 
d="M56 740h113l-149 -148h-60zM443 76q22 9 51.5 32.5t63.5 62t57 98t23 124.5q0 113 -71 190t-184 77q-109 0 -176.5 -80t-67.5 -190q0 -99 52.5 -189t129.5 -125v-76h-264v72h164q-79 46 -124 132t-45 187q0 138 93.5 240t235.5 102q154 0 251 -97t97 -241
q0 -105 -52 -192t-136 -131h176v-72h-274v76z" />
    <glyph glyph-name="iotadieresistonos" unicode="&#x390;" horiz-adv-x="286" 
d="M198 892h113l-149 -148h-60zM71 702v-103h-104v103h104zM233 702v-103h-104v103h104zM144 136q0 -26 13.5 -41.5t34.5 -15.5q16 0 48 15l30 -81q-46 -21 -90 -21q-60 0 -92 36t-32 105v391h88v-388z" />
    <glyph glyph-name="Alpha" unicode="&#x391;" horiz-adv-x="860" 
d="M563 0v81h96l-47 138h-281l-49 -138h96v-81h-287v81h93l202 567h-65v81h214l228 -648h92v-81h-292zM586 297l-112 332l-120 -332h232z" />
    <glyph glyph-name="Beta" unicode="&#x392;" horiz-adv-x="761" 
d="M732 208q0 -94 -59 -151t-156 -57h-423v81h94v567h-94v81h390q61 0 106 -18t67.5 -47.5t32.5 -59t10 -60.5q0 -112 -101 -159q70 -27 101.5 -69t31.5 -108zM508 82q49 0 80 21.5t41 47.5t10 56q0 57 -34 91.5t-97 34.5h-227v-251h227zM461 647h-180v-232h180
q146 0 146 116t-146 116z" />
    <glyph glyph-name="Gamma" unicode="&#x393;" horiz-adv-x="582" 
d="M566 645h-388v-645h-96v729h484v-84z" />
    <glyph glyph-name="uni0394" unicode="&#x394;" horiz-adv-x="778" 
d="M723 0h-670l264 729h116zM187 84h398l-208 571z" />
    <glyph glyph-name="Epsilon" unicode="&#x395;" horiz-adv-x="761" 
d="M188 730h505v-183h-89v101h-323v-233h397v-82h-397v-250h341v101h89v-183h-617v81h94v567h-94v81h94z" />
    <glyph glyph-name="Zeta" unicode="&#x396;" horiz-adv-x="628" 
d="M215 647v-81h-94v163h525v-84l-436 -563h344v81h94v-163h-555v82l438 565h-316z" />
    <glyph glyph-name="Eta" unicode="&#x397;" horiz-adv-x="916" 
d="M656 332h-375v-251h94v-81h-281v81h94v567h-94v81h281v-81h-94v-234h375v234h-94v81h94h187v-81h-94v-567h94v-81h-281v81h94v251z" />
    <glyph glyph-name="Theta" unicode="&#x398;" horiz-adv-x="778" 
d="M553 320h-336v82h336v-82zM742 353q0 -162 -96 -269t-256 -107q-158 0 -255 105.5t-97 276.5t97 276.5t254 105.5q160 0 256.5 -106t96.5 -282zM389 659q-116 0 -187 -82.5t-71 -217.5t71.5 -217.5t187.5 -82.5t187.5 82t71.5 214q0 138 -71 221t-189 83z" />
    <glyph glyph-name="Iota" unicode="&#x399;" horiz-adv-x="466" 
d="M282 729h94v-81h-94v-567h94v-81h-282v81h94v567h-94v81h188z" />
    <glyph glyph-name="Kappa" unicode="&#x39a;" horiz-adv-x="761" 
d="M771 729v-81h-88l-216 -216l243 -351h101v-81h-251v81h41l-201 293l-119 -119v-174h94v-81h-281v81h94v567h-94v81h94h93h94v-81h-94v-288l283 288h-44v81h251z" />
    <glyph glyph-name="Lambda" unicode="&#x39b;" horiz-adv-x="667" 
d="M116 0h-99l260 729h120l256 -729h-104l-213 629z" />
    <glyph glyph-name="Mu" unicode="&#x39c;" horiz-adv-x="1032" 
d="M581 0h-98l-207 611v-530h94v-81h-276v81h94v567h-94v81h94h129l216 -635l212 635h223v-81h-94v-567h94v-81h-276v81h94v530z" />
    <glyph glyph-name="Nu" unicode="&#x39d;" horiz-adv-x="913" 
d="M370 81v-81h-276v81h94v567h-94v81h195l381 -596v596h88h94v-81h-94v-648h-105l-377 591v-510h94z" />
    <glyph glyph-name="Xi" unicode="&#x39e;" horiz-adv-x="630" 
d="M595 646h-530v83h530v-83zM538 332h-409v83h409v-83zM611 0h-546v83h546v-83z" />
    <glyph glyph-name="Omicron" unicode="&#x39f;" horiz-adv-x="778" 
d="M810 353q0 -162 -96 -269t-256 -107q-158 0 -255 105.5t-97 276.5t97 276.5t254 105.5q160 0 256.5 -106t96.5 -282zM457 659q-116 0 -187 -82.5t-71 -217.5t71.5 -217.5t187.5 -82.5t187.5 82t71.5 214q0 138 -71 221t-189 83z" />
    <glyph glyph-name="Pi" unicode="&#x3a0;" horiz-adv-x="722" 
d="M640 0h-94v647h-372v-647h-94v729h560v-729z" />
    </font>
</defs>
</svg>
