<?xml version="1.0" standalone="no"?>
<!DOCTYPE svg PUBLIC "-//W3C//DTD SVG 1.1//EN" "http://www.w3.org/Graphics/SVG/1.1/DTD/svg11.dtd" >
<svg xmlns="http://www.w3.org/2000/svg" xmlns:xlink="http://www.w3.org/1999/xlink" version="1.1">
<metadata>
Created by FontForge 20170910 at Wed Oct 23 13:05:33 2013
 By Jimmy Wärting
Copyright (c) 2012 by Amos Jerbi with Reserved Font Name "Ptil".
</metadata>
<defs>
<font id="PtilNarrow-Regular" horiz-adv-x="782" >
  <font-face 
    font-family="PtilNarrow"
    font-weight="400"
    font-stretch="normal"
    units-per-em="2048"
    panose-1="0 0 0 0 0 0 0 0 0 0"
    ascent="1638"
    descent="-410"
    bbox="-173.444 -410.75 2082 1641.5"
    underline-thickness="102"
    underline-position="-204"
    unicode-range="U+000D-FB4F"
  />
<missing-glyph horiz-adv-x="748" 
d="M68 0v1365h544v-1365h-544zM136 68h408v1229h-408v-1229z" />
    <glyph glyph-name=".notdef" horiz-adv-x="748" 
d="M68 0v1365h544v-1365h-544zM136 68h408v1229h-408v-1229z" />
    <glyph glyph-name="glyph1" horiz-adv-x="0" 
 />
    <glyph glyph-name="uni000D" unicode="&#xd;" horiz-adv-x="2048" 
 />
    <glyph glyph-name="glyph3" horiz-adv-x="0" 
 />
    <glyph glyph-name="glyph3" horiz-adv-x="0" 
 />
    <glyph glyph-name="space" unicode=" " horiz-adv-x="428" 
 />
    <glyph glyph-name="exclam" unicode="!" horiz-adv-x="221" 
d="M61 43q0 17 12.5 28t28.5 11t27.5 -11t11.5 -28t-12 -29t-27 -12q-17 0 -29 12t-12 29zM90 713q16 368 16 653q0 12 9.5 17t18.5 0t9 -17q0 -289 -16 -653q-2 -54 5.5 -139t11 -138t-8.5 -139q-2 -12 -12 -15t-18.5 3.5t-6.5 17.5q12 84 8.5 136.5t-11 136.5t-5.5 137z
" />
    <glyph glyph-name="quotedbl" unicode="&#x22;" horiz-adv-x="311" 
d="M53 1335q0 119 7.5 192t7.5 95q0 12 9 17t18 0t9 -17q0 -22 -7 -95t-7 -192q0 -12 -9 -17t-18.5 0t-9.5 17zM211 1620q-1 12 8 17.5t18.5 1t10.5 -16.5q3 -48 1 -144.5t1 -144.5q1 -12 -8 -17.5t-18.5 -1t-10.5 16.5q-2 44 -0.5 144.5t-1.5 144.5z" />
    <glyph glyph-name="numbersign" unicode="#" horiz-adv-x="1040" 
d="M55 426.5q-5 7.5 0.5 15.5t18.5 9q93 8 211 8q15 85 39 166q21 74 60 212.5t50 178.5q-119 -3 -239 0q-14 0 -19.5 8t0 15.5t19.5 7.5q82 -4 247 0q10 39 31 116.5t31 116.5q2 8 13 10t20.5 -4t7.5 -14q-6 -24 -60 -225h115h143q10 39 31 116.5t31 116.5q2 8 13 10
t20.5 -4t7.5 -14l-60 -228q130 -7 203 -26q19 -4 15 -18q-4 -16 -25 -11q-85 22 -201 25q-87 -313 -112 -398q-9 -31 -39 -157q120 -3 241 -15q18 -2 17 -14q-2 -14 -20 -16h-7q-104 11 -235 14q-2 -10 -12 -61t-13 -67t-12.5 -59.5t-16 -66.5t-16 -58.5t-20.5 -65.5
t-23 -60q-4 -9 -16 -10t-21 4t-6 14q17 40 31.5 80.5t27.5 93.5t18.5 79t19 94.5t16.5 82.5q-39 2 -119 2h-139q-5 -26 -17 -86t-19.5 -93.5t-20 -83.5t-27 -93t-31.5 -84q-5 -14 -27 -9q-18 5 -14 17q17 40 31.5 80.5t27.5 94.5t18.5 78t19.5 95t16 82q-114 0 -205 -8
q-14 -1 -19 6.5zM328 461h147q37 -2 111 -2q15 85 39 166q81 282 110 391q-51 2 -149 2q-18 0 -54 -1t-55 -1q-98 -352 -112 -400q-19 -62 -37 -155z" />
    <glyph glyph-name="dollar" unicode="$" horiz-adv-x="610" 
d="M66 178q0 12 9 17t18 0t9 -17q0 -71 50.5 -104t130.5 -33q52 0 89.5 13.5t59.5 35.5t34.5 55.5t16.5 66t4 75.5q0 95 -27.5 165.5t-99.5 131.5q-7 4 -45.5 36.5t-78 66.5t-41.5 36q-24 22 -41 42.5t-29 36t-19.5 39t-11.5 36.5t-6 43t-2 45v55q0 50 4.5 87.5t19 75.5
t38.5 62t66 40t99 18q-5 19 -5.5 42.5t1.5 53.5t2 43q0 12 9.5 17t18.5 0t9 -17q0 -9 -1.5 -42t-0.5 -56.5t6 -40.5q36 -3 67 -13t61 -29.5t47.5 -53.5t17.5 -79q0 -12 -9.5 -17t-18.5 0t-9 17q0 72 -53 105t-127 33q-65 0 -107 -16.5t-62.5 -51.5t-28 -75.5t-7.5 -102.5
v-14q0 -100 14.5 -146.5t81.5 -107.5q24 -23 52 -47.5t60.5 -51t45.5 -37.5l2 -2l4 -2q81 -66 111 -144.5t30 -180.5q0 -50 -6.5 -89.5t-24 -80.5t-54.5 -69t-91 -38v-2q0 -10 -2 -42t-1 -56t7 -41q5 -11 -2 -18.5t-17.5 -6t-15.5 12.5q-6 15 -8 36t-2 34t2 42t2 35h-28
q-89 0 -153 41.5t-64 132.5z" />
    <glyph glyph-name="percent" unicode="%" horiz-adv-x="864" 
d="M37 74q22 27 42 55.5t41 62t34 55.5t36.5 63t32.5 57q48 87 92 153q17 24 51.5 72t51.5 72q15 23 80 133.5t106 167.5q20 27 63.5 79.5t75 96t50.5 86.5q4 6 12.5 6t15.5 -6.5t4 -14.5q-20 -42 -53 -87.5t-76 -97t-65 -83.5q-33 -49 -93.5 -150.5t-93.5 -150.5
q-17 -25 -54 -75t-54 -76q-33 -54 -84 -146q-4 -8 -26.5 -47t-29.5 -51.5t-27 -45t-32 -50.5t-30.5 -43.5t-36.5 -47.5q-9 -11 -28 -1q-9 7 -5 14zM170 1077q-34 42 2 90q37 47 103.5 86t138.5 56q4 2 12 2q4 0 6 -2q115 -29 114 -99q0 -59 -74 -116q-85 -62 -175 -64
q-36 0 -72.5 12.5t-54.5 34.5zM193 1100q10 -21 40 -34t60 -11q71 2 147 56q75 52 74 102q-1 49 -86 71q-116 -26 -203 -106q-49 -49 -32 -78zM358 133q31 49 92.5 91.5t133.5 64.5h4q8 3 14 0q119 -24 121 -98q3 -60 -69 -122q-75 -64 -160 -69q-36 -2 -73.5 9.5
t-58.5 33.5q-36 39 -4 90zM378.5 83.5q0.5 -10.5 6.5 -20.5q13 -19 43.5 -29.5t60.5 -8.5q70 7 138 64q69 58 62 108q-7 49 -93 67q-55 -17 -105.5 -50t-82.5 -71q-9 -12 -14 -19t-10.5 -18.5t-5 -22z" />
    <glyph glyph-name="ampersand" unicode="&#x26;" horiz-adv-x="872" 
d="M66 338q12 116 56.5 223.5t123.5 247.5v2q-6 17 -27.5 84.5t-38.5 101.5q-48 107 -63 156v10q-8 76 45 107q52 31 129 16q84 -16 100 -59q10 -24 13 -50t-2.5 -56t-11.5 -50t-17 -53q-21 -85 -88 -211q14 -39 41 -84.5t47.5 -74t61.5 -82.5t54 -72q14 -21 43 -62.5
t43 -62.5q24 66 48 116q5 8 13 8t14.5 -7t2.5 -15q-25 -49 -55 -137q37 -55 96 -152q2 -3 26 -42t36 -60q2 -3 12 -23t19 -32t20 -17q9 -6 9 -13.5t-8 -12.5t-17 0q-27 14 -58 69q-11 19 -32 56t-33 55q-65 103 -84 133q-60 -156 -131 -221q0 -7 -9 -13q-50 -27 -99 -40.5
t-104 -6t-94 46.5q-96 96 -81 277zM113 412q-45 -185 32 -297q47 -69 113 -72q73 -5 156 39q52 48 84.5 107t62.5 141q-49 74 -102 147q-16 22 -66.5 87t-81.5 112t-49 92q-6 -10 -18.5 -29.5t-18.5 -29.5q-28 -45 -51 -101t-32.5 -90t-28.5 -106zM156 1147
q10 -30 33.5 -82.5t31.5 -71.5q12 -28 27.5 -80.5t19.5 -62.5q36 69 74 180q1 2 6 19t6.5 21.5t6 20t5.5 22t3.5 20t2 22t-1 19.5t-3.5 20t-7 18q-17 32 -75 43q-63 12 -99 -8q-47 -23 -30 -94v-6z" />
    <glyph glyph-name="quotesingle" unicode="'" horiz-adv-x="204" 
d="M88 1620q-1 12 8 17.5t18.5 1t10.5 -16.5q3 -48 1 -144.5t1 -144.5q1 -12 -8 -17.5t-18.5 -1t-10.5 16.5q-2 44 -0.5 144.5t-1.5 144.5z" />
    <glyph glyph-name="parenleft" unicode="(" horiz-adv-x="579" 
d="M14 487q-53 413 72 738q11 30 27.5 59.5t30.5 52t39.5 49t39.5 42t48 40.5t46.5 35t53 35.5t50.5 31.5t56 33t53 31q11 7 21.5 0t10.5 -17.5t-11 -17.5q-21 -12 -82.5 -47t-102.5 -61.5t-77 -56.5q-123 -103 -178 -265q-104 -311 -52 -696q43 -317 119 -496
q117 -290 338 -346q13 -3 15 -14.5t-6 -20.5t-21 -6q-12 5 -29 9q-221 76 -334 356q-85 200 -127 532z" />
    <glyph glyph-name="parenright" unicode=")" horiz-adv-x="608" 
d="M21 1616q0 11 9.5 18t20.5 0q28 -14 37 -20q5 -3 36 -20.5t40 -22.5t35 -20.5t39 -24.5t33.5 -23t37 -27.5t31.5 -27.5q121 -110 172 -266q106 -323 51 -725q-9 -68 -18 -123t-24.5 -129.5t-35 -135t-46 -127.5t-62 -120.5t-78.5 -101t-99.5 -81t-121.5 -49.5
q-13 -3 -21 6t-6 20.5t15 14.5q228 59 342 357q82 208 116 499q51 397 -57 697q-58 159 -184 256q-19 15 -41 30t-39 26t-44 27.5t-40.5 24t-45.5 25.5t-42 24q-10 8 -10 19z" />
    <glyph glyph-name="asterisk" unicode="*" horiz-adv-x="550" 
d="M33 955.5q0 10.5 10 17.5q42 22 123.5 60.5t91.5 43.5q-75 61 -141 86q-11 5 -13 16.5t5.5 20t19.5 4.5q81 -36 154 -96q4 53 4 160q0 20 20.5 19.5t20.5 -19.5q0 -105 -4 -156q85 45 139 80q11 7 20.5 0.5t9.5 -17t-10 -18.5q-61 -41 -153 -88q93 -85 143 -121
q16 -11 5 -30q-11 -16 -25 -5q-55 39 -138 115q-6 -80 -22 -170q-2 -13 -13 -15t-20.5 5.5t-7.5 19.5q14 81 24 174q-178 -87 -213 -106q-11 -6 -20.5 1.5t-9.5 18z" />
    <glyph glyph-name="plus" unicode="+" horiz-adv-x="675" 
d="M35 750q-2 20 14 22h6q98 -12 244 -12q-4 170 2 254q0 13 11 18t22 0t10 -18q-5 -112 -2 -252q270 6 272 6q20 0 20 -21.5t-20 -21.5l-270 -6q12 -230 12 -340q0 -14 -11 -19t-21.5 0.5t-10.5 18.5q0 50 -2 106.5t-5.5 125t-4.5 106.5q-137 -3 -246 10q-19 3 -20 23z" />
    <glyph glyph-name="comma" unicode="," horiz-adv-x="126" 
d="M27 -141q-1 24 9.5 62t8.5 63q-1 12 8 17.5t18.5 1t10.5 -16.5q2 -26 -9 -64t-10 -63q1 -12 -7.5 -17t-18 0t-10.5 17z" />
    <glyph glyph-name="hyphen" unicode="-" horiz-adv-x="675" 
d="M35 607q-2 20 14 22h6q124 -15 287 -11q22 0 120.5 3.5t151.5 3.5q20 0 20 -21.5t-20 -21.5q-52 0 -149.5 -3t-120.5 -4q-179 -4 -289 9q-19 3 -20 23z" />
    <glyph glyph-name="period" unicode="." horiz-adv-x="96" 
d="M29 18v15q0 12 9.5 17t18.5 0t9 -17v-15q0 -12 -9 -17t-18.5 0t-9.5 17z" />
    <glyph glyph-name="slash" unicode="/" horiz-adv-x="1026" 
d="M74 0q65 110 198 307q23 34 71.5 99.5t70.5 99.5q35 52 124.5 198t143.5 222q30 42 86 112t100 130.5t74 119.5q4 8 13 8.5t15.5 -6t2.5 -14.5q-30 -59 -74 -120.5t-101.5 -133.5t-86.5 -113q-53 -75 -142.5 -218.5t-126.5 -198.5q-23 -34 -71 -100.5t-70 -100.5
q-154 -229 -197 -305q-6 -7 -14.5 -7t-14.5 6.5t-1 14.5z" />
    <glyph glyph-name="zero" unicode="0" horiz-adv-x="620" 
d="M29 356q1 51 6 177.5t5.5 176.5t-3.5 177v2v2q0 13 -2 59.5t-1.5 66.5t4 60.5t12 65t25.5 54t42 52.5q37 33 100.5 48t125 12.5t114.5 -15.5q90 -23 106 -73q25 -92 29 -222q1 -74 -2.5 -158.5t-9 -185.5t-7.5 -159q-5 -210 -4 -252q0 -31 1.5 -61t-6.5 -63.5t-27 -56.5
q-47 -51 -170 -59q-129 -10 -220 23q-45 14 -67.5 41.5t-32.5 70.5q-18 81 -18 217zM68.5 985.5q0.5 -15.5 3 -52.5t2.5 -44q7 -230 -4 -412q-12 -210 8 -313q5 -26 10 -41.5t19 -34t36 -27.5q60 -28 166 -28h21.5h25t23 0.5t26 2t22.5 3.5t24.5 5.5t19.5 8.5q57 30 61 115
q3 39 2 107.5t1 107.5q2 52 5 156.5t5 156.5q1 36 6.5 119t7 131t-3.5 117t-20 125q-5 19 -8.5 27t-12.5 18.5t-25 17.5q-39 16 -92 23q-133 12 -211 -19q-27 -11 -47.5 -29.5t-33 -37t-21 -48t-12 -49t-4 -55t0 -51z" />
    <glyph glyph-name="one" unicode="1" horiz-adv-x="274" 
d="M43.5 1269q-4.5 9 0.5 18t17 9q75 0 160 -16q6 0 11 -6.5t4 -13.5q-20 -83 -5 -301.5t9 -301.5q-18 -311 -2 -641q1 -12 -8 -17t-18.5 0t-10.5 17q-15 330 2 643q5 84 -8.5 294t2.5 294q-98 13 -138 13q-11 0 -15.5 9z" />
    <glyph glyph-name="two" unicode="2" horiz-adv-x="716" 
d="M41.5 1283.5q3.5 9.5 15.5 10.5q316 42 478 -61q97 -62 129 -159.5t10 -205.5q-17 -92 -62 -184t-107 -174t-125 -155.5t-133.5 -161t-115.5 -158.5q62 3 234.5 -2t234.5 6q12 2 18 -6.5t2 -18.5t-16 -12q-90 -10 -253 -5.5t-253 -0.5q-13 0 -18.5 8.5t0.5 20.5
q44 74 115 163.5t137 166t130.5 159.5t112 175.5t64.5 184.5q19 101 -10 186.5t-115 139.5q-151 99 -451 60q-12 -2 -18.5 6t-3 17.5z" />
    <glyph glyph-name="three" unicode="3" horiz-adv-x="731" 
d="M41.5 1258.5q-0.5 9.5 9.5 17.5q100 59 244 49.5t250 -78.5q185 -118 147 -381q-8 -56 -26.5 -108t-55 -99.5t-84.5 -68.5q60 -26 99.5 -90.5t50.5 -137.5q34 -212 -123 -313q-58 -37 -145.5 -54t-180.5 -3t-147 63q-12 12 0.5 25.5t25.5 1.5q76 -63 210 -58.5t219 58.5
q72 47 96 119.5t8 156.5q-2 13 -6 31q-19 75 -64 125.5t-118 56.5q-12 2 -16.5 10.5t0 17t16.5 9.5q61 6 107.5 48.5t69.5 97.5t29 116q19 106 -11.5 197.5t-121.5 149.5q-97 63 -231.5 71.5t-222.5 -45.5q-10 -6 -19 0t-9.5 15.5z" />
    <glyph glyph-name="four" unicode="4" horiz-adv-x="763" 
d="M47 319q2 74 30 150.5t71 143.5t94.5 134.5t103.5 134t95.5 132t72.5 139t33 143.5q1 12 10.5 16t18.5 -2t8 -18q-4 -72 -32 -146t-70.5 -139t-92.5 -130.5t-101 -131t-94 -129.5t-72.5 -135.5t-35.5 -140.5q34 3 77 3t69 -0.5t81 -3t72 -3.5q218 -11 309 0
q1 44 -0.5 87.5t-3.5 64.5l-2 22q-1 12 8 17.5t18.5 1t10.5 -16.5q1 -9 2 -26t3 -67t1 -97v-5q0 -10 -1 -30.5t-1 -30.5q-3 -69 -0.5 -125t7.5 -93l5 -36q2 -12 -6.5 -18.5t-18 -3t-11.5 15.5q-2 14 -5 37.5t-8 95.5t0 129q0 27 2 41q-103 -8 -159 -7t-167.5 6.5t-160.5 6.5
q-76 3 -139 -4q-9 -1 -15 4t-6 14z" />
    <glyph glyph-name="five" unicode="5" horiz-adv-x="708" 
d="M57.5 65.5q-0.5 5.5 2.5 10.5t8 8t11 3t11 -5q76 -63 209.5 -58.5t218.5 58.5q137 89 105 276q0 4 -4 22t-16.5 50t-31.5 61t-55.5 53.5t-81.5 28.5q-7 1 -19.5 2t-48.5 0t-69.5 -7t-75.5 -23.5t-74 -44.5q-12 -10 -22 -4.5t-8 20.5q2 20 4.5 55.5t8.5 136t8.5 191
t-0.5 198.5t-13 181q-1 9 5 14.5t15 5.5q38 -2 94 -4t207.5 -5.5t208.5 3.5q12 1 17.5 -8t1 -18.5t-16.5 -10.5q-166 -11 -493 5q13 -103 13.5 -238t-4.5 -229t-15 -240q56 35 132.5 49t147.5 6q91 -10 148.5 -80.5t72.5 -165.5q30 -215 -122 -313q-58 -37 -146 -54t-181 -3
t-147 63q-5 5 -5.5 10.5z" />
    <glyph glyph-name="six" unicode="6" horiz-adv-x="745" 
d="M41.5 423q9.5 99 42 194.5t82.5 170.5q35 50 102 136q63 83 106.5 169.5t71.5 213.5q4 18 22 14.5t15 -21.5q-29 -132 -74.5 -222.5t-109.5 -174.5q-10 -14 -36 -47t-36.5 -47.5t-30.5 -43.5t-31 -49t-24.5 -49t-23.5 -59q-21 -64 -33 -141q39 76 117 116.5t182 43.5
q15 0 29.5 -0.5t22.5 -1t9 -0.5q64 -7 118.5 -42t89 -85.5t51 -113.5t11 -124t-38 -117.5t-89.5 -93.5q-59 -38 -137 -56t-161 -4t-134 66q-3 2 -9 8q-62 68 -87.5 164.5t-16 195.5zM86 268q17 -103 86 -178l8 -8q33 -34 87.5 -50t114 -13.5t118 26.5t102 64t64.5 104.5
t6 142.5q0 4 -5.5 23.5t-22 53.5t-40.5 66t-67.5 58t-96.5 31h-2l-30 2t-53.5 -2.5t-70.5 -12t-71.5 -29.5t-66 -51.5t-44.5 -82.5t-16 -119v-25z" />
    <glyph glyph-name="seven" unicode="7" horiz-adv-x="622" 
d="M46 1273.5q-3 9.5 3.5 18t18.5 6.5q74 -11 199 -17.5t213 -7.5l89 -1q12 0 17.5 -8t-0.5 -19q-46 -80 -97 -178q-97 -183 -122 -274q-103 -387 -84 -793q1 -12 -8 -17t-18.5 0t-10.5 17q-19 422 86 803q34 125 207 432q-329 7 -478 27q-12 2 -15 11.5z" />
    <glyph glyph-name="eight" unicode="8" horiz-adv-x="757" 
d="M39 324q13 -109 65 -187t127.5 -111.5t170.5 -22.5t190 71q87 56 115.5 141.5t9.5 181.5q-18 91 -78 162.5t-145 95.5q53 19 100 52q87 55 115.5 140t9.5 181q-20 104 -94 180.5t-176 85.5q-10 5 -64 2q-160 -5 -253.5 -91t-90.5 -251q13 -117 71.5 -197t145.5 -110
q-104 -32 -163 -113t-56 -210zM76 326q-1 71 18.5 125.5t50.5 86t70.5 52.5t78 28.5t72.5 10t53.5 1t22.5 -2.5q40 -4 75 -19t58.5 -35.5t42.5 -46t30.5 -48.5t19 -44t10 -32t2.5 -13q36 -189 -109 -285q-87 -55 -172 -65.5t-151.5 20t-113 100t-58.5 167.5zM78 956
q-1 68 17.5 121.5t46 85.5t69 53.5t73.5 30.5t73 12t54.5 2.5t30.5 -1.5h2q55 -6 100 -32.5t69.5 -60.5t41 -67t21.5 -56l6 -22q35 -192 -109 -285q-87 -56 -172 -67t-151.5 19t-113 99.5t-58.5 167.5z" />
    <glyph glyph-name="nine" unicode="9" horiz-adv-x="749" 
d="M42 1015.5q-6 -60.5 10.5 -123.5t51 -113.5t89 -85.5t118.5 -42h3q4 0 9.5 -0.5t13 -1t17 -0.5h19.5q103 3 181 43t118 115q-12 -76 -33 -139q-10 -30 -23.5 -59t-24.5 -49t-31 -49t-30.5 -43.5t-36.5 -47.5t-36 -47q-38 -50 -54.5 -73.5t-46 -73t-49.5 -105.5t-35 -125
q-3 -17 15 -21t22 13q19 88 51.5 161t55 106t71.5 97q84 109 103 135q68 102 102.5 232t17 267t-99.5 226l-10 9q-50 52 -132.5 66t-160.5 -4.5t-137 -57.5q-57 -36 -89.5 -92.5t-38.5 -117zM84 920q-15 78 5.5 142.5t64.5 104.5t102.5 64t117.5 26.5t113.5 -13.5t87.5 -50
q5 -2 9 -8q68 -73 86 -182v-21q2 -67 -16.5 -119.5t-45.5 -83t-67 -51.5t-72 -29.5t-71 -11.5t-53 -2t-29 2h-1q-53 5 -96.5 31t-67.5 58t-40 66t-21.5 53.5t-5.5 23.5z" />
    <glyph glyph-name="colon" unicode=":" horiz-adv-x="96" 
d="M29 522v15q0 12 9.5 17t18.5 0t9 -17v-15q0 -12 -9 -17t-18.5 0t-9.5 17zM29 870v15q0 12 9.5 17t18.5 0t9 -17v-15q0 -12 -9 -17t-18.5 0t-9.5 17z" />
    <glyph glyph-name="semicolon" unicode=";" horiz-adv-x="96" 
d="M16 412q-1 23 10 61.5t9 63.5q-1 12 8 17.5t18.5 1t10.5 -16.5q2 -26 -9 -64t-10 -63q1 -12 -8 -17t-18.5 0t-10.5 17zM29 870v15q0 12 9.5 17t18.5 0t9 -17v-15q0 -12 -9 -17t-18.5 0t-9.5 17z" />
    <glyph glyph-name="less" unicode="&#x3c;" horiz-adv-x="1110" 
d="M51 713q0 11 10 14q0 2 7 2q154 42 477.5 177.5t503.5 176.5q11 3 17.5 -4.5t4 -16.5t-13.5 -11q-178 -41 -490.5 -172t-453.5 -172q121 -70 275.5 -127t327 -113.5t285.5 -106.5q15 -6 6 -20.5t-24 -7.5q-115 50 -297 108.5t-341.5 118.5t-285.5 137q-8 5 -8 17z" />
    <glyph glyph-name="equal" unicode="=" horiz-adv-x="784" 
d="M61 1013q-5 9 0 18t17 9q59 0 202 5t246.5 2.5t200.5 -19.5q12 -2 15.5 -12t-3 -18.5t-18.5 -6.5q-96 17 -198 20t-245.5 -2t-199.5 -5q-12 0 -17 9zM63 671q-5 9 0 18t17 9q44 0 200.5 5.5t257.5 2.5t199 -20q12 -2 15.5 -12t-3 -18.5t-18.5 -6.5q-75 13 -165.5 18
t-156 3.5t-170 -4.5t-159.5 -4q-12 0 -17 9z" />
    <glyph glyph-name="greater" unicode="&#x3e;" horiz-adv-x="1118" 
d="M59 1062q-2 9 5 16.5t16 4.5q181 -41 504 -176.5t479 -177.5q4 0 6 -2q8 -3 8 -14q3 -10 -8 -17q-126 -77 -285.5 -137t-341.5 -118.5t-297 -108.5q-15 -8 -24 7t8 21q112 50 284.5 106.5t327.5 113.5t275 127q-141 41 -453.5 172t-490.5 172q-11 2 -13 11z" />
    <glyph glyph-name="question" unicode="?" horiz-adv-x="624" 
d="M104 1231q-5 37 7.5 66t34.5 45.5t51.5 26.5t55 13.5t50.5 3.5q57 0 98 -13t65 -35t37.5 -57.5t18 -71.5t4.5 -87q0 -53 -1 -77t-7 -59.5t-19 -57.5t-37 -49.5t-61 -57.5q-38 -30 -62.5 -61.5t-37 -56t-18 -62t-5.5 -59.5t1.5 -71.5t1.5 -76.5v-117q0 -12 -9.5 -17
t-18.5 0t-9 17v117q0 25 -1.5 70.5t-1 67t3.5 57.5t11.5 58t23 51.5t39.5 56.5t60 55q33 26 54 50.5t32.5 43t16.5 48.5t6 50t1 65v3.5v3.5v4v4q0 61 -6.5 99t-25.5 69.5t-56.5 45.5t-97.5 14q-71 0 -120 -27.5t-42 -87.5q1 -11 -8 -17t-18.5 -2.5t-10.5 15.5zM225 43
q0 17 12.5 28t28.5 11t27.5 -11t11.5 -28t-12 -29t-27 -12q-17 0 -29 12t-12 29z" />
    <glyph glyph-name="at" unicode="@" horiz-adv-x="1411" 
d="M35 795q6 138 24 276q1 5 4 33.5t4 36.5t5 32t8 36.5t11 30t15 32.5q66 115 269 133q260 23 475 4q147 -10 252 -43q139 -44 196 -106q20 -21 34.5 -44t22 -53.5t12.5 -48.5t4.5 -58t-0.5 -51.5t-3.5 -59t-3.5 -52.5q-5 -60 2.5 -171t7.5 -134q1 -57 -0.5 -93t-19.5 -88
t-54 -79q-58 -43 -134 -27.5t-107 76.5q-12 22 -20.5 45.5t-13 54.5t-6.5 46.5t-4 56t-3 49.5q-5 55 -15 99.5t-29.5 92.5t-54.5 82.5t-84 50.5q-96 29 -198 34.5t-199 -19.5q-83 -21 -115 -86q-35 -74 -28 -170q2 -42 9 -80.5t23 -80.5t47 -73t74 -43q108 -32 242 -35
q155 0 242 31q9 3 14 -2.5t4 -14t-10 -12.5q-146 -50 -367 -20q-87 9 -146 30t-95 72q-47 66 -62.5 152t-1.5 170q14 83 60 135q38 43 129 62q203 37 387 -23q98 -33 141 -104q20 -35 27 -60v180q0 13 16 13t16 -13v-317q1 -17 3 -70t4 -79t11.5 -66t26.5 -70
q35 -66 113 -69q74 0 107 47q24 36 33 89t8 84.5t-5 94.5q-13 192 -6 270q10 137 2 194q-19 126 -118 181q-182 99 -517 103q-45 0 -130.5 -3t-106.5 -4q-122 -4 -191 -22q-37 -10 -65 -26.5t-47 -43t-31 -48t-20.5 -59.5t-11.5 -58.5t-9 -63.5q-37 -339 -14 -553
q25 -255 135 -365q73 -71 203 -90q106 -16 319 -20q205 -4 291 -15q80 -8 115 -10q65 -5 84 -2q9 2 14 -4t4 -13t-10 -9q-35 -6 -146 4q-173 15 -198 16q-35 1 -147 4t-171 6q-185 8 -266 39q-164 62 -227 283q-50 185 -39 463z" />
    <glyph glyph-name="bracketleft" unicode="[" horiz-adv-x="432" 
d="M98 1411q0 7 6 13t13 6h200q12 0 17 -9t0 -18.5t-17 -9.5h-180q3 -63 1 -186t1 -185q4 -65 5 -208.5t6 -217.5q5 -65 6 -197.5t6 -197.5q17 -198 2 -344h194q12 0 17 -9.5t0 -18.5t-17 -9h-215q-21 0 -18 20q18 147 0 357q-5 67 -6 199t-6 198q-5 74 -6 217t-5 209
q-3 71 -2.5 195.5t-1.5 195.5z" />
    <glyph glyph-name="backslash" unicode="\" horiz-adv-x="1105" 
d="M78 1602q-5 11 2 19t17 7t14 -12q26 -58 64 -118t90 -133t77 -112q50 -78 132 -227t106 -190q21 -34 64 -100.5t63 -100.5q45 -74 160 -292t192 -329q7 -9 1.5 -18t-15 -10t-17.5 8q-78 112 -195.5 332.5t-158.5 289.5q-22 38 -65.5 106t-59.5 95q-34 56 -112.5 200
t-125.5 218q-25 38 -77.5 112t-91 135t-64.5 120z" />
    <glyph glyph-name="bracketright" unicode="]" horiz-adv-x="391" 
d="M61 -152.5q5 9.5 17 9.5h196q-15 146 2 344q5 69 6 201.5t5 193.5q7 80 7.5 227.5t2.5 198.5q4 66 2.5 185.5t1.5 185.5h-180q-12 0 -17 9.5t0 18.5t17 9h198q7 0 13 -6t6 -13q0 -26 0.5 -195.5t-4.5 -195.5q-2 -52 -2.5 -199t-7.5 -227q-3 -56 -4.5 -190t-8.5 -207
q-15 -230 2 -357q3 -20 -18 -20h-217q-12 0 -17 9t0 18.5z" />
    <glyph glyph-name="asciicircum" unicode="^" horiz-adv-x="440" 
d="M52.5 1041q-4.5 8 0.5 18q31 55 64 110l47 78l14 25l4 6l-4 -6q17 30 37 10q25 -35 91 -117.5t97 -128.5q7 -9 1.5 -18.5t-14.5 -10t-17 8.5q-29 43 -90.5 118.5t-81.5 102.5l-6 -10l-45 -76l-66 -111q-6 -9 -16.5 -8t-15 9z" />
    <glyph glyph-name="underscore" unicode="_" horiz-adv-x="929" 
d="M51 -1q-5 9 0 18.5t17 9.5q71 0 247.5 6t304.5 2.5t248 -23.5q12 -2 15.5 -11.5t-3 -17.5t-18.5 -6q-118 19 -246 22.5t-301.5 -3t-246.5 -6.5q-12 0 -17 9z" />
    <glyph glyph-name="grave" unicode="`" horiz-adv-x="174" 
d="M55 1274q0 12 9.5 17t18.5 0t9 -17q0 -53 0.5 -74.5t7.5 -62.5t21 -72q7 -17 -9 -24t-24 8q-15 34 -23 76t-9 70t-1 79z" />
    <glyph glyph-name="braceleft" unicode="{" horiz-adv-x="614" 
d="M105 710q3 11 18 13q42 4 71 37t40.5 83t15 90.5t2.5 82.5q-1 48 -13.5 137t-15.5 115q-5 45 2 75t29.5 48.5t48.5 28.5t70 20q12 3 19 -5t4 -18t-15 -12q-17 -4 -25 -6t-21.5 -5.5t-20 -6.5t-16.5 -8t-14.5 -10t-10.5 -12t-8.5 -15t-4.5 -18.5t-2 -23.5t2 -28
q3 -26 14 -110t14 -124t-1.5 -105t-22.5 -118q-29 -92 -96 -119q33 -27 56.5 -53.5t37.5 -58t22 -54.5t11 -63t3 -60.5t-1.5 -70.5t-1.5 -72q0 -9 -7.5 -108t-2.5 -169.5t30 -97.5q31 -34 97 -20q12 3 19 -5t4 -18t-15 -12q-88 -19 -126.5 24t-45.5 134q-3 50 3.5 144
t6.5 130q0 25 2 75t1.5 70t-3.5 58.5t-12 60t-25 51.5t-42.5 56t-63.5 53q-13 9 -10 20z" />
    <glyph glyph-name="bar" unicode="|" horiz-adv-x="184" 
d="M45 205q0 102 8.5 183.5t18 189t10.5 184.5q2 143 2 860q0 12 9 17t18.5 0t9.5 -17q0 -718 -2 -862q-1 -75 -10.5 -182t-18 -187t-8.5 -181t16 -185q2 -11 -6.5 -17.5t-18.5 -4t-12 14.5q-16 85 -16 187z" />
    <glyph glyph-name="braceright" unicode="}" horiz-adv-x="507" 
d="M100 -154q-3 10 3.5 18t17.5 5q68 -13 96 20q20 21 27.5 76t5.5 104t-7 115.5t-5 79.5q0 25 -1 72.5t-1 70t3 61t11 62.5t22 55t38 57.5t57 53.5q-68 28 -97 119q-18 53 -22.5 118t-1.5 105t14 124t14 110q7 70 -19 93t-103 40q-11 2 -13.5 12t4 18t17.5 5
q45 -10 70.5 -19.5t48 -28t29.5 -48.5t3 -76q-3 -28 -10.5 -79.5t-12.5 -93.5t-7 -79q-1 -41 3 -82.5t15.5 -91t40 -82.5t70.5 -37q17 -1 19.5 -12.5t-9.5 -20.5q-37 -27 -63.5 -53t-42.5 -56t-25.5 -51.5t-12.5 -59.5t-3.5 -59t0.5 -70.5t1 -74.5q1 -24 8.5 -123t2.5 -151
q-7 -91 -45 -134t-125 -24q-12 2 -15 12z" />
    <glyph glyph-name="asciitilde" unicode="~" horiz-adv-x="845" 
d="M150 727q1 48 19 76t50 35t69 4.5t82 -16t83.5 -27t78.5 -26.5t62 -17q84 -14 115 27t20 132q-2 12 6.5 18t18.5 2.5t12 -15.5q14 -108 -31 -163.5t-147 -37.5q-47 8 -149.5 46t-159.5 42q-50 4 -70.5 -14t-22.5 -66q0 -12 -9 -17t-18 0t-9 17z" />
    <glyph glyph-name="uni00A0" unicode="&#xa0;" horiz-adv-x="428" 
 />
    <glyph glyph-name="sterling" unicode="&#xa3;" horiz-adv-x="1167" 
d="M134.5 589q-5.5 11 0 22.5t19.5 11.5h112q0 10 1 25t1 20v53h-114q-14 0 -19.5 11.5t0 22.5t19.5 11h112q-11 204 -3 289q18 187 120 223q83 31 150 -8.5t90 -122.5q3 -12 -4.5 -19.5t-17.5 -5t-13 14.5l-1 2q-2 8 -5 15t-11.5 22.5t-18 27.5t-25.5 25t-34 19.5t-44 6.5
t-54 -10q-102 -37 -101 -303q1 -44 7 -176h170q14 0 19.5 -11t0 -22.5t-19.5 -11.5h-166v-55q0 -4 -1 -18.5t-1 -24.5h168q14 0 19.5 -11.5t0 -22.5t-19.5 -11h-168q0 -400 6 -541h301q29 0 72 3t72 6l28 3q12 1 18 -8t2 -18.5t-16 -10.5q-108 -12 -176 -12h-317
q-8 0 -13.5 5.5t-5.5 12.5q-8 370 -8 560h-112q-14 0 -19.5 11z" />
    <glyph glyph-name="yen" unicode="&#xa5;" horiz-adv-x="1640" 
d="M183 1304q4 10 13 13t19 -4q12 -11 36 -34q135 -128 211 -197.5t197.5 -170.5t229.5 -174q80 51 150.5 129.5t145.5 178.5t126 153q16 16 55 55.5t67.5 67.5t55.5 53q2 2 20.5 19t28 24t26 19t31 16t27.5 2q18 -3 19 -22q0 -17 -15 -17h-4q-20 2 -61 -33q-43 -32 -86 -75
q-24 -24 -51.5 -51t-60 -60t-50.5 -51q-31 -33 -62.5 -72.5t-68 -90t-56.5 -75.5q-108 -134 -217 -205q7 -85 11 -178q110 -18 184 -18q19 0 19 -19.5t-19 -19.5q-74 0 -184 18q2 -35 2 -100q124 -14 159 -14q19 0 19 -19.5t-19 -19.5q-35 0 -159 14q0 -42 -1 -148t-1 -180
q0 -19 -19.5 -19t-19.5 19q0 76 1 183.5t1 148.5q-65 7 -117 4q-13 -1 -17.5 8.5t0.5 19.5t17 11q52 3 117 -4q0 68 -2 103q-36 6 -138 20q-12 1 -17 11t-0.5 19.5t17.5 8.5q67 -9 138 -21q-1 22 -5.5 79t-5.5 93q-115 78 -247.5 188.5t-207.5 180.5t-227 215q-9 8 -5 18z
" />
    <glyph glyph-name="copyright" unicode="&#xa9;" horiz-adv-x="870" 
d="M48.5 582.5q1.5 85.5 0.5 119.5q0 158 4 238q12 146 51 215q41 76 121 115t181 41q239 4 331 -146q32 -53 49.5 -127t21 -117t7.5 -135q10 -124 3.5 -277.5t-40.5 -272.5q-28 -93 -93.5 -156t-164.5 -76q-94 -12 -185 18t-149 95q-42 48 -94 166q-40 84 -43 178
q-2 36 -0.5 121.5zM81 640q1 -105 1 -128q0 -117 29 -188q42 -111 77 -158q51 -71 136 -107.5t178 -27.5q101 14 160 67q63 56 88 164q21 86 29 191t7 176t-6 192q-3 66 -6 100.5t-13.5 92.5t-32 102t-54.5 78q-45 46 -117 69t-146.5 20.5t-138.5 -26.5q-172 -61 -184 -317
v-2q-5 -64 -6.5 -128.5t-0.5 -169.5zM287 774.5q1 101.5 10 194.5q0 14 16 14q23 1 75.5 4t75 3t75.5 -3q11 -1 15.5 -8.5t0 -14.5t-15.5 -6q-21 4 -105.5 0t-105.5 -4q-7 -88 -7.5 -185.5t2.5 -221t3 -185.5q21 -1 104.5 -11t128.5 -7q9 1 13 -6.5t0 -15.5t-13 -9
q-47 -3 -132 8.5t-118 12.5q-16 0 -16 14q0 63 -3.5 194t-2.5 232.5z" />
    <glyph glyph-name="uni00AD" unicode="&#xad;" horiz-adv-x="675" 
d="M35 607q-2 20 14 22h6q124 -15 287 -11q22 0 120.5 3.5t151.5 3.5q20 0 20 -21.5t-20 -21.5q-52 0 -149.5 -3t-120.5 -4q-179 -4 -289 9q-19 3 -20 23z" />
    <glyph glyph-name="registered" unicode="&#xae;" horiz-adv-x="886" 
d="M69.5 582.5q1.5 85.5 0.5 119.5q0 158 4 238q12 146 51 215q41 76 121 115t180 41q240 4 332 -146q32 -53 49.5 -127t21 -117t7.5 -135q10 -124 3.5 -277.5t-40.5 -272.5q-28 -93 -93.5 -156t-164.5 -76q-94 -12 -185 18t-149 95q-42 48 -94 166q-40 84 -43 178
q-2 36 -0.5 121.5zM101 728q0 -41 0.5 -113t0.5 -103q0 -117 29 -188q41 -108 78 -158q51 -71 135.5 -107.5t177.5 -27.5q101 14 160 67q63 56 88 164q21 86 29.5 190t7.5 177.5t-6 191.5q-4 86 -9 135t-29.5 121.5t-68.5 116.5q-45 46 -116.5 69t-146 20.5t-138.5 -26.5
q-172 -61 -184 -317v-2q-4 -49 -6 -109t-2 -101zM311 283q17 103 19 213.5t-4 266t-7 214.5q0 5 4.5 9.5t8.5 4.5q84 10 252 10q5 0 9.5 -4t4.5 -8q27 -145 12 -379q-4 -14 -18 -14q-30 -4 -94 -8q21 -27 43 -61t34.5 -55t38 -66.5t33.5 -59.5q4 -8 -2 -14.5t-14.5 -6.5
t-14.5 7q-2 4 -14.5 26.5t-15.5 28t-14.5 26t-15.5 28t-15 26t-17 27.5t-16.5 24.5t-18.5 26.5t-18 24t-20 25q-6 8 -0.5 15t14.5 7q22 0 61 3t49 4q16 192 -8 348q-143 0 -213 -6q0 -54 6 -212.5t3.5 -267t-19.5 -211.5q-2 -8 -11 -9.5t-16.5 4.5t-5.5 14z" />
    <glyph glyph-name="afii57799" unicode="&#x5b0;" 
d="M-18 -147q0 9 6 14.5t14 5.5q6 0 12 -5.5t6 -14.5q0 -7 -6 -14t-12 -7q-7 0 -13.5 6.5t-6.5 14.5zM-16 -244q0 19 18 19t18 -19q0 -20 -18 -20t-18 20z" />
    <glyph glyph-name="afii57801" unicode="&#x5b1;" 
d="M-80 -156q0 9 6.5 14t14.5 5q18 0 18 -19q0 -20 -18 -20q-8 0 -14.5 5.5t-6.5 14.5zM-20 -221q0 9 6 14.5t14 5.5q18 0 18 -20q0 -8 -5.5 -14.5t-12.5 -6.5t-13.5 6.5t-6.5 14.5zM45 -156q0 19 18 19q19 0 19 -19q0 -9 -5.5 -14.5t-13.5 -5.5q-18 0 -18 20zM158 -145
q0 20 18 20q8 0 13.5 -5.5t5.5 -14.5q0 -8 -6 -14.5t-13 -6.5t-12.5 6.5t-5.5 14.5zM158 -242q0 19 18 19q8 0 14.5 -5t6.5 -14t-6.5 -14.5t-14.5 -5.5q-18 0 -18 20z" />
    <glyph glyph-name="afii57800" unicode="&#x5b2;" 
d="M-173 -97q-2 10 5 17.5t18 3.5q46 -12 152 2q38 3 105.5 -1.5t87.5 -4.5q12 0 17 -9t0 -18.5t-17 -9.5q-21 0 -87 4.5t-102 1.5q-116 -13 -166 0q-11 4 -13 14zM260 -104q0 9 5.5 14.5t13.5 5.5q18 0 18 -20q0 -8 -5.5 -14.5t-12.5 -6.5t-13 6.5t-6 14.5zM260 -201
q0 19 19 19q8 0 14 -5t6 -14t-6 -14.5t-14 -5.5t-13.5 5.5t-5.5 14.5z" />
    <glyph glyph-name="afii57802" unicode="&#x5b3;" 
d="M-172 -89q5 18 22 13q46 -14 152 0q38 3 105.5 -1.5t87.5 -4.5q12 0 17 -9t0 -18.5t-17 -9.5q-21 0 -82 4t-93 2v-2q-3 -17 1 -46.5t4 -37.5q0 -12 -9.5 -17t-18.5 0t-9 17q0 10 -3 38.5t-1 45.5q-92 -12 -144 2q-17 6 -12 24zM260 -104q0 9 5.5 14.5t13.5 5.5
q18 0 18 -20q0 -8 -5.5 -14.5t-12.5 -6.5t-13 6.5t-6 14.5zM260 -201q0 19 19 19q8 0 14 -5t6 -14t-6 -14.5t-14 -5.5t-13.5 5.5t-5.5 14.5z" />
    <glyph glyph-name="afii57793" unicode="&#x5b4;" horiz-adv-x="1574" 
d="M-20 -139q0 9 6 14.5t14 5.5q18 0 18 -20q0 -8 -5.5 -14.5t-12.5 -6.5t-13.5 6.5t-6.5 14.5z" />
    <glyph glyph-name="afii57794" unicode="&#x5b5;" 
d="M-80 -156q0 9 6.5 14t14.5 5q18 0 18 -19q0 -20 -18 -20q-8 0 -14.5 5.5t-6.5 14.5zM45 -156q0 19 18 19q19 0 19 -19q0 -9 -5.5 -14.5t-13.5 -5.5q-18 0 -18 20z" />
    <glyph glyph-name="afii57795" unicode="&#x5b6;" 
d="M-80 -156q0 9 6.5 14t14.5 5q18 0 18 -19q0 -20 -18 -20q-8 0 -14.5 5.5t-6.5 14.5zM-20 -221q0 9 6 14.5t14 5.5q18 0 18 -20q0 -8 -5.5 -14.5t-12.5 -6.5t-13.5 6.5t-6.5 14.5zM45 -156q0 19 18 19q19 0 19 -19q0 -9 -5.5 -14.5t-13.5 -5.5q-18 0 -18 20z" />
    <glyph glyph-name="afii57798" unicode="&#x5b7;" 
d="M-173 -97q-2 10 5 17.5t18 3.5q46 -12 152 2q38 3 105.5 -1.5t87.5 -4.5q12 0 17 -9t0 -18.5t-17 -9.5q-21 0 -87 4.5t-102 1.5q-116 -13 -166 0q-11 4 -13 14z" />
    <glyph glyph-name="afii57797" unicode="&#x5b8;" 
d="M-172 -89q5 18 22 13q46 -14 152 0q38 3 105.5 -1.5t87.5 -4.5q12 0 17 -9t0 -18.5t-17 -9.5q-21 0 -82 4t-93 2v-2q-3 -17 1 -46.5t4 -37.5q0 -12 -9.5 -17t-18.5 0t-9 17q0 10 -3 38.5t-1 45.5q-92 -12 -144 2q-17 6 -12 24z" />
    <glyph glyph-name="afii57806" unicode="&#x5b9;" 
d="M-18 1524q0 9 6 14.5t14 5.5q18 0 18 -20q0 -9 -5 -15t-13 -6t-14 6t-6 15z" />
    <glyph glyph-name="uni05BA" unicode="&#x5ba;" 
d="M188 745q0 9 5.5 15t13.5 6t13 -6t5 -15q0 -20 -18 -20q-8 0 -13.5 5.5t-5.5 14.5z" />
    <glyph glyph-name="afii57796" unicode="&#x5bb;" 
d="M143 -127q0 9 5.5 15t13.5 6t13 -6t5 -15q0 -8 -5.5 -14t-12.5 -6t-13 6t-6 14zM215 -203q0 19 18 19q19 0 19 -19q0 -9 -5.5 -14.5t-13.5 -5.5q-18 0 -18 20zM287 -285q0 19 18 19q19 0 19 -19q0 -9 -5.5 -14.5t-13.5 -5.5q-18 0 -18 20z" />
    <glyph glyph-name="afii57807" unicode="&#x5bc;" 
d="M-20 610q0 9 5 15t13 6t13 -6t5 -15q0 -8 -5.5 -14t-12.5 -6t-12.5 6t-5.5 14z" />
    <glyph glyph-name="afii57645" unicode="&#x5be;" horiz-adv-x="1003" 
d="M71 818.5q-5 9.5 0 18.5t17 9q71 0 248 6t305.5 2.5t247.5 -23.5q12 -2 15.5 -11t-3 -17t-18.5 -6q-118 19 -247 22t-301 -3.5t-247 -6.5q-12 0 -17 9.5z" />
    <glyph glyph-name="afii57841" unicode="&#x5bf;" horiz-adv-x="1243" 
d="M235 1596.5q-5 9.5 0 18.5t17 9q73 0 248.5 6.5t304.5 3t248 -23.5q12 -2 15.5 -11.5t-3 -17.5t-18.5 -6q-118 19 -247 22t-301 -3.5t-247 -6.5q-12 0 -17 9.5z" />
    <glyph glyph-name="afii57842" unicode="&#x5c0;" horiz-adv-x="208" 
d="M92 88q16 147 14 235.5t-8.5 235.5t-3.5 236q17 544 17 764q0 12 9 17t18 0t9 -17q0 -256 -16 -764q-3 -90 3.5 -237.5t8 -237t-13.5 -236.5q-1 -12 -10.5 -16t-18.5 2t-8 18z" />
    <glyph glyph-name="afii57658" unicode="&#x5c3;" horiz-adv-x="163" 
d="M49 684q4 -10 13 -12t18 6q37 38 45 83t-21 95q-6 9 -16 8t-14 -9.5t2 -18.5q43 -64 -23 -134q-8 -8 -4 -18zM54 1011q-10 11 3 23q8 12 17 15l22 10q17 -1 19 -17q3 -11 -4 -20t-15 -12l-8 -4q-21 -10 -34 5z" />
    <glyph glyph-name="afii57664" unicode="&#x5d0;" horiz-adv-x="462" 
d="M37 20q18 313 12 623q-2 65 -2.5 217t-3.5 234q-3 119 0 174q0 20 16.5 21.5t20.5 -17.5q3 -17 8.5 -34.5t14 -37t14 -31.5t17.5 -35.5t16 -31.5q86 -186 147 -293q0 23 -1 121t0 172t5 174q0 12 9.5 17t18.5 0t9 -17q-6 -83 -5 -295.5t1 -235.5q42 -78 59.5 -140.5
t26.5 -174.5q16 -232 16 -416q0 -12 -9 -17t-18.5 0t-9.5 17q0 473 -51 615q-17 48 -80 159q-72 121 -190 375q0 -9 1 -32t1 -37q3 -82 3.5 -233.5t2.5 -215.5q6 -313 -12 -627q-1 -12 -10.5 -16.5t-18.5 1t-8 17.5z" />
    <glyph glyph-name="afii57665" unicode="&#x5d1;" horiz-adv-x="475" 
d="M11 1293q-1 10 7 16.5t19 1.5q39 -16 132 -10.5t136 -4.5q6 -2 9.5 -8t2.5 -12q-12 -92 -14.5 -187.5t2 -248.5t4.5 -189q1 -65 -4.5 -193t-3.5 -229t18 -192v-4q35 -2 107 -2q12 0 17 -9.5t0 -18.5t-17 -9q-63 0 -187.5 4t-185.5 4q-12 0 -17 9t0 18.5t17 9.5
q116 0 230 -6q-16 92 -18 193t3 230.5t4 194.5q0 48 -2.5 148t-3.5 161.5t2 147.5t11 156q-48 7 -85.5 2t-86 -4t-84.5 16q-11 5 -12 15z" />
    <glyph glyph-name="afii57666" unicode="&#x5d2;" horiz-adv-x="497" 
d="M42.5 1299.5q8.5 16.5 25.5 7.5q16 -9 74.5 -8.5t106 -4t50.5 -26.5q10 -89 9 -196.5t-7 -197t-0.5 -196.5t27.5 -193q6 -35 22 -96q10 -33 42.5 -113.5t48 -141t12.5 -120.5q0 -12 -9.5 -16.5t-18.5 1t-9 17.5q1 25 -2.5 53t-8 48.5t-15 53t-16 47.5t-20 51.5
t-18.5 47.5l-2 5q-29 -85 -103 -183t-147 -141q-9 -6 -18 0t-9 15t9 16q12 7 23.5 15t23.5 19t20 18t20 21t17.5 20.5t18.5 23.5t16 21t17 23.5t16 22.5q48 64 77 170l-24 96q-21 86 -26 191t0.5 193.5t6.5 194.5t-8 193q-33 12 -111.5 9.5t-103.5 13.5q-15 9 -6.5 25.5z
" />
    <glyph glyph-name="afii57667" unicode="&#x5d3;" horiz-adv-x="501" 
d="M29 1296q7 17 24 11q17 -7 65.5 -10t92 -3t105 1t73.5 1q38 3 76 -6q12 -3 14.5 -13.5t-5 -18t-19.5 -3.5q-34 8 -82 5q-2 -111 -1 -326t-1 -320q-5 -257 -4 -311q0 -16 6 -123.5t2 -163.5q-1 -12 -10.5 -16.5t-18.5 1t-8 17.5q4 56 -2 162t-6 121q-1 54 4 315
q2 105 1 316.5t1 324.5h-19q-66 -2 -158 0.5t-120 14.5q-17 7 -10 24z" />
    <glyph glyph-name="afii57668" unicode="&#x5d4;" horiz-adv-x="501" 
d="M38 1291q0 10 8.5 16.5t19.5 1.5q36 -17 299 -9q80 0 84 -22q10 -95 7.5 -240t0.5 -270q1 -37 -0.5 -216t4.5 -216q10 -106 10 -322q0 -12 -9.5 -17t-18.5 0t-9 17q0 214 -10 318q-6 36 -4.5 217t0.5 219q-3 84 -1 262t-7 232q-30 2 -36 2.5t-37.5 -2t-37.5 -2.5
q-217 0 -252 16q-11 5 -11 15zM121 254q1 23 5 68.5t4.5 68.5t-3.5 68q-1 12 8 18t18.5 2t10.5 -16q4 -47 3.5 -70t-4.5 -69.5t-5 -69.5q-1 -37 4 -120.5t4 -119.5q-1 -12 -10.5 -16.5t-18.5 1t-8 17.5q1 36 -4 119t-4 119z" />
    <glyph glyph-name="afii57669" unicode="&#x5d5;" horiz-adv-x="198" 
d="M29.5 1288.5q-4.5 8.5 0 16t15.5 6.5q50 -6 100 0h5q18 0 18 -17q-2 -115 1.5 -330t2.5 -313q-1 -99 -10.5 -312t-9.5 -325q0 -9 -9 -12.5t-17.5 1t-8.5 13.5q0 113 9.5 330.5t10.5 317.5q0 88 -3.5 295t-2.5 319q-43 -3 -86 0q-11 2 -15.5 10.5z" />
    <glyph glyph-name="afii57670" unicode="&#x5d6;" horiz-adv-x="499" 
d="M58.5 1299.5q3.5 8.5 12.5 11t17 -3.5q56 -53 184 -145.5t185 -145.5q8 -7 4.5 -15.5t-12.5 -11t-17 3.5q-52 50 -162 129q-3 -36 -14.5 -73.5t-29 -82.5t-25.5 -71q-3 -19 -4 -30t4 -27t9 -25.5t11.5 -26.5t11.5 -28q21 -55 17 -135q0 -43 -7 -143.5t-5 -155.5
q8 -103 14 -158q5 -62 4 -74q-4 -45 8 -74q6 -13 -11 -17q-18 -5 -24 9q-8 20 -10 47t-1 49t-1 48q-6 57 -14 157q-2 57 4.5 161.5t7.5 137.5q0 109 -29 166q-34 62 -24 107q6 29 40.5 120t33.5 144q-126 92 -173 137q-8 7 -4.5 15.5z" />
    <glyph glyph-name="afii57671" unicode="&#x5d7;" horiz-adv-x="413" 
d="M21 1287q-1 10 7 16.5t19 1.5q37 -13 105 -9t139 1t78 -21q4 -16 4 -29t-2.5 -47.5t-1.5 -52.5q2 -29 1.5 -80t0.5 -80q20 -648 18 -973q0 -12 -9.5 -17t-18.5 0t-9 17q2 325 -18 973q-1 20 -0.5 78t-1.5 78q-1 19 1.5 54.5t2.5 49.5v8q-26 6 -62.5 6t-81.5 -2.5
t-71 -1.5q-2 -22 1 -62.5t3 -53.5q-5 -31 -1.5 -234.5t3.5 -234.5q0 -109 7 -328t7 -330q0 -12 -9 -17t-18.5 0t-9.5 17q0 110 -7 329t-7 329q0 32 -3 235.5t1 235.5q0 13 -3 54t-1 63q-31 3 -51 12q-11 5 -12 15z" />
    <glyph glyph-name="afii57672" unicode="&#x5d8;" horiz-adv-x="395" 
d="M35 1296q0 12 9.5 17t18.5 0t9 -17q-4 -237 2 -323q4 -55 5 -164t5 -164t1 -169.5t1 -166.5q4 -35 2.5 -140.5t-0.5 -125.5q20 0 58 -1t69.5 -1t58.5 2q36 4 54 4q3 41 4 123t4 123q3 55 -1.5 158t-4.5 135q0 23 -4 290.5t-4 376.5q-23 2 -66 2q-3 -135 -18 -266
q-1 -12 -10.5 -16t-18.5 2t-8 18q15 140 18 281q0 7 5.5 12.5t13.5 5.5q69 0 104 -2q16 -4 16 -18q0 -107 4 -372t5 -314q0 -31 4.5 -135.5t1.5 -159.5q-3 -43 -4 -130.5t-4 -131.5q-2 -6 -7.5 -11.5t-11.5 -5.5q-16 0 -65.5 -4.5t-75.5 -1.5h-4h-17h-47h-45h-16
q-23 0 -25 17q-2 26 -0.5 129t-1.5 153q-4 55 -1 169t-1 169t-5 164.5t-5 163.5q-6 87 -2 325z" />
    <glyph glyph-name="afii57673" unicode="&#x5d9;" horiz-adv-x="210" 
d="M35.5 1282.5q-3.5 8.5 0.5 16t15 6.5q42 -5 99 -2q0 4 4 0q7 0 12 -4t4 -11q0 -28 4 -142t0 -142q-2 -14 -19.5 -13.5t-17.5 15.5q6 14 2 132t-4 134q-43 -3 -86 0q-10 2 -13.5 10.5z" />
    <glyph glyph-name="afii57674" unicode="&#x5da;" horiz-adv-x="407" 
d="M47 1303q9 12 23 6q15 -6 36.5 -9t37 -3t43 0.5t36.5 0.5q4 0 31 0.5t37 0t29.5 -3t33.5 -7.5q6 2 11.5 -2.5t5.5 -11.5q-14 -98 -15.5 -275t2 -382.5t2.5 -276.5q-1 -52 -9 -182t-7 -224t16 -182q2 -8 -5.5 -14t-16 -4t-10.5 10q-15 89 -16 186t6 224t8 186
q1 71 -2.5 273t-2 378t14.5 273q-20 6 -45.5 7t-59 -1t-45.5 -2q-99 0 -135 16q-14 6 -4 19z" />
    <glyph glyph-name="afii57675" unicode="&#x5db;" horiz-adv-x="442" 
d="M29 1283q-4 8 0.5 15.5t15.5 6.5q51 -2 61.5 -2.5t62 2t62.5 2.5q8 0 32.5 2t37 2t32 -1.5t34.5 -6.5q0 -3 2 -3q10 -3 10 -14q0 -17 -1 -51q-11 -473 3 -708q2 -29 4 -56q2 -23 6.5 -100.5t9.5 -118.5q0 -4 4 -31t4 -37v-30.5t-5.5 -35.5t-14.5 -28q-11 -16 -32.5 -23
t-50.5 -10t-42 -8q-6 -3 -64 -12.5t-69 -28.5q-6 -8 -14.5 -7.5t-14 8t-0.5 16.5q7 13 22.5 21.5t28 11t36.5 5.5t32 5q9 2 35 10.5t41 9.5q6 1 19.5 2t24.5 3.5t17 8.5q15 18 17 48t-2 51q-10 79 -11 92q-2 35 -7 107t-7 110q-3 37 -5 77.5t-3 73.5t-1.5 80t-1 73t0 79.5
t0.5 73.5t1 80t1.5 73.5t2 80t1.5 75.5q-39 7 -135 -2q-125 -5 -166 0q-10 1 -14 9z" />
    <glyph glyph-name="afii57676" unicode="&#x5dc;" horiz-adv-x="352" 
d="M39 1292q9 22 4 116.5t-4 121.5q1 12 10.5 16t18.5 -2t8 -18q-2 -31 2.5 -108.5t-0.5 -108.5q14 0 55.5 -3.5t61.5 -2.5q10 0 32 1t34.5 0.5t27 -2t21 -6.5t5.5 -14q-7 -93 -14 -317q-1 -47 -2 -209.5t-2 -235.5q-3 -295 -21 -364q-3 -9 -7.5 -17t-8.5 -13.5t-12.5 -11.5
t-13.5 -9t-16 -8t-15 -6.5t-17 -6.5t-16 -6q-35 -15 -42.5 -23.5t-6.5 -31.5q1 -12 -8 -18t-18.5 -2.5t-10.5 15.5q-3 39 19 62.5t50 31t55 20t32 32.5q17 60 20 358q1 73 2 235.5t2 209.5q2 140 15 301q-14 1 -83 -2t-81 4q-21 3 -39.5 1t-29.5 2t-7 19z" />
    <glyph glyph-name="afii57677" unicode="&#x5dd;" horiz-adv-x="464" 
d="M39.5 1166q0.5 64 3.5 102q1 7 9 12t17 7t18.5 3.5t10.5 1.5h4q80 7 105.5 5.5t79.5 -7t104 -6.5q46 0 31 -289q-3 -129 3.5 -278t4.5 -271q-1 -69 -6 -161.5t-4 -180.5q2 -12 2 -77q1 -7 -5 -14t-14 -7q-168 0 -319 8q-16 4 -16 19q-4 62 -9 133.5t-6.5 100.5t-3 83
t-2.5 131q0 30 -3 216t-3 218q0 15 -1 101t-0.5 150zM76.5 1150q-0.5 -62 0.5 -142t1 -93q0 -32 3 -218t3 -216q1 -62 1.5 -101.5t2.5 -80t3.5 -62.5t5.5 -82t7 -104q131 -8 281 -8q-2 80 3 229t5 174q2 122 -4.5 271.5t-3.5 279.5q3 52 2.5 126t-10.5 124q-36 1 -117.5 7
t-155.5 1l-24 -4q-3 -39 -3.5 -101z" />
    <glyph glyph-name="afii57678" unicode="&#x5de;" horiz-adv-x="458" 
d="M61 -23q3 13 28.5 108t33.5 146q20 111 41 267q41 273 51 362q1 14 3 43t3 43v2q-5 62 -59.5 170t-55.5 164q0 12 9.5 17t18.5 0t9 -17q1 -32 16 -69t40 -84t37 -78v4q6 29 14 111t14 108q0 6 6.5 11t12.5 5q8 -1 40.5 4.5t55 4t24.5 -16.5q10 -62 15 -146.5t5.5 -162.5
t0.5 -163v-148q0 -32 1 -187t0 -264t-5 -188q0 -7 -6 -13t-13 -6q-18 2 -50 1.5t-50 -3.5q-11 -2 -17 6.5t-2.5 18.5t15.5 12q23 4 88 4q4 79 4.5 188t-1 248.5t-1.5 182.5q0 31 0.5 176t-3 245t-13.5 179q-14 -1 -36 -5t-38 -4q-5 -28 -12.5 -102.5t-12.5 -101.5
q-8 -37 -14 -108t-8 -85q-7 -80 -49 -364q-4 -26 -18 -121t-23 -146q-8 -49 -31.5 -135.5t-30.5 -120.5q-3 -12 -13.5 -15t-18.5 4t-5 19z" />
    <glyph glyph-name="afii57679" unicode="&#x5df;" horiz-adv-x="182" 
d="M47.5 1270.5q-3.5 9.5 2.5 18t18 7.5q16 -4 24 -2l14 2h9q32 -5 32 -32q-1 -85 1 -385t-5 -385q-4 -91 -5.5 -200.5t-1.5 -182.5t0.5 -205.5t0.5 -188.5q0 -12 -9.5 -17t-18.5 0t-9 17q0 56 -0.5 189t-0.5 206t1.5 182t5.5 200q7 82 5.5 382t-0.5 381h-15q-18 0 -33 3
q-12 1 -15.5 10.5z" />
    <glyph glyph-name="afii57680" unicode="&#x5e0;" horiz-adv-x="430" 
d="M44 1q-5 9 0 18.5t17 9.5q14 0 44 4t61 2q38 -2 71.5 -0.5t51.5 0.5l71 -2v63q1 44 -10.5 120t-13.5 99q-5 65 1.5 204t6.5 147q1 99 -3 296t-3 295q-36 0 -70 3q-12 2 -16 11.5t2 18t18 6.5q40 -3 84 0q8 0 13.5 -5.5t5.5 -12.5q-1 -102 3 -306.5t3 -307.5
q0 -7 -6.5 -144.5t-1.5 -200.5q2 -24 13.5 -101.5t10.5 -121.5q0 -59 -2 -84q0 -9 -6.5 -13.5t-19.5 -5.5t-24.5 0t-29 3t-26.5 2q-19 1 -52.5 -0.5t-72.5 0.5q-30 2 -59.5 -2t-43.5 -4q-12 0 -17 9z" />
    <glyph glyph-name="afii57681" unicode="&#x5e1;" horiz-adv-x="413" 
d="M38 1300q4 18 23 15q39 -8 160 -12q71 -3 125 2q39 6 39 -17q-2 -106 -6 -227q-2 -50 -1 -156t-1 -153q-2 -54 -5 -174t-5 -175l-2 -127l-3 -36v-13v-6v-6q0 -137 -84 -195q-56 -38 -110 -21q-36 12 -45 42q-4 12 -4 37q0 7 -1 76.5t-3 153.5t-4 104q-3 32 -9.5 273
t-5.5 278q1 67 0 94.5t-5 95t-5 94.5l-2 27q-11 0 -31 4q-19 4 -15 22zM123 1249q1 -28 5 -96t5 -95.5t0 -94.5q-1 -38 5 -277t9 -270q2 -21 4 -105.5t3.5 -155.5t1.5 -77v-6v-6.5v-6t1 -6.5t2 -5t3 -5t4.5 -4t6 -3t7.5 -1q42 -1 72 13.5t45.5 41.5t22 57.5t6.5 67.5v8v8v9
l2 39l2 127q2 54 5 174.5t5 173.5q2 48 1 153t1 156q4 166 6 205q-105 -11 -225 2v-21z" />
    <glyph glyph-name="afii57682" unicode="&#x5e2;" horiz-adv-x="491" 
d="M52.5 18q-1.5 9 6.5 17q40 29 116.5 75.5t94.5 57.5q-4 58 -45.5 130t-50.5 108q-7 32 -11.5 343t1.5 363q8 78 -6 180q-1 12 8 18t18.5 2t10.5 -16q4 -28 6 -67q4 -82 0 -121q-6 -52 -1.5 -359t11.5 -335q9 -38 47.5 -104.5t46.5 -121.5q48 33 82 62q0 43 6.5 122
t7.5 115q1 44 9 194t8 208v401q0 12 9 17t18.5 0t9.5 -17v-401q0 -58 -8 -208t-9 -196q-1 -37 -7.5 -118t-6.5 -125q0 -12 -39.5 -41.5t-71.5 -49t-51 -30.5q-17 -11 -54 -33.5t-68 -42.5t-58 -39q-9 -7 -18.5 -2t-11 14z" />
    <glyph glyph-name="afii57683" unicode="&#x5e3;" horiz-adv-x="409" 
d="M29 1287q-1 10 7 16.5t19 1.5q22 -10 106 -9t150.5 -4t63.5 -30q-13 -97 -14.5 -272.5t2 -377t2.5 -272.5q-1 -59 -8.5 -185t-6.5 -222.5t17 -184.5q2 -12 -6 -18.5t-17.5 -3t-11.5 15.5q-16 89 -17.5 186t5.5 226t8 186q1 71 -2.5 266.5t-2.5 369.5t13 273
q-27 6 -63.5 7.5t-84 0.5t-69.5 0q-6 -161 10 -272q9 -4 47.5 -6t50.5 -6t14 -14t-6 -17.5t-20 -3.5q-9 3 -41.5 4t-54.5 8.5t-25 28.5q-2 11 -5 33t-6.5 95.5t-0.5 154.5q-28 4 -41 10q-11 5 -12 15z" />
    <glyph glyph-name="afii57684" unicode="&#x5e4;" horiz-adv-x="405" 
d="M29 1295q-1 10 7 16.5t19 1.5q22 -10 106 -9t150.5 -4t63.5 -30q-5 -30 -5.5 -61t2.5 -83.5t3 -62.5v-21v-6v-2v-6v-24v-97l4 -307q4 -479 2 -573q0 -6 -5 -11.5t-11 -5.5q-15 -1 -40.5 -2t-108.5 -3t-159 1q-12 0 -16.5 9t1 18.5t17.5 9.5q154 -4 287 2q0 121 -4 555
l-4 307v94v27v6v2v2v4v21q-5 153 -2 194q-27 6 -67.5 8t-75.5 1t-74 0q-12 -545 10 -916q10 -5 48.5 -6.5t49.5 -5.5q12 -4 14 -14t-6 -17.5t-20 -3.5q-9 3 -43 3.5t-56.5 8.5t-23.5 31q-2 42 -5 117t-7.5 322t2.5 485q-28 4 -41 10q-11 5 -12 15zM338 1038z" />
    <glyph glyph-name="afii57685" unicode="&#x5e5;" horiz-adv-x="264" 
d="M29 373q-1 79 8 348q3 29 0.5 175t-2.5 175q-1 8 3.5 56.5t4.5 91t-10 53.5q-8 8 -3.5 18t13.5 12t18 -6q16 -19 18.5 -61.5t-3 -96t-4.5 -67.5v-123q9 14 20.5 28.5t26 31t20.5 24.5q34 39 54 82q7 19 10.5 42.5t4 40t1 45t0.5 42.5q0 12 9 16.5t18 -1t8 -17.5
q0 -13 1 -45t0.5 -48.5t-4.5 -42t-14 -46.5v-2q-9 -23 -24 -44.5t-24 -32t-34 -36.5q-20 -21 -43.5 -62t-27.5 -65v-2q3 -67 0 -137q-9 -268 -8 -344q1 -54 7.5 -175t6.5 -186q0 -12 -9 -17t-18.5 0t-9.5 17q0 65 -6.5 186t-7.5 173z" />
    <glyph glyph-name="afii57686" unicode="&#x5e6;" horiz-adv-x="471" 
d="M49.5 1282q1.5 10 10 14.5t18.5 -0.5q21 -14 34 -54.5t21.5 -94.5t11.5 -66q2 -9 54 -184q19 40 84 115q32 36 53 82q7 21 10.5 48t4 42.5t0 53t-0.5 44.5q0 12 9 17t18.5 0t9.5 -17q0 -15 1 -50t1 -55t-4.5 -48t-13.5 -50v-2q-9 -23 -24.5 -45t-23 -30.5t-34.5 -36.5
q-22 -23 -45.5 -63t-26.5 -64v-7q19 -72 23 -88q51 -231 82 -335l106 -385q3 -7 -2 -14t-14 -9q-67 -6 -158.5 -5.5t-165.5 -4.5q-12 -1 -18 8t-2 18.5t16 10.5q70 5 158.5 4.5t144.5 3.5q-68 251 -102 362q-17 59 -82 338q-12 50 -27 105.5t-35 124.5t-30 106
q-2 6 -10.5 56t-19.5 90.5t-24 48.5q-9 6 -7.5 16z" />
    <glyph glyph-name="afii57687" unicode="&#x5e7;" horiz-adv-x="503" 
d="M49.5 1287q-0.5 10 7.5 16.5t19 1.5q14 -6 35 -8.5t36.5 -2.5t41 1t34.5 1q180 0 223 -16q4 -1 8.5 -7t4.5 -11q-9 -112 -15 -318q-1 -24 -1 -108.5t-4.5 -142t-18.5 -107.5q-3 -10 -7.5 -18.5t-13 -16t-13.5 -11.5t-18 -10t-17 -8t-20 -7.5t-18 -6.5
q-35 -15 -42.5 -23.5t-6.5 -31.5q1 -12 -8 -18t-18.5 -2t-10.5 16q-3 39 19 62t50 30t55 20t32 33q14 48 19 104t5 141.5t1 106.5q3 166 14 303q-41 8 -84 10t-109 0t-84 -2q-46 0 -84 15q-11 5 -11.5 15zM111 -88q-5 434 2 657q6 387 6 389q0 12 9.5 17t18.5 0t9 -17
q0 -2 -6 -389q-8 -246 -3 -657q1 -12 -7.5 -17t-18 0t-10.5 17z" />
    <glyph glyph-name="afii57688" unicode="&#x5e8;" horiz-adv-x="421" 
d="M48.5 1274.5q-2.5 9.5 4.5 17.5t19 6q95 -23 217 -14q2 0 15.5 1t24.5 1t24 -1.5t20 -7.5t6 -15q-12 -94 -14.5 -188.5t2 -244.5t4.5 -188q0 -60 -5.5 -195t-3.5 -236.5t19 -195.5q2 -12 -6.5 -18.5t-18.5 -3t-12 15.5q-17 94 -19 196.5t3.5 239.5t5.5 197
q0 43 -4.5 185.5t-2.5 236t13 184.5q-27 2 -100.5 -2t-100.5 2q-13 1 -38.5 7t-37.5 8q-12 3 -14.5 12.5z" />
    <glyph glyph-name="afii57689" unicode="&#x5e9;" horiz-adv-x="512" 
d="M43 1280q0 12 9.5 17t18.5 0t9 -17q-1 -57 6.5 -166t7.5 -160q0 -33 -1.5 -98t-1 -112.5t4.5 -94.5q19 -222 19 -364q5 -222 4 -248q32 1 103 -1.5t110 -0.5q45 27 92 65q6 54 8.5 238.5t-0.5 331.5q-1 19 -5 118.5t-3 112.5t2 113q1 33 5.5 128t4.5 138q0 12 9 17
t18.5 0t9.5 -17q0 -43 -4.5 -138t-5.5 -130q-1 -99 -2 -112.5t3 -111.5t5 -118q3 -149 0 -343.5t-10 -238.5q-1 -10 -55 -50t-64 -40q-16 -4 -120 -1t-120 3q-7 0 -12.5 6t-5.5 12q1 28 -4 267q0 141 -19 360q-4 48 -4.5 96t1 113.5t1.5 99.5q0 51 -7.5 160t-6.5 166z
M233 1280q0 12 9 17t18.5 0t9.5 -17q0 -52 7 -161.5t6 -168.5q0 -58 4 -171t4 -171q0 -12 -9.5 -17t-18.5 0t-9 17q0 59 -4 172t-4 170q1 59 -6 169.5t-7 160.5z" />
    <glyph glyph-name="afii57690" unicode="&#x5ea;" horiz-adv-x="499" 
d="M27.5 25.5q-0.5 10.5 8 17.5t19.5 2q23 -10 58 -10.5t61 2.5q3 58 -8 164t-12 145q-2 39 2 190.5t-2 190.5q-9 89 -7 267t-16 278q-22 4 -29 8q-11 5 -11.5 15t7.5 16.5t19 1.5q39 -13 118 -9t156 -1.5t74 -30.5q-1 -24 -3 -133t-3 -133q-3 -63 -4.5 -179t-3.5 -161
q-10 -277 -9 -330q8 -224 2 -318q-1 -12 -10.5 -16.5t-18 1t-7.5 17.5q7 95 -2 314q-1 75 8 334q4 90 6.5 288.5t7.5 303.5q-39 8 -124.5 7t-133.5 1q16 -117 13.5 -273.5t6.5 -263.5q6 -39 2 -191.5t-2 -191.5q1 -26 13.5 -146.5t5.5 -185.5q-4 -16 -19 -16q-13 0 -37.5 -1
t-39.5 -1.5t-36 2.5t-38 10q-11 5 -11.5 15.5z" />
    <glyph glyph-name="uni05F3" unicode="&#x5f3;" horiz-adv-x="204" 
d="M88 1620q-1 12 8 17.5t18.5 1t10.5 -16.5q3 -48 1 -144.5t1 -144.5q1 -12 -8 -17.5t-18.5 -1t-10.5 16.5q-2 44 -0.5 144.5t-1.5 144.5z" />
    <glyph glyph-name="uni05F4" unicode="&#x5f4;" horiz-adv-x="311" 
d="M53 1335q0 119 7.5 192t7.5 95q0 12 9 17t18 0t9 -17q0 -22 -7 -95t-7 -192q0 -12 -9 -17t-18.5 0t-9.5 17zM211 1620q-1 12 8 17.5t18.5 1t10.5 -16.5q3 -48 1 -144.5t1 -144.5q1 -12 -8 -17.5t-18.5 -1t-10.5 16.5q-2 44 -0.5 144.5t-1.5 144.5z" />
    <glyph glyph-name="uni2000" unicode="&#x2000;" horiz-adv-x="820" 
 />
    <glyph glyph-name="uni2001" unicode="&#x2001;" horiz-adv-x="1641" 
 />
    <glyph glyph-name="uni2002" unicode="&#x2002;" horiz-adv-x="820" 
 />
    <glyph glyph-name="uni2003" unicode="&#x2003;" horiz-adv-x="1641" 
 />
    <glyph glyph-name="uni2004" unicode="&#x2004;" horiz-adv-x="547" 
 />
    <glyph glyph-name="uni2005" unicode="&#x2005;" horiz-adv-x="410" 
 />
    <glyph glyph-name="uni2006" unicode="&#x2006;" horiz-adv-x="273" 
 />
    <glyph glyph-name="uni2007" unicode="&#x2007;" horiz-adv-x="273" 
 />
    <glyph glyph-name="uni2008" unicode="&#x2008;" horiz-adv-x="205" 
 />
    <glyph glyph-name="uni2009" unicode="&#x2009;" horiz-adv-x="328" 
 />
    <glyph glyph-name="uni200A" unicode="&#x200a;" horiz-adv-x="91" 
 />
    <glyph glyph-name="uni2010" unicode="&#x2010;" horiz-adv-x="675" 
d="M35 607q-2 20 14 22h6q124 -15 287 -11q22 0 120.5 3.5t151.5 3.5q20 0 20 -21.5t-20 -21.5q-52 0 -149.5 -3t-120.5 -4q-179 -4 -289 9q-19 3 -20 23z" />
    <glyph glyph-name="uni2011" unicode="&#x2011;" horiz-adv-x="675" 
d="M35 607q-2 20 14 22h6q124 -15 287 -11q22 0 120.5 3.5t151.5 3.5q20 0 20 -21.5t-20 -21.5q-52 0 -149.5 -3t-120.5 -4q-179 -4 -289 9q-19 3 -20 23z" />
    <glyph glyph-name="figuredash" unicode="&#x2012;" horiz-adv-x="675" 
d="M35 607q-2 20 14 22h6q124 -15 287 -11q22 0 120.5 3.5t151.5 3.5q20 0 20 -21.5t-20 -21.5q-52 0 -149.5 -3t-120.5 -4q-179 -4 -289 9q-19 3 -20 23z" />
    <glyph glyph-name="endash" unicode="&#x2013;" horiz-adv-x="1099" 
d="M34 607q-3 20 24 22h11q211 -15 490 -11q38 0 206 3.5t259 3.5q34 0 34 -21.5t-34 -21.5q-89 0 -255.5 -3t-206.5 -4q-305 -4 -493 9q-33 3 -35 23z" />
    <glyph glyph-name="emdash" unicode="&#x2014;" horiz-adv-x="2123" 
d="M35 607q-7 20 48 22h20q424 -15 981 -11q75 0 412 3.5t518 3.5q68 0 68 -21.5t-68 -21.5q-178 0 -511.5 -3t-411.5 -4q-612 -4 -988 9q-65 3 -68 23z" />
    <glyph glyph-name="uni202F" unicode="&#x202f;" horiz-adv-x="328" 
 />
    <glyph glyph-name="uni205F" unicode="&#x205f;" horiz-adv-x="410" 
 />
    <glyph glyph-name="Euro" unicode="&#x20ac;" horiz-adv-x="1167" 
d="M134.5 589q-5.5 11 0 22.5t19.5 11.5h131q0 9 1 23t1 20v55h-133q-14 0 -19.5 11.5t0 22.5t19.5 11h129q-3 47 -4 73t-1.5 83t2 94t9.5 87.5t19 82.5t33 59t48 37q76 27 136 -9t79 -112q3 -11 -4.5 -18t-17.5 -4.5t-13 14.5q-16 61 -61.5 88.5t-106.5 5.5
q-36 -13 -57.5 -69t-26.5 -137.5t-4 -145t6 -129.5h152q14 0 19.5 -11t0 -22.5t-19.5 -11.5h-149q2 -23 2 -57q0 -6 -1 -19t-1 -22h149q14 0 19.5 -11.5t0 -22.5t-19.5 -11h-149q0 -53 3 -196.5t3 -158.5l1 -14q1 -14 3 -29.5t6.5 -37t13 -40.5t20 -35t29.5 -25.5t41 -8.5
q45 2 73 11.5t42.5 28t19.5 37t9 50.5q2 12 11.5 15.5t18 -2t7.5 -17.5q-4 -37 -12 -60.5t-26 -47.5t-53 -37t-88 -15q-42 -1 -73.5 20.5t-47.5 57.5t-23.5 72.5t-8.5 74.5q0 15 -3 158.5t-3 198.5h-131q-14 0 -19.5 11zM287 721h35h-35z" />
    <glyph glyph-name="trademark" unicode="&#x2122;" horiz-adv-x="854" 
d="M59 1255.5q-5 9.5 0 18.5t17 8q88 0 176 -6q7 4 14 0q26 -2 79.5 -7t80.5 -7q12 -1 16 -10.5t-2 -18.5t-18 -8q-146 12 -148 12q-10 -87 -10 -231q0 -12 -9 -17t-18.5 0t-9.5 17q0 136 11 235q-110 4 -162 4q-12 1 -17 10.5zM473 1225q0 25 23.5 34t40.5 -8
q55 -59 98 -90q11 10 35 29.5t41.5 36t31.5 33.5q20 22 43 9.5t23 -34.5v-229q0 -12 -9.5 -17t-18.5 0t-9 17l-2 229q-19 -25 -65 -63.5t-54 -45.5q-6 -3 -11 -4t-15 4.5t-18 10t-19.5 14.5t-19.5 17t-19 17.5t-17 17t-13 13.5l-9 9q0 -139 12 -209q1 -12 -7.5 -18t-18 -3
t-11.5 15q-12 72 -12 215z" />
    <glyph glyph-name="uniE000" unicode="&#xe000;" horiz-adv-x="1024" 
d="M0 0z" />
    <glyph glyph-name="uniFB1D" unicode="&#xfb1d;" horiz-adv-x="210" 
d="M35.5 1282.5q-3.5 8.5 0.5 16t15 6.5q42 -5 99 -2q0 4 4 0q7 0 12 -4t4 -11q0 -28 4 -142t0 -142q-2 -14 -19.5 -13.5t-17.5 15.5q6 14 2 132t-4 134q-43 -3 -86 0q-10 2 -13.5 10.5zM104 -98q0 9 5.5 14.5t13.5 5.5q18 0 18 -20q0 -8 -5.5 -14.5t-12.5 -6.5t-13 6.5
t-6 14.5z" />
    <glyph glyph-name="uniFB2A" unicode="&#xfb2a;" horiz-adv-x="512" 
d="M43 1280q0 12 9.5 17t18.5 0t9 -17q-1 -57 6.5 -166t7.5 -160q0 -33 -1.5 -98t-1 -112.5t4.5 -94.5q19 -222 19 -364q5 -222 4 -248q32 1 103 -1.5t110 -0.5q45 27 92 65q6 54 8.5 238.5t-0.5 331.5q-1 19 -5 118.5t-3 112.5t2 113q1 33 5.5 128t4.5 138q0 12 9 17
t18.5 0t9.5 -17q0 -43 -4.5 -138t-5.5 -130q-1 -99 -2 -112.5t3 -111.5t5 -118q3 -149 0 -343.5t-10 -238.5q-1 -10 -55 -50t-64 -40q-16 -4 -120 -1t-120 3q-7 0 -12.5 6t-5.5 12q1 28 -4 267q0 141 -19 360q-4 48 -4.5 96t1 113.5t1.5 99.5q0 51 -7.5 160t-6.5 166z
M233 1280q0 12 9 17t18.5 0t9.5 -17q0 -52 7 -161.5t6 -168.5q0 -58 4 -171t4 -171q0 -12 -9.5 -17t-18.5 0t-9 17q0 59 -4 172t-4 170q1 59 -6 169.5t-7 160.5zM438 1458q0 9 5.5 15t13.5 6t13 -6t5 -15q0 -8 -5.5 -14t-12.5 -6t-13 6t-6 14z" />
    <glyph glyph-name="uniFB2B" unicode="&#xfb2b;" horiz-adv-x="512" 
d="M43 1280q0 12 9.5 17t18.5 0t9 -17q-1 -57 6.5 -166t7.5 -160q0 -33 -1.5 -98t-1 -112.5t4.5 -94.5q19 -222 19 -364q5 -222 4 -248q32 1 103 -1.5t110 -0.5q45 27 92 65q6 54 8.5 238.5t-0.5 331.5q-1 19 -5 118.5t-3 112.5t2 113q1 33 5.5 128t4.5 138q0 12 9 17
t18.5 0t9.5 -17q0 -43 -4.5 -138t-5.5 -130q-1 -99 -2 -112.5t3 -111.5t5 -118q3 -149 0 -343.5t-10 -238.5q-1 -10 -55 -50t-64 -40q-16 -4 -120 -1t-120 3q-7 0 -12.5 6t-5.5 12q1 28 -4 267q0 141 -19 360q-4 48 -4.5 96t1 113.5t1.5 99.5q0 51 -7.5 160t-6.5 166z
M49 1458q0 9 5.5 15t13.5 6t13 -6t5 -15q0 -8 -5.5 -14t-12.5 -6t-13 6t-6 14zM233 1280q0 12 9 17t18.5 0t9.5 -17q0 -52 7 -161.5t6 -168.5q0 -58 4 -171t4 -171q0 -12 -9.5 -17t-18.5 0t-9 17q0 59 -4 172t-4 170q1 59 -6 169.5t-7 160.5z" />
    <glyph glyph-name="uniFB2C" unicode="&#xfb2c;" horiz-adv-x="512" 
d="M43 1280q0 12 9.5 17t18.5 0t9 -17q-1 -57 6.5 -166t7.5 -160q0 -33 -1.5 -98t-1 -112.5t4.5 -94.5q19 -222 19 -364q5 -222 4 -248q32 1 103 -1.5t110 -0.5q45 27 92 65q6 54 8.5 238.5t-0.5 331.5q-1 19 -5 118.5t-3 112.5t2 113q1 33 5.5 128t4.5 138q0 12 9 17
t18.5 0t9.5 -17q0 -43 -4.5 -138t-5.5 -130q-1 -99 -2 -112.5t3 -111.5t5 -118q3 -149 0 -343.5t-10 -238.5q-1 -10 -55 -50t-64 -40q-16 -4 -120 -1t-120 3q-7 0 -12.5 6t-5.5 12q1 28 -4 267q0 141 -19 360q-4 48 -4.5 96t1 113.5t1.5 99.5q0 51 -7.5 160t-6.5 166z
M233 1280q0 12 9 17t18.5 0t9.5 -17q0 -52 7 -161.5t6 -168.5q0 -58 4 -171t4 -171q0 -12 -9.5 -17t-18.5 0t-9 17q0 59 -4 172t-4 170q1 59 -6 169.5t-7 160.5zM328 393q0 9 5 15t13 6t13.5 -6t5.5 -15q0 -8 -6 -14t-13 -6t-12.5 6t-5.5 14zM438 1458q0 9 5.5 15t13.5 6
t13 -6t5 -15q0 -8 -5.5 -14t-12.5 -6t-13 6t-6 14z" />
    <glyph glyph-name="uniFB2D" unicode="&#xfb2d;" horiz-adv-x="512" 
d="M43 1280q0 12 9.5 17t18.5 0t9 -17q-1 -57 6.5 -166t7.5 -160q0 -33 -1.5 -98t-1 -112.5t4.5 -94.5q19 -222 19 -364q5 -222 4 -248q32 1 103 -1.5t110 -0.5q45 27 92 65q6 54 8.5 238.5t-0.5 331.5q-1 19 -5 118.5t-3 112.5t2 113q1 33 5.5 128t4.5 138q0 12 9 17
t18.5 0t9.5 -17q0 -43 -4.5 -138t-5.5 -130q-1 -99 -2 -112.5t3 -111.5t5 -118q3 -149 0 -343.5t-10 -238.5q-1 -10 -55 -50t-64 -40q-16 -4 -120 -1t-120 3q-7 0 -12.5 6t-5.5 12q1 28 -4 267q0 141 -19 360q-4 48 -4.5 96t1 113.5t1.5 99.5q0 51 -7.5 160t-6.5 166z
M49 1458q0 9 5.5 15t13.5 6t13 -6t5 -15q0 -8 -5.5 -14t-12.5 -6t-13 6t-6 14zM233 1280q0 12 9 17t18.5 0t9.5 -17q0 -52 7 -161.5t6 -168.5q0 -58 4 -171t4 -171q0 -12 -9.5 -17t-18.5 0t-9 17q0 59 -4 172t-4 170q1 59 -6 169.5t-7 160.5zM328 393q0 9 5 15t13 6t13.5 -6
t5.5 -15q0 -8 -6 -14t-13 -6t-12.5 6t-5.5 14z" />
    <glyph glyph-name="uniFB2E" unicode="&#xfb2e;" horiz-adv-x="462" 
d="M32 -97q-2 10 5 17.5t18 3.5q46 -12 152 2q38 3 104.5 -1.5t87.5 -4.5q12 0 17 -9t0 -18.5t-17 -9.5q-21 0 -86.5 4.5t-101.5 1.5q-116 -13 -166 0q-11 4 -13 14zM37 20q18 313 12 623q-2 65 -2.5 217t-3.5 234q-3 119 0 174q0 20 16.5 21.5t20.5 -17.5q3 -17 8.5 -34.5
t14 -37t14 -31.5t17.5 -35.5t16 -31.5q86 -186 147 -293q0 23 -1 121t0 172t5 174q0 12 9.5 17t18.5 0t9 -17q-6 -83 -5 -295.5t1 -235.5q42 -78 59.5 -140.5t26.5 -174.5q16 -232 16 -416q0 -12 -9 -17t-18.5 0t-9.5 17q0 473 -51 615q-17 48 -80 159q-72 121 -190 375
q0 -9 1 -32t1 -37q3 -82 3.5 -233.5t2.5 -215.5q6 -313 -12 -627q-1 -12 -10.5 -16.5t-18.5 1t-8 17.5z" />
    <glyph glyph-name="uniFB2F" unicode="&#xfb2f;" horiz-adv-x="462" 
d="M33 -89q5 18 22 13q46 -14 152 0q38 3 104.5 -1.5t87.5 -4.5q12 0 17 -9t0 -18.5t-17 -9.5q-21 0 -81.5 4t-92.5 2v-2q-5 -9 -0.5 -43t4.5 -41q0 -12 -9 -17t-18 0t-9 17q0 11 -3.5 39.5t-1.5 44.5q-92 -12 -143 2q-17 6 -12 24zM37 20q18 313 12 623q-2 65 -2.5 217
t-3.5 234q-3 119 0 174q0 20 16.5 21.5t20.5 -17.5q3 -17 8.5 -34.5t14 -37t14 -31.5t17.5 -35.5t16 -31.5q86 -186 147 -293q0 23 -1 121t0 172t5 174q0 12 9.5 17t18.5 0t9 -17q-6 -83 -5 -295.5t1 -235.5q42 -78 59.5 -140.5t26.5 -174.5q16 -232 16 -416q0 -12 -9 -17
t-18.5 0t-9.5 17q0 473 -51 615q-17 48 -80 159q-72 121 -190 375q0 -9 1 -32t1 -37q3 -82 3.5 -233.5t2.5 -215.5q6 -313 -12 -627q-1 -12 -10.5 -16.5t-18.5 1t-8 17.5z" />
    <glyph glyph-name="uniFB30" unicode="&#xfb30;" horiz-adv-x="462" 
d="M37 20q18 313 12 623q-2 65 -2.5 217t-3.5 234q-3 119 0 174q0 20 16.5 21.5t20.5 -17.5q3 -17 8.5 -34.5t14 -37t14 -31.5t17.5 -35.5t16 -31.5q86 -186 147 -293q0 23 -1 121t0 172t5 174q0 12 9.5 17t18.5 0t9 -17q-6 -83 -5 -295.5t1 -235.5q42 -78 59.5 -140.5
t26.5 -174.5q16 -232 16 -416q0 -12 -9 -17t-18.5 0t-9.5 17q0 473 -51 615q-17 48 -80 159q-72 121 -190 375q0 -9 1 -32t1 -37q3 -82 3.5 -233.5t2.5 -215.5q6 -313 -12 -627q-1 -12 -10.5 -16.5t-18.5 1t-8 17.5zM309 1438q0 9 5.5 14.5t13.5 5.5q18 0 18 -20
q0 -8 -5.5 -14.5t-12.5 -6.5t-13 6.5t-6 14.5z" />
    <glyph glyph-name="uniFB31" unicode="&#xfb31;" horiz-adv-x="475" 
d="M11 1293q-1 10 7 16.5t19 1.5q39 -16 132 -10.5t136 -4.5q6 -2 9.5 -8t2.5 -12q-12 -92 -14.5 -187.5t2 -248.5t4.5 -189q1 -65 -4.5 -193t-3.5 -229t18 -192v-4q35 -2 107 -2q12 0 17 -9.5t0 -18.5t-17 -9q-63 0 -187.5 4t-185.5 4q-12 0 -17 9t0 18.5t17 9.5
q116 0 230 -6q-16 92 -18 193t3 230.5t4 194.5q0 48 -2.5 148t-3.5 161.5t2 147.5t11 156q-48 7 -85.5 2t-86 -4t-84.5 16q-11 5 -12 15zM145 680q0 9 5.5 14.5t13.5 5.5q18 0 18 -20q0 -8 -5.5 -14.5t-12.5 -6.5t-13 6.5t-6 14.5z" />
    <glyph glyph-name="uniFB32" unicode="&#xfb32;" horiz-adv-x="483" 
d="M46 1280q3 10 15 12q32 5 67 6t84 -0.5t69 -1.5q6 0 12 -5t6 -11q11 -90 10 -199.5t-7.5 -200.5t-1 -199t27.5 -196q6 -35 22 -96q11 -35 43 -114.5t47.5 -140t12.5 -120.5q0 -12 -9.5 -16.5t-18.5 1t-9 17.5q1 25 -2.5 53t-8 48.5t-15 53t-16 47.5t-20 51.5t-18.5 47.5
l-2 5q-29 -85 -103 -183t-147 -141q-9 -6 -18 0t-9 15t9 16q12 7 23.5 15t23.5 19t20 18t20 21t17.5 20.5t18.5 23.5t16 21t17 23.5t16 22.5q48 64 77 170l-24 96q-21 86 -26 192.5t0.5 196t6.5 196.5t-8 196q-7 0 -37.5 1.5t-42.5 1.5t-35.5 -0.5t-42.5 -2.5t-38 -5
q-12 -2 -18.5 6.5t-3.5 18.5zM145 680q0 9 5.5 14.5t13.5 5.5q18 0 18 -20q0 -8 -5.5 -14.5t-12.5 -6.5t-13 6.5t-6 14.5z" />
    <glyph glyph-name="uniFB33" unicode="&#xfb33;" horiz-adv-x="575" 
d="M31.5 1288q-4.5 8 0 15.5t15.5 7.5q63 -2 232 -14.5t249 -12.5q11 0 15.5 -8t0 -16.5t-15.5 -8.5q-3 1 -26.5 -0.5t-42.5 0.5q-13 0 -22.5 1t-12.5 1q-10 -70 -4.5 -319.5t4.5 -321.5q-5 -251 -2 -323q1 -31 4 -92t3.5 -91.5t-1.5 -91.5q-1 -9 -10 -12.5t-17.5 0.5
t-7.5 12q4 57 -2 163.5t-6 121.5q-1 53 4 315q1 71 -4.5 320.5t4.5 320.5q-38 2 -153 13.5t-189 11.5q-11 0 -15.5 8zM186 680q0 9 5.5 14.5t13.5 5.5q18 0 18 -20q0 -8 -5.5 -14.5t-12.5 -6.5t-13 6.5t-6 14.5z" />
    <glyph glyph-name="uniFB34" unicode="&#xfb34;" horiz-adv-x="501" 
d="M38 1291q0 10 8.5 16.5t19.5 1.5q36 -17 299 -9q80 0 84 -22q10 -95 7.5 -240t0.5 -270q1 -37 -0.5 -216t4.5 -216q10 -106 10 -322q0 -12 -9.5 -17t-18.5 0t-9 17q0 214 -10 318q-6 36 -4.5 217t0.5 219q-3 84 -1 262t-7 232q-30 2 -36 2.5t-37.5 -2t-37.5 -2.5
q-217 0 -252 16q-11 5 -11 15zM121 254q1 23 5 68.5t4.5 68.5t-3.5 68q-1 12 8 18t18.5 2t10.5 -16q4 -47 3.5 -70t-4.5 -69.5t-5 -69.5q-1 -37 4 -120.5t4 -119.5q-1 -12 -10.5 -16.5t-18.5 1t-8 17.5q1 36 -4 119t-4 119zM268 721q0 9 5.5 14.5t13.5 5.5q18 0 18 -20
q0 -8 -5.5 -14.5t-12.5 -6.5t-13 6.5t-6 14.5z" />
    <glyph glyph-name="uniFB35" unicode="&#xfb35;" horiz-adv-x="378" 
d="M145 680q0 9 5.5 14.5t13.5 5.5q18 0 18 -20q0 -8 -5.5 -14.5t-12.5 -6.5t-13 6.5t-6 14.5zM152.5 1288.5q-4.5 8.5 0 16t15.5 6.5q50 -6 100 0h4q8 0 13.5 -5t5.5 -12q-2 -115 1.5 -330t2.5 -313q-1 -100 -11 -312.5t-10 -324.5q0 -9 -8.5 -12.5t-17 1t-8.5 13.5
q0 113 9.5 330.5t10.5 317.5q0 88 -3.5 295t-2.5 319q-43 -3 -86 0q-11 2 -15.5 10.5z" />
    <glyph glyph-name="uniFB38" unicode="&#xfb38;" horiz-adv-x="395" 
d="M23 1296q0 12 9 17t18 0t9 -17q-4 -237 2 -323q4 -55 5.5 -164t5.5 -164t1 -169.5t1 -166.5q4 -35 2.5 -140.5t-0.5 -125.5q20 0 58 -1t69.5 -1t58.5 2q36 4 53 4q3 41 4.5 123t4.5 123q3 55 -2 157.5t-5 135.5q0 23 -4 290.5t-4 376.5q-23 2 -65 2q-3 -124 -19 -266
q-1 -12 -10.5 -16t-18.5 2t-8 18q16 152 19 281q0 8 5.5 13t12.5 5q70 0 105 -2q16 -4 16 -18q0 -109 4 -386.5t4 -299.5q0 -31 4.5 -135.5t1.5 -159.5q-3 -43 -4 -130.5t-4 -131.5q-2 -6 -7 -11.5t-11 -5.5q-16 0 -65.5 -4.5t-75.5 -1.5h-5h-16h-47h-45h-17q-22 0 -24 17
q-2 26 -0.5 129t-1.5 153q-4 55 -1 169t-1 169t-5 164.5t-5 163.5q-6 87 -2 325zM166 516q0 9 5 15t13 6t13.5 -6t5.5 -15q0 -8 -6 -14t-13 -6t-12.5 6t-5.5 14z" />
    <glyph glyph-name="uniFB39" unicode="&#xfb39;" horiz-adv-x="325" 
d="M117.5 1282.5q-3.5 8.5 0.5 16t15 6.5q42 -5 98 -2q0 1 1.5 1t3.5 -1q7 0 12 -4t4 -11q0 -28 4 -142t0 -142q-2 -14 -19.5 -13.5t-17.5 15.5q6 14 2 132t-4 134q-43 -3 -86 0q-10 2 -13.5 10.5zM125 1110q0 20 18 20q8 0 13.5 -5.5t5.5 -14.5q0 -8 -6 -14t-13 -6t-12.5 6
t-5.5 14z" />
    <glyph glyph-name="uniFB3B" unicode="&#xfb3b;" horiz-adv-x="456" 
d="M35 1283q-4 8 0.5 15.5t15.5 6.5q51 -2 61.5 -2.5t62.5 2t63 2.5q8 0 32 2t36.5 2t32 -1.5t34.5 -6.5q0 -3 2 -3q10 -3 10 -14q0 -17 -1 -51q-11 -473 3 -708q2 -29 4 -56q1 -16 6.5 -96.5t10.5 -122.5q1 -6 3.5 -26.5t3.5 -29t1 -27t-1.5 -29.5t-6.5 -25t-13 -25
q-11 -16 -32.5 -23t-50.5 -10t-42 -8q-6 -3 -64 -12.5t-69 -28.5q-6 -8 -14 -7.5t-13.5 8t-0.5 16.5q7 13 22 21.5t28 11t36.5 5.5t31.5 5q9 2 35 10.5t41 9.5q6 1 20 2t25 3.5t17 8.5q15 17 16.5 48t-2.5 51q-8 63 -10 92q-2 35 -7.5 107t-7.5 110q-3 37 -5 77.5t-3 73.5
t-1.5 80t-1 73t0 79.5t0.5 73.5t1 80t1.5 73.5t2 80t1.5 75.5q-39 7 -135 -2q-125 -5 -166 0q-10 1 -14 9zM166 680q0 20 18 20q8 0 13.5 -5.5t5.5 -14.5q0 -8 -6 -14.5t-13 -6.5t-12.5 6.5t-5.5 14.5z" />
    <glyph glyph-name="uniFB3C" unicode="&#xfb3c;" horiz-adv-x="387" 
d="M80 1292q9 22 4 116.5t-4 121.5q1 12 10.5 16t18.5 -2t8 -18q-2 -31 2.5 -108.5t-0.5 -108.5q14 0 55.5 -3.5t61.5 -2.5q10 0 32 1t34.5 0.5t27 -2t21 -6.5t5.5 -14q-7 -93 -14 -317q-1 -47 -2 -209.5t-2 -235.5q-3 -295 -21 -364q-3 -9 -7.5 -17t-8.5 -13.5t-12.5 -11.5
t-13.5 -9t-16 -8t-15 -6.5t-17 -6.5t-16 -6q-35 -15 -42.5 -23.5t-6.5 -31.5q1 -12 -8 -18t-18.5 -2.5t-10.5 15.5q-3 39 19 62.5t50 31t55 20t32 32.5q17 60 20 358q1 73 2 235.5t2 209.5q3 157 14 301q-14 1 -82.5 -2t-80.5 4q-21 3 -39.5 1t-29.5 2t-7 19zM166 680
q0 20 18 20q8 0 13.5 -5.5t5.5 -14.5q0 -8 -6 -14.5t-13 -6.5t-12.5 6.5t-5.5 14.5z" />
    <glyph glyph-name="uniFB3E" unicode="&#xfb3e;" horiz-adv-x="458" 
d="M61 -23q3 13 28.5 108t33.5 146q20 111 41 267q41 273 51 362q1 14 3 43t3 43v2q-5 62 -59.5 170t-55.5 164q0 12 9.5 17t18.5 0t9 -17q1 -32 16 -69t40 -84t37 -78v4q6 29 14 111t14 108q0 6 6.5 11t12.5 5q8 -1 40.5 4.5t55 4t24.5 -16.5q10 -62 15 -146.5t5.5 -162.5
t0.5 -163v-148q0 -32 1 -187t0 -264t-5 -188q0 -7 -6 -13t-13 -6q-18 2 -50 1.5t-50 -3.5q-11 -2 -17 6.5t-2.5 18.5t15.5 12q23 4 88 4q4 79 4.5 188t-1 248.5t-1.5 182.5q0 31 0.5 176t-3 245t-13.5 179q-14 -1 -36 -5t-38 -4q-5 -28 -12.5 -102.5t-12.5 -101.5
q-8 -37 -14 -108t-8 -85q-7 -80 -49 -364q-4 -26 -18 -121t-23 -146q-8 -49 -31.5 -135.5t-30.5 -120.5q-3 -12 -13.5 -15t-18.5 4t-5 19zM268 250q0 9 5.5 14.5t13.5 5.5q18 0 18 -20q0 -8 -5.5 -14.5t-12.5 -6.5t-13 6.5t-6 14.5z" />
    <glyph glyph-name="uniFB40" unicode="&#xfb40;" horiz-adv-x="374" 
d="M41.5 18q-4.5 8 0 15.5t15.5 7.5q49 0 139 -3.5t119 -4.5q4 107 -2 145q-16 96 -20 139q-4 48 -4 102.5t2 121t2 102.5q2 94 2 200t-1 236t-1 201h-47q-11 0 -15.5 8t0 15.5t15.5 7.5h61q13 0 17 -13q4 -4 4 -10q0 -73 1 -207.5t1 -244.5t-2 -207q0 -33 -2 -101
t-1.5 -122t5.5 -101q2 -25 10 -74t10 -73q4 -35 0 -144q0 -10 -11 -13t-17 3q-1 0 -4 -1t-5 -1q-49 -1 -141.5 3t-114.5 5q-11 0 -15.5 8zM166 680q0 20 18 20q8 0 13.5 -5.5t5.5 -14.5q0 -8 -6 -14.5t-13 -6.5t-12.5 6.5t-5.5 14.5z" />
    <glyph glyph-name="uniFB41" unicode="&#xfb41;" horiz-adv-x="413" 
d="M38 1300q4 18 23 15q39 -8 160 -12q71 -3 125 2q39 6 39 -17q-2 -106 -6 -227q-2 -50 -1 -156t-1 -153q-2 -54 -5 -174t-5 -175l-2 -127l-3 -36v-13v-6v-6q0 -137 -84 -195q-56 -38 -110 -21q-36 12 -45 42q-4 12 -4 37q0 7 -1 76.5t-3 153.5t-4 104q-3 32 -9.5 273
t-5.5 278q1 67 0 94.5t-5 95t-5 94.5l-2 27q-11 0 -31 4q-19 4 -15 22zM123 1249q1 -28 5 -96t5 -95.5t0 -94.5q-1 -38 5 -277t9 -270q2 -21 4 -105.5t3.5 -155.5t1.5 -77v-6v-6.5v-6t1 -6.5t2 -5t3 -5t4.5 -4t6 -3t7.5 -1q42 -1 72 13.5t45.5 41.5t22 57.5t6.5 67.5v8v8v9
l2 39l2 127q2 54 5 174.5t5 173.5q2 48 1 153t1 156q4 166 6 205q-105 -11 -225 2v-21zM207 946q0 9 5 15t13 6t13.5 -6t5.5 -15q0 -8 -6 -14t-13 -6t-12.5 6t-5.5 14z" />
    <glyph glyph-name="uniFB43" unicode="&#xfb43;" horiz-adv-x="409" 
d="M29 1287q-1 10 7 16.5t19 1.5q22 -10 106 -9t150.5 -4t63.5 -30q-13 -97 -14.5 -272.5t2 -377t2.5 -272.5q-1 -59 -8.5 -185t-6.5 -222.5t17 -184.5q2 -12 -6 -18.5t-17.5 -3t-11.5 15.5q-16 89 -17.5 186t5.5 226t8 186q1 71 -2.5 266.5t-2.5 369.5t13 273
q-27 6 -63.5 7.5t-84 0.5t-69.5 0q-6 -161 10 -272q9 -4 47.5 -6t50.5 -6t14 -14t-6 -17.5t-20 -3.5q-9 3 -41.5 4t-54.5 8.5t-25 28.5q-2 11 -5 33t-6.5 95.5t-0.5 154.5q-28 4 -41 10q-11 5 -12 15zM207 1130q0 9 5 15t13 6t13.5 -6t5.5 -15q0 -8 -6 -14t-13 -6t-12.5 6
t-5.5 14z" />
    <glyph glyph-name="uniFB44" unicode="&#xfb44;" horiz-adv-x="405" 
d="M29 1287q-1 10 7 16.5t19 1.5q22 -10 106 -9t150.5 -4t63.5 -30q-5 -30 -5.5 -60.5t2.5 -80.5t3 -58v-21v-6v-4v-4v-24v-97l4 -307q4 -479 2 -573q0 -6 -5 -11.5t-11 -5.5q-15 -1 -40.5 -2t-108.5 -3t-159 1q-12 0 -16.5 9t1 18.5t17.5 9.5q154 -4 287 2q0 121 -4 555
l-4 307v94v27v6v2v2v4v19q-5 147 -2 188q-27 6 -63.5 7.5t-84 0.5t-69.5 0q-12 -538 10 -907q10 -5 48.5 -6.5t49.5 -5.5q12 -4 14 -14t-6 -17.5t-20 -3.5q-9 3 -43 3.5t-56.5 8.5t-23.5 31q-2 41 -5 114.5t-7.5 318t2.5 483.5q-28 4 -41 10q-11 5 -12 15zM207 680
q0 20 18 20q8 0 13.5 -5.5t5.5 -14.5q0 -8 -6 -14.5t-13 -6.5t-12.5 6.5t-5.5 14.5zM338 1040h4q-4 4 -4 0z" />
    <glyph glyph-name="uniFB46" unicode="&#xfb46;" horiz-adv-x="471" 
d="M49.5 1282q1.5 10 10 14.5t18.5 -0.5q21 -14 34 -54.5t21.5 -94.5t11.5 -66q2 -9 54 -184q19 40 84 115q32 36 53 82q7 21 10.5 48t4 42.5t0 53t-0.5 44.5q0 12 9 17t18.5 0t9.5 -17q0 -15 1 -50t1 -55t-4.5 -48t-13.5 -50v-2q-9 -23 -24.5 -45t-23 -30.5t-34.5 -36.5
q-22 -23 -45.5 -63t-26.5 -64v-7q19 -72 23 -88q51 -231 82 -335l106 -385q3 -7 -2 -14t-14 -9q-67 -6 -158.5 -5.5t-165.5 -4.5q-12 -1 -18 8t-2 18.5t16 10.5q70 5 158.5 4.5t144.5 3.5q-68 251 -102 362q-17 59 -82 338q-12 50 -27 105.5t-35 124.5t-30 106
q-2 6 -10.5 56t-19.5 90.5t-24 48.5q-9 6 -7.5 16zM125 414q0 20 18 20q8 0 13.5 -5.5t5.5 -14.5q0 -8 -6 -14.5t-13 -6.5t-12.5 6.5t-5.5 14.5z" />
    <glyph glyph-name="uniFB47" unicode="&#xfb47;" horiz-adv-x="503" 
d="M49.5 1287q-0.5 10 7.5 16.5t19 1.5q14 -6 35 -8.5t36.5 -2.5t41 1t34.5 1q180 0 223 -16q4 -1 8.5 -7t4.5 -11q-9 -112 -15 -318q-1 -24 -1 -108.5t-4.5 -142t-18.5 -107.5q-3 -10 -7.5 -18.5t-13 -16t-13.5 -11.5t-18 -10t-17 -8t-20 -7.5t-18 -6.5
q-35 -15 -42.5 -23.5t-6.5 -31.5q1 -12 -8 -18t-18.5 -2t-10.5 16q-3 39 19 62t50 30t55 20t32 33q14 48 19 104t5 141.5t1 106.5q3 166 14 303q-41 8 -84 10t-109 0t-84 -2q-46 0 -84 15q-11 5 -11.5 15zM111 -88q-5 434 2 657q6 387 6 389q0 12 9.5 17t18.5 0t9 -17
q0 -2 -6 -389q-8 -246 -3 -657q1 -12 -7.5 -17t-18 0t-10.5 17zM289 1069q0 9 5 15t13 6t13.5 -6t5.5 -15q0 -8 -6 -14t-13 -6t-12.5 6t-5.5 14z" />
    <glyph glyph-name="uniFB49" unicode="&#xfb49;" horiz-adv-x="497" 
d="M43 1280q0 12 9.5 17t18.5 0t9 -17q-1 -57 6.5 -166t7.5 -160q0 -33 -1.5 -98t-1 -112.5t4.5 -94.5q19 -222 19 -364q5 -222 4 -248q32 1 103 -1.5t110 -0.5q45 27 92 65q6 54 8.5 238.5t-0.5 331.5q-1 19 -5 118.5t-3 112.5t2 113q1 33 5.5 128t4.5 138q0 12 9 17
t18.5 0t9.5 -17q0 -43 -4.5 -138t-5.5 -130q-1 -99 -2 -112.5t3 -111.5t5 -118q3 -149 0 -343.5t-10 -238.5q-1 -10 -55 -50t-64 -40q-16 -4 -120 -1t-120 3q-7 0 -12.5 6t-5.5 12q1 28 -4 267q0 141 -19 360q-4 48 -4.5 96t1 113.5t1.5 99.5q0 51 -7.5 160t-6.5 166z
M233 1280q0 12 9 17t18.5 0t9.5 -17q0 -52 7 -161.5t6 -168.5q0 -58 4 -171t4 -171q0 -12 -9.5 -17t-18.5 0t-9 17q0 59 -4 172t-4 170q1 59 -6 169.5t-7 160.5zM328 393q0 9 5 15t13 6t13.5 -6t5.5 -15q0 -8 -6 -14t-13 -6t-12.5 6t-5.5 14z" />
    <glyph glyph-name="uniFB4A" unicode="&#xfb4a;" horiz-adv-x="499" 
d="M27.5 25.5q-0.5 10.5 8 17.5t19.5 2q23 -10 58 -10.5t61 2.5q3 58 -8 164t-12 145q-2 39 2 190.5t-2 190.5q-9 89 -7 267t-16 278q-22 4 -29 8q-11 5 -11.5 15t7.5 16.5t19 1.5q39 -13 118 -9t156 -1.5t74 -30.5q-1 -24 -3 -133t-3 -133q-3 -63 -4.5 -179t-3.5 -161
q-10 -277 -9 -330q8 -224 2 -318q-1 -12 -10.5 -16.5t-18 1t-7.5 17.5q7 95 -2 314q-1 75 8 334q4 90 6.5 288.5t7.5 303.5q-39 8 -124.5 7t-133.5 1q16 -117 13.5 -273.5t6.5 -263.5q6 -39 2 -191.5t-2 -191.5q1 -26 13.5 -146.5t5.5 -185.5q-4 -16 -19 -16q-13 0 -37.5 -1
t-39.5 -1.5t-36 2.5t-38 10q-11 5 -11.5 15.5zM289 1130q0 9 5 15t13 6t13.5 -6t5.5 -15q0 -8 -6 -14t-13 -6t-12.5 6t-5.5 14z" />
    <glyph glyph-name="uniFB4B" unicode="&#xfb4b;" horiz-adv-x="198" 
d="M29.5 1288.5q-4.5 8.5 0 16t15.5 6.5q50 -6 100 0h5q18 0 18 -17q-2 -115 1.5 -330t2.5 -313q-1 -99 -10.5 -312t-9.5 -325q0 -9 -9 -12.5t-17.5 1t-8.5 13.5q0 113 9.5 330.5t10.5 317.5q0 88 -3.5 295t-2.5 319q-43 -3 -86 0q-11 2 -15.5 10.5zM104 1540q0 9 5.5 15
t13.5 6t13 -6t5 -15q0 -8 -5.5 -14t-12.5 -6t-13 6t-6 14z" />
    <glyph glyph-name="uniFB4C" unicode="&#xfb4c;" horiz-adv-x="475" 
d="M11 1293q-1 10 7 16.5t19 1.5q39 -16 132 -10.5t136 -4.5q6 -2 9.5 -8t2.5 -12q-12 -92 -14.5 -187.5t2 -248.5t4.5 -189q1 -65 -4.5 -193t-3.5 -229t18 -192v-4q35 -2 107 -2q12 0 17 -9.5t0 -18.5t-17 -9q-63 0 -187.5 4t-185.5 4q-12 0 -17 9t0 18.5t17 9.5
q116 0 230 -6q-16 92 -18 193t3 230.5t4 194.5q0 48 -2.5 148t-3.5 161.5t2 147.5t11 156q-48 7 -85.5 2t-86 -4t-84.5 16q-11 5 -12 15zM32 1542q-2 10 5 17.5t18 3.5q46 -12 152 2q38 3 104.5 -1.5t87.5 -4.5q12 0 17 -9.5t0 -18.5t-17 -9q-21 0 -86.5 4.5t-101.5 1.5
q-116 -13 -166 0q-11 4 -13 14z" />
    <glyph glyph-name="uniFB4D" unicode="&#xfb4d;" horiz-adv-x="456" 
d="M35 1283q-4 8 0.5 15.5t15.5 6.5q51 -2 61.5 -2.5t62.5 2t63 2.5q8 0 32 2t36.5 2t32 -1.5t34.5 -6.5q0 -3 2 -3q10 -3 10 -14q0 -17 -1 -51q-11 -473 3 -708q2 -29 4 -56q1 -16 6.5 -96.5t10.5 -122.5q1 -6 3.5 -26.5t3.5 -29t1 -27t-1.5 -29.5t-6.5 -25t-13 -25
q-11 -16 -32.5 -23t-50.5 -10t-42 -8q-6 -3 -64 -12.5t-69 -28.5q-6 -8 -14 -7.5t-13.5 8t-0.5 16.5q7 13 22 21.5t28 11t36.5 5.5t31.5 5q9 2 35 10.5t41 9.5q6 1 20 2t25 3.5t17 8.5q15 17 16.5 48t-2.5 51q-8 63 -10 92q-2 35 -7.5 107t-7.5 110q-3 37 -5 77.5t-3 73.5
t-1.5 80t-1 73t0 79.5t0.5 73.5t1 80t1.5 73.5t2 80t1.5 75.5q-39 7 -135 -2q-125 -5 -166 0q-10 1 -14 9zM53 1542q-2 10 5 17.5t18 3.5q45 -12 151 2q38 3 105.5 -1.5t87.5 -4.5q12 0 17 -9.5t0 -18.5t-17 -9q-21 0 -87 4.5t-102 1.5q-115 -13 -165 0q-11 4 -13 14z" />
    <glyph glyph-name="uniFB4E" unicode="&#xfb4e;" horiz-adv-x="401" 
d="M29 1295q-1 10 7 16.5t19 1.5q22 -10 106 -9t150.5 -4t63.5 -30q-5 -30 -5.5 -61t2.5 -83.5t3 -62.5v-21v-6v-2v-6v-24v-97l4 -307q4 -479 2 -573q0 -6 -5 -11.5t-11 -5.5q-15 -1 -40.5 -2t-108.5 -3t-159 1q-12 0 -16.5 9t1 18.5t17.5 9.5q154 -4 287 2q0 121 -4 555
l-4 307v94v27v6v2v2v4v21q-5 153 -2 194q-27 6 -67.5 8t-75.5 1t-74 0q-12 -545 10 -916q10 -5 48.5 -6.5t49.5 -5.5q12 -4 14 -14t-6 -17.5t-20 -3.5q-9 3 -43 3.5t-56.5 8.5t-23.5 31q-2 42 -5 117t-7.5 322t2.5 485q-28 4 -41 10q-11 5 -12 15zM53 1542q-2 10 5 17.5
t18 3.5q16 -4 27.5 -5.5t17 -0.5t19.5 3.5t26 4.5q37 3 82 -1.5t69 -4.5q12 0 17 -9.5t0 -18.5t-17 -9q-25 0 -68.5 4.5t-78.5 1.5q-14 -2 -30.5 -4.5t-22.5 -3t-19 1t-32 6.5q-11 4 -13 14zM338 1038z" />
    <glyph glyph-name="uniFB4F" unicode="&#xfb4f;" horiz-adv-x="1728" 
d="M94 1292q9 22 4 116.5t-4 121.5q1 12 10.5 16t18.5 -2t8 -18q-2 -31 2.5 -108.5t-0.5 -108.5q14 0 55.5 -3.5t61.5 -2.5q17 0 46 4t47 4t24 -8q1 0 1.5 -1.5l1 -3t1.5 -2.5q5 -73 98 -155q95 -80 215 -140q97 -51 284.5 -130t239.5 -103q10 -5 31 -14.5t31 -14.5
q3 99 1 179t1.5 179t17.5 177q1 9 10 11t17 -4t6 -15q-17 -106 -17 -271.5t-1 -271.5q106 -51 179 -106.5t109 -131.5q21 -51 31 -92q2 -7 14.5 -53t16.5 -70q22 -116 22 -254q0 -15 -17.5 -15t-17.5 15q0 171 -28 283q-3 12 -10 41.5t-11.5 46t-12 40.5t-17 44t-21.5 37
q-35 50 -86.5 87.5t-128.5 78.5q-120 62 -246 117q-29 12 -126 52.5t-141.5 60t-116.5 55t-128 69.5q-153 97 -202 176q-8 -134 -11 -239q-1 -47 -2 -209.5t-2 -235.5q-3 -299 -20 -364q-3 -10 -7.5 -18.5t-13 -16t-13.5 -11.5t-18 -10t-17 -8t-20 -7.5t-18 -6.5
q-35 -15 -42.5 -23.5t-6.5 -31.5q1 -12 -8 -18t-18.5 -2.5t-10.5 15.5q-3 39 19 62.5t50 31t55 20t32 32.5q17 60 20 358q1 73 2 235.5t2 209.5q2 140 15 301q-14 1 -83 -2t-81 4q-21 3 -39.5 1t-29.5 2t-7 19z" />
  </font>
</defs>
</svg>
