<?xml version="1.0" standalone="no"?>
<!DOCTYPE svg PUBLIC "-//W3C//DTD SVG 1.1//EN" "http://www.w3.org/Graphics/SVG/1.1/DTD/svg11.dtd" >
<svg>
<metadata>
Created by FontForge 20090914 at Fri Oct 13 01:38:36 2017
 By www-data
Copyright 2016 Michal Sahar. All rights reserved.
</metadata>
<defs>
<font id="SecularOne-Regular" horiz-adv-x="0" >
  <font-face 
    font-family="Secular One"
    font-weight="400"
    font-stretch="normal"
    units-per-em="1000"
    panose-1="0 0 5 0 0 0 0 0 0 0"
    ascent="800"
    descent="-200"
    x-height="515"
    cap-height="666"
    bbox="-660 -433 1090 1022"
    underline-thickness="50"
    underline-position="-50"
    unicode-range="U+0020-U+FB4B"
  />
<missing-glyph horiz-adv-x="474" 
d="M389 -218h-301v948h301v-948zM159 666v-31h62v-35h-63v-31h158v31h-63v35h63v31h-157zM158 544v-98h158v32h-63v66h-95zM221 478h-31v34h31v-34zM158 420v-31h63v-35h-63v-32h95v67h63v31h-158zM284 363v-62h-126v-33h158v95h-32zM221 247v-53h32v22h31v-44h-94v75h-32
v-107h158v107h-95zM158 83v-107h158v107h-158zM284 8h-94v44h94v-44zM158 -45v-32h67l-67 -44v-32h158v32h-97l66 44h31v32h-158z" />
    <glyph glyph-name="fi" unicode="fi" horiz-adv-x="843" 
d="M46 121l91.001 0.000976562v273h-91v121h91v63c0 50 16 90.167 48 120.5s74.667 45.5 128 45.5c37.333 0 78.666 -9.33301 123.999 -28l-49 -111c-22.667 11.333 -43 17 -61 17c-15.333 0 -27.333 -4.33301 -36 -13s-13 -21.334 -13 -38.001v-56h451v-394h86v-121h-323
v121h96v273h-310v-273h120v-121h-352v121zM570.001 730.001h161v-130h-161v130z" />
    <glyph glyph-name="fl" unicode="fl" horiz-adv-x="837" 
d="M46 121l91.001 0.000976562v273h-91v121h91v63c0 50 16 90.167 48 120.5s74.667 45.5 128 45.5c37.333 0 78.666 -9.33301 123.999 -28l-49 -111c-22.667 11.333 -43 17 -61 17c-15.333 0 -27.333 -4.33301 -36 -13s-13 -21.334 -13 -38.001v-56h120v-121h-120v-273h299
v489h-86v120h227v-609h91v-121h-763v121z" />
    <glyph glyph-name=".notdef" horiz-adv-x="474" 
d="M389 -218h-301v948h301v-948zM159 666v-31h62v-35h-63v-31h158v31h-63v35h63v31h-157zM158 544v-98h158v32h-63v66h-95zM221 478h-31v34h31v-34zM158 420v-31h63v-35h-63v-32h95v67h63v31h-158zM284 363v-62h-126v-33h158v95h-32zM221 247v-53h32v22h31v-44h-94v75h-32
v-107h158v107h-95zM158 83v-107h158v107h-158zM284 8h-94v44h94v-44zM158 -45v-32h67l-67 -44v-32h158v32h-97l66 44h31v32h-158z" />
    <glyph glyph-name="space" unicode=" " horiz-adv-x="200" 
 />
    <glyph glyph-name="exclam" unicode="!" horiz-adv-x="391" 
d="M100 716l191 20l-37 -501h-118zM133.5 2.5c-18.333 18.333 -27.5 40.166 -27.5 65.499s9.16699 47.333 27.5 66s40.166 28 65.499 28s47.166 -9.33301 65.499 -28s27.5 -40.667 27.5 -66s-9.16699 -47.166 -27.5 -65.499s-40.166 -27.5 -65.499 -27.5
s-47.166 9.16699 -65.499 27.5z" />
    <glyph glyph-name="quotedbl" unicode="&#x22;" horiz-adv-x="608" 
d="M70 406c30 38 50.335 71 61.002 99l-58 87c0 15.333 4.16699 30.5 12.5 45.5s20.166 27.167 35.499 36.5s32.666 14 51.999 14c28.667 0 53 -10.167 73 -30.5s30 -46.166 30 -77.499c0 -36.667 -14.667 -78.334 -44 -125.001s-75.333 -92 -138 -136zM332.002 406
c30 38 50.335 71 61.002 99l-58 87c0 15.333 4.16699 30.5 12.5 45.5s20.166 27.167 35.499 36.5s32.666 14 51.999 14c28.667 0 53 -10.167 73 -30.5s30 -46.166 30 -77.499c0 -36.667 -14.667 -78.334 -44 -125.001s-75.333 -92 -138 -136z" />
    <glyph glyph-name="numbersign" unicode="#" horiz-adv-x="693" 
d="M175 124h-99v90h115l19 112h-134v89h151l21 118l92 7l-22 -125h108l21 118l92 7l-21 -125h98v-89h-115l-19 -112h134v-90h-151l-21 -124l-93 -7l23 131h-108l-22 -124l-92 -7zM390 214l19 112h-108l-18 -112h107z" />
    <glyph glyph-name="dollar" unicode="$" horiz-adv-x="581" 
d="M146 -88l24.001 84.998c-41.333 8 -76.333 20.667 -105 38l12 134c40.667 -25.333 82.667 -42.666 126 -51.999l43 156c-38.667 15.333 -69.834 29.666 -93.501 42.999s-44 32.833 -61 58.5s-25.5 58.5 -25.5 98.5c0 64 21.667 114.333 65 151s103.666 55 180.999 55
c10.667 0 26 -0.666992 46 -2l21 74l76 -11l-22 -78c20.667 -5.33301 40.334 -11.666 59.001 -18.999l-22 -132c-25.333 14 -48.666 24 -69.999 30l-43 -154c49.333 -19.333 88.166 -43.166 116.499 -71.499s42.5 -69.5 42.5 -123.5c0 -64.667 -22 -115 -66 -151
s-105.333 -54 -184 -54h-21l-24 -86zM325.001 555.998h-15.001c-31.333 0 -55.666 -6.16699 -72.999 -18.5s-26 -28.833 -26 -49.5c0 -18 6 -32 18 -42s31 -20.333 57 -31zM345.5 133.498c17 13 25.5 29.5 25.5 49.5c0 14 -4.5 25.833 -13.5 35.5s-22.5 18.5 -40.5 26.5
l-38 -134c27.333 2 49.5 9.5 66.5 22.5z" />
    <glyph glyph-name="percent" unicode="%" horiz-adv-x="786" 
d="M134 -1l451 672l67 -8l-451 -673zM134.5 417c-21.667 12 -38.666 28.333 -50.999 49s-18.5 43.334 -18.5 68.001c0 25.333 6.16699 48.333 18.5 69s29.166 37 50.499 49s45 18 71 18c25.333 0 48.666 -6 69.999 -18s38.166 -28.333 50.499 -49s18.5 -43.667 18.5 -69
c0 -24.667 -6.16699 -47.334 -18.5 -68.001s-29.166 -37 -50.499 -49s-44.666 -18 -69.999 -18s-48.833 6 -70.5 18zM249.501 487c11.667 13.333 17.5 29 17.5 47s-5.83301 33.833 -17.5 47.5s-26.5 20.5 -44.5 20.5c-18.667 0 -33.834 -6.83301 -45.501 -20.5
s-17.5 -29.5 -17.5 -47.5s5.83301 -33.667 17.5 -47s26.834 -20 45.501 -20c18 0 32.833 6.66699 44.5 20zM512.501 9c-21 12 -37.665 28.333 -49.998 49s-18.5 43.667 -18.5 69c0 24.667 6.16699 47.5 18.5 68.5s29 37.5 50 49.5s44.167 18 69.5 18s48.666 -6 69.999 -18
s38.166 -28.5 50.499 -49.5s18.5 -43.833 18.5 -68.5c0 -38.667 -13.333 -71 -40 -97s-59.667 -39 -99 -39c-25.333 0 -48.5 6 -69.5 18zM626.503 80c11.667 13.333 17.5 29 17.5 47s-5.83301 33.833 -17.5 47.5s-26.834 20.5 -45.501 20.5
c-18 0 -32.833 -6.83301 -44.5 -20.5s-17.5 -29.5 -17.5 -47.5s5.83301 -33.667 17.5 -47s26.5 -20 44.5 -20c18.667 0 33.834 6.66699 45.501 20z" />
    <glyph glyph-name="ampersand" unicode="&#x26;" horiz-adv-x="684" 
d="M473 60c-27.333 -23.333 -60.167 -41.667 -98.5 -55s-77.833 -20 -118.5 -20c-64 0 -115.167 15.833 -153.5 47.5s-57.5 74.5 -57.5 128.5c0 44.667 12.167 82.834 36.5 114.501s56.166 61.167 95.499 88.5c-24.667 29.333 -41.667 55.5 -51 78.5s-14 46.5 -14 70.5
c0 52.667 17.333 94 52 124s78 45 130 45c48.667 0 87.167 -13 115.5 -39s42.5 -61 42.5 -105c0 -35.333 -9.16699 -67.333 -27.5 -96s-43.5 -56.667 -75.5 -84l110 -112c10 34 16.333 75.667 19 125l128 16c0.666992 -90.667 -16.666 -169.334 -51.999 -236.001l105 -111
l-108 -62zM331.999 529.999c0 14.667 -4.33203 25.998 -12.999 33.998s-19.334 12 -32.001 12c-14 0 -26.333 -4.83301 -37 -14.5s-16 -23.5 -16 -41.5c0 -10.667 3 -22.167 9 -34.5s17 -28.166 33 -47.499c37.333 30.667 56 61.334 56 92.001zM338.5 110.997
c21 8 38.834 18.667 53.501 32l-18 17l-123 123c-26.667 -18 -45.834 -35.667 -57.501 -53s-17.5 -35.333 -17.5 -54c0 -26 9.5 -45.333 28.5 -58s42.167 -19 69.5 -19c22 0 43.5 4 64.5 12z" />
    <glyph glyph-name="quotesingle" unicode="'" horiz-adv-x="346" 
d="M70 406c30 38 50.335 71 61.002 99l-58 87c0 15.333 4.16699 30.5 12.5 45.5s20.166 27.167 35.499 36.5s32.666 14 51.999 14c28.667 0 53 -10.167 73 -30.5s30 -46.166 30 -77.499c0 -36.667 -14.667 -78.334 -44 -125.001s-75.333 -92 -138 -136z" />
    <glyph glyph-name="parenleft" unicode="(" horiz-adv-x="399" 
d="M149 15c-49.333 80.667 -73.999 171.667 -73.999 273c0 102 24.833 193.667 74.5 275s119.167 147.333 208.5 198l24 -48c-59.333 -63.333 -102 -127.5 -128 -192.5s-39 -142.167 -39 -231.5s13.167 -166.5 39.5 -231.5s69.166 -129.5 128.499 -193.5l-25 -48
c-90 52 -159.667 118.333 -209 199z" />
    <glyph glyph-name="parenright" unicode=")" horiz-adv-x="400" 
d="M16 -136c59.333 64 102.167 128.5 128.5 193.5s39.5 142.167 39.5 231.5s-13 166.5 -39 231.5s-68.667 129.167 -128 192.5l24 48c89.333 -50.667 158.833 -116.667 208.5 -198s74.5 -173 74.5 -275c0 -101.333 -24.667 -192.333 -74 -273s-119 -147 -209 -199z" />
    <glyph glyph-name="asterisk" unicode="*" horiz-adv-x="570" 
d="M260 381l-114 -107l-78 100l124 91l-130 75l69 108l121 -89l29 150l121 -34l-49 -146l149 19l6 -129l-147 1l59 -140l-118 -46z" />
    <glyph glyph-name="plus" unicode="+" horiz-adv-x="580" 
d="M254 213h-209l10 75h199v198l75 10v-208h206l-10 -75h-196v-197l-75 -10v207z" />
    <glyph glyph-name="comma" unicode="," horiz-adv-x="346" 
d="M60 -109c30 38 50.335 71 61.002 99l-58 87c0 15.333 4.16699 30.5 12.5 45.5s20.166 27.167 35.499 36.5s32.666 14 51.999 14c28.667 0 53 -10.167 73 -30.5s30 -46.166 30 -77.499c0 -36.667 -14.667 -78.334 -44 -125.001s-75.333 -92 -138 -136z" />
    <glyph glyph-name="hyphen" unicode="-" horiz-adv-x="541" 
d="M75 358h400l-10 -115h-400z" />
    <glyph glyph-name="period" unicode="." horiz-adv-x="336" 
d="M95.5 -3.5c-20.333 20.333 -30.5 44.5 -30.5 72.5c0 28.667 10.167 53.167 30.5 73.5s44.5 30.5 72.5 30.5c28.667 0 53 -10.167 73 -30.5s30 -44.833 30 -73.5c0 -28 -10 -52.167 -30 -72.5s-44.333 -30.5 -73 -30.5c-28 0 -52.167 10.167 -72.5 30.5z" />
    <glyph glyph-name="slash" unicode="/" horiz-adv-x="507" 
d="M20 0l354 730l113 -10l-354 -730z" />
    <glyph glyph-name="zero" unicode="0" horiz-adv-x="586" 
d="M106 74.5c-44 59.667 -66 145.834 -66 258.501s22 198.667 66 258s106.333 89 187 89s143 -29.833 187 -89.5s66 -145.834 66 -258.501s-22 -198.667 -66 -258s-106.333 -89 -187 -89s-143 29.833 -187 89.5zM374 168.5c19.333 38.333 29 92.5 29 162.5
s-9.66699 124.833 -29 164.5s-46.333 59.5 -81 59.5s-61.667 -19.167 -81 -57.5s-29 -92.5 -29 -162.5s9.66699 -124.833 29 -164.5s46.333 -59.5 81 -59.5s61.667 19.167 81 57.5z" />
    <glyph glyph-name="one" unicode="1" horiz-adv-x="438" 
d="M50 121h115v364l-117 47v49l180 90h77v-550h111l-10 -121h-366z" />
    <glyph glyph-name="two" unicode="2" horiz-adv-x="517" 
d="M48 105l164.497 180.501c36.333 41.667 63.5 77.667 81.5 108s27 57.833 27 82.5c0 22.667 -6.83301 40.667 -20.5 54s-31.5 20 -53.5 20c-42 0 -80.667 -25 -116 -75l-103 73c30.667 44.667 65.834 78 105.501 100s82.5 33 128.5 33c38.667 0 73.334 -7.5 104.001 -22.5
s54.834 -36.667 72.501 -65s26.5 -61.5 26.5 -99.5c0 -52.667 -18.167 -106.334 -54.5 -161.001s-95.5 -122.667 -177.5 -204h233l-11 -129h-407v105z" />
    <glyph glyph-name="three" unicode="3" horiz-adv-x="486" 
d="M4 -6l18.0039 124.001c38.667 -6.66699 72 -10 100 -10c53.333 0 96 11.333 128 34s48 52.334 48 89.001c0 23.333 -6.66699 41.666 -20 54.999s-32 20 -56 20c-16.667 0 -35 -3.33301 -55 -10l-20 96c32 10 61.167 26.5 87.5 49.5s39.5 46.167 39.5 69.5
c0 14.667 -5.5 26.5 -16.5 35.5s-25.833 13.5 -44.5 13.5s-38 -5.16699 -58 -15.5s-38.667 -24.833 -56 -43.5l-84 92c28 27.333 60.167 48.833 96.5 64.5s74.166 23.5 113.499 23.5c36.667 0 69 -6.5 97 -19.5s49.667 -31 65 -54s23 -48.833 23 -77.5
c0 -48 -21.667 -92.667 -65 -134c31.333 -14.667 55.166 -35.834 71.499 -63.501s24.5 -59.167 24.5 -94.5c0 -47.333 -13.833 -90.333 -41.5 -129s-66.834 -69 -117.501 -91s-108.334 -33 -173.001 -33c-34 0 -69 3 -105 9z" />
    <glyph glyph-name="four" unicode="4" horiz-adv-x="574" 
d="M326 150h-291l-10 103l300 413h132v-404h77l-10 -112h-67v-150h-131v150zM326 262v230l-156 -230h156z" />
    <glyph glyph-name="five" unicode="5" horiz-adv-x="491" 
d="M10 -6l18 124c38.667 -6.66699 72 -10 100 -10c53.333 0 95.833 12.167 127.5 36.5s47.5 56.166 47.5 95.499c0 28 -7.83301 49.167 -23.5 63.5s-38.5 21.5 -68.5 21.5c-30.667 0 -60 -6.66699 -88 -20l-56 41l19 320h340l-8 -118h-216l-6 -113c11.333 2.66699 26 4 44 4
c62 0 111.833 -17.5 149.5 -52.5s56.5 -82.833 56.5 -143.5c0 -49.333 -13.833 -93.666 -41.5 -132.999s-66.5 -70 -116.5 -92s-107.667 -33 -173 -33c-34 0 -69 3 -105 9z" />
    <glyph glyph-name="six" unicode="6" horiz-adv-x="542" 
d="M101.5 53.5c-37.667 46.333 -56.501 122.501 -56.501 228.501c0 121.333 25 218.166 75 290.499s124 108.5 222 108.5c32 0 64 -3.66699 96 -11l-5 -116c-34.667 4.66699 -62 7 -82 7c-46.667 0 -83 -12 -109 -36s-43.333 -63.667 -52 -119
c45.333 15.333 86.666 23 123.999 23c58.667 0 103.834 -18 135.501 -54s47.5 -86.333 47.5 -151c0 -76 -21.167 -135 -63.5 -177s-99.166 -63 -170.499 -63c-70 0 -123.833 23.167 -161.5 69.5zM338.499 129.001c15 18.667 22.5 46.668 22.5 84.001
c0 68.667 -25.333 103 -76 103c-26.667 0 -61 -8.33301 -103 -25c-1.33301 -24 -2 -40.333 -2 -49c0 -42.667 8.33301 -76.834 25 -102.501s40.667 -38.5 72 -38.5c26 0 46.5 9.33301 61.5 28z" />
    <glyph glyph-name="seven" unicode="7" horiz-adv-x="473" 
d="M79 10l222 537h-275l10 119h402v-106l-212 -580z" />
    <glyph glyph-name="eight" unicode="8" horiz-adv-x="561" 
d="M103 37c-40 34.667 -60.001 83.001 -60.001 145.001c0 38 7.66699 72.167 23 102.5s37.666 55.833 66.999 76.5c-42.667 39.333 -64 86.333 -64 141c0 38 9.66699 70.333 29 97s45.333 47 78 61s69 21 109 21c59.333 0 108.666 -15 147.999 -45s59 -71 59 -123
c0 -30 -6.66699 -58.5 -20 -85.5s-31.666 -51.5 -54.999 -73.5c30.667 -19.333 54.834 -42.333 72.501 -69s26.5 -59.667 26.5 -99c0 -60.667 -21.667 -109.334 -65 -146.001s-102.666 -55 -177.999 -55c-73.333 0 -130 17.333 -170 52zM349.999 443.501
c6.66699 15.667 10 31.5 10 47.5c0 24.667 -8.16699 43.167 -24.5 55.5s-35.5 18.5 -57.5 18.5c-20 0 -37.167 -5 -51.5 -15s-21.5 -24.667 -21.5 -44c0 -22.667 9.5 -41 28.5 -55s48.5 -30 88.5 -48c12 11.333 21.333 24.833 28 40.5zM354.499 121.501
c17 13 25.5 30.833 25.5 53.5c0 25.333 -9.5 45.5 -28.5 60.5s-48.833 31.5 -89.5 49.5l-37 17c-16.667 -15.333 -29.167 -32.5 -37.5 -51.5s-12.5 -37.833 -12.5 -56.5c0 -28.667 9.5 -51.167 28.5 -67.5s45.5 -24.5 79.5 -24.5c30.667 0 54.5 6.5 71.5 19.5z" />
    <glyph glyph-name="nine" unicode="9" horiz-adv-x="542" 
d="M104 -5l5.00195 115.999c35.333 -4.66699 62.666 -7 81.999 -7c46.667 0 83 12 109 36s43.333 63.667 52 119c-45.333 -15.333 -86.666 -23 -123.999 -23c-58.667 0 -103.834 18 -135.501 54s-47.5 86.333 -47.5 151c0 76 21.167 135 63.5 177s99.166 63 170.499 63
c70 0 123.833 -23.167 161.5 -69.5s56.5 -122.5 56.5 -228.5c0 -121.333 -25 -218.166 -75 -290.499s-124 -108.5 -222 -108.5c-32 0 -64 3.66699 -96 11zM360.002 373.999c1.33301 24 2 40.332 2 48.999c0 42.667 -8.33301 76.834 -25 102.501s-40.667 38.5 -72 38.5
c-26 0 -46.5 -9.33301 -61.5 -28s-22.5 -46.667 -22.5 -84c0 -68.667 25.333 -103 76 -103c26.667 0 61 8.33301 103 25z" />
    <glyph glyph-name="colon" unicode=":" horiz-adv-x="386" 
d="M120 369.5c-20 20.333 -30 44.5 -30 72.5s10 52 30 72s44.333 30 73 30c28 0 52.167 -10 72.5 -30s30.5 -44 30.5 -72s-10.167 -52.167 -30.5 -72.5s-44.5 -30.5 -72.5 -30.5c-28.667 0 -53 10.167 -73 30.5zM120 6.5c-20 20.333 -30 44.5 -30 72.5s10 52 30 72
s44.333 30 73 30c28 0 52.167 -10 72.5 -30s30.5 -44 30.5 -72s-10.167 -52.167 -30.5 -72.5s-44.5 -30.5 -72.5 -30.5c-28.667 0 -53 10.167 -73 30.5z" />
    <glyph glyph-name="semicolon" unicode=";" horiz-adv-x="410" 
d="M124 369.5c-20 20.333 -30 44.5 -30 72.5s10 52 30 72s44.333 30 73 30c28 0 52.167 -10 72.5 -30s30.5 -44 30.5 -72s-10.167 -52.167 -30.5 -72.5s-44.5 -30.5 -72.5 -30.5c-28.667 0 -53 10.167 -73 30.5zM90 -109c30 38 50.335 71 61.002 99l-58 87
c0 15.333 4.16699 30.5 12.5 45.5s20.166 27.167 35.499 36.5s32.666 14 51.999 14c28.667 0 53 -10.167 73 -30.5s30 -46.166 30 -77.499c0 -36.667 -14.667 -78.334 -44 -125.001s-75.333 -92 -138 -136z" />
    <glyph glyph-name="less" unicode="&#x3c;" horiz-adv-x="644" 
d="M45 190l9 123l526 224v-156l-349 -129l358 -136l-9 -153z" />
    <glyph glyph-name="equal" unicode="=" horiz-adv-x="650" 
d="M90 385h480l-10 -75h-480zM90 215h480l-10 -75h-480z" />
    <glyph glyph-name="greater" unicode="&#x3e;" horiz-adv-x="634" 
d="M45 190l9 123l526 224v-156l-349 -129l358 -136l-9 -153z" />
    <glyph glyph-name="question" unicode="?" horiz-adv-x="511" 
d="M159 304c0 26 3.66602 46.834 10.999 62.501s19.333 32.5 36 50.5l46 44c23.333 21.333 40 38.666 50 51.999s15 28.666 15 45.999c0 18 -5.83301 32.5 -17.5 43.5s-27.5 16.5 -47.5 16.5c-21.333 0 -40.833 -6.83301 -58.5 -20.5s-29.167 -34.834 -34.5 -63.501
c-45.333 9.33301 -90 21.333 -134 36c12.667 47.333 39.834 86.5 81.501 117.5s91.834 46.5 150.501 46.5c58 0 105 -15 141 -45s54 -70.333 54 -121c0 -35.333 -8.33301 -66.166 -25 -92.499s-41.334 -56.166 -74.001 -89.499l-25 -25c-24 -24.667 -39.5 -41.667 -46.5 -51
s-10.833 -20.333 -11.5 -33l-2 -38l-101 -9c-5.33301 32 -8 56.333 -8 73zM150.999 3.00098c-18.667 18.667 -28 41 -28 67c0 25.333 9.16699 47.333 27.5 66s40.5 28 66.5 28s48.167 -9.33301 66.5 -28s27.5 -41 27.5 -67c0 -25.333 -9.16699 -47.333 -27.5 -66
s-40.5 -28 -66.5 -28c-25.333 0 -47.333 9.33301 -66 28z" />
    <glyph glyph-name="at" unicode="@" horiz-adv-x="823" 
d="M221.5 -27c-51 28 -90.666 66.9971 -118.999 116.997s-42.5 107.333 -42.5 172c0 70.667 16.667 135.334 50 194.001s79.333 104.834 138 138.501s124 50.5 196 50.5c62 0 117.167 -12.667 165.5 -38s86 -61 113 -107s40.5 -99 40.5 -159
c0 -64.667 -16 -115.667 -48 -153s-77.667 -58.333 -137 -63c-20 -1.33301 -38 -2 -54 -2c-22 0 -45 0.666992 -69 2l6 42h-4c-12.667 -15.333 -28.167 -27.333 -46.5 -36s-37.5 -13 -57.5 -13c-35.333 0 -61.333 13 -78 39s-25 58.333 -25 97c0 26 3.83301 51 11.5 75
s18.5 45.333 32.5 64c34.667 44.667 82.667 67 144 67c33.333 0 74 -7 122 -21l-29 -248c16.667 -0.666992 35 0 55 2c33.333 4 58.166 17.333 74.499 40s24.5 56 24.5 100c0 50 -10.167 93.333 -30.5 130s-49 64.667 -86 84s-79.833 29 -128.5 29
c-58 0 -110 -13.333 -156 -40s-81.833 -63.334 -107.5 -110.001s-38.5 -99 -38.5 -157c0 -53.333 11 -100.166 33 -140.499s53.667 -71.666 95 -93.999s90 -33.5 146 -33.5c54 0 105.667 10 155 30l-9 -78c-20.667 -6.66699 -46 -12 -76 -16s-58 -6 -84 -6
c-66.667 0 -125.5 14 -176.5 42zM420.501 204.997c14.333 10.667 27.165 25.667 38.498 45l16 132c-13.333 6 -28.666 9 -45.999 9c-32 0 -56.167 -13 -72.5 -39s-24.5 -56.667 -24.5 -92c0 -23.333 3.83301 -41 11.5 -53s18.834 -18 33.501 -18s29.167 5.33301 43.5 16z
" />
    <glyph glyph-name="A" unicode="A" horiz-adv-x="679" 
d="M251 666h174l247 -666h-150l-54 152h-262l-51 -152h-148zM425 276l-90 255l-87 -255h177z" />
    <glyph glyph-name="B" unicode="B" horiz-adv-x="569" 
d="M70 666l223 0.000976562c64.667 0 115.834 -15.5 153.501 -46.5s56.5 -73.167 56.5 -126.5c0 -60.667 -26.333 -107.334 -79 -140.001c70 -28 105 -77.333 105 -148c0 -40 -10 -75.5 -30 -106.5s-47.833 -55.167 -83.5 -72.5s-75.834 -26 -120.501 -26h-225v666z
M259 395.001c33.333 0 59.167 7.66797 77.5 23.001s27.5 36.666 27.5 63.999c0 49.333 -30.667 74 -92 74h-63v-161h50zM273.001 111.002c36 0 64.167 8.33301 84.5 25s30.5 39 30.5 67c0 25.333 -8.66699 45 -26 59s-42.333 21 -75 21h-78v-172h64z" />
    <glyph glyph-name="C" unicode="C" horiz-adv-x="594" 
d="M131 73c-60 57.333 -89.999 138.331 -89.999 242.998c0 71.333 14.167 134.333 42.5 189s68.5 96.834 120.5 126.501s112 44.5 180 44.5c55.333 0 108.666 -10 159.999 -30l-27 -129c-45.333 20.667 -89.333 31 -132 31c-60.667 0 -108.667 -19.833 -144 -59.5
s-53 -92.5 -53 -158.5c0 -67.333 18.667 -119.666 56 -156.999s89 -56 155 -56c43.333 0 85.333 7 126 21l22 -123c-48.667 -18.667 -104 -28 -166 -28c-106.667 0 -190 28.667 -250 86z" />
    <glyph glyph-name="D" unicode="D" horiz-adv-x="685" 
d="M69 0l0.000976562 666c28.667 0.666992 71 1 127 1c56.667 0 99 -0.333008 127 -1c65.333 -0.666992 122.166 -13.834 170.499 -39.501s85.666 -62.167 111.999 -109.5s39.5 -102.666 39.5 -165.999c0 -69.333 -15.167 -130.333 -45.5 -183s-73 -93.667 -128 -123
s-118.833 -44.333 -191.5 -45c-23.333 -0.666992 -58.333 -1 -105 -1c-47.333 0 -82.666 0.333008 -105.999 1zM279.001 126c67.333 0 120.333 19.667 159 59s58 93.333 58 162c0 62 -16.5 109.667 -49.5 143s-80.5 50 -142.5 50h-90v-414h65z" />
    <glyph glyph-name="E" unicode="E" horiz-adv-x="530" 
d="M70 666h405v-126h-262v-133h217v-122h-217v-159h262v-126h-405v666z" />
    <glyph glyph-name="F" unicode="F" horiz-adv-x="517" 
d="M70 666h407v-126h-262v-152h217v-125h-217v-263h-145v666z" />
    <glyph glyph-name="G" unicode="G" horiz-adv-x="688" 
d="M211.5 24.5c-53.667 26.333 -94.832 64.165 -123.499 113.498s-43 108 -43 176c0 71.333 15.167 134.333 45.5 189s73 97 128 127s118.5 45 190.5 45c41.333 0 80.5 -4.66699 117.5 -14s69.833 -22.666 98.5 -39.999l-35 -120c-26 16 -55 28.5 -87 37.5
s-63.333 13.5 -94 13.5c-44 0 -82.833 -9.5 -116.5 -28.5s-59.667 -45.667 -78 -80s-27.5 -74.166 -27.5 -119.499c0 -66.667 20.167 -119.167 60.5 -157.5s95.5 -57.5 165.5 -57.5c28 0 54 2 78 6v138h-84v117h217v-346c-68.667 -26 -142.334 -39 -221.001 -39
c-74 0 -137.833 13.167 -191.5 39.5z" />
    <glyph glyph-name="H" unicode="H" horiz-adv-x="716" 
d="M70 666h146v-258h283v258h147v-666h-147v284h-283v-284h-146v666z" />
    <glyph glyph-name="I" unicode="I" horiz-adv-x="301" 
d="M78 666h145v-666h-145v666z" />
    <glyph glyph-name="J" unicode="J" horiz-adv-x="338" 
d="M-13 6l38 121c20 -10.667 37.667 -16 53 -16c33.333 0 50 20.667 50 62v493h140v-505c0 -54 -15.833 -96.833 -47.5 -128.5s-74.167 -47.5 -127.5 -47.5c-38.667 0 -74 7 -106 21z" />
    <glyph glyph-name="K" unicode="K" horiz-adv-x="615" 
d="M70 666h145v-258l217 258h173l-274 -316l260 -350h-176l-200 269v-269h-145v666z" />
    <glyph glyph-name="L" unicode="L" horiz-adv-x="485" 
d="M70 666h145v-540h240v-126h-385v666z" />
    <glyph glyph-name="M" unicode="M" horiz-adv-x="911" 
d="M216 470l-42 -470h-129l63 666h180l170 -478l165 478h180l61 -666h-130l-46 468l-176 -475l-119 -11z" />
    <glyph glyph-name="N" unicode="N" horiz-adv-x="719" 
d="M70 666h170l276 -467v467h133v-666h-168l-278 470v-470h-133v666z" />
    <glyph glyph-name="O" unicode="O" horiz-adv-x="741" 
d="M198 30c-50 28.667 -88.833 68.998 -116.5 120.998s-41.5 111.667 -41.5 179c0 68 13.667 128 41 180s66 92.333 116 121s108 43 174 43c65.333 0 123 -14.167 173 -42.5s88.667 -68.166 116 -119.499s41 -110.666 41 -177.999c0 -68.667 -13.667 -129.167 -41 -181.5
s-66 -93 -116 -122s-107.667 -43.5 -173 -43.5s-123 14.333 -173 43zM502.5 172.998c33 39.333 49.5 91.668 49.5 157.001c0 42.667 -7.5 80.5 -22.5 113.5s-36.333 58.333 -64 76s-59.167 26.5 -94.5 26.5s-66.833 -8.83301 -94.5 -26.5s-49 -43 -64 -76
s-22.5 -70.833 -22.5 -113.5s7.5 -80.334 22.5 -113.001s36.167 -58 63.5 -76s59 -27 95 -27c54.667 0 98.5 19.667 131.5 59z" />
    <glyph glyph-name="P" unicode="P" horiz-adv-x="547" 
d="M70 666c19.333 0.666992 56 0.999023 110 0.999023c54.667 0 91.667 -0.333008 111 -1c68.667 -1.33301 122.667 -19.666 162 -54.999s59 -84.333 59 -147c0 -44.667 -10 -84.167 -30 -118.5s-48.167 -60.833 -84.5 -79.5s-77.5 -28 -123.5 -28h-65v-238h-139v666z
M268 355.999c32.667 0 58.167 9.33301 76.5 28s27.5 44 27.5 76c0 58.667 -32.333 88 -97 88h-66v-192h59z" />
    <glyph glyph-name="Q" unicode="Q" horiz-adv-x="746" 
d="M479 1c-32.667 -10 -68.666 -15 -107.999 -15c-65.333 0 -123 14.333 -173 43s-88.833 69 -116.5 121s-41.5 111.667 -41.5 179c0 68 13.667 128 41 180s66 92.333 116 121s108 43 174 43c65.333 0 123 -14 173 -42s88.667 -67.833 116 -119.5s41 -111.167 41 -178.5
c0 -50.667 -7.83301 -97.5 -23.5 -140.5s-37.834 -79.833 -66.501 -110.5l93 -48l-15 -137zM378.001 204l103 -54.001c22.667 18.667 40.167 43.334 52.5 74.001s18.5 65.667 18.5 105c0 43.333 -7.5 81.5 -22.5 114.5s-36.333 58.333 -64 76s-59.167 26.5 -94.5 26.5
s-66.833 -9 -94.5 -27s-49 -43.5 -64 -76.5s-22.5 -70.833 -22.5 -113.5c0 -64.667 16.333 -116.667 49 -156s76 -59.333 130 -60z" />
    <glyph glyph-name="R" unicode="R" horiz-adv-x="560" 
d="M66 666c20 0.666992 57.333 0.999023 112 0.999023c55.333 0 93 -0.333008 113 -1c76 -2.66699 132.667 -21.167 170 -55.5s56 -80.5 56 -138.5c0 -49.333 -12.5 -91.166 -37.5 -125.499s-59.833 -56.833 -104.5 -67.5c14 -11.333 28.333 -26.833 43 -46.5
s35 -50.167 61 -91.5c27.333 -43.333 55 -90.333 83 -141h-168l-113 210c-12 22 -22.833 35.833 -32.5 41.5s-24.167 8.5 -43.5 8.5v-260h-139v666zM267 370.999c34 0 60.832 8.66797 80.499 26.001s29.5 40.666 29.5 69.999c0 26.667 -8.66699 47 -26 61
s-42.666 21 -75.999 21h-70v-178h62z" />
    <glyph glyph-name="S" unicode="S" horiz-adv-x="541" 
d="M135.5 0c-35 8.66699 -65.168 20.332 -90.501 34.999l12 134c30 -18.667 61.5 -33.167 94.5 -43.5s63.5 -15.5 91.5 -15.5c32 0 58 6.66699 78 20s30 31 30 53c0 18 -6.66699 31.833 -20 41.5s-34.333 20.167 -63 31.5l-24 10l-11 4.5c-4 1.66699 -8.66699 3.5 -14 5.5
c-37.333 15.333 -67.333 29.833 -90 43.5s-42.167 32.834 -58.5 57.501s-24.5 56.667 -24.5 96c0 64 21.667 114.333 65 151s103.666 55 180.999 55c58.667 0 118.667 -12 180 -36l-22 -132c-24.667 14 -51.167 25 -79.5 33s-55.166 12 -80.499 12
c-31.333 0 -55.666 -6.16699 -72.999 -18.5s-26 -28.833 -26 -49.5c0 -18 6 -32 18 -42s31.333 -20.667 58 -32l41 -16c38.667 -14.667 70.667 -29 96 -43s47 -34.167 65 -60.5s27 -60.5 27 -102.5c0 -64.667 -22 -115 -66 -151s-105.333 -54 -184 -54
c-38.667 0 -75.5 4.33301 -110.5 13z" />
    <glyph glyph-name="T" unicode="T" horiz-adv-x="568" 
d="M212 540h-182v126h508v-126h-180v-540h-146v540z" />
    <glyph glyph-name="U" unicode="U" horiz-adv-x="696" 
d="M202 22c-42 23.333 -74.501 56.166 -97.501 98.499s-34.5 91.166 -34.5 146.499v399h146v-388c0 -49.333 11.833 -88.5 35.5 -117.5s55.834 -43.5 96.501 -43.5s73 14.5 97 43.5s36 68.167 36 117.5v388h145v-399c0 -55.333 -11.5 -104.166 -34.5 -146.499
s-55.5 -75.166 -97.5 -98.499s-90.667 -35 -146 -35s-104 11.667 -146 35z" />
    <glyph glyph-name="V" unicode="V" horiz-adv-x="644" 
d="M10 666h160l158 -508l157 508h149l-224 -666h-175z" />
    <glyph glyph-name="W" unicode="W" horiz-adv-x="1022" 
d="M30 666h154l116 -479l119 475l187 14l126 -503l117 493h143l-180 -666h-175l-129 527l-134 -527h-173z" />
    <glyph glyph-name="X" unicode="X" horiz-adv-x="673" 
d="M243 342l-220 324h172l145 -214l145 214h160l-219 -316l241 -350h-177l-161 235l-156 -235h-167z" />
    <glyph glyph-name="Y" unicode="Y" horiz-adv-x="607" 
d="M228 277l-223 389h163l135 -263l134 263h160l-224 -389v-277h-145v277z" />
    <glyph glyph-name="Z" unicode="Z" horiz-adv-x="590" 
d="M45 109l318 431h-309v126h486v-114l-316 -426h316v-126h-495v109z" />
    <glyph glyph-name="bracketleft" unicode="[" horiz-adv-x="324" 
d="M75 740h214l-10 -104h-94v-714h104l-10 -104h-204v922z" />
    <glyph glyph-name="backslash" unicode="\" horiz-adv-x="488" 
d="M-2 675h134l357 -675h-133z" />
    <glyph glyph-name="bracketright" unicode="]" horiz-adv-x="324" 
d="M45 -78h94v714h-104l10 104h204v-922h-214z" />
    <glyph glyph-name="asciicircum" unicode="^" horiz-adv-x="674" 
d="M278 681h129l212 -397h-151l-127 295l-138 -295h-148z" />
    <glyph glyph-name="underscore" unicode="_" horiz-adv-x="585" 
d="M11 0h563v-110h-563v110z" />
    <glyph glyph-name="grave" unicode="`" horiz-adv-x="600" 
d="M48 601.5c-14 14.333 -21 32.5 -21 54.5c0 34 15.667 64.667 47 92s69 47 113 59l18 -39c-26 -20.667 -46.333 -42.667 -61 -66l26 -53c0 -18 -6.66699 -34 -20 -48s-30 -21 -50 -21c-20.667 0 -38 7.16699 -52 21.5z" />
    <glyph glyph-name="a" unicode="a" horiz-adv-x="557" 
d="M87 53c-31.333 45.333 -47.001 106.999 -47.001 184.999c0 94.667 24 166.834 72 216.501s117 74.5 207 74.5c50.667 0 110 -8 178 -24v-505h-134l3 82h-4c-17.333 -31.333 -38.5 -55.333 -63.5 -72s-53.167 -25 -84.5 -25c-53.333 0 -95.666 22.667 -126.999 68z
M304.999 140.999c20 22 38.666 51.332 55.999 87.999v168c-21.333 6 -42.666 9 -63.999 9c-40 0 -70.167 -13.667 -90.5 -41s-30.5 -67.666 -30.5 -120.999c0 -42 6 -75.167 18 -99.5s28.667 -36.5 50 -36.5c20.667 0 41 11 61 33z" />
    <glyph glyph-name="b" unicode="b" horiz-adv-x="577" 
d="M65 9l0.000976562 720.999h139v-265c39.333 42.667 87.666 64 144.999 64c58.667 0 104.667 -22.167 138 -66.5s50 -106.166 50 -185.499c0 -94.667 -24.333 -167 -73 -217s-118.667 -75 -210 -75c-53.333 0 -116.333 8 -189 24zM363.501 148.999
c21.667 27.333 32.5 67.333 32.5 120c0 43.333 -7.16699 77 -21.5 101s-34.5 36 -60.5 36c-21.333 0 -41.333 -7.5 -60 -22.5s-35.334 -36.833 -50.001 -65.5v-201c20.667 -6 42.334 -9 65.001 -9c41.333 0 72.833 13.667 94.5 41z" />
    <glyph glyph-name="c" unicode="c" horiz-adv-x="480" 
d="M106.5 53c-47 45.333 -70.501 109.334 -70.501 192.001c0 56 11 105.5 33 148.5s53 76.333 93 100s86.333 35.5 139 35.5c24.667 0 50.5 -2.83301 77.5 -8.5s47.833 -12.167 62.5 -19.5l-27 -119c-15.333 7.33301 -32.166 13.166 -50.499 17.499s-35.5 6.5 -51.5 6.5
c-41.333 0 -74.5 -14 -99.5 -42s-37.5 -65 -37.5 -111c0 -46.667 12.833 -82.667 38.5 -108s62.167 -38 109.5 -38c31.333 0 65 6 101 18l21 -114c-43.333 -17.333 -90 -26 -140 -26c-85.333 0 -151.5 22.667 -198.5 68z" />
    <glyph glyph-name="d" unicode="d" horiz-adv-x="577" 
d="M89.5 51.5c-33 44.333 -49.5 106.167 -49.5 185.5c0 94 24.5 166.167 73.5 216.5s118.833 75.5 209.5 75.5c11.333 0 28.333 -0.666992 51 -2v203h139v-730h-137l3 67h-4c-17.333 -26.667 -38.5 -47 -63.5 -61s-53.5 -21 -85.5 -21c-58 0 -103.5 22.167 -136.5 66.5z
M320 135.501c20 18.333 38.001 44.5 54.001 78.5v183c-22.667 6 -44.334 9 -65.001 9c-42 0 -73.833 -13.667 -95.5 -41s-32.5 -67.333 -32.5 -120c0 -42.667 6.83301 -76.167 20.5 -100.5s32.5 -36.5 56.5 -36.5c21.333 0 42 9.16699 62 27.5z" />
    <glyph glyph-name="e" unicode="e" horiz-adv-x="563" 
d="M111.5 57c-47.667 48 -71.5039 114.665 -71.5039 199.998c0 55.333 10.333 103.5 31 144.5s49.834 72.5 87.501 94.5s81.834 33 132.501 33c74.667 0 132 -24 172 -72s60 -117.333 60 -208c0 -15.333 -0.333008 -26.666 -1 -33.999h-340
c6.66699 -35.333 22 -62.166 46 -80.499s56.333 -27.5 97 -27.5c24.667 0 50.334 3.16699 77.001 9.5s50 14.833 70 25.5l23 -113c-26.667 -14 -56.167 -24.833 -88.5 -32.5s-65.166 -11.5 -98.499 -11.5c-83.333 0 -148.833 24 -196.5 72zM387.996 320.998
c-2 28.667 -12 51.5 -30 68.5s-42 25.5 -72 25.5c-28.667 0 -52.167 -8.33301 -70.5 -25s-29.833 -39.667 -34.5 -69h207z" />
    <glyph glyph-name="f" unicode="f" horiz-adv-x="452" 
d="M46 121l91.001 0.000976562v273h-91v121h91v63c0 50 16 90.167 48 120.5s74.667 45.5 128 45.5c37.333 0 78.666 -9.33301 123.999 -28l-49 -111c-22.667 11.333 -43 17 -61 17c-15.333 0 -27.333 -4.33301 -36 -13s-13 -21.334 -13 -38.001v-56h120v-121h-120v-273h120
v-121h-352v121z" />
    <glyph glyph-name="g" unicode="g" horiz-adv-x="577" 
d="M58 -204l26.998 123.998c64 -18.667 117.333 -28 160 -28c34 0 60.167 5.33301 78.5 16s31.333 27.334 39 50.001s12.167 53.667 13.5 93h-3c-18.667 -21.333 -40.334 -37.666 -65.001 -48.999s-51.667 -17 -81 -17c-58.667 0 -104.5 22.167 -137.5 66.5
s-49.5 105.833 -49.5 184.5c0 95.333 24.5 168 73.5 218s119.167 75 210.5 75c52.667 0 115.334 -8 188.001 -24c1.33301 -137.333 2 -240.666 2 -309.999c0 -62 -0.333008 -108.667 -1 -140c-1.33301 -94.667 -25.166 -165.334 -71.499 -212.001s-116.166 -70 -209.499 -70
c-59.333 0 -117.333 7.66699 -174 23zM323.498 130.998c19 15.333 35.833 36.999 50.5 64.999l-1 201c-22 6 -43.333 9 -64 9c-42 0 -73.833 -13.667 -95.5 -41s-32.5 -67 -32.5 -119c0 -43.333 7.16699 -77.166 21.5 -101.499s34.833 -36.5 61.5 -36.5
c20.667 0 40.5 7.66699 59.5 23z" />
    <glyph glyph-name="h" unicode="h" horiz-adv-x="606" 
d="M65 730h140.999v-290c20.667 30.667 44.334 53.167 71.001 67.5s57.334 21.5 92.001 21.5c55.333 0 98.666 -16.5 129.999 -49.5s47 -78.833 47 -137.5v-342h-141v320c0 26.667 -6.66699 47.5 -20 62.5s-31.333 22.5 -54 22.5c-24.667 0 -48.167 -8.5 -70.5 -25.5
s-40.5 -39.5 -54.5 -67.5v-312h-141v730z" />
    <glyph glyph-name="i" unicode="i" horiz-adv-x="398" 
d="M125 730h161v-130h-161v130zM47 121h96v273h-96v121h237v-394h86v-121h-323v121z" />
    <glyph glyph-name="j" unicode="j" horiz-adv-x="303" 
d="M81 730h161v-130h-161v130zM-43 -213l37.001 117.001c16 -7.33301 31.333 -11 46 -11c17.333 0 30.166 5 38.499 15s12.5 25.667 12.5 47v560h141v-571c0 -54.667 -15.833 -97.834 -47.5 -129.501s-74.167 -47.5 -127.5 -47.5c-34 0 -67.333 6.66699 -100 20z" />
    <glyph glyph-name="k" unicode="k" horiz-adv-x="545" 
d="M206 224v-224h-141v731h141v-404l161 188h167l-206 -231l217 -278l-153 -21z" />
    <glyph glyph-name="l" unicode="l" horiz-adv-x="393" 
d="M42 121h91v489h-86v120h227v-609h91v-121h-323v121z" />
    <glyph glyph-name="m" unicode="m" horiz-adv-x="943" 
d="M65 515l137.998 -0.000976562v-80c40.667 62.667 95.667 94 165 94c39.333 0 72.833 -9.16699 100.5 -27.5s47.834 -44.5 60.501 -78.5c23.333 36.667 49.5 63.5 78.5 80.5s62.167 25.5 99.5 25.5c55.333 0 98.5 -16.5 129.5 -49.5s46.5 -78.833 46.5 -137.5v-342h-141
v320c0 26.667 -6.5 47.5 -19.5 62.5s-30.5 22.5 -52.5 22.5c-27.333 0 -52.666 -11.333 -75.999 -34s-40.666 -51.667 -51.999 -87v-284h-141v320c0 26 -6.66699 46.667 -20 62s-31 23 -53 23c-24.667 0 -47.834 -9.16699 -69.501 -27.5s-39.167 -44.166 -52.5 -77.499v-300
h-141v515z" />
    <glyph glyph-name="n" unicode="n" horiz-adv-x="612" 
d="M65 515h138.001v-89c21.333 35.333 46 61.333 74 78s60.667 25 98 25c55.333 0 98.666 -16.5 129.999 -49.5s47 -78.833 47 -137.5v-342h-141v320c0 26.667 -6.66699 47.5 -20 62.5s-31.333 22.5 -54 22.5c-26.667 0 -52 -10 -76 -30s-42.333 -45.333 -55 -76v-299h-141
v515z" />
    <glyph glyph-name="o" unicode="o" horiz-adv-x="604" 
d="M165.5 19c-39.667 22.667 -70.501 54.5 -92.501 95.5s-33 88.5 -33 142.5s10.833 101.5 32.5 142.5s52.334 72.833 92.001 95.5s85.5 34 137.5 34s97.833 -11.167 137.5 -33.5s70.334 -53.833 92.001 -94.5s32.5 -87.667 32.5 -141c0 -54 -10.833 -101.833 -32.5 -143.5
s-52.334 -74 -92.001 -97s-85.167 -34.5 -136.5 -34.5c-52 0 -97.833 11.333 -137.5 34zM388.499 148.5c21.667 27.667 32.5 64.167 32.5 109.5s-10.833 81.5 -32.5 108.5s-50.5 40.5 -86.5 40.5s-64.833 -13.5 -86.5 -40.5s-32.5 -63.167 -32.5 -108.5
s10.833 -81.833 32.5 -109.5s50.5 -41.5 86.5 -41.5s64.833 13.833 86.5 41.5z" />
    <glyph glyph-name="p" unicode="p" horiz-adv-x="577" 
d="M65 515l137 -0.000976562l-3 -67h4c17.333 26.667 38.5 47 63.5 61s53.5 21 85.5 21c58 0 103.5 -22.167 136.5 -66.5s49.5 -106.166 49.5 -185.499c0 -94 -24.5 -166.167 -73.5 -216.5s-118.833 -75.5 -209.5 -75.5c-11.333 0 -28.333 0.666992 -51 2v-206h-139v733z
M364.5 149.999c21.667 27.333 32.499 67.333 32.499 120c0 42.667 -6.83301 76.167 -20.5 100.5s-32.5 36.5 -56.5 36.5c-21.333 0 -42 -9.16699 -62 -27.5s-38 -44.5 -54 -78.5v-183c22.667 -6 44.334 -9 65.001 -9c42 0 73.833 13.667 95.5 41z" />
    <glyph glyph-name="q" unicode="q" horiz-adv-x="577" 
d="M373 51c-18.667 -21.333 -40.334 -37.667 -65.001 -49s-51.667 -17 -81 -17c-58.667 0 -104.5 22.167 -137.5 66.5s-49.5 105.833 -49.5 184.5c0 94.667 24.5 167.167 73.5 217.5s119.167 75.5 210.5 75.5c54.667 0 117.334 -7.66699 188.001 -23l1 -724h-139z
M323.5 130.999c19 15.333 35.833 36.999 50.5 64.999l-1 201c-22 6 -43.333 9 -64 9c-42 0 -73.833 -13.667 -95.5 -41s-32.5 -67 -32.5 -119c0 -43.333 7.16699 -77.166 21.5 -101.499s34.833 -36.5 61.5 -36.5c20.667 0 40.5 7.66699 59.5 23z" />
    <glyph glyph-name="r" unicode="r" horiz-adv-x="399" 
d="M68 515h141v-84h8c19.333 34 38.5 59 57.5 75s42.833 24 71.5 24c12 0 22 -1.33301 30 -4l-15 -152c-17.333 4.66699 -31.333 7 -42 7c-15.333 0 -28.833 -3 -40.5 -9s-22 -14 -31 -24s-21.833 -25.333 -38.5 -46v-302h-141v515z" />
    <glyph glyph-name="s" unicode="s" horiz-adv-x="469" 
d="M119.5 -5c-30.333 6.66699 -56.1689 15.666 -77.502 26.999l13 120c22.667 -14 47.667 -25.333 75 -34s53 -13 77 -13c22.667 0 41.667 4.16699 57 12.5s23 20.5 23 36.5c0 12.667 -5.33301 22.5 -16 29.5s-31 15.833 -61 26.5l-27 10
c-28.667 10.667 -52 20.834 -70 30.501s-34.333 24.5 -49 44.5s-22 46.333 -22 79c0 52 19.5 92.5 58.5 121.5s89.833 43.5 152.5 43.5c49.333 0 101.333 -9.66699 156 -29l-19 -119c-19.333 11.333 -41.166 20.5 -65.499 27.5s-47.166 10.5 -68.499 10.5
c-22 0 -39.5 -3.66699 -52.5 -11s-19.5 -18 -19.5 -32c0 -13.333 5.33301 -23.333 16 -30s28.667 -14.334 54 -23.001c20 -7.33301 31.667 -11.666 35 -12.999c28 -11.333 51.333 -22.333 70 -33s35 -26.5 49 -47.5s21 -47.833 21 -80.5c0 -54.667 -19.667 -95.667 -59 -123
s-91.333 -41 -156 -41c-32.667 0 -64.167 3.33301 -94.5 10z" />
    <glyph glyph-name="t" unicode="t" horiz-adv-x="421" 
d="M142.5 21.5c-26.333 24.333 -39.499 58.833 -39.499 103.5v269h-80v121h80v110c47.333 8 94 14 140 18v-128h130v-121h-130v-243c0 -14 4.16699 -24.667 12.5 -32s20.166 -11 35.499 -11c18.667 0 40 4.33301 64 13l31 -106c-42.667 -20 -86.667 -30 -132 -30
c-48 0 -85.167 12.167 -111.5 36.5z" />
    <glyph glyph-name="u" unicode="u" horiz-adv-x="599" 
d="M107 36c-31.333 33.333 -47 78.999 -47 136.999v342h141v-319c0 -27.333 6.66699 -48.5 20 -63.5s31.333 -22.5 54 -22.5s44.5 7.33301 65.5 22s38.5 34.334 52.5 59.001v324h141v-515h-141v68c-19.333 -26 -41.5 -46.167 -66.5 -60.5s-55.167 -21.5 -90.5 -21.5
c-54.667 0 -97.667 16.667 -129 50z" />
    <glyph glyph-name="v" unicode="v" horiz-adv-x="547" 
d="M5 513l154 14l114 -371l109 359h151l-181 -515h-165z" />
    <glyph glyph-name="w" unicode="w" horiz-adv-x="850" 
d="M7 515h144l92 -341l99 338l159 13l107 -361l94 351h134l-157 -515h-154l-106 374l-111 -374h-151z" />
    <glyph glyph-name="x" unicode="x" horiz-adv-x="545" 
d="M271 158l-103 -158h-160l190 266l-172 249l156 8l97 -146l90 138h154l-170 -242l185 -273l-156 -8z" />
    <glyph glyph-name="y" unicode="y" horiz-adv-x="542" 
d="M42 -202l21.001 115.999c25.333 -12.667 46.666 -19 63.999 -19c20.667 0 36.167 6.66699 46.5 20s21.5 36.666 33.5 69.999l-201 528l146 12l123 -369l114 359h139c-42.667 -129.333 -87.5 -256.666 -134.5 -381.999s-83.5 -211.333 -109.5 -258
c-18.667 -33.333 -39.5 -58.166 -62.5 -74.499s-50.833 -24.5 -83.5 -24.5c-30.667 0 -62.667 7.33301 -96 22z" />
    <glyph glyph-name="z" unicode="z" horiz-adv-x="503" 
d="M38 93l247 301h-230v121h402v-92l-246 -302h246v-120h-419v92z" />
    <glyph glyph-name="braceleft" unicode="{" horiz-adv-x="378" 
d="M153 -162v249.002c0 51.333 -8.16699 87.166 -24.5 107.499s-44.166 29.833 -83.499 28.5v132c39.333 -1.33301 67.166 8.16699 83.499 28.5s24.5 56.166 24.5 107.499v249l125 10v-225c0 -49.333 -2.16699 -86.666 -6.5 -111.999s-14 -47.5 -29 -66.5
s-39.167 -38.167 -72.5 -57.5c33.333 -19.333 57.5 -38.5 72.5 -57.5s24.667 -41.333 29 -67s6.5 -62.834 6.5 -111.501v-225z" />
    <glyph glyph-name="bar" unicode="|" horiz-adv-x="490" 
d="M200 725l90 10v-948l-90 -10v948z" />
    <glyph glyph-name="braceright" unicode="}" horiz-adv-x="378" 
d="M100 53c0 48.667 2.16699 85.832 6.5 111.499s14 48 29 67s39.167 38.167 72.5 57.5c-33.333 19.333 -57.5 38.5 -72.5 57.5s-24.667 41.167 -29 66.5s-6.5 62.666 -6.5 111.999v225l125 -10v-249c0 -51.333 8.16699 -87.166 24.5 -107.499s44.166 -29.833 83.499 -28.5
v-132c-39.333 1.33301 -67.166 -8.16699 -83.499 -28.5s-24.5 -56.166 -24.5 -107.499v-249l-125 -10v225z" />
    <glyph glyph-name="asciitilde" unicode="~" horiz-adv-x="658" 
d="M85 287c26 14.667 49.833 25.334 71.5 32.001s42.834 10 63.501 10c18 0 36.333 -2 55 -6s41 -10 67 -18c23.333 -6.66699 43.166 -11.834 59.499 -15.501s31.833 -5.5 46.5 -5.5c18.667 0 38 3.33301 58 10s44 17.667 72 33l-5 -78c-42.667 -27.333 -86 -41 -130 -41
c-19.333 0 -38.333 2 -57 6s-41 10 -67 18s-46.5 13.667 -61.5 17s-30.167 5 -45.5 5c-20 0 -39.5 -3.5 -58.5 -10.5s-43.5 -18.833 -73.5 -35.5z" />
    <glyph glyph-name="exclamdown" unicode="&#xa1;" horiz-adv-x="392" 
d="M127.5 392c-18.333 18.667 -27.5 40.667 -27.5 66s9.16699 47.166 27.5 65.499s40.166 27.5 65.499 27.5s47.166 -9.16699 65.499 -27.5s27.5 -40.166 27.5 -65.499s-9.16699 -47.333 -27.5 -66s-40.166 -28 -65.499 -28s-47.166 9.33301 -65.499 28zM138 291h118
l36 -481l-191 -20z" />
    <glyph glyph-name="cent" unicode="&#xa2;" horiz-adv-x="531" 
d="M135 -199l49.001 204c-48 18 -84.667 47.5 -110 88.5s-38 91.5 -38 151.5c0 56 11 105.5 33 148.5s53 76.333 93 100s86.333 35.5 139 35.5h9l48 201l87 -10l-49 -203c21.333 -6 36.333 -11.333 45 -16l-27 -119c-10 5.33301 -25.667 11 -47 17l-69 -291
c5.33301 -0.666992 13.666 -1 24.999 -1c31.333 0 65 6 101 18l21 -114c-43.333 -17.333 -90 -26 -140 -26c-8.66699 0 -21 0.666992 -37 2l-47 -196zM279.001 403c-32 -7.33301 -57.333 -24.333 -76 -51s-28 -59.667 -28 -99c0 -48 14 -85 42 -111z" />
    <glyph glyph-name="sterling" unicode="&#xa3;" horiz-adv-x="596" 
d="M118 316l-87.998 0.000976562v115h88v114c0 63.333 18.667 112.333 56 147s85.666 52 144.999 52c29.333 0 60.166 -4.33301 92.499 -13s64.5 -21.334 96.5 -38.001l-43 -114c-48.667 26 -91 39 -127 39c-25.333 0 -44.833 -7.5 -58.5 -22.5s-20.5 -37.833 -20.5 -68.5
v-96h173v-115h-173v-195h257v-121h-398v316z" />
    <glyph glyph-name="currency" unicode="&#xa4;" horiz-adv-x="705" 
d="M165 40l-44.001 -43.999l-65 50l52 52c-35.333 50 -53 109.667 -53 179c0 73.333 20 135.666 60 186.999l-52 52l50 65l61 -61c48.667 34 107 51 175 51c70 0 129.667 -18 179 -54l57 56l65 -50l-63 -63c37.333 -50.667 56 -111.667 56 -183c0 -68 -17 -126.667 -51 -176
l46 -46l-49 -65l-53 53c-51.333 -40 -113.666 -60 -186.999 -60c-70.667 0 -132 19 -184 57zM455.999 90.001c31.333 18 55.666 43.333 72.999 76s26 69.667 26 111s-8.66699 78.333 -26 111s-41.666 58 -72.999 76s-67 27 -107 27s-75.667 -9 -107 -27
s-55.666 -43.333 -72.999 -76s-26 -69.667 -26 -111s8.66699 -78.333 26 -111s41.666 -58 72.999 -76s67 -27 107 -27s75.667 9 107 27z" />
    <glyph glyph-name="yen" unicode="&#xa5;" horiz-adv-x="612" 
d="M233 153h-128l10 65h118v55h-128l10 65h83l-188 328h163l135 -263l134 263h160l-189 -328h102l-10 -65h-127v-55h137l-10 -65h-127v-153h-145v153z" />
    <glyph glyph-name="brokenbar" unicode="&#xa6;" horiz-adv-x="490" 
d="M200 725l90 10v-332l-90 -10v332zM200 109l90 10v-332l-90 -10v332z" />
    <glyph glyph-name="section" unicode="&#xa7;" horiz-adv-x="583" 
d="M99 -199l18 127.999c20 -12.667 42.333 -22.834 67 -30.501s47.667 -11.5 69 -11.5c22.667 0 40.667 4.33301 54 13s20 21 20 37c0 18.667 -7.66699 36.334 -23 53.001s-39.666 38 -72.999 64c-34 26.667 -62.167 51 -84.5 73s-41.5 48 -57.5 78s-24 63.667 -24 101
c0 30.667 6.33301 58.334 19 83.001s33 48.334 61 71.001c-14.667 20.667 -25.334 40 -32.001 58s-10 37.333 -10 58c0 54 20.333 96.167 61 126.5s93 45.5 157 45.5c52 0 106.667 -10.667 164 -32l-18 -128c-20 12.667 -42.333 22.667 -67 30s-47.667 11 -69 11
c-22.667 0 -40.667 -4.33301 -54 -13s-20 -21 -20 -37c0 -18 7.5 -35.167 22.5 -51.5s39.167 -37.833 72.5 -64.5c34 -26.667 62.167 -51 84.5 -73s41.5 -48 57.5 -78s24 -63.667 24 -101c0 -31.333 -6.33301 -59.5 -19 -84.5s-33 -48.833 -61 -71.5
c14.667 -20 25.5 -39.167 32.5 -57.5s10.5 -37.833 10.5 -58.5c0 -52.667 -20.167 -94.334 -60.5 -125.001s-92.5 -46 -156.5 -46c-50.667 0 -105.667 11 -165 33zM372 191.999c0 26 -7.83301 49.166 -23.5 69.499s-40.834 45.833 -75.501 76.5c-18.667 16 -33 29 -43 39
c-13.333 -15.333 -20 -34.666 -20 -57.999c0 -25.333 7.83301 -47.833 23.5 -67.5s40.834 -45.167 75.501 -76.5c-1.33301 1.33301 13 -12 43 -40c13.333 16.667 20 35.667 20 57z" />
    <glyph glyph-name="dieresis" unicode="&#xa8;" horiz-adv-x="600" 
d="M24 609c-15.333 15.333 -23.001 34 -23.001 56s8 40.667 24 56s35 23 57 23c21.333 0 39.666 -7.66699 54.999 -23s23 -34 23 -56c0 -21.333 -8.16699 -39.833 -24.5 -55.5s-35.166 -23.5 -56.499 -23.5s-39.666 7.66699 -54.999 23zM254.999 609
c-15.333 15.333 -23 34 -23 56c0 21.333 8.16699 39.833 24.5 55.5s35.166 23.5 56.499 23.5s39.666 -7.66699 54.999 -23s23 -34 23 -56s-7.66699 -40.667 -23 -56s-34.666 -23 -57.999 -23c-21.333 0 -39.666 7.66699 -54.999 23z" />
    <glyph glyph-name="copyright" unicode="&#xa9;" horiz-adv-x="804" 
d="M216.5 19c-54.333 30 -96.5 72.167 -126.5 126.5s-45 116.166 -45 185.499s15 131.166 45 185.499s72.167 96.5 126.5 126.5s116.166 45 185.499 45s131.166 -15 185.499 -45s96.5 -72.167 126.5 -126.5s45 -116.166 45 -185.499s-15 -131.166 -45 -185.499
s-72.167 -96.5 -126.5 -126.5s-116.166 -45 -185.499 -45s-131.166 15 -185.499 45zM545.5 80.5c41.667 24.333 74.167 58.166 97.5 101.499s35 93 35 149s-11.667 105.667 -35 149s-55.833 77.166 -97.5 101.499s-89.5 36.5 -143.5 36.5s-101.833 -12.167 -143.5 -36.5
s-74.167 -58.166 -97.5 -101.499s-35 -93 -35 -149s11.667 -105.667 35 -149s55.833 -77.166 97.5 -101.499s89.5 -36.5 143.5 -36.5s101.833 12.167 143.5 36.5zM270.5 185c-34.333 32.667 -51.501 79.001 -51.501 139.001c0 62 17.833 111.667 53.5 149
s83.167 56 142.5 56c32.667 0 63.334 -5.66699 92.001 -17l-16 -73c-26 11.333 -51 17 -75 17c-34.667 0 -62.167 -11.333 -82.5 -34s-30.5 -53 -30.5 -91c0 -38.667 10.667 -68.834 32 -90.501s51.333 -32.5 90 -32.5c22 0 45.667 3.66699 71 11l12 -68
c-28 -10 -59 -15 -93 -15c-62 0 -110.167 16.333 -144.5 49z" />
    <glyph glyph-name="ordfeminine" unicode="&#xaa;" horiz-adv-x="451" 
d="M100.5 421c-19 26.667 -28.501 63.667 -28.501 111c0 56.667 14.167 100.167 42.5 130.5s68.833 45.5 121.5 45.5c29.333 0 66.333 -4.66699 111 -14v-304h-81l2 35h-2c-10 -14 -22.667 -24.833 -38 -32.5s-31.666 -11.5 -48.999 -11.5c-33.333 0 -59.5 13.333 -78.5 40z
M234.999 469c11.333 9.33301 21.335 22.999 30.002 40.999v119c-14.667 3.33301 -27.334 5 -38.001 5c-24 0 -42.167 -8.16699 -54.5 -24.5s-18.5 -40.166 -18.5 -71.499c0 -26 4.16699 -46.333 12.5 -61s19.833 -22 34.5 -22c11.333 0 22.666 4.66699 33.999 14z
M65.001 320.999h321v-49h-321v49z" />
    <glyph glyph-name="guillemotleft" unicode="&#xab;" horiz-adv-x="729" 
d="M80 277l214 261l93 -69l-126 -192l133 -196l-92 -64zM350 277l214 261l93 -69l-126 -192l133 -196l-92 -64z" />
    <glyph glyph-name="logicalnot" unicode="&#xac;" horiz-adv-x="680" 
d="M485 319h-415l10 75h480v-230l-75 -10v165z" />
    <glyph glyph-name="registered" unicode="&#xae;" horiz-adv-x="804" 
d="M216.5 19c-54.333 30 -96.5 72.167 -126.5 126.5s-45 116.166 -45 185.499s15 131.166 45 185.499s72.167 96.5 126.5 126.5s116.166 45 185.499 45s131.166 -15 185.499 -45s96.5 -72.167 126.5 -126.5s45 -116.166 45 -185.499s-15 -131.166 -45 -185.499
s-72.167 -96.5 -126.5 -126.5s-116.166 -45 -185.499 -45s-131.166 15 -185.499 45zM545.5 80.5c41.667 24.333 74.167 58.166 97.5 101.499s35 93 35 149s-11.667 105.667 -35 149s-55.833 77.166 -97.5 101.499s-89.5 36.5 -143.5 36.5s-101.833 -12.167 -143.5 -36.5
s-74.167 -58.166 -97.5 -101.499s-35 -93 -35 -149s11.667 -105.667 35 -149s55.833 -77.166 97.5 -101.499s89.5 -36.5 143.5 -36.5s101.833 12.167 143.5 36.5zM282 525c11.333 0.666992 32.332 0.999023 62.999 0.999023c32 0 53.667 -0.333008 65 -1
c42.667 -1.33301 74.834 -11.666 96.501 -30.999s32.5 -46 32.5 -80c0 -26.667 -6.83301 -50 -20.5 -70s-33.5 -33 -59.5 -39c10 -6.66699 18.167 -14.667 24.5 -24s17.833 -28 34.5 -56l36 -62l10 -18h-95l-64 120c-6.66699 12.667 -12.667 20.5 -18 23.5s-14 4.5 -26 4.5
v-148h-79v380zM396.999 356.999c19.333 0 34.5 4.83203 45.5 14.499s16.5 22.834 16.5 39.501c0 31.333 -19.333 47 -58 47h-40v-101h36z" />
    <glyph glyph-name="macron" unicode="&#xaf;" horiz-adv-x="600" 
d="M14 687h334l1 -89h-334z" />
    <glyph glyph-name="degree" unicode="&#xb0;" horiz-adv-x="410" 
d="M115 531c-23.333 23.333 -35 53.333 -35 90c0 37.333 11.667 67.5 35 90.5s53.333 34.5 90 34.5c37.333 0 67.5 -11.5 90.5 -34.5s34.5 -53.167 34.5 -90.5c0 -36.667 -11.5 -66.667 -34.5 -90s-53.167 -35 -90.5 -35c-36.667 0 -66.667 11.667 -90 35zM248 576
c11.333 11.333 17 26.333 17 45s-5.66699 33.834 -17 45.501s-25.666 17.5 -42.999 17.5s-31.666 -5.83301 -42.999 -17.5s-17 -26.834 -17 -45.501s5.66699 -33.667 17 -45s25.666 -17 42.999 -17s31.666 5.66699 42.999 17z" />
    <glyph glyph-name="plusminus" unicode="&#xb1;" horiz-adv-x="630" 
d="M279 303h-199l10 75h189v148l75 10v-158h196l-10 -75h-186v-147l-75 -10v157zM90 75h460l-10 -75h-460z" />
    <glyph glyph-name="uni00B2" unicode="&#xb2;" horiz-adv-x="403" 
d="M91 414c59.333 63.333 99.502 108.5 120.502 135.5s31.5 50.167 31.5 69.5c0 12.667 -3.83301 22.5 -11.5 29.5s-17.834 10.5 -30.501 10.5c-22 0 -43.667 -13.667 -65 -41l-56 43c33.333 48.667 76.666 73 129.999 73c32.667 0 59.667 -9.16699 81 -27.5
s32 -43.5 32 -75.5c0 -29.333 -10 -59 -30 -89s-53 -68 -99 -114h129l-7 -72h-225v58z" />
    <glyph glyph-name="uni00B3" unicode="&#xb3;" horiz-adv-x="387" 
d="M64 352l9.99707 69.001c22 -3.33301 40.667 -5 56 -5c30 0 53.667 6.16699 71 18.5s26 28.833 26 49.5c0 13.333 -3.66699 23.666 -11 30.999s-17.666 11 -30.999 11c-8.66699 0 -18.667 -2 -30 -6l-11 53c18 6 34.167 15.333 48.5 28s21.5 25.667 21.5 39
c0 8 -3 14.5 -9 19.5s-14.333 7.5 -25 7.5c-10 0 -20.667 -2.83301 -32 -8.5s-21.666 -13.834 -30.999 -24.501l-47 51c16 15.333 34 27.333 54 36s41 13 63 13c30.667 0 55.5 -8 74.5 -24s28.5 -36 28.5 -60c0 -27.333 -12 -52 -36 -74
c17.333 -8.66699 30.5 -20.5 39.5 -35.5s13.5 -32.5 13.5 -52.5c0 -26.667 -7.66699 -50.667 -23 -72s-37.166 -38.166 -65.499 -50.499s-60.5 -18.5 -96.5 -18.5c-16.667 0 -36 1.66699 -58 5z" />
    <glyph glyph-name="acute" unicode="&#xb4;" horiz-adv-x="600" 
d="M67 619c26 20.667 46.333 42.667 61 66l-26 53c0 18 6.66699 34 20 48s30 21 50 21c20.667 0 38 -7.16699 52 -21.5s21 -32.5 21 -54.5c0 -34 -15.667 -64.667 -47 -92s-69 -47 -113 -59z" />
    <glyph glyph-name="uni00B5" unicode="&#xb5;" horiz-adv-x="609" 
d="M80 -218l0.000976562 732.999h141v-319c0 -27.333 6.66699 -48.5 20 -63.5s31.333 -22.5 54 -22.5s44.5 7.33301 65.5 22s38.5 34.334 52.5 59.001v324h141v-515h-141v68c-19.333 -26 -41.5 -46.167 -66.5 -60.5s-55.167 -21.5 -90.5 -21.5
c-12.667 0 -24.334 1 -35.001 3v-208z" />
    <glyph glyph-name="paragraph" unicode="&#xb6;" horiz-adv-x="628" 
d="M209 374c-30 2.66699 -57.501 12.333 -82.501 29s-44.833 38 -59.5 64s-22 54 -22 84c0 32 8 61.833 24 89.5s37.833 49.5 65.5 65.5s57.834 24 90.501 24h343v-105h-58v-749h-108v749h-86v-749h-107v498z" />
    <glyph glyph-name="periodcentered" unicode="&#xb7;" horiz-adv-x="306" 
d="M83.5 214.5c-19 19 -28.5 41.833 -28.5 68.5s9.5 49.334 28.5 68.001s41.833 28 68.5 28s49.5 -9.33301 68.5 -28s28.5 -41.334 28.5 -68.001s-9.5 -49.5 -28.5 -68.5s-41.833 -28.5 -68.5 -28.5s-49.5 9.5 -68.5 28.5z" />
    <glyph glyph-name="cedilla" unicode="&#xb8;" horiz-adv-x="600" 
d="M50 -230.5c-23.333 8.33301 -42.667 19.165 -58 32.498l30 43c14 -10 28.833 -17.833 44.5 -23.5s29.5 -8.5 41.5 -8.5c24 0 36 10.333 36 31c0 21.333 -25 31.333 -75 30l-21 14l46 134l72 -5l-32 -73c32 -5.33301 57.667 -16.166 77 -32.499s29 -37.166 29 -62.499
c0 -26.667 -11.667 -48.667 -35 -66s-51.333 -26 -84 -26c-24 0 -47.667 4.16699 -71 12.5z" />
    <glyph glyph-name="uni00B9" unicode="&#xb9;" horiz-adv-x="382" 
d="M96 424h59v202l-55 27v27l89 50h41v-306h62l-5 -68h-196z" />
    <glyph glyph-name="ordmasculine" unicode="&#xba;" horiz-adv-x="451" 
d="M110.5 426c-29 30 -43.499 69.667 -43.499 119c0 48.667 14.5 88 43.5 118s66.833 45 113.5 45c47.333 0 85.333 -14.833 114 -44.5s43 -68.834 43 -117.501c0 -49.333 -14.333 -89.166 -43 -119.499s-66.334 -45.5 -113.001 -45.5c-47.333 0 -85.5 15 -114.5 45z
M276.001 479c13.333 16.667 20 38.667 20 66c0 26.667 -6.66699 48.334 -20 65.001s-30.666 25 -51.999 25s-38.666 -8.33301 -51.999 -25s-20 -38.334 -20 -65.001c0 -27.333 6.66699 -49.333 20 -66s30.666 -25 51.999 -25s38.666 8.33301 51.999 25zM65.001 321h321v-49
h-321v49z" />
    <glyph glyph-name="guillemotright" unicode="&#xbb;" horiz-adv-x="729" 
d="M65 81l133 196l-126 192l93 69l214 -261l-222 -260zM335 81l133 196l-126 192l93 69l214 -261l-222 -260z" />
    <glyph glyph-name="onequarter" unicode="&#xbc;" horiz-adv-x="890" 
d="M191 -1l451 672l68 -8l-452 -673zM97 362h59v202l-55 27v27l89 50h41v-306h62l-5 -68h-196zM683 86h-161l-6 57l167 230h73v-225h44l-7 -62h-37v-86h-73v86zM683 148v128l-86 -128h86z" />
    <glyph glyph-name="onehalf" unicode="&#xbd;" horiz-adv-x="914" 
d="M190 -1l451 672l68 -8l-452 -673zM96 362h59v202l-55 27v27l89 50h41v-306h62l-5 -68h-196zM592 58c59.333 63.333 99.502 108.5 120.502 135.5s31.5 50.167 31.5 69.5c0 12.667 -3.83301 22.5 -11.5 29.5s-17.834 10.5 -30.501 10.5c-22 0 -43.667 -13.667 -65 -41
l-56 43c33.333 48.667 76.666 73 129.999 73c32.667 0 59.667 -9.16699 81 -27.5s32 -43.5 32 -75.5c0 -29.333 -10 -59 -30 -89s-53 -68 -99 -114h129l-7 -72h-225v58z" />
    <glyph glyph-name="threequarters" unicode="&#xbe;" horiz-adv-x="908" 
d="M91 292l9.99707 69.001c22 -3.33301 40.667 -5 56 -5c30 0 53.667 6.16699 71 18.5s26 28.833 26 49.5c0 13.333 -3.66699 23.666 -11 30.999s-17.666 11 -30.999 11c-8.66699 0 -18.667 -2 -30 -6l-11 53c18 6 34.167 15.333 48.5 28s21.5 25.667 21.5 39
c0 8 -3 14.5 -9 19.5s-14.333 7.5 -25 7.5c-10 0 -20.667 -2.83301 -32 -8.5s-21.666 -13.834 -30.999 -24.501l-47 51c16 15.333 34 27.333 54 36s41 13 63 13c30.667 0 55.5 -8 74.5 -24s28.5 -36 28.5 -60c0 -27.333 -12 -52 -36 -74
c17.333 -8.66699 30.5 -20.5 39.5 -35.5s13.5 -32.5 13.5 -52.5c0 -26.667 -7.66699 -50.667 -23 -72s-37.166 -38.166 -65.499 -50.499s-60.5 -18.5 -96.5 -18.5c-16.667 0 -36 1.66699 -58 5zM208.997 -0.999023l451 672l68 -8l-452 -673zM700.997 86.001h-161l-6 57
l167 230h73v-225h44l-7 -62h-37v-86h-73v86zM700.997 148.001v128l-86 -128h86z" />
    <glyph glyph-name="questiondown" unicode="&#xbf;" horiz-adv-x="517" 
d="M228.5 385c-18.333 18.667 -27.5 41 -27.5 67c0 25.333 9.16699 47.333 27.5 66s40.5 28 66.5 28c25.333 0 47.333 -9.33301 66 -28s28 -41 28 -67c0 -25.333 -9.16699 -47.333 -27.5 -66s-40.5 -28 -66.5 -28s-48.167 9.33301 -66.5 28zM114 -169
c-36 30 -53.999 70.332 -53.999 120.999c0 35.333 8.33301 66.166 25 92.499s41.334 56.166 74.001 89.499l25 25c24 24.667 39.5 41.667 46.5 51s10.833 20.333 11.5 33l2 38l101 9c5.33301 -32 8 -56.333 8 -73c0 -26 -3.66699 -46.833 -11 -62.5s-19.333 -32.5 -36 -50.5
l-46 -44c-23.333 -21.333 -40 -38.666 -50 -51.999s-15 -28.666 -15 -45.999c0 -18 5.83301 -32.5 17.5 -43.5s27.5 -16.5 47.5 -16.5c21.333 0 40.833 6.83301 58.5 20.5s29.167 34.834 34.5 63.501c45.333 -9.33301 90 -21.333 134 -36
c-12.667 -47.333 -39.834 -86.5 -81.501 -117.5s-91.834 -46.5 -150.501 -46.5c-58 0 -105 15 -141 45z" />
    <glyph glyph-name="Agrave" unicode="&#xc0;" horiz-adv-x="679" 
d="M251 666h174l247 -666h-150l-54 152h-262l-51 -152h-148zM425 276l-90 255l-87 -255h177zM291 752.5c-14 14.333 -21 32.5 -21 54.5c0 34 15.667 64.667 47 92s69 47 113 59l18 -39c-26 -20.667 -46.333 -42.667 -61 -66l26 -53c0 -18 -6.66699 -34 -20 -48
s-30 -21 -50 -21c-20.667 0 -38 7.16699 -52 21.5z" />
    <glyph glyph-name="Aacute" unicode="&#xc1;" horiz-adv-x="679" 
d="M251 666h174l247 -666h-150l-54 152h-262l-51 -152h-148zM425 276l-90 255l-87 -255h177zM309 770c26 20.667 46.333 42.667 61 66l-26 53c0 18 6.66699 34 20 48s30 21 50 21c20.667 0 38 -7.16699 52 -21.5s21 -32.5 21 -54.5c0 -34 -15.667 -64.667 -47 -92
s-69 -47 -113 -59z" />
    <glyph glyph-name="Acircumflex" unicode="&#xc2;" horiz-adv-x="679" 
d="M251 666h174l247 -666h-150l-54 152h-262l-51 -152h-148zM425 276l-90 255l-87 -255h177zM172 800l168 132l168 -132l-44 -69l-124 67l-124 -67z" />
    <glyph glyph-name="Atilde" unicode="&#xc3;" horiz-adv-x="679" 
d="M251 666h174l247 -666h-150l-54 152h-262l-51 -152h-148zM425 276l-90 255l-87 -255h177zM368 741.5c-14.667 6.33301 -32 15.5 -52 27.5c-14.667 8.66699 -26.5 15.167 -35.5 19.5s-17.833 6.5 -26.5 6.5c-10.667 0 -20.667 -4.66699 -30 -14s-18 -25 -26 -47l-54 41
c10.667 41.333 26.834 72.166 48.501 92.499s46.834 30.5 75.501 30.5c17.333 0 33.333 -3.16699 48 -9.5s32 -15.5 52 -27.5c14.667 -8.66699 26.5 -15.167 35.5 -19.5s17.833 -6.5 26.5 -6.5c10.667 0 20.667 4.66699 30 14s18 25 26 47l54 -41
c-10.667 -41.333 -26.834 -72.166 -48.501 -92.499s-46.834 -30.5 -75.501 -30.5c-17.333 0 -33.333 3.16699 -48 9.5z" />
    <glyph glyph-name="Adieresis" unicode="&#xc4;" horiz-adv-x="679" 
d="M251 666h174l247 -666h-150l-54 152h-262l-51 -152h-148zM425 276l-90 255l-87 -255h177zM168 760c-15.333 15.333 -23.001 34 -23.001 56s8 40.667 24 56s35 23 57 23c21.333 0 39.666 -7.66699 54.999 -23s23 -34 23 -56c0 -21.333 -8.16699 -39.833 -24.5 -55.5
s-35.166 -23.5 -56.499 -23.5s-39.666 7.66699 -54.999 23zM398.999 760c-15.333 15.333 -23 34 -23 56c0 21.333 8.16699 39.833 24.5 55.5s35.166 23.5 56.499 23.5s39.666 -7.66699 54.999 -23s23 -34 23 -56s-7.66699 -40.667 -23 -56s-34.666 -23 -57.999 -23
c-21.333 0 -39.666 7.66699 -54.999 23z" />
    <glyph glyph-name="Aring" unicode="&#xc5;" horiz-adv-x="679" 
d="M251 666h174l247 -666h-150l-54 152h-262l-51 -152h-148zM425 276l-90 255l-87 -255h177zM248.5 761c-25 24 -37.5 53.667 -37.5 89s12.5 65 37.5 89s55.5 36 91.5 36s66.5 -12 91.5 -36s37.5 -53.667 37.5 -89s-12.5 -65 -37.5 -89s-55.5 -36 -91.5 -36
s-66.5 12 -91.5 36zM376 812c9.33301 10.667 14 23.334 14 38.001s-4.66699 27.334 -14 38.001s-21.333 16 -36 16s-26.667 -5.33301 -36 -16s-14 -23.334 -14 -38.001s4.66699 -27.334 14 -38.001s21.333 -16 36 -16s26.667 5.33301 36 16z" />
    <glyph glyph-name="AE" unicode="&#xc6;" horiz-adv-x="893" 
d="M328 666h510v-126h-262v-133h217v-122h-217v-159h262v-126h-405v152h-211l-74 -152h-148zM433 276v272h-18l-132 -272h150z" />
    <glyph glyph-name="Ccedilla" unicode="&#xc7;" horiz-adv-x="594" 
d="M433 -88.5c19.333 -16.333 29 -37.1689 29 -62.502c0 -26.667 -11.667 -48.667 -35 -66s-51.333 -26 -84 -26c-24 0 -47.667 4.16699 -71 12.5s-42.666 19.166 -57.999 32.499l30 43c14 -10 28.833 -17.833 44.5 -23.5s29.5 -8.5 41.5 -8.5c24 0 36 10.333 36 31
c0 21.333 -25 31.333 -75 30l-21 14l36 104c-84 13.333 -149.167 47.833 -195.5 103.5s-69.5 129.167 -69.5 220.5c0 71.333 14.167 134.333 42.5 189s68.5 96.834 120.5 126.501s112 44.5 180 44.5c55.333 0 108.666 -10 159.999 -30l-27 -129
c-45.333 20.667 -89.333 31 -132 31c-60.667 0 -108.667 -19.833 -144 -59.5s-53 -92.5 -53 -158.5c0 -67.333 18.667 -119.666 56 -156.999s89 -56 155 -56c43.333 0 85.333 7 126 21l22 -123c-48.667 -18.667 -104 -28 -166 -28h-6l-19 -43
c32 -5.33301 57.667 -16.166 77 -32.499z" />
    <glyph glyph-name="Egrave" unicode="&#xc8;" horiz-adv-x="530" 
d="M70 666h405v-126h-262v-133h217v-122h-217v-159h262v-126h-405v666zM226 752.5c-14 14.333 -21 32.5 -21 54.5c0 34 15.667 64.667 47 92s69 47 113 59l18 -39c-26 -20.667 -46.333 -42.667 -61 -66l26 -53c0 -18 -6.66699 -34 -20 -48s-30 -21 -50 -21
c-20.667 0 -38 7.16699 -52 21.5z" />
    <glyph glyph-name="Eacute" unicode="&#xc9;" horiz-adv-x="530" 
d="M70 666h405v-126h-262v-133h217v-122h-217v-159h262v-126h-405v666zM244 770c26 20.667 46.333 42.667 61 66l-26 53c0 18 6.66699 34 20 48s30 21 50 21c20.667 0 38 -7.16699 52 -21.5s21 -32.5 21 -54.5c0 -34 -15.667 -64.667 -47 -92s-69 -47 -113 -59z" />
    <glyph glyph-name="Ecircumflex" unicode="&#xca;" horiz-adv-x="530" 
d="M70 666h405v-126h-262v-133h217v-122h-217v-159h262v-126h-405v666zM107 800l168 132l168 -132l-44 -69l-124 67l-124 -67z" />
    <glyph glyph-name="Edieresis" unicode="&#xcb;" horiz-adv-x="530" 
d="M70 666h405v-126h-262v-133h217v-122h-217v-159h262v-126h-405v666zM103 760c-15.333 15.333 -23.001 34 -23.001 56s8 40.667 24 56s35 23 57 23c21.333 0 39.666 -7.66699 54.999 -23s23 -34 23 -56c0 -21.333 -8.16699 -39.833 -24.5 -55.5
s-35.166 -23.5 -56.499 -23.5s-39.666 7.66699 -54.999 23zM333.999 760c-15.333 15.333 -23 34 -23 56c0 21.333 8.16699 39.833 24.5 55.5s35.166 23.5 56.499 23.5s39.666 -7.66699 54.999 -23s23 -34 23 -56s-7.66699 -40.667 -23 -56s-34.666 -23 -57.999 -23
c-21.333 0 -39.666 7.66699 -54.999 23z" />
    <glyph glyph-name="Igrave" unicode="&#xcc;" horiz-adv-x="301" 
d="M78 666h145v-666h-145v666zM102 752.5c-14 14.333 -21 32.5 -21 54.5c0 34 15.667 64.667 47 92s69 47 113 59l18 -39c-26 -20.667 -46.333 -42.667 -61 -66l26 -53c0 -18 -6.66699 -34 -20 -48s-30 -21 -50 -21c-20.667 0 -38 7.16699 -52 21.5z" />
    <glyph glyph-name="Iacute" unicode="&#xcd;" horiz-adv-x="301" 
d="M78 666h145v-666h-145v666zM120 770c26 20.667 46.333 42.667 61 66l-26 53c0 18 6.66699 34 20 48s30 21 50 21c20.667 0 38 -7.16699 52 -21.5s21 -32.5 21 -54.5c0 -34 -15.667 -64.667 -47 -92s-69 -47 -113 -59z" />
    <glyph glyph-name="Icircumflex" unicode="&#xce;" horiz-adv-x="301" 
d="M78 666h145v-666h-145v666zM-17 800l168 132l168 -132l-44 -69l-124 67l-124 -67z" />
    <glyph glyph-name="Idieresis" unicode="&#xcf;" horiz-adv-x="301" 
d="M78 666h145v-666h-145v666zM-21 760c-15.333 15.333 -23.001 34 -23.001 56s8 40.667 24 56s35 23 57 23c21.333 0 39.666 -7.66699 54.999 -23s23 -34 23 -56c0 -21.333 -8.16699 -39.833 -24.5 -55.5s-35.166 -23.5 -56.499 -23.5s-39.666 7.66699 -54.999 23z
M209.999 760c-15.333 15.333 -23 34 -23 56c0 21.333 8.16699 39.833 24.5 55.5s35.166 23.5 56.499 23.5s39.666 -7.66699 54.999 -23s23 -34 23 -56s-7.66699 -40.667 -23 -56s-34.666 -23 -57.999 -23c-21.333 0 -39.666 7.66699 -54.999 23z" />
    <glyph glyph-name="Eth" unicode="&#xd0;" horiz-adv-x="685" 
d="M493.5 626.5c48.333 -25.667 85.667 -62.167 112 -109.5s39.5 -102.666 39.5 -165.999c0 -69.333 -15.167 -130.333 -45.5 -183s-73 -93.667 -128 -123s-118.833 -44.333 -191.5 -45c-23.333 -0.666992 -58.333 -1 -105 -1c-47.333 0 -82.666 0.333008 -105.999 1v282
h-92l10 85h82v299c28.667 0.666992 71 1 127 1c56.667 0 99 -0.333008 127 -1c65.333 -0.666992 122.166 -13.834 170.499 -39.501zM438.001 185c38.667 39.333 58 93.333 58 162c0 62 -16.5 109.667 -49.5 143s-80.5 50 -142.5 50h-90v-173h131l-10 -85h-121v-156h65
c67.333 0 120.333 19.667 159 59z" />
    <glyph glyph-name="Ntilde" unicode="&#xd1;" horiz-adv-x="719" 
d="M70 666h170l276 -467v467h133v-666h-168l-278 470v-470h-133v666zM388 741.5c-14.667 6.33301 -32 15.5 -52 27.5c-14.667 8.66699 -26.5 15.167 -35.5 19.5s-17.833 6.5 -26.5 6.5c-10.667 0 -20.667 -4.66699 -30 -14s-18 -25 -26 -47l-54 41
c10.667 41.333 26.834 72.166 48.501 92.499s46.834 30.5 75.501 30.5c17.333 0 33.333 -3.16699 48 -9.5s32 -15.5 52 -27.5c14.667 -8.66699 26.5 -15.167 35.5 -19.5s17.833 -6.5 26.5 -6.5c10.667 0 20.667 4.66699 30 14s18 25 26 47l54 -41
c-10.667 -41.333 -26.834 -72.166 -48.501 -92.499s-46.834 -30.5 -75.501 -30.5c-17.333 0 -33.333 3.16699 -48 9.5z" />
    <glyph glyph-name="Ograve" unicode="&#xd2;" horiz-adv-x="741" 
d="M198 30c-50 28.667 -88.833 68.998 -116.5 120.998s-41.5 111.667 -41.5 179c0 68 13.667 128 41 180s66 92.333 116 121s108 43 174 43c65.333 0 123 -14.167 173 -42.5s88.667 -68.166 116 -119.499s41 -110.666 41 -177.999c0 -68.667 -13.667 -129.167 -41 -181.5
s-66 -93 -116 -122s-107.667 -43.5 -173 -43.5s-123 14.333 -173 43zM502.5 172.998c33 39.333 49.5 91.668 49.5 157.001c0 42.667 -7.5 80.5 -22.5 113.5s-36.333 58.333 -64 76s-59.167 26.5 -94.5 26.5s-66.833 -8.83301 -94.5 -26.5s-49 -43 -64 -76
s-22.5 -70.833 -22.5 -113.5s7.5 -80.334 22.5 -113.001s36.167 -58 63.5 -76s59 -27 95 -27c54.667 0 98.5 19.667 131.5 59zM322 752.5c-14 14.333 -21 32.5 -21 54.5c0 34 15.667 64.667 47 92s69 47 113 59l18 -39c-26 -20.667 -46.333 -42.667 -61 -66l26 -53
c0 -18 -6.66699 -34 -20 -48s-30 -21 -50 -21c-20.667 0 -38 7.16699 -52 21.5z" />
    <glyph glyph-name="Oacute" unicode="&#xd3;" horiz-adv-x="741" 
d="M198 30c-50 28.667 -88.833 68.998 -116.5 120.998s-41.5 111.667 -41.5 179c0 68 13.667 128 41 180s66 92.333 116 121s108 43 174 43c65.333 0 123 -14.167 173 -42.5s88.667 -68.166 116 -119.499s41 -110.666 41 -177.999c0 -68.667 -13.667 -129.167 -41 -181.5
s-66 -93 -116 -122s-107.667 -43.5 -173 -43.5s-123 14.333 -173 43zM502.5 172.998c33 39.333 49.5 91.668 49.5 157.001c0 42.667 -7.5 80.5 -22.5 113.5s-36.333 58.333 -64 76s-59.167 26.5 -94.5 26.5s-66.833 -8.83301 -94.5 -26.5s-49 -43 -64 -76
s-22.5 -70.833 -22.5 -113.5s7.5 -80.334 22.5 -113.001s36.167 -58 63.5 -76s59 -27 95 -27c54.667 0 98.5 19.667 131.5 59zM340 770c26 20.667 46.333 42.667 61 66l-26 53c0 18 6.66699 34 20 48s30 21 50 21c20.667 0 38 -7.16699 52 -21.5s21 -32.5 21 -54.5
c0 -34 -15.667 -64.667 -47 -92s-69 -47 -113 -59z" />
    <glyph glyph-name="Ocircumflex" unicode="&#xd4;" horiz-adv-x="741" 
d="M198 30c-50 28.667 -88.833 68.998 -116.5 120.998s-41.5 111.667 -41.5 179c0 68 13.667 128 41 180s66 92.333 116 121s108 43 174 43c65.333 0 123 -14.167 173 -42.5s88.667 -68.166 116 -119.499s41 -110.666 41 -177.999c0 -68.667 -13.667 -129.167 -41 -181.5
s-66 -93 -116 -122s-107.667 -43.5 -173 -43.5s-123 14.333 -173 43zM502.5 172.998c33 39.333 49.5 91.668 49.5 157.001c0 42.667 -7.5 80.5 -22.5 113.5s-36.333 58.333 -64 76s-59.167 26.5 -94.5 26.5s-66.833 -8.83301 -94.5 -26.5s-49 -43 -64 -76
s-22.5 -70.833 -22.5 -113.5s7.5 -80.334 22.5 -113.001s36.167 -58 63.5 -76s59 -27 95 -27c54.667 0 98.5 19.667 131.5 59zM203 800l168 132l168 -132l-44 -69l-124 67l-124 -67z" />
    <glyph glyph-name="Otilde" unicode="&#xd5;" horiz-adv-x="741" 
d="M198 30c-50 28.667 -88.833 68.998 -116.5 120.998s-41.5 111.667 -41.5 179c0 68 13.667 128 41 180s66 92.333 116 121s108 43 174 43c65.333 0 123 -14.167 173 -42.5s88.667 -68.166 116 -119.499s41 -110.666 41 -177.999c0 -68.667 -13.667 -129.167 -41 -181.5
s-66 -93 -116 -122s-107.667 -43.5 -173 -43.5s-123 14.333 -173 43zM502.5 172.998c33 39.333 49.5 91.668 49.5 157.001c0 42.667 -7.5 80.5 -22.5 113.5s-36.333 58.333 -64 76s-59.167 26.5 -94.5 26.5s-66.833 -8.83301 -94.5 -26.5s-49 -43 -64 -76
s-22.5 -70.833 -22.5 -113.5s7.5 -80.334 22.5 -113.001s36.167 -58 63.5 -76s59 -27 95 -27c54.667 0 98.5 19.667 131.5 59zM399 741.5c-14.667 6.33301 -32 15.5 -52 27.5c-14.667 8.66699 -26.5 15.167 -35.5 19.5s-17.833 6.5 -26.5 6.5
c-10.667 0 -20.667 -4.66699 -30 -14s-18 -25 -26 -47l-54 41c10.667 41.333 26.834 72.166 48.501 92.499s46.834 30.5 75.501 30.5c17.333 0 33.333 -3.16699 48 -9.5s32 -15.5 52 -27.5c14.667 -8.66699 26.5 -15.167 35.5 -19.5s17.833 -6.5 26.5 -6.5
c10.667 0 20.667 4.66699 30 14s18 25 26 47l54 -41c-10.667 -41.333 -26.834 -72.166 -48.501 -92.499s-46.834 -30.5 -75.501 -30.5c-17.333 0 -33.333 3.16699 -48 9.5z" />
    <glyph glyph-name="Odieresis" unicode="&#xd6;" horiz-adv-x="741" 
d="M198 30c-50 28.667 -88.833 68.998 -116.5 120.998s-41.5 111.667 -41.5 179c0 68 13.667 128 41 180s66 92.333 116 121s108 43 174 43c65.333 0 123 -14.167 173 -42.5s88.667 -68.166 116 -119.499s41 -110.666 41 -177.999c0 -68.667 -13.667 -129.167 -41 -181.5
s-66 -93 -116 -122s-107.667 -43.5 -173 -43.5s-123 14.333 -173 43zM502.5 172.998c33 39.333 49.5 91.668 49.5 157.001c0 42.667 -7.5 80.5 -22.5 113.5s-36.333 58.333 -64 76s-59.167 26.5 -94.5 26.5s-66.833 -8.83301 -94.5 -26.5s-49 -43 -64 -76
s-22.5 -70.833 -22.5 -113.5s7.5 -80.334 22.5 -113.001s36.167 -58 63.5 -76s59 -27 95 -27c54.667 0 98.5 19.667 131.5 59zM199 760c-15.333 15.333 -23.001 34 -23.001 56s8 40.667 24 56s35 23 57 23c21.333 0 39.666 -7.66699 54.999 -23s23 -34 23 -56
c0 -21.333 -8.16699 -39.833 -24.5 -55.5s-35.166 -23.5 -56.499 -23.5s-39.666 7.66699 -54.999 23zM429.999 760c-15.333 15.333 -23 34 -23 56c0 21.333 8.16699 39.833 24.5 55.5s35.166 23.5 56.499 23.5s39.666 -7.66699 54.999 -23s23 -34 23 -56
s-7.66699 -40.667 -23 -56s-34.666 -23 -57.999 -23c-21.333 0 -39.666 7.66699 -54.999 23z" />
    <glyph glyph-name="multiply" unicode="&#xd7;" horiz-adv-x="510" 
d="M255 197l-140 -140l-60 46l147 147l-141 140l46 60l148 -147l140 140l60 -46l-147 -147l138 -139l-46 -60z" />
    <glyph glyph-name="Oslash" unicode="&#xd8;" horiz-adv-x="741" 
d="M651 527c33.333 -55.333 50 -119.667 50 -193c0 -68.667 -13.667 -129.167 -41 -181.5s-66 -93 -116 -122s-107.667 -43.5 -173 -43.5c-40.667 0 -78.667 5.66699 -114 17s-67 28 -95 50l-92 -90l-29 125l49 47c-33.333 56 -50 120.667 -50 194c0 68 13.667 128 41 180
s66 92.333 116 121s108 43 174 43c81.333 0 150.333 -21.667 207 -65l94 91l29 -125zM202 244.999l275 266c-29.333 23.333 -65.333 35 -108 35c-35.333 0 -66.5 -9 -93.5 -27s-48 -43.333 -63 -76s-22.5 -70.334 -22.5 -113.001c0 -31.333 4 -59.666 12 -84.999z
M539 417.999l-276 -266.999c30 -24.667 66 -37 108 -37c54.667 0 98.5 19.667 131.5 59s49.5 91.666 49.5 156.999c0 30.667 -4.33301 60 -13 88z" />
    <glyph glyph-name="Ugrave" unicode="&#xd9;" horiz-adv-x="696" 
d="M202 22c-42 23.333 -74.501 56.166 -97.501 98.499s-34.5 91.166 -34.5 146.499v399h146v-388c0 -49.333 11.833 -88.5 35.5 -117.5s55.834 -43.5 96.501 -43.5s73 14.5 97 43.5s36 68.167 36 117.5v388h145v-399c0 -55.333 -11.5 -104.166 -34.5 -146.499
s-55.5 -75.166 -97.5 -98.499s-90.667 -35 -146 -35s-104 11.667 -146 35zM298.999 752.5c-14 14.333 -21 32.5 -21 54.5c0 34 15.667 64.667 47 92s69 47 113 59l18 -39c-26 -20.667 -46.333 -42.667 -61 -66l26 -53c0 -18 -6.66699 -34 -20 -48s-30 -21 -50 -21
c-20.667 0 -38 7.16699 -52 21.5z" />
    <glyph glyph-name="Uacute" unicode="&#xda;" horiz-adv-x="696" 
d="M202 22c-42 23.333 -74.501 56.166 -97.501 98.499s-34.5 91.166 -34.5 146.499v399h146v-388c0 -49.333 11.833 -88.5 35.5 -117.5s55.834 -43.5 96.501 -43.5s73 14.5 97 43.5s36 68.167 36 117.5v388h145v-399c0 -55.333 -11.5 -104.166 -34.5 -146.499
s-55.5 -75.166 -97.5 -98.499s-90.667 -35 -146 -35s-104 11.667 -146 35zM316.999 770c26 20.667 46.333 42.667 61 66l-26 53c0 18 6.66699 34 20 48s30 21 50 21c20.667 0 38 -7.16699 52 -21.5s21 -32.5 21 -54.5c0 -34 -15.667 -64.667 -47 -92s-69 -47 -113 -59z" />
    <glyph glyph-name="Ucircumflex" unicode="&#xdb;" horiz-adv-x="696" 
d="M202 22c-42 23.333 -74.501 56.166 -97.501 98.499s-34.5 91.166 -34.5 146.499v399h146v-388c0 -49.333 11.833 -88.5 35.5 -117.5s55.834 -43.5 96.501 -43.5s73 14.5 97 43.5s36 68.167 36 117.5v388h145v-399c0 -55.333 -11.5 -104.166 -34.5 -146.499
s-55.5 -75.166 -97.5 -98.499s-90.667 -35 -146 -35s-104 11.667 -146 35zM179.999 800l168 132l168 -132l-44 -69l-124 67l-124 -67z" />
    <glyph glyph-name="Udieresis" unicode="&#xdc;" horiz-adv-x="696" 
d="M202 22c-42 23.333 -74.501 56.166 -97.501 98.499s-34.5 91.166 -34.5 146.499v399h146v-388c0 -49.333 11.833 -88.5 35.5 -117.5s55.834 -43.5 96.501 -43.5s73 14.5 97 43.5s36 68.167 36 117.5v388h145v-399c0 -55.333 -11.5 -104.166 -34.5 -146.499
s-55.5 -75.166 -97.5 -98.499s-90.667 -35 -146 -35s-104 11.667 -146 35zM175.999 760c-15.333 15.333 -23.001 34 -23.001 56s8 40.667 24 56s35 23 57 23c21.333 0 39.666 -7.66699 54.999 -23s23 -34 23 -56c0 -21.333 -8.16699 -39.833 -24.5 -55.5
s-35.166 -23.5 -56.499 -23.5s-39.666 7.66699 -54.999 23zM406.998 760c-15.333 15.333 -23 34 -23 56c0 21.333 8.16699 39.833 24.5 55.5s35.166 23.5 56.499 23.5s39.666 -7.66699 54.999 -23s23 -34 23 -56s-7.66699 -40.667 -23 -56s-34.666 -23 -57.999 -23
c-21.333 0 -39.666 7.66699 -54.999 23z" />
    <glyph glyph-name="Yacute" unicode="&#xdd;" horiz-adv-x="607" 
d="M228 277l-223 389h163l135 -263l134 263h160l-224 -389v-277h-145v277zM270 770c26 20.667 46.333 42.667 61 66l-26 53c0 18 6.66699 34 20 48s30 21 50 21c20.667 0 38 -7.16699 52 -21.5s21 -32.5 21 -54.5c0 -34 -15.667 -64.667 -47 -92s-69 -47 -113 -59z" />
    <glyph glyph-name="Thorn" unicode="&#xde;" horiz-adv-x="557" 
d="M70 666l139 -0.000976562v-124h77c70.667 0 126 -17.667 166 -53s60 -84.666 60 -147.999c0 -68 -22.167 -122.167 -66.5 -162.5s-103.5 -61.833 -177.5 -64.5l-59 -2v-112h-139v666zM253 231.999c36.667 0 65.667 9.33301 87 28s32 44 32 76c0 28.667 -9 50.667 -27 66
s-44 23 -78 23h-58v-193h44z" />
    <glyph glyph-name="germandbls" unicode="&#xdf;" horiz-adv-x="580" 
d="M65 500c0 75.333 21.0029 135.165 63.0029 179.498s99 66.5 171 66.5c58.667 0 106.834 -14.833 144.501 -44.5s56.5 -69.834 56.5 -120.501c0 -32.667 -6.83301 -60.167 -20.5 -82.5s-31.834 -44.833 -54.501 -67.5c-11.333 -11.333 -19.5 -20.333 -24.5 -27
s-7.5 -13 -7.5 -19c0 -7.33301 3.66699 -14.666 11 -21.999s19.666 -17.333 36.999 -30c23.333 -18 42.5 -34 57.5 -48s28.167 -32.333 39.5 -55s17 -48.667 17 -78c0 -50 -16 -90 -48 -120s-74 -45 -126 -45c-36.667 0 -78.334 9 -125.001 27l49 109
c21.333 -11.333 41.666 -17 60.999 -17c14.667 0 26.167 3.66699 34.5 11s12.5 17.333 12.5 30c0 14 -4.5 26.167 -13.5 36.5s-23.167 23.166 -42.5 38.499c-26.667 21.333 -47.167 41.333 -61.5 60s-21.5 42.334 -21.5 71.001c0 21.333 4 41.5 12 60.5
s19.667 41.167 35 66.5c12.667 22 22 39.333 28 52s9 25.334 9 38.001c0 16.667 -5.5 30.334 -16.5 41.001s-26.5 16 -46.5 16c-27.333 0 -49 -9.5 -65 -28.5s-24 -44.5 -24 -76.5v-740h-141v718z" />
    <glyph glyph-name="agrave" unicode="&#xe0;" horiz-adv-x="557" 
d="M87 53c-31.333 45.333 -47.001 106.999 -47.001 184.999c0 94.667 24 166.834 72 216.501s117 74.5 207 74.5c50.667 0 110 -8 178 -24v-505h-134l3 82h-4c-17.333 -31.333 -38.5 -55.333 -63.5 -72s-53.167 -25 -84.5 -25c-53.333 0 -95.666 22.667 -126.999 68z
M304.999 140.999c20 22 38.666 51.332 55.999 87.999v168c-21.333 6 -42.666 9 -63.999 9c-40 0 -70.167 -13.667 -90.5 -41s-30.5 -67.666 -30.5 -120.999c0 -42 6 -75.167 18 -99.5s28.667 -36.5 50 -36.5c20.667 0 41 11 61 33zM255.998 601.498
c-14 14.333 -21 32.5 -21 54.5c0 34 15.667 64.667 47 92s69 47 113 59l18 -39c-26 -20.667 -46.333 -42.667 -61 -66l26 -53c0 -18 -6.66699 -34 -20 -48s-30 -21 -50 -21c-20.667 0 -38 7.16699 -52 21.5z" />
    <glyph glyph-name="aacute" unicode="&#xe1;" horiz-adv-x="557" 
d="M87 53c-31.333 45.333 -47.001 106.999 -47.001 184.999c0 94.667 24 166.834 72 216.501s117 74.5 207 74.5c50.667 0 110 -8 178 -24v-505h-134l3 82h-4c-17.333 -31.333 -38.5 -55.333 -63.5 -72s-53.167 -25 -84.5 -25c-53.333 0 -95.666 22.667 -126.999 68z
M304.999 140.999c20 22 38.666 51.332 55.999 87.999v168c-21.333 6 -42.666 9 -63.999 9c-40 0 -70.167 -13.667 -90.5 -41s-30.5 -67.666 -30.5 -120.999c0 -42 6 -75.167 18 -99.5s28.667 -36.5 50 -36.5c20.667 0 41 11 61 33zM273.998 618.998
c26 20.667 46.333 42.667 61 66l-26 53c0 18 6.66699 34 20 48s30 21 50 21c20.667 0 38 -7.16699 52 -21.5s21 -32.5 21 -54.5c0 -34 -15.667 -64.667 -47 -92s-69 -47 -113 -59z" />
    <glyph glyph-name="acircumflex" unicode="&#xe2;" horiz-adv-x="557" 
d="M87 53c-31.333 45.333 -47.001 106.999 -47.001 184.999c0 94.667 24 166.834 72 216.501s117 74.5 207 74.5c50.667 0 110 -8 178 -24v-505h-134l3 82h-4c-17.333 -31.333 -38.5 -55.333 -63.5 -72s-53.167 -25 -84.5 -25c-53.333 0 -95.666 22.667 -126.999 68z
M304.999 140.999c20 22 38.666 51.332 55.999 87.999v168c-21.333 6 -42.666 9 -63.999 9c-40 0 -70.167 -13.667 -90.5 -41s-30.5 -67.666 -30.5 -120.999c0 -42 6 -75.167 18 -99.5s28.667 -36.5 50 -36.5c20.667 0 41 11 61 33zM136.998 648.998l168 132l168 -132
l-44 -69l-124 67l-124 -67z" />
    <glyph glyph-name="atilde" unicode="&#xe3;" horiz-adv-x="557" 
d="M87 53c-31.333 45.333 -47.001 106.999 -47.001 184.999c0 94.667 24 166.834 72 216.501s117 74.5 207 74.5c50.667 0 110 -8 178 -24v-505h-134l3 82h-4c-17.333 -31.333 -38.5 -55.333 -63.5 -72s-53.167 -25 -84.5 -25c-53.333 0 -95.666 22.667 -126.999 68z
M304.999 140.999c20 22 38.666 51.332 55.999 87.999v168c-21.333 6 -42.666 9 -63.999 9c-40 0 -70.167 -13.667 -90.5 -41s-30.5 -67.666 -30.5 -120.999c0 -42 6 -75.167 18 -99.5s28.667 -36.5 50 -36.5c20.667 0 41 11 61 33zM332.998 590.498
c-14.667 6.33301 -32 15.5 -52 27.5c-14.667 8.66699 -26.5 15.167 -35.5 19.5s-17.833 6.5 -26.5 6.5c-10.667 0 -20.667 -4.66699 -30 -14s-18 -25 -26 -47l-54 41c10.667 41.333 26.834 72.166 48.501 92.499s46.834 30.5 75.501 30.5c17.333 0 33.333 -3.16699 48 -9.5
s32 -15.5 52 -27.5c14.667 -8.66699 26.5 -15.167 35.5 -19.5s17.833 -6.5 26.5 -6.5c10.667 0 20.667 4.66699 30 14s18 25 26 47l54 -41c-10.667 -41.333 -26.834 -72.166 -48.501 -92.499s-46.834 -30.5 -75.501 -30.5c-17.333 0 -33.333 3.16699 -48 9.5z" />
    <glyph glyph-name="adieresis" unicode="&#xe4;" horiz-adv-x="557" 
d="M87 53c-31.333 45.333 -47.001 106.999 -47.001 184.999c0 94.667 24 166.834 72 216.501s117 74.5 207 74.5c50.667 0 110 -8 178 -24v-505h-134l3 82h-4c-17.333 -31.333 -38.5 -55.333 -63.5 -72s-53.167 -25 -84.5 -25c-53.333 0 -95.666 22.667 -126.999 68z
M304.999 140.999c20 22 38.666 51.332 55.999 87.999v168c-21.333 6 -42.666 9 -63.999 9c-40 0 -70.167 -13.667 -90.5 -41s-30.5 -67.666 -30.5 -120.999c0 -42 6 -75.167 18 -99.5s28.667 -36.5 50 -36.5c20.667 0 41 11 61 33zM132.998 608.998
c-15.333 15.333 -23.001 34 -23.001 56s8 40.667 24 56s35 23 57 23c21.333 0 39.666 -7.66699 54.999 -23s23 -34 23 -56c0 -21.333 -8.16699 -39.833 -24.5 -55.5s-35.166 -23.5 -56.499 -23.5s-39.666 7.66699 -54.999 23zM363.997 608.998c-15.333 15.333 -23 34 -23 56
c0 21.333 8.16699 39.833 24.5 55.5s35.166 23.5 56.499 23.5s39.666 -7.66699 54.999 -23s23 -34 23 -56s-7.66699 -40.667 -23 -56s-34.666 -23 -57.999 -23c-21.333 0 -39.666 7.66699 -54.999 23z" />
    <glyph glyph-name="aring" unicode="&#xe5;" horiz-adv-x="557" 
d="M87 53c-31.333 45.333 -47.001 106.999 -47.001 184.999c0 94.667 24 166.834 72 216.501s117 74.5 207 74.5c50.667 0 110 -8 178 -24v-505h-134l3 82h-4c-17.333 -31.333 -38.5 -55.333 -63.5 -72s-53.167 -25 -84.5 -25c-53.333 0 -95.666 22.667 -126.999 68z
M304.999 140.999c20 22 38.666 51.332 55.999 87.999v168c-21.333 6 -42.666 9 -63.999 9c-40 0 -70.167 -13.667 -90.5 -41s-30.5 -67.666 -30.5 -120.999c0 -42 6 -75.167 18 -99.5s28.667 -36.5 50 -36.5c20.667 0 41 11 61 33zM213.498 609.998
c-25 24 -37.5 53.667 -37.5 89s12.5 65 37.5 89s55.5 36 91.5 36s66.5 -12 91.5 -36s37.5 -53.667 37.5 -89s-12.5 -65 -37.5 -89s-55.5 -36 -91.5 -36s-66.5 12 -91.5 36zM340.998 660.998c9.33301 10.667 14 23.334 14 38.001s-4.66699 27.334 -14 38.001
s-21.333 16 -36 16s-26.667 -5.33301 -36 -16s-14 -23.334 -14 -38.001s4.66699 -27.334 14 -38.001s21.333 -16 36 -16s26.667 5.33301 36 16z" />
    <glyph glyph-name="ae" unicode="&#xe6;" horiz-adv-x="857" 
d="M87 52c-31.333 44.667 -47.001 105.999 -47.001 183.999c0 94.667 23.5 167.167 70.5 217.5s114.5 75.5 202.5 75.5c45.333 0 100.666 -6.66699 165.999 -20c32 13.333 67.333 20 106 20c74.667 0 132 -24 172 -72s60 -117.333 60 -208
c0 -15.333 -0.333008 -26.666 -1 -33.999h-340c6.66699 -35.333 22 -62.166 46 -80.499s56.333 -27.5 97 -27.5c24.667 0 50.334 3.16699 77.001 9.5s50 14.833 70 25.5l23 -113c-26.667 -14 -56.167 -24.833 -88.5 -32.5s-65.166 -11.5 -98.499 -11.5
c-49.333 0 -92.833 8.66699 -130.5 26s-67.834 42.666 -90.501 75.999h-4c-14 -32 -35.5 -57 -64.5 -75s-60.833 -27 -95.5 -27c-55.333 0 -98.666 22.333 -129.999 67zM681.999 320.999c-2 28.667 -12 51.5 -30 68.5s-42 25.5 -72 25.5
c-28.667 0 -52.167 -8.33301 -70.5 -25s-29.833 -39.667 -34.5 -69h207zM300.999 123.999c15.333 10.667 29.666 25.999 42.999 45.999c-6.66699 24.667 -10 53.667 -10 87c0 52 9.33301 98.667 28 140c-20 6 -41.667 9 -65 9c-40 0 -70.167 -13.667 -90.5 -41
s-30.5 -67 -30.5 -119c0 -43.333 6.83301 -77.166 20.5 -101.499s32.834 -36.5 57.501 -36.5c16 0 31.667 5.33301 47 16z" />
    <glyph glyph-name="ccedilla" unicode="&#xe7;" horiz-adv-x="480" 
d="M390 -88.5c19.333 -16.333 28.998 -37.166 28.998 -62.499c0 -26.667 -11.667 -48.667 -35 -66s-51.333 -26 -84 -26c-24 0 -47.667 4.16699 -71 12.5s-42.666 19.166 -57.999 32.499l30 43c14 -10 28.833 -17.833 44.5 -23.5s29.5 -8.5 41.5 -8.5c24 0 36 10.333 36 31
c0 21.333 -25 31.333 -75 30l-21 14l34 99c-72 7.33301 -127.5 33.333 -166.5 78s-58.5 104.667 -58.5 180c0 56 11 105.5 33 148.5s53 76.333 93 100s86.333 35.5 139 35.5c24.667 0 50.5 -2.83301 77.5 -8.5s47.833 -12.167 62.5 -19.5l-27 -119
c-15.333 7.33301 -32.166 13.166 -50.499 17.499s-35.5 6.5 -51.5 6.5c-41.333 0 -74.5 -14 -99.5 -42s-37.5 -65 -37.5 -111c0 -46.667 12.833 -82.667 38.5 -108s62.167 -38 109.5 -38c31.333 0 65 6 101 18l21 -114c-36 -14.667 -74 -23 -114 -25l-18 -42
c32 -5.33301 57.667 -16.166 77 -32.499z" />
    <glyph glyph-name="egrave" unicode="&#xe8;" horiz-adv-x="563" 
d="M111.5 57c-47.667 48 -71.5039 114.665 -71.5039 199.998c0 55.333 10.333 103.5 31 144.5s49.834 72.5 87.501 94.5s81.834 33 132.501 33c74.667 0 132 -24 172 -72s60 -117.333 60 -208c0 -15.333 -0.333008 -26.666 -1 -33.999h-340
c6.66699 -35.333 22 -62.166 46 -80.499s56.333 -27.5 97 -27.5c24.667 0 50.334 3.16699 77.001 9.5s50 14.833 70 25.5l23 -113c-26.667 -14 -56.167 -24.833 -88.5 -32.5s-65.166 -11.5 -98.499 -11.5c-83.333 0 -148.833 24 -196.5 72zM387.996 320.998
c-2 28.667 -12 51.5 -30 68.5s-42 25.5 -72 25.5c-28.667 0 -52.167 -8.33301 -70.5 -25s-29.833 -39.667 -34.5 -69h207zM241.996 601.498c-14 14.333 -21 32.5 -21 54.5c0 34 15.667 64.667 47 92s69 47 113 59l18 -39c-26 -20.667 -46.333 -42.667 -61 -66l26 -53
c0 -18 -6.66699 -34 -20 -48s-30 -21 -50 -21c-20.667 0 -38 7.16699 -52 21.5z" />
    <glyph glyph-name="eacute" unicode="&#xe9;" horiz-adv-x="563" 
d="M111.5 57c-47.667 48 -71.5039 114.665 -71.5039 199.998c0 55.333 10.333 103.5 31 144.5s49.834 72.5 87.501 94.5s81.834 33 132.501 33c74.667 0 132 -24 172 -72s60 -117.333 60 -208c0 -15.333 -0.333008 -26.666 -1 -33.999h-340
c6.66699 -35.333 22 -62.166 46 -80.499s56.333 -27.5 97 -27.5c24.667 0 50.334 3.16699 77.001 9.5s50 14.833 70 25.5l23 -113c-26.667 -14 -56.167 -24.833 -88.5 -32.5s-65.166 -11.5 -98.499 -11.5c-83.333 0 -148.833 24 -196.5 72zM387.996 320.998
c-2 28.667 -12 51.5 -30 68.5s-42 25.5 -72 25.5c-28.667 0 -52.167 -8.33301 -70.5 -25s-29.833 -39.667 -34.5 -69h207zM259.996 618.998c26 20.667 46.333 42.667 61 66l-26 53c0 18 6.66699 34 20 48s30 21 50 21c20.667 0 38 -7.16699 52 -21.5s21 -32.5 21 -54.5
c0 -34 -15.667 -64.667 -47 -92s-69 -47 -113 -59z" />
    <glyph glyph-name="ecircumflex" unicode="&#xea;" horiz-adv-x="563" 
d="M111.5 57c-47.667 48 -71.5039 114.665 -71.5039 199.998c0 55.333 10.333 103.5 31 144.5s49.834 72.5 87.501 94.5s81.834 33 132.501 33c74.667 0 132 -24 172 -72s60 -117.333 60 -208c0 -15.333 -0.333008 -26.666 -1 -33.999h-340
c6.66699 -35.333 22 -62.166 46 -80.499s56.333 -27.5 97 -27.5c24.667 0 50.334 3.16699 77.001 9.5s50 14.833 70 25.5l23 -113c-26.667 -14 -56.167 -24.833 -88.5 -32.5s-65.166 -11.5 -98.499 -11.5c-83.333 0 -148.833 24 -196.5 72zM387.996 320.998
c-2 28.667 -12 51.5 -30 68.5s-42 25.5 -72 25.5c-28.667 0 -52.167 -8.33301 -70.5 -25s-29.833 -39.667 -34.5 -69h207zM122.996 648.998l168 132l168 -132l-44 -69l-124 67l-124 -67z" />
    <glyph glyph-name="edieresis" unicode="&#xeb;" horiz-adv-x="563" 
d="M111.5 57c-47.667 48 -71.5039 114.665 -71.5039 199.998c0 55.333 10.333 103.5 31 144.5s49.834 72.5 87.501 94.5s81.834 33 132.501 33c74.667 0 132 -24 172 -72s60 -117.333 60 -208c0 -15.333 -0.333008 -26.666 -1 -33.999h-340
c6.66699 -35.333 22 -62.166 46 -80.499s56.333 -27.5 97 -27.5c24.667 0 50.334 3.16699 77.001 9.5s50 14.833 70 25.5l23 -113c-26.667 -14 -56.167 -24.833 -88.5 -32.5s-65.166 -11.5 -98.499 -11.5c-83.333 0 -148.833 24 -196.5 72zM387.996 320.998
c-2 28.667 -12 51.5 -30 68.5s-42 25.5 -72 25.5c-28.667 0 -52.167 -8.33301 -70.5 -25s-29.833 -39.667 -34.5 -69h207zM118.996 608.998c-15.333 15.333 -23.001 34 -23.001 56s8 40.667 24 56s35 23 57 23c21.333 0 39.666 -7.66699 54.999 -23s23 -34 23 -56
c0 -21.333 -8.16699 -39.833 -24.5 -55.5s-35.166 -23.5 -56.499 -23.5s-39.666 7.66699 -54.999 23zM349.995 608.998c-15.333 15.333 -23 34 -23 56c0 21.333 8.16699 39.833 24.5 55.5s35.166 23.5 56.499 23.5s39.666 -7.66699 54.999 -23s23 -34 23 -56
s-7.66699 -40.667 -23 -56s-34.666 -23 -57.999 -23c-21.333 0 -39.666 7.66699 -54.999 23z" />
    <glyph glyph-name="igrave" unicode="&#xec;" horiz-adv-x="398" 
d="M47 121h96v273h-96v121h237v-394h86v-121h-323v121zM150 601.5c-14 14.333 -21 32.5 -21 54.5c0 34 15.667 64.667 47 92s69 47 113 59l18 -39c-26 -20.667 -46.333 -42.667 -61 -66l26 -53c0 -18 -6.66699 -34 -20 -48s-30 -21 -50 -21c-20.667 0 -38 7.16699 -52 21.5z
" />
    <glyph glyph-name="iacute" unicode="&#xed;" horiz-adv-x="398" 
d="M47 121h96v273h-96v121h237v-394h86v-121h-323v121zM168 619c26 20.667 46.333 42.667 61 66l-26 53c0 18 6.66699 34 20 48s30 21 50 21c20.667 0 38 -7.16699 52 -21.5s21 -32.5 21 -54.5c0 -34 -15.667 -64.667 -47 -92s-69 -47 -113 -59z" />
    <glyph glyph-name="icircumflex" unicode="&#xee;" horiz-adv-x="398" 
d="M47 121h96v273h-96v121h237v-394h86v-121h-323v121zM31 649l168 132l168 -132l-44 -69l-124 67l-124 -67z" />
    <glyph glyph-name="idieresis" unicode="&#xef;" horiz-adv-x="398" 
d="M47 121h96v273h-96v121h237v-394h86v-121h-323v121zM27 609c-15.333 15.333 -23.001 34 -23.001 56s8 40.667 24 56s35 23 57 23c21.333 0 39.666 -7.66699 54.999 -23s23 -34 23 -56c0 -21.333 -8.16699 -39.833 -24.5 -55.5s-35.166 -23.5 -56.499 -23.5
s-39.666 7.66699 -54.999 23zM257.999 609c-15.333 15.333 -23 34 -23 56c0 21.333 8.16699 39.833 24.5 55.5s35.166 23.5 56.499 23.5s39.666 -7.66699 54.999 -23s23 -34 23 -56s-7.66699 -40.667 -23 -56s-34.666 -23 -57.999 -23c-21.333 0 -39.666 7.66699 -54.999 23
z" />
    <glyph glyph-name="eth" unicode="&#xf0;" horiz-adv-x="586" 
d="M541 298c0 -94 -21.166 -169.666 -63.499 -226.999s-103.5 -86 -183.5 -86c-49.333 0 -92.833 11.333 -130.5 34s-66.834 54.5 -87.501 95.5s-31 88.5 -31 142.5s10.333 101.5 31 142.5s49.5 72.833 86.5 95.5s79.833 34 128.5 34c32 0 60.667 -5.66699 86 -17
c-22 28 -47.333 55.333 -76 82l-118 -41l-13 72l69 24l-78 63l147 39c19.333 -16 40.333 -34.667 63 -56l117 40l13 -72l-78 -27c78.667 -98.667 118 -211.334 118 -338.001zM372.001 147.501c20 27.667 30 64.5 30 110.5c0 45.333 -10 81.666 -30 108.999
s-46.667 41 -80 41s-60 -13.667 -80 -41s-30 -63.666 -30 -108.999c0 -46 10 -82.833 30 -110.5s46.667 -41.5 80 -41.5s60 13.833 80 41.5z" />
    <glyph glyph-name="ntilde" unicode="&#xf1;" horiz-adv-x="612" 
d="M65 515h138.001v-89c21.333 35.333 46 61.333 74 78s60.667 25 98 25c55.333 0 98.666 -16.5 129.999 -49.5s47 -78.833 47 -137.5v-342h-141v320c0 26.667 -6.66699 47.5 -20 62.5s-31.333 22.5 -54 22.5c-26.667 0 -52 -10 -76 -30s-42.333 -45.333 -55 -76v-299h-141
v515zM334.001 590.5c-14.667 6.33301 -32 15.5 -52 27.5c-14.667 8.66699 -26.5 15.167 -35.5 19.5s-17.833 6.5 -26.5 6.5c-10.667 0 -20.667 -4.66699 -30 -14s-18 -25 -26 -47l-54 41c10.667 41.333 26.834 72.166 48.501 92.499s46.834 30.5 75.501 30.5
c17.333 0 33.333 -3.16699 48 -9.5s32 -15.5 52 -27.5c14.667 -8.66699 26.5 -15.167 35.5 -19.5s17.833 -6.5 26.5 -6.5c10.667 0 20.667 4.66699 30 14s18 25 26 47l54 -41c-10.667 -41.333 -26.834 -72.166 -48.501 -92.499s-46.834 -30.5 -75.501 -30.5
c-17.333 0 -33.333 3.16699 -48 9.5z" />
    <glyph glyph-name="ograve" unicode="&#xf2;" horiz-adv-x="604" 
d="M165.5 19c-39.667 22.667 -70.501 54.5 -92.501 95.5s-33 88.5 -33 142.5s10.833 101.5 32.5 142.5s52.334 72.833 92.001 95.5s85.5 34 137.5 34s97.833 -11.167 137.5 -33.5s70.334 -53.833 92.001 -94.5s32.5 -87.667 32.5 -141c0 -54 -10.833 -101.833 -32.5 -143.5
s-52.334 -74 -92.001 -97s-85.167 -34.5 -136.5 -34.5c-52 0 -97.833 11.333 -137.5 34zM388.499 148.5c21.667 27.667 32.5 64.167 32.5 109.5s-10.833 81.5 -32.5 108.5s-50.5 40.5 -86.5 40.5s-64.833 -13.5 -86.5 -40.5s-32.5 -63.167 -32.5 -108.5
s10.833 -81.833 32.5 -109.5s50.5 -41.5 86.5 -41.5s64.833 13.833 86.5 41.5zM252.999 601.5c-14 14.333 -21 32.5 -21 54.5c0 34 15.667 64.667 47 92s69 47 113 59l18 -39c-26 -20.667 -46.333 -42.667 -61 -66l26 -53c0 -18 -6.66699 -34 -20 -48s-30 -21 -50 -21
c-20.667 0 -38 7.16699 -52 21.5z" />
    <glyph glyph-name="oacute" unicode="&#xf3;" horiz-adv-x="604" 
d="M165.5 19c-39.667 22.667 -70.501 54.5 -92.501 95.5s-33 88.5 -33 142.5s10.833 101.5 32.5 142.5s52.334 72.833 92.001 95.5s85.5 34 137.5 34s97.833 -11.167 137.5 -33.5s70.334 -53.833 92.001 -94.5s32.5 -87.667 32.5 -141c0 -54 -10.833 -101.833 -32.5 -143.5
s-52.334 -74 -92.001 -97s-85.167 -34.5 -136.5 -34.5c-52 0 -97.833 11.333 -137.5 34zM388.499 148.5c21.667 27.667 32.5 64.167 32.5 109.5s-10.833 81.5 -32.5 108.5s-50.5 40.5 -86.5 40.5s-64.833 -13.5 -86.5 -40.5s-32.5 -63.167 -32.5 -108.5
s10.833 -81.833 32.5 -109.5s50.5 -41.5 86.5 -41.5s64.833 13.833 86.5 41.5zM270.999 619c26 20.667 46.333 42.667 61 66l-26 53c0 18 6.66699 34 20 48s30 21 50 21c20.667 0 38 -7.16699 52 -21.5s21 -32.5 21 -54.5c0 -34 -15.667 -64.667 -47 -92s-69 -47 -113 -59z
" />
    <glyph glyph-name="ocircumflex" unicode="&#xf4;" horiz-adv-x="604" 
d="M165.5 19c-39.667 22.667 -70.501 54.5 -92.501 95.5s-33 88.5 -33 142.5s10.833 101.5 32.5 142.5s52.334 72.833 92.001 95.5s85.5 34 137.5 34s97.833 -11.167 137.5 -33.5s70.334 -53.833 92.001 -94.5s32.5 -87.667 32.5 -141c0 -54 -10.833 -101.833 -32.5 -143.5
s-52.334 -74 -92.001 -97s-85.167 -34.5 -136.5 -34.5c-52 0 -97.833 11.333 -137.5 34zM388.499 148.5c21.667 27.667 32.5 64.167 32.5 109.5s-10.833 81.5 -32.5 108.5s-50.5 40.5 -86.5 40.5s-64.833 -13.5 -86.5 -40.5s-32.5 -63.167 -32.5 -108.5
s10.833 -81.833 32.5 -109.5s50.5 -41.5 86.5 -41.5s64.833 13.833 86.5 41.5zM133.999 649l168 132l168 -132l-44 -69l-124 67l-124 -67z" />
    <glyph glyph-name="otilde" unicode="&#xf5;" horiz-adv-x="604" 
d="M165.5 19c-39.667 22.667 -70.501 54.5 -92.501 95.5s-33 88.5 -33 142.5s10.833 101.5 32.5 142.5s52.334 72.833 92.001 95.5s85.5 34 137.5 34s97.833 -11.167 137.5 -33.5s70.334 -53.833 92.001 -94.5s32.5 -87.667 32.5 -141c0 -54 -10.833 -101.833 -32.5 -143.5
s-52.334 -74 -92.001 -97s-85.167 -34.5 -136.5 -34.5c-52 0 -97.833 11.333 -137.5 34zM388.499 148.5c21.667 27.667 32.5 64.167 32.5 109.5s-10.833 81.5 -32.5 108.5s-50.5 40.5 -86.5 40.5s-64.833 -13.5 -86.5 -40.5s-32.5 -63.167 -32.5 -108.5
s10.833 -81.833 32.5 -109.5s50.5 -41.5 86.5 -41.5s64.833 13.833 86.5 41.5zM329.999 590.5c-14.667 6.33301 -32 15.5 -52 27.5c-14.667 8.66699 -26.5 15.167 -35.5 19.5s-17.833 6.5 -26.5 6.5c-10.667 0 -20.667 -4.66699 -30 -14s-18 -25 -26 -47l-54 41
c10.667 41.333 26.834 72.166 48.501 92.499s46.834 30.5 75.501 30.5c17.333 0 33.333 -3.16699 48 -9.5s32 -15.5 52 -27.5c14.667 -8.66699 26.5 -15.167 35.5 -19.5s17.833 -6.5 26.5 -6.5c10.667 0 20.667 4.66699 30 14s18 25 26 47l54 -41
c-10.667 -41.333 -26.834 -72.166 -48.501 -92.499s-46.834 -30.5 -75.501 -30.5c-17.333 0 -33.333 3.16699 -48 9.5z" />
    <glyph glyph-name="odieresis" unicode="&#xf6;" horiz-adv-x="604" 
d="M165.5 19c-39.667 22.667 -70.501 54.5 -92.501 95.5s-33 88.5 -33 142.5s10.833 101.5 32.5 142.5s52.334 72.833 92.001 95.5s85.5 34 137.5 34s97.833 -11.167 137.5 -33.5s70.334 -53.833 92.001 -94.5s32.5 -87.667 32.5 -141c0 -54 -10.833 -101.833 -32.5 -143.5
s-52.334 -74 -92.001 -97s-85.167 -34.5 -136.5 -34.5c-52 0 -97.833 11.333 -137.5 34zM388.499 148.5c21.667 27.667 32.5 64.167 32.5 109.5s-10.833 81.5 -32.5 108.5s-50.5 40.5 -86.5 40.5s-64.833 -13.5 -86.5 -40.5s-32.5 -63.167 -32.5 -108.5
s10.833 -81.833 32.5 -109.5s50.5 -41.5 86.5 -41.5s64.833 13.833 86.5 41.5zM129.999 609c-15.333 15.333 -23.001 34 -23.001 56s8 40.667 24 56s35 23 57 23c21.333 0 39.666 -7.66699 54.999 -23s23 -34 23 -56c0 -21.333 -8.16699 -39.833 -24.5 -55.5
s-35.166 -23.5 -56.499 -23.5s-39.666 7.66699 -54.999 23zM360.998 609c-15.333 15.333 -23 34 -23 56c0 21.333 8.16699 39.833 24.5 55.5s35.166 23.5 56.499 23.5s39.666 -7.66699 54.999 -23s23 -34 23 -56s-7.66699 -40.667 -23 -56s-34.666 -23 -57.999 -23
c-21.333 0 -39.666 7.66699 -54.999 23z" />
    <glyph glyph-name="divide" unicode="&#xf7;" horiz-adv-x="580" 
d="M228 385.5c-16.667 17 -25 37.167 -25 60.5s8.5 43.333 25.5 60s36.833 25 59.5 25c23.333 0 43.333 -8.33301 60 -25s25 -36.667 25 -60s-8.33301 -43.5 -25 -60.5s-36.667 -25.5 -60 -25.5s-43.333 8.5 -60 25.5zM55 288h480l-10 -75h-480zM228.5 -8.5
c-17 17 -25.5 36.833 -25.5 59.5c0 23.333 8.33301 43.5 25 60.5s36.667 25.5 60 25.5s43.333 -8.5 60 -25.5s25 -37.167 25 -60.5s-8.33301 -43.333 -25 -60s-36.667 -25 -60 -25c-22.667 0 -42.5 8.5 -59.5 25.5z" />
    <glyph glyph-name="oslash" unicode="&#xf8;" horiz-adv-x="607" 
d="M566 260c0 -54 -10.833 -101.832 -32.5 -143.499s-52.334 -74 -92.001 -97s-85.167 -34.5 -136.5 -34.5c-61.333 0 -114.333 15.667 -159 47l-72 -73l-24 108l33 33c-27.333 43.333 -41 95.666 -41 156.999c0 54 10.833 101.5 32.5 142.5s52.334 72.833 92.001 95.5
s85.5 34 137.5 34c62 0 114.333 -15.333 157 -46l73 74l24 -108l-33 -33c27.333 -45.333 41 -97.333 41 -156zM190 209.001l177 179c-18 12.667 -39 19 -63 19c-36 0 -64.833 -13.5 -86.5 -40.5s-32.5 -63.167 -32.5 -108.5c0 -16 1.66699 -32.333 5 -49zM390.5 148.501
c21.667 27.667 32.5 64.167 32.5 109.5c0 16 -1.66699 32.333 -5 49l-178 -180c18.667 -13.333 40 -20 64 -20c36 0 64.833 13.833 86.5 41.5z" />
    <glyph glyph-name="ugrave" unicode="&#xf9;" horiz-adv-x="599" 
d="M107 36c-31.333 33.333 -47 78.999 -47 136.999v342h141v-319c0 -27.333 6.66699 -48.5 20 -63.5s31.333 -22.5 54 -22.5s44.5 7.33301 65.5 22s38.5 34.334 52.5 59.001v324h141v-515h-141v68c-19.333 -26 -41.5 -46.167 -66.5 -60.5s-55.167 -21.5 -90.5 -21.5
c-54.667 0 -97.667 16.667 -129 50zM251 601.499c-14 14.333 -21 32.5 -21 54.5c0 34 15.667 64.667 47 92s69 47 113 59l18 -39c-26 -20.667 -46.333 -42.667 -61 -66l26 -53c0 -18 -6.66699 -34 -20 -48s-30 -21 -50 -21c-20.667 0 -38 7.16699 -52 21.5z" />
    <glyph glyph-name="uacute" unicode="&#xfa;" horiz-adv-x="599" 
d="M107 36c-31.333 33.333 -47 78.999 -47 136.999v342h141v-319c0 -27.333 6.66699 -48.5 20 -63.5s31.333 -22.5 54 -22.5s44.5 7.33301 65.5 22s38.5 34.334 52.5 59.001v324h141v-515h-141v68c-19.333 -26 -41.5 -46.167 -66.5 -60.5s-55.167 -21.5 -90.5 -21.5
c-54.667 0 -97.667 16.667 -129 50zM269 618.999c26 20.667 46.333 42.667 61 66l-26 53c0 18 6.66699 34 20 48s30 21 50 21c20.667 0 38 -7.16699 52 -21.5s21 -32.5 21 -54.5c0 -34 -15.667 -64.667 -47 -92s-69 -47 -113 -59z" />
    <glyph glyph-name="ucircumflex" unicode="&#xfb;" horiz-adv-x="599" 
d="M107 36c-31.333 33.333 -47 78.999 -47 136.999v342h141v-319c0 -27.333 6.66699 -48.5 20 -63.5s31.333 -22.5 54 -22.5s44.5 7.33301 65.5 22s38.5 34.334 52.5 59.001v324h141v-515h-141v68c-19.333 -26 -41.5 -46.167 -66.5 -60.5s-55.167 -21.5 -90.5 -21.5
c-54.667 0 -97.667 16.667 -129 50zM132 648.999l168 132l168 -132l-44 -69l-124 67l-124 -67z" />
    <glyph glyph-name="udieresis" unicode="&#xfc;" horiz-adv-x="599" 
d="M107 36c-31.333 33.333 -47 78.999 -47 136.999v342h141v-319c0 -27.333 6.66699 -48.5 20 -63.5s31.333 -22.5 54 -22.5s44.5 7.33301 65.5 22s38.5 34.334 52.5 59.001v324h141v-515h-141v68c-19.333 -26 -41.5 -46.167 -66.5 -60.5s-55.167 -21.5 -90.5 -21.5
c-54.667 0 -97.667 16.667 -129 50zM128 608.999c-15.333 15.333 -23.001 34 -23.001 56s8 40.667 24 56s35 23 57 23c21.333 0 39.666 -7.66699 54.999 -23s23 -34 23 -56c0 -21.333 -8.16699 -39.833 -24.5 -55.5s-35.166 -23.5 -56.499 -23.5s-39.666 7.66699 -54.999 23
zM358.999 608.999c-15.333 15.333 -23 34 -23 56c0 21.333 8.16699 39.833 24.5 55.5s35.166 23.5 56.499 23.5s39.666 -7.66699 54.999 -23s23 -34 23 -56s-7.66699 -40.667 -23 -56s-34.666 -23 -57.999 -23c-21.333 0 -39.666 7.66699 -54.999 23z" />
    <glyph glyph-name="yacute" unicode="&#xfd;" horiz-adv-x="542" 
d="M42 -202l21.001 115.999c25.333 -12.667 46.666 -19 63.999 -19c20.667 0 36.167 6.66699 46.5 20s21.5 36.666 33.5 69.999l-201 528l146 12l123 -369l114 359h139c-42.667 -129.333 -87.5 -256.666 -134.5 -381.999s-83.5 -211.333 -109.5 -258
c-18.667 -33.333 -39.5 -58.166 -62.5 -74.499s-50.833 -24.5 -83.5 -24.5c-30.667 0 -62.667 7.33301 -96 22zM240.001 618.999c26 20.667 46.333 42.667 61 66l-26 53c0 18 6.66699 34 20 48s30 21 50 21c20.667 0 38 -7.16699 52 -21.5s21 -32.5 21 -54.5
c0 -34 -15.667 -64.667 -47 -92s-69 -47 -113 -59z" />
    <glyph glyph-name="thorn" unicode="&#xfe;" horiz-adv-x="578" 
d="M65 730l136 -0.000976562v-282h2c17.333 26.667 38.5 47 63.5 61s53.5 21 85.5 21c58 0 103.5 -22.167 136.5 -66.5s49.5 -106.166 49.5 -185.499c0 -94 -24.5 -166.167 -73.5 -216.5s-118.833 -75.5 -209.5 -75.5c-11.333 0 -28.333 0.666992 -51 2v-206h-139v948z
M364.5 149.999c21.667 27.333 32.499 67.333 32.499 120c0 42.667 -6.83301 76.167 -20.5 100.5s-32.5 36.5 -56.5 36.5c-21.333 0 -42 -9.16699 -62 -27.5s-38 -44.5 -54 -78.5v-183c22.667 -6 44.334 -9 65.001 -9c42 0 73.833 13.667 95.5 41z" />
    <glyph glyph-name="ydieresis" unicode="&#xff;" horiz-adv-x="542" 
d="M42 -202l21.001 115.999c25.333 -12.667 46.666 -19 63.999 -19c20.667 0 36.167 6.66699 46.5 20s21.5 36.666 33.5 69.999l-201 528l146 12l123 -369l114 359h139c-42.667 -129.333 -87.5 -256.666 -134.5 -381.999s-83.5 -211.333 -109.5 -258
c-18.667 -33.333 -39.5 -58.166 -62.5 -74.499s-50.833 -24.5 -83.5 -24.5c-30.667 0 -62.667 7.33301 -96 22zM99.001 608.999c-15.333 15.333 -23.001 34 -23.001 56s8 40.667 24 56s35 23 57 23c21.333 0 39.666 -7.66699 54.999 -23s23 -34 23 -56
c0 -21.333 -8.16699 -39.833 -24.5 -55.5s-35.166 -23.5 -56.499 -23.5s-39.666 7.66699 -54.999 23zM330 608.999c-15.333 15.333 -23 34 -23 56c0 21.333 8.16699 39.833 24.5 55.5s35.166 23.5 56.499 23.5s39.666 -7.66699 54.999 -23s23 -34 23 -56
s-7.66699 -40.667 -23 -56s-34.666 -23 -57.999 -23c-21.333 0 -39.666 7.66699 -54.999 23z" />
    <glyph glyph-name="Amacron" unicode="&#x100;" horiz-adv-x="679" 
d="M251 666h174l247 -666h-150l-54 152h-262l-51 -152h-148zM425 276l-90 255l-87 -255h177zM172 838h334l1 -89h-334z" />
    <glyph glyph-name="amacron" unicode="&#x101;" horiz-adv-x="557" 
d="M87 53c-31.333 45.333 -47.001 106.999 -47.001 184.999c0 94.667 24 166.834 72 216.501s117 74.5 207 74.5c50.667 0 110 -8 178 -24v-505h-134l3 82h-4c-17.333 -31.333 -38.5 -55.333 -63.5 -72s-53.167 -25 -84.5 -25c-53.333 0 -95.666 22.667 -126.999 68z
M304.999 140.999c20 22 38.666 51.332 55.999 87.999v168c-21.333 6 -42.666 9 -63.999 9c-40 0 -70.167 -13.667 -90.5 -41s-30.5 -67.666 -30.5 -120.999c0 -42 6 -75.167 18 -99.5s28.667 -36.5 50 -36.5c20.667 0 41 11 61 33zM136.998 686.998h334l1 -89h-334z" />
    <glyph glyph-name="Abreve" unicode="&#x102;" horiz-adv-x="679" 
d="M251 666h174l247 -666h-150l-54 152h-262l-51 -152h-148zM425 276l-90 255l-87 -255h177zM228.5 772.5c-33.667 26.333 -57.832 64.167 -72.499 113.5l69 23c14 -26.667 31 -46.834 51 -60.501s41.333 -20.5 64 -20.5c22 0 43.333 7 64 21s37.667 34 51 60l69 -23
c-14.667 -49.333 -39 -87.166 -73 -113.499s-71 -39.5 -111 -39.5c-40.667 0 -77.834 13.167 -111.501 39.5z" />
    <glyph glyph-name="abreve" unicode="&#x103;" horiz-adv-x="557" 
d="M87 53c-31.333 45.333 -47.001 106.999 -47.001 184.999c0 94.667 24 166.834 72 216.501s117 74.5 207 74.5c50.667 0 110 -8 178 -24v-505h-134l3 82h-4c-17.333 -31.333 -38.5 -55.333 -63.5 -72s-53.167 -25 -84.5 -25c-53.333 0 -95.666 22.667 -126.999 68z
M304.999 140.999c20 22 38.666 51.332 55.999 87.999v168c-21.333 6 -42.666 9 -63.999 9c-40 0 -70.167 -13.667 -90.5 -41s-30.5 -67.666 -30.5 -120.999c0 -42 6 -75.167 18 -99.5s28.667 -36.5 50 -36.5c20.667 0 41 11 61 33zM193.498 621.498
c-33.667 26.333 -57.832 64.167 -72.499 113.5l69 23c14 -26.667 31 -46.834 51 -60.501s41.333 -20.5 64 -20.5c22 0 43.333 7 64 21s37.667 34 51 60l69 -23c-14.667 -49.333 -39 -87.166 -73 -113.499s-71 -39.5 -111 -39.5c-40.667 0 -77.834 13.167 -111.501 39.5z" />
    <glyph glyph-name="Aogonek" unicode="&#x104;" horiz-adv-x="680" 
d="M500.5 -193.5c-20.333 17.667 -30.498 41.5 -30.498 71.5c0 22 5.33301 41.833 16 59.5s25 32.5 43 44.5l-60 170h-263l-51 -152h-148l244 666h174l247 -666l-12 -3c-28.667 -7.33301 -52.334 -19.333 -71.001 -36s-28 -34.667 -28 -54c0 -14 5.16699 -24.833 15.5 -32.5
s23.166 -11.5 38.499 -11.5c20 0 39.333 5.66699 58 17l-5 -77c-10 -7.33301 -22.333 -13 -37 -17s-30.334 -6 -47.001 -6c-35.333 0 -63.166 8.83301 -83.499 26.5zM425.002 276l-90 255l-87 -255h177z" />
    <glyph glyph-name="aogonek" unicode="&#x105;" horiz-adv-x="557" 
d="M327.5 -193.5c-20.333 17.667 -30.5 41.498 -30.5 71.498c0 23.333 6 44.333 18 63s28.333 34.334 49 47.001l2 94h-4c-17.333 -31.333 -38.5 -55.333 -63.5 -72s-53.167 -25 -84.5 -25c-53.333 0 -95.666 22.667 -126.999 68s-47 107 -47 185
c0 94.667 24 166.834 72 216.501s117 74.5 207 74.5c50.667 0 110 -8 178 -24v-505c-32.667 -10 -59 -23 -79 -39s-30 -34 -30 -54c0 -14 5.16699 -24.833 15.5 -32.5s23.166 -11.5 38.499 -11.5c20 0 39.333 5.66699 58 17l-5 -77c-10 -7.33301 -22.333 -13 -37 -17
s-30.334 -6 -47.001 -6c-35.333 0 -63.166 8.83301 -83.499 26.5zM305 140.998c20 22 38.666 51.332 55.999 87.999v168c-21.333 6 -42.666 9 -63.999 9c-40 0 -70.167 -13.667 -90.5 -41s-30.5 -67.666 -30.5 -120.999c0 -42 6 -75.167 18 -99.5s28.667 -36.5 50 -36.5
c20.667 0 41 11 61 33z" />
    <glyph glyph-name="Cacute" unicode="&#x106;" horiz-adv-x="594" 
d="M131 73c-60 57.333 -89.999 138.331 -89.999 242.998c0 71.333 14.167 134.333 42.5 189s68.5 96.834 120.5 126.501s112 44.5 180 44.5c55.333 0 108.666 -10 159.999 -30l-27 -129c-45.333 20.667 -89.333 31 -132 31c-60.667 0 -108.667 -19.833 -144 -59.5
s-53 -92.5 -53 -158.5c0 -67.333 18.667 -119.666 56 -156.999s89 -56 155 -56c43.333 0 85.333 7 126 21l22 -123c-48.667 -18.667 -104 -28 -166 -28c-106.667 0 -190 28.667 -250 86zM321.001 769.998c26 20.667 46.333 42.667 61 66l-26 53c0 18 6.66699 34 20 48
s30 21 50 21c20.667 0 38 -7.16699 52 -21.5s21 -32.5 21 -54.5c0 -34 -15.667 -64.667 -47 -92s-69 -47 -113 -59z" />
    <glyph glyph-name="cacute" unicode="&#x107;" horiz-adv-x="480" 
d="M106.5 53c-47 45.333 -70.501 109.334 -70.501 192.001c0 56 11 105.5 33 148.5s53 76.333 93 100s86.333 35.5 139 35.5c24.667 0 50.5 -2.83301 77.5 -8.5s47.833 -12.167 62.5 -19.5l-27 -119c-15.333 7.33301 -32.166 13.166 -50.499 17.499s-35.5 6.5 -51.5 6.5
c-41.333 0 -74.5 -14 -99.5 -42s-37.5 -65 -37.5 -111c0 -46.667 12.833 -82.667 38.5 -108s62.167 -38 109.5 -38c31.333 0 65 6 101 18l21 -114c-43.333 -17.333 -90 -26 -140 -26c-85.333 0 -151.5 22.667 -198.5 68zM245.999 619.001c26 20.667 46.333 42.667 61 66
l-26 53c0 18 6.66699 34 20 48s30 21 50 21c20.667 0 38 -7.16699 52 -21.5s21 -32.5 21 -54.5c0 -34 -15.667 -64.667 -47 -92s-69 -47 -113 -59z" />
    <glyph glyph-name="Cdotaccent" unicode="&#x10a;" horiz-adv-x="594" 
d="M131 73c-60 57.333 -89.999 138.331 -89.999 242.998c0 71.333 14.167 134.333 42.5 189s68.5 96.834 120.5 126.501s112 44.5 180 44.5c55.333 0 108.666 -10 159.999 -30l-27 -129c-45.333 20.667 -89.333 31 -132 31c-60.667 0 -108.667 -19.833 -144 -59.5
s-53 -92.5 -53 -158.5c0 -67.333 18.667 -119.666 56 -156.999s89 -56 155 -56c43.333 0 85.333 7 126 21l22 -123c-48.667 -18.667 -104 -28 -166 -28c-106.667 0 -190 28.667 -250 86zM297.501 763.498c-15 15 -22.5 32.833 -22.5 53.5s7.83301 38.5 23.5 53.5
s33.834 22.5 54.501 22.5s38.5 -7.5 53.5 -22.5s22.5 -32.833 22.5 -53.5s-7.83301 -38.5 -23.5 -53.5s-33.834 -22.5 -54.501 -22.5s-38.5 7.5 -53.5 22.5z" />
    <glyph glyph-name="cdotaccent" unicode="&#x10b;" horiz-adv-x="480" 
d="M106.5 53c-47 45.333 -70.501 109.334 -70.501 192.001c0 56 11 105.5 33 148.5s53 76.333 93 100s86.333 35.5 139 35.5c24.667 0 50.5 -2.83301 77.5 -8.5s47.833 -12.167 62.5 -19.5l-27 -119c-15.333 7.33301 -32.166 13.166 -50.499 17.499s-35.5 6.5 -51.5 6.5
c-41.333 0 -74.5 -14 -99.5 -42s-37.5 -65 -37.5 -111c0 -46.667 12.833 -82.667 38.5 -108s62.167 -38 109.5 -38c31.333 0 65 6 101 18l21 -114c-43.333 -17.333 -90 -26 -140 -26c-85.333 0 -151.5 22.667 -198.5 68zM222.499 612.501c-15 15 -22.5 32.833 -22.5 53.5
s7.83301 38.5 23.5 53.5s33.834 22.5 54.501 22.5s38.5 -7.5 53.5 -22.5s22.5 -32.833 22.5 -53.5s-7.83301 -38.5 -23.5 -53.5s-33.834 -22.5 -54.501 -22.5s-38.5 7.5 -53.5 22.5z" />
    <glyph glyph-name="Ccaron" unicode="&#x10c;" horiz-adv-x="594" 
d="M131 73c-60 57.333 -89.999 138.331 -89.999 242.998c0 71.333 14.167 134.333 42.5 189s68.5 96.834 120.5 126.501s112 44.5 180 44.5c55.333 0 108.666 -10 159.999 -30l-27 -129c-45.333 20.667 -89.333 31 -132 31c-60.667 0 -108.667 -19.833 -144 -59.5
s-53 -92.5 -53 -158.5c0 -67.333 18.667 -119.666 56 -156.999s89 -56 155 -56c43.333 0 85.333 7 126 21l22 -123c-48.667 -18.667 -104 -28 -166 -28c-106.667 0 -190 28.667 -250 86zM184.001 862.998l44 69l124 -67l124 67l44 -69l-168 -132z" />
    <glyph glyph-name="ccaron" unicode="&#x10d;" horiz-adv-x="480" 
d="M106.5 53c-47 45.333 -70.501 109.334 -70.501 192.001c0 56 11 105.5 33 148.5s53 76.333 93 100s86.333 35.5 139 35.5c24.667 0 50.5 -2.83301 77.5 -8.5s47.833 -12.167 62.5 -19.5l-27 -119c-15.333 7.33301 -32.166 13.166 -50.499 17.499s-35.5 6.5 -51.5 6.5
c-41.333 0 -74.5 -14 -99.5 -42s-37.5 -65 -37.5 -111c0 -46.667 12.833 -82.667 38.5 -108s62.167 -38 109.5 -38c31.333 0 65 6 101 18l21 -114c-43.333 -17.333 -90 -26 -140 -26c-85.333 0 -151.5 22.667 -198.5 68zM108.999 712.001l44 69l124 -67l124 67l44 -69
l-168 -132z" />
    <glyph glyph-name="Dcaron" unicode="&#x10e;" horiz-adv-x="685" 
d="M69 0l0.000976562 666c28.667 0.666992 71 1 127 1c56.667 0 99 -0.333008 127 -1c65.333 -0.666992 122.166 -13.834 170.499 -39.501s85.666 -62.167 111.999 -109.5s39.5 -102.666 39.5 -165.999c0 -69.333 -15.167 -130.333 -45.5 -183s-73 -93.667 -128 -123
s-118.833 -44.333 -191.5 -45c-23.333 -0.666992 -58.333 -1 -105 -1c-47.333 0 -82.666 0.333008 -105.999 1zM279.001 126c67.333 0 120.333 19.667 159 59s58 93.333 58 162c0 62 -16.5 109.667 -49.5 143s-80.5 50 -142.5 50h-90v-414h65zM135.001 863l44 69l124 -67
l124 67l44 -69l-168 -132z" />
    <glyph glyph-name="dcaron" unicode="&#x10f;" horiz-adv-x="725" 
d="M572 600c20.667 24.667 35.999 50.333 45.999 77l-38 48c-2 22 3.33301 41 16 57c14.667 16.667 33.334 25 56.001 25c20 0 37.167 -7.66699 51.5 -23s21.5 -35 21.5 -59c0 -30 -12.167 -59.5 -36.5 -88.5s-54.5 -52.833 -90.5 -71.5zM89.499 51.999
c-33 44.667 -49.501 106.333 -49.501 185c0 94.667 24.5 167 73.5 217s119.5 75 211.5 75c10 0 26.333 -0.666992 49 -2v203h139v-730h-136v56c-19.333 -23.333 -41.666 -41 -66.999 -53s-53 -18 -83 -18c-58.667 0 -104.5 22.333 -137.5 67zM323.998 130.498
c18.667 15 35.334 36.833 50.001 65.5v201c-22.667 6 -44.334 9 -65.001 9c-42 0 -73.833 -13.667 -95.5 -41s-32.5 -67.333 -32.5 -120c0 -43.333 7.16699 -77 21.5 -101s34.833 -36 61.5 -36c21.333 0 41.333 7.5 60 22.5z" />
    <glyph glyph-name="Dcroat" unicode="&#x110;" horiz-adv-x="685" 
d="M493.5 626.5c48.333 -25.667 85.667 -62.167 112 -109.5s39.5 -102.666 39.5 -165.999c0 -69.333 -15.167 -130.333 -45.5 -183s-73 -93.667 -128 -123s-118.833 -44.333 -191.5 -45c-23.333 -0.666992 -58.333 -1 -105 -1c-47.333 0 -82.666 0.333008 -105.999 1v282
h-92l10 85h82v299c28.667 0.666992 71 1 127 1c56.667 0 99 -0.333008 127 -1c65.333 -0.666992 122.166 -13.834 170.499 -39.501zM438.001 185c38.667 39.333 58 93.333 58 162c0 62 -16.5 109.667 -49.5 143s-80.5 50 -142.5 50h-90v-173h131l-10 -85h-121v-156h65
c67.333 0 120.333 19.667 159 59z" />
    <glyph glyph-name="dcroat" unicode="&#x111;" horiz-adv-x="577" 
d="M580 581l-67 0.000976562v-581h-137l3 67h-4c-17.333 -26.667 -38.5 -47 -63.5 -61s-53.5 -21 -85.5 -21c-58 0 -103.5 22.167 -136.5 66.5s-49.5 106.166 -49.5 185.499c0 94 24.5 166.167 73.5 216.5s118.833 75.5 209.5 75.5c11.333 0 28.333 -0.666992 51 -2v54h-152
l10 85h142v64h139v-64h77zM374 397.001c-22.667 6 -44.333 9 -65 9c-42 0 -73.833 -13.667 -95.5 -41s-32.5 -67.333 -32.5 -120c0 -42.667 6.83301 -76.167 20.5 -100.5s32.5 -36.5 56.5 -36.5c21.333 0 42 9.16699 62 27.5s38 44.5 54 78.5v183z" />
    <glyph glyph-name="Emacron" unicode="&#x112;" horiz-adv-x="530" 
d="M70 666h405v-126h-262v-133h217v-122h-217v-159h262v-126h-405v666zM107 838h334l1 -89h-334z" />
    <glyph glyph-name="emacron" unicode="&#x113;" horiz-adv-x="563" 
d="M111.5 57c-47.667 48 -71.5039 114.665 -71.5039 199.998c0 55.333 10.333 103.5 31 144.5s49.834 72.5 87.501 94.5s81.834 33 132.501 33c74.667 0 132 -24 172 -72s60 -117.333 60 -208c0 -15.333 -0.333008 -26.666 -1 -33.999h-340
c6.66699 -35.333 22 -62.166 46 -80.499s56.333 -27.5 97 -27.5c24.667 0 50.334 3.16699 77.001 9.5s50 14.833 70 25.5l23 -113c-26.667 -14 -56.167 -24.833 -88.5 -32.5s-65.166 -11.5 -98.499 -11.5c-83.333 0 -148.833 24 -196.5 72zM387.996 320.998
c-2 28.667 -12 51.5 -30 68.5s-42 25.5 -72 25.5c-28.667 0 -52.167 -8.33301 -70.5 -25s-29.833 -39.667 -34.5 -69h207zM122.996 686.998h334l1 -89h-334z" />
    <glyph glyph-name="Edotaccent" unicode="&#x116;" horiz-adv-x="530" 
d="M70 666h405v-126h-262v-133h217v-122h-217v-159h262v-126h-405v666zM220.5 763.5c-15 15 -22.5 32.833 -22.5 53.5s7.83301 38.5 23.5 53.5s33.834 22.5 54.501 22.5s38.5 -7.5 53.5 -22.5s22.5 -32.833 22.5 -53.5s-7.83301 -38.5 -23.5 -53.5
s-33.834 -22.5 -54.501 -22.5s-38.5 7.5 -53.5 22.5z" />
    <glyph glyph-name="edotaccent" unicode="&#x117;" horiz-adv-x="563" 
d="M111.5 57c-47.667 48 -71.5039 114.665 -71.5039 199.998c0 55.333 10.333 103.5 31 144.5s49.834 72.5 87.501 94.5s81.834 33 132.501 33c74.667 0 132 -24 172 -72s60 -117.333 60 -208c0 -15.333 -0.333008 -26.666 -1 -33.999h-340
c6.66699 -35.333 22 -62.166 46 -80.499s56.333 -27.5 97 -27.5c24.667 0 50.334 3.16699 77.001 9.5s50 14.833 70 25.5l23 -113c-26.667 -14 -56.167 -24.833 -88.5 -32.5s-65.166 -11.5 -98.499 -11.5c-83.333 0 -148.833 24 -196.5 72zM387.996 320.998
c-2 28.667 -12 51.5 -30 68.5s-42 25.5 -72 25.5c-28.667 0 -52.167 -8.33301 -70.5 -25s-29.833 -39.667 -34.5 -69h207zM236.496 612.498c-15 15 -22.5 32.833 -22.5 53.5s7.83301 38.5 23.5 53.5s33.834 22.5 54.501 22.5s38.5 -7.5 53.5 -22.5s22.5 -32.833 22.5 -53.5
s-7.83301 -38.5 -23.5 -53.5s-33.834 -22.5 -54.501 -22.5s-38.5 7.5 -53.5 22.5z" />
    <glyph glyph-name="Eogonek" unicode="&#x118;" horiz-adv-x="530" 
d="M478 -120l-4.99902 -77c-10 -7.33301 -22.333 -13 -37 -17s-30.334 -6 -47.001 -6c-35.333 0 -63.166 8.83301 -83.499 26.5s-30.5 41.5 -30.5 71.5c0 28 8.5 52.5 25.5 73.5s38.5 37.167 64.5 48.5h-295v666h405v-126h-262v-133h217v-122h-217v-159h262v-126
c-32.667 -10 -59 -23 -79 -39s-30 -34 -30 -54c0 -14 5.16699 -24.833 15.5 -32.5s23.166 -11.5 38.499 -11.5c20 0 39.333 5.66699 58 17z" />
    <glyph glyph-name="eogonek" unicode="&#x119;" horiz-adv-x="563" 
d="M522 215l-340.002 -0.00292969c6.66699 -35.333 22 -62.166 46 -80.499s56.333 -27.5 97 -27.5c24.667 0 50.334 3.16699 77.001 9.5s50 14.833 70 25.5l23 -113c-24 -12.667 -49.667 -22.334 -77 -29.001c-32.667 -10.667 -58.667 -24 -78 -40s-29 -33.667 -29 -53
c0 -14 5.16699 -24.833 15.5 -32.5s23.166 -11.5 38.499 -11.5c20 0 39.333 5.66699 58 17l-5 -77c-10 -7.33301 -22.333 -13 -37 -17s-30.334 -6 -47.001 -6c-35.333 0 -63.166 8.83301 -83.499 26.5s-30.5 41.5 -30.5 71.5c0 22.667 5.66699 43.167 17 61.5
s27 33.833 47 46.5c-76 4.66699 -135.667 30.834 -179 78.501s-65 111.834 -65 192.501c0 55.333 10.333 103.5 31 144.5s49.834 72.5 87.501 94.5s81.834 33 132.501 33c74.667 0 132 -24 172 -72s60 -117.333 60 -208c0 -15.333 -0.333008 -26.666 -1 -33.999z
M387.998 320.997c-2 28.667 -12 51.5 -30 68.5s-42 25.5 -72 25.5c-28.667 0 -52.167 -8.33301 -70.5 -25s-29.833 -39.667 -34.5 -69h207z" />
    <glyph glyph-name="Ecaron" unicode="&#x11a;" horiz-adv-x="530" 
d="M70 666h405v-126h-262v-133h217v-122h-217v-159h262v-126h-405v666zM107 863l44 69l124 -67l124 67l44 -69l-168 -132z" />
    <glyph glyph-name="ecaron" unicode="&#x11b;" horiz-adv-x="563" 
d="M111.5 57c-47.667 48 -71.5039 114.665 -71.5039 199.998c0 55.333 10.333 103.5 31 144.5s49.834 72.5 87.501 94.5s81.834 33 132.501 33c74.667 0 132 -24 172 -72s60 -117.333 60 -208c0 -15.333 -0.333008 -26.666 -1 -33.999h-340
c6.66699 -35.333 22 -62.166 46 -80.499s56.333 -27.5 97 -27.5c24.667 0 50.334 3.16699 77.001 9.5s50 14.833 70 25.5l23 -113c-26.667 -14 -56.167 -24.833 -88.5 -32.5s-65.166 -11.5 -98.499 -11.5c-83.333 0 -148.833 24 -196.5 72zM387.996 320.998
c-2 28.667 -12 51.5 -30 68.5s-42 25.5 -72 25.5c-28.667 0 -52.167 -8.33301 -70.5 -25s-29.833 -39.667 -34.5 -69h207zM122.996 711.998l44 69l124 -67l124 67l44 -69l-168 -132z" />
    <glyph glyph-name="Gbreve" unicode="&#x11e;" horiz-adv-x="688" 
d="M211.5 24.5c-53.667 26.333 -94.832 64.165 -123.499 113.498s-43 108 -43 176c0 71.333 15.167 134.333 45.5 189s73 97 128 127s118.5 45 190.5 45c41.333 0 80.5 -4.66699 117.5 -14s69.833 -22.666 98.5 -39.999l-35 -120c-26 16 -55 28.5 -87 37.5
s-63.333 13.5 -94 13.5c-44 0 -82.833 -9.5 -116.5 -28.5s-59.667 -45.667 -78 -80s-27.5 -74.166 -27.5 -119.499c0 -66.667 20.167 -119.167 60.5 -157.5s95.5 -57.5 165.5 -57.5c28 0 54 2 78 6v138h-84v117h217v-346c-68.667 -26 -142.334 -39 -221.001 -39
c-74 0 -137.833 13.167 -191.5 39.5zM282.502 772.499c-33.667 26.333 -57.832 64.167 -72.499 113.5l69 23c14 -26.667 31 -46.834 51 -60.501s41.333 -20.5 64 -20.5c22 0 43.333 7 64 21s37.667 34 51 60l69 -23c-14.667 -49.333 -39 -87.166 -73 -113.499
s-71 -39.5 -111 -39.5c-40.667 0 -77.834 13.167 -111.501 39.5z" />
    <glyph glyph-name="gbreve" unicode="&#x11f;" horiz-adv-x="577" 
d="M58 -204l26.998 123.998c64 -18.667 117.333 -28 160 -28c34 0 60.167 5.33301 78.5 16s31.333 27.334 39 50.001s12.167 53.667 13.5 93h-3c-18.667 -21.333 -40.334 -37.666 -65.001 -48.999s-51.667 -17 -81 -17c-58.667 0 -104.5 22.167 -137.5 66.5
s-49.5 105.833 -49.5 184.5c0 95.333 24.5 168 73.5 218s119.167 75 210.5 75c52.667 0 115.334 -8 188.001 -24c1.33301 -137.333 2 -240.666 2 -309.999c0 -62 -0.333008 -108.667 -1 -140c-1.33301 -94.667 -25.166 -165.334 -71.499 -212.001s-116.166 -70 -209.499 -70
c-59.333 0 -117.333 7.66699 -174 23zM323.498 130.998c19 15.333 35.833 36.999 50.5 64.999l-1 201c-22 6 -43.333 9 -64 9c-42 0 -73.833 -13.667 -95.5 -41s-32.5 -67 -32.5 -119c0 -43.333 7.16699 -77.166 21.5 -101.499s34.833 -36.5 61.5 -36.5
c20.667 0 40.5 7.66699 59.5 23zM197.498 621.497c-33.667 26.333 -57.832 64.167 -72.499 113.5l69 23c14 -26.667 31 -46.834 51 -60.501s41.333 -20.5 64 -20.5c22 0 43.333 7 64 21s37.667 34 51 60l69 -23c-14.667 -49.333 -39 -87.166 -73 -113.499
s-71 -39.5 -111 -39.5c-40.667 0 -77.834 13.167 -111.501 39.5z" />
    <glyph glyph-name="Gdotaccent" unicode="&#x120;" horiz-adv-x="688" 
d="M211.5 24.5c-53.667 26.333 -94.832 64.165 -123.499 113.498s-43 108 -43 176c0 71.333 15.167 134.333 45.5 189s73 97 128 127s118.5 45 190.5 45c41.333 0 80.5 -4.66699 117.5 -14s69.833 -22.666 98.5 -39.999l-35 -120c-26 16 -55 28.5 -87 37.5
s-63.333 13.5 -94 13.5c-44 0 -82.833 -9.5 -116.5 -28.5s-59.667 -45.667 -78 -80s-27.5 -74.166 -27.5 -119.499c0 -66.667 20.167 -119.167 60.5 -157.5s95.5 -57.5 165.5 -57.5c28 0 54 2 78 6v138h-84v117h217v-346c-68.667 -26 -142.334 -39 -221.001 -39
c-74 0 -137.833 13.167 -191.5 39.5zM339.502 763.499c-15 15 -22.5 32.833 -22.5 53.5s7.83301 38.5 23.5 53.5s33.834 22.5 54.501 22.5s38.5 -7.5 53.5 -22.5s22.5 -32.833 22.5 -53.5s-7.83301 -38.5 -23.5 -53.5s-33.834 -22.5 -54.501 -22.5s-38.5 7.5 -53.5 22.5z
" />
    <glyph glyph-name="gdotaccent" unicode="&#x121;" horiz-adv-x="577" 
d="M58 -204l26.998 123.998c64 -18.667 117.333 -28 160 -28c34 0 60.167 5.33301 78.5 16s31.333 27.334 39 50.001s12.167 53.667 13.5 93h-3c-18.667 -21.333 -40.334 -37.666 -65.001 -48.999s-51.667 -17 -81 -17c-58.667 0 -104.5 22.167 -137.5 66.5
s-49.5 105.833 -49.5 184.5c0 95.333 24.5 168 73.5 218s119.167 75 210.5 75c52.667 0 115.334 -8 188.001 -24c1.33301 -137.333 2 -240.666 2 -309.999c0 -62 -0.333008 -108.667 -1 -140c-1.33301 -94.667 -25.166 -165.334 -71.499 -212.001s-116.166 -70 -209.499 -70
c-59.333 0 -117.333 7.66699 -174 23zM323.498 130.998c19 15.333 35.833 36.999 50.5 64.999l-1 201c-22 6 -43.333 9 -64 9c-42 0 -73.833 -13.667 -95.5 -41s-32.5 -67 -32.5 -119c0 -43.333 7.16699 -77.166 21.5 -101.499s34.833 -36.5 61.5 -36.5
c20.667 0 40.5 7.66699 59.5 23zM254.498 612.497c-15 15 -22.5 32.833 -22.5 53.5s7.83301 38.5 23.5 53.5s33.834 22.5 54.501 22.5s38.5 -7.5 53.5 -22.5s22.5 -32.833 22.5 -53.5s-7.83301 -38.5 -23.5 -53.5s-33.834 -22.5 -54.501 -22.5s-38.5 7.5 -53.5 22.5z" />
    <glyph glyph-name="Gcommaaccent" unicode="&#x122;" horiz-adv-x="688" 
d="M211.5 24.5c-53.667 26.333 -94.832 64.165 -123.499 113.498s-43 108 -43 176c0 71.333 15.167 134.333 45.5 189s73 97 128 127s118.5 45 190.5 45c41.333 0 80.5 -4.66699 117.5 -14s69.833 -22.666 98.5 -39.999l-35 -120c-26 16 -55 28.5 -87 37.5
s-63.333 13.5 -94 13.5c-44 0 -82.833 -9.5 -116.5 -28.5s-59.667 -45.667 -78 -80s-27.5 -74.166 -27.5 -119.499c0 -66.667 20.167 -119.167 60.5 -157.5s95.5 -57.5 165.5 -57.5c28 0 54 2 78 6v138h-84v117h217v-346c-68.667 -26 -142.334 -39 -221.001 -39
c-74 0 -137.833 13.167 -191.5 39.5zM325.002 -265.001c22 29.333 36.334 53 43.001 71l-41 61c0 17.333 6.66699 33 20 47s30.333 21 51 21s38 -7.16699 52 -21.5s21 -32.5 21 -54.5c0 -26 -10.333 -55.5 -31 -88.5s-53.334 -65.167 -98.001 -96.5z" />
    <glyph glyph-name="gcommaaccent" unicode="&#x123;" horiz-adv-x="577" 
d="M58 -204l26.998 123.998c64 -18.667 117.333 -28 160 -28c34 0 60.167 5.33301 78.5 16s31.333 27.334 39 50.001s12.167 53.667 13.5 93h-3c-18.667 -21.333 -40.334 -37.666 -65.001 -48.999s-51.667 -17 -81 -17c-58.667 0 -104.5 22.167 -137.5 66.5
s-49.5 105.833 -49.5 184.5c0 95.333 24.5 168 73.5 218s119.167 75 210.5 75c52.667 0 115.334 -8 188.001 -24c1.33301 -137.333 2 -240.666 2 -309.999c0 -62 -0.333008 -108.667 -1 -140c-1.33301 -94.667 -25.166 -165.334 -71.499 -212.001s-116.166 -70 -209.499 -70
c-59.333 0 -117.333 7.66699 -174 23zM323.498 130.998c19 15.333 35.833 36.999 50.5 64.999l-1 201c-22 6 -43.333 9 -64 9c-42 0 -73.833 -13.667 -95.5 -41s-32.5 -67 -32.5 -119c0 -43.333 7.16699 -77.166 21.5 -101.499s34.833 -36.5 61.5 -36.5
c20.667 0 40.5 7.66699 59.5 23zM256.998 601.497c-14 14.333 -21 32.5 -21 54.5c0 34 15.667 64.667 47 92s69 47 113 59l18 -39c-26 -20.667 -46.333 -42.667 -61 -66l26 -53c0 -18 -6.66699 -34 -20 -48s-30 -21 -50 -21c-20.667 0 -38 7.16699 -52 21.5z" />
    <glyph glyph-name="Hbar" unicode="&#x126;" horiz-adv-x="716" 
d="M646 666v-666h-147v284h-283v-284h-146v666h146v-88h283v88h147zM499 408v85h-283v-85h283z" />
    <glyph glyph-name="hbar" unicode="&#x127;" horiz-adv-x="606" 
d="M499 479.5c31.333 -33 46.999 -78.833 46.999 -137.5v-342h-141v320c0 26.667 -6.66699 47.5 -20 62.5s-31.333 22.5 -54 22.5c-24.667 0 -48.167 -8.5 -70.5 -25.5s-40.5 -39.5 -54.5 -67.5v-312h-141v581h-82l10 85h72v64h141v-64h145l-10 -85h-135v-141
c20.667 30.667 44.334 53.167 71.001 67.5s57.334 21.5 92.001 21.5c55.333 0 98.666 -16.5 129.999 -49.5z" />
    <glyph glyph-name="Imacron" unicode="&#x12a;" horiz-adv-x="301" 
d="M78 666h145v-666h-145v666zM-17 838h334l1 -89h-334z" />
    <glyph glyph-name="imacron" unicode="&#x12b;" horiz-adv-x="398" 
d="M47 121h96v273h-96v121h237v-394h86v-121h-323v121zM31 687h334l1 -89h-334z" />
    <glyph glyph-name="Iogonek" unicode="&#x12e;" horiz-adv-x="301" 
d="M53.5 -193.5c-20.333 17.667 -30.499 41.501 -30.499 71.501c0 21.333 5 40.666 15 57.999s23.333 32 40 44v686h145v-666c-32.667 -10 -59 -23 -79 -39s-30 -34 -30 -54c0 -14 5.16699 -24.833 15.5 -32.5s23.166 -11.5 38.499 -11.5c20 0 39.333 5.66699 58 17l-5 -77
c-10 -7.33301 -22.333 -13 -37 -17s-30.334 -6 -47.001 -6c-35.333 0 -63.166 8.83301 -83.499 26.5z" />
    <glyph glyph-name="iogonek" unicode="&#x12f;" horiz-adv-x="398" 
d="M144.5 612.5c-15 15 -22.5 32.833 -22.5 53.5s7.83301 38.5 23.5 53.5s33.834 22.5 54.501 22.5s38.5 -7.5 53.5 -22.5s22.5 -32.833 22.5 -53.5s-7.83301 -38.5 -23.5 -53.5s-33.834 -22.5 -54.501 -22.5s-38.5 7.5 -53.5 22.5zM373 -120l-4.99902 -77
c-10 -7.33301 -22.333 -13 -37 -17s-30.334 -6 -47.001 -6c-35.333 0 -63.166 8.83301 -83.499 26.5s-30.5 41.5 -30.5 71.5c0 28 8.5 52.5 25.5 73.5s38.5 37.167 64.5 48.5h-213v121h96v273h-96v121h237v-394h86v-121c-32.667 -10 -59 -23 -79 -39s-30 -34 -30 -54
c0 -14 5.16699 -24.833 15.5 -32.5s23.166 -11.5 38.499 -11.5c20 0 39.333 5.66699 58 17z" />
    <glyph glyph-name="Idotaccent" unicode="&#x130;" horiz-adv-x="301" 
d="M78 666h145v-666h-145v666zM96.5 763.5c-15 15 -22.5 32.833 -22.5 53.5s7.83301 38.5 23.5 53.5s33.834 22.5 54.501 22.5s38.5 -7.5 53.5 -22.5s22.5 -32.833 22.5 -53.5s-7.83301 -38.5 -23.5 -53.5s-33.834 -22.5 -54.501 -22.5s-38.5 7.5 -53.5 22.5z" />
    <glyph glyph-name="dotlessi" unicode="&#x131;" horiz-adv-x="398" 
d="M47 121h96v273h-96v121h237v-394h86v-121h-323v121z" />
    <glyph glyph-name="Kcommaaccent" unicode="&#x136;" horiz-adv-x="615" 
d="M70 666h145v-258l217 258h173l-274 -316l260 -350h-176l-200 269v-269h-145v666zM234 -265c22 29.333 36.334 53 43.001 71l-41 61c0 17.333 6.66699 33 20 47s30.333 21 51 21s38 -7.16699 52 -21.5s21 -32.5 21 -54.5c0 -26 -10.333 -55.5 -31 -88.5
s-53.334 -65.167 -98.001 -96.5z" />
    <glyph glyph-name="kcommaaccent" unicode="&#x137;" horiz-adv-x="545" 
d="M206 224v-224h-141v731h141v-404l161 188h167l-206 -231l217 -278l-153 -21zM204 -265c22 29.333 36.334 53 43.001 71l-41 61c0 17.333 6.66699 33 20 47s30.333 21 51 21s38 -7.16699 52 -21.5s21 -32.5 21 -54.5c0 -26 -10.333 -55.5 -31 -88.5
s-53.334 -65.167 -98.001 -96.5z" />
    <glyph glyph-name="Lacute" unicode="&#x139;" horiz-adv-x="485" 
d="M70 666h145v-540h240v-126h-385v666zM112 770c26 20.667 46.333 42.667 61 66l-26 53c0 18 6.66699 34 20 48s30 21 50 21c20.667 0 38 -7.16699 52 -21.5s21 -32.5 21 -54.5c0 -34 -15.667 -64.667 -47 -92s-69 -47 -113 -59z" />
    <glyph glyph-name="lacute" unicode="&#x13a;" horiz-adv-x="393" 
d="M156 834c26 20.667 46.333 42.667 61 66l-26 53c0 18 6.66699 34 20 48s30 21 50 21c20.667 0 38 -7.16699 52 -21.5s21 -32.5 21 -54.5c0 -34 -15.667 -64.667 -47 -92s-69 -47 -113 -59zM42 121h91v489h-86v120h227v-609h91v-121h-323v121z" />
    <glyph glyph-name="Lcommaaccent" unicode="&#x13b;" horiz-adv-x="485" 
d="M70 666h145v-540h240v-126h-385v666zM187 -265c22 29.333 36.334 53 43.001 71l-41 61c0 17.333 6.66699 33 20 47s30.333 21 51 21s38 -7.16699 52 -21.5s21 -32.5 21 -54.5c0 -26 -10.333 -55.5 -31 -88.5s-53.334 -65.167 -98.001 -96.5z" />
    <glyph glyph-name="lcommaaccent" unicode="&#x13c;" horiz-adv-x="393" 
d="M42 121h91v489h-86v120h227v-609h91v-121h-323v121zM123 -265c22 29.333 36.334 53 43.001 71l-41 61c0 17.333 6.66699 33 20 47s30.333 21 51 21s38 -7.16699 52 -21.5s21 -32.5 21 -54.5c0 -26 -10.333 -55.5 -31 -88.5s-53.334 -65.167 -98.001 -96.5z" />
    <glyph glyph-name="Lcaron" unicode="&#x13d;" horiz-adv-x="505" 
d="M324 484c20.667 24.667 35.999 50.333 45.999 77l-38 48c-2 22 3.33301 41 16 57c14.667 16.667 33.334 25 56.001 25c20 0 37.167 -7.66699 51.5 -23s21.5 -35 21.5 -59c0 -30 -12.167 -59.5 -36.5 -88.5s-54.5 -52.833 -90.5 -71.5zM69.999 665.999h145v-540h240v-126
h-385v666z" />
    <glyph glyph-name="lcaron" unicode="&#x13e;" horiz-adv-x="488" 
d="M339 600c20.667 24.667 35.999 50.333 45.999 77l-38 48c-2 22 3.33301 41 16 57c14.667 16.667 33.334 25 56.001 25c20 0 37.167 -7.66699 51.5 -23s21.5 -35 21.5 -59c0 -30 -12.167 -59.5 -36.5 -88.5s-54.5 -52.833 -90.5 -71.5zM41.999 120.999h91v489h-86v120h227
v-609h91v-121h-323v121z" />
    <glyph glyph-name="Lslash" unicode="&#x141;" horiz-adv-x="485" 
d="M455 126v-126h-385v246l-54 -40l-19 97l73 55v308h145v-200l71 53l19 -97l-90 -67v-229h240z" />
    <glyph glyph-name="lslash" unicode="&#x142;" horiz-adv-x="393" 
d="M365 121v-121h-323v121h91v154l-71 -53l-19 97l90 67v224h-86v120h227v-238l58 43l19 -97l-77 -58v-259h91z" />
    <glyph glyph-name="Nacute" unicode="&#x143;" horiz-adv-x="719" 
d="M70 666h170l276 -467v467h133v-666h-168l-278 470v-470h-133v666zM329 770c26 20.667 46.333 42.667 61 66l-26 53c0 18 6.66699 34 20 48s30 21 50 21c20.667 0 38 -7.16699 52 -21.5s21 -32.5 21 -54.5c0 -34 -15.667 -64.667 -47 -92s-69 -47 -113 -59z" />
    <glyph glyph-name="nacute" unicode="&#x144;" horiz-adv-x="612" 
d="M65 515h138.001v-89c21.333 35.333 46 61.333 74 78s60.667 25 98 25c55.333 0 98.666 -16.5 129.999 -49.5s47 -78.833 47 -137.5v-342h-141v320c0 26.667 -6.66699 47.5 -20 62.5s-31.333 22.5 -54 22.5c-26.667 0 -52 -10 -76 -30s-42.333 -45.333 -55 -76v-299h-141
v515zM275.001 619c26 20.667 46.333 42.667 61 66l-26 53c0 18 6.66699 34 20 48s30 21 50 21c20.667 0 38 -7.16699 52 -21.5s21 -32.5 21 -54.5c0 -34 -15.667 -64.667 -47 -92s-69 -47 -113 -59z" />
    <glyph glyph-name="Ncommaaccent" unicode="&#x145;" horiz-adv-x="719" 
d="M70 666h170l276 -467v467h133v-666h-168l-278 470v-470h-133v666zM286 -265c22 29.333 36.334 53 43.001 71l-41 61c0 17.333 6.66699 33 20 47s30.333 21 51 21s38 -7.16699 52 -21.5s21 -32.5 21 -54.5c0 -26 -10.333 -55.5 -31 -88.5s-53.334 -65.167 -98.001 -96.5z
" />
    <glyph glyph-name="ncommaaccent" unicode="&#x146;" horiz-adv-x="612" 
d="M65 515h138.001v-89c21.333 35.333 46 61.333 74 78s60.667 25 98 25c55.333 0 98.666 -16.5 129.999 -49.5s47 -78.833 47 -137.5v-342h-141v320c0 26.667 -6.66699 47.5 -20 62.5s-31.333 22.5 -54 22.5c-26.667 0 -52 -10 -76 -30s-42.333 -45.333 -55 -76v-299h-141
v515zM232.001 -265c22 29.333 36.334 53 43.001 71l-41 61c0 17.333 6.66699 33 20 47s30.333 21 51 21s38 -7.16699 52 -21.5s21 -32.5 21 -54.5c0 -26 -10.333 -55.5 -31 -88.5s-53.334 -65.167 -98.001 -96.5z" />
    <glyph glyph-name="Ncaron" unicode="&#x147;" horiz-adv-x="719" 
d="M70 666h170l276 -467v467h133v-666h-168l-278 470v-470h-133v666zM192 863l44 69l124 -67l124 67l44 -69l-168 -132z" />
    <glyph glyph-name="ncaron" unicode="&#x148;" horiz-adv-x="612" 
d="M65 515h138.001v-89c21.333 35.333 46 61.333 74 78s60.667 25 98 25c55.333 0 98.666 -16.5 129.999 -49.5s47 -78.833 47 -137.5v-342h-141v320c0 26.667 -6.66699 47.5 -20 62.5s-31.333 22.5 -54 22.5c-26.667 0 -52 -10 -76 -30s-42.333 -45.333 -55 -76v-299h-141
v515zM138.001 712l44 69l124 -67l124 67l44 -69l-168 -132z" />
    <glyph glyph-name="Eng" unicode="&#x14a;" horiz-adv-x="719" 
d="M373 -214l38.001 118c16 -7.33301 31.333 -11 46 -11c34.667 0 52 20.333 52 61v46h-28l-278 470v-470h-133v666h170l276 -467v467h133v-723c0 -54 -15.833 -96.833 -47.5 -128.5s-74.167 -47.5 -127.5 -47.5c-30.667 0 -64.334 6.33301 -101.001 19z" />
    <glyph glyph-name="eng" unicode="&#x14b;" horiz-adv-x="613" 
d="M277 -213l37.002 117.001c16 -7.33301 31.333 -11 46 -11c17.333 0 30.166 5 38.499 15s12.5 25.667 12.5 47v365c0 26.667 -6.66699 47.5 -20 62.5s-31.333 22.5 -54 22.5c-26.667 0 -52 -10 -76 -30s-42.333 -45.333 -55 -76v-299h-141v515h138v-89
c21.333 35.333 46 61.333 74 78s60.667 25 98 25c55.333 0 98.666 -16.5 129.999 -49.5s47 -78.833 47 -137.5v-398c0 -54.667 -15.833 -97.834 -47.5 -129.501s-74.167 -47.5 -127.5 -47.5c-34 0 -67.333 6.66699 -100 20z" />
    <glyph glyph-name="Omacron" unicode="&#x14c;" horiz-adv-x="741" 
d="M198 30c-50 28.667 -88.833 68.998 -116.5 120.998s-41.5 111.667 -41.5 179c0 68 13.667 128 41 180s66 92.333 116 121s108 43 174 43c65.333 0 123 -14.167 173 -42.5s88.667 -68.166 116 -119.499s41 -110.666 41 -177.999c0 -68.667 -13.667 -129.167 -41 -181.5
s-66 -93 -116 -122s-107.667 -43.5 -173 -43.5s-123 14.333 -173 43zM502.5 172.998c33 39.333 49.5 91.668 49.5 157.001c0 42.667 -7.5 80.5 -22.5 113.5s-36.333 58.333 -64 76s-59.167 26.5 -94.5 26.5s-66.833 -8.83301 -94.5 -26.5s-49 -43 -64 -76
s-22.5 -70.833 -22.5 -113.5s7.5 -80.334 22.5 -113.001s36.167 -58 63.5 -76s59 -27 95 -27c54.667 0 98.5 19.667 131.5 59zM203 838h334l1 -89h-334z" />
    <glyph glyph-name="omacron" unicode="&#x14d;" horiz-adv-x="604" 
d="M165.5 19c-39.667 22.667 -70.501 54.5 -92.501 95.5s-33 88.5 -33 142.5s10.833 101.5 32.5 142.5s52.334 72.833 92.001 95.5s85.5 34 137.5 34s97.833 -11.167 137.5 -33.5s70.334 -53.833 92.001 -94.5s32.5 -87.667 32.5 -141c0 -54 -10.833 -101.833 -32.5 -143.5
s-52.334 -74 -92.001 -97s-85.167 -34.5 -136.5 -34.5c-52 0 -97.833 11.333 -137.5 34zM388.499 148.5c21.667 27.667 32.5 64.167 32.5 109.5s-10.833 81.5 -32.5 108.5s-50.5 40.5 -86.5 40.5s-64.833 -13.5 -86.5 -40.5s-32.5 -63.167 -32.5 -108.5
s10.833 -81.833 32.5 -109.5s50.5 -41.5 86.5 -41.5s64.833 13.833 86.5 41.5zM133.999 687h334l1 -89h-334z" />
    <glyph glyph-name="Ohungarumlaut" unicode="&#x150;" horiz-adv-x="741" 
d="M198 30c-50 28.667 -88.833 68.998 -116.5 120.998s-41.5 111.667 -41.5 179c0 68 13.667 128 41 180s66 92.333 116 121s108 43 174 43c65.333 0 123 -14.167 173 -42.5s88.667 -68.166 116 -119.499s41 -110.666 41 -177.999c0 -68.667 -13.667 -129.167 -41 -181.5
s-66 -93 -116 -122s-107.667 -43.5 -173 -43.5s-123 14.333 -173 43zM502.5 172.998c33 39.333 49.5 91.668 49.5 157.001c0 42.667 -7.5 80.5 -22.5 113.5s-36.333 58.333 -64 76s-59.167 26.5 -94.5 26.5s-66.833 -8.83301 -94.5 -26.5s-49 -43 -64 -76
s-22.5 -70.833 -22.5 -113.5s7.5 -80.334 22.5 -113.001s36.167 -58 63.5 -76s59 -27 95 -27c54.667 0 98.5 19.667 131.5 59zM205 770c26 20.667 46.333 42.667 61 66l-26 53c0 18 6.66699 34 20 48s30 21 50 21c20.667 0 38 -7.16699 52 -21.5s21 -32.5 21 -54.5
c0 -34 -15.667 -64.667 -47 -92s-69 -47 -113 -59zM395 770c26 20.667 46.333 42.667 61 66l-26 53c0 18 6.66699 34 20 48s30 21 50 21c20.667 0 38 -7.16699 52 -21.5s21 -32.5 21 -54.5c0 -34 -15.667 -64.667 -47 -92s-69 -47 -113 -59z" />
    <glyph glyph-name="ohungarumlaut" unicode="&#x151;" horiz-adv-x="604" 
d="M165.5 19c-39.667 22.667 -70.501 54.5 -92.501 95.5s-33 88.5 -33 142.5s10.833 101.5 32.5 142.5s52.334 72.833 92.001 95.5s85.5 34 137.5 34s97.833 -11.167 137.5 -33.5s70.334 -53.833 92.001 -94.5s32.5 -87.667 32.5 -141c0 -54 -10.833 -101.833 -32.5 -143.5
s-52.334 -74 -92.001 -97s-85.167 -34.5 -136.5 -34.5c-52 0 -97.833 11.333 -137.5 34zM388.499 148.5c21.667 27.667 32.5 64.167 32.5 109.5s-10.833 81.5 -32.5 108.5s-50.5 40.5 -86.5 40.5s-64.833 -13.5 -86.5 -40.5s-32.5 -63.167 -32.5 -108.5
s10.833 -81.833 32.5 -109.5s50.5 -41.5 86.5 -41.5s64.833 13.833 86.5 41.5zM135.999 619c26 20.667 46.333 42.667 61 66l-26 53c0 18 6.66699 34 20 48s30 21 50 21c20.667 0 38 -7.16699 52 -21.5s21 -32.5 21 -54.5c0 -34 -15.667 -64.667 -47 -92s-69 -47 -113 -59z
M325.999 619c26 20.667 46.333 42.667 61 66l-26 53c0 18 6.66699 34 20 48s30 21 50 21c20.667 0 38 -7.16699 52 -21.5s21 -32.5 21 -54.5c0 -34 -15.667 -64.667 -47 -92s-69 -47 -113 -59z" />
    <glyph glyph-name="OE" unicode="&#x152;" horiz-adv-x="910" 
d="M198 30c-50 28.667 -88.833 69 -116.5 121s-41.5 111.667 -41.5 179c0 68 13.667 128 41 180s66 92.333 116 121s108 43 174 43c26 0 52.333 -2.66699 79 -8h405v-126h-262v-133h217v-122h-217v-159h262v-126h-385c-28.667 -8.66699 -61.667 -13 -99 -13
c-65.333 0 -123 14.333 -173 43zM450 131v398.002c-24.667 11.333 -51.667 17 -81 17c-35.333 0 -66.5 -9 -93.5 -27s-48 -43.333 -63 -76s-22.5 -70.334 -22.5 -113.001s7.5 -80.334 22.5 -113.001s36.167 -58 63.5 -76s59 -27 95 -27c28.667 0 55 5.66699 79 17z" />
    <glyph glyph-name="oe" unicode="&#x153;" horiz-adv-x="903" 
d="M165.5 19c-39.667 22.667 -70.502 54.498 -92.502 95.498s-33 88.5 -33 142.5s10.833 101.5 32.5 142.5s52.334 72.833 92.001 95.5s85.5 34 137.5 34c65.333 0 121 -17.667 167 -53c43.333 35.333 97.333 53 162 53c74.667 0 132 -24 172 -72s60 -117.333 60 -208
c0 -15.333 -0.333008 -26.666 -1 -33.999h-340c6.66699 -35.333 22 -62.166 46 -80.499s56.333 -27.5 97 -27.5c24.667 0 50.334 3.16699 77.001 9.5s50 14.833 70 25.5l23 -113c-26.667 -14 -56.167 -24.833 -88.5 -32.5s-65.166 -11.5 -98.499 -11.5
c-72.667 0 -132.334 18.667 -179.001 56c-44.667 -37.333 -100 -56 -166 -56c-52 0 -97.833 11.333 -137.5 34zM727.998 320.998c-2 28.667 -12 51.5 -30 68.5s-42 25.5 -72 25.5c-28.667 0 -52.167 -8.33301 -70.5 -25s-29.833 -39.667 -34.5 -69h207zM354.498 119.498
c15.667 8.33301 28.834 20.501 39.501 36.501c-9.33301 31.333 -14 65 -14 101s4.66699 70 14 102c-10.667 15.333 -23.834 27.166 -39.501 35.499s-33.167 12.5 -52.5 12.5c-36 0 -64.833 -13.5 -86.5 -40.5s-32.5 -63.167 -32.5 -108.5s10.833 -81.833 32.5 -109.5
s50.5 -41.5 86.5 -41.5c19.333 0 36.833 4.16699 52.5 12.5z" />
    <glyph glyph-name="Racute" unicode="&#x154;" horiz-adv-x="560" 
d="M66 666c20 0.666992 57.333 0.999023 112 0.999023c55.333 0 93 -0.333008 113 -1c76 -2.66699 132.667 -21.167 170 -55.5s56 -80.5 56 -138.5c0 -49.333 -12.5 -91.166 -37.5 -125.499s-59.833 -56.833 -104.5 -67.5c14 -11.333 28.333 -26.833 43 -46.5
s35 -50.167 61 -91.5c27.333 -43.333 55 -90.333 83 -141h-168l-113 210c-12 22 -22.833 35.833 -32.5 41.5s-24.167 8.5 -43.5 8.5v-260h-139v666zM267 370.999c34 0 60.832 8.66797 80.499 26.001s29.5 40.666 29.5 69.999c0 26.667 -8.66699 47 -26 61
s-42.666 21 -75.999 21h-70v-178h62zM238.999 770c26 20.667 46.333 42.667 61 66l-26 53c0 18 6.66699 34 20 48s30 21 50 21c20.667 0 38 -7.16699 52 -21.5s21 -32.5 21 -54.5c0 -34 -15.667 -64.667 -47 -92s-69 -47 -113 -59z" />
    <glyph glyph-name="racute" unicode="&#x155;" horiz-adv-x="399" 
d="M68 515h141v-84h8c19.333 34 38.5 59 57.5 75s42.833 24 71.5 24c12 0 22 -1.33301 30 -4l-15 -152c-17.333 4.66699 -31.333 7 -42 7c-15.333 0 -28.833 -3 -40.5 -9s-22 -14 -31 -24s-21.833 -25.333 -38.5 -46v-302h-141v515zM169 619c26 20.667 46.333 42.667 61 66
l-26 53c0 18 6.66699 34 20 48s30 21 50 21c20.667 0 38 -7.16699 52 -21.5s21 -32.5 21 -54.5c0 -34 -15.667 -64.667 -47 -92s-69 -47 -113 -59z" />
    <glyph glyph-name="Rcommaaccent" unicode="&#x156;" horiz-adv-x="560" 
d="M66 666c20 0.666992 57.333 0.999023 112 0.999023c55.333 0 93 -0.333008 113 -1c76 -2.66699 132.667 -21.167 170 -55.5s56 -80.5 56 -138.5c0 -49.333 -12.5 -91.166 -37.5 -125.499s-59.833 -56.833 -104.5 -67.5c14 -11.333 28.333 -26.833 43 -46.5
s35 -50.167 61 -91.5c27.333 -43.333 55 -90.333 83 -141h-168l-113 210c-12 22 -22.833 35.833 -32.5 41.5s-24.167 8.5 -43.5 8.5v-260h-139v666zM267 370.999c34 0 60.832 8.66797 80.499 26.001s29.5 40.666 29.5 69.999c0 26.667 -8.66699 47 -26 61
s-42.666 21 -75.999 21h-70v-178h62zM222.999 -265c22 29.333 36.334 53 43.001 71l-41 61c0 17.333 6.66699 33 20 47s30.333 21 51 21s38 -7.16699 52 -21.5s21 -32.5 21 -54.5c0 -26 -10.333 -55.5 -31 -88.5s-53.334 -65.167 -98.001 -96.5z" />
    <glyph glyph-name="rcommaaccent" unicode="&#x157;" horiz-adv-x="399" 
d="M68 515h141v-84h8c19.333 34 38.5 59 57.5 75s42.833 24 71.5 24c12 0 22 -1.33301 30 -4l-15 -152c-17.333 4.66699 -31.333 7 -42 7c-15.333 0 -28.833 -3 -40.5 -9s-22 -14 -31 -24s-21.833 -25.333 -38.5 -46v-302h-141v515zM62 -265c22 29.333 36.334 53 43.001 71
l-41 61c0 17.333 6.66699 33 20 47s30.333 21 51 21s38 -7.16699 52 -21.5s21 -32.5 21 -54.5c0 -26 -10.333 -55.5 -31 -88.5s-53.334 -65.167 -98.001 -96.5z" />
    <glyph glyph-name="Rcaron" unicode="&#x158;" horiz-adv-x="560" 
d="M66 666c20 0.666992 57.333 0.999023 112 0.999023c55.333 0 93 -0.333008 113 -1c76 -2.66699 132.667 -21.167 170 -55.5s56 -80.5 56 -138.5c0 -49.333 -12.5 -91.166 -37.5 -125.499s-59.833 -56.833 -104.5 -67.5c14 -11.333 28.333 -26.833 43 -46.5
s35 -50.167 61 -91.5c27.333 -43.333 55 -90.333 83 -141h-168l-113 210c-12 22 -22.833 35.833 -32.5 41.5s-24.167 8.5 -43.5 8.5v-260h-139v666zM267 370.999c34 0 60.832 8.66797 80.499 26.001s29.5 40.666 29.5 69.999c0 26.667 -8.66699 47 -26 61
s-42.666 21 -75.999 21h-70v-178h62zM101.999 863l44 69l124 -67l124 67l44 -69l-168 -132z" />
    <glyph glyph-name="rcaron" unicode="&#x159;" horiz-adv-x="399" 
d="M68 515h141v-84h8c19.333 34 38.5 59 57.5 75s42.833 24 71.5 24c12 0 22 -1.33301 30 -4l-15 -152c-17.333 4.66699 -31.333 7 -42 7c-15.333 0 -28.833 -3 -40.5 -9s-22 -14 -31 -24s-21.833 -25.333 -38.5 -46v-302h-141v515zM32 712l44 69l124 -67l124 67l44 -69
l-168 -132z" />
    <glyph glyph-name="Sacute" unicode="&#x15a;" horiz-adv-x="541" 
d="M135.5 0c-35 8.66699 -65.168 20.332 -90.501 34.999l12 134c30 -18.667 61.5 -33.167 94.5 -43.5s63.5 -15.5 91.5 -15.5c32 0 58 6.66699 78 20s30 31 30 53c0 18 -6.66699 31.833 -20 41.5s-34.333 20.167 -63 31.5l-24 10l-11 4.5c-4 1.66699 -8.66699 3.5 -14 5.5
c-37.333 15.333 -67.333 29.833 -90 43.5s-42.167 32.834 -58.5 57.501s-24.5 56.667 -24.5 96c0 64 21.667 114.333 65 151s103.666 55 180.999 55c58.667 0 118.667 -12 180 -36l-22 -132c-24.667 14 -51.167 25 -79.5 33s-55.166 12 -80.499 12
c-31.333 0 -55.666 -6.16699 -72.999 -18.5s-26 -28.833 -26 -49.5c0 -18 6 -32 18 -42s31.333 -20.667 58 -32l41 -16c38.667 -14.667 70.667 -29 96 -43s47 -34.167 65 -60.5s27 -60.5 27 -102.5c0 -64.667 -22 -115 -66 -151s-105.333 -54 -184 -54
c-38.667 0 -75.5 4.33301 -110.5 13zM239.999 769.998c26 20.667 46.333 42.667 61 66l-26 53c0 18 6.66699 34 20 48s30 21 50 21c20.667 0 38 -7.16699 52 -21.5s21 -32.5 21 -54.5c0 -34 -15.667 -64.667 -47 -92s-69 -47 -113 -59z" />
    <glyph glyph-name="sacute" unicode="&#x15b;" horiz-adv-x="469" 
d="M119.5 -5c-30.333 6.66699 -56.1689 15.666 -77.502 26.999l13 120c22.667 -14 47.667 -25.333 75 -34s53 -13 77 -13c22.667 0 41.667 4.16699 57 12.5s23 20.5 23 36.5c0 12.667 -5.33301 22.5 -16 29.5s-31 15.833 -61 26.5l-27 10
c-28.667 10.667 -52 20.834 -70 30.501s-34.333 24.5 -49 44.5s-22 46.333 -22 79c0 52 19.5 92.5 58.5 121.5s89.833 43.5 152.5 43.5c49.333 0 101.333 -9.66699 156 -29l-19 -119c-19.333 11.333 -41.166 20.5 -65.499 27.5s-47.166 10.5 -68.499 10.5
c-22 0 -39.5 -3.66699 -52.5 -11s-19.5 -18 -19.5 -32c0 -13.333 5.33301 -23.333 16 -30s28.667 -14.334 54 -23.001c20 -7.33301 31.667 -11.666 35 -12.999c28 -11.333 51.333 -22.333 70 -33s35 -26.5 49 -47.5s21 -47.833 21 -80.5c0 -54.667 -19.667 -95.667 -59 -123
s-91.333 -41 -156 -41c-32.667 0 -64.167 3.33301 -94.5 10zM201.997 618.999c26 20.667 46.333 42.667 61 66l-26 53c0 18 6.66699 34 20 48s30 21 50 21c20.667 0 38 -7.16699 52 -21.5s21 -32.5 21 -54.5c0 -34 -15.667 -64.667 -47 -92s-69 -47 -113 -59z" />
    <glyph glyph-name="Scedilla" unicode="&#x15e;" horiz-adv-x="541" 
d="M446.5 56c-33 -34.667 -79.835 -56.3359 -140.502 -65.0029l-21 -47c32 -5.33301 57.667 -16.166 77 -32.499s29 -37.166 29 -62.499c0 -26.667 -11.667 -48.667 -35 -66s-51.333 -26 -84 -26c-24 0 -47.667 4.16699 -71 12.5s-42.666 19.166 -57.999 32.499l30 43
c14 -10 28.833 -17.833 44.5 -23.5s29.5 -8.5 41.5 -8.5c24 0 36 10.333 36 31c0 21.333 -25 31.333 -75 30l-21 14l34 99c-36 0.666992 -70.5 5.33398 -103.5 14.001s-61.167 20 -84.5 34l12 134c30 -18.667 61.5 -33.167 94.5 -43.5s63.5 -15.5 91.5 -15.5
c32 0 58 6.66699 78 20s30 31 30 53c0 18 -6.66699 31.833 -20 41.5s-34.333 20.167 -63 31.5l-24 10l-11 4.5c-4 1.66699 -8.66699 3.5 -14 5.5c-37.333 15.333 -67.333 29.833 -90 43.5s-42.167 32.834 -58.5 57.501s-24.5 56.667 -24.5 96c0 64 21.667 114.333 65 151
s103.666 55 180.999 55c58.667 0 118.667 -12 180 -36l-22 -132c-24.667 14 -51.167 25 -79.5 33s-55.166 12 -80.499 12c-31.333 0 -55.666 -6.16699 -72.999 -18.5s-26 -28.833 -26 -49.5c0 -18 6 -32 18 -42s31.333 -20.667 58 -32l41 -16
c38.667 -14.667 70.667 -29 96 -43s47 -34.167 65 -60.5s27 -60.5 27 -102.5c0 -56 -16.5 -101.333 -49.5 -136z" />
    <glyph glyph-name="scedilla" unicode="&#x15f;" horiz-adv-x="469" 
d="M385 38.5c-29.333 -27 -69.002 -43.834 -119.002 -50.501l-19 -44c32 -5.33301 57.667 -16.166 77 -32.499s29 -37.166 29 -62.499c0 -26.667 -11.667 -48.667 -35 -66s-51.333 -26 -84 -26c-24 0 -47.667 4.16699 -71 12.5s-42.666 19.166 -57.999 32.499l30 43
c14 -10 28.833 -17.833 44.5 -23.5s29.5 -8.5 41.5 -8.5c24 0 36 10.333 36 31c0 21.333 -25 31.333 -75 30l-21 14l33 97c-29.333 1.33301 -57.333 5.16602 -84 11.499s-49.334 14.833 -68.001 25.5l13 120c22.667 -14 47.667 -25.333 75 -34s53 -13 77 -13
c22.667 0 41.667 4.16699 57 12.5s23 20.5 23 36.5c0 12.667 -5.33301 22.5 -16 29.5s-31 15.833 -61 26.5l-27 10c-28.667 10.667 -52 20.834 -70 30.501s-34.333 24.5 -49 44.5s-22 46.333 -22 79c0 52 19.5 92.5 58.5 121.5s89.833 43.5 152.5 43.5
c49.333 0 101.333 -9.66699 156 -29l-19 -119c-19.333 11.333 -41.166 20.5 -65.499 27.5s-47.166 10.5 -68.499 10.5c-22 0 -39.5 -3.66699 -52.5 -11s-19.5 -18 -19.5 -32c0 -13.333 5.33301 -23.333 16 -30s28.667 -14.334 54 -23.001
c20 -7.33301 31.667 -11.666 35 -12.999c28 -11.333 51.333 -22.333 70 -33s35 -26.5 49 -47.5s21 -47.833 21 -80.5c0 -46.667 -14.667 -83.5 -44 -110.5z" />
    <glyph glyph-name="Scaron" unicode="&#x160;" horiz-adv-x="541" 
d="M135.5 0c-35 8.66699 -65.168 20.332 -90.501 34.999l12 134c30 -18.667 61.5 -33.167 94.5 -43.5s63.5 -15.5 91.5 -15.5c32 0 58 6.66699 78 20s30 31 30 53c0 18 -6.66699 31.833 -20 41.5s-34.333 20.167 -63 31.5l-24 10l-11 4.5c-4 1.66699 -8.66699 3.5 -14 5.5
c-37.333 15.333 -67.333 29.833 -90 43.5s-42.167 32.834 -58.5 57.501s-24.5 56.667 -24.5 96c0 64 21.667 114.333 65 151s103.666 55 180.999 55c58.667 0 118.667 -12 180 -36l-22 -132c-24.667 14 -51.167 25 -79.5 33s-55.166 12 -80.499 12
c-31.333 0 -55.666 -6.16699 -72.999 -18.5s-26 -28.833 -26 -49.5c0 -18 6 -32 18 -42s31.333 -20.667 58 -32l41 -16c38.667 -14.667 70.667 -29 96 -43s47 -34.167 65 -60.5s27 -60.5 27 -102.5c0 -64.667 -22 -115 -66 -151s-105.333 -54 -184 -54
c-38.667 0 -75.5 4.33301 -110.5 13zM102.999 862.998l44 69l124 -67l124 67l44 -69l-168 -132z" />
    <glyph glyph-name="scaron" unicode="&#x161;" horiz-adv-x="469" 
d="M119.5 -5c-30.333 6.66699 -56.1689 15.666 -77.502 26.999l13 120c22.667 -14 47.667 -25.333 75 -34s53 -13 77 -13c22.667 0 41.667 4.16699 57 12.5s23 20.5 23 36.5c0 12.667 -5.33301 22.5 -16 29.5s-31 15.833 -61 26.5l-27 10
c-28.667 10.667 -52 20.834 -70 30.501s-34.333 24.5 -49 44.5s-22 46.333 -22 79c0 52 19.5 92.5 58.5 121.5s89.833 43.5 152.5 43.5c49.333 0 101.333 -9.66699 156 -29l-19 -119c-19.333 11.333 -41.166 20.5 -65.499 27.5s-47.166 10.5 -68.499 10.5
c-22 0 -39.5 -3.66699 -52.5 -11s-19.5 -18 -19.5 -32c0 -13.333 5.33301 -23.333 16 -30s28.667 -14.334 54 -23.001c20 -7.33301 31.667 -11.666 35 -12.999c28 -11.333 51.333 -22.333 70 -33s35 -26.5 49 -47.5s21 -47.833 21 -80.5c0 -54.667 -19.667 -95.667 -59 -123
s-91.333 -41 -156 -41c-32.667 0 -64.167 3.33301 -94.5 10zM64.9971 711.999l44 69l124 -67l124 67l44 -69l-168 -132z" />
    <glyph glyph-name="uni0162" unicode="&#x162;" horiz-adv-x="568" 
d="M323 0l-25.001 -56.001c32 -5.33301 57.667 -16.166 77 -32.499s29 -37.166 29 -62.499c0 -26.667 -11.667 -48.667 -35 -66s-51.333 -26 -84 -26c-24 0 -47.667 4.16699 -71 12.5s-42.666 19.166 -57.999 32.499l30 43c14 -10 28.833 -17.833 44.5 -23.5
s29.5 -8.5 41.5 -8.5c24 0 36 10.333 36 31c0 21.333 -25 31.333 -75 30l-21 14l38 112h-38v540h-182v126h508v-126h-180v-540h-35z" />
    <glyph glyph-name="uni0163" unicode="&#x163;" horiz-adv-x="421" 
d="M332 -88.5c19.333 -16.333 29 -37.167 29 -62.5c0 -26.667 -11.667 -48.667 -35 -66s-51.333 -26 -84 -26c-24 0 -47.667 4.16699 -71 12.5s-42.666 19.166 -57.999 32.499l30 43c14 -10 28.833 -17.833 44.5 -23.5s29.5 -8.5 41.5 -8.5c24 0 36 10.333 36 31
c0 21.333 -25 31.333 -75 30l-21 14l35 102c-32.667 7.33301 -57.667 22.5 -75 45.5s-26 52.833 -26 89.5v269h-80v121h80v110c47.333 8 94 14 140 18v-128h130v-121h-130v-243c0 -14 4.16699 -24.667 12.5 -32s20.166 -11 35.499 -11c18.667 0 40 4.33301 64 13l31 -106
c-38 -17.333 -75.667 -27 -113 -29l-18 -42c32 -5.33301 57.667 -16.166 77 -32.499z" />
    <glyph glyph-name="Tcaron" unicode="&#x164;" horiz-adv-x="568" 
d="M212 540h-182v126h508v-126h-180v-540h-146v540zM116 863l44 69l124 -67l124 67l44 -69l-168 -132z" />
    <glyph glyph-name="tcaron" unicode="&#x165;" horiz-adv-x="502" 
d="M354 600c20.667 24.667 35.999 50.333 45.999 77l-38 48c-2 22 3.33301 41 16 57c14.667 16.667 33.334 25 56.001 25c20 0 37.167 -7.66699 51.5 -23s21.5 -35 21.5 -59c0 -30 -12.167 -59.5 -36.5 -88.5s-54.5 -52.833 -90.5 -71.5zM142.499 21.499
c-26.333 24.333 -39.499 58.833 -39.499 103.5v269h-80v121h80v110c47.333 8 94 14 140 18v-128h130v-121h-130v-243c0 -14 4.16699 -24.667 12.5 -32s20.166 -11 35.499 -11c18.667 0 40 4.33301 64 13l31 -106c-42.667 -20 -86.667 -30 -132 -30
c-48 0 -85.167 12.167 -111.5 36.5z" />
    <glyph glyph-name="Tbar" unicode="&#x166;" horiz-adv-x="568" 
d="M358 540v-164h109l-10 -85h-99v-291h-146v291h-113l10 85h103v164h-182v126h508v-126h-180z" />
    <glyph glyph-name="tbar" unicode="&#x167;" horiz-adv-x="421" 
d="M386 15c-42.667 -20 -86.666 -30 -131.999 -30c-48 0 -85.167 12.167 -111.5 36.5s-39.5 58.833 -39.5 103.5v98h-93l10 85h83v86h-80v121h80v110c47.333 8 94 14 140 18v-128h130v-121h-130v-86h135l-10 -85h-125v-72c0 -14 4.16699 -24.667 12.5 -32
s20.166 -11 35.499 -11c18.667 0 40 4.33301 64 13z" />
    <glyph glyph-name="Umacron" unicode="&#x16a;" horiz-adv-x="696" 
d="M202 22c-42 23.333 -74.501 56.166 -97.501 98.499s-34.5 91.166 -34.5 146.499v399h146v-388c0 -49.333 11.833 -88.5 35.5 -117.5s55.834 -43.5 96.501 -43.5s73 14.5 97 43.5s36 68.167 36 117.5v388h145v-399c0 -55.333 -11.5 -104.166 -34.5 -146.499
s-55.5 -75.166 -97.5 -98.499s-90.667 -35 -146 -35s-104 11.667 -146 35zM179.999 838h334l1 -89h-334z" />
    <glyph glyph-name="umacron" unicode="&#x16b;" horiz-adv-x="599" 
d="M107 36c-31.333 33.333 -47 78.999 -47 136.999v342h141v-319c0 -27.333 6.66699 -48.5 20 -63.5s31.333 -22.5 54 -22.5s44.5 7.33301 65.5 22s38.5 34.334 52.5 59.001v324h141v-515h-141v68c-19.333 -26 -41.5 -46.167 -66.5 -60.5s-55.167 -21.5 -90.5 -21.5
c-54.667 0 -97.667 16.667 -129 50zM132 686.999h334l1 -89h-334z" />
    <glyph glyph-name="Uring" unicode="&#x16e;" horiz-adv-x="696" 
d="M202 22c-42 23.333 -74.501 56.166 -97.501 98.499s-34.5 91.166 -34.5 146.499v399h146v-388c0 -49.333 11.833 -88.5 35.5 -117.5s55.834 -43.5 96.501 -43.5s73 14.5 97 43.5s36 68.167 36 117.5v388h145v-399c0 -55.333 -11.5 -104.166 -34.5 -146.499
s-55.5 -75.166 -97.5 -98.499s-90.667 -35 -146 -35s-104 11.667 -146 35zM256.499 761c-25 24 -37.5 53.667 -37.5 89s12.5 65 37.5 89s55.5 36 91.5 36s66.5 -12 91.5 -36s37.5 -53.667 37.5 -89s-12.5 -65 -37.5 -89s-55.5 -36 -91.5 -36s-66.5 12 -91.5 36zM383.999 812
c9.33301 10.667 14 23.334 14 38.001s-4.66699 27.334 -14 38.001s-21.333 16 -36 16s-26.667 -5.33301 -36 -16s-14 -23.334 -14 -38.001s4.66699 -27.334 14 -38.001s21.333 -16 36 -16s26.667 5.33301 36 16z" />
    <glyph glyph-name="uring" unicode="&#x16f;" horiz-adv-x="599" 
d="M107 36c-31.333 33.333 -47 78.999 -47 136.999v342h141v-319c0 -27.333 6.66699 -48.5 20 -63.5s31.333 -22.5 54 -22.5s44.5 7.33301 65.5 22s38.5 34.334 52.5 59.001v324h141v-515h-141v68c-19.333 -26 -41.5 -46.167 -66.5 -60.5s-55.167 -21.5 -90.5 -21.5
c-54.667 0 -97.667 16.667 -129 50zM208.5 609.999c-25 24 -37.5 53.667 -37.5 89s12.5 65 37.5 89s55.5 36 91.5 36s66.5 -12 91.5 -36s37.5 -53.667 37.5 -89s-12.5 -65 -37.5 -89s-55.5 -36 -91.5 -36s-66.5 12 -91.5 36zM336 660.999
c9.33301 10.667 14 23.334 14 38.001s-4.66699 27.334 -14 38.001s-21.333 16 -36 16s-26.667 -5.33301 -36 -16s-14 -23.334 -14 -38.001s4.66699 -27.334 14 -38.001s21.333 -16 36 -16s26.667 5.33301 36 16z" />
    <glyph glyph-name="Uhungarumlaut" unicode="&#x170;" horiz-adv-x="696" 
d="M202 22c-42 23.333 -74.501 56.166 -97.501 98.499s-34.5 91.166 -34.5 146.499v399h146v-388c0 -49.333 11.833 -88.5 35.5 -117.5s55.834 -43.5 96.501 -43.5s73 14.5 97 43.5s36 68.167 36 117.5v388h145v-399c0 -55.333 -11.5 -104.166 -34.5 -146.499
s-55.5 -75.166 -97.5 -98.499s-90.667 -35 -146 -35s-104 11.667 -146 35zM181.999 770c26 20.667 46.333 42.667 61 66l-26 53c0 18 6.66699 34 20 48s30 21 50 21c20.667 0 38 -7.16699 52 -21.5s21 -32.5 21 -54.5c0 -34 -15.667 -64.667 -47 -92s-69 -47 -113 -59z
M371.999 770c26 20.667 46.333 42.667 61 66l-26 53c0 18 6.66699 34 20 48s30 21 50 21c20.667 0 38 -7.16699 52 -21.5s21 -32.5 21 -54.5c0 -34 -15.667 -64.667 -47 -92s-69 -47 -113 -59z" />
    <glyph glyph-name="uhungarumlaut" unicode="&#x171;" horiz-adv-x="599" 
d="M107 36c-31.333 33.333 -47 78.999 -47 136.999v342h141v-319c0 -27.333 6.66699 -48.5 20 -63.5s31.333 -22.5 54 -22.5s44.5 7.33301 65.5 22s38.5 34.334 52.5 59.001v324h141v-515h-141v68c-19.333 -26 -41.5 -46.167 -66.5 -60.5s-55.167 -21.5 -90.5 -21.5
c-54.667 0 -97.667 16.667 -129 50zM134 618.999c26 20.667 46.333 42.667 61 66l-26 53c0 18 6.66699 34 20 48s30 21 50 21c20.667 0 38 -7.16699 52 -21.5s21 -32.5 21 -54.5c0 -34 -15.667 -64.667 -47 -92s-69 -47 -113 -59zM324 618.999
c26 20.667 46.333 42.667 61 66l-26 53c0 18 6.66699 34 20 48s30 21 50 21c20.667 0 38 -7.16699 52 -21.5s21 -32.5 21 -54.5c0 -34 -15.667 -64.667 -47 -92s-69 -47 -113 -59z" />
    <glyph glyph-name="Uogonek" unicode="&#x172;" horiz-adv-x="696" 
d="M626 666l-0.000976562 -399.001c0 -66.667 -16.667 -123.667 -50 -171s-79 -79.666 -137 -96.999c-32.667 -10 -58.667 -22.833 -78 -38.5s-29 -33.5 -29 -53.5c0 -14 5.16699 -24.833 15.5 -32.5s23.166 -11.5 38.499 -11.5c20 0 39.333 5.66699 58 17l-5 -77
c-10 -7.33301 -22.333 -13 -37 -17s-30.334 -6 -47.001 -6c-35.333 0 -63.166 8.83301 -83.499 26.5s-30.5 41.5 -30.5 71.5c0 24 6.33301 45.333 19 64s29.334 34.334 50.001 47.001c-48.667 5.33301 -91 20.166 -127 44.499s-63.833 56.5 -83.5 96.5
s-29.5 85.667 -29.5 137v399h146v-388c0 -49.333 11.833 -88.5 35.5 -117.5s55.834 -43.5 96.501 -43.5s73 14.5 97 43.5s36 68.167 36 117.5v388h145z" />
    <glyph glyph-name="uogonek" unicode="&#x173;" horiz-adv-x="599" 
d="M364.5 -193.5c-20.333 17.667 -30.5 41.499 -30.5 71.499c0 22 5.33301 42 16 60s25.334 33 44.001 45c0.666992 15.333 1 39 1 71v17c-19.333 -27.333 -41.5 -48.333 -66.5 -63s-55.833 -22 -92.5 -22c-54.667 0 -97.667 16.667 -129 50s-47 79 -47 137v342h141v-319
c0 -27.333 6.66699 -48.5 20 -63.5s31.333 -22.5 54 -22.5s44.5 7.33301 65.5 22s38.5 34.334 52.5 59.001v324h141v-515c-32.667 -10 -59 -23 -79 -39s-30 -34 -30 -54c0 -14 5.16699 -24.833 15.5 -32.5s23.166 -11.5 38.499 -11.5c20 0 39.333 5.66699 58 17l-5 -77
c-10 -7.33301 -22.333 -13 -37 -17s-30.334 -6 -47.001 -6c-35.333 0 -63.166 8.83301 -83.499 26.5z" />
    <glyph glyph-name="Wcircumflex" unicode="&#x174;" horiz-adv-x="1022" 
d="M30 666h154l116 -479l119 475l187 14l126 -503l117 493h143l-180 -666h-175l-129 527l-134 -527h-173zM343 800l168 132l168 -132l-44 -69l-124 67l-124 -67z" />
    <glyph glyph-name="wcircumflex" unicode="&#x175;" horiz-adv-x="850" 
d="M7 515h144l92 -341l99 338l159 13l107 -361l94 351h134l-157 -515h-154l-106 374l-111 -374h-151zM257 649l168 132l168 -132l-44 -69l-124 67l-124 -67z" />
    <glyph glyph-name="Ycircumflex" unicode="&#x176;" horiz-adv-x="607" 
d="M228 277l-223 389h163l135 -263l134 263h160l-224 -389v-277h-145v277zM133 800l168 132l168 -132l-44 -69l-124 67l-124 -67z" />
    <glyph glyph-name="ycircumflex" unicode="&#x177;" horiz-adv-x="542" 
d="M42 -202l21.001 115.999c25.333 -12.667 46.666 -19 63.999 -19c20.667 0 36.167 6.66699 46.5 20s21.5 36.666 33.5 69.999l-201 528l146 12l123 -369l114 359h139c-42.667 -129.333 -87.5 -256.666 -134.5 -381.999s-83.5 -211.333 -109.5 -258
c-18.667 -33.333 -39.5 -58.166 -62.5 -74.499s-50.833 -24.5 -83.5 -24.5c-30.667 0 -62.667 7.33301 -96 22zM103.001 648.999l168 132l168 -132l-44 -69l-124 67l-124 -67z" />
    <glyph glyph-name="Ydieresis" unicode="&#x178;" horiz-adv-x="607" 
d="M228 277l-223 389h163l135 -263l134 263h160l-224 -389v-277h-145v277zM129 760c-15.333 15.333 -23.001 34 -23.001 56s8 40.667 24 56s35 23 57 23c21.333 0 39.666 -7.66699 54.999 -23s23 -34 23 -56c0 -21.333 -8.16699 -39.833 -24.5 -55.5
s-35.166 -23.5 -56.499 -23.5s-39.666 7.66699 -54.999 23zM359.999 760c-15.333 15.333 -23 34 -23 56c0 21.333 8.16699 39.833 24.5 55.5s35.166 23.5 56.499 23.5s39.666 -7.66699 54.999 -23s23 -34 23 -56s-7.66699 -40.667 -23 -56s-34.666 -23 -57.999 -23
c-21.333 0 -39.666 7.66699 -54.999 23z" />
    <glyph glyph-name="Zacute" unicode="&#x179;" horiz-adv-x="590" 
d="M45 109l318 431h-309v126h486v-114l-316 -426h316v-126h-495v109zM264 770c26 20.667 46.333 42.667 61 66l-26 53c0 18 6.66699 34 20 48s30 21 50 21c20.667 0 38 -7.16699 52 -21.5s21 -32.5 21 -54.5c0 -34 -15.667 -64.667 -47 -92s-69 -47 -113 -59z" />
    <glyph glyph-name="zacute" unicode="&#x17a;" horiz-adv-x="503" 
d="M38 93l247 301h-230v121h402v-92l-246 -302h246v-120h-419v92zM221 619c26 20.667 46.333 42.667 61 66l-26 53c0 18 6.66699 34 20 48s30 21 50 21c20.667 0 38 -7.16699 52 -21.5s21 -32.5 21 -54.5c0 -34 -15.667 -64.667 -47 -92s-69 -47 -113 -59z" />
    <glyph glyph-name="Zdotaccent" unicode="&#x17b;" horiz-adv-x="590" 
d="M45 109l318 431h-309v126h486v-114l-316 -426h316v-126h-495v109zM240.5 763.5c-15 15 -22.5 32.833 -22.5 53.5s7.83301 38.5 23.5 53.5s33.834 22.5 54.501 22.5s38.5 -7.5 53.5 -22.5s22.5 -32.833 22.5 -53.5s-7.83301 -38.5 -23.5 -53.5
s-33.834 -22.5 -54.501 -22.5s-38.5 7.5 -53.5 22.5z" />
    <glyph glyph-name="zdotaccent" unicode="&#x17c;" horiz-adv-x="503" 
d="M38 93l247 301h-230v121h402v-92l-246 -302h246v-120h-419v92zM197.5 612.5c-15 15 -22.5 32.833 -22.5 53.5s7.83301 38.5 23.5 53.5s33.834 22.5 54.501 22.5s38.5 -7.5 53.5 -22.5s22.5 -32.833 22.5 -53.5s-7.83301 -38.5 -23.5 -53.5s-33.834 -22.5 -54.501 -22.5
s-38.5 7.5 -53.5 22.5z" />
    <glyph glyph-name="Zcaron" unicode="&#x17d;" horiz-adv-x="590" 
d="M45 109l318 431h-309v126h486v-114l-316 -426h316v-126h-495v109zM127 863l44 69l124 -67l124 67l44 -69l-168 -132z" />
    <glyph glyph-name="zcaron" unicode="&#x17e;" horiz-adv-x="503" 
d="M38 93l247 301h-230v121h402v-92l-246 -302h246v-120h-419v92zM84 712l44 69l124 -67l124 67l44 -69l-168 -132z" />
    <glyph glyph-name="florin" unicode="&#x192;" horiz-adv-x="572" 
d="M62.5 -166c-19.667 4.66699 -40.5 11.667 -62.5 21l67 111c20.667 -11.333 40.334 -17 59.001 -17c16 0 28.667 4 38 12s15.333 21 18 39l52 324h-105l19 121h105l21 133c9.33301 57.333 31.333 99.333 66 126s78.334 40 131.001 40c22 0 42.833 -2.33301 62.5 -7
s40.5 -11.667 62.5 -21l-67 -111c-20.667 11.333 -40.334 17 -59.001 17c-32 0 -50.667 -17 -56 -51l-20 -126h107l-19 -121h-107l-53 -331c-9.33301 -56.667 -31.333 -98.5 -66 -125.5s-78.334 -40.5 -131.001 -40.5c-22 0 -42.833 2.33301 -62.5 7z" />
    <glyph glyph-name="Scommaaccent" unicode="&#x218;" horiz-adv-x="541" 
d="M135.5 0c-35 8.66699 -65.168 20.332 -90.501 34.999l12 134c30 -18.667 61.5 -33.167 94.5 -43.5s63.5 -15.5 91.5 -15.5c32 0 58 6.66699 78 20s30 31 30 53c0 18 -6.66699 31.833 -20 41.5s-34.333 20.167 -63 31.5l-24 10l-11 4.5c-4 1.66699 -8.66699 3.5 -14 5.5
c-37.333 15.333 -67.333 29.833 -90 43.5s-42.167 32.834 -58.5 57.501s-24.5 56.667 -24.5 96c0 64 21.667 114.333 65 151s103.666 55 180.999 55c58.667 0 118.667 -12 180 -36l-22 -132c-24.667 14 -51.167 25 -79.5 33s-55.166 12 -80.499 12
c-31.333 0 -55.666 -6.16699 -72.999 -18.5s-26 -28.833 -26 -49.5c0 -18 6 -32 18 -42s31.333 -20.667 58 -32l41 -16c38.667 -14.667 70.667 -29 96 -43s47 -34.167 65 -60.5s27 -60.5 27 -102.5c0 -64.667 -22 -115 -66 -151s-105.333 -54 -184 -54
c-38.667 0 -75.5 4.33301 -110.5 13zM196.999 -265.002c22 29.333 36.334 53 43.001 71l-41 61c0 17.333 6.66699 33 20 47s30.333 21 51 21s38 -7.16699 52 -21.5s21 -32.5 21 -54.5c0 -26 -10.333 -55.5 -31 -88.5s-53.334 -65.167 -98.001 -96.5z" />
    <glyph glyph-name="scommaaccent" unicode="&#x219;" horiz-adv-x="469" 
d="M119.5 -5c-30.333 6.66699 -56.1689 15.666 -77.502 26.999l13 120c22.667 -14 47.667 -25.333 75 -34s53 -13 77 -13c22.667 0 41.667 4.16699 57 12.5s23 20.5 23 36.5c0 12.667 -5.33301 22.5 -16 29.5s-31 15.833 -61 26.5l-27 10
c-28.667 10.667 -52 20.834 -70 30.501s-34.333 24.5 -49 44.5s-22 46.333 -22 79c0 52 19.5 92.5 58.5 121.5s89.833 43.5 152.5 43.5c49.333 0 101.333 -9.66699 156 -29l-19 -119c-19.333 11.333 -41.166 20.5 -65.499 27.5s-47.166 10.5 -68.499 10.5
c-22 0 -39.5 -3.66699 -52.5 -11s-19.5 -18 -19.5 -32c0 -13.333 5.33301 -23.333 16 -30s28.667 -14.334 54 -23.001c20 -7.33301 31.667 -11.666 35 -12.999c28 -11.333 51.333 -22.333 70 -33s35 -26.5 49 -47.5s21 -47.833 21 -80.5c0 -54.667 -19.667 -95.667 -59 -123
s-91.333 -41 -156 -41c-32.667 0 -64.167 3.33301 -94.5 10zM158.997 -265.001c22 29.333 36.334 53 43.001 71l-41 61c0 17.333 6.66699 33 20 47s30.333 21 51 21s38 -7.16699 52 -21.5s21 -32.5 21 -54.5c0 -26 -10.333 -55.5 -31 -88.5s-53.334 -65.167 -98.001 -96.5z
" />
    <glyph glyph-name="uni021A" unicode="&#x21a;" horiz-adv-x="568" 
d="M212 540h-182v126h508v-126h-180v-540h-146v540zM210 -265c22 29.333 36.334 53 43.001 71l-41 61c0 17.333 6.66699 33 20 47s30.333 21 51 21s38 -7.16699 52 -21.5s21 -32.5 21 -54.5c0 -26 -10.333 -55.5 -31 -88.5s-53.334 -65.167 -98.001 -96.5z" />
    <glyph glyph-name="uni021B" unicode="&#x21b;" horiz-adv-x="421" 
d="M142.5 21.5c-26.333 24.333 -39.499 58.833 -39.499 103.5v269h-80v121h80v110c47.333 8 94 14 140 18v-128h130v-121h-130v-243c0 -14 4.16699 -24.667 12.5 -32s20.166 -11 35.499 -11c18.667 0 40 4.33301 64 13l31 -106c-42.667 -20 -86.667 -30 -132 -30
c-48 0 -85.167 12.167 -111.5 36.5zM167.001 -265c22 29.333 36.334 53 43.001 71l-41 61c0 17.333 6.66699 33 20 47s30.333 21 51 21s38 -7.16699 52 -21.5s21 -32.5 21 -54.5c0 -26 -10.333 -55.5 -31 -88.5s-53.334 -65.167 -98.001 -96.5z" />
    <glyph glyph-name="circumflex" unicode="&#x2c6;" horiz-adv-x="600" 
d="M26 649l168 132l168 -132l-44 -69l-124 67l-124 -67z" />
    <glyph glyph-name="caron" unicode="&#x2c7;" horiz-adv-x="600" 
d="M26 712l44 69l124 -67l124 67l44 -69l-168 -132z" />
    <glyph glyph-name="breve" unicode="&#x2d8;" horiz-adv-x="600" 
d="M87.5 621.5c-33.667 26.333 -57.832 64.167 -72.499 113.5l69 23c14 -26.667 31 -46.834 51 -60.501s41.333 -20.5 64 -20.5c22 0 43.333 7 64 21s37.667 34 51 60l69 -23c-14.667 -49.333 -39 -87.166 -73 -113.499s-71 -39.5 -111 -39.5
c-40.667 0 -77.834 13.167 -111.501 39.5z" />
    <glyph glyph-name="dotaccent" unicode="&#x2d9;" horiz-adv-x="600" 
d="M38.5 612.5c-15 15 -22.5 32.833 -22.5 53.5s7.83301 38.5 23.5 53.5s33.834 22.5 54.501 22.5s38.5 -7.5 53.5 -22.5s22.5 -32.833 22.5 -53.5s-7.83301 -38.5 -23.5 -53.5s-33.834 -22.5 -54.501 -22.5s-38.5 7.5 -53.5 22.5z" />
    <glyph glyph-name="ring" unicode="&#x2da;" horiz-adv-x="600" 
d="M62.5 610c-25 24 -37.5 53.667 -37.5 89s12.5 65 37.5 89s55.5 36 91.5 36s66.5 -12 91.5 -36s37.5 -53.667 37.5 -89s-12.5 -65 -37.5 -89s-55.5 -36 -91.5 -36s-66.5 12 -91.5 36zM190 661c9.33301 10.667 14 23.334 14 38.001s-4.66699 27.334 -14 38.001
s-21.333 16 -36 16s-26.667 -5.33301 -36 -16s-14 -23.334 -14 -38.001s4.66699 -27.334 14 -38.001s21.333 -16 36 -16s26.667 5.33301 36 16z" />
    <glyph glyph-name="ogonek" unicode="&#x2db;" horiz-adv-x="600" 
d="M30.5 -193.5c-20.333 17.667 -30.499 41.501 -30.499 71.501c0 31.333 10.5 58.166 31.5 80.499s46.833 38.5 77.5 48.5l91 -7c-32.667 -10 -59 -23 -79 -39s-30 -34 -30 -54c0 -14 5.16699 -24.833 15.5 -32.5s23.166 -11.5 38.499 -11.5c20 0 39.333 5.66699 58 17
l-5 -77c-10 -7.33301 -22.333 -13 -37 -17s-30.334 -6 -47.001 -6c-35.333 0 -63.166 8.83301 -83.499 26.5z" />
    <glyph glyph-name="tilde" unicode="&#x2dc;" horiz-adv-x="600" 
d="M234 590.5c-14.667 6.33301 -32 15.5 -52 27.5c-14.667 8.66699 -26.5 15.167 -35.5 19.5s-17.833 6.5 -26.5 6.5c-10.667 0 -20.667 -4.66699 -30 -14s-18 -25 -26 -47l-54 41c10.667 41.333 26.834 72.166 48.501 92.499s46.834 30.5 75.501 30.5
c17.333 0 33.333 -3.16699 48 -9.5s32 -15.5 52 -27.5c14.667 -8.66699 26.5 -15.167 35.5 -19.5s17.833 -6.5 26.5 -6.5c10.667 0 20.667 4.66699 30 14s18 25 26 47l54 -41c-10.667 -41.333 -26.834 -72.166 -48.501 -92.499s-46.834 -30.5 -75.501 -30.5
c-17.333 0 -33.333 3.16699 -48 9.5z" />
    <glyph glyph-name="hungarumlaut" unicode="&#x2dd;" horiz-adv-x="600" 
d="M56 619c26 20.667 46.333 42.667 61 66l-26 53c0 18 6.66699 34 20 48s30 21 50 21c20.667 0 38 -7.16699 52 -21.5s21 -32.5 21 -54.5c0 -34 -15.667 -64.667 -47 -92s-69 -47 -113 -59zM246 619c26 20.667 46.333 42.667 61 66l-26 53c0 18 6.66699 34 20 48
s30 21 50 21c20.667 0 38 -7.16699 52 -21.5s21 -32.5 21 -54.5c0 -34 -15.667 -64.667 -47 -92s-69 -47 -113 -59z" />
    <glyph glyph-name="gravecomb" unicode="&#x300;" 
d="M-149 601.5c-14 14.333 -21 32.5 -21 54.5c0 34 15.667 64.667 47 92s69 47 113 59l18 -39c-26 -20.667 -46.333 -42.667 -61 -66l26 -53c0 -18 -6.66699 -34 -20 -48s-30 -21 -50 -21c-20.667 0 -38 7.16699 -52 21.5z" />
    <glyph glyph-name="acutecomb" unicode="&#x301;" 
d="M-130 619c26 20.667 46.333 42.667 61 66l-26 53c0 18 6.66699 34 20 48s30 21 50 21c20.667 0 38 -7.16699 52 -21.5s21 -32.5 21 -54.5c0 -34 -15.667 -64.667 -47 -92s-69 -47 -113 -59z" />
    <glyph glyph-name="uni0302" unicode="&#x302;" 
d="M-362 649l168 132l168 -132l-44 -69l-124 67l-124 -67z" />
    <glyph glyph-name="tildecomb" unicode="&#x303;" 
d="M-182 590.5c-14.667 6.33301 -32 15.5 -52 27.5c-14.667 8.66699 -26.5 15.167 -35.5 19.5s-17.833 6.5 -26.5 6.5c-10.667 0 -20.667 -4.66699 -30 -14s-18 -25 -26 -47l-54 41c10.667 41.333 26.834 72.166 48.501 92.499s46.834 30.5 75.501 30.5
c17.333 0 33.333 -3.16699 48 -9.5s32 -15.5 52 -27.5c14.667 -8.66699 26.5 -15.167 35.5 -19.5s17.833 -6.5 26.5 -6.5c10.667 0 20.667 4.66699 30 14s18 25 26 47l54 -41c-10.667 -41.333 -26.834 -72.166 -48.501 -92.499s-46.834 -30.5 -75.501 -30.5
c-17.333 0 -33.333 3.16699 -48 9.5z" />
    <glyph glyph-name="uni0304" unicode="&#x304;" 
d="M-350 687h334l1 -89h-334z" />
    <glyph glyph-name="uni0306" unicode="&#x306;" 
d="M-310.5 621.5c-33.667 26.333 -57.832 64.167 -72.499 113.5l69 23c14 -26.667 31 -46.834 51 -60.501s41.333 -20.5 64 -20.5c22 0 43.333 7 64 21s37.667 34 51 60l69 -23c-14.667 -49.333 -39 -87.166 -73 -113.499s-71 -39.5 -111 -39.5
c-40.667 0 -77.834 13.167 -111.501 39.5z" />
    <glyph glyph-name="uni0307" unicode="&#x307;" 
d="M-147.5 612.5c-15 15 -22.5 32.833 -22.5 53.5s7.83301 38.5 23.5 53.5s33.834 22.5 54.501 22.5s38.5 -7.5 53.5 -22.5s22.5 -32.833 22.5 -53.5s-7.83301 -38.5 -23.5 -53.5s-33.834 -22.5 -54.501 -22.5s-38.5 7.5 -53.5 22.5z" />
    <glyph glyph-name="uni0308" unicode="&#x308;" 
d="M-368 609c-15.333 15.333 -23.001 34 -23.001 56s8 40.667 24 56s35 23 57 23c21.333 0 39.666 -7.66699 54.999 -23s23 -34 23 -56c0 -21.333 -8.16699 -39.833 -24.5 -55.5s-35.166 -23.5 -56.499 -23.5s-39.666 7.66699 -54.999 23zM-137.001 609
c-15.333 15.333 -23 34 -23 56c0 21.333 8.16699 39.833 24.5 55.5s35.166 23.5 56.499 23.5s39.666 -7.66699 54.999 -23s23 -34 23 -56s-7.66699 -40.667 -23 -56s-34.666 -23 -57.999 -23c-21.333 0 -39.666 7.66699 -54.999 23z" />
    <glyph glyph-name="uni030A" unicode="&#x30a;" 
d="M-245.5 610c-25 24 -37.5 53.667 -37.5 89s12.5 65 37.5 89s55.5 36 91.5 36s66.5 -12 91.5 -36s37.5 -53.667 37.5 -89s-12.5 -65 -37.5 -89s-55.5 -36 -91.5 -36s-66.5 12 -91.5 36zM-118 661c9.33301 10.667 14 23.334 14 38.001s-4.66699 27.334 -14 38.001
s-21.333 16 -36 16s-26.667 -5.33301 -36 -16s-14 -23.334 -14 -38.001s4.66699 -27.334 14 -38.001s21.333 -16 36 -16s26.667 5.33301 36 16z" />
    <glyph glyph-name="uni030B" unicode="&#x30b;" 
d="M-386 619c26 20.667 46.333 42.667 61 66l-26 53c0 18 6.66699 34 20 48s30 21 50 21c20.667 0 38 -7.16699 52 -21.5s21 -32.5 21 -54.5c0 -34 -15.667 -64.667 -47 -92s-69 -47 -113 -59zM-196 619c26 20.667 46.333 42.667 61 66l-26 53c0 18 6.66699 34 20 48
s30 21 50 21c20.667 0 38 -7.16699 52 -21.5s21 -32.5 21 -54.5c0 -34 -15.667 -64.667 -47 -92s-69 -47 -113 -59z" />
    <glyph glyph-name="uni030C" unicode="&#x30c;" 
d="M-362 712l44 69l124 -67l124 67l44 -69l-168 -132z" />
    <glyph glyph-name="uni0312" unicode="&#x312;" 
d="M-152 601.5c-14 14.333 -21 32.5 -21 54.5c0 34 15.667 64.667 47 92s69 47 113 59l18 -39c-26 -20.667 -46.333 -42.667 -61 -66l26 -53c0 -18 -6.66699 -34 -20 -48s-30 -21 -50 -21c-20.667 0 -38 7.16699 -52 21.5z" />
    <glyph glyph-name="uni0326" unicode="&#x326;" 
d="M-157 -265c22 29.333 36.334 53 43.001 71l-41 61c0 17.333 6.66699 33 20 47s30.333 21 51 21s38 -7.16699 52 -21.5s21 -32.5 21 -54.5c0 -26 -10.333 -55.5 -31 -88.5s-53.334 -65.167 -98.001 -96.5z" />
    <glyph glyph-name="uni0327" unicode="&#x327;" 
d="M-190 -230.5c-23.333 8.33301 -42.667 19.165 -58 32.498l30 43c14 -10 28.833 -17.833 44.5 -23.5s29.5 -8.5 41.5 -8.5c24 0 36 10.333 36 31c0 21.333 -25 31.333 -75 30l-21 14l46 134l72 -5l-32 -73c32 -5.33301 57.667 -16.166 77 -32.499s29 -37.166 29 -62.499
c-0 -26.667 -11.667 -48.667 -35 -66s-51.333 -26 -84 -26c-24 0 -47.667 4.16699 -71 12.5z" />
    <glyph glyph-name="uni0328" unicode="&#x328;" 
d="M-172.5 -193.5c-20.333 17.667 -30.499 41.501 -30.499 71.501c0 31.333 10.5 58.166 31.5 80.499s46.833 38.5 77.5 48.5l91 -7c-32.667 -10 -59 -23 -79 -39s-30 -34 -30 -54c0 -14 5.16699 -24.833 15.5 -32.5s23.166 -11.5 38.499 -11.5c20 0 39.333 5.66699 58 17
l-5 -77c-10 -7.33301 -22.333 -13 -37 -17s-30.334 -6 -47.001 -6c-35.333 0 -63.166 8.83301 -83.499 26.5z" />
    <glyph glyph-name="uni0335" unicode="&#x335;" 
d="M-455 344h358l-10 -85h-358z" />
    <glyph glyph-name="uni0336" unicode="&#x336;" 
d="M-484 344h388l-10 -85h-388z" />
    <glyph glyph-name="uni0337" unicode="&#x337;" 
d="M-408 293l289 216l19 -97l-289 -216z" />
    <glyph glyph-name="uni0338" unicode="&#x338;" 
d="M-660 88l631 611l29 -125l-631 -611z" />
    <glyph glyph-name="pi" unicode="&#x3c0;" horiz-adv-x="871" 
d="M530.5 15c-23 20 -34.5 48.001 -34.5 84.001c0 15.333 4 50.333 12 105l13 92l16 118h-190l-56 -414h-144l56 414h-95l17 122h681l-17 -122h-108l-24 -174c-8.66699 -57.333 -13 -90.333 -13 -99c0 -10.667 3.66699 -18.834 11 -24.501s18 -8.5 32 -8.5
c18.667 0 40.334 4.33301 65.001 13l15 -106c-46.667 -20 -92.334 -30 -137.001 -30c-43.333 0 -76.5 10 -99.5 30z" />
    <glyph glyph-name="uni05B0" unicode="&#x5b0;" 
d="M262.5 -172c-10.333 10 -15.5 22 -15.5 36c0 14.667 5.16699 27.167 15.5 37.5s22.833 15.5 37.5 15.5s27 -5.16699 37 -15.5s15 -22.833 15 -37.5c0 -14 -5 -26 -15 -36s-22.333 -15 -37 -15s-27.167 5 -37.5 15zM262.5 -325c-10.333 10 -15.5 22.333 -15.5 37
s5.16699 27 15.5 37s22.833 15 37.5 15s27 -5 37 -15s15 -22.333 15 -37s-5 -27 -15 -37s-22.333 -15 -37 -15s-27.167 5 -37.5 15z" />
    <glyph glyph-name="uni05B1" unicode="&#x5b1;" 
d="M89.5 -172c-10.333 10 -15.5 22 -15.5 36c0 14.667 5.16699 27.167 15.5 37.5s22.833 15.5 37.5 15.5s27 -5.16699 37 -15.5s15 -22.833 15 -37.5c0 -14 -5 -26 -15 -36s-22.333 -15 -37 -15s-27.167 5 -37.5 15zM262.5 -172c-10.333 10 -15.5 22 -15.5 36
c0 14.667 5.16699 27.167 15.5 37.5s22.833 15.5 37.5 15.5s27 -5.16699 37 -15.5s15 -22.833 15 -37.5c0 -14 -5 -26 -15 -36s-22.333 -15 -37 -15s-27.167 5 -37.5 15zM435.5 -172c-10.333 10 -15.5 22 -15.5 36c0 14.667 5.16699 27.167 15.5 37.5s22.833 15.5 37.5 15.5
s27 -5.16699 37 -15.5s15 -22.833 15 -37.5c0 -14 -5 -26 -15 -36s-22.333 -15 -37 -15s-27.167 5 -37.5 15zM175.5 -325c-10.333 10 -15.5 22.333 -15.5 37s5.16699 27 15.5 37s22.833 15 37.5 15s27 -5 37 -15s15 -22.333 15 -37s-5 -27 -15 -37s-22.333 -15 -37 -15
s-27.167 5 -37.5 15zM435.5 -325c-10.333 10 -15.5 22.333 -15.5 37s5.16699 27 15.5 37s22.833 15 37.5 15s27 -5 37 -15s15 -22.333 15 -37s-5 -27 -15 -37s-22.333 -15 -37 -15s-27.167 5 -37.5 15z" />
    <glyph glyph-name="uni05B2" unicode="&#x5b2;" 
d="M438.5 -172c-10.333 10 -15.5 22 -15.5 36c0 14.667 5.16699 27.167 15.5 37.5s22.833 15.5 37.5 15.5s27 -5.16699 37 -15.5s15 -22.833 15 -37.5c0 -14 -5 -26 -15 -36s-22.333 -15 -37 -15s-27.167 5 -37.5 15zM82 -101h263l-6 -68h-263zM438.5 -325
c-10.333 10 -15.5 22.333 -15.5 37s5.16699 27 15.5 37s22.833 15 37.5 15s27 -5 37 -15s15 -22.333 15 -37s-5 -27 -15 -37s-22.333 -15 -37 -15s-27.167 5 -37.5 15z" />
    <glyph glyph-name="uni05B3" unicode="&#x5b3;" 
d="M438.5 -172c-10.333 10 -15.5 22 -15.5 36c0 14.667 5.16699 27.167 15.5 37.5s22.833 15.5 37.5 15.5s27 -5.16699 37 -15.5s15 -22.833 15 -37.5c0 -14 -5 -26 -15 -36s-22.333 -15 -37 -15s-27.167 5 -37.5 15zM175 -169h-99l6 68h263l-6 -68h-92l8 -132h-88z
M438.5 -325c-10.333 10 -15.5 22.333 -15.5 37s5.16699 27 15.5 37s22.833 15 37.5 15s27 -5 37 -15s15 -22.333 15 -37s-5 -27 -15 -37s-22.333 -15 -37 -15s-27.167 5 -37.5 15z" />
    <glyph glyph-name="uni05B4" unicode="&#x5b4;" 
d="M262.5 -172c-10.333 10 -15.5 22 -15.5 36c0 14.667 5.16699 27.167 15.5 37.5s22.833 15.5 37.5 15.5s27 -5.16699 37 -15.5s15 -22.833 15 -37.5c0 -14 -5 -26 -15 -36s-22.333 -15 -37 -15s-27.167 5 -37.5 15z" />
    <glyph glyph-name="uni05B5" unicode="&#x5b5;" 
d="M176.5 -172c-10.333 10 -15.5 22 -15.5 36c0 14.667 5.16699 27.167 15.5 37.5s22.833 15.5 37.5 15.5s27 -5.16699 37 -15.5s15 -22.833 15 -37.5c0 -14 -5 -26 -15 -36s-22.333 -15 -37 -15s-27.167 5 -37.5 15zM349.5 -172c-10.333 10 -15.5 22 -15.5 36
c0 14.667 5.16699 27.167 15.5 37.5s22.833 15.5 37.5 15.5s27 -5.16699 37 -15.5s15 -22.833 15 -37.5c0 -14 -5 -26 -15 -36s-22.333 -15 -37 -15s-27.167 5 -37.5 15z" />
    <glyph glyph-name="uni05B6" unicode="&#x5b6;" 
d="M176.5 -172c-10.333 10 -15.5 22 -15.5 36c0 14.667 5.16699 27.167 15.5 37.5s22.833 15.5 37.5 15.5s27 -5.16699 37 -15.5s15 -22.833 15 -37.5c0 -14 -5 -26 -15 -36s-22.333 -15 -37 -15s-27.167 5 -37.5 15zM349.5 -172c-10.333 10 -15.5 22 -15.5 36
c0 14.667 5.16699 27.167 15.5 37.5s22.833 15.5 37.5 15.5s27 -5.16699 37 -15.5s15 -22.833 15 -37.5c0 -14 -5 -26 -15 -36s-22.333 -15 -37 -15s-27.167 5 -37.5 15zM262.5 -325c-10.333 10 -15.5 22.333 -15.5 37s5.16699 27 15.5 37s22.833 15 37.5 15s27 -5 37 -15
s15 -22.333 15 -37s-5 -27 -15 -37s-22.333 -15 -37 -15s-27.167 5 -37.5 15z" />
    <glyph glyph-name="uni05B7" unicode="&#x5b7;" 
d="M171 -101h263l-6 -68h-263z" />
    <glyph glyph-name="uni05B8" unicode="&#x5b8;" 
d="M264 -169h-99l6 68h263l-6 -68h-92l8 -132h-88z" />
    <glyph glyph-name="uni05B9" unicode="&#x5b9;" 
d="M265.5 619c-10.333 10 -15.5 22 -15.5 36c0 15.333 5.16699 28 15.5 38s22.833 15 37.5 15s27 -5.16699 37 -15.5s15 -22.833 15 -37.5c0 -14 -5 -26 -15 -36s-22.333 -15 -37 -15s-27.167 5 -37.5 15z" />
    <glyph glyph-name="uni05BA" unicode="&#x5ba;" 
d="M265.5 619c-10.333 10 -15.5 22 -15.5 36c0 15.333 5.16699 28 15.5 38s22.833 15 37.5 15s27 -5.16699 37 -15.5s15 -22.833 15 -37.5c0 -14 -5 -26 -15 -36s-22.333 -15 -37 -15s-27.167 5 -37.5 15z" />
    <glyph glyph-name="uni05BB" unicode="&#x5bb;" 
d="M263.5 -172c-10.333 10 -15.5 22 -15.5 36c0 14.667 5.16699 27.167 15.5 37.5s22.833 15.5 37.5 15.5s27 -5.16699 37 -15.5s15 -22.833 15 -37.5c0 -14 -5 -26 -15 -36s-22.333 -15 -37 -15s-27.167 5 -37.5 15zM359.5 -295c-10.333 10 -15.5 22 -15.5 36
c0 14.667 5.16699 27.167 15.5 37.5s22.833 15.5 37.5 15.5s27 -5.16699 37 -15.5s15 -22.833 15 -37.5c0 -14 -5 -26 -15 -36s-22.333 -15 -37 -15s-27.167 5 -37.5 15zM455.5 -418c-10.333 10 -15.5 22.333 -15.5 37s5.16699 27 15.5 37s22.833 15 37.5 15s27 -5 37 -15
s15 -22.333 15 -37s-5 -27 -15 -37s-22.333 -15 -37 -15s-27.167 5 -37.5 15z" />
    <glyph glyph-name="uni05BC" unicode="&#x5bc;" 
d="M262.5 237c-10.333 10 -15.5 22 -15.5 36c0 15.333 5.16699 28 15.5 38s22.833 15 37.5 15s27 -5.16699 37 -15.5s15 -22.833 15 -37.5c0 -14 -5 -26 -15 -36s-22.333 -15 -37 -15s-27.167 5 -37.5 15z" />
    <glyph glyph-name="uni05BE" unicode="&#x5be;" horiz-adv-x="450" 
d="M55 536h325v-125h-325v125z" />
    <glyph glyph-name="uni05C1" unicode="&#x5c1;" 
d="M265.5 619c-10.333 10 -15.5 22 -15.5 36c0 15.333 5.16699 28 15.5 38s22.833 15 37.5 15s27 -5.16699 37 -15.5s15 -22.833 15 -37.5c0 -14 -5 -26 -15 -36s-22.333 -15 -37 -15s-27.167 5 -37.5 15z" />
    <glyph glyph-name="uni05C2" unicode="&#x5c2;" 
d="M265.5 619c-10.333 10 -15.5 22 -15.5 36c0 15.333 5.16699 28 15.5 38s22.833 15 37.5 15s27 -5.16699 37 -15.5s15 -22.833 15 -37.5c0 -14 -5 -26 -15 -36s-22.333 -15 -37 -15s-27.167 5 -37.5 15z" />
    <glyph glyph-name="uni05C7" unicode="&#x5c7;" 
d="M264 -169h-99l6 68h263l-6 -68h-92l8 -132h-88z" />
    <glyph glyph-name="uni05D0" unicode="&#x5d0;" horiz-adv-x="583" 
d="M250 246c-16.667 -9.33301 -28.999 -20.832 -36.999 -34.499s-13.333 -32.5 -16 -56.5c-1.33301 -11.333 -2.83301 -31.833 -4.5 -61.5s-2.83398 -52.167 -3.50098 -67.5l-1 -28c-34.667 -2 -70 -3 -106 -3h-35c0.666992 57.333 2.66699 106.333 6 147
c3.33301 42.667 12.833 78.167 28.5 106.5s39.834 51.5 72.501 69.5c-43.333 60 -80 117.333 -110 172c36.667 22.667 79 45.334 127 68.001c57.333 -95.333 106.666 -171.666 147.999 -228.999c21.333 5.33301 36.833 12.666 46.5 21.999s15.834 23.666 18.501 42.999
c3.33301 21.333 7.66602 69.333 12.999 144c30 2 59.333 3 88 3l57 -1l-9 -120c-3.33301 -44.667 -15 -80 -35 -106s-50 -46.333 -90 -61l135 -213c-50.667 -26.667 -93.667 -46.334 -129 -59.001z" />
    <glyph glyph-name="uni05D1" unicode="&#x5d1;" horiz-adv-x="536" 
d="M33 125h270.999v224c0 19.333 -5.16699 34.5 -15.5 45.5s-24.5 16.5 -42.5 16.5h-189v125h216c52.667 0 93.834 -15 123.501 -45s44.5 -71.667 44.5 -125v-241h80l-14 -125h-474v125z" />
    <glyph glyph-name="uni05D2" unicode="&#x5d2;" horiz-adv-x="407" 
d="M27 111c72.667 30 136 60.001 190 90.001l-22 210h-123v125h243l53 -514c-40.667 -16.667 -80.667 -29.334 -120 -38.001l-11 95c-54 -30 -122.333 -63.333 -205 -100h-11c1.33301 45.333 3.33301 89.333 6 132z" />
    <glyph glyph-name="uni05D3" unicode="&#x5d3;" horiz-adv-x="526" 
d="M262 411h-242v125h476l-14 -125h-83v-407l-137 -9v416z" />
    <glyph glyph-name="uni05D4" unicode="&#x5d4;" horiz-adv-x="586" 
d="M391 349c0 19.333 -5.16797 34.5 -15.501 45.5s-24.5 16.5 -42.5 16.5h-275v125h302c52.667 0 93.834 -15 123.501 -45s44.5 -71.667 44.5 -125v-362l-137 -9v354zM62.999 269c61.333 5.33301 107.667 8.33301 139 9v-274l-139 -9v274z" />
    <glyph glyph-name="uni05D5" unicode="&#x5d5;" horiz-adv-x="333" 
d="M128 411h-98v125h235v-532l-137 -9v416z" />
    <glyph glyph-name="uni05D6" unicode="&#x5d6;" horiz-adv-x="400" 
d="M125 403c-40 4.66699 -75.6689 11.667 -107.002 21l17 122c54.667 -13.333 107.334 -20 158.001 -20s103.334 6.66699 158.001 20l17 -122c-30 -9.33301 -65.333 -16.333 -106 -21v-403h-137v403z" />
    <glyph glyph-name="uni05D7" unicode="&#x5d7;" horiz-adv-x="605" 
d="M70 536h309c52.667 0 93.834 -15 123.501 -45s44.5 -71.667 44.5 -125v-362l-137 -9v352c0 20 -5.33301 35.667 -16 47s-25.334 17 -44.001 17h-143v-407l-137 -9v541z" />
    <glyph glyph-name="uni05D8" unicode="&#x5d8;" horiz-adv-x="591" 
d="M85 -4l-25 470.998v61l131 9l24 -411c39.333 0 74.333 8.5 105 25.5s54.667 40.833 72 71.5s26 66 26 106c0 60 -23.667 90 -71 90c-15.333 0 -35.333 -4.33301 -60 -13l-32 107c16.667 10 36.167 18.167 58.5 24.5s44.833 9.5 67.5 9.5c53.333 0 95.333 -17.5 126 -52.5
s46 -83.833 46 -146.5c0 -65.333 -16.167 -126.166 -48.5 -182.499s-75.5 -98.166 -129.5 -125.499c-28.667 -14.667 -62.5 -26 -101.5 -34s-80.833 -12 -125.5 -12c-15.333 0 -36.333 0.666992 -63 2z" />
    <glyph glyph-name="uni05D9" unicode="&#x5d9;" horiz-adv-x="326" 
d="M127 411h-103v125h242v-335l-139 -9v219z" />
    <glyph glyph-name="uni05DA" unicode="&#x5da;" horiz-adv-x="470" 
d="M275 347c0 20 -5.33301 35.667 -16 47s-25.334 17 -44.001 17h-189v125h218c52.667 0 93.834 -15 123.501 -45s44.5 -71.667 44.5 -125v-486l-137 -9v476z" />
    <glyph glyph-name="uni05DB" unicode="&#x5db;" horiz-adv-x="504" 
d="M46 125l135.998 -0.000976562c50 0 86.167 12.167 108.5 36.5s33.5 63.5 33.5 117.5c0 44.667 -8.66699 77.834 -26 99.501s-43.666 32.5 -78.999 32.5h-162v125h165c82 0 142.5 -20.5 181.5 -61.5s58.5 -104.5 58.5 -190.5c0 -99.333 -23.667 -171.5 -71 -216.5
s-123.666 -67.5 -228.999 -67.5h-125z" />
    <glyph glyph-name="uni05DC" unicode="&#x5dc;" horiz-adv-x="473" 
d="M77 82l75.001 70c36.667 34 63.5 59.833 80.5 77.5s30.167 35.5 39.5 53.5s14 37.667 14 59v69h-255v265h137v-140h255v-174c0 -48.667 -8.66699 -91.5 -26 -128.5s-40.833 -71.167 -70.5 -102.5s-74.834 -74 -135.501 -128l-37 -33c-24 30.667 -49.667 68 -77 112z" />
    <glyph glyph-name="uni05DD" unicode="&#x5dd;" horiz-adv-x="609" 
d="M65 536h317.999c52.667 0 93.834 -15 123.501 -45s44.5 -71.667 44.5 -125v-366h-486v536zM413.999 125l0.000976562 222c0 20 -5.33301 35.667 -16 47s-25.334 17 -44.001 17h-152v-286h212z" />
    <glyph glyph-name="uni05DE" unicode="&#x5de;" horiz-adv-x="633" 
d="M141 410l-99 21.002l26 120l80 -15h227c63.333 0 112.5 -17.333 147.5 -52s52.5 -83.334 52.5 -146.001v-338h-272v125h135v201c0 27.333 -7.5 48.666 -22.5 63.999s-35.833 23 -62.5 23h-72l-87 -416h-143z" />
    <glyph glyph-name="uni05DF" unicode="&#x5df;" horiz-adv-x="330" 
d="M130 411h-106v125h242v-656l-136 -9v540z" />
    <glyph glyph-name="uni05E0" unicode="&#x5e0;" horiz-adv-x="389" 
d="M35 125h152v286h-115v125h252v-536h-289v125z" />
    <glyph glyph-name="uni05E1" unicode="&#x5e1;" horiz-adv-x="616" 
d="M109 -7l-13 418h-71v125h371c58 0 102.833 -15.833 134.5 -47.5s47.5 -77.5 47.5 -137.5c0 -52 -11 -100.833 -33 -146.5s-53 -85.167 -93 -118.5c-78.667 -62.667 -180.667 -94 -306 -94c-16 0 -28.333 0.333008 -37 1zM383 192c37.333 38.667 56.001 87 56.001 145
c0 26.667 -6.33301 45.667 -19 57s-31 17 -55 17h-138l11 -285c59.333 5.33301 107.666 27.333 144.999 66z" />
    <glyph glyph-name="uni05E2" unicode="&#x5e2;" horiz-adv-x="562" 
d="M17 73c72 13.333 126 25.002 162 35.002l-103 315l-33 67c36.667 21.333 78 40.666 124 57.999c12.667 -14.667 22.667 -30.834 30 -48.501s15 -39.834 23 -66.501l83 -273c27.333 20.667 46.833 48 58.5 82s17.5 79.333 17.5 136c0 44.667 -4 92.334 -12 143.001
c37.333 10 83 17 137 21c6.66699 -36.667 10 -81.667 10 -135c0 -101.333 -14.5 -181 -43.5 -239s-77.5 -103.5 -145.5 -136.5s-165.333 -60.833 -292 -83.5c-8 57.333 -13.333 99 -16 125z" />
    <glyph glyph-name="uni05E3" unicode="&#x5e3;" horiz-adv-x="546" 
d="M351 347c0 20 -5.33301 35.668 -16 47.001s-25.334 17 -44.001 17h-83l-31 -113l80 -41l-54 -116l-168 83v39l71 273c23.333 0.666992 59 1 107 1s83.667 -0.333008 107 -1c52.667 -0.666992 93.834 -15.834 123.501 -45.501s44.5 -71.167 44.5 -124.5v-486l-137 -9v476z
" />
    <glyph glyph-name="uni05E4" unicode="&#x5e4;" horiz-adv-x="564" 
d="M32 122h350.999c-1.33301 78 -5.66602 152.667 -12.999 224c-2.66699 22 -10.167 38.833 -22.5 50.5s-28.833 17.5 -49.5 17.5h-82l-19 -79l79 -41c-12 -35.333 -27.333 -73.333 -46 -114l-173 89v30l55 237c22.667 0.666992 57 1 103 1
c45.333 0 79.333 -0.333008 102 -1c54.667 -1.33301 97 -15.5 127 -42.5s48 -67.5 54 -121.5c4 -36 7.33301 -84.333 10 -145s4 -120.667 4 -180v-47h-480v122z" />
    <glyph glyph-name="uni05E5" unicode="&#x5e5;" horiz-adv-x="509" 
d="M267 46c-5.33301 14.667 -15.6709 34.668 -31.0039 60.001s-36.666 58 -63.999 98c-42.667 64 -78.167 119.667 -106.5 167s-49.833 91 -64.5 131c36 15.333 80.667 31.333 134 48c22 -48 41.333 -87.333 58 -118s38 -66.667 64 -108
c18.667 4.66699 32.334 11.167 41.001 19.5s14.667 21.166 18 38.499c2.66699 14 5.33398 35.833 8.00098 65.5s4.66699 58.5 6 86.5c40 2.66699 85.333 4 136 4c-1.33301 -42 -3.66602 -82.333 -6.99902 -121c-4 -43.333 -16.667 -79.5 -38 -108.5s-59 -50.5 -113 -64.5
l41 -63c24 -38.667 40.333 -71.5 49 -98.5s13 -61.167 13 -102.5c0 -22 -1.66699 -55.333 -5 -100l-140 -9z" />
    <glyph glyph-name="uni05E6" unicode="&#x5e6;" horiz-adv-x="515" 
d="M41 128l69.999 0.00195312l175 -11l-1 10l-106 114c-56 72.667 -109.667 156 -161 250c34.667 21.333 78 41.333 130 60c36.667 -67.333 82 -141.333 136 -222c12.667 5.33301 22 12.166 28 20.499s10 19.166 12 32.499c2.66699 14 5.33398 36 8.00098 66
s4.66699 58.667 6 86c40.667 2.66699 86.334 4 137.001 4c-0.666992 -24.667 -3.33398 -65 -8.00098 -121c-4.66699 -42 -15.5 -76 -32.5 -102s-47.5 -47 -91.5 -63l104 -136v-116h-406v128z" />
    <glyph glyph-name="uni05E7" unicode="&#x5e7;" horiz-adv-x="590" 
d="M269 86l20.998 26.001c44.667 57.333 74.334 98.166 89.001 122.499s22 48.833 22 73.5v103h-341v125h478v-197c0 -43.333 -5.16699 -81 -15.5 -113s-24.666 -61.5 -42.999 -88.5s-46.833 -64.5 -85.5 -112.5l-16.5 -20.5l-21.5 -26.5c-30.667 34 -59.667 70 -87 108z
M64.998 281.001c61.333 5.33301 107.667 8.33301 139 9v-410l-139 -9v410z" />
    <glyph glyph-name="uni05E8" unicode="&#x5e8;" horiz-adv-x="468" 
d="M273 347c0 19.333 -5.33301 34.833 -16 46.5s-25.334 17.5 -44.001 17.5h-188v125h217c52.667 0 93.834 -15 123.501 -45s44.5 -71.667 44.5 -125v-362l-137 -9v352z" />
    <glyph glyph-name="uni05E9" unicode="&#x5e9;" horiz-adv-x="737" 
d="M92 -14l-33.999 481.001v61l132 11l18 -233c31.333 8 54 17.5 68 28.5s23.5 28.333 28.5 52s7.5 60.5 7.5 110.5v31l134 11c1.33301 -76.667 -4.83398 -137 -18.501 -181s-37.167 -77.167 -70.5 -99.5s-80.666 -37.5 -141.999 -45.5l7 -101
c76 -0.666992 136.833 7.66602 182.5 24.999s80.667 48.833 105 94.5s38.166 111.167 41.499 196.5c1.33301 33.333 2 53.666 2 60.999l-1 39l138 11c1.33301 -18 2 -44 2 -78c0 -115.333 -17.833 -207.666 -53.5 -276.999s-92.167 -119.833 -169.5 -151.5
s-180.333 -47.5 -309 -47.5c-29.333 0 -52 0.333008 -68 1z" />
    <glyph glyph-name="uni05EA" unicode="&#x5ea;" horiz-adv-x="656" 
d="M20 -1c6.66699 34.667 17.335 73.667 32.002 117c15.333 -2 28.666 -3 39.999 -3c37.333 0 56 20 56 60v238h-111v125h393c52.667 0 93.834 -15 123.501 -45s44.5 -71.667 44.5 -125v-362l-137 -9v352c0 19.333 -5.33301 34.833 -16 46.5s-25.334 17.5 -44.001 17.5h-116
v-261c0 -56.667 -13 -97.667 -39 -123s-67.667 -38 -125 -38c-34.667 0 -68.334 3.33301 -101.001 10z" />
    <glyph glyph-name="uni05F3" unicode="&#x5f3;" horiz-adv-x="306" 
d="M55 406c30 38 50.335 71 61.002 99l-58 87c0 15.333 4.16699 30.5 12.5 45.5s20.166 27.167 35.499 36.5s32.666 14 51.999 14c28.667 0 53 -10.167 73 -30.5s30 -46.166 30 -77.499c0 -36.667 -14.667 -78.334 -44 -125.001s-75.333 -92 -138 -136z" />
    <glyph glyph-name="uni05F4" unicode="&#x5f4;" horiz-adv-x="568" 
d="M55 406c30 38 50.335 71 61.002 99l-58 87c0 15.333 4.16699 30.5 12.5 45.5s20.166 27.167 35.499 36.5s32.666 14 51.999 14c28.667 0 53 -10.167 73 -30.5s30 -46.166 30 -77.499c0 -36.667 -14.667 -78.334 -44 -125.001s-75.333 -92 -138 -136zM317.002 406
c30 38 50.335 71 61.002 99l-58 87c0 15.333 4.16699 30.5 12.5 45.5s20.166 27.167 35.499 36.5s32.666 14 51.999 14c28.667 0 53 -10.167 73 -30.5s30 -46.166 30 -77.499c0 -36.667 -14.667 -78.334 -44 -125.001s-75.333 -92 -138 -136z" />
    <glyph glyph-name="Wgrave" unicode="&#x1e80;" horiz-adv-x="1022" 
d="M30 666h154l116 -479l119 475l187 14l126 -503l117 493h143l-180 -666h-175l-129 527l-134 -527h-173zM462 752.5c-14 14.333 -21 32.5 -21 54.5c0 34 15.667 64.667 47 92s69 47 113 59l18 -39c-26 -20.667 -46.333 -42.667 -61 -66l26 -53c0 -18 -6.66699 -34 -20 -48
s-30 -21 -50 -21c-20.667 0 -38 7.16699 -52 21.5z" />
    <glyph glyph-name="wgrave" unicode="&#x1e81;" horiz-adv-x="850" 
d="M7 515h144l92 -341l99 338l159 13l107 -361l94 351h134l-157 -515h-154l-106 374l-111 -374h-151zM376 601.5c-14 14.333 -21 32.5 -21 54.5c0 34 15.667 64.667 47 92s69 47 113 59l18 -39c-26 -20.667 -46.333 -42.667 -61 -66l26 -53c0 -18 -6.66699 -34 -20 -48
s-30 -21 -50 -21c-20.667 0 -38 7.16699 -52 21.5z" />
    <glyph glyph-name="Wacute" unicode="&#x1e82;" horiz-adv-x="1022" 
d="M30 666h154l116 -479l119 475l187 14l126 -503l117 493h143l-180 -666h-175l-129 527l-134 -527h-173zM480 770c26 20.667 46.333 42.667 61 66l-26 53c0 18 6.66699 34 20 48s30 21 50 21c20.667 0 38 -7.16699 52 -21.5s21 -32.5 21 -54.5
c0 -34 -15.667 -64.667 -47 -92s-69 -47 -113 -59z" />
    <glyph glyph-name="wacute" unicode="&#x1e83;" horiz-adv-x="850" 
d="M7 515h144l92 -341l99 338l159 13l107 -361l94 351h134l-157 -515h-154l-106 374l-111 -374h-151zM394 619c26 20.667 46.333 42.667 61 66l-26 53c0 18 6.66699 34 20 48s30 21 50 21c20.667 0 38 -7.16699 52 -21.5s21 -32.5 21 -54.5c0 -34 -15.667 -64.667 -47 -92
s-69 -47 -113 -59z" />
    <glyph glyph-name="Wdieresis" unicode="&#x1e84;" horiz-adv-x="1022" 
d="M30 666h154l116 -479l119 475l187 14l126 -503l117 493h143l-180 -666h-175l-129 527l-134 -527h-173zM339 760c-15.333 15.333 -23.001 34 -23.001 56s8 40.667 24 56s35 23 57 23c21.333 0 39.666 -7.66699 54.999 -23s23 -34 23 -56
c0 -21.333 -8.16699 -39.833 -24.5 -55.5s-35.166 -23.5 -56.499 -23.5s-39.666 7.66699 -54.999 23zM569.999 760c-15.333 15.333 -23 34 -23 56c0 21.333 8.16699 39.833 24.5 55.5s35.166 23.5 56.499 23.5s39.666 -7.66699 54.999 -23s23 -34 23 -56
s-7.66699 -40.667 -23 -56s-34.666 -23 -57.999 -23c-21.333 0 -39.666 7.66699 -54.999 23z" />
    <glyph glyph-name="wdieresis" unicode="&#x1e85;" horiz-adv-x="850" 
d="M7 515h144l92 -341l99 338l159 13l107 -361l94 351h134l-157 -515h-154l-106 374l-111 -374h-151zM253 609c-15.333 15.333 -23.001 34 -23.001 56s8 40.667 24 56s35 23 57 23c21.333 0 39.666 -7.66699 54.999 -23s23 -34 23 -56
c0 -21.333 -8.16699 -39.833 -24.5 -55.5s-35.166 -23.5 -56.499 -23.5s-39.666 7.66699 -54.999 23zM483.999 609c-15.333 15.333 -23 34 -23 56c0 21.333 8.16699 39.833 24.5 55.5s35.166 23.5 56.499 23.5s39.666 -7.66699 54.999 -23s23 -34 23 -56
s-7.66699 -40.667 -23 -56s-34.666 -23 -57.999 -23c-21.333 0 -39.666 7.66699 -54.999 23z" />
    <glyph glyph-name="Ygrave" unicode="&#x1ef2;" horiz-adv-x="607" 
d="M228 277l-223 389h163l135 -263l134 263h160l-224 -389v-277h-145v277zM252 752.5c-14 14.333 -21 32.5 -21 54.5c0 34 15.667 64.667 47 92s69 47 113 59l18 -39c-26 -20.667 -46.333 -42.667 -61 -66l26 -53c0 -18 -6.66699 -34 -20 -48s-30 -21 -50 -21
c-20.667 0 -38 7.16699 -52 21.5z" />
    <glyph glyph-name="ygrave" unicode="&#x1ef3;" horiz-adv-x="542" 
d="M42 -202l21.001 115.999c25.333 -12.667 46.666 -19 63.999 -19c20.667 0 36.167 6.66699 46.5 20s21.5 36.666 33.5 69.999l-201 528l146 12l123 -369l114 359h139c-42.667 -129.333 -87.5 -256.666 -134.5 -381.999s-83.5 -211.333 -109.5 -258
c-18.667 -33.333 -39.5 -58.166 -62.5 -74.499s-50.833 -24.5 -83.5 -24.5c-30.667 0 -62.667 7.33301 -96 22zM222.001 601.499c-14 14.333 -21 32.5 -21 54.5c0 34 15.667 64.667 47 92s69 47 113 59l18 -39c-26 -20.667 -46.333 -42.667 -61 -66l26 -53
c0 -18 -6.66699 -34 -20 -48s-30 -21 -50 -21c-20.667 0 -38 7.16699 -52 21.5z" />
    <glyph glyph-name="endash" unicode="&#x2013;" horiz-adv-x="696" 
d="M53 358h600l-10 -115h-600z" />
    <glyph glyph-name="emdash" unicode="&#x2014;" horiz-adv-x="962" 
d="M86 358h800l-10 -115h-800z" />
    <glyph glyph-name="quoteleft" unicode="&#x2018;" horiz-adv-x="316" 
d="M85 349.5c-20 20.333 -30.002 46.166 -30.002 77.499c0 36.667 14.667 78.334 44 125.001s75.333 92 138 136l24 -87c-30 -38 -50.333 -71 -61 -99l58 -87c0 -15.333 -4.16699 -30.5 -12.5 -45.5s-20.166 -27.167 -35.499 -36.5s-32.666 -14 -51.999 -14
c-28.667 0 -53 10.167 -73 30.5z" />
    <glyph glyph-name="quoteright" unicode="&#x2019;" horiz-adv-x="306" 
d="M45 406c30 38 50.335 71 61.002 99l-58 87c0 15.333 4.16699 30.5 12.5 45.5s20.166 27.167 35.499 36.5s32.666 14 51.999 14c28.667 0 53 -10.167 73 -30.5s30 -46.166 30 -77.499c0 -36.667 -14.667 -78.334 -44 -125.001s-75.333 -92 -138 -136z" />
    <glyph glyph-name="quotesinglbase" unicode="&#x201a;" horiz-adv-x="306" 
d="M45 -75c30 38 50.335 71 61.002 99l-58 87c0 15.333 4.16699 30.5 12.5 45.5s20.166 27.167 35.499 36.5s32.666 14 51.999 14c28.667 0 53 -10.167 73 -30.5s30 -46.166 30 -77.499c0 -36.667 -14.667 -78.334 -44 -125.001s-75.333 -92 -138 -136z" />
    <glyph glyph-name="quotedblleft" unicode="&#x201c;" horiz-adv-x="578" 
d="M85 349.5c-20 20.333 -30.002 46.166 -30.002 77.499c0 36.667 14.667 78.334 44 125.001s75.333 92 138 136l24 -87c-30 -38 -50.333 -71 -61 -99l58 -87c0 -15.333 -4.16699 -30.5 -12.5 -45.5s-20.166 -27.167 -35.499 -36.5s-32.666 -14 -51.999 -14
c-28.667 0 -53 10.167 -73 30.5zM346.998 349.5c-20 20.333 -30.002 46.166 -30.002 77.499c0 36.667 14.667 78.334 44 125.001s75.333 92 138 136l24 -87c-30 -38 -50.333 -71 -61 -99l58 -87c0 -15.333 -4.16699 -30.5 -12.5 -45.5s-20.166 -27.167 -35.499 -36.5
s-32.666 -14 -51.999 -14c-28.667 0 -53 10.167 -73 30.5z" />
    <glyph glyph-name="quotedblright" unicode="&#x201d;" horiz-adv-x="578" 
d="M55 406c30 38 50.335 71 61.002 99l-58 87c0 15.333 4.16699 30.5 12.5 45.5s20.166 27.167 35.499 36.5s32.666 14 51.999 14c28.667 0 53 -10.167 73 -30.5s30 -46.166 30 -77.499c0 -36.667 -14.667 -78.334 -44 -125.001s-75.333 -92 -138 -136zM317.002 406
c30 38 50.335 71 61.002 99l-58 87c0 15.333 4.16699 30.5 12.5 45.5s20.166 27.167 35.499 36.5s32.666 14 51.999 14c28.667 0 53 -10.167 73 -30.5s30 -46.166 30 -77.499c0 -36.667 -14.667 -78.334 -44 -125.001s-75.333 -92 -138 -136z" />
    <glyph glyph-name="quotedblbase" unicode="&#x201e;" horiz-adv-x="568" 
d="M55 -75c30 38 50.335 71 61.002 99l-58 87c0 15.333 4.16699 30.5 12.5 45.5s20.166 27.167 35.499 36.5s32.666 14 51.999 14c28.667 0 53 -10.167 73 -30.5s30 -46.166 30 -77.499c0 -36.667 -14.667 -78.334 -44 -125.001s-75.333 -92 -138 -136zM317.002 -75
c30 38 50.335 71 61.002 99l-58 87c0 15.333 4.16699 30.5 12.5 45.5s20.166 27.167 35.499 36.5s32.666 14 51.999 14c28.667 0 53 -10.167 73 -30.5s30 -46.166 30 -77.499c0 -36.667 -14.667 -78.334 -44 -125.001s-75.333 -92 -138 -136z" />
    <glyph glyph-name="dagger" unicode="&#x2020;" horiz-adv-x="600" 
d="M250 434h-195l10 81h185v207l90 10v-217h205l-10 -81h-195v-650l-90 -10v660z" />
    <glyph glyph-name="daggerdbl" unicode="&#x2021;" horiz-adv-x="610" 
d="M260 -9h-205l10 81h195v362h-195l10 81h185v207l90 10v-217h205l-10 -81h-195v-362h195l-10 -81h-185v-207l-90 -10v217z" />
    <glyph glyph-name="bullet" unicode="&#x2022;" horiz-adv-x="463" 
d="M164 163c-20.667 12 -37 28.333 -49 49s-18 43 -18 67s6 46.167 18 66.5s28.333 36.5 49 48.5s43 18 67 18c23.333 0 45.333 -6 66 -18s37 -28.333 49 -49s18 -42.667 18 -66c0 -24 -6 -46.333 -18 -67s-28.167 -37 -48.5 -49s-42.5 -18 -66.5 -18s-46.333 6 -67 18z" />
    <glyph glyph-name="ellipsis" unicode="&#x2026;" horiz-adv-x="896" 
d="M76 13c-18.667 18.667 -28 40.667 -28 66c0 26 9.33301 48.333 28 67s40.667 28 66 28c26 0 48.167 -9.33301 66.5 -28s27.5 -41 27.5 -67c0 -25.333 -9.16699 -47.333 -27.5 -66s-40.5 -28 -66.5 -28c-25.333 0 -47.333 9.33301 -66 28zM381 13
c-18.667 18.667 -28 40.667 -28 66c0 26 9.33301 48.333 28 67s40.667 28 66 28c26 0 48.167 -9.33301 66.5 -28s27.5 -41 27.5 -67c0 -25.333 -9.16699 -47.333 -27.5 -66s-40.5 -28 -66.5 -28c-25.333 0 -47.333 9.33301 -66 28zM686 13c-18.667 18.667 -28 40.667 -28 66
c0 26 9.33301 48.333 28 67s40.667 28 66 28c26 0 48.167 -9.33301 66.5 -28s27.5 -41 27.5 -67c0 -25.333 -9.16699 -47.333 -27.5 -66s-40.5 -28 -66.5 -28c-25.333 0 -47.333 9.33301 -66 28z" />
    <glyph glyph-name="perthousand" unicode="&#x2030;" horiz-adv-x="1126" 
d="M134 -1l451 672l67 -8l-451 -673zM134.5 417c-21.667 12 -38.666 28.333 -50.999 49s-18.5 43.334 -18.5 68.001c0 25.333 6.16699 48.333 18.5 69s29.166 37 50.499 49s45 18 71 18c25.333 0 48.666 -6 69.999 -18s38.166 -28.333 50.499 -49s18.5 -43.667 18.5 -69
c0 -24.667 -6.16699 -47.334 -18.5 -68.001s-29.166 -37 -50.499 -49s-44.666 -18 -69.999 -18s-48.833 6 -70.5 18zM249.501 487c11.667 13.333 17.5 29 17.5 47s-5.83301 33.833 -17.5 47.5s-26.5 20.5 -44.5 20.5c-18.667 0 -33.834 -6.83301 -45.501 -20.5
s-17.5 -29.5 -17.5 -47.5s5.83301 -33.667 17.5 -47s26.834 -20 45.501 -20c18 0 32.833 6.66699 44.5 20zM512.501 9c-21 12 -37.665 28.333 -49.998 49s-18.5 43.667 -18.5 69c0 24.667 6.16699 47.5 18.5 68.5s29 37.5 50 49.5s44.167 18 69.5 18s48.666 -6 69.999 -18
s38.166 -28.5 50.499 -49.5s18.5 -43.833 18.5 -68.5c0 -38.667 -13.333 -71 -40 -97s-59.667 -39 -99 -39c-25.333 0 -48.5 6 -69.5 18zM852.503 9c-21 12 -37.665 28.333 -49.998 49s-18.5 43.667 -18.5 69c0 24.667 6.16699 47.5 18.5 68.5s29 37.5 50 49.5
s44.167 18 69.5 18s48.666 -6 69.999 -18s38.166 -28.5 50.499 -49.5s18.5 -43.833 18.5 -68.5c0 -38.667 -13.333 -71 -40 -97s-59.667 -39 -99 -39c-25.333 0 -48.5 6 -69.5 18zM626.505 80c11.667 13.333 17.5 29 17.5 47s-5.83301 33.833 -17.5 47.5
s-26.834 20.5 -45.501 20.5c-18 0 -32.833 -6.83301 -44.5 -20.5s-17.5 -29.5 -17.5 -47.5s5.83301 -33.667 17.5 -47s26.5 -20 44.5 -20c18.667 0 33.834 6.66699 45.501 20zM966.505 80c11.667 13.333 17.5 29 17.5 47s-5.83301 33.833 -17.5 47.5
s-26.834 20.5 -45.501 20.5c-18 0 -32.833 -6.83301 -44.5 -20.5s-17.5 -29.5 -17.5 -47.5s5.83301 -33.667 17.5 -47s26.5 -20 44.5 -20c18.667 0 33.834 6.66699 45.501 20z" />
    <glyph glyph-name="guilsinglleft" unicode="&#x2039;" horiz-adv-x="459" 
d="M80 277l214 261l93 -69l-126 -192l133 -196l-92 -64z" />
    <glyph glyph-name="guilsinglright" unicode="&#x203a;" horiz-adv-x="459" 
d="M65 81l133 196l-126 192l93 69l214 -261l-222 -260z" />
    <glyph glyph-name="fraction" unicode="&#x2044;" horiz-adv-x="609" 
d="M45 -1l451 672l68 -8l-452 -673z" />
    <glyph glyph-name="uni20AA" unicode="&#x20aa;" horiz-adv-x="1091" 
d="M436 -14l-27 372.002c-0.666992 16.667 -6.5 29.667 -17.5 39s-25.167 14 -42.5 14h-137v-411h-137v535h297c50.667 0 91.167 -12.833 121.5 -38.5s47.5 -61.834 51.5 -108.501l7 -82c31.333 7.33301 54 16.5 68 27.5s23.5 28.333 28.5 52s7.5 60.5 7.5 110.5v32l134 11
c1.33301 -76.667 -4.83398 -137 -18.501 -181s-37.167 -77.167 -70.5 -99.5s-80.666 -37.5 -141.999 -45.5l7 -101c78 -0.666992 139.667 7.66602 185 24.999s79.5 48.666 102.5 93.999s36.833 111 41.5 197c1.33301 28 2 47.667 2 59l-1 41l138 11c1.33301 -18 2 -44 2 -78
c0 -115.333 -17.833 -207.666 -53.5 -276.999s-92.167 -119.833 -169.5 -151.5s-180.333 -47.5 -309 -47.5c-29.333 0 -52 0.333008 -68 1z" />
    <glyph glyph-name="Euro" unicode="&#x20ac;" horiz-adv-x="673" 
d="M230.5 50c-57.667 42 -94.167 102 -109.5 180h-101l10 65h83v21c0 15.333 0.333008 26.666 1 33.999h-94l10 65h93c18 80.667 56.5 144.334 115.5 191.001s131.5 70 217.5 70c54 0 105.333 -9.33301 154 -28l-27 -128c-43.333 18.667 -85.333 28 -126 28
c-46 0 -85 -11.667 -117 -35s-54.667 -56 -68 -98h289l-13 -65h-287c-0.666992 -4.66699 -1 -11.667 -1 -21c0 -8 0.666992 -19.333 2 -34h275l-14 -65h-245c15.333 -37.333 39.5 -66 72.5 -86s73.833 -30 122.5 -30c42.667 0 84 6.33301 124 19l21 -119
c-48 -18 -102.333 -27 -163 -27c-92 0 -166.833 21 -224.5 63z" />
    <glyph glyph-name="uni20BA" unicode="&#x20ba;" horiz-adv-x="520" 
d="M173 236l-128 -72l10 78l118 67v67l-128 -72l10 79l118 66v161h-86v120h227v-201l141 79l-10 -78l-131 -74l-1 -68l142 80l-10 -79l-132 -74v-194h122v-121h-262v236z" />
    <glyph glyph-name="uni20BD" unicode="&#x20bd;" horiz-adv-x="619" 
d="M137 90l-107 -0.000976562l20 65h87v83h-107l20 118h87v310c19.333 0.666992 56 1 110 1c54.667 0 91.667 -0.333008 111 -1c68.667 -1.33301 122.667 -19.666 162 -54.999s59 -84.333 59 -147c0 -44.667 -10 -84.167 -30 -118.5s-48.167 -60.833 -84.5 -79.5
s-77.5 -28 -123.5 -28h-65v-83h157l-20 -65h-137v-90h-139v90zM335 355.999c32.667 0 58.167 9.33301 76.5 28s27.5 44 27.5 76c0 58.667 -32.333 88 -97 88h-66v-192h59z" />
    <glyph glyph-name="uni2113" unicode="&#x2113;" horiz-adv-x="574" 
d="M150 232c-26.667 -11.333 -63.667 -24.333 -111 -39l24 152c39.333 10 76.333 22 111 36l22 116c16 84 42.5 146.333 79.5 187s81.167 61 132.5 61c38 0 67.667 -10.667 89 -32s32 -51.666 32 -90.999c0 -58 -22 -116.333 -66 -175s-99.667 -108.334 -167 -149.001
l-29 -177h118l-19 -121h-253zM384 523c18 29.333 26.999 54 26.999 74c0 8 -1.66699 14.333 -5 19s-8 7 -14 7s-12.667 -3 -20 -9s-13.666 -14.667 -18.999 -26c-11.333 -22.667 -23.333 -68 -36 -136c26.667 18 49 41.667 67 71z" />
    <glyph glyph-name="trademark" unicode="&#x2122;" horiz-adv-x="676" 
d="M126 466h-71v49h199v-49h-71v-211h-57v211zM349 439l-16 -184h-51l23 260h71l66 -187l64 187h71l24 -260h-51l-18 183l-69 -186l-45 -3z" />
    <glyph glyph-name="uni2126" unicode="&#x2126;" horiz-adv-x="845" 
d="M88 121h109.998c-38 34 -67.167 74.167 -87.5 120.5s-30.5 97.166 -30.5 152.499c0 67.333 14.667 127.833 44 181.5s69.833 95.667 121.5 126s110.5 45.5 176.5 45.5s125 -15.167 177 -45.5s92.667 -72.333 122 -126s44 -114.167 44 -181.5
c0 -54.667 -10.167 -105.167 -30.5 -151.5s-49.833 -86.833 -88.5 -121.5h111v-121h-300v116c52 26.667 91.5 63.834 118.5 111.501s40.5 100.167 40.5 157.5c0 45.333 -8.33301 85.5 -25 120.5s-39.667 62.167 -69 81.5s-63 29 -101 29
c-37.333 0 -70.666 -9.5 -99.999 -28.5s-52.166 -45.833 -68.499 -80.5s-24.5 -74.667 -24.5 -120c0 -58 13.667 -110.833 41 -158.5s67 -85.167 119 -112.5v-116h-300v121z" />
    <glyph glyph-name="estimated" unicode="&#x212e;" horiz-adv-x="593" 
d="M126.5 57c-47.667 48 -71.5039 114.666 -71.5039 199.999c0 55.333 10.333 103.5 31 144.5s49.834 72.5 87.501 94.5s81.834 33 132.501 33c74.667 0 132 -24 172 -72s60 -117.333 60 -208c0 -15.333 -0.333008 -26.666 -1 -33.999h-314v-61c24 -31.333 63 -47 117 -47
c24.667 0 50.334 3.16699 77.001 9.5s50 14.833 70 25.5l23 -113c-26.667 -14 -56.167 -24.833 -88.5 -32.5s-65.166 -11.5 -98.499 -11.5c-83.333 0 -148.833 24 -196.5 72zM376.996 320.999v69c-18 20 -43.333 30 -76 30c-34 0 -60 -10.667 -78 -32v-67h154z" />
    <glyph glyph-name="uni2153" unicode="&#x2153;" horiz-adv-x="890" 
d="M189 -1l451 672l68 -8l-452 -673zM95 362h59v202l-55 27v27l89 50h41v-306h62l-5 -68h-196zM557 -3l9.99707 69.001c22 -3.33301 40.667 -5 56 -5c30 0 53.667 6.16699 71 18.5s26 28.833 26 49.5c0 13.333 -3.66699 23.666 -11 30.999s-17.666 11 -30.999 11
c-8.66699 0 -18.667 -2 -30 -6l-11 53c18 6 34.167 15.333 48.5 28s21.5 25.667 21.5 39c0 8 -3 14.5 -9 19.5s-14.333 7.5 -25 7.5c-10 0 -20.667 -2.83301 -32 -8.5s-21.666 -13.834 -30.999 -24.501l-47 51c16 15.333 34 27.333 54 36s41 13 63 13
c30.667 0 55.5 -8 74.5 -24s28.5 -36 28.5 -60c0 -27.333 -12 -52 -36 -74c17.333 -8.66699 30.5 -20.5 39.5 -35.5s13.5 -32.5 13.5 -52.5c0 -26.667 -7.66699 -50.667 -23 -72s-37.166 -38.166 -65.499 -50.499s-60.5 -18.5 -96.5 -18.5c-16.667 0 -36 1.66699 -58 5z" />
    <glyph glyph-name="partialdiff" unicode="&#x2202;" horiz-adv-x="556" 
d="M105 46.5c-43.333 41.667 -65 100.167 -65 175.5c0 66 16.333 118.5 49 157.5s81 58.5 145 58.5c39.333 0 83.333 -8 132 -24c-8.66699 40.667 -18.5 72 -29.5 94s-27.5 38.333 -49.5 49s-52.667 16 -92 16c-25.333 0 -53 -2 -83 -6l-3 114
c32.667 7.33301 65.667 11 99 11c108 0 185.5 -37.667 232.5 -113s70.5 -168.333 70.5 -279c0 -111.333 -19.833 -191.833 -59.5 -241.5s-97.167 -74.5 -172.5 -74.5c-72.667 0 -130.667 20.833 -174 62.5zM373 247c0.666992 11.333 0.332031 29.333 -1.00098 54
c-44 17.333 -80.333 26 -109 26c-56.667 0 -85 -38.333 -85 -115c0 -38 7.83301 -66.333 23.5 -85s37.834 -28 66.501 -28c64.667 0 99.667 49.333 105 148z" />
    <glyph glyph-name="emptyset" unicode="&#x2205;" horiz-adv-x="705" 
d="M165 40l-44 -44l-65 50l52 52c-35.333 50 -53 109.667 -53 179c0 57.333 12.333 108.333 37 153s59.334 79.334 104.001 104.001s95.667 37 153 37c69.333 0 129.333 -18 180 -54l56 56l65 -50l-63 -63c37.333 -50.667 56 -111.667 56 -183
c0 -57.333 -12.333 -108.333 -37 -153s-59.334 -79.334 -104.001 -104.001s-95.667 -37 -153 -37c-70.667 0 -132 19 -184 57zM468 456c-33.333 23.333 -73.001 35 -119.001 35c-40 0 -75.667 -9 -107 -27s-55.666 -43.333 -72.999 -76s-26 -69.667 -26 -111
c0 -44 9.66699 -82.667 29 -116zM455.999 90c31.333 18 55.667 43.333 73 76s26 69.667 26 111c0 46 -10.333 86 -31 120l-298 -297c35.333 -24.667 76.333 -37 123 -37c40 0 75.667 9 107 27z" />
    <glyph glyph-name="uni2206" unicode="&#x2206;" horiz-adv-x="741" 
d="M315 666h120l276 -666h-682zM543 106l-173 431l-176 -431h349z" />
    <glyph glyph-name="product" unicode="&#x220f;" horiz-adv-x="872" 
d="M179 544h-79v122h672v-122h-79v-762h-144v762h-226v-762h-144v762z" />
    <glyph glyph-name="summation" unicode="&#x2211;" horiz-adv-x="644" 
d="M50 -99l271 349l-271 363v117h544l-10 -122h-350l268 -351l-274 -354h365l-10 -121h-533v119z" />
    <glyph glyph-name="minus" unicode="&#x2212;" horiz-adv-x="650" 
d="M90 288h480l-10 -75h-480z" />
    <glyph glyph-name="uni2219" unicode="&#x2219;" horiz-adv-x="347" 
d="M117.5 248c-15.667 16 -23.5 34.667 -23.5 56s7.83301 39.833 23.5 55.5s34.167 23.5 55.5 23.5c22 0 40.833 -7.83301 56.5 -23.5s23.5 -34.167 23.5 -55.5s-7.83301 -40 -23.5 -56s-34.5 -24 -56.5 -24c-21.333 0 -39.833 8 -55.5 24z" />
    <glyph glyph-name="radical" unicode="&#x221a;" horiz-adv-x="670" 
d="M37 261l133 41l118 -335l300 997h502l-27 -131h-375l-344 -1063h-117z" />
    <glyph glyph-name="infinity" unicode="&#x221e;" horiz-adv-x="876" 
d="M128.5 109c-32.333 36 -48.501 82.334 -48.501 139.001c0 42.667 9.16699 80.5 27.5 113.5s43.166 58.667 74.499 77s66 27.5 104 27.5c67.333 0 123 -31 167 -93c22.667 29.333 47 52.166 73 68.499s56.333 24.5 91 24.5c54.667 0 98.167 -18 130.5 -54
s48.5 -82.667 48.5 -140c0 -42 -9.16699 -79.5 -27.5 -112.5s-43.333 -58.667 -75 -77s-66.5 -27.5 -104.5 -27.5c-37.333 0 -69.666 8.5 -96.999 25.5s-51.666 40.5 -72.999 70.5c-22 -30 -46 -53.5 -72 -70.5s-55.667 -25.5 -89 -25.5c-54 0 -97.167 18 -129.5 54z
M325.499 191.001c13.667 11.333 27.832 27.666 42.499 48.999c-20 38 -36.333 65.333 -49 82s-28 25 -46 25s-33.5 -8 -46.5 -24s-19.5 -36.667 -19.5 -62s6.83301 -46.166 20.5 -62.499s31.167 -24.5 52.5 -24.5c16.667 0 31.834 5.66699 45.501 17zM649.997 198.501
c12.667 16.333 19 37.167 19 62.5s-6.83301 46 -20.5 62s-31.167 24 -52.5 24c-16.667 0 -32 -5.5 -46 -16.5s-28.667 -26.833 -44 -47.5c20 -38 36.667 -65.667 50 -83s29.333 -26 48 -26c18 0 33.333 8.16699 46 24.5z" />
    <glyph glyph-name="integral" unicode="&#x222b;" horiz-adv-x="599" 
d="M142.5 -226c-18.333 4.66699 -39.166 11.667 -62.499 21l49 111c18.667 -11.333 36 -17 52 -17c14.667 0 26.334 4.5 35.001 13.5s13 21.5 13 37.5v639c0 49.333 16 89.333 48 120s73.333 46 124 46c18.667 0 37.167 -2.33301 55.5 -7s39.166 -11.667 62.499 -21
l-49 -111c-18.667 11.333 -36 17 -52 17c-14.667 0 -26.334 -4.5 -35.001 -13.5s-13 -21.5 -13 -37.5v-639c0 -49.333 -16 -89.333 -48 -120s-73.333 -46 -124 -46c-18.667 0 -37.167 2.33301 -55.5 7z" />
    <glyph glyph-name="approxequal" unicode="&#x2248;" horiz-adv-x="658" 
d="M85 370c26 14.667 49.833 25.334 71.5 32.001s42.834 10 63.501 10c18 0 36.333 -2 55 -6s41 -10 67 -18c23.333 -6.66699 43.166 -11.834 59.499 -15.501s31.833 -5.5 46.5 -5.5c18.667 0 38 3.33301 58 10s44 17.667 72 33l-5 -78c-42.667 -27.333 -86 -41 -130 -41
c-19.333 0 -38.333 2 -57 6s-41 10 -67 18s-46.5 13.667 -61.5 17s-30.167 5 -45.5 5c-20 0 -39.5 -3.5 -58.5 -10.5s-43.5 -18.833 -73.5 -35.5zM85 205c26 14.667 49.833 25.334 71.5 32.001s42.834 10 63.501 10c18 0 36.333 -2 55 -6s41 -10 67 -18
c23.333 -6.66699 43.166 -11.834 59.499 -15.501s31.833 -5.5 46.5 -5.5c18.667 0 38 3.33301 58 10s44 17.667 72 33l-5 -78c-42.667 -27.333 -86 -41 -130 -41c-19.333 0 -38.333 2 -57 6s-41 10 -67 18s-46.5 13.667 -61.5 17s-30.167 5 -45.5 5
c-20 0 -39.5 -3.5 -58.5 -10.5s-43.5 -18.833 -73.5 -35.5z" />
    <glyph glyph-name="notequal" unicode="&#x2260;" horiz-adv-x="650" 
d="M161 -3l69 143h-150l10 75h177l46 95h-233l10 75h259l73 150l82 -7l-69 -143h135l-10 -75h-162l-46 -95h218l-10 -75h-244l-73 -150z" />
    <glyph glyph-name="lessequal" unicode="&#x2264;" horiz-adv-x="562" 
d="M90 316l7 95l378 161v-126l-214 -82l221 -87l-7 -124zM90 110h383l-8 -110h-383z" />
    <glyph glyph-name="greaterequal" unicode="&#x2265;" horiz-adv-x="560" 
d="M80 277l221 87l-214 82v126l378 -161l7 -95l-385 -163zM89 110h383l8 -110h-383z" />
    <glyph glyph-name="lozenge" unicode="&#x25ca;" horiz-adv-x="673" 
d="M65 366l228 364h86l229 -364l-229 -366h-86zM445 366l-109 233l-108 -233l108 -245z" />
    <glyph glyph-name="uniFB2A" unicode="&#xfb2a;" horiz-adv-x="737" 
d="M92 -14l-33.999 481.001v61l132 11l18 -233c31.333 8 54 17.5 68 28.5s23.5 28.333 28.5 52s7.5 60.5 7.5 110.5v31l134 11c1.33301 -76.667 -4.83398 -137 -18.501 -181s-37.167 -77.167 -70.5 -99.5s-80.666 -37.5 -141.999 -45.5l7 -101
c76 -0.666992 136.833 7.66602 182.5 24.999s80.667 48.833 105 94.5s38.166 111.167 41.499 196.5c1.33301 33.333 2 53.666 2 60.999l-1 39l138 11c1.33301 -18 2 -44 2 -78c0 -115.333 -17.833 -207.666 -53.5 -276.999s-92.167 -119.833 -169.5 -151.5
s-180.333 -47.5 -309 -47.5c-29.333 0 -52 0.333008 -68 1zM592.501 600.001c-10.333 10 -15.5 22 -15.5 36c0 15.333 5.16699 28 15.5 38s22.833 15 37.5 15s27 -5.16699 37 -15.5s15 -22.833 15 -37.5c0 -14 -5 -26 -15 -36s-22.333 -15 -37 -15s-27.167 5 -37.5 15z" />
    <glyph glyph-name="uniFB2B" unicode="&#xfb2b;" horiz-adv-x="737" 
d="M92 -14l-33.999 481.001v61l132 11l18 -233c31.333 8 54 17.5 68 28.5s23.5 28.333 28.5 52s7.5 60.5 7.5 110.5v31l134 11c1.33301 -76.667 -4.83398 -137 -18.501 -181s-37.167 -77.167 -70.5 -99.5s-80.666 -37.5 -141.999 -45.5l7 -101
c76 -0.666992 136.833 7.66602 182.5 24.999s80.667 48.833 105 94.5s38.166 111.167 41.499 196.5c1.33301 33.333 2 53.666 2 60.999l-1 39l138 11c1.33301 -18 2 -44 2 -78c0 -115.333 -17.833 -207.666 -53.5 -276.999s-92.167 -119.833 -169.5 -151.5
s-180.333 -47.5 -309 -47.5c-29.333 0 -52 0.333008 -68 1zM77.501 600.001c-10.333 10 -15.5 22 -15.5 36c0 15.333 5.16699 28 15.5 38s22.833 15 37.5 15s27 -5.16699 37 -15.5s15 -22.833 15 -37.5c0 -14 -5 -26 -15 -36s-22.333 -15 -37 -15s-27.167 5 -37.5 15z" />
    <glyph glyph-name="uniFB2C" unicode="&#xfb2c;" horiz-adv-x="737" 
d="M92 -14l-33.999 481.001v61l132 11l18 -233c31.333 8 54 17.5 68 28.5s23.5 28.333 28.5 52s7.5 60.5 7.5 110.5v31l134 11c1.33301 -76.667 -4.83398 -137 -18.501 -181s-37.167 -77.167 -70.5 -99.5s-80.666 -37.5 -141.999 -45.5l7 -101
c76 -0.666992 136.833 7.66602 182.5 24.999s80.667 48.833 105 94.5s38.166 111.167 41.499 196.5c1.33301 33.333 2 53.666 2 60.999l-1 39l138 11c1.33301 -18 2 -44 2 -78c0 -115.333 -17.833 -207.666 -53.5 -276.999s-92.167 -119.833 -169.5 -151.5
s-180.333 -47.5 -309 -47.5c-29.333 0 -52 0.333008 -68 1zM360.501 172.001c-10.333 10 -15.5 22 -15.5 36c0 15.333 5.16699 28 15.5 38s22.833 15 37.5 15s27 -5.16699 37 -15.5s15 -22.833 15 -37.5c0 -14 -5 -26 -15 -36s-22.333 -15 -37 -15s-27.167 5 -37.5 15z
M592.501 600.001c-10.333 10 -15.5 22 -15.5 36c0 15.333 5.16699 28 15.5 38s22.833 15 37.5 15s27 -5.16699 37 -15.5s15 -22.833 15 -37.5c0 -14 -5 -26 -15 -36s-22.333 -15 -37 -15s-27.167 5 -37.5 15z" />
    <glyph glyph-name="uniFB2D" unicode="&#xfb2d;" horiz-adv-x="737" 
d="M92 -14l-33.999 481.001v61l132 11l18 -233c31.333 8 54 17.5 68 28.5s23.5 28.333 28.5 52s7.5 60.5 7.5 110.5v31l134 11c1.33301 -76.667 -4.83398 -137 -18.501 -181s-37.167 -77.167 -70.5 -99.5s-80.666 -37.5 -141.999 -45.5l7 -101
c76 -0.666992 136.833 7.66602 182.5 24.999s80.667 48.833 105 94.5s38.166 111.167 41.499 196.5c1.33301 33.333 2 53.666 2 60.999l-1 39l138 11c1.33301 -18 2 -44 2 -78c0 -115.333 -17.833 -207.666 -53.5 -276.999s-92.167 -119.833 -169.5 -151.5
s-180.333 -47.5 -309 -47.5c-29.333 0 -52 0.333008 -68 1zM360.501 172.001c-10.333 10 -15.5 22 -15.5 36c0 15.333 5.16699 28 15.5 38s22.833 15 37.5 15s27 -5.16699 37 -15.5s15 -22.833 15 -37.5c0 -14 -5 -26 -15 -36s-22.333 -15 -37 -15s-27.167 5 -37.5 15z
M77.501 600.001c-10.333 10 -15.5 22 -15.5 36c0 15.333 5.16699 28 15.5 38s22.833 15 37.5 15s27 -5.16699 37 -15.5s15 -22.833 15 -37.5c0 -14 -5 -26 -15 -36s-22.333 -15 -37 -15s-27.167 5 -37.5 15z" />
    <glyph glyph-name="uniFB2E" unicode="&#xfb2e;" horiz-adv-x="583" 
d="M250 246c-16.667 -9.33301 -28.999 -20.832 -36.999 -34.499s-13.333 -32.5 -16 -56.5c-1.33301 -11.333 -2.83301 -31.833 -4.5 -61.5s-2.83398 -52.167 -3.50098 -67.5l-1 -28c-34.667 -2 -70 -3 -106 -3h-35c0.666992 57.333 2.66699 106.333 6 147
c3.33301 42.667 12.833 78.167 28.5 106.5s39.834 51.5 72.501 69.5c-43.333 60 -80 117.333 -110 172c36.667 22.667 79 45.334 127 68.001c57.333 -95.333 106.666 -171.666 147.999 -228.999c21.333 5.33301 36.833 12.666 46.5 21.999s15.834 23.666 18.501 42.999
c3.33301 21.333 7.66602 69.333 12.999 144c30 2 59.333 3 88 3l57 -1l-9 -120c-3.33301 -44.667 -15 -80 -35 -106s-50 -46.333 -90 -61l135 -213c-50.667 -26.667 -93.667 -46.334 -129 -59.001zM160.001 -100.999h263l-6 -68h-263z" />
    <glyph glyph-name="uniFB2F" unicode="&#xfb2f;" horiz-adv-x="583" 
d="M250 246c-16.667 -9.33301 -28.999 -20.832 -36.999 -34.499s-13.333 -32.5 -16 -56.5c-1.33301 -11.333 -2.83301 -31.833 -4.5 -61.5s-2.83398 -52.167 -3.50098 -67.5l-1 -28c-34.667 -2 -70 -3 -106 -3h-35c0.666992 57.333 2.66699 106.333 6 147
c3.33301 42.667 12.833 78.167 28.5 106.5s39.834 51.5 72.501 69.5c-43.333 60 -80 117.333 -110 172c36.667 22.667 79 45.334 127 68.001c57.333 -95.333 106.666 -171.666 147.999 -228.999c21.333 5.33301 36.833 12.666 46.5 21.999s15.834 23.666 18.501 42.999
c3.33301 21.333 7.66602 69.333 12.999 144c30 2 59.333 3 88 3l57 -1l-9 -120c-3.33301 -44.667 -15 -80 -35 -106s-50 -46.333 -90 -61l135 -213c-50.667 -26.667 -93.667 -46.334 -129 -59.001zM253.001 -168.999h-99l6 68h263l-6 -68h-92l8 -132h-88z" />
    </font>
</defs>
</svg>
