<?xml version="1.0" standalone="no"?>
<!DOCTYPE svg PUBLIC "-//W3C//DTD SVG 1.1//EN" "http://www.w3.org/Graphics/SVG/1.1/DTD/svg11.dtd" >
<svg>
<metadata>
Created by FontForge 20090914 at Thu Oct 12 23:28:41 2017
 By www-data
Hebrew layout intelligence copyright (c) 2003 &#38; 2007 Ralph Hancock (http://www.hancock.dircon.co.uk/) and John Hudson (http://www.tiro.com), and licensed under the MIT/X11 License. 

All other font software is copyright (c) 1997-2007, SIL International (http://www.sil.org/), and is licensed under the SIL Open Font License, version 1.1 (http://scripts.sil.org/OFL), with Reserved Font Names "SIL" and "Ezra". 

This Font Software is licensed under the SIL Open Font License, Version 1.0. See the license informaation in the font. The text of the license is also available at: http://scripts.sil.org/OFL .
</metadata>
<defs>
<font id="Shlomo" horiz-adv-x="0" >
  <font-face 
    font-family="Shlomo"
    font-weight="400"
    font-stretch="normal"
    units-per-em="2048"
    panose-1="2 0 4 0 0 0 0 0 0 0"
    ascent="1638"
    descent="-410"
    x-height="987"
    cap-height="1374"
    bbox="-309.002 -827 2476 2181"
    underline-thickness="20"
    underline-position="-113"
    unicode-range="U+000D-U+FEFF"
  />
<missing-glyph horiz-adv-x="1024" 
d="M128 0v1536h768v-1536h-768zM256 128h512v1280h-512v-1280z" />
    <glyph glyph-name=".notdef" horiz-adv-x="1024" 
d="M128 0v1536h768v-1536h-768zM256 128h512v1280h-512v-1280z" />
    <glyph glyph-name="nonmarkingreturn" unicode="&#xd;" horiz-adv-x="1024" 
 />
    <glyph glyph-name="space" unicode=" " horiz-adv-x="700" 
 />
    <glyph glyph-name="exclam" unicode="!" horiz-adv-x="887" 
d="M502 1243l-76 -878h-98l-74 878c-0.666992 9.33301 -1 18 -1 26c0 88 41.333 132 124 132c84 0 126 -44 126 -132c0 -8 -0.333008 -16.667 -1 -26zM504 111c0 -34.667 -12.5 -64.5 -37.5 -89.5s-54.833 -37.5 -89.5 -37.5s-64.167 12.333 -88.5 37s-36.5 54.667 -36.5 90
c0 34 12.167 63.333 36.5 88s53.833 37 88.5 37s64.5 -12.333 89.5 -37s37.5 -54 37.5 -88z" />
    <glyph glyph-name="quotedbl" unicode="&#x22;" horiz-adv-x="682" 
d="M594 1362l-72 -500h-33l-69 500c0 66.667 28.667 100 86 100c58.667 0 88 -33.333 88 -100zM262 1362l-69 -500h-33l-72 500c0 66.667 29.333 100 88 100c57.333 0 86 -33.333 86 -100z" />
    <glyph glyph-name="numbersign" unicode="#" horiz-adv-x="1522" 
d="M1397 862h-322l-98 -293h330v-102h-365l-174 -514l-102 33l161 481h-297l-174 -514l-102 35l164 479h-291v102h324l100 293h-330v105h365l164 483l104 -33l-156 -450h299l162 483l107 -33l-156 -450h287v-105zM961 862h-297l-99 -293h297z" />
    <glyph glyph-name="dollar" unicode="$" horiz-adv-x="1153" 
d="M1038 389c0 -112.667 -51.334 -207.999 -154.001 -285.999c-83.333 -63.333 -168.333 -97.666 -255 -102.999v-211h-94v211c-98 6 -162.333 10.333 -193 13c-87.333 9.33301 -161 22.666 -221 39.999v348h104l37 -229c39.333 -48 130.333 -72 273 -72v518
c-254 58.667 -381 183 -381 373c0 112 43.667 202.667 131 272c68.667 54.667 152.667 89.667 252 105v154h94v-148c109.333 0 225.333 -15.667 348 -47v-323h-105l-32 217c-31.333 35.333 -101.666 53 -210.999 53v-488c129.333 -38.667 219.333 -76.334 270 -113.001
c91.333 -66 137 -160.667 137 -284zM536.999 813.001v453c-128.667 -26.667 -193 -104.667 -193 -234c0 -98.667 64.333 -171.667 193 -219zM849.999 350.001c0 116 -73.667 197.333 -221 244v-485c147.333 26 221 106.333 221 241z" />
    <glyph glyph-name="percent" unicode="%" horiz-adv-x="1763" 
d="M1700 406c0 -127.333 -26.333 -229.666 -79 -306.999c-56 -82.667 -135 -124 -237 -124c-101.333 0 -180.333 41.333 -237 124c-52 77.333 -78 179.666 -78 306.999s26 229.333 78 306c56 82.667 135 124 237 124s181 -41.333 237 -124
c52.667 -76.667 79 -178.667 79 -306zM1380 1374l-868 -1374h-129l870 1374h127zM694 971c0 -127.333 -25.667 -229.333 -77 -306c-56 -82.667 -134.667 -124 -236 -124c-102 0 -181 41.333 -237 124c-52 76.667 -78 178.667 -78 306s26 229.333 78 306
c56 82.667 135 124 237 124c101.333 0 180 -41.333 236 -124c51.333 -76.667 77 -178.667 77 -306zM1542 406c0 234.667 -52.667 352 -158 352c-106 0 -159 -117.333 -159 -352c0 -235.333 53 -353 159 -353c105.333 0 158 117.667 158 353zM537 971
c0 234.667 -52 352 -156 352c-108 0 -162 -117.333 -162 -352c0 -235.333 54 -353 162 -353c104 0 156 117.667 156 353z" />
    <glyph glyph-name="ampersand" unicode="&#x26;" horiz-adv-x="1460" 
d="M1419 0h-377v49l-92 103c-73.333 -58 -131.666 -98 -174.999 -120c-74.667 -38 -154.667 -57 -240 -57c-118 0 -218.5 38.833 -301.5 116.5s-124.5 174.167 -124.5 289.5c0 164 91.333 284 274 360c-114.667 114.667 -172 219.334 -172 314.001
c0 101.333 37 184.333 111 249s166.667 97 278 97c103.333 0 189.333 -29.333 258 -88s103 -132.334 103 -221.001c0 -90 -31.667 -166.333 -95 -229c-44.667 -44.667 -113.667 -88 -207 -130l345 -371c66 84.667 104 164.667 114 240
c0.666992 6.66699 -2.83301 14.5 -10.5 23.5s-15.834 14.167 -24.501 15.5l-110 16v86h420v-86l-148 -22c-32 -114.667 -90 -230 -174 -346l166 -191l182 -10v-88zM772 1079c0 62.667 -15.667 114 -47 154c-34.667 44.667 -83 67 -145 67
c-54.667 0 -99.167 -18.5 -133.5 -55.5s-51.5 -82.5 -51.5 -136.5c0 -59.333 22.667 -118.333 68 -177c16.667 -22 57.667 -64.667 123 -128c124 62 186 154 186 276zM885 223l-421.999 459c-98.667 -69.333 -148 -154 -148 -254c0 -91.333 28.667 -167.333 86 -228
s127.666 -91 210.999 -91c92.667 0 183.667 38 273 114z" />
    <glyph glyph-name="quotesingle" unicode="'" horiz-adv-x="350" 
d="M262 1362l-69 -500h-33l-72 500c0 66.667 28.667 100 86 100c58.667 0 88 -33.333 88 -100z" />
    <glyph glyph-name="parenleft" unicode="(" horiz-adv-x="1100" 
d="M1012 -373c-258.667 29.333 -451.333 153.332 -578 371.999c-110.667 191.333 -166 443 -166 755s55.333 563.667 166 755c127.333 219.333 320 343 578 371v-117c-178 -29.333 -307.333 -132.333 -388 -309c-74.667 -162.667 -112 -396 -112 -700
c0 -304.667 37.333 -538 112 -700c80.667 -177.333 210 -280.666 388 -309.999v-117z" />
    <glyph glyph-name="parenright" unicode=")" horiz-adv-x="1100" 
d="M834 754c0 -312 -55.667 -563.666 -167 -754.999c-127.333 -218.667 -320.333 -342.667 -579 -372v117c178 29.333 307.333 132.666 388 309.999c74.667 162 112 395.333 112 700c0 304 -37.333 537.333 -112 700c-80.667 176.667 -210 279.667 -388 309v117
c258 -28 451 -151.667 579 -371c111.333 -192 167 -443.667 167 -755z" />
    <glyph glyph-name="asterisk" unicode="*" horiz-adv-x="1032" 
d="M944 1315l-100 -127l-287 -17l-10 31l239 160zM598 1503l-76 -276h-33l-75 276l92 137zM776 797l-153 57l-103 266l25 21l225 -180zM467 1202l-10 -31l-289 17l-102 127l157 47zM492 1120l-103 -266l-153 -57l6 164l225 180z" />
    <glyph glyph-name="plus" unicode="+" horiz-adv-x="1706" 
d="M1462 551h-551v-551h-116v551h-551v117h551v549h116v-549h551v-117z" />
    <glyph glyph-name="comma" unicode="," horiz-adv-x="432" 
d="M387 150c0 -55.333 -30.665 -117.999 -91.998 -187.999c-54.667 -62 -93 -93 -115 -93c-7.33301 0 -12.5 1.33301 -15.5 4s-4.5 8.66699 -4.5 18c0 6 7.83301 19.667 23.5 41s23.5 44 23.5 68c0 55.333 -54 106.666 -162 153.999c37.333 22.667 75.666 54 114.999 94
c37.333 38.667 61.666 70.667 72.999 96c102.667 -56 154 -120.667 154 -194z" />
    <glyph glyph-name="hyphenminus" unicode="-" horiz-adv-x="657" 
d="M565 416h-475v153h475v-153z" />
    <glyph glyph-name="period" unicode="." horiz-adv-x="592" 
d="M483 166c-80 -48.667 -142.667 -112.334 -188 -191.001c-45.333 78.667 -108.333 142.334 -189 191.001c80.667 46.667 143.667 110 189 190c45.333 -80 108 -143.333 188 -190z" />
    <glyph glyph-name="slash" unicode="/" horiz-adv-x="1026" 
d="M1024 1497l-891 -1599h-133l891 1599h133z" />
    <glyph glyph-name="zero" unicode="0" horiz-adv-x="1135" 
d="M1057 678c0 -204.667 -40.333 -370 -121 -496c-88 -138 -211 -207 -369 -207c-157.333 0 -279.666 69 -366.999 207c-80 126 -120 291.333 -120 496c0 203.333 40 368 120 494c87.333 137.333 209.666 206 366.999 206c158 0 281 -68.667 369 -206
c80.667 -126 121 -290.667 121 -494zM844 678c0 400 -92.333 600 -277 600c-182.667 0 -274 -200 -274 -600c0 -401.333 91.333 -602 274 -602c184.667 0 277 200.667 277 602z" />
    <glyph glyph-name="one" unicode="1" horiz-adv-x="1135" 
d="M901 0h-684v90l207 8c28.667 1.33301 43 16.333 43 45v1063l-313 -53v90l436 135h76v-1235c0 -28.667 15 -43.667 45 -45l190 -8v-90z" />
    <glyph glyph-name="two" unicode="2" horiz-adv-x="1135" 
d="M1040 0h-944.001v135c274.667 228 443.334 375.333 506.001 442c132.667 140 199 272.667 199 398c0 92 -28.667 165 -86 219c-53.333 50.667 -121 76 -203 76c-38.667 0 -77.334 -7 -116.001 -21l-54 -22v-226c-27.333 -21.333 -60 -32 -98 -32
c-80.667 0 -121 38.667 -121 116c0 84 44.333 154.333 133 211c86.667 54.667 190.334 82 311.001 82c132.667 0 241 -35.167 325 -105.5s126 -163.5 126 -279.5c0 -125.333 -73 -262.333 -219 -411c-73.333 -74.667 -237.333 -212 -492 -412h598l37 174h98v-344z" />
    <glyph glyph-name="three" unicode="3" horiz-adv-x="1135" 
d="M1040 385c0 -120 -50.834 -218.331 -152.501 -294.998s-226.834 -115 -375.501 -115c-126 0 -229.333 26 -310 78c-70.667 45.333 -106 96 -106 152c0 30 10.167 55.833 30.5 77.5s49.833 32.5 88.5 32.5c32.667 0 55.334 -4.66699 68.001 -14l61 -180
c53.333 -28.667 111.333 -43 174 -43c90.667 0 166.667 31 228 93c58.667 59.333 88 130.666 88 213.999c0 89.333 -34 156.666 -102 201.999c-54.667 36 -122 54 -202 54c-44 0 -84.667 -3.33301 -122 -10v127c4 -1.33301 21 -2 51 -2c92 0 167.333 20.333 226 61
c66 46 99 111 99 195c0 80 -27 143.667 -81 191c-50 43.333 -111.667 65 -185 65c-66 0 -126.667 -16.333 -182 -49v-201c-35.333 -18 -65.333 -27 -90 -27c-29.333 0 -54.666 8.33301 -75.999 25c-27.333 21.333 -41 51.333 -41 90c0 76 44.333 140.667 133 194
c86.667 52 191 78 313 78c120 0 218.333 -30 295 -90c79.333 -62.667 119 -146 119 -250c0 -157.333 -103 -265.666 -309 -324.999c96 -4.66699 177 -32.334 243 -83.001c78 -60 117 -141.667 117 -245z" />
    <glyph glyph-name="four" unicode="4" horiz-adv-x="1135" 
d="M1057 401h-172v-426h-191v426h-614v140l661 837h144v-839h172v-138zM694 539v581l-454 -581h454z" />
    <glyph glyph-name="five" unicode="5" horiz-adv-x="1135" 
d="M1044 438c0 -140.667 -48.334 -252.001 -145.001 -334.001c-101.333 -86 -242.666 -129 -423.999 -129c-101.333 0 -191.333 25.333 -270 76c-75.333 48 -113 99.333 -113 154c0 76 41.667 114 125 114c20.667 0 39 -2.66699 55 -8l78 -186c34 -34 86 -51 156 -51
c100 0 182 34.667 246 104c57.333 62 86 132.333 86 211c0 109.333 -33 193.333 -99 252c-61.333 54.667 -143 82 -245 82c-81.333 0 -189.333 -23.333 -324 -70v701h780v-170h-635v-383c-9.33301 0 19.5 8.5 86.5 25.5s128.5 25.5 184.5 25.5
c141.333 0 253 -36.667 335 -110s123 -174.666 123 -303.999z" />
    <glyph glyph-name="six" unicode="6" horiz-adv-x="1135" 
d="M1057 463c0 -144.667 -48 -262.667 -144 -354c-92.667 -89.333 -208.667 -134 -348 -134c-146 0 -260.667 45.667 -344 137c-94 102.667 -141 258.667 -141 468c0 244 70.667 437.333 212 580c144.667 145.333 343.667 218 597 218v-125l-70 2
c-131.333 4 -245 -38.333 -341 -127c-99.333 -92.667 -159 -217.334 -179 -374.001c98.667 86 211.334 129 338.001 129c125.333 0 226.666 -39.667 303.999 -119s116 -179.666 116 -300.999zM852 436c0 99.333 -25.499 176.835 -76.499 232.502s-121.167 83.5 -210.5 83.5
s-180 -34.333 -272 -103c-2.66699 -28.667 -4 -65.334 -4 -110.001c0 -306 92 -459 276 -459c93.333 0 165.666 34.333 216.999 103c46.667 63.333 70 147.666 70 252.999z" />
    <glyph glyph-name="seven" unicode="7" horiz-adv-x="1135" 
d="M1053 1241l-664 -1198v-68h-213l666 1209h-623l-31 -187h-104v357h969v-113z" />
    <glyph glyph-name="eight" unicode="8" horiz-adv-x="1135" 
d="M1055 369c0 -114 -46.5 -208.168 -139.5 -282.501s-209.167 -111.5 -348.5 -111.5c-147.333 0 -265 36 -353 108s-132 166 -132 282c0 152.667 95.667 264.334 287 335.001c-64 26.667 -117 63.667 -159 111c-50 58 -75 123.667 -75 197c0 114 39.667 204.667 119 272
c78.667 65.333 183 98 313 98c123.333 0 225.833 -31.833 307.5 -95.5s122.5 -144.5 122.5 -242.5c0 -140 -81 -249 -243 -327c200.667 -73.333 301 -188 301 -344zM813 1022c0 80 -24.332 142.999 -72.999 188.999c-45.333 43.333 -103 65 -173 65
c-68 0 -123.833 -21.5 -167.5 -64.5s-65.5 -95.167 -65.5 -156.5c0 -68 29.333 -127 88 -177c51.333 -44 132.666 -86.667 243.999 -128c98 70.667 147 161.334 147 272.001zM850.001 335.998c0 75.333 -35.333 136.667 -106 184c-42.667 29.333 -141 74.333 -295 135
c-120.667 -66 -181 -158 -181 -276c0 -89.333 25.333 -160 76 -212c52.667 -54 127 -81 223 -81c85.333 0 154.333 24.333 207 73c50.667 47.333 76 106.333 76 177z" />
    <glyph glyph-name="nine" unicode="9" horiz-adv-x="1135" 
d="M1057 774c0 -243.333 -71.334 -436.667 -214.001 -580c-144.667 -146 -343.667 -219 -597 -219v125l69 -2c131.333 -3.33301 245 39.334 341 128.001c100 92 160.667 216.667 182 374c-99.333 -86 -212 -129 -338 -129c-125.333 0 -226.666 39.667 -303.999 119
s-116 179.666 -116 300.999c0 144.667 47.333 262.667 142 354c92.667 88.667 208.334 133 347.001 133c147.333 0 262.666 -45.333 345.999 -136c94.667 -102.667 142 -258.667 142 -468zM847.999 814.999c0 306 -93 458.999 -279 458.999c-92.667 0 -164 -34 -214 -102
c-46.667 -63.333 -70 -148 -70 -254c0 -98.667 25.167 -176 75.5 -232s119.833 -84 208.5 -84c91.333 0 183 34.333 275 103c2.66699 28.667 4 65.334 4 110.001z" />
    <glyph glyph-name="colon" unicode=":" horiz-adv-x="600" 
d="M438 850c0 -38 -13.333 -70.333 -40 -97s-59 -40 -97 -40s-70 13.333 -96 40s-39 59 -39 97c0 38.667 13 71.167 39 97.5s58 39.5 96 39.5s70.333 -13.333 97 -40s40 -59 40 -97zM438 121c0 -38 -13.333 -70.333 -40 -97s-59 -40 -97 -40s-70 13.333 -96 40
s-39 59 -39 97s13 70.333 39 97s58 40 96 40c38.667 0 71.167 -13.333 97.5 -40s39.5 -59 39.5 -97z" />
    <glyph glyph-name="semicolon" unicode=";" horiz-adv-x="592" 
d="M475 645c-77.333 -44.667 -139.333 -107.333 -186 -188c-46 79.333 -109 142 -189 188c78.667 45.333 141.667 109 189 191c48 -83.333 110 -147 186 -191zM442 147.001c0 -54.667 -30.333 -116.666 -91 -185.999c-54 -61.333 -91.667 -92 -113 -92
c-15.333 0 -23 7.33301 -23 22c0 6 7.5 19.667 22.5 41s22.5 44 22.5 68c0 56 -53.333 107.333 -160 154c38 22.667 76 53.667 114 93s63 71.666 75 96.999c102 -56 153 -121.667 153 -197z" />
    <glyph glyph-name="less" unicode="&#x3c;" horiz-adv-x="1706" 
d="M1442 76l-1178 481v105l1178 483v-127l-1000 -408l1000 -405v-129z" />
    <glyph glyph-name="equal" unicode="=" horiz-adv-x="1706" 
d="M1452 743h-1198v117h1198v-117zM1452 360h-1198v117h1198v-117z" />
    <glyph glyph-name="greater" unicode="&#x3e;" horiz-adv-x="1706" 
d="M1442 557l-1178 -481v129l1000 405l-1000 408v127l1178 -483v-105z" />
    <glyph glyph-name="question" unicode="?" horiz-adv-x="1071" 
d="M924 1069c0 -118 -47 -219.334 -141 -304.001c-59.333 -53.333 -147 -105.666 -263 -156.999v-233h-119v305c82.667 27.333 151 68.333 205 123c68.667 69.333 103 152 103 248c0 195.333 -100.333 293 -301 293l-89 -218l-34 -2c-92 0 -138 38.333 -138 115
c0 56 27.333 103.333 82 142c61.333 44.667 146 67 254 67c127.333 0 232 -34.333 314 -103c84.667 -70.667 127 -162.667 127 -276zM596 112.999c0 -36 -13.167 -66.5 -39.5 -91.5s-57.5 -37.5 -93.5 -37.5s-66.5 12.833 -91.5 38.5s-37.5 56.5 -37.5 92.5
s12.5 66.833 37.5 92.5s55.5 38.5 91.5 38.5c36.667 0 68 -13 94 -39s39 -57.333 39 -94z" />
    <glyph glyph-name="at" unicode="@" horiz-adv-x="1917" 
d="M1776 764c0 -192 -57.667 -352 -173 -480c-101.333 -112.667 -210.333 -169 -327 -169c-106.667 0 -160 56.667 -160 170c-112 -112 -210.333 -168 -295 -168c-75.333 0 -136.833 30.333 -184.5 91s-71.5 141.667 -71.5 243c0 153.333 52.333 285.333 157 396
c102 107.333 219 161 351 161c66.667 0 133.667 -18.667 201 -56l37 47h116c-6.66699 -20 -53.667 -222.667 -141 -608c-5.33301 -24 -8 -45.667 -8 -65c0 -63.333 28 -95 84 -95c69.333 0 137 47.667 203 143c74.667 108.667 112 238 112 388
c0 181.333 -59.667 323.333 -179 426c-106.667 91.333 -238.667 137 -396 137c-232 0 -423.167 -75.833 -573.5 -227.5s-225.5 -342.167 -225.5 -571.5c0 -214.667 63 -389.667 189 -525c131.333 -141.333 307.333 -212 528 -212c178.667 0 359 50.667 541 152l30 -74
c-224.667 -120 -431.334 -180 -620.001 -180c-227.333 0 -418 71.333 -572 214c-162 150.667 -243 346.667 -243 588c0 286.667 96.333 516.667 289 690c174.667 157.333 385.334 236 632.001 236c208.667 0 376 -55.667 502 -167c131.333 -116.667 197 -278 197 -484z
M1204 805c4 20 -6 44 -30 72c-26.667 30 -57 45 -91 45c-99.333 0 -180 -44.333 -242 -133c-59.333 -85.333 -89 -192 -89 -320c0 -147.333 53.667 -221 161 -221c68 0 137.667 44.333 209 133z" />
    <glyph glyph-name="A" unicode="A" horiz-adv-x="1360" 
d="M1360 0l-488 -0.000976562v88l119 10c6 0.666992 11.5 5.33398 16.5 14.001s6.5 15.667 4.5 21l-140 375h-475l-135 -369c-0.666992 -2 -1 -4 -1 -6c0 -22 10 -33.667 30 -35l121 -10v-88h-412v88l119 25l477 1278h154l475 -1248c6 -15.333 11 -25 15 -29
s13.333 -7.33301 28 -10l92 -16v-88zM834 605.999l-203 553l-197 -553h400z" />
    <glyph glyph-name="B" unicode="B" horiz-adv-x="1247" 
d="M1159 406c0 -148.667 -59.667 -257.667 -179 -327c-90 -52.667 -203.667 -79 -341 -79h-573v88l108 8c28.667 2 43 17 43 45v1092c0 28 -14.333 43 -43 45l-108 8v88h548c307.333 0 461 -110 461 -330c0 -160 -98.333 -265 -295 -315c104.667 0 190.667 -23.667 258 -71
c80.667 -56.667 121 -140.667 121 -252zM854 1030c0 166.667 -105 250 -315 250c-16.667 0 -39.667 -1 -69 -3s-45.333 -3 -48 -3v-518c35.333 -1.33301 60 -2 74 -2c128.667 0 221.667 24 279 72c52.667 44 79 112 79 204zM936 389c0 180 -110 270 -330 270
c-27.333 0 -65 -2 -113 -6s-71.667 -6 -71 -6v-541c60.667 -4 103 -6 127 -6c140 0 240.333 24 301 72c57.333 44.667 86 117 86 217z" />
    <glyph glyph-name="C" unicode="C" horiz-adv-x="1296" 
d="M1210 47c-120 -48 -256.332 -72.001 -408.999 -72.001c-220 0 -396.667 72.333 -530 217c-123.333 134 -185 300 -185 498c0 212 66 383.167 198 513.5s305 195.5 519 195.5c116 0 251.667 -24 407 -72v-321h-123l-30 186c-3.33301 22 -15 37.667 -35 47
c-63.333 30 -133 45 -209 45c-145.333 0 -262 -49 -350 -147c-94 -104 -141 -251 -141 -441s45.833 -338.833 137.5 -446.5s218.5 -161.5 380.5 -161.5c67.333 0 122.666 9 165.999 27c21.333 8.66699 34 22.334 38 41.001l48 223h118v-332z" />
    <glyph glyph-name="D" unicode="D" horiz-adv-x="1430" 
d="M1346 690c0 -197.333 -54.332 -357 -162.999 -479c-124.667 -140.667 -307.334 -211 -548.001 -211h-569v88l108 8c30 2 45 17 45 45v1092c0 28 -15 43 -45 45l-108 8v88h528c226.667 0 405.667 -55 537 -165c143.333 -119.333 215 -292.333 215 -519zM1114 686
c0 393.333 -177.333 590 -532 590h-158v-1178l168 2c348 4 522 199.333 522 586z" />
    <glyph glyph-name="E" unicode="E" horiz-adv-x="1198" 
d="M1130 0h-1064v88l108 8c30 2 45 17 45 45v1092c0 28 -15 43 -45 45l-108 8v88h995v-305h-123l-29 168c-4.66699 26 -17 39 -37 39h-448v-510h311c21.333 0 33.666 11.667 36.999 35l19 141h104v-457h-104l-19 142c-3.33301 24.667 -15.666 37 -36.999 37h-311v-564h522
c20 0 32.333 13 37 39l35 203h112v-342z" />
    <glyph glyph-name="F" unicode="F" horiz-adv-x="1110" 
d="M1059 1049h-121l-29 188c-4 24.667 -15.667 37 -35 37h-438v-533h316c20.667 0 32.667 12.333 36 37l19 144h102v-461h-102l-19 143c-3.33301 24.667 -15.333 37 -36 37h-316v-500c0 -28 14.333 -43 43 -45l137 -8v-88h-536v88l108 8c28.667 2 43 17 43 45v1092
c0 28 -14.333 43 -43 45l-125 8v88h996v-325z" />
    <glyph glyph-name="G" unicode="G" horiz-adv-x="1430" 
d="M1378 575l-104.002 -10.001c-28.667 -2.66699 -43 -17 -43 -43v-473c-150 -49.333 -293.333 -74 -430 -74c-219.333 0 -395.666 71.667 -528.999 215c-124 134.667 -186 301.334 -186 500.001c0 216 66.5 388.167 199.5 516.5s313.5 192.5 541.5 192.5
c110.667 0 244.667 -20.667 402 -62v-331h-123l-33 184c-4 22.667 -17.667 39 -41 49c-70 30 -141 45 -213 45c-151.333 0 -271.666 -49.667 -360.999 -149c-92.667 -104 -139 -249 -139 -435c0 -194 47.667 -344.667 143 -452c92.667 -105.333 220 -158 382 -158
c36.667 0 76.667 3.83301 120 11.5s63.333 11.5 60 11.5v409c0 26.667 -14.333 41 -43 43l-137 10v89h534v-89z" />
    <glyph glyph-name="H" unicode="H" horiz-adv-x="1522" 
d="M1456 0h-516v88l117 8c28.667 2 43 17 43 45v529h-676v-529c0 -28 14.333 -43 43 -45l117 -8v-88h-518v88l106 8c30 2 45 17 45 45v1092c0 26.667 -15 41 -45 43l-106 8v90h518v-90l-117 -8c-28.667 -2 -43 -16.333 -43 -43v-461h676v461c0 26.667 -14.333 41 -43 43
l-117 8v90h516v-90l-106 -8c-30 -2 -45 -16.333 -45 -43v-1092c0 -28 15 -43 45 -45l106 -8v-88z" />
    <glyph glyph-name="I" unicode="I" horiz-adv-x="676" 
d="M608 0h-540v88l122 8c28.667 2 43 17 43 45v1092c0 26.667 -14.333 41 -43 43l-122 8v90h540v-90l-125 -8c-28.667 -2 -43 -16.333 -43 -43v-1092c0 -28 14.333 -43 43 -45l125 -8v-88z" />
    <glyph glyph-name="J" unicode="J" horiz-adv-x="981" 
d="M940 1286l-118.999 -8c-28.667 -2 -43 -17 -43 -45v-715c0 -178 -33.667 -311 -101 -399c-72.667 -96 -189 -144 -349 -144c-84.667 0 -177 16.667 -277 50v350h123l45 -250c5.33301 -30 36.666 -45 93.999 -45c92 0 158.333 34.333 199 103s61 175.667 61 321v729
c0 28 -14.333 43 -43 45l-129 8v88h539v-88z" />
    <glyph glyph-name="K" unicode="K" horiz-adv-x="1307" 
d="M1307 0h-359v63l-381 547h-141l-2 -469c0 -28 15 -43 45 -45l117 -8v-88h-520v88l108 8c28.667 2 43 17 43 45v1092c0 28 -14.333 43 -43 45l-108 8v88h520v-88l-117 -8c-30 -2 -45 -17 -45 -45l2 -537h72l446 545c4.66699 6 5 13.333 1 22c-4 8 -9.66699 12.333 -17 13
l-105 10v88h434v-88l-139 -16l-418 -500l459 -672l148 -10v-88z" />
    <glyph glyph-name="L" unicode="L" horiz-adv-x="1077" 
d="M1051 0h-996v88l119 8c28.667 2 43 17 43 45v1092c0 28 -14.333 43 -43 45l-119 8v88h523v-88l-109 -8c-30 -2 -45 -17 -45 -45v-1133h430c26.667 0 41.667 11.667 45 35l33 246h119v-381z" />
    <glyph glyph-name="M" unicode="M" horiz-adv-x="1784" 
d="M1722 0h-508v88l109 8c30 2 45 17 45 45v1129l-471 -1270h-102l-455 1251v-1110c0 -28 15 -43 45 -45l117 -8v-88h-443v88l117 8c28.667 2 43 17 43 45v1092c0 28 -14.333 43 -43 45l-117 8v88h459v-55l371 -1006l371 1000v61h462v-88l-110 -8c-30 -2 -45 -17 -45 -45
v-1092c0 -28 15 -43 45 -45l110 -8v-88z" />
    <glyph glyph-name="N" unicode="N" horiz-adv-x="1466" 
d="M1417 1286l-114 -8c-28.667 -2 -43 -17 -43 -45v-1233h-160l-762 1147v-1006c0 -28 14.333 -43 43 -45l117 -8v-88h-443v88l117 8c30 2 45 17 45 45v1092c0 28 -15 43 -45 45l-121 8v88h406v-51l682 -1030v940c0 28 -14.333 43 -43 45l-117 8v88h438v-88z" />
    <glyph glyph-name="O" unicode="O" horiz-adv-x="1507" 
d="M1423 686c0 -202.667 -60.999 -372 -182.999 -508c-126 -140.667 -287.333 -211 -484 -211c-198.667 0 -360.667 68.667 -486 206c-122.667 135.333 -184 307 -184 515c0 204.667 60.333 374.667 181 510c125.333 140.667 287.666 211 486.999 211
c198.667 0 361 -71 487 -213c121.333 -136.667 182 -306.667 182 -510zM1186 684c0 176 -35.668 319 -107.001 429c-78 119.333 -185.667 179 -323 179c-141.333 0 -250.666 -60 -327.999 -180c-70.667 -108.667 -106 -250 -106 -424c0 -174.667 35.333 -317 106 -427
c77.333 -120.667 185.333 -181 324 -181c140.667 0 250 60.333 328 181c70.667 109.333 106 250.333 106 423z" />
    <glyph glyph-name="P" unicode="P" horiz-adv-x="1157" 
d="M1106 961c0 -144.667 -52 -257 -156 -337c-96.667 -74 -223 -110.667 -379 -110c-72 0.666992 -120.333 3.33398 -145 8.00098v-381c0 -28 14.333 -43 43 -45l135 -8v-88h-538v88l108 8c30 2 45 17 45 45v1092c0 28 -15 43 -45 45l-123 8v88h490
c197.333 0 340 -31 428 -93c91.333 -64.667 137 -171.334 137 -320.001zM893 958c0 210.667 -121 316 -363 316c-24 0 -58.667 -0.666992 -104 -2v-645c-0.666992 0 14.5 -1.83301 45.5 -5.5s54.167 -5.5 69.5 -5.5c234.667 -2 352 112 352 342z" />
    <glyph glyph-name="Q" unicode="Q" horiz-adv-x="1520" 
d="M1440 686c0 -186 -50 -342 -150 -468c-102 -127.333 -240.667 -205.333 -416 -234c2 -162.667 96.333 -244 283 -244c65.333 0 131 7.33301 197 22v-88c-106 -22.667 -207 -34 -303 -34c-264 0 -396 113.333 -396 340c-168.667 24 -304.334 97.333 -407.001 220
c-108 128 -162 290 -162 486c0 205.333 61 376 183 512c126.667 140.667 290.334 211 491.001 211c204 0 369.333 -70 496 -210c122.667 -135.333 184 -306.333 184 -513zM1198 686c0 173.333 -35 315.001 -105 425.001c-78 122 -188.333 183 -331 183
c-142 0 -252 -60 -330 -180c-70.667 -108.667 -106 -250 -106 -424c0 -171.333 36 -312.333 108 -423c79.333 -120.667 188.666 -181 327.999 -181c140.667 0 250.334 59.667 329.001 179c71.333 109.333 107 249.666 107 420.999z" />
    <glyph glyph-name="R" unicode="R" horiz-adv-x="1331" 
d="M1331 2c-96 -10.667 -141 -16.001 -135 -16.001c-109.333 0 -186 24 -230 72s-81.333 125.667 -112 233c-32 113.333 -62.667 189 -92 227c-48 62.667 -129.333 94 -244 94c-17.333 0 -37.5 -0.666992 -60.5 -2s-33.5 -2 -31.5 -2v-467c0 -28 14.333 -43 43 -45l109 -8
v-88h-510v88l106 8c30 2 45 17 45 45v1092c0 28 -15 43 -45 45l-106 8v88h534c334.667 0 502 -121.333 502 -364c0 -178 -112 -292 -336 -342c82.667 -20 141.334 -50 176.001 -90c44 -51.333 78.167 -127.166 102.5 -227.499s53.166 -169.5 86.499 -207.5
s99.333 -57 198 -57v-84zM881 1001c0 182 -120.333 273 -361 273h-94v-561c54.667 -1.33301 88.667 -2 102 -2c118.667 0 206 21 262 63c60.667 46 91 121.667 91 227z" />
    <glyph glyph-name="S" unicode="S" horiz-adv-x="1085" 
d="M997 385c0 -114 -42.335 -208.332 -127.002 -282.999c-96.667 -84.667 -235 -127 -415 -127c-136.667 0 -258.334 22.667 -365.001 68v363h129l27 -232c2.66699 -22 14.334 -37 35.001 -45c65.333 -26 134 -39 206 -39c89.333 0 161.833 20.5 217.5 61.5
s83.5 98.5 83.5 172.5c0 71.333 -41.333 135.333 -124 192c-27.333 18.667 -106 59 -236 121c-105.333 50 -178.666 95.333 -219.999 136c-63.333 61.333 -95 139 -95 233c0 119.333 45 215.333 135 288c87.333 70 200 105 338 105c110 0 230 -20.667 360 -62v-319h-117
l-30 196c-2 14 -12.333 25.667 -31 35c-38.667 26 -98.667 39 -180 39s-145.666 -21.333 -192.999 -64s-71 -99 -71 -169c0 -108.667 94.667 -199 284 -271c133.333 -50.667 229 -103.334 287 -158.001c68 -64 102 -144.333 102 -241z" />
    <glyph glyph-name="T" unicode="T" horiz-adv-x="1227" 
d="M1194 1047h-121.001l-29 192c-3.33301 23.333 -14.666 35 -33.999 35h-293v-1133c0 -28 14.333 -43 43 -45l131 -8v-88h-555v88l131 8c28.667 2 43 17 43 45v1133h-295c-20 0 -31.667 -11.667 -35 -35l-28 -192h-119v327h1161v-327z" />
    <glyph glyph-name="U" unicode="U" horiz-adv-x="1442" 
d="M1397 1286l-117 -8c-28.667 -2 -43 -17 -43 -45v-778c0 -320 -176 -480 -528 -480c-340 0 -510 160 -510 480v778c0 28 -14.333 43 -43 45l-109 8v88h531v-88l-117 -8c-28.667 -2 -43 -17 -43 -45v-725c0 -131.333 22.333 -227 67 -287c54 -72 147.667 -108 281 -108
c132 0 225.667 37.333 281 112c46 62 69 156.333 69 283v725c0 28 -15 43 -45 45l-117 8v88h443v-88z" />
    <glyph glyph-name="V" unicode="V" horiz-adv-x="1364" 
d="M1343 1286l-118 -21.998l-459 -1274h-156l-469 1276l-121 20v88h490v-88l-121 -10c-6.66699 -0.666992 -12 -5.33398 -16 -14.001s-4.66699 -16.334 -2 -23.001l360 -999l346 995c2.66699 8 1 16.667 -5 26s-13.667 14.333 -23 15l-113 10v88h407v-88z" />
    <glyph glyph-name="W" unicode="W" horiz-adv-x="1907" 
d="M1886 1286l-125 -24.001l-313 -1272h-150l-342 1112l-335 -1112h-148l-334 1272l-119 24v88h469v-88l-122 -12c-20.667 -2 -27.667 -15.667 -21 -41l244 -911l321 1052h158l330 -1075l227 934c6 24.667 -3.66699 38.334 -29 41.001l-129 12v88h418v-88z" />
    <glyph glyph-name="X" unicode="X" horiz-adv-x="1296" 
d="M1278 0h-525.999v88l118 12c19.333 2 29 11.667 29 29c0 4.66699 -1.33301 9.33398 -4 14.001l-272 428l-316 -434c-16.667 -23.333 -8.33398 -36.333 24.999 -39l123 -10v-88h-435v88l123 25l412 565l-373 586l-135 24v86h514v-86l-104 -10
c-32 -3.33301 -40.333 -17 -25 -41l250 -387l276 381c4 5.33301 6 10.666 6 15.999c0 15.333 -9.33301 24.333 -28 27l-105 14v86h429v-86l-132 -20l-380 -525l403 -630l127 -25v-88z" />
    <glyph glyph-name="Y" unicode="Y" horiz-adv-x="1280" 
d="M1260 1288l-111 -20.001l-412 -684v-443c0 -28 14.333 -43 43 -45l131 -8v-88h-551v88l127 8c30 2 45 17 45 45v412l-393 711l-119 24v86h486v-86l-103 -10c-29.333 -2.66699 -37.333 -16.334 -24 -41.001l287 -537l317 531c2.66699 4.66699 4 9.33398 4 14.001
c0 16.667 -9.66699 26.334 -29 29.001l-114 14v86h416v-86z" />
    <glyph glyph-name="Z" unicode="Z" horiz-adv-x="1202" 
d="M1110 0h-1018v90l762 1182h-532c-19.333 0 -31 -11.667 -35 -35l-31 -190h-121v327h965v-94l-764 -1176h584c19.333 0 30.666 12.333 33.999 37l35 238h121v-379z" />
    <glyph glyph-name="bracketleft" unicode="[" horiz-adv-x="655" 
d="M586 -698h-412v2384h412v-44h-262v-2297h262v-43z" />
    <glyph glyph-name="backslash" unicode="\" horiz-adv-x="1026" 
d="M1024 -102h-131l-893 1599h135z" />
    <glyph glyph-name="bracketright" unicode="]" horiz-adv-x="655" 
d="M481 -698h-411v43h262v2297h-262v44h411v-2384z" />
    <glyph glyph-name="asciicircum" unicode="^" horiz-adv-x="1962" 
d="M1516 23h-130l-405 999l-408 -999h-127l484 1177h104z" />
    <glyph glyph-name="underscore" unicode="_" horiz-adv-x="1024" 
d="M1024 -483h-1024v133h1024v-133z" />
    <glyph glyph-name="grave" unicode="`" horiz-adv-x="717" 
d="M475 1128h-117l-311 199c-31.333 20 -47 47.333 -47 82c-0 61.333 31.333 92 94 92c40 0 75.667 -18.333 107 -55z" />
    <glyph glyph-name="a" unicode="a" horiz-adv-x="1049" 
d="M1024 0l-306.997 0.000976562l-27 121c-126.667 -91.333 -239.334 -137 -338.001 -137c-76.667 0 -139.334 23 -188.001 69c-52 49.333 -78 115.666 -78 198.999c0 85.333 33.667 152 101 200c86 61.333 253.667 119 503 173v88c0 134.667 -62 202 -186 202
c-54 0 -102.667 -8.66699 -146 -26v-178h-149c-50.667 0 -76 19.667 -76 59c0 78 45.667 139 137 183c79.333 38 175.666 57 288.999 57c216 0 324 -101.667 324 -305v-574c0 -28 14.333 -43 43 -45l98 -6v-80zM690.003 193.001v354
c-167.333 -42 -280.333 -87.667 -339 -137c-41.333 -36 -62 -84 -62 -144c0 -44.667 13.333 -82 40 -112c28 -33.333 65.667 -50 113 -50c67.333 0 150 29.667 248 89z" />
    <glyph glyph-name="b" unicode="b" horiz-adv-x="1126" 
d="M1057 541c0 -162.667 -46.334 -291.332 -139.001 -385.999c-101.333 -103.333 -250.333 -155 -447 -155h-295v1362h-156v68l263 79h84v-575c106 50.667 200 76 282 76c128.667 0 230.334 -46.667 305.001 -140c68.667 -86.667 103 -196.334 103 -329.001z
M849.999 500.002c0 259.333 -105 389 -315 389c-52.667 0 -108.667 -10.333 -168 -31v-760c-1.33301 0 11 -0.333008 37 -1s47 -1 63 -1c126.667 0 220.667 30 282 90c67.333 65.333 101 170 101 314z" />
    <glyph glyph-name="c" unicode="c" horiz-adv-x="963" 
d="M891 84c-124.667 -66.667 -240.001 -99.999 -346.001 -99.999c-142 0 -255.667 46.667 -341 140s-128 214.333 -128 363c0 164.667 49.333 295 148 391c91.333 88 206.333 132 345 132c93.333 0 169 -17.667 227 -53c60.667 -36.667 91 -87.334 91 -152.001
c0 -38 -11.833 -67.333 -35.5 -88s-52.167 -31 -85.5 -31c-34.667 0 -68.667 11 -102 33v180c-29.333 16.667 -58 25 -86 25c-90 0 -161.333 -38.167 -214 -114.5s-79 -174.833 -79 -295.5c0 -118.667 28.667 -214 86 -286c60.667 -76.667 145.334 -115 254.001 -115
c87.333 0 176 29.333 266 88v-117z" />
    <glyph glyph-name="d" unicode="d" horiz-adv-x="1151" 
d="M1110 0l-324 0.000976562v109c-109.333 -83.333 -215 -125 -317 -125c-128 0 -227.667 51.667 -299 155c-62.667 89.333 -94 198.666 -94 327.999c0 150 43 275.333 129 376c95.333 111.333 226.333 167 393 167c64 0 126.667 -7.66699 188 -23v375h-155v68l264 79h84
v-1378c0 -28 14.333 -43 43 -45l88 -6v-80zM786 186.001l-0.000976562 697c-56.667 20 -114.667 30 -174 30c-101.333 0 -182.166 -37.5 -242.499 -112.5s-90.5 -174.5 -90.5 -298.5c0 -114 25.667 -205 77 -273c53.333 -70.667 126.333 -106 219 -106
c72.667 0 143 21 211 63z" />
    <glyph glyph-name="e" unicode="e" horiz-adv-x="1014" 
d="M940 102c-126 -78.667 -255.667 -118 -389 -118c-134 0 -244 40.333 -330 121c-96.667 90 -145 216 -145 378c0 158 45 285.333 135 382s205.333 145 346 145c123.333 0 219 -39.333 287 -118c64 -74 96 -174 96 -300c0 -26 -0.666992 -45 -2 -57h-664
c0 -120.667 24 -217.667 72 -291c58.667 -90 148.667 -135 270 -135c98 0 206 39.333 324 118v-125zM735 627v45c0 71.333 -16 128 -48 170c-35.333 46 -85.333 69 -150 69c-68.667 0 -126.5 -25.667 -173.5 -77s-73.167 -120.333 -78.5 -207h450z" />
    <glyph glyph-name="f" unicode="f" horiz-adv-x="668" 
d="M797 1401c0 -56 -31.6689 -92.999 -95.002 -110.999c-3.33301 3.33301 -35.166 26.333 -95.499 69s-91.166 64.667 -92.499 66c-77.333 -40 -117 -143 -119 -309l-2 -155h254v-103h-254v-727c0 -28.667 14.333 -43.667 43 -45l121 -6v-80h-498v80l101 6
c28.667 2 43 17 43 45v727h-131v70l131 37c0 133.333 23 244.333 69 333c78.667 150.667 195 226 349 226c56 0 100 -12.333 132 -37c29.333 -22.667 44 -51.334 44 -86.001z" />
    <glyph glyph-name="g" unicode="g" horiz-adv-x="1085" 
d="M1051 850l-205.002 0.000976562c36.667 -58.667 55 -120 55 -184c0 -98.667 -40.333 -178.334 -121 -239.001c-75.333 -57.333 -168.666 -86 -279.999 -86c-14 0 -27.667 0.333008 -41 1c-27.333 -44 -33 -89.667 -17 -137c140 -14 216 -25.667 228 -35
c218 -33.333 327 -117.333 327 -252c0 -98 -51.833 -182.833 -155.5 -254.5s-229.167 -107.5 -376.5 -107.5c-121.333 0 -215.833 23.5 -283.5 70.5s-101.5 112.167 -101.5 195.5c0 62 17.667 115 53 159c38.667 46.667 93.334 76.334 164.001 89.001
c-14 42 -21 73.333 -21 94c0 57.333 34.333 121.333 103 192c-72 16 -131.333 50.333 -178 103c-50.667 57.333 -76 125.666 -76 204.999c0 106.667 37.667 191 113 253s175 93 299 93c71.333 0 150.333 -20 237 -60h277v-100zM706.998 678.001
c0 68 -16.332 125.333 -48.999 172c-36 50.667 -83.333 76 -142 76c-58 0 -104.833 -22.167 -140.5 -66.5s-53.5 -105.5 -53.5 -183.5c0 -72 16.333 -130.667 49 -176c34.667 -49.333 83 -74 145 -74c59.333 0 106.666 24.667 141.999 74c32.667 46 49 105.333 49 178z
M820.999 -136.999c0 44 -12.333 76.999 -37 98.999s-71.167 39.167 -139.5 51.5l-224.5 41.5c-104 -37.333 -156 -101.333 -156 -192c0 -55.333 21.667 -102.666 65 -141.999c49.333 -46 117 -69 203 -69c90.667 0 163 23 217 69c48 40 72 87.333 72 142z" />
    <glyph glyph-name="h" unicode="h" horiz-adv-x="1171" 
d="M1135 0h-455.001v80l84 6c30 2 45 17 45 45v528c0 135.333 -67.667 203 -203 203c-76 0 -149.667 -19.667 -221 -59v-672c0 -28 13.667 -43 41 -45l88 -6v-80h-463v80l99 6c28.667 2 43 17 43 45v1231h-154v68l262 79h84v-624c136.667 83.333 248.667 125 336 125
c82.667 0 148.334 -25 197.001 -75c52.667 -54 79 -131.667 79 -233v-571c0 -28 15 -43 45 -45l93 -6v-80z" />
    <glyph glyph-name="i" unicode="i" horiz-adv-x="621" 
d="M446 1323c0 -35.333 -12 -65.333 -36 -90s-53.333 -37 -88 -37s-64.5 12.5 -89.5 37.5s-37.5 54.833 -37.5 89.5s12.5 64.167 37.5 88.5s54.833 36.5 89.5 36.5s64 -12.167 88 -36.5s36 -53.833 36 -88.5zM551 0h-481v80l100 6c28.667 2 43 17 43 45v731h-141v70l250 78
h81v-879c0 -28.667 14.333 -43.667 43 -45l105 -6v-80z" />
    <glyph glyph-name="j" unicode="j" horiz-adv-x="631" 
d="M436 1323c0 -34.667 -12.167 -64.5 -36.5 -89.5s-53.833 -37.5 -88.5 -37.5s-64.5 12.5 -89.5 37.5s-37.5 54.833 -37.5 89.5s12.5 64.167 37.5 88.5s54.833 36.5 89.5 36.5s64.167 -12.167 88.5 -36.5s36.5 -53.833 36.5 -88.5zM414 156
c0 -190.667 -26.667 -327.334 -80 -410.001c-82.667 -128 -196 -192 -340 -192c-104 0 -156 38 -156 114c0 58.667 29.333 98.334 88 119.001l199 -137c65.333 37.333 98 148 98 332v872h-145v68l252 77h84v-843z" />
    <glyph glyph-name="k" unicode="k" horiz-adv-x="1104" 
d="M1083 0l-317.001 -0.000976562v72l-266 393h-115v-334c0 -28 14.333 -43 43 -45l88 -6v-80h-465v80l101 6c28.667 2 43 17 43 45v1231h-156v68l262 79h84v-985h41l301 342c5.33301 6 6.33301 13 3 21c-3.33301 8.66699 -9.66602 13.334 -18.999 14.001l-84 8v78h397v-78
l-131 -14l-270 -291l352 -512l108 -12v-80z" />
    <glyph glyph-name="l" unicode="l" horiz-adv-x="608" 
d="M553 0h-497.999v80l109 6c9.33301 0.666992 19.166 5.66699 29.499 15s15.5 18.666 15.5 27.999v1233h-156v68l262 79h84v-1380c0 -9.33301 4.83301 -18.666 14.5 -27.999s19.167 -14.333 28.5 -15l111 -6v-80z" />
    <glyph glyph-name="m" unicode="m" horiz-adv-x="1751" 
d="M1714 0l-460.999 -0.000976562v80l84 6c28.667 2 43 17 43 45v522c0 139.333 -60.667 209 -182 209c-68.667 0 -141 -19.667 -217 -59v-672c0 -28 14.333 -43 43 -45l86 -6v-80h-448v80l86 6c28.667 2 43 17 43 45v533c0 132 -60.333 198 -181 198
c-76.667 0 -149.667 -19.667 -219 -59v-672c0 -28 14.333 -43 43 -45l86 -6v-80h-463v80l101 6c28.667 2 43 17 43 45v723h-142v68l248 77h84v-114c138.667 83.333 250 125 334 125c102 0 177 -46.667 225 -140c149.333 93.333 267.666 140 354.999 140
c97.333 0 169 -34.667 215 -104c35.333 -53.333 53 -122.666 53 -207.999v-567c0 -28 14.333 -43 43 -45l98 -6v-80z" />
    <glyph glyph-name="n" unicode="n" horiz-adv-x="1182" 
d="M1130 0h-452v80l86 6c28.667 2 43 17 43 45v531c0 133.333 -65.667 200 -197 200c-71.333 0 -146.333 -19.667 -225 -59v-672c0 -28 14.333 -43 43 -45l86 -6v-80h-463v80l101 6c28.667 2 43 17 43 45v723h-144v68l250 77h84v-114c146 83.333 258.667 125 338 125
c182.667 0 274 -104.667 274 -314v-565c0 -28 14.333 -43 43 -45l90 -6v-80z" />
    <glyph glyph-name="o" unicode="o" horiz-adv-x="1122" 
d="M1051 494c0 -148 -44.334 -269.333 -133.001 -364c-90.667 -97.333 -209.667 -146 -357 -146s-265.666 48 -354.999 144c-86.667 94 -130 216 -130 366s43.667 272.667 131 368c90 98.667 209.333 148 358 148s267.667 -50 357 -150c86 -95.333 129 -217.333 129 -366z
M837.999 496c0 119.333 -22.665 217.668 -67.998 295.001c-50 84.667 -119 127 -207 127c-90 0 -159 -42.333 -207 -127c-43.333 -76 -65 -174.333 -65 -295c0 -118.667 22.333 -216.334 67 -293.001c49.333 -84.667 117.666 -127 204.999 -127
c89.333 0 158.666 42 207.999 126c44.667 76 67 174 67 294z" />
    <glyph glyph-name="p" unicode="p" horiz-adv-x="1149" 
d="M1079 526c0 -162 -46.167 -291.166 -138.5 -387.499s-218.833 -144.5 -379.5 -144.5c-45.333 0 -106 6 -182 18v-327c0 -26 15 -40.333 45 -43l121 -11v-77h-498v77l98 11c28.667 3.33301 43 17.666 43 42.999v1169h-141v68l250 77h82v-114
c107.333 83.333 210.333 125 309 125c110 0 201.667 -42.667 275 -128c77.333 -90 116 -208.667 116 -356zM874 498.001c0 109.333 -24.001 197.333 -72.001 264c-51.333 70.667 -122.666 106 -213.999 106c-63.333 0 -133 -20.333 -209 -61v-686
c58.667 -22 114 -33 166 -33c106.667 0 189.667 41.667 249 125c53.333 74.667 80 169.667 80 285z" />
    <glyph glyph-name="q" unicode="q" horiz-adv-x="1110" 
d="M1100 -446l-496.001 -0.000976562v77l121 11c28.667 2.66699 43 17 43 43v389c-109.333 -53.333 -205 -80 -287 -80c-123.333 0 -222.333 45 -297 135c-72 88 -108 201.333 -108 340c0 168 52.333 300.5 157 397.5s249.667 145.5 435 145.5
c100.667 0 197.334 -11 290.001 -33v-1294c0 -25.333 14.333 -39.666 43 -42.999l99 -11v-77zM767.999 142.999l-0.00195312 754c-62.667 14 -109.667 21 -141 21c-109.333 0 -194.666 -38 -255.999 -114c-58.667 -74 -88 -174.667 -88 -302c0 -114 24 -205 72 -273
c53.333 -76 132.333 -114 237 -114c58.667 0 117.334 9.33301 176.001 28z" />
    <glyph glyph-name="r" unicode="r" horiz-adv-x="811" 
d="M791 778h-80.001c-32.667 37.333 -69.667 56 -111 56c-62.667 0 -131 -42.333 -205 -127v-576c0 -28.667 14.333 -43.667 43 -45l135 -6v-80h-512v78l101 8c28.667 2 43 17 43 45v723h-148v68l254 77h84v-194c58.667 64.667 99.334 107 122.001 127
c58 52 107.667 78 149 78c47.333 0 89 -9.66699 125 -29v-203z" />
    <glyph glyph-name="s" unicode="s" horiz-adv-x="838" 
d="M760 297c0 -100 -34.499 -177.5 -103.499 -232.5s-164.833 -82.5 -287.5 -82.5c-114.667 0 -209.667 15 -285 45v274h104l25 -176c52 -34 112.667 -51 182 -51c56 0 101.333 15.667 136 47c32.667 29.333 49 65.333 49 108c0 51.333 -22 94 -66 128
c-23.333 17.333 -84.666 50 -183.999 98c-80.667 38.667 -138 75.667 -172 111c-40 41.333 -60 91 -60 149c0 92 32.333 164.5 97 217.5s155.334 79.5 272.001 79.5c105.333 0 192.666 -15.667 261.999 -47v-242h-106l-17 145c-40 31.333 -91.667 47 -155 47
c-110.667 0 -166 -45.667 -166 -137c0 -44.667 16.333 -81.667 49 -111c29.333 -26 88.666 -59.333 177.999 -100c81.333 -36.667 140.666 -73.334 177.999 -110.001c46.667 -45.333 70 -98.666 70 -159.999z" />
    <glyph glyph-name="t" unicode="t" horiz-adv-x="696" 
d="M684 43c-94 -32.667 -186.667 -49 -278 -49c-78.667 0 -135 15.333 -169 46s-51 85.667 -51 165v653h-131v68l140 65l92 197h90v-227h289v-103h-289v-545c0 -78 13.667 -132.333 41 -163c24.667 -27.333 65.667 -41 123 -41c49.333 0 97 5.33301 143 16v-82z" />
    <glyph glyph-name="u" unicode="u" horiz-adv-x="1165" 
d="M1122 0h-323.001v117c-116 -88.667 -226 -133 -330 -133c-188.667 0 -283 107.667 -283 323v555h-143v70l252 78h84v-664c0 -148.667 65.333 -223 196 -223c78.667 0 153.334 17.667 224.001 53v686h-144v70l250 78h82v-879c0 -28 15 -43 45 -45l90 -6v-80z" />
    <glyph glyph-name="v" unicode="v" horiz-adv-x="1083" 
d="M1063 909l-109 -12l-358 -897h-133l-330 897l-113 12v78h453v-78l-98 -6c-11.333 -0.666992 -20.333 -5.5 -27 -14.5s-8 -19.167 -4 -30.5l229 -643l252 643c4 10.667 3.16699 20.667 -2.5 30s-14.167 14.333 -25.5 15l-92 6v78h358v-78z" />
    <glyph glyph-name="w" unicode="w" horiz-adv-x="1604" 
d="M1583 909l-104 -12l-281 -897h-145l-242 766l-270 -766h-146l-262 897l-113 12v78h449v-78l-96 -6c-28 -2 -38.333 -17 -31 -45l170 -639l264 768h146l237 -768l189 639c8.66699 28 -1 43 -29 45l-94 6v78h358v-78z" />
    <glyph glyph-name="x" unicode="x" horiz-adv-x="1051" 
d="M1030 0l-442 0.00292969v80l71 8c8.66699 1.33301 15 6 19 14c3.33301 8 2.66602 15.667 -2.00098 23l-176 262l-201 -262c-5.33301 -6.66699 -6.66602 -14.334 -3.99902 -23.001c3.33301 -8.66699 9.33301 -13.334 18 -14.001l101 -8v-80h-389v80l118 16l293 381
l-280 414l-121 18v78h452v-78l-73 -10c-9.33301 -1.33301 -16 -6 -20 -14c-4 -8.66699 -3.66699 -16.334 1 -23.001l160 -231l180 231c5.33301 6.66699 6.33301 14 3 22c-4 8.66699 -10.333 13.667 -19 15l-88 10v78h370v-78l-112 -18l-273 -352l302 -443l112 -16v-80z" />
    <glyph glyph-name="y" unicode="y" horiz-adv-x="1085" 
d="M1065 909l-107 -12.001l-393 -960c-59.333 -144.667 -118 -246 -176 -304c-52.667 -52.667 -112 -79 -178 -79c-46 0 -83 12 -111 36c-26 22 -39 49.333 -39 82c0 45.333 22 86.333 66 123l192 -88c62 62 116 160.333 162 295l-348 895l-113 12v78h453v-78l-98 -6
c-22 -1.33301 -33 -12.333 -33 -33c0 -4 0.666992 -8 2 -12l238 -606l243 606c4 10 3.16699 19.833 -2.5 29.5s-14.167 14.834 -25.5 15.501l-97 6v78h365v-78z" />
    <glyph glyph-name="z" unicode="z" horiz-adv-x="973" 
d="M899 0h-807v109l543 782h-356c-23.333 0 -37 -14.333 -41 -43l-21 -152h-104v291h757v-84l-561 -805h414c8.66699 0 18 5.5 28 16.5s15.667 21.833 17 32.5l20 162h111v-309z" />
    <glyph glyph-name="braceleft" unicode="{" horiz-adv-x="1278" 
d="M1098 -655c-231.333 0 -383.667 43.6689 -457 131.002c-52 61.333 -84.667 143.666 -98 246.999c-5.33301 44.667 -8 141.667 -8 291c0 114 -2.33301 191 -7 231c-9.33301 93.333 -31.666 159.666 -66.999 198.999c-32 36.667 -79 60.334 -141 71.001
c-33.333 6 -87.333 9 -162 9v140c84 0.666992 145.667 5.66699 185 15c50 12 89.333 34 118 66c35.333 40 57.666 106.667 66.999 200c4.66699 40 7 117 7 231c0 146.667 2.66699 243 8 289c13.333 102.667 46 185 98 247c72.667 87.333 225 131 457 131v-123
c-129.333 0 -218.333 -30 -267 -90c-32 -40 -51.667 -105 -59 -195c-2.66699 -32 -4 -115.667 -4 -251c0 -203.333 -25.333 -342 -76 -416c-56 -82.667 -148 -140 -276 -172c128.667 -34.667 220.667 -93.334 276 -176.001c50.667 -75.333 76 -214 76 -416
c0 -134 1.33301 -217.667 4 -251c8 -90 27.667 -155 59 -195c46.667 -58.667 135.667 -88 267 -88v-125z" />
    <glyph glyph-name="bar" unicode="|" horiz-adv-x="1024" 
d="M584 -483h-142v2048h142v-2048z" />
    <glyph glyph-name="braceright" unicode="}" horiz-adv-x="1278" 
d="M1120 524c-75.333 0 -129.333 -3.00098 -162 -9.00098c-61.333 -10.667 -108.333 -34.334 -141 -71.001c-35.333 -39.333 -58 -105.666 -68 -198.999c-4 -38.667 -6 -115.667 -6 -231c0 -149.333 -2.66699 -246.333 -8 -291c-13.333 -103.333 -46 -185.666 -98 -246.999
c-73.333 -87.333 -225.666 -131 -456.999 -131v125c132.667 0 222.334 29.333 269.001 88c31.333 40 51 105 59 195c2.66699 33.333 4 117 4 251c0 204 24.667 342.667 74 416c56 83.333 148.667 142 278 176c-129.333 32 -222 89.333 -278 172
c-49.333 72 -74 210.667 -74 416c0 135.333 -1.33301 219 -4 251c-7.33301 90 -27 155 -59 195c-48.667 60 -138.334 90 -269.001 90v123c232 0 384.333 -43.667 457 -131c52 -62 84.667 -144.333 98 -247c5.33301 -46 8 -142.333 8 -289c0 -115.333 2 -192.333 6 -231
c10 -93.333 32.667 -160 68 -200c29.333 -32.667 68.666 -54.667 117.999 -66c39.333 -9.33301 101 -14.333 185 -15v-140z" />
    <glyph glyph-name="asciitilde" unicode="~" horiz-adv-x="1706" 
d="M1530 627c-139.333 -96 -267.668 -144 -385.001 -144c-63.333 0 -159.833 23 -289.5 69s-230.5 69 -302.5 69c-104 0 -229 -53.333 -375 -160v133c134.667 96.667 264.334 145 389.001 145c68 0 167.167 -22.833 297.5 -68.5s224.5 -68.5 282.5 -68.5
c110 0 237.667 52.667 383 158v-133z" />
    <glyph glyph-name="nonbreakingspace" unicode="&#xa0;" horiz-adv-x="700" 
 />
    <glyph glyph-name="exclamdown" unicode="&#xa1;" horiz-adv-x="692" 
d="M473 1274c0 -34.667 -12.167 -64.167 -36.5 -88.5s-53.833 -36.5 -88.5 -36.5s-64.5 12.167 -89.5 36.5s-37.5 53.833 -37.5 88.5s12.5 64.5 37.5 89.5s54.833 37.5 89.5 37.5s64.167 -12.5 88.5 -37.5s36.5 -54.833 36.5 -89.5zM471 141c0.666992 -9.33301 1 -18 1 -26
c0 -87.333 -41.333 -131 -124 -131c-84 0 -126 43.667 -126 131c0 8 0.333008 16.667 1 26l76 879h98z" />
    <glyph glyph-name="cent" unicode="&#xa2;" horiz-adv-x="1153" 
d="M991 47c-7.33301 -7.33301 -33.333 -16 -78 -26c-62.667 -14 -135 -21 -217 -21v-203h-98v207c-138 15.333 -247.167 69.333 -327.5 162s-120.5 209.334 -120.5 350.001c0 136 41 250.667 123 344s190.333 149.333 325 168v209h98v-201c92.667 0 191 -17 295 -51v-301
h-98l-29 178c-4 24 -12 38.333 -24 43c-33.333 19.333 -81.333 29.666 -144 30.999v-838c53.333 1.33301 101.333 11 144 29c9.33301 4.66699 17.333 15.667 24 33l27 196h100v-309zM598 104v825.999c-64 -14.667 -119.333 -53.334 -166 -116.001
c-57.333 -77.333 -86 -174.666 -86 -291.999c0 -116 25 -212 75 -288c45.333 -69.333 104.333 -112.666 177 -129.999z" />
    <glyph glyph-name="sterling" unicode="&#xa3;" horiz-adv-x="1153" 
d="M1057 1180c0 -32.667 -12.666 -60.333 -37.999 -83s-55 -34 -89 -34c-18 0 -42.667 3.33301 -74 10v205c-36 10.667 -66.667 16 -92 16c-183.333 0 -275 -135 -275 -405c0 -56 1.66699 -110.667 5 -164h380v-102h-380c4.66699 -214 -68 -369.667 -218 -467
c88 8 144.667 12 170 12h607v-168h-973v125c153.333 39.333 227.666 172.333 222.999 399c2.66699 4.66699 2 37.667 -2 99h-143v102h141c-1.33301 70 -2 124 -2 162c0 198.667 59.333 342.667 178 432c69.333 52 155.333 78 258 78c78 0 148 -16.667 210 -50
c76 -40 114 -95.667 114 -167z" />
    <glyph glyph-name="currency" unicode="&#xa4;" horiz-adv-x="1589" 
d="M1481 539l-95.001 -95.001l-266 267c-95.333 -74 -203 -111 -323 -111c-119.333 0 -228.666 37.667 -327.999 113l-264 -269l-94 95l266 266c-76.667 96 -115 206 -115 330c0 120 37 227.667 111 323l-262 264l94 93l260 -263c95.333 76.667 206 115 332 115
c124 0 233 -37.667 327 -113l262 261l95 -93l-262 -262c73.333 -95.333 110 -203.666 110 -324.999c0 -126 -38.333 -236.667 -115 -332zM1198 1135c0 110 -39.167 204.333 -117.5 283s-172.833 118 -283.5 118c-112 0 -207.333 -39.167 -286 -117.5
s-118 -172.833 -118 -283.5c0 -112 39.333 -207.333 118 -286s174 -118 286 -118c110.667 0 205.167 39.333 283.5 118s117.5 174 117.5 286z" />
    <glyph glyph-name="yen" unicode="&#xa5;" horiz-adv-x="1221" 
d="M1200 1288l-115 -26l-219 -388h289v-90h-340l-119 -209h459v-90h-457v-344c0 -26.667 18 -41.667 54 -45l118 -10v-86h-534v86l121 10c34 2.66699 51 17.667 51 45v344h-442v90h438l-111 209h-327v90h278l-203 390l-121 24v86h459v-86l-88 -14
c-28.667 -4.66699 -36.667 -19.667 -24 -45l270 -529l297 527c14 24.667 5 39.667 -27 45l-98 16v86h391v-86z" />
    <glyph glyph-name="brokenbar" unicode="&#xa6;" horiz-adv-x="1024" 
d="M582 674h-140v760h140v-760zM582 -350h-140v760h140v-760z" />
    <glyph glyph-name="section" unicode="&#xa7;" horiz-adv-x="1024" 
d="M903 627c0 -75.333 -25.6641 -144.33 -76.9971 -206.997c-46 -56.667 -103 -98.334 -171 -125.001c140.667 -65.333 211 -155.333 211 -270c0 -92 -35.833 -167.333 -107.5 -226s-162.834 -88 -273.501 -88c-110 0 -215 22 -315 66v268h102l11 -63l18 -121
c18 -12 42 -23 72 -33c42 -14 82.333 -21 121 -21c61.333 0 111.833 15 151.5 45s59.5 70.333 59.5 121c0 84 -113.333 177 -340 279c-162.667 73.333 -244 184.666 -244 333.999c0 83.333 23.667 152 71 206c35.333 40.667 92 79 170 115c-136 68 -204 155.333 -204 262
c0 200.667 132.333 301 397 301c117.333 0 212.333 -16.333 285 -49v-266h-97l-20 166c-72 39.333 -136.333 59 -193 59c-60.667 0 -109.834 -16.167 -147.501 -48.5s-56.5 -73.5 -56.5 -123.5c0 -42.667 28.667 -84.334 86 -125.001
c37.333 -26.667 107.666 -64.667 210.999 -114c186.667 -89.333 280 -203.333 280 -342zM743.003 575.003c0 114.667 -94.001 211.002 -282.001 289.002c-59.333 -20.667 -105.666 -53.334 -138.999 -98.001c-30.667 -40.667 -46 -85 -46 -133c0 -60 24 -113.333 72 -160
c44 -42 118.333 -87.667 223 -137c38 19.333 74 49.666 108 90.999c42.667 50.667 64 100 64 148z" />
    <glyph glyph-name="dieresis" unicode="&#xa8;" horiz-adv-x="647" 
d="M647 1313c0 -31.333 -10.667 -58.333 -32 -81s-47.333 -34 -78 -34s-57.167 11.5 -79.5 34.5s-33.5 49.833 -33.5 80.5c0 28.667 11.667 54.5 35 77.5s49.333 34.5 78 34.5c30.667 0 56.667 -11 78 -33s32 -48.333 32 -79zM223 1313c0 -30.667 -11 -57.5 -33 -80.5
s-48.333 -34.5 -79 -34.5c-29.333 0 -55.166 11.333 -77.499 34s-33.5 49 -33.5 79s11.167 56.5 33.5 79.5s48.166 34.5 77.499 34.5c30.667 0 57 -11 79 -33s33 -48.333 33 -79z" />
    <glyph glyph-name="copyright" unicode="&#xa9;" horiz-adv-x="1831" 
d="M1706 696c0 -218.667 -76.834 -405.333 -230.501 -560s-339.5 -232 -557.5 -232c-216 0 -401.167 77.333 -555.5 232s-231.5 340.667 -231.5 558c0 218.667 77 405.5 231 560.5s340 232.5 558 232.5c218.667 0 404.334 -77.833 557.001 -233.5s229 -341.5 229 -557.5z
M1618 694.001c0 194 -68.168 360.333 -204.501 499s-300.833 208 -493.5 208c-193.333 0 -358.5 -69.167 -495.5 -207.5s-205.5 -304.833 -205.5 -499.5c0 -193.333 68.333 -359 205 -497s301.334 -207 494.001 -207s357.5 69 494.5 207s205.5 303.667 205.5 497z
M1241 260.001c-98 -32.667 -194.998 -49 -290.998 -49c-154.667 0 -278.334 48.333 -371.001 145c-86.667 90 -130 202.667 -130 338c0 142.667 46 258.667 138 348s213.667 134 365 134c75.333 0 171.666 -17.333 288.999 -52v-243h-92l-31 155
c-42.667 28.667 -91 43 -145 43c-92 0 -169.667 -33.333 -233 -100c-68.667 -71.333 -103 -165 -103 -281c0 -119.333 32.667 -216 98 -290c60 -68.667 132.333 -103 217 -103c58 0 114.667 13 170 39l29 174h90v-258z" />
    <glyph glyph-name="ordfeminine" unicode="&#xaa;" horiz-adv-x="711" 
d="M686 784l-205 0.000976562l-18 72c-85.333 -53.333 -161 -80 -227 -80c-51.333 0 -93.333 13.667 -126 41c-35.333 29.333 -53 69 -53 119c0 53.333 26 94.666 78 123.999c56.667 32.667 166 65 328 97v55c0 80.667 -41.667 121 -125 121c-28 0 -60.667 -5.33301 -98 -16
v-107h-101c-32.667 0 -49 11.667 -49 35c0 46.667 31 83.667 93 111c54 23.333 118.667 35 194 35c143.333 0 215 -61.667 215 -185v-344c0 -15.333 11.667 -24 35 -26l59 -5v-47zM680 623.001h-617v61h617v-61zM463 899.001l0.000976562 211
c-113.333 -25.333 -189.333 -52.333 -228 -81c-28 -20.667 -42 -49 -42 -85c0 -26.667 9.33301 -49 28 -67s44 -27 76 -27c45.333 0 100.666 16.333 165.999 49z" />
    <glyph glyph-name="guillemotleft" unicode="&#xab;" horiz-adv-x="1159" 
d="M1053 168l-437 356v211l437 357v-187l-301 -274l301 -283v-180zM537 168l-437 356v211l437 357v-187l-304 -274l304 -283v-180z" />
    <glyph glyph-name="logicalnot" unicode="&#xac;" horiz-adv-x="1024" 
d="M949 496h-155v446h-721v160h876v-606z" />
    <glyph glyph-name="sfthyphen" unicode="&#xad;" horiz-adv-x="657" 
d="M565 416h-475v153h475v-153z" />
    <glyph glyph-name="registered" unicode="&#xae;" horiz-adv-x="1831" 
d="M1706 694c0 -218 -77.166 -404.167 -231.499 -558.5s-340.833 -231.5 -559.5 -231.5c-215.333 0 -399.833 77.167 -553.5 231.5s-230.5 340.5 -230.5 558.5c0 218.667 77 405.5 231 560.5s340 232.5 558 232.5c215.333 0 400.166 -77.5 554.499 -232.5
s231.5 -341.833 231.5 -560.5zM1618 694c0 195.333 -68.166 362.001 -204.499 500.001s-300.833 207 -493.5 207s-357.667 -68.833 -495 -206.5s-206 -305.834 -206 -504.501c0 -192 68.167 -356.667 204.5 -494s301.166 -206 494.499 -206s358.333 69 495 207
s205 303.667 205 497zM1427 268.001c-40 -6.66699 -79.335 -9.99902 -118.002 -9.99902c-77.333 0 -131.5 15.833 -162.5 47.5s-57.833 82.5 -80.5 152.5c-24 73.333 -46.333 122.666 -67 147.999c-34 41.333 -92 62 -174 62c-12.667 0 -27.167 -0.333008 -43.5 -1
s-24.166 -1 -23.499 -1v-306c0 -17.333 10 -26.666 30 -27.999l78 -6v-58h-362v58l78 6c20 1.33301 30 10.666 30 27.999v713c0 18 -10 27.667 -30 29l-78 6v57h381c238.667 0 358 -79 358 -237c0 -114.667 -79.667 -189 -239 -223c58.667 -13.333 100.667 -33.333 126 -60
c31.333 -33.333 55.333 -82.5 72 -147.5s37.334 -110.167 62.001 -135.5s79 -38 163 -38v-56zM1083 922.002c0 120 -85.332 180 -255.999 180h-69v-369c41.333 -1.33301 66.666 -2 75.999 -2c166 0 249 63.667 249 191z" />
    <glyph glyph-name="macron" unicode="&#xaf;" horiz-adv-x="616" 
d="M616 1198h-616v131h616v-131z" />
    <glyph glyph-name="degree" unicode="&#xb0;" horiz-adv-x="676" 
d="M623 1171c0 -78.667 -27.833 -145.667 -83.5 -201s-122.834 -83 -201.501 -83s-145.834 27.667 -201.501 83s-83.5 122.333 -83.5 201s27.833 145.5 83.5 200.5s122.834 82.5 201.501 82.5s145.834 -27.5 201.501 -82.5s83.5 -121.833 83.5 -200.5zM541 1171
c0 55.333 -20 102.666 -60 141.999s-87.667 59 -143 59s-103 -19.667 -143 -59s-60 -86.666 -60 -141.999s20 -102.833 60 -142.5s87.667 -59.5 143 -59.5s103 19.833 143 59.5s60 87.167 60 142.5z" />
    <glyph glyph-name="plusminus" unicode="&#xb1;" horiz-adv-x="1706" 
d="M1452 719h-539v-344h-118v344h-541v117h541v344h118v-344h539v-117zM1452 41h-1198v117h1198v-117z" />
    <glyph glyph-name="twosuperior" unicode="&#xb2;" horiz-adv-x="748" 
d="M686 604l-622.998 -0.000976562v82c170 130 279 219.333 327 268c82.667 84 124 164.667 124 242c0 120 -58 180 -174 180c-20.667 0 -57 -8.66699 -109 -26v-136c-16.667 -13.333 -37.667 -20 -63 -20c-54.667 0 -82 24 -82 72c0 51.333 28.667 93.833 86 127.5
s125.666 50.5 204.999 50.5c86 0 154.167 -21.333 204.5 -64s75.5 -100 75.5 -172c0 -77.333 -45.667 -160.333 -137 -249c-52.667 -51.333 -158.334 -134.666 -317.001 -249.999h393l25 104h65v-209z" />
    <glyph glyph-name="threesuperior" unicode="&#xb3;" horiz-adv-x="764" 
d="M686 844c0 -74 -32.335 -134.167 -97.002 -180.5s-145.667 -69.5 -243 -69.5c-83.333 0 -150.666 15.333 -201.999 46c-44 26.667 -66 57 -66 91c0 46.667 26 70 78 70c18.667 0 33.667 -3.33301 45 -10l41 -109c34 -18 70 -27 108 -27c59.333 0 108.333 19.333 147 58
c36 36 54 79.667 54 131c0 100.667 -64.333 151 -193 151c-29.333 0 -54.333 -1.33301 -75 -4v76h34c134 0 201 52 201 156c0 49.333 -16.667 88 -50 116c-31.333 26 -70.666 39 -117.999 39c-44.667 0 -82.667 -9.33301 -114 -28v-123c-22.667 -11.333 -42.667 -17 -60 -17
c-52 0 -78 23.333 -78 70s27.833 86 83.5 118s123.5 48 203.5 48c78.667 0 142.667 -18.333 192 -55c50.667 -38.667 76 -90 76 -154c0 -95.333 -68 -161 -204 -197c64 -2 117.667 -18.333 161 -49c50.667 -35.333 76 -84.333 76 -147z" />
    <glyph glyph-name="acute" unicode="&#xb4;" horiz-adv-x="717" 
d="M717 1409c0 -34.667 -15.666 -62 -46.999 -82l-312 -199h-116l272 318c31.333 36.667 67.666 55 108.999 55c62.667 0 94 -30.667 94 -92z" />
    <glyph glyph-name="micro" unicode="&#xb5;" horiz-adv-x="1137" 
d="M1094 299c0 -51.333 -17.3311 -109.333 -51.998 -174c-52 -96.667 -125.667 -145 -221 -145c-55.333 0 -96.333 23 -123 69c-22 38 -32 86 -30 144c-60.667 -144 -154.334 -216 -281.001 -216c-63.333 0 -115 20.667 -155 62c-37.333 39.333 -59.333 91.333 -66 156
c-4 -20 -28 -170.333 -72 -451c-17.333 -108 -49.333 -162 -96 -162c-56 0 -84 26 -84 78c0 30 4.66699 62 14 96c76 274 164.333 650.333 265 1129h161l-106 -510c-6.66699 -32 -10 -61.333 -10 -88c0 -114.667 51.667 -172 155 -172c127.333 0 208 79 242 237l115 533h163
l-122 -578c-6 -30 -9 -56.667 -9 -80c0 -73.333 29.333 -110 88 -110c44 0 79.667 18.333 107 55c13.333 18 33.666 59.667 60.999 125c10 24.667 21 37 33 37c15.333 0 23 -11.667 23 -35z" />
    <glyph glyph-name="paragraph" unicode="&#xb6;" horiz-adv-x="1274" 
d="M1202 1665l-162.001 -27v-1845h-127v1858h-200v-916c-207.333 0 -361.666 34 -462.999 102c-120 80.667 -180 216 -180 406c0 186.667 53.333 321 160 403c98 75.333 249.333 113 454 113h518v-94z" />
    <glyph glyph-name="periodcentered" unicode="&#xb7;" horiz-adv-x="786" 
d="M694 891c0 -84 -29.167 -155.167 -87.5 -213.5s-129.5 -87.5 -213.5 -87.5s-155.167 29.167 -213.5 87.5s-87.5 129.5 -87.5 213.5s29.167 155.5 87.5 214.5s129.5 88.5 213.5 88.5s155.167 -29.5 213.5 -88.5s87.5 -130.5 87.5 -214.5z" />
    <glyph glyph-name="cedilla" unicode="&#xb8;" horiz-adv-x="473" 
d="M473 -266c0 -62 -21.8301 -110 -65.4971 -144s-100.834 -51 -171.501 -51c-44.667 0 -95.334 7 -152.001 21v80c50 -11.333 91 -17 123 -17c88.667 0 133 28 133 84c0 50.667 -32 76 -96 76c-12.667 0 -28.334 -4 -47.001 -12v229h79v-129c37.333 5.33301 53.333 8 48 8
c99.333 0 149 -48.333 149 -145z" />
    <glyph glyph-name="onesuperior" unicode="&#xb9;" horiz-adv-x="688" 
d="M592 604h-451v55l135 5c19.333 0.666992 29 9.33398 29 26.001v649l-207 -32v55l289 82h49v-754c0 -16.667 10.333 -25.334 31 -26.001l125 -5v-55z" />
    <glyph glyph-name="ordmasculine" unicode="&#xba;" horiz-adv-x="756" 
d="M707 1081c0 -88.667 -29.999 -162.334 -89.999 -221.001s-139.333 -88 -238 -88s-178 29.333 -238 88s-90 132.334 -90 221.001c0 92.667 29.667 167.5 89 224.5s139.666 85.5 240.999 85.5c99.333 0 179.333 -30.333 240 -91c57.333 -58 86 -131 86 -219zM692.001 623
h-626v61h626v-61zM561.001 1081c0 71.333 -14.999 130.001 -44.999 176.001c-32.667 50.667 -78.334 76 -137.001 76c-60 0 -106.667 -25.333 -140 -76c-29.333 -45.333 -44 -104 -44 -176c0 -70.667 15.333 -129.334 46 -176.001c33.333 -50.667 79.333 -76 138 -76
c60 0 106.333 25 139 75c28.667 45.333 43 104.333 43 177z" />
    <glyph glyph-name="guillemotright" unicode="&#xbb;" horiz-adv-x="1159" 
d="M1061 524l-438 -356v184l303 277l-303 280v183l438 -357v-211zM541 524l-435 -356v184l302 277l-302 280v183l435 -357v-211z" />
    <glyph glyph-name="onequarter" unicode="&#xbc;" horiz-adv-x="1792" 
d="M1694 233h-152v-276h-115v276h-426v86l451 512h90v-514h152v-84zM1413 1430l-907 -1430h-131l909 1430h129zM592 604h-451v55l135 5c19.333 0.666992 29 9.33398 29 26.001v649l-207 -32v55l289 82h49v-754c0 -16.667 10.333 -25.334 31 -26.001l125 -5v-55zM1427 317
v371l-319 -371h319z" />
    <glyph glyph-name="onehalf" unicode="&#xbd;" horiz-adv-x="1792" 
d="M1700 0l-625 -0.000976562v82c170 130 279.333 219.667 328 269c83.333 84.667 125 165.667 125 243c0 118.667 -58 178 -174 178c-18.667 0 -55 -9 -109 -27v-135c-18 -13.333 -39.667 -20 -65 -20c-53.333 0 -80 24 -80 72c0 51.333 28.333 93.833 85 127.5
s124.667 50.5 204 50.5c86 0 154.167 -21.333 204.5 -64s75.5 -100 75.5 -172c0 -77.333 -45.333 -160.666 -136 -249.999c-54 -52.667 -159.333 -136 -316 -250h393l22 107h68v-211zM1399 1430l-910 -1430h-129l910 1430h129zM588 603.999h-451v55l135 5
c19.333 0.666992 29 9.33398 29 26.001v649l-207 -32v55l289 82h49v-754c0 -16.667 10.333 -25.334 31 -26.001l125 -5v-55z" />
    <glyph glyph-name="threequarters" unicode="&#xbe;" horiz-adv-x="1792" 
d="M1716 233h-151v-276h-115v276h-426v86l451 512h90v-514h151v-84zM1436 1430l-910 -1430h-129l910 1430h129zM686 844c0 -74 -32.335 -134.167 -97.002 -180.5s-145.667 -69.5 -243 -69.5c-83.333 0 -150.666 15.333 -201.999 46c-44 26.667 -66 57 -66 91
c0 46.667 26 70 78 70c18.667 0 33.667 -3.33301 45 -10l41 -109c34 -18 70 -27 108 -27c59.333 0 108.333 19.333 147 58c36 36 54 79.667 54 131c0 100.667 -64.333 151 -193 151c-29.333 0 -54.333 -1.33301 -75 -4v76h34c134 0 201 52 201 156
c0 49.333 -16.667 88 -50 116c-31.333 26 -70.666 39 -117.999 39c-44.667 0 -82.667 -9.33301 -114 -28v-123c-22.667 -11.333 -42.667 -17 -60 -17c-52 0 -78 23.333 -78 70s27.833 86 83.5 118s123.5 48 203.5 48c78.667 0 142.667 -18.333 192 -55
c50.667 -38.667 76 -90 76 -154c0 -95.333 -68 -161 -204 -197c64 -2 117.667 -18.333 161 -49c50.667 -35.333 76 -84.333 76 -147zM1450 317v371l-320 -371h320z" />
    <glyph glyph-name="questiondown" unicode="&#xbf;" horiz-adv-x="995" 
d="M686 1272c0 -34.667 -12.167 -64.167 -36.5 -88.5s-53.833 -36.5 -88.5 -36.5s-64.5 12.167 -89.5 36.5s-37.5 53.833 -37.5 88.5c0 35.333 12.333 65.333 37 90s54.667 37 90 37c34.667 0 64.167 -12.5 88.5 -37.5s36.5 -54.833 36.5 -89.5zM866 184
c0 -53.333 -26 -98.667 -78 -136c-58.667 -42.667 -139.667 -64 -243 -64c-124.667 0 -226.667 32.667 -306 98c-81.333 67.333 -122 156 -122 266c0 192.667 129.667 341.667 389 447v227h115v-297c-198 -66.667 -297 -186 -297 -358c0 -188.667 97.333 -283 292 -283
l82 211h37c87.333 0 131 -37 131 -111z" />
    <glyph glyph-name="Agrave" unicode="&#xc0;" horiz-adv-x="1360" 
d="M778 1493h-114l-312 199c-32.667 20.667 -49 48 -49 82c0 61.333 32 92 96 92c39.333 0 75 -18.667 107 -56zM1360 0l-488 -0.000976562v88l119 10c6 0.666992 11.5 5.33398 16.5 14.001s6.5 15.667 4.5 21l-140 375h-475l-135 -369c-0.666992 -2 -1 -4 -1 -6
c0 -22 10 -33.667 30 -35l121 -10v-88h-412v88l119 25l477 1278h154l475 -1248c6 -15.333 11 -25 15 -29s13.333 -7.33301 28 -10l92 -16v-88zM834 605.999l-203 553l-197 -553h400z" />
    <glyph glyph-name="Aacute" unicode="&#xc1;" horiz-adv-x="1360" 
d="M1028 1774c0 -34.667 -15.667 -62 -47 -82l-309 -199h-117l272 317c32 37.333 68.333 56 109 56c61.333 0 92 -30.667 92 -92zM1360 0l-488 -0.000976562v88l119 10c6 0.666992 11.5 5.33398 16.5 14.001s6.5 15.667 4.5 21l-140 375h-475l-135 -369
c-0.666992 -2 -1 -4 -1 -6c0 -22 10 -33.667 30 -35l121 -10v-88h-412v88l119 25l477 1278h154l475 -1248c6 -15.333 11 -25 15 -29s13.333 -7.33301 28 -10l92 -16v-88zM834 605.999l-203 553l-197 -553h400z" />
    <glyph glyph-name="Acircumflex" unicode="&#xc2;" horiz-adv-x="1360" 
d="M993 1487h-123l-211 205l-213 -205h-122l258 348h153zM1360 0l-488 -0.000976562v88l119 10c6 0.666992 11.5 5.33398 16.5 14.001s6.5 15.667 4.5 21l-140 375h-475l-135 -369c-0.666992 -2 -1 -4 -1 -6c0 -22 10 -33.667 30 -35l121 -10v-88h-412v88l119 25l477 1278
h154l475 -1248c6 -15.333 11 -25 15 -29s13.333 -7.33301 28 -10l92 -16v-88zM834 605.999l-203 553l-197 -553h400z" />
    <glyph glyph-name="Atilde" unicode="&#xc3;" horiz-adv-x="1360" 
d="M1028 1776c-38 -150.667 -117.001 -226.001 -237.001 -226.001c-34 0 -78 16.5 -132 49.5s-104.333 49.5 -151 49.5c-26.667 0 -50.667 -10.167 -72 -30.5s-33.666 -43.166 -36.999 -68.499h-82c38 150.667 117.333 226 238 226c34 0 78.333 -16.5 133 -49.5
s105.334 -49.5 152.001 -49.5c26.667 0 50.167 10 70.5 30s32.166 43 35.499 69h82zM1360 -0.000976562l-488 -0.000976562v88l119 10c6 0.666992 11.5 5.33398 16.5 14.001s6.5 15.667 4.5 21l-140 375h-475l-135 -369c-0.666992 -2 -1 -4 -1 -6c0 -22 10 -33.667 30 -35
l121 -10v-88h-412v88l119 25l477 1278h154l475 -1248c6 -15.333 11 -25 15 -29s13.333 -7.33301 28 -10l92 -16v-88zM833.999 605.998l-203 553l-197 -553h400z" />
    <glyph glyph-name="Adieresis" unicode="&#xc4;" horiz-adv-x="1360" 
d="M993 1665c0 -30.667 -11 -57.5 -33 -80.5s-48.333 -34.5 -79 -34.5s-57.167 11.5 -79.5 34.5s-33.5 49.833 -33.5 80.5c0 28.667 11.667 54.667 35 78s49.333 35 78 35c30.667 0 57 -11.167 79 -33.5s33 -48.833 33 -79.5zM569 1665c0 -30.667 -11 -57.5 -33 -80.5
s-48.333 -34.5 -79 -34.5c-30 0 -56.333 11.333 -79 34s-34 49 -34 79s11.5 56.667 34.5 80s49.167 35 78.5 35c30.667 0 57 -11.167 79 -33.5s33 -48.833 33 -79.5zM1360 0l-488 -0.000976562v88l119 10c6 0.666992 11.5 5.33398 16.5 14.001s6.5 15.667 4.5 21l-140 375
h-475l-135 -369c-0.666992 -2 -1 -4 -1 -6c0 -22 10 -33.667 30 -35l121 -10v-88h-412v88l119 25l477 1278h154l475 -1248c6 -15.333 11 -25 15 -29s13.333 -7.33301 28 -10l92 -16v-88zM834 605.999l-203 553l-197 -553h400z" />
    <glyph glyph-name="Aring" unicode="&#xc5;" horiz-adv-x="1360" 
d="M926 1743c0 -70.667 -25 -131 -75 -181s-110.333 -75 -181 -75s-130.667 25 -180 75s-74 110.333 -74 181s24.667 130.667 74 180s109.333 74 180 74s131 -24.667 181 -74s75 -109.333 75 -180zM1360 0l-488 -0.000976562v88l119 10c6 0.666992 11.5 5.33398 16.5 14.001
s6.5 15.667 4.5 21l-140 375h-475l-135 -369c-0.666992 -2 -1 -4 -1 -6c0 -22 10 -33.667 30 -35l121 -10v-88h-412v88l119 25l477 1278h154l475 -1248c6 -15.333 11 -25 15 -29s13.333 -7.33301 28 -10l92 -16v-88zM803 1743c0 36.667 -13 68 -39 94s-57.333 39 -94 39
s-68 -13 -94 -39s-39 -57.333 -39 -94s13 -68 39 -94s57.333 -39 94 -39s68 13 94 39s39 57.333 39 94zM834 605.999l-203 553l-197 -553h400z" />
    <glyph glyph-name="AE" unicode="&#xc6;" horiz-adv-x="1847" 
d="M1835 0h-1014v88l101 8c35.333 2.66699 53 17.667 53 45v371h-473l-230 -371c-16.667 -26.667 -11.667 -41 15 -43l116 -10v-88h-403v88l109 16l696 1131c2.66699 4 4 8 4 12c0 18.667 -11 29 -33 31l-100 10v86h1085v-305h-119l-28 168c-4 26 -15.667 39 -35 39h-408
v-510l269 -2c21.333 0 33.666 12.333 36.999 37l18 141h100v-457h-100l-18 144c-2.66699 23.333 -15 35 -37 35h-269v-564h480c20.667 0 33 13 37 39l30 203h117v-342zM975.001 614v666l-416 -668z" />
    <glyph glyph-name="Ccedilla" unicode="&#xc7;" horiz-adv-x="1296" 
d="M1210 47c-116 -46.667 -246.999 -70.668 -392.999 -72.001v-104c37.333 5.33301 53 8 47 8c100 0 150 -48.333 150 -145c0 -62 -23 -110.333 -69 -145c-43.333 -33.333 -100.333 -50 -171 -50c-44.667 0 -95 7 -151 21v80c51.333 -11.333 93 -17 125 -17
c87.333 0 131 28 131 84c0 50.667 -32.333 76 -97 76c-12.667 0 -28.334 -4 -47.001 -12v206c-201.333 14.667 -361.666 92.667 -480.999 234c-112 131.333 -168 291 -168 479c0 212 66 383.167 198 513.5s305 195.5 519 195.5c116 0 251.667 -24 407 -72v-321h-123l-30 186
c-3.33301 22 -15 37.667 -35 47c-63.333 30 -133 45 -209 45c-145.333 0 -262 -49 -350 -147c-94 -104 -141 -251 -141 -441s45.833 -338.833 137.5 -446.5s218.5 -161.5 380.5 -161.5c67.333 0 122.666 9 165.999 27c21.333 8.66699 34 22.334 38 41.001l48 223h118v-332z
" />
    <glyph glyph-name="Egrave" unicode="&#xc8;" horiz-adv-x="1198" 
d="M752 1487l-117 -0.000976562l-311 199c-32 20.667 -48 48.334 -48 83.001c0 60.667 31.667 91 95 91c38 0 73.333 -18.667 106 -56zM1130 -0.000976562h-1064v88l108 8c30 2 45 17 45 45v1092c0 28 -15 43 -45 45l-108 8v88h995v-305h-123l-29 168
c-4.66699 26 -17 39 -37 39h-448v-510h311c21.333 0 33.666 11.667 36.999 35l19 141h104v-457h-104l-19 142c-3.33301 24.667 -15.666 37 -36.999 37h-311v-564h522c20 0 32.333 13 37 39l35 203h112v-342z" />
    <glyph glyph-name="Eacute" unicode="&#xc9;" horiz-adv-x="1198" 
d="M963 1774c0 -33.333 -16.667 -60.667 -50 -82l-311 -199h-115l273 317c32 37.333 67.333 56 106 56c64.667 0 97 -30.667 97 -92zM1130 -0.000976562h-1064v88l108 8c30 2 45 17 45 45v1092c0 28 -15 43 -45 45l-108 8v88h995v-305h-123l-29 168
c-4.66699 26 -17 39 -37 39h-448v-510h311c21.333 0 33.666 11.667 36.999 35l19 141h104v-457h-104l-19 142c-3.33301 24.667 -15.666 37 -36.999 37h-311v-564h522c20 0 32.333 13 37 39l35 203h112v-342z" />
    <glyph glyph-name="Ecircumflex" unicode="&#xca;" horiz-adv-x="1198" 
d="M948 1487h-123l-211 205l-211 -205h-122l258 348h153zM1130 0h-1064v88l108 8c30 2 45 17 45 45v1092c0 28 -15 43 -45 45l-108 8v88h995v-305h-123l-29 168c-4.66699 26 -17 39 -37 39h-448v-510h311c21.333 0 33.666 11.667 36.999 35l19 141h104v-457h-104l-19 142
c-3.33301 24.667 -15.666 37 -36.999 37h-311v-564h522c20 0 32.333 13 37 39l35 203h112v-342z" />
    <glyph glyph-name="Edieresis" unicode="&#xcb;" horiz-adv-x="1198" 
d="M952 1665c0 -31.333 -10.667 -58.333 -32 -81s-47.333 -34 -78 -34s-57.167 11.5 -79.5 34.5s-33.5 49.833 -33.5 80.5c0 28.667 11.667 54.667 35 78s49.333 35 78 35c30.667 0 56.667 -11.167 78 -33.5s32 -48.833 32 -79.5zM528 1665c0 -30.667 -11 -57.5 -33 -80.5
s-48.333 -34.5 -79 -34.5c-29.333 0 -55.166 11.333 -77.499 34s-33.5 49 -33.5 79s11.167 56.667 33.5 80s48.166 35 77.499 35c30.667 0 57 -11.167 79 -33.5s33 -48.833 33 -79.5zM1130 0h-1064v88l108 8c30 2 45 17 45 45v1092c0 28 -15 43 -45 45l-108 8v88h995v-305
h-123l-29 168c-4.66699 26 -17 39 -37 39h-448v-510h311c21.333 0 33.666 11.667 36.999 35l19 141h104v-457h-104l-19 142c-3.33301 24.667 -15.666 37 -36.999 37h-311v-564h522c20 0 32.333 13 37 39l35 203h112v-342z" />
    <glyph glyph-name="Igrave" unicode="&#xcc;" horiz-adv-x="676" 
d="M473 1487h-117l-311 199c-31.333 20 -47 47.667 -47 83c0 60.667 31.333 91 94 91c39.333 0 75 -18.667 107 -56zM608 0h-540v88l125 8c28.667 2 43 17 43 45v1092c0 26.667 -14.333 41 -43 43l-125 8v90h540v-90l-123 -8c-30 -2 -45 -16.333 -45 -43v-1092
c0 -28 15 -43 45 -45l123 -8v-88z" />
    <glyph glyph-name="Iacute" unicode="&#xcd;" horiz-adv-x="676" 
d="M662 1769c0 -34.667 -16 -62.333 -48 -83l-311 -199h-117l275 317c32.667 37.333 68 56 106 56c63.333 0 95 -30.333 95 -91zM608 0.000976562h-540v88l122 8c28.667 2 43 17 43 45v1092c0 26.667 -14.333 41 -43 43l-122 8v90h540v-90l-125 -8
c-28.667 -2 -43 -16.333 -43 -43v-1092c0 -28 14.333 -43 43 -45l125 -8v-88z" />
    <glyph glyph-name="Icircumflex" unicode="&#xce;" horiz-adv-x="676" 
d="M672 1487h-123l-211 205l-211 -205h-125l258 348h156zM608 0h-540v88l125 8c28.667 2 43 17 43 45v1092c0 26.667 -14.333 41 -43 43l-125 8v90h540v-90l-123 -8c-30 -2 -45 -16.333 -45 -43v-1092c0 -28 15 -43 45 -45l123 -8v-88z" />
    <glyph glyph-name="Idieresis" unicode="&#xcf;" horiz-adv-x="676" 
d="M662 1665c0 -30.667 -10.833 -57.5 -32.5 -80.5s-47.834 -34.5 -78.501 -34.5s-57.167 11.5 -79.5 34.5s-33.5 49.833 -33.5 80.5c0 28.667 11.333 54.667 34 78s48.334 35 77.001 35c30.667 0 57.167 -11.167 79.5 -33.5s33.5 -48.833 33.5 -79.5zM238 1665
c0 -30.667 -11.167 -57.5 -33.5 -80.5s-48.833 -34.5 -79.5 -34.5c-29.333 0 -55.166 11.333 -77.499 34s-33.5 49 -33.5 79s11.167 56.667 33.5 80s48.166 35 77.499 35c30.667 0 57.167 -11.167 79.5 -33.5s33.5 -48.833 33.5 -79.5zM608 0h-540v88l125 8
c28.667 2 43 17 43 45v1092c0 26.667 -14.333 41 -43 43l-125 8v90h540v-90l-123 -8c-30 -2 -45 -16.333 -45 -43v-1092c0 -28 15 -43 45 -45l123 -8v-88z" />
    <glyph glyph-name="Eth" unicode="&#xd0;" horiz-adv-x="1432" 
d="M1346 686c0 -202.667 -59.333 -365.667 -178 -489c-126.667 -131.333 -303.667 -197 -531 -197h-571v88l108 8c28.667 2 43 17 43 45v527h-186v104h186v461c0 26 -14.333 40.333 -43 43l-108 10v88h526c224.667 0 402.667 -53.333 534 -160
c146.667 -118.667 220 -294.667 220 -528zM1114 686c0 393.333 -177.333 590 -532 590h-158v-504h328v-104h-328v-570h160c353.333 0 530 196 530 588z" />
    <glyph glyph-name="Ntilde" unicode="&#xd1;" horiz-adv-x="1466" 
d="M1114 1776c-38 -150.667 -116.331 -226.001 -234.998 -226.001c-34 0 -78.333 16.5 -133 49.5s-105.334 49.5 -152.001 49.5c-26.667 0 -50.334 -10.167 -71.001 -30.5s-32.667 -43.166 -36 -68.499h-81c38 150.667 116.333 226 235 226c34 0 78.333 -16.5 133 -49.5
s105.334 -49.5 152.001 -49.5c26.667 0 50.167 10 70.5 30s32.166 43 35.499 69h82zM1419 1286l-114 -8c-28.667 -2 -43 -17 -43 -45v-1233h-160l-762 1147v-1006c0 -28 14.333 -43 43 -45l117 -8v-88h-443v88l117 8c30 2 45 17 45 45v1092c0 28 -15 43 -45 45l-121 8v88
h406v-51l682 -1030v940c0 28 -14.333 43 -43 45l-117 8v88h438v-88z" />
    <glyph glyph-name="Ograve" unicode="&#xd2;" horiz-adv-x="1507" 
d="M862 1487h-117l-311 199c-31.333 20 -47 47.667 -47 83c0 60.667 31.333 91 94 91c39.333 0 75 -18.667 107 -56zM1423 686c0 -202.667 -60.999 -372 -182.999 -508c-126 -140.667 -287.333 -211 -484 -211c-198.667 0 -360.667 68.667 -486 206
c-122.667 135.333 -184 307 -184 515c0 204.667 60.333 374.667 181 510c125.333 140.667 287.666 211 486.999 211c198.667 0 361 -71 487 -213c121.333 -136.667 182 -306.667 182 -510zM1186 684c0 176 -35.668 319 -107.001 429c-78 119.333 -185.667 179 -323 179
c-141.333 0 -250.666 -60 -327.999 -180c-70.667 -108.667 -106 -250 -106 -424c0 -174.667 35.333 -317 106 -427c77.333 -120.667 185.333 -181 324 -181c140.667 0 250 60.333 328 181c70.667 109.333 106 250.333 106 423z" />
    <glyph glyph-name="Oacute" unicode="&#xd3;" horiz-adv-x="1507" 
d="M1112 1769c0 -35.333 -15.667 -63 -47 -83l-311 -199h-117l274 317c32 37.333 67.667 56 107 56c62.667 0 94 -30.333 94 -91zM1423 686c0 -202.667 -60.999 -372 -182.999 -508c-126 -140.667 -287.333 -211 -484 -211c-198.667 0 -360.667 68.667 -486 206
c-122.667 135.333 -184 307 -184 515c0 204.667 60.333 374.667 181 510c125.333 140.667 287.666 211 486.999 211c198.667 0 361 -71 487 -213c121.333 -136.667 182 -306.667 182 -510zM1186 684c0 176 -35.668 319 -107.001 429c-78 119.333 -185.667 179 -323 179
c-141.333 0 -250.666 -60 -327.999 -180c-70.667 -108.667 -106 -250 -106 -424c0 -174.667 35.333 -317 106 -427c77.333 -120.667 185.333 -181 324 -181c140.667 0 250 60.333 328 181c70.667 109.333 106 250.333 106 423z" />
    <glyph glyph-name="Ocircumflex" unicode="&#xd4;" horiz-adv-x="1507" 
d="M1087 1487h-122l-211 205l-211 -205h-123l256 348h153zM1423 686c0 -202.667 -60.999 -372 -182.999 -508c-126 -140.667 -287.333 -211 -484 -211c-198.667 0 -360.667 68.667 -486 206c-122.667 135.333 -184 307 -184 515c0 204.667 60.333 374.667 181 510
c125.333 140.667 287.666 211 486.999 211c198.667 0 361 -71 487 -213c121.333 -136.667 182 -306.667 182 -510zM1186 684c0 176 -35.668 319 -107.001 429c-78 119.333 -185.667 179 -323 179c-141.333 0 -250.666 -60 -327.999 -180
c-70.667 -108.667 -106 -250 -106 -424c0 -174.667 35.333 -317 106 -427c77.333 -120.667 185.333 -181 324 -181c140.667 0 250 60.333 328 181c70.667 109.333 106 250.333 106 423z" />
    <glyph glyph-name="Otilde" unicode="&#xd5;" horiz-adv-x="1507" 
d="M1106 1776c-38 -150.667 -117.332 -226 -237.999 -226c-34 0 -78.167 16.5 -132.5 49.5s-104.833 49.5 -151.5 49.5c-26.667 0 -50.334 -10.167 -71.001 -30.5s-32.667 -43.166 -36 -68.499h-82c38 150.667 117.333 226 238 226c34 0 77.833 -16.5 131.5 -49.5
s103.834 -49.5 150.501 -49.5c26.667 0 50.667 10.167 72 30.5s33.666 43.166 36.999 68.499h82zM1425 686c0 -202.667 -61 -372 -183 -508c-126 -140.667 -287.333 -211 -484 -211c-198.667 0 -361 68.667 -487 206c-123.333 135.333 -185 307 -185 515
c0 204.667 60.667 374.667 182 510c126 140.667 288.667 211 488 211c198.667 0 361 -71 487 -213c121.333 -136.667 182 -306.667 182 -510zM1188 684c0 176 -35.668 319 -107.001 429c-78 119.333 -185.667 179 -323 179c-141.333 0 -250.666 -60 -327.999 -180
c-70.667 -108.667 -106 -250 -106 -424c0 -174.667 35.333 -317 106 -427c77.333 -120.667 185.333 -181 324 -181c140.667 0 250 60.333 328 181c70.667 109.333 106 250.333 106 423z" />
    <glyph glyph-name="Odieresis" unicode="&#xd6;" horiz-adv-x="1507" 
d="M1075 1665c0 -31.333 -10.668 -58.333 -32.001 -81s-47.333 -34 -78 -34s-57.167 11.5 -79.5 34.5s-33.5 49.833 -33.5 80.5c0 28.667 11.333 54.667 34 78s48.334 35 77.001 35c30.667 0 57 -11.167 79 -33.5s33 -48.833 33 -79.5zM650.999 1665
c0 -30.667 -11 -57.5 -33 -80.5s-48.333 -34.5 -79 -34.5c-29.333 0 -55.166 11.333 -77.499 34s-33.5 49 -33.5 79s11.167 56.667 33.5 80s48.166 35 77.499 35c30.667 0 57 -11.167 79 -33.5s33 -48.833 33 -79.5zM1425 686c0 -202.667 -61 -372 -183 -508
c-126 -140.667 -287.333 -211 -484 -211c-198.667 0 -361 68.667 -487 206c-123.333 135.333 -185 307 -185 515c0 204.667 60.667 374.667 182 510c126 140.667 288.667 211 488 211c198.667 0 361 -71 487 -213c121.333 -136.667 182 -306.667 182 -510zM1188 684
c0 176 -35.668 319 -107.001 429c-78 119.333 -185.667 179 -323 179c-141.333 0 -250.666 -60 -327.999 -180c-70.667 -108.667 -106 -250 -106 -424c0 -174.667 35.333 -317 106 -427c77.333 -120.667 185.333 -181 324 -181c140.667 0 250 60.333 328 181
c70.667 109.333 106 250.333 106 423z" />
    <glyph glyph-name="multiply" unicode="&#xd7;" horiz-adv-x="1706" 
d="M1417 139l-92 -92l-471 473l-473 -473l-90 92l471 471l-471 473l90 93l473 -474l471 474l92 -93l-473 -473z" />
    <glyph glyph-name="Oslash" unicode="&#xd8;" horiz-adv-x="1507" 
d="M1423 686c0 -202.667 -60.999 -372 -182.999 -508c-126 -140.667 -287.333 -211 -484 -211c-123.333 0 -233.333 27.333 -330 82l-127 -211l-94 58l129 217c-165.333 137.333 -248 329 -248 575c0 204.667 60.333 374.667 181 510
c125.333 140.667 287.666 211 486.999 211c110 0 212.333 -24.667 307 -74l117 197l96 -57l-119 -199c178.667 -138 268 -334.667 268 -590zM1186 684c0 183.333 -39.667 331.333 -119 444l-567 -954c69.333 -62.667 153.333 -94 252 -94c140.667 0 250 60.333 328 181
c70.667 109.333 106 250.333 106 423zM987.001 1214c-64.667 52 -141.668 78 -231.001 78c-141.333 0 -250.666 -60 -327.999 -180c-70.667 -108.667 -106 -250 -106 -424c0 -173.333 34 -314 102 -422z" />
    <glyph glyph-name="Ugrave" unicode="&#xd9;" horiz-adv-x="1440" 
d="M866 1487h-116l-312 199c-31.333 20 -47 47.667 -47 83c0 60.667 31.333 91 94 91c39.333 0 75 -18.667 107 -56zM1397 1286l-117 -8c-28.667 -2 -43 -17 -43 -45v-778c0 -320 -176 -480 -528 -480c-340 0 -510 160 -510 480v778c0 28 -14.333 43 -43 45l-109 8v88h531
v-88l-117 -8c-28.667 -2 -43 -17 -43 -45v-725c0 -131.333 22.333 -227 67 -287c54 -72 147.667 -108 281 -108c132 0 225.667 37.333 281 112c46 62 69 156.333 69 283v725c0 28 -15 43 -45 45l-117 8v88h443v-88z" />
    <glyph glyph-name="Uacute" unicode="&#xda;" horiz-adv-x="1442" 
d="M1114 1769c0 -35.333 -15.667 -63 -47 -83l-311 -199h-117l272 317c32 37.333 68.333 56 109 56c62.667 0 94 -30.333 94 -91zM1397 1286l-117 -8c-28.667 -2 -43 -17 -43 -45v-778c0 -320 -176 -480 -528 -480c-340 0 -510 160 -510 480v778c0 28 -14.333 43 -43 45
l-109 8v88h531v-88l-117 -8c-28.667 -2 -43 -17 -43 -45v-725c0 -131.333 22.333 -227 67 -287c54 -72 147.667 -108 281 -108c132 0 225.667 37.333 281 112c46 62 69 156.333 69 283v725c0 28 -15 43 -45 45l-117 8v88h443v-88z" />
    <glyph glyph-name="Ucircumflex" unicode="&#xdb;" horiz-adv-x="1442" 
d="M1090 1487h-123l-213 205l-211 -205h-123l258 348h153zM1397 1286l-117 -8c-28.667 -2 -43 -17 -43 -45v-778c0 -320 -176 -480 -528 -480c-340 0 -510 160 -510 480v778c0 28 -14.333 43 -43 45l-109 8v88h531v-88l-117 -8c-28.667 -2 -43 -17 -43 -45v-725
c0 -131.333 22.333 -227 67 -287c54 -72 147.667 -108 281 -108c132 0 225.667 37.333 281 112c46 62 69 156.333 69 283v725c0 28 -15 43 -45 45l-117 8v88h443v-88z" />
    <glyph glyph-name="Udieresis" unicode="&#xdc;" horiz-adv-x="1442" 
d="M1085 1665c0 -31.333 -10.668 -58.333 -32.001 -81s-47.333 -34 -78 -34s-57.167 11.5 -79.5 34.5s-33.5 49.833 -33.5 80.5c0 28.667 11.333 54.667 34 78s48.334 35 77.001 35c30.667 0 57 -11.167 79 -33.5s33 -48.833 33 -79.5zM661.999 1665
c0 -30.667 -11.167 -57.5 -33.5 -80.5s-48.833 -34.5 -79.5 -34.5c-29.333 0 -55.166 11.333 -77.499 34s-33.5 49 -33.5 79s11.167 56.667 33.5 80s48.166 35 77.499 35c30.667 0 57.167 -11.167 79.5 -33.5s33.5 -48.833 33.5 -79.5zM1399 1286l-114.999 -8
c-30 -2 -45 -17 -45 -45v-778c0 -320 -175.333 -480 -526 -480c-340 0 -510 160 -510 480v778c0 28 -14.333 43 -43 45l-111 8v88h531v-88l-115 -8c-30 -2 -45 -17 -45 -45l2 -725c0 -131.333 22 -227 66 -287c53.333 -72 146.666 -108 279.999 -108
c132 0 226 37.333 282 112c46.667 62.667 70 157 70 283v725c0 28 -15 43 -45 45l-117 8v88h441v-88z" />
    <glyph glyph-name="Yacute" unicode="&#xdd;" horiz-adv-x="1280" 
d="M975 1769c0 -35.333 -15.667 -63 -47 -83l-312 -199h-116l272 317c32 37.333 68.333 56 109 56c62.667 0 94 -30.333 94 -91zM1260 1288l-111 -20.001l-412 -684v-443c0 -28 14.333 -43 43 -45l131 -8v-88h-551v88l127 8c30 2 45 17 45 45v412l-393 711l-119 24v86h486
v-86l-103 -10c-29.333 -2.66699 -37.333 -16.334 -24 -41.001l287 -537l317 531c2.66699 4.66699 4 9.33398 4 14.001c0 16.667 -9.66699 26.334 -29 29.001l-114 14v86h416v-86z" />
    <glyph glyph-name="Thorn" unicode="&#xde;" horiz-adv-x="1157" 
d="M1110 709c0 -139.333 -50.001 -248.334 -150.001 -327.001c-96 -75.333 -224.333 -112.666 -385 -111.999c-35.333 0 -84.333 3.66699 -147 11v-140c0 -28 15 -43 45 -45l119 -8v-88h-520v88l106 8c30 2 45 17 45 45v1092c0 28 -15 43 -45 45l-106 8v88h520v-88l-119 -8
c-30 -2 -45 -17 -45 -45v-115l141 -2c188.667 -2.66699 325.334 -35 410.001 -97c87.333 -64 131 -167.333 131 -310zM896.999 708.999c0 216.667 -123.668 320.333 -371.001 311c-4 2.66699 -36.667 1.33398 -98 -3.99902v-633
c26.667 -2.66699 66.334 -5.33398 119.001 -8.00098c233.333 -2 350 109.333 350 334z" />
    <glyph glyph-name="germandbls" unicode="&#xdf;" horiz-adv-x="1264" 
d="M1210 305c0 -97.333 -35.002 -175.667 -105.002 -235c-66.667 -56 -150.334 -84 -251.001 -84c-58 0 -138.667 13.667 -242 41v274h111l18 -178c30 -27.333 71 -41 123 -41c50 0 91.167 15.833 123.5 47.5s48.5 70.5 48.5 116.5c0 76 -74.333 155 -223 237
c-78 43.333 -132.667 83.333 -164 120c-34 39.333 -51 85.333 -51 138c0 72 23.333 133.333 70 184c44.667 48.667 103.334 81 176.001 97c13.333 64 20 113 20 147c0 67.333 -17 124 -51 170c-37.333 52 -89.333 78 -156 78c-110.667 0 -189.667 -60 -237 -180
c-31.333 -78.667 -47 -175 -47 -289v-813c0 -31.333 10 -47.666 30 -48.999l105 -8v-78h-469v78l98 10c27.333 2.66699 41 17.667 41 45v795c0 158 41 292 123 402c94 126.667 225 190 393 190c114.667 0 203.667 -32.667 267 -98c60 -62 90 -146.333 90 -253
c0 -32 -11 -103 -33 -213c0.666992 0 -4.16602 0.833008 -14.499 2.5s-21.166 2.5 -32.499 2.5c-126 0 -189 -52 -189 -156c0 -68 74 -141 222 -219c137.333 -72.667 206 -166.334 206 -281.001z" />
    <glyph glyph-name="agrave" unicode="&#xe0;" horiz-adv-x="1049" 
d="M659 1128h-115.999l-312 199c-31.333 20 -47 47.333 -47 82c0 61.333 31.667 92 95 92c39.333 0 74.666 -18.333 105.999 -55zM1024 0l-306.997 0.000976562l-27 121c-126.667 -91.333 -239.334 -137 -338.001 -137c-76.667 0 -139.334 23 -188.001 69
c-52 49.333 -78 115.666 -78 198.999c0 85.333 33.667 152 101 200c86 61.333 253.667 119 503 173v88c0 134.667 -62 202 -186 202c-54 0 -102.667 -8.66699 -146 -26v-178h-149c-50.667 0 -76 19.667 -76 59c0 78 45.667 139 137 183c79.333 38 175.666 57 288.999 57
c216 0 324 -101.667 324 -305v-574c0 -28 14.333 -43 43 -45l98 -6v-80zM690.004 193.001v354c-167.333 -42 -280.333 -87.667 -339 -137c-41.333 -36 -62 -84 -62 -144c0 -44.667 13.333 -82 40 -112c28 -33.333 65.667 -50 113 -50c67.333 0 150 29.667 248 89z" />
    <glyph glyph-name="aacute" unicode="&#xe1;" horiz-adv-x="1049" 
d="M877 1409c0 -34 -16 -61.333 -48 -82l-311 -199h-117l275 318c32 36.667 67.333 55 106 55c63.333 0 95 -30.667 95 -92zM1024 0l-306.997 0.000976562l-27 121c-126.667 -91.333 -239.334 -137 -338.001 -137c-76.667 0 -139.334 23 -188.001 69
c-52 49.333 -78 115.666 -78 198.999c0 85.333 33.667 152 101 200c86 61.333 253.667 119 503 173v88c0 134.667 -62 202 -186 202c-54 0 -102.667 -8.66699 -146 -26v-178h-149c-50.667 0 -76 19.667 -76 59c0 78 45.667 139 137 183c79.333 38 175.666 57 288.999 57
c216 0 324 -101.667 324 -305v-574c0 -28 14.333 -43 43 -45l98 -6v-80zM690.003 193.001v354c-167.333 -42 -280.333 -87.667 -339 -137c-41.333 -36 -62 -84 -62 -144c0 -44.667 13.333 -82 40 -112c28 -33.333 65.667 -50 113 -50c67.333 0 150 29.667 248 89z" />
    <glyph glyph-name="acircumflex" unicode="&#xe2;" horiz-adv-x="1049" 
d="M844 1128h-123l-211 203l-211 -203h-125l258 347h156zM1024 0l-306.997 0.000976562l-27 121c-126.667 -91.333 -239.334 -137 -338.001 -137c-76.667 0 -139.334 23 -188.001 69c-52 49.333 -78 115.666 -78 198.999c0 85.333 33.667 152 101 200
c86 61.333 253.667 119 503 173v88c0 134.667 -62 202 -186 202c-54 0 -102.667 -8.66699 -146 -26v-178h-149c-50.667 0 -76 19.667 -76 59c0 78 45.667 139 137 183c79.333 38 175.666 57 288.999 57c216 0 324 -101.667 324 -305v-574c0 -28 14.333 -43 43 -45l98 -6v-80
zM690.003 193.001v354c-167.333 -42 -280.333 -87.667 -339 -137c-41.333 -36 -62 -84 -62 -144c0 -44.667 13.333 -82 40 -112c28 -33.333 65.667 -50 113 -50c67.333 0 150 29.667 248 89z" />
    <glyph glyph-name="atilde" unicode="&#xe3;" horiz-adv-x="1049" 
d="M881 1423c-38 -150 -117.333 -225 -238 -225c-34 0 -78.333 16.333 -133 49s-105.334 49 -152.001 49c-26.667 0 -50.167 -10 -70.5 -30s-32.166 -42.667 -35.499 -68h-82c38 150 117.333 225 238 225c34 0 77.833 -16.333 131.5 -49s103.834 -49 150.501 -49
c26.667 0 50.667 10 72 30s33.666 42.667 36.999 68h82zM1024 0l-306.997 0.000976562l-27 121c-126.667 -91.333 -239.334 -137 -338.001 -137c-76.667 0 -139.334 23 -188.001 69c-52 49.333 -78 115.666 -78 198.999c0 85.333 33.667 152 101 200
c86 61.333 253.667 119 503 173v88c0 134.667 -62 202 -186 202c-54 0 -102.667 -8.66699 -146 -26v-178h-149c-50.667 0 -76 19.667 -76 59c0 78 45.667 139 137 183c79.333 38 175.666 57 288.999 57c216 0 324 -101.667 324 -305v-574c0 -28 14.333 -43 43 -45l98 -6v-80
zM690.003 193.001v354c-167.333 -42 -280.333 -87.667 -339 -137c-41.333 -36 -62 -84 -62 -144c0 -44.667 13.333 -82 40 -112c28 -33.333 65.667 -50 113 -50c67.333 0 150 29.667 248 89z" />
    <glyph glyph-name="adieresis" unicode="&#xe4;" horiz-adv-x="1049" 
d="M856 1313c0 -30.667 -11.167 -57.5 -33.5 -80.5s-48.833 -34.5 -79.5 -34.5s-56.667 11.333 -78 34s-32 49.667 -32 81c0 28.667 11.167 54.5 33.5 77.5s47.833 34.5 76.5 34.5c30.667 0 57.167 -11 79.5 -33s33.5 -48.333 33.5 -79zM430 1313
c0 -30.667 -11.1689 -57.5 -33.502 -80.5s-48.833 -34.5 -79.5 -34.5c-29.333 0 -54.666 11.333 -75.999 34s-32 49 -32 79s11 56.5 33 79.5s47.667 34.5 77 34.5c30.667 0 56.834 -11 78.501 -33s32.5 -48.333 32.5 -79zM1024 0l-306.997 0.000976562l-27 121
c-126.667 -91.333 -239.334 -137 -338.001 -137c-76.667 0 -139.334 23 -188.001 69c-52 49.333 -78 115.666 -78 198.999c0 85.333 33.667 152 101 200c86 61.333 253.667 119 503 173v88c0 134.667 -62 202 -186 202c-54 0 -102.667 -8.66699 -146 -26v-178h-149
c-50.667 0 -76 19.667 -76 59c0 78 45.667 139 137 183c79.333 38 175.666 57 288.999 57c216 0 324 -101.667 324 -305v-574c0 -28 14.333 -43 43 -45l98 -6v-80zM690.001 193.001v354c-167.333 -42 -280.333 -87.667 -339 -137c-41.333 -36 -62 -84 -62 -144
c0 -44.667 13.333 -82 40 -112c28 -33.333 65.667 -50 113 -50c67.333 0 150 29.667 248 89z" />
    <glyph glyph-name="aring" unicode="&#xe5;" horiz-adv-x="1049" 
d="M782 1372c0 -67.333 -23.667 -124.833 -71 -172.5s-104.666 -71.5 -171.999 -71.5s-124.833 23.833 -172.5 71.5s-71.5 105.167 -71.5 172.5s23.833 124.833 71.5 172.5s105.167 71.5 172.5 71.5s124.666 -23.833 171.999 -71.5s71 -105.167 71 -172.5zM1024 0
l-306.997 0.000976562l-27 121c-126.667 -91.333 -239.334 -137 -338.001 -137c-76.667 0 -139.334 23 -188.001 69c-52 49.333 -78 115.666 -78 198.999c0 85.333 33.667 152 101 200c86 61.333 253.667 119 503 173v88c0 134.667 -62 202 -186 202
c-54 0 -102.667 -8.66699 -146 -26v-178h-149c-50.667 0 -76 19.667 -76 59c0 78 45.667 139 137 183c79.333 38 175.666 57 288.999 57c216 0 324 -101.667 324 -305v-574c0 -28 14.333 -43 43 -45l98 -6v-80zM682.003 1372c0 40 -13.833 74 -41.5 102s-61.5 42 -101.5 42
s-74 -14 -102 -42s-42 -62 -42 -102s14 -73.833 42 -101.5s62 -41.5 102 -41.5s73.833 13.833 101.5 41.5s41.5 61.5 41.5 101.5zM690.003 193.001v354c-167.333 -42 -280.333 -87.667 -339 -137c-41.333 -36 -62 -84 -62 -144c0 -44.667 13.333 -82 40 -112
c28 -33.333 65.667 -50 113 -50c67.333 0 150 29.667 248 89z" />
    <glyph glyph-name="ae" unicode="&#xe6;" horiz-adv-x="1507" 
d="M1423 102c-108.667 -78.667 -221.999 -118.001 -339.999 -118.001c-147.333 0 -271.333 49 -372 147c-129.333 -98 -249.666 -147 -360.999 -147c-84 0 -149.667 24.333 -197 73c-44.667 46.667 -67 109 -67 187c0 102 44.667 179.333 134 232
c70 41.333 218.667 91 446 149v84c0 137.333 -61 206 -183 206c-42.667 0 -85.667 -8.66699 -129 -26v-178h-143c-52 0 -78 19.667 -78 59c0 78 43.667 139 131 183c75.333 38 165.666 57 270.999 57c127.333 0 218 -39.667 272 -119c66.667 79.333 158.667 119 276 119
c114.667 0 201.667 -41.667 261 -125c52.667 -73.333 79 -169.666 79 -288.999c0 -14 -1.33301 -38 -4 -72h-573v-272c87.333 -87.333 188.333 -131 303 -131c99.333 0 190.666 34.667 273.999 104v-123zM1221 611.999v62c0 67.333 -14 123 -42 167
c-31.333 49.333 -75.333 74 -132 74c-70 0 -122.333 -32 -157 -96c-29.333 -53.333 -44 -122.333 -44 -207h375zM666.001 192.999l-0.000976562 354c-147.333 -40 -248.666 -80.667 -303.999 -122c-52.667 -38.667 -79 -89.667 -79 -153c0 -110.667 51.667 -166 155 -166
c59.333 0 135.333 29 228 87z" />
    <glyph glyph-name="ccedilla" unicode="&#xe7;" horiz-adv-x="963" 
d="M891 84c-112.667 -62 -220 -95.332 -322 -99.999v-113c37.333 5.33301 53 8 47 8c100 0 150 -48.333 150 -145c0 -62 -22.667 -110.333 -68 -145c-42.667 -33.333 -99.334 -50 -170.001 -50c-44.667 0 -95.667 7 -153 21v80c51.333 -11.333 93 -17 125 -17
c88.667 0 133 28 133 84c0 50.667 -32.667 76 -98 76c-12.667 0 -28 -4 -46 -12v215c-126 12 -226.333 64 -301 156s-112 207 -112 345c0 164.667 49.333 295 148 391c91.333 88 206.333 132 345 132c93.333 0 169 -17.667 227 -53c60.667 -36.667 91 -87.334 91 -152.001
c0 -38 -11.833 -67.333 -35.5 -88s-52.167 -31 -85.5 -31c-34.667 0 -68.667 11 -102 33v180c-29.333 16.667 -58 25 -86 25c-90 0 -161.333 -38.167 -214 -114.5s-79 -174.833 -79 -295.5c0 -118.667 28.667 -214 86 -286c60.667 -76.667 145.334 -115 254.001 -115
c87.333 0 176 29.333 266 88v-117z" />
    <glyph glyph-name="egrave" unicode="&#xe8;" horiz-adv-x="1014" 
d="M662 1128h-117l-312 199c-31.333 20 -47 47.333 -47 82c0 61.333 31.667 92 95 92c38.667 0 74 -18.333 106 -55zM940 102c-126 -78.667 -255.667 -118 -389 -118c-134 0 -244 40.333 -330 121c-96.667 90 -145 216 -145 378c0 158 45 285.333 135 382
s205.333 145 346 145c123.333 0 219 -39.333 287 -118c64 -74 96 -174 96 -300c0 -26 -0.666992 -45 -2 -57h-664c0 -120.667 24 -217.667 72 -291c58.667 -90 148.667 -135 270 -135c98 0 206 39.333 324 118v-125zM735 627v45c0 71.333 -16 128 -48 170
c-35.333 46 -85.333 69 -150 69c-68.667 0 -126.5 -25.667 -173.5 -77s-73.167 -120.333 -78.5 -207h450z" />
    <glyph glyph-name="eacute" unicode="&#xe9;" horiz-adv-x="1014" 
d="M897 1409c0 -34.667 -15.666 -62 -46.999 -82l-311 -199h-117l272 318c31.333 36.667 67.666 55 108.999 55c62.667 0 94 -30.667 94 -92zM940.001 102c-126 -78.667 -255.667 -118 -389 -118c-134 0 -244 40.333 -330 121c-96.667 90 -145 216 -145 378
c0 158 45 285.333 135 382s205.333 145 346 145c123.333 0 219 -39.333 287 -118c64 -74 96 -174 96 -300c0 -26 -0.666992 -45 -2 -57h-664c0 -120.667 24 -217.667 72 -291c58.667 -90 148.667 -135 270 -135c98 0 206 39.333 324 118v-125zM735.001 627v45
c0 71.333 -16 128 -48 170c-35.333 46 -85.333 69 -150 69c-68.667 0 -126.5 -25.667 -173.5 -77s-73.167 -120.333 -78.5 -207h450z" />
    <glyph glyph-name="ecircumflex" unicode="&#xea;" horiz-adv-x="1014" 
d="M856 1128h-123l-211 203l-211 -203h-123l256 347h154zM940 102c-126 -78.667 -255.667 -118 -389 -118c-134 0 -244 40.333 -330 121c-96.667 90 -145 216 -145 378c0 158 45 285.333 135 382s205.333 145 346 145c123.333 0 219 -39.333 287 -118
c64 -74 96 -174 96 -300c0 -26 -0.666992 -45 -2 -57h-664c0 -120.667 24 -217.667 72 -291c58.667 -90 148.667 -135 270 -135c98 0 206 39.333 324 118v-125zM735 627v45c0 71.333 -16 128 -48 170c-35.333 46 -85.333 69 -150 69c-68.667 0 -126.5 -25.667 -173.5 -77
s-73.167 -120.333 -78.5 -207h450z" />
    <glyph glyph-name="edieresis" unicode="&#xeb;" horiz-adv-x="1014" 
d="M852 1313c0 -30.667 -11.167 -57.5 -33.5 -80.5s-48.833 -34.5 -79.5 -34.5s-57 11.5 -79 34.5s-33 49.833 -33 80.5c0 28.667 11.167 54.5 33.5 77.5s47.833 34.5 76.5 34.5c30.667 0 57.5 -11 80.5 -33s34.5 -48.333 34.5 -79zM426 1313
c0 -30.667 -11.167 -57.5 -33.5 -80.5s-48.833 -34.5 -79.5 -34.5c-29.333 0 -55 11.333 -77 34s-33 49 -33 79s11 56.5 33 79.5s47.667 34.5 77 34.5c30.667 0 57.167 -11 79.5 -33s33.5 -48.333 33.5 -79zM940 102c-126 -78.667 -255.667 -118 -389 -118
c-134 0 -244 40.333 -330 121c-96.667 90 -145 216 -145 378c0 158 45 285.333 135 382s205.333 145 346 145c123.333 0 219 -39.333 287 -118c64 -74 96 -174 96 -300c0 -26 -0.666992 -45 -2 -57h-664c0 -120.667 24 -217.667 72 -291c58.667 -90 148.667 -135 270 -135
c98 0 206 39.333 324 118v-125zM735 627v45c0 71.333 -16 128 -48 170c-35.333 46 -85.333 69 -150 69c-68.667 0 -126.5 -25.667 -173.5 -77s-73.167 -120.333 -78.5 -207h450z" />
    <glyph glyph-name="igrave" unicode="&#xec;" horiz-adv-x="621" 
d="M446 1128h-113.999l-312 199c-32.667 20.667 -49 48 -49 82c0 61.333 32.333 92 97 92c39.333 0 74.666 -18.333 105.999 -55zM551.001 0h-481v80l100 6c28.667 2 43 17 43 45v723h-141v68l250 77h81v-868c0 -28.667 14.333 -43.667 43 -45l105 -6v-80z" />
    <glyph glyph-name="iacute" unicode="&#xed;" horiz-adv-x="621" 
d="M553 1409c0 -34.667 -15.666 -62 -46.999 -82l-311 -199h-117l272 318c31.333 36.667 67.666 55 108.999 55c62.667 0 94 -30.667 94 -92zM551.001 0h-481v80l100 6c28.667 2 43 17 43 45v723h-141v68l250 77h81v-868c0 -28.667 14.333 -43.667 43 -45l105 -6v-80z" />
    <glyph glyph-name="icircumflex" unicode="&#xee;" horiz-adv-x="621" 
d="M643 1128h-123l-213 203l-211 -203h-123l258 347h154zM551 0h-481v80l100 6c28.667 2 43 17 43 45v723h-141v68l250 77h81v-868c0 -28.667 14.333 -43.667 43 -45l105 -6v-80z" />
    <glyph glyph-name="idieresis" unicode="&#xef;" horiz-adv-x="621" 
d="M633 1313c0 -30.667 -11.167 -57.5 -33.5 -80.5s-48.833 -34.5 -79.5 -34.5s-56.667 11.333 -78 34s-32 49.667 -32 81c0 28.667 11.167 54.5 33.5 77.5s47.833 34.5 76.5 34.5c30.667 0 57.167 -11 79.5 -33s33.5 -48.333 33.5 -79zM209 1313
c0 -30.667 -11.167 -57.5 -33.5 -80.5s-48.833 -34.5 -79.5 -34.5c-29.333 0 -55 11.333 -77 34s-33 49 -33 79s11 56.5 33 79.5s47.667 34.5 77 34.5c30.667 0 57.167 -11 79.5 -33s33.5 -48.333 33.5 -79zM551 0h-481v80l100 6c28.667 2 43 17 43 45v723h-141v68l250 77
h81v-868c0 -28.667 14.333 -43.667 43 -45l105 -6v-80z" />
    <glyph glyph-name="eth" unicode="&#xf0;" horiz-adv-x="1102" 
d="M1034 555c0 -174 -45 -313.667 -135 -419c-88.667 -102.667 -204 -154 -346 -154c-144.667 0 -261.334 48 -350.001 144s-133 220.667 -133 374c0 149.333 47.333 270 142 362c92 90 209.667 135 353 135c30.667 0 76.334 -4.66699 137.001 -14
c-17.333 30.667 -48 75.667 -92 135c-37.333 51.333 -59 80 -65 86l-260 -155l-45 81l235 142l-72 82l-172 22v58l252 73l148 -149l223 133l47 -82l-209 -127c228 -260.667 342 -503 342 -727zM836 514c0 157.333 -26.667 279.667 -80 367
c-64.667 17.333 -116.667 26 -156 26c-104.667 0 -184.667 -38.333 -240 -115c-51.333 -72 -77 -170 -77 -294c0 -120 21.333 -217.667 64 -293c48.667 -87.333 119.334 -131 212.001 -131c93.333 0 164.666 46.333 213.999 139c42 78.667 63 179 63 301z" />
    <glyph glyph-name="ntilde" unicode="&#xf1;" horiz-adv-x="1182" 
d="M940 1423c-38 -150 -117.333 -225 -238 -225c-34 0 -77.833 16.333 -131.5 49s-103.834 49 -150.501 49c-26.667 0 -50.667 -10 -72 -30s-33.666 -42.667 -36.999 -68h-82c38 150 117.333 225 238 225c34 0 78.333 -16.333 133 -49s105.334 -49 152.001 -49
c26.667 0 50.167 10 70.5 30s32.166 42.667 35.499 68h82zM1130 0h-452v80l86 6c28.667 2 43 17 43 45v531c0 133.333 -65.667 200 -197 200c-71.333 0 -146.333 -19.667 -225 -59v-672c0 -28 14.333 -43 43 -45l86 -6v-80h-463v80l101 6c28.667 2 43 17 43 45v723h-144v68
l250 77h84v-114c146 83.333 258.667 125 338 125c182.667 0 274 -104.667 274 -314v-565c0 -28 14.333 -43 43 -45l90 -6v-80z" />
    <glyph glyph-name="ograve" unicode="&#xf2;" horiz-adv-x="1135" 
d="M682 1128h-117l-311 199c-31.333 20 -47 47.333 -47 82c0 61.333 31.333 92 94 92c40 0 75.667 -18.333 107 -55zM1051 494c0 -148 -44.334 -269.333 -133.001 -364c-90.667 -97.333 -209.667 -146 -357 -146s-265.666 48 -354.999 144c-86.667 94 -130 216 -130 366
s43.667 272.667 131 368c90 98.667 209.333 148 358 148s267.667 -50 357 -150c86 -95.333 129 -217.333 129 -366zM837.999 496c0 119.333 -22.665 217.668 -67.998 295.001c-50 84.667 -119 127 -207 127c-90 0 -159 -42.333 -207 -127c-43.333 -76 -65 -174.333 -65 -295
c0 -118.667 22.333 -216.334 67 -293.001c49.333 -84.667 117.666 -127 204.999 -127c89.333 0 158.666 42 207.999 126c44.667 76 67 174 67 294z" />
    <glyph glyph-name="oacute" unicode="&#xf3;" horiz-adv-x="1135" 
d="M932 1409c0 -34.667 -15.666 -62 -46.999 -82l-312 -199h-116l272 318c31.333 36.667 67.666 55 108.999 55c62.667 0 94 -30.667 94 -92zM1051 494c0 -148 -44.334 -269.333 -133.001 -364c-90.667 -97.333 -209.667 -146 -357 -146s-265.666 48 -354.999 144
c-86.667 94 -130 216 -130 366s43.667 272.667 131 368c90 98.667 209.333 148 358 148s267.667 -50 357 -150c86 -95.333 129 -217.333 129 -366zM838 496c0 119.333 -22.665 217.668 -67.998 295.001c-50 84.667 -119 127 -207 127c-90 0 -159 -42.333 -207 -127
c-43.333 -76 -65 -174.333 -65 -295c0 -118.667 22.333 -216.334 67 -293.001c49.333 -84.667 117.666 -127 204.999 -127c89.333 0 158.666 42 207.999 126c44.667 76 67 174 67 294z" />
    <glyph glyph-name="ocircumflex" unicode="&#xf4;" horiz-adv-x="1135" 
d="M899 1128h-123l-211 203l-213 -203h-123l258 347h154zM1051 494c0 -148 -44.3359 -269.333 -133.003 -364c-90.667 -97.333 -209.667 -146 -357 -146s-265.666 48 -354.999 144c-86.667 94 -130 216 -130 366c0 149.333 44 272 132 368
c90.667 98.667 210.334 148 359.001 148s267.334 -50 356.001 -150c85.333 -95.333 128 -217.333 128 -366zM837.997 496c0 119.333 -22.665 217.668 -67.998 295.001c-50 84.667 -119 127 -207 127c-90 0 -159 -42.333 -207 -127c-43.333 -76 -65 -174.333 -65 -295
c0 -118.667 22.333 -216.334 67 -293.001c49.333 -84.667 117.666 -127 204.999 -127c89.333 0 158.666 42 207.999 126c44.667 76 67 174 67 294z" />
    <glyph glyph-name="otilde" unicode="&#xf5;" horiz-adv-x="1135" 
d="M930 1423c-38 -150 -117.334 -225 -238.001 -225c-34 0 -77.833 16.333 -131.5 49s-103.834 49 -150.501 49c-26.667 0 -50.667 -10 -72 -30s-33.666 -42.667 -36.999 -68h-82c38 150 117.333 225 238 225c34 0 78.167 -16.333 132.5 -49s104.833 -49 151.5 -49
c26.667 0 50.334 10 71.001 30s32.667 42.667 36 68h82zM1051 494c0 -148 -44.334 -269.333 -133.001 -364c-90.667 -97.333 -209.667 -146 -357 -146s-265.666 48 -354.999 144c-86.667 94 -130 216 -130 366s43.667 272.667 131 368c90 98.667 209.333 148 358 148
s267.667 -50 357 -150c86 -95.333 129 -217.333 129 -366zM837.998 496c0 119.333 -22.665 217.668 -67.998 295.001c-50 84.667 -119 127 -207 127c-90 0 -159 -42.333 -207 -127c-43.333 -76 -65 -174.333 -65 -295c0 -118.667 22.333 -216.334 67 -293.001
c49.333 -84.667 117.666 -127 204.999 -127c89.333 0 158.666 42 207.999 126c44.667 76 67 174 67 294z" />
    <glyph glyph-name="odieresis" unicode="&#xf6;" horiz-adv-x="1135" 
d="M893 1313c0 -30.667 -11.167 -57.5 -33.5 -80.5s-48.833 -34.5 -79.5 -34.5s-56.667 11.333 -78 34s-32 49.667 -32 81c0 28.667 11.167 54.5 33.5 77.5s47.833 34.5 76.5 34.5c30.667 0 57.167 -11 79.5 -33s33.5 -48.333 33.5 -79zM469 1313
c0 -30.667 -11.167 -57.5 -33.5 -80.5s-48.833 -34.5 -79.5 -34.5c-29.333 0 -55 11.333 -77 34s-33 49 -33 79s11 56.5 33 79.5s47.667 34.5 77 34.5c30.667 0 57.167 -11 79.5 -33s33.5 -48.333 33.5 -79zM1051 494c0 -148 -44.334 -269.333 -133.001 -364
c-90.667 -97.333 -209.667 -146 -357 -146s-265.666 48 -354.999 144c-86.667 94 -130 216 -130 366s43.667 272.667 131 368c90 98.667 209.333 148 358 148s267.667 -50 357 -150c86 -95.333 129 -217.333 129 -366zM837.999 496
c0 119.333 -22.665 217.668 -67.998 295.001c-50 84.667 -119 127 -207 127c-90 0 -159 -42.333 -207 -127c-43.333 -76 -65 -174.333 -65 -295c0 -118.667 22.333 -216.334 67 -293.001c49.333 -84.667 117.666 -127 204.999 -127c89.333 0 158.666 42 207.999 126
c44.667 76 67 174 67 294z" />
    <glyph glyph-name="divide" unicode="&#xf7;" horiz-adv-x="1706" 
d="M977 967c0 -34.667 -12 -63.834 -36 -87.501s-53 -35.5 -87 -35.5s-63.333 11.833 -88 35.5s-37 52.834 -37 87.501c0 34 12.333 63 37 87s54 36 88 36s63 -12 87 -36s36 -53 36 -87zM1452 553h-1198v117h1198v-117zM977 256c0 -33.333 -12 -61.833 -36 -85.5
s-53 -35.5 -87 -35.5s-63.333 11.833 -88 35.5s-37 52.167 -37 85.5c0 34.667 12.333 64.167 37 88.5s54 36.5 88 36.5s63 -12.167 87 -36.5s36 -53.833 36 -88.5z" />
    <glyph glyph-name="oslash" unicode="&#xf8;" horiz-adv-x="1122" 
d="M1051 498c0 -145.333 -43.333 -266.332 -130 -362.999c-90 -100.667 -208 -151 -354 -151c-96 0 -174.333 17.667 -235 53l-117 -205l-72 43l119 207c-124 102.667 -186 240 -186 412c0 148.667 44 271 132 367c90.667 99.333 209.667 149 357 149
c78 0 145.667 -14.333 203 -43l104 182l74 -41l-104 -182c139.333 -102.667 209 -245.334 209 -428.001zM711 864.001c-39.333 34 -89.334 51 -150.001 51c-89.333 0 -158.666 -41.333 -207.999 -124c-44 -74.667 -66 -171.667 -66 -291c0 -118.667 18.333 -211 55 -277z
M837.999 492.001c0 129.333 -23.332 230.333 -69.999 303l-375 -650c43.333 -46 99.333 -69 168 -69c91.333 0 161.666 41.667 210.999 125c44 74.667 66 171.667 66 291z" />
    <glyph glyph-name="ugrave" unicode="&#xf9;" horiz-adv-x="1165" 
d="M729 1128h-116.999l-311 199c-31.333 20 -47 47.333 -47 82c0 61.333 31.333 92 94 92c41.333 0 77.666 -18.333 108.999 -55zM1122 0h-323.001v117c-116 -88.667 -226 -133 -330 -133c-188.667 0 -283 107.667 -283 323v555h-143v70l252 78h84v-664
c0 -148.667 65.333 -223 196 -223c78.667 0 153.334 17.667 224.001 53v686h-144v70l250 78h82v-879c0 -28 15 -43 45 -45l90 -6v-80z" />
    <glyph glyph-name="uacute" unicode="&#xfa;" horiz-adv-x="1165" 
d="M942 1409c0 -35.333 -14.999 -62.667 -44.999 -82l-311 -199h-117l272 318c31.333 36.667 67.666 55 108.999 55c61.333 0 92 -30.667 92 -92zM1122 -0.000976562h-323.001v117c-116 -88.667 -226 -133 -330 -133c-188.667 0 -283 107.667 -283 323v555h-143v70l252 78
h84v-664c0 -148.667 65.333 -223 196 -223c78.667 0 153.334 17.667 224.001 53v686h-144v70l250 78h82v-879c0 -28 15 -43 45 -45l90 -6v-80z" />
    <glyph glyph-name="ucircumflex" unicode="&#xfb;" horiz-adv-x="1165" 
d="M899 1128h-123l-211 203l-213 -203h-123l258 347h154zM1122 0h-323.001v117c-116 -88.667 -226 -133 -330 -133c-188.667 0 -283 107.667 -283 323v555h-143v70l252 78h84v-664c0 -148.667 65.333 -223 196 -223c78.667 0 153.334 17.667 224.001 53v686h-144v70l250 78
h82v-879c0 -28 15 -43 45 -45l90 -6v-80z" />
    <glyph glyph-name="udieresis" unicode="&#xfc;" horiz-adv-x="1165" 
d="M926 1313c0 -30.667 -11.167 -57.5 -33.5 -80.5s-48.833 -34.5 -79.5 -34.5s-56.834 11.5 -78.501 34.5s-32.5 49.833 -32.5 80.5c0 28.667 11.333 54.5 34 77.5s48.334 34.5 77.001 34.5c30.667 0 57.167 -11 79.5 -33s33.5 -48.333 33.5 -79zM502 1313
c0 -30.667 -11.501 -57.5 -34.501 -80.5s-49.833 -34.5 -80.5 -34.5c-29.333 0 -54.666 11.333 -75.999 34s-32 49 -32 79s11 56.5 33 79.5s47.667 34.5 77 34.5c30.667 0 57.167 -11 79.5 -33s33.5 -48.333 33.5 -79zM1122 0h-323.001v117
c-116 -88.667 -226 -133 -330 -133c-188.667 0 -283 107.667 -283 323v555h-143v70l252 78h84v-664c0 -148.667 65.333 -223 196 -223c78.667 0 153.334 17.667 224.001 53v686h-144v70l250 78h82v-879c0 -28 15 -43 45 -45l90 -6v-80z" />
    <glyph glyph-name="yacute" unicode="&#xfd;" horiz-adv-x="1085" 
d="M903 1409c0 -33.333 -16.332 -60.667 -48.999 -82l-309 -199h-117l272 318c31.333 36.667 67.666 55 108.999 55c62.667 0 94 -30.667 94 -92zM1065 908.999l-107 -12.001l-393 -960c-59.333 -144.667 -118 -246 -176 -304c-52.667 -52.667 -112 -79 -178 -79
c-46 0 -83 12 -111 36c-26 22 -39 49.333 -39 82c0 45.333 22 86.333 66 123l192 -88c62 62 116 160.333 162 295l-348 895l-113 12v78h453v-78l-98 -6c-22 -1.33301 -33 -12.333 -33 -33c0 -4 0.666992 -8 2 -12l238 -606l243 606c4 10 3.16699 19.833 -2.5 29.5
s-14.167 14.834 -25.5 15.501l-97 6v78h365v-78z" />
    <glyph glyph-name="thorn" unicode="&#xfe;" horiz-adv-x="1149" 
d="M1087 528c0 -162.667 -46.667 -291.999 -140 -387.999s-220 -144 -380 -144c-46.667 0 -106 5.33301 -178 16v-327c0 -26 14.333 -40.333 43 -43l121 -11v-77h-498v77l101 11c28.667 3.33301 43 17.666 43 42.999v1677h-158v68l266 79h82v-622
c111.333 83.333 214.333 125 309 125c106 0 196 -42 270 -126c79.333 -90.667 119 -210 119 -358zM885 500.001c0 110 -25.668 198.833 -77.001 266.5s-122.666 101.5 -213.999 101.5c-42 0 -87.333 -9.66699 -136 -29l-69 -32v-686c53.333 -19.333 108 -29 164 -29
c106 0 189.333 41.333 250 124c54.667 75.333 82 170 82 284z" />
    <glyph glyph-name="ydieresis" unicode="&#xff;" horiz-adv-x="1085" 
d="M899 1313c0 -30.667 -10.833 -57.5 -32.5 -80.5s-47.834 -34.5 -78.501 -34.5s-57 11.5 -79 34.5s-33 49.833 -33 80.5c0 28.667 11.5 54.5 34.5 77.5s48.833 34.5 77.5 34.5c30.667 0 56.834 -11 78.501 -33s32.5 -48.333 32.5 -79zM475 1313
c0 -30.667 -11.167 -57.5 -33.5 -80.5s-48.833 -34.5 -79.5 -34.5c-29.333 0 -55 11.333 -77 34s-33 49 -33 79s11 56.5 33 79.5s47.667 34.5 77 34.5c30.667 0 57.167 -11 79.5 -33s33.5 -48.333 33.5 -79zM1065 909l-107 -12.001l-393 -960
c-59.333 -144.667 -118 -246 -176 -304c-52.667 -52.667 -112 -79 -178 -79c-46 0 -83 12 -111 36c-26 22 -39 49.333 -39 82c0 45.333 22 86.333 66 123l192 -88c62 62 116 160.333 162 295l-348 895l-113 12v78h453v-78l-98 -6c-22 -1.33301 -33 -12.333 -33 -33
c0 -4 0.666992 -8 2 -12l238 -606l243 606c4 10 3.16699 19.833 -2.5 29.5s-14.167 14.834 -25.5 15.501l-97 6v78h365v-78z" />
    <glyph glyph-name="OE" unicode="&#x152;" horiz-adv-x="2042" 
d="M1985 0h-859.002v242c-36 -72 -87.667 -131.333 -155 -178c-80 -54.667 -171.667 -82 -275 -82c-182.667 0 -331 68.333 -445 205c-110 132.667 -165 299 -165 499c0 196.667 53.333 361 160 493c114.667 142.667 267.667 214 459 214
c201.333 0 341.666 -84.667 420.999 -254v235h787v-305h-121l-29 168c-4.66699 26 -17 39 -37 39h-407v-510h270c20.667 0 32.334 11.667 35.001 35l18 141h105v-457h-105l-18 142c-3.33301 24.667 -15.666 37 -36.999 37h-268v-564h481c18.667 0 30.334 13 35.001 39
l35 203h115v-342zM1130 684c0 172 -35.001 312.668 -105.001 422.001c-73.333 116 -172.666 174 -297.999 174c-132.667 0 -235 -58.667 -307 -176c-65.333 -106.667 -98 -245.334 -98 -416.001c0 -171.333 33.333 -310.333 100 -417c72.667 -116.667 173.667 -175 303 -175
c126 0 225.667 56.333 299 169c70.667 107.333 106 247 106 419z" />
    <glyph glyph-name="oe" unicode="&#x153;" horiz-adv-x="1696" 
d="M1616 592c0 -26 -0.666992 -45 -2 -57h-617c0 -116.667 24.333 -211.667 73 -285c58.667 -87.333 145.667 -131 261 -131c92 0 186.333 36 283 108v-125c-112 -80 -228.667 -120 -350 -120c-152 0 -273 65.333 -363 196c-98.667 -130.667 -218.667 -196 -360 -196
c-142.667 0 -257 50.333 -343 151c-81.333 94.667 -122 215 -122 361c0 147.333 41 269 123 365c86.667 100.667 202 151 346 151c88.667 0 167.334 -20.333 236.001 -61c59.333 -34.667 103.333 -78.667 132 -132c36 59.333 84.667 106.333 146 141s126.666 52 195.999 52
c116 0 206 -39 270 -117c60.667 -74 91 -174.333 91 -301zM1409 627l-0.00292969 45c0 70 -14.667 126.667 -44 170c-31.333 47.333 -74.666 71 -129.999 71c-63.333 0 -115.666 -27.667 -156.999 -83c-39.333 -52 -62.666 -119.667 -69.999 -203h401zM802.997 489
c0 124 -20.667 224.001 -62 300.001c-45.333 82.667 -110 124 -194 124s-149.333 -41.667 -196 -125c-41.333 -74.667 -62 -170.667 -62 -288c0 -120.667 21.333 -219.667 64 -297c47.333 -84.667 112 -127 194 -127c82.667 0 147 41.333 193 124
c42 75.333 63 171.666 63 288.999z" />
    <glyph glyph-name="Scaron" unicode="&#x160;" horiz-adv-x="1145" 
d="M932 1835l-258 -348h-154l-258 348h123l213 -205l211 205h123zM1030 385c0 -114 -42.332 -208.332 -126.999 -282.999c-97.333 -84.667 -236 -127 -416 -127c-136.667 0 -258 22.667 -364 68v363h129l27 -240c5.33301 -16 15.333 -27.667 30 -35
c59.333 -27.333 129.666 -41 210.999 -41c89.333 0 161.833 20.667 217.5 62s83.5 98.666 83.5 171.999c0 74.667 -47.667 143.334 -143 206.001c-41.333 27.333 -113 63 -215 107c-93.333 40 -163 81 -209 123c-72.667 66.667 -109 148.667 -109 246
c0 119.333 45 215.333 135 288c87.333 70 200 105 338 105c112 0 233 -20.667 363 -62v-319h-119l-31 201c-4.66699 10.667 -14 20.667 -28 30c-40 26 -98.667 39 -176 39c-84 0 -150.167 -21.167 -198.5 -63.5s-72.5 -98.833 -72.5 -169.5c0 -108.667 95 -199 285 -271
c133.333 -50.667 229 -103.334 287 -158.001c68 -64 102 -144.333 102 -241z" />
    <glyph glyph-name="scaron" unicode="&#x161;" horiz-adv-x="844" 
d="M776 1475l-258 -347h-153l-256 347h122l211 -203l211 203h123zM762 297c0 -100 -34.499 -177.5 -103.499 -232.5s-164.833 -82.5 -287.5 -82.5c-114.667 0 -209.667 15 -285 45v274h104c1.33301 -6.66699 9.66602 -65.334 24.999 -176.001c47.333 -34 108 -51 182 -51
c56 0 101.333 15.667 136 47c32.667 29.333 49 65.333 49 108c0 50 -20.667 91.667 -62 125c-26 20 -85.333 51.667 -178 95c-83.333 38.667 -143 76 -179 112c-42 42.667 -63 94 -63 154c0 92 32.333 164.5 97 217.5s155.334 79.5 272.001 79.5
c105.333 0 192.666 -15.667 261.999 -47v-242h-106l-19 147c-38 30 -89 45 -153 45c-110.667 0 -166 -45.667 -166 -137c0 -44.667 16 -81.667 48 -111c29.333 -26.667 88.333 -60 177 -100c82 -37.333 141.667 -74 179 -110c47.333 -45.333 71 -98.666 71 -159.999z" />
    <glyph glyph-name="Ydieresis" unicode="&#x178;" horiz-adv-x="1280" 
d="M991 1665c0 -30.667 -11 -57.5 -33 -80.5s-48.333 -34.5 -79 -34.5s-56.834 11.5 -78.501 34.5s-32.5 49.833 -32.5 80.5c0 28.667 11.333 54.667 34 78s48.334 35 77.001 35c30.667 0 57 -11.167 79 -33.5s33 -48.833 33 -79.5zM565 1665
c0 -30.667 -11.001 -57.5 -33.001 -80.5s-48.333 -34.5 -79 -34.5c-29.333 0 -55.166 11.333 -77.499 34s-33.5 49 -33.5 79s11.5 56.667 34.5 80s49.167 35 78.5 35c30.667 0 56.667 -11.167 78 -33.5s32 -48.833 32 -79.5zM1260 1288l-111 -20.001l-412 -684v-443
c0 -28 14.333 -43 43 -45l131 -8v-88h-551v88l127 8c30 2 45 17 45 45v412l-393 711l-119 24v86h486v-86l-103 -10c-29.333 -2.66699 -37.333 -16.334 -24 -41.001l287 -537l317 531c2.66699 4.66699 4 9.33398 4 14.001c0 16.667 -9.66699 26.334 -29 29.001l-114 14v86
h416v-86z" />
    <glyph glyph-name="Zcaron" unicode="&#x17d;" horiz-adv-x="1202" 
d="M981 1835l-256 -348h-156l-256 348h123l211 -205l211 205h123zM1110 0h-1018v90l762 1182h-524c-23.333 0 -37 -11 -41 -33l-33 -192h-121v327h965v-94l-764 -1176h577c22.667 0 35.667 11 39 33l37 242h121v-379z" />
    <glyph glyph-name="zcaron" unicode="&#x17e;" horiz-adv-x="973" 
d="M827 1475l-258 -347h-153l-258 347h123l211 -203l213 203h122zM899 0h-807v109l543 782h-361c-18.667 0 -30 -13.667 -34 -41l-23 -154h-104v291h757v-84l-561 -805h416c23.333 0 37 15 41 45l22 166h111v-309z" />
    <glyph glyph-name="florin" unicode="&#x192;" horiz-adv-x="1153" 
d="M1053 1266c0 -56 -33.666 -99.666 -100.999 -130.999l-178 157c-50 -25.333 -85 -61.333 -105 -108c-24 -55.333 -36 -142 -36 -260v-168h330v-109h-328v-289c0 -255.333 -56.667 -441 -170 -557c-89.333 -91.333 -188.333 -137 -297 -137
c-48.667 0 -86.5 11.667 -113.5 35s-40.5 51.333 -40.5 84c0 51.333 28 95.666 84 132.999l209 -131c92.667 63.333 139 176 139 338v524h-233v109h233c0 222 24.667 368.667 74 440c93.333 135.333 210.666 203 351.999 203c57.333 0 103 -14.333 137 -43
c29.333 -25.333 44 -55.333 44 -90z" />
    <glyph glyph-name="circumflex" unicode="&#x2c6;" horiz-adv-x="670" 
d="M670 1128h-123l-211 203l-213 -203h-123l258 347h154z" />
    <glyph glyph-name="macronmodifier" unicode="&#x2c9;" horiz-adv-x="616" 
d="M616 1198h-616v131h616v-131z" />
    <glyph glyph-name="tilde" unicode="&#x2dc;" horiz-adv-x="711" 
d="M711 1423c-38 -150 -117.333 -225 -238 -225c-34 0 -78.333 16.333 -133 49s-105.334 49 -152.001 49c-26.667 0 -50.167 -10 -70.5 -30s-32.166 -42.667 -35.499 -68h-82c38 150 117.333 225 238 225c34 0 77.833 -16.333 131.5 -49s103.834 -49 150.501 -49
c26.667 0 50.667 10 72 30s33.666 42.667 36.999 68h82z" />
    <glyph glyph-name="dotaccentcomb" unicode="&#x307;" 
d="M245 1640c0 -26 -9.83398 -48.833 -29.501 -68.5s-42.834 -29.5 -69.501 -29.5c-26 0 -48.5 9.66699 -67.5 29s-28.5 42.333 -28.5 69s9.33301 49.5 28 68.5s41.334 28.5 68.001 28.5s49.834 -9.5 69.501 -28.5s29.5 -41.833 29.5 -68.5z" />
    <glyph glyph-name="dieresisnosp" unicode="&#x308;" 
d="M647 1313c0 -31.333 -10.667 -58.333 -32 -81s-47.333 -34 -78 -34s-57.167 11.5 -79.5 34.5s-33.5 49.833 -33.5 80.5c0 28.667 11.667 54.5 35 77.5s49.333 34.5 78 34.5c30.667 0 56.667 -11 78 -33s32 -48.333 32 -79zM223 1313c0 -30.667 -11 -57.5 -33 -80.5
s-48.333 -34.5 -79 -34.5c-29.333 0 -55.166 11.333 -77.499 34s-33.5 49 -33.5 79s11.167 56.5 33.5 79.5s48.166 34.5 77.499 34.5c30.667 0 57 -11 79 -33s33 -48.333 33 -79z" />
    <glyph glyph-name="dotsubcomb" unicode="&#x323;" 
 />
    <glyph glyph-name="combininggraphemejoiner" unicode="&#x34f;" 
 />
    <glyph glyph-name="mu" unicode="&#x3bc;" horiz-adv-x="1137" 
d="M1094 299c0 -51.333 -17.3311 -109.333 -51.998 -174c-52 -96.667 -125.667 -145 -221 -145c-55.333 0 -96.333 23 -123 69c-22 38 -32 86 -30 144c-60.667 -144 -154.334 -216 -281.001 -216c-63.333 0 -115 20.667 -155 62c-37.333 39.333 -59.333 91.333 -66 156
c-4 -20 -28 -170.333 -72 -451c-17.333 -108 -49.333 -162 -96 -162c-56 0 -84 26 -84 78c0 30 4.66699 62 14 96c76 274 164.333 650.333 265 1129h161l-106 -510c-6.66699 -32 -10 -61.333 -10 -88c0 -114.667 51.667 -172 155 -172c127.333 0 208 79 242 237l115 533h163
l-122 -578c-6 -30 -9 -56.667 -9 -80c0 -73.333 29.333 -110 88 -110c44 0 79.667 18.333 107 55c13.333 18 33.666 59.667 60.999 125c10 24.667 21 37 33 37c15.333 0 23 -11.667 23 -35z" />
    <glyph glyph-name="etnahta" unicode="&#x591;" 
d="M401 -607c0 -31.333 -15.667 -47 -47 -47s-47 15.667 -47 47c0 60.667 -3.33301 99 -10 115c-13.333 33.333 -46.333 50 -99 50c-50 0 -81.333 -16.667 -94 -50c-6.66699 -16.667 -10 -55 -10 -115c0 -31.333 -15.667 -47 -47 -47s-47 15.667 -47 47
c0 74 6.66699 128 20 162c21.333 52.667 63.333 83.667 126 93v151c0 31.333 15.667 47 47 47c32 0 48 -15.667 48 -47v-149c68 -8 113.667 -38 137 -90c15.333 -34 23 -89.667 23 -167z" />
    <glyph glyph-name="segolta" unicode="&#x592;" 
d="M352 1950c0 -24.667 -9.16699 -45.834 -27.5 -63.501s-39.833 -26.5 -64.5 -26.5c-25.333 0 -47 8.83301 -65 26.5s-27 38.834 -27 63.501c0 25.333 9 47 27 65s39.667 27 65 27s47 -9 65 -27s27 -39.667 27 -65zM520 1636c0 -24 -9.5 -45.002 -28.5 -63.002
s-40.833 -27 -65.5 -27c-25.333 0 -47 8.83301 -65 26.5s-27 38.834 -27 63.501c0 26 9 48 27 66s39.667 27 65 27s47.333 -9.16699 66 -27.5s28 -40.166 28 -65.499zM185 1638c0 -25.333 -9.16895 -46.998 -27.502 -64.998s-40.166 -27 -65.499 -27s-47 9 -65 27
s-27 39.667 -27 65s9 47.166 27 65.499s39.667 27.5 65 27.5c24.667 0 46.334 -9.33301 65.001 -28s28 -40.334 28 -65.001z" />
    <glyph glyph-name="shalshelet" unicode="&#x593;" 
d="M344 1548h-344l199 166h-199l199 164h-199l301 254h43l-201 -168h201l-197 -166h197l-197 -166h197v-84z" />
    <glyph glyph-name="zaqefkatan" unicode="&#x594;" 
d="M284 1952c0 -26 -9.33301 -48.167 -28 -66.5s-40.667 -27.5 -66 -27.5s-46.666 9.16699 -63.999 27.5s-26 40.5 -26 66.5c0 24.667 8.66699 45.834 26 63.501s38.666 26.5 63.999 26.5s47.333 -8.83301 66 -26.5s28 -38.834 28 -63.501zM284 1638
c0 -25.333 -9.16699 -47 -27.5 -65s-40.5 -27 -66.5 -27c-25.333 0 -46.666 9 -63.999 27s-26 39.667 -26 65s8.66699 46.833 26 64.5s38.666 26.5 63.999 26.5s47.333 -9 66 -27s28 -39.333 28 -64z" />
    <glyph glyph-name="zaqefgadol" unicode="&#x595;" 
d="M397 1952c0 -26 -9.16699 -48.167 -27.5 -66.5s-40.5 -27.5 -66.5 -27.5c-24.667 0 -45.834 9.16699 -63.501 27.5s-26.5 40.5 -26.5 66.5c0 24.667 8.83301 45.834 26.5 63.501s38.834 26.5 63.501 26.5c26 0 48.167 -8.83301 66.5 -26.5s27.5 -38.834 27.5 -63.501z
M397 1638c0 -25.333 -9.16699 -47 -27.5 -65s-40.5 -27 -66.5 -27c-24.667 0 -45.834 9 -63.501 27s-26.5 39.667 -26.5 65c0 24.667 8.83301 46 26.5 64s38.834 27 63.501 27c26 0 48.167 -9 66.5 -27s27.5 -39.333 27.5 -64zM117 1546h-117v496h117v-496z" />
    <glyph glyph-name="tipeha" unicode="&#x596;" 
d="M237 -550c12 -12 18 -25.667 18 -41c0 -37.333 -22.333 -56 -67 -56c-43.333 0 -85 32 -125 96c-42 68 -63 144.667 -63 230v121c0 31.333 15.667 47 47 47s47 -15.667 47 -47v-95c0 -73.333 19 -133 57 -179z" />
    <glyph glyph-name="revia" unicode="&#x597;" 
d="M363 1866l-182 -182l-179 182l179 184z" />
    <glyph glyph-name="zarqa" unicode="&#x598;" 
d="M724 1735c0 -57.333 -22.5 -104.666 -67.5 -141.999s-102.167 -56 -171.5 -56c-50.667 0 -97.334 23 -140.001 69c-2.66699 3.33301 -33.667 46.333 -93 129c-33.333 46 -64.333 69 -93 69c-20.667 0 -38.834 -8.33301 -54.501 -25s-23.5 -36.334 -23.5 -59.001
c0 -26 10.333 -49.333 31 -70c9.33301 -9.33301 14 -20 14 -32c0 -31.333 -16.667 -46.666 -50 -45.999c-23.333 0.666992 -43.333 17.334 -60 50.001c-13.333 27.333 -20 53.666 -20 78.999c0 57.333 22.5 104.666 67.5 141.999s102.167 56 171.5 56
c50.667 0 97.334 -23 140.001 -69c2.66699 -3.33301 33.667 -46.666 93 -129.999c33.333 -46 64.333 -69 93 -69c20.667 0 38.834 8.5 54.501 25.5s23.5 36.833 23.5 59.5c0 26 -10.333 49.333 -31 70c-9.33301 9.33301 -14 20 -14 32c0 31.333 16.667 46.666 50 45.999
c23.333 -0.666992 43.333 -17.334 60 -50.001c13.333 -27.333 20 -53.666 20 -78.999z" />
    <glyph glyph-name="pashta" unicode="&#x599;" 
d="M255 1592c0 -31.333 -15.667 -47.001 -47 -47.001s-47 15.667 -47 47v95c0 73.333 -19 133 -57 179l-85 76c-12.667 12.667 -19 26.334 -19 41.001c-0 37.333 22.333 56 67 56c43.333 0 85 -32 125 -96c42 -68 63 -144.667 63 -230v-121z" />
    <glyph glyph-name="yetiv" unicode="&#x59a;" horiz-adv-x="2" 
d="M1436 -590l-68 -94l-378 264l378 266l68 -94l-244 -172z" />
    <glyph glyph-name="tevir" unicode="&#x59b;" 
d="M353 -322c0 -85.333 -21 -162 -63 -230c-40 -64 -81.667 -96 -125 -96c-44.667 0 -67 18.667 -67 56c0 15.333 6 29 18 41l85 76c38 46 57 105.667 57 179v94c0 32 16 48 48 48c31.333 0 47 -16 47 -48v-120zM185 -321c0 -25.333 -9.33301 -47.166 -28 -65.499
s-40.667 -27.5 -66 -27.5c-24.667 0 -46 9.16699 -64 27.5s-27 40.166 -27 65.499s8.83301 46.833 26.5 64.5s39.167 26.5 64.5 26.5s47.333 -9 66 -27s28 -39.333 28 -64z" />
    <glyph glyph-name="gereshac" unicode="&#x59c;" 
d="M237 1942l-86 -76c-38 -46 -57 -105.667 -57 -179v-95c0 -31.333 -15.667 -47 -47 -47s-47 15.667 -47 47v121c0 85.333 21 162 63 230c40 64 81.667 96 125 96c44.667 0 67 -18.667 67 -56c0 -15.333 -6 -29 -18 -41z" />
    <glyph glyph-name="gereshmuqdam" unicode="&#x59d;" horiz-adv-x="2" 
d="M815 1942l-86 -76c-38 -46 -57 -105.667 -57 -179v-95c0 -31.333 -15.667 -47 -47 -47s-47 15.667 -47 47v121c0 85.333 21 162 63 230c40 64 81.667 96 125 96c44.667 0 67 -18.667 67 -56c0 -15.333 -6 -29 -18 -41z" />
    <glyph glyph-name="gershayimac" unicode="&#x59e;" 
d="M455 1942l-85 -75.999c-38 -46 -57 -105.667 -57 -179v-95c0 -31.333 -15.667 -47 -47 -47s-47 15.667 -47 47v121c0 85.333 21 162 63 230c40 64 81.667 96 125 96c44.667 0 67 -18.667 67 -56c0 -14.667 -6.33301 -28.334 -19 -41.001zM238 1942l-85 -76
c-38 -46 -57 -105.667 -57 -179v-95c0 -31.333 -16 -47 -48 -47c-31.333 0 -47 15.667 -47 47v121c0 85.333 21 162 63 230c40 64 81.667 96 125 96c44.667 0 67 -18.667 67 -56c0 -15.333 -6 -29 -18 -41z" />
    <glyph glyph-name="qarneyparah" unicode="&#x59f;" 
d="M421 1976c0 -52 -17.334 -96.3301 -52.001 -132.997l150 -149l150 149c-33.333 37.333 -50 81.666 -50 132.999c0 56.667 19.833 105 59.5 145s88.167 60 145.5 60c56.667 0 105.334 -20 146.001 -60s61 -88.333 61 -145s-20.333 -105.334 -61 -146.001
s-89.334 -61 -146.001 -61c-49.333 0 -94.333 17.333 -135 52l-170 -170l-170 170c-40.667 -34.667 -85.667 -52 -135 -52c-57.333 0 -106.166 20.167 -146.499 60.5s-60.5 89.166 -60.5 146.499c0 56.667 20.167 105 60.5 145s89.166 60 146.499 60
c56.667 0 105.334 -20 146.001 -60s61 -88.333 61 -145zM999.999 1976c0 48.667 -17.333 90.167 -52 124.5s-76 51.5 -124 51.5s-89.333 -17.167 -124 -51.5s-52 -75.833 -52 -124.5c0 -48 17.333 -89.333 52 -124s76 -52 124 -52s89.333 17.333 124 52s52 76 52 124z
M389.999 1976c0 48.667 -17.333 90.167 -52 124.5s-76 51.5 -124 51.5c-49.333 0 -91 -17.167 -125 -51.5s-51 -75.833 -51 -124.5c0 -48 17 -89.333 51 -124s75.667 -52 125 -52c48 0 89.333 17.333 124 52s52 76 52 124z" />
    <glyph glyph-name="telishagedola" unicode="&#x5a0;" 
d="M171 1774l-60.998 -232.001l-31 8l62 232c-40 14.667 -72.667 39.667 -98 75s-38 75 -38 119c0 56.667 20.167 105 60.5 145s89.166 60 146.499 60c56.667 0 105 -20 145 -60s60 -88.333 60 -145c0 -57.333 -20 -106.166 -60 -146.499s-88.333 -60.5 -145 -60.5
c-10.667 0 -24.334 1.66699 -41.001 5zM386.002 1976c0 48.667 -17 90.167 -51 124.5s-75 51.5 -123 51.5s-89.333 -17.167 -124 -51.5s-52 -75.833 -52 -124.5c0 -48 17.333 -89.333 52 -124s76 -52 124 -52s89 17.333 123 52s51 76 51 124z" />
    <glyph glyph-name="pazer" unicode="&#x5a1;" 
d="M349 1858c0 -52.667 -22.667 -94.333 -68 -125c-42.667 -28.667 -97.667 -43 -165 -43v-145h-113v494h113v-272c80 0 119.667 39 119 117l-1 155h115v-181z" />
    <glyph glyph-name="etnahtahafukh" unicode="&#x5a2;" 
d="M241 -607c0 -31.333 -16 -47 -48 -47c-31.333 0 -47 15.667 -47 47v151c-62.667 9.33301 -104.667 40.333 -126 93c-13.333 34 -20 88 -20 162c0 31.333 15.667 47 47 47s47 -15.667 47 -47c0 -60 3.33301 -98.333 10 -115c12.667 -33.333 44 -50 94 -50
c52.667 0 85.667 16.667 99 50c6.66699 16 10 54.333 10 115c0 31.333 15.667 47 47 47s47 -15.667 47 -47c0 -77.333 -7.66699 -133 -23 -167c-23.333 -52 -69 -82 -137 -90v-149z" />
    <glyph glyph-name="munah" unicode="&#x5a3;" 
d="M503 -657h-503v131h374v372h129v-503z" />
    <glyph glyph-name="mahapakh" unicode="&#x5a4;" 
d="M446 -590l-68 -94l-378 264l378 266l68 -94l-244 -172z" />
    <glyph glyph-name="merkha" unicode="&#x5a5;" 
d="M269 -321c0 -85.333 -21 -162 -63 -230c-40 -64.667 -81.667 -97 -125 -97c-44.667 0 -67 18.667 -67 56c0 15.333 6 29 18 41l85 76c38 46 57 105.667 57 179v95c0 31.333 16 47 48 47c31.333 0 47 -15.667 47 -47v-120z" />
    <glyph glyph-name="merkhakefula" unicode="&#x5a6;" 
d="M473 -321c0 -85.333 -21 -162 -63 -230c-40 -64.667 -81.667 -97 -125 -97c-44.667 0 -67 18.667 -67 56c0 15.333 6 29 18 41l85 76c38 46 57 105.667 57 179v95c0 31.333 16 47 48 47c31.333 0 47 -15.667 47 -47v-120zM255 -321c0 -85.333 -21 -162.001 -63 -230.001
c-40 -64.667 -81.667 -97 -125 -97c-44.667 0 -67 18.667 -67 56c-0 14.667 6.33301 28.334 19 41.001l85 76c38 46 57 105.667 57 179v95c0 31.333 15.667 47 47 47s47 -15.667 47 -47v-120z" />
    <glyph glyph-name="darga" unicode="&#x5a7;" 
d="M334 -545c13.333 -19.333 20 -38 20 -56c0 -36 -18.333 -54 -55 -54h-256c-31.333 0 -47 15.667 -47 47s15.667 47 47 47h178l-203 297c-12 18 -18 36.333 -18 55c0 38 19.667 57 59 57h253c31.333 0 47 -16.667 47 -50c0 -32.667 -15.667 -49 -47 -49h-182z" />
    <glyph glyph-name="qadma" unicode="&#x5a8;" 
d="M255 1592c0 -31.333 -15.667 -47.001 -47 -47.001s-47 15.667 -47 47v95c0 73.333 -19 133 -57 179l-85 76c-12.667 12.667 -19 26.334 -19 41.001c-0 37.333 22.333 56 67 56c43.333 0 85 -32 125 -96c42 -68 63 -144.667 63 -230v-121z" />
    <glyph glyph-name="telishaqetana" unicode="&#x5a9;" 
d="M342 1550l-30.999 -7.99902l-61 232c-16.667 -3.33301 -29 -5 -37 -5c-56.667 0 -105 20.167 -145 60.5s-60 89.166 -60 146.499c0 56.667 20 105 60 145s88.333 60 145 60c57.333 0 106.166 -20 146.499 -60s60.5 -88.333 60.5 -145c0 -44 -13.167 -84 -39.5 -120
s-59.833 -60.667 -100.5 -74zM389.001 1976c0 48.667 -17.333 90.167 -52 124.5s-76 51.5 -124 51.5s-89 -17.167 -123 -51.5s-51 -75.833 -51 -124.5c0 -48 17 -89.333 51 -124s75 -52 123 -52s89.333 17.333 124 52s52 76 52 124z" />
    <glyph glyph-name="yerahbenyomo" unicode="&#x5aa;" 
d="M241 -607c0 -31.333 -16 -47 -48 -47c-31.333 0 -47 15.667 -47 47v151c-62.667 9.33301 -104.667 40.333 -126 93c-13.333 34 -20 88 -20 162c0 31.333 15.667 47 47 47s47 -15.667 47 -47c0 -60 3.33301 -98.333 10 -115c12.667 -33.333 44 -50 94 -50
c52.667 0 85.667 16.667 99 50c6.66699 16 10 54.333 10 115c0 31.333 15.667 47 47 47s47 -15.667 47 -47c0 -77.333 -7.66699 -133 -23 -167c-23.333 -52 -69 -82 -137 -90v-149z" />
    <glyph glyph-name="ole" unicode="&#x5ab;" 
d="M447 1659l-68 -96l-379 266l379 266l68 -96l-244 -170z" />
    <glyph glyph-name="iluy" unicode="&#x5ac;" 
d="M498 1544h-502v129h373v375h129v-504z" />
    <glyph glyph-name="dehi" unicode="&#x5ad;" horiz-adv-x="2" 
d="M1220 -550c12 -12 18 -25.667 18 -41c0 -37.333 -22.333 -56 -67 -56c-43.333 0 -85 32 -125 96c-42 68 -63 144.667 -63 230v121c0 31.333 15.667 47 47 47s47 -15.667 47 -47v-95c0 -73.333 19 -133 57 -179z" />
    <glyph glyph-name="zinor" unicode="&#x5ae;" 
d="M489 1735c0 -57.333 -22.5 -104.666 -67.5 -141.999s-102.167 -56 -171.5 -56c-50.667 0 -97.334 23 -140.001 69c-2.66699 3.33301 -33.667 46.333 -93 129c-33.333 46 -64.333 69 -93 69c-20.667 0 -38.834 -8.33301 -54.501 -25s-23.5 -36.334 -23.5 -59.001
c0 -26 10.333 -49.333 31 -70c9.33301 -9.33301 14 -20 14 -32c0 -31.333 -16.667 -46.666 -50 -45.999c-23.333 0.666992 -43.333 17.334 -60 50.001c-13.333 27.333 -20 53.666 -20 78.999c0 57.333 22.5 104.666 67.5 141.999s102.167 56 171.5 56
c50.667 0 97.334 -23 140.001 -69c2.66699 -3.33301 33.667 -46.666 93 -129.999c33.333 -46 64.333 -69 93 -69c20.667 0 38.834 8.5 54.501 25.5s23.5 36.833 23.5 59.5c0 26 -10.333 49.333 -31 70c-9.33301 9.33301 -14 20 -14 32c0 31.333 16.667 46.666 50 45.999
c23.333 -0.666992 43.333 -17.334 60 -50.001c13.333 -27.333 20 -53.666 20 -78.999z" />
    <glyph glyph-name="masoracircle" unicode="&#x5af;" 
d="M213 2046c58 0 108 -20.833 150 -62.5s63 -91.834 63 -150.501s-21 -108.834 -63 -150.501s-92 -62.5 -150 -62.5c-59.333 0 -109.666 20.833 -150.999 62.5s-62 91.834 -62 150.501s20.667 108.834 62 150.501s91.666 62.5 150.999 62.5zM213 1987
c-43.333 0 -79.833 -15.167 -109.5 -45.5s-44.5 -66.5 -44.5 -108.5s14.833 -78.167 44.5 -108.5s66.167 -45.5 109.5 -45.5c41.333 0 76.833 15.167 106.5 45.5s44.5 66.5 44.5 108.5s-14.833 78.167 -44.5 108.5s-65.167 45.5 -106.5 45.5z" />
    <glyph glyph-name="sheva" unicode="&#x5b0;" 
d="M187 -244c0 -25.333 -9.5 -47.333 -28.5 -66s-41.167 -28 -66.5 -28s-47 9.33301 -65 28s-27 40.667 -27 66c0 24.667 9 45.834 27 63.501s39.667 26.5 65 26.5s47.5 -8.83301 66.5 -26.5s28.5 -38.834 28.5 -63.501zM187 -557c0 -24.667 -9.66699 -46.167 -29 -64.5
s-41.333 -27.5 -66 -27.5c-25.333 0 -47 9.16699 -65 27.5s-27 39.833 -27 64.5c0 25.333 9 46.666 27 63.999s39.667 26 65 26s47.5 -8.66699 66.5 -26s28.5 -38.666 28.5 -63.999z" />
    <glyph glyph-name="hatafsegol" unicode="&#x5b1;" 
d="M854 -244c0 -25.333 -9.16699 -47.333 -27.5 -66s-39.833 -28 -64.5 -28c-25.333 0 -47 9.33301 -65 28s-27 40.667 -27 66c0 24.667 9 45.834 27 63.501s39.667 26.5 65 26.5c24.667 0 46.167 -8.83301 64.5 -26.5s27.5 -38.834 27.5 -63.501zM854 -557
c0 -24.667 -9.16699 -46.167 -27.5 -64.5s-39.833 -27.5 -64.5 -27.5c-25.333 0 -47 9.16699 -65 27.5s-27 39.833 -27 64.5c0 25.333 8.83301 46.666 26.5 63.999s39.5 26 65.5 26c24.667 0 46.167 -8.66699 64.5 -26s27.5 -38.666 27.5 -63.999zM520 -246
c0 -24 -9.5 -45.333 -28.5 -64s-40.833 -28 -65.5 -28c-25.333 0 -46.666 9.16699 -63.999 27.5s-26 39.833 -26 64.5c0 26 8.66699 47.833 26 65.5s38.666 26.5 63.999 26.5c24.667 0 46.5 -9 65.5 -27s28.5 -39.667 28.5 -65zM184 -246
c0 -24.667 -9.33398 -46.167 -28.001 -64.5s-40.667 -27.5 -66 -27.5c-24 0 -45 9.16699 -63 27.5s-27 39.833 -27 64.5c0 25.333 8.83301 47 26.5 65s38.834 27 63.501 27c26 0 48.167 -9 66.5 -27s27.5 -39.667 27.5 -65zM351.999 -557
c0 -24.667 -9.33301 -46.167 -28 -64.5s-40.667 -27.5 -66 -27.5c-24.667 0 -45.834 9.16699 -63.501 27.5s-26.5 39.833 -26.5 64.5c0 25.333 8.83301 46.666 26.5 63.999s38.834 26 63.501 26c26 0 48.167 -8.66699 66.5 -26s27.5 -38.666 27.5 -63.999z" />
    <glyph glyph-name="hatafpatah" unicode="&#x5b2;" 
d="M743 -244c0 -25.333 -9.16699 -47.3311 -27.5 -65.998s-39.833 -28 -64.5 -28c-25.333 0 -46.666 9.16699 -63.999 27.5s-26 40.5 -26 66.5c0 25.333 8.66699 46.666 26 63.999s38.666 26 63.999 26c24.667 0 46.167 -8.83301 64.5 -26.5s27.5 -38.834 27.5 -63.501z
M743 -556.998c0 -24.667 -9.16699 -46.167 -27.5 -64.5s-39.833 -27.5 -64.5 -27.5c-25.333 0 -46.666 9.16699 -63.999 27.5s-26 39.833 -26 64.5c0 25.333 8.66699 46.666 26 63.999s38.666 26 63.999 26c24.667 0 46.167 -8.66699 64.5 -26s27.5 -38.666 27.5 -63.999z
M448 -267.998h-448v114h448v-114z" />
    <glyph glyph-name="hatafqamats" unicode="&#x5b3;" 
d="M743 -244c0 -25.333 -9.16699 -47.3311 -27.5 -65.998s-39.833 -28 -64.5 -28c-25.333 0 -46.666 9.16699 -63.999 27.5s-26 40.5 -26 66.5c0 25.333 8.66699 46.666 26 63.999s38.666 26 63.999 26c24.667 0 46.167 -8.83301 64.5 -26.5s27.5 -38.834 27.5 -63.501z
M743 -556.998c0 -24.667 -9.16699 -46.167 -27.5 -64.5s-39.833 -27.5 -64.5 -27.5c-25.333 0 -46.666 9.16699 -63.999 27.5s-26 39.833 -26 64.5c0 25.333 8.66699 46.666 26 63.999s38.666 26 63.999 26c24.667 0 46.167 -8.66699 64.5 -26s27.5 -38.666 27.5 -63.999z
M317 -552.998c0 -26.667 -9.33203 -49.334 -27.999 -68.001s-41.334 -28 -68.001 -28c-27.333 0 -50.5 9.33301 -69.5 28s-28.5 41.334 -28.5 68.001c0 26 30 121 90 285h-213v114h448v-114h-221c60 -164 90 -259 90 -285z" />
    <glyph glyph-name="hiriq" unicode="&#x5b4;" 
d="M187 -244c0 -25.333 -9.5 -47.333 -28.5 -66s-41.167 -28 -66.5 -28s-47 9.33301 -65 28s-27 40.667 -27 66c0 24.667 9 45.834 27 63.501s39.667 26.5 65 26.5s47.5 -8.83301 66.5 -26.5s28.5 -38.834 28.5 -63.501z" />
    <glyph glyph-name="tsere" unicode="&#x5b5;" 
d="M468 -246c0 -24.667 -9.33301 -46.167 -28 -64.5s-40.667 -27.5 -66 -27.5c-24.667 0 -45.834 9.16699 -63.501 27.5s-26.5 39.833 -26.5 64.5c0 25.333 8.83301 47 26.5 65s38.834 27 63.501 27c25.333 0 47.333 -9 66 -27s28 -39.667 28 -65zM182 -246
c0 -24.667 -9 -46.167 -27 -64.5s-39.667 -27.5 -65 -27.5s-46.666 9.16699 -63.999 27.5s-26 39.833 -26 64.5c0 26 8.66699 47.833 26 65.5s38.666 26.5 63.999 26.5s47 -8.83301 65 -26.5s27 -39.5 27 -65.5z" />
    <glyph glyph-name="segol" unicode="&#x5b6;" 
d="M478 -246c0 -24.667 -9.33301 -46.167 -28 -64.5s-40.667 -27.5 -66 -27.5c-24.667 0 -45.834 9.16699 -63.501 27.5s-26.5 39.833 -26.5 64.5c0 25.333 8.83301 47 26.5 65s38.834 27 63.501 27c25.333 0 47.333 -9 66 -27s28 -39.667 28 -65zM182 -246
c0 -24.667 -9 -46.167 -27 -64.5s-39.667 -27.5 -65 -27.5s-46.666 9.16699 -63.999 27.5s-26 39.833 -26 64.5c0 26 8.66699 47.833 26 65.5s38.666 26.5 63.999 26.5s47 -8.83301 65 -26.5s27 -39.5 27 -65.5zM330 -527c0 -24.667 -9 -46.167 -27 -64.5
s-39.667 -27.5 -65 -27.5c-24.667 0 -45.834 9.16699 -63.501 27.5s-26.5 39.833 -26.5 64.5c0 25.333 8.83301 46.666 26.5 63.999s38.834 26 63.501 26c26 0 47.833 -8.66699 65.5 -26s26.5 -38.666 26.5 -63.999z" />
    <glyph glyph-name="patah" unicode="&#x5b7;" 
d="M399 -268h-409v114h409v-114z" />
    <glyph glyph-name="qamats" unicode="&#x5b8;" 
d="M298 -553c0 -26.667 -9.66797 -49.334 -29.001 -68.001s-42.666 -28 -69.999 -28c-26 0 -48.5 9.33301 -67.5 28s-28.5 41.334 -28.5 68.001c0 39.333 30 134.333 90 285h-193v114h409v-114h-201c60 -164 90 -259 90 -285z" />
    <glyph glyph-name="holam" unicode="&#x5b9;" 
d="M195 1640c0 -26 -9.83398 -48.833 -29.501 -68.5s-42.834 -29.5 -69.501 -29.5c-26 0 -48.5 9.66699 -67.5 29s-28.5 42.333 -28.5 69s9.33301 49.5 28 68.5s41.334 28.5 68.001 28.5s49.834 -9.5 69.501 -28.5s29.5 -41.833 29.5 -68.5z" />
    <glyph glyph-name="holamleft" unicode="&#x5ba;" 
d="M545 1640c0 -26 -9.83398 -48.833 -29.501 -68.5s-42.834 -29.5 -69.501 -29.5c-26 0 -48.5 9.66699 -67.5 29s-28.5 42.333 -28.5 69s9.33301 49.5 28 68.5s41.334 28.5 68.001 28.5s49.834 -9.5 69.501 -28.5s29.5 -41.833 29.5 -68.5z" />
    <glyph glyph-name="qubuts" unicode="&#x5bb;" 
d="M166 -233c0 -22.667 -8.50098 -42.334 -25.501 -59.001s-36.5 -25 -58.5 -25c-22.667 0 -42 8.33301 -58 25s-24 36.334 -24 59.001c0 22 8 41 24 57s35.333 24 58 24s42.334 -8 59.001 -24s25 -35 25 -57zM327.999 -489c0 -22.667 -8.33301 -42.334 -25 -59.001
s-36.334 -25 -59.001 -25c-22 0 -41.167 8.33301 -57.5 25s-24.5 36.334 -24.5 59.001c0 22 8 41 24 57s35.333 24 58 24s42.334 -8 59.001 -24s25 -35 25 -57zM482.999 -745c0 -22.667 -8.33301 -42 -25 -58s-36.334 -24 -59.001 -24s-42 8 -58 24s-24 35.333 -24 58
c0 22 8 41 24 57s35.333 24 58 24s42.334 -8 59.001 -24s25 -35 25 -57z" />
    <glyph glyph-name="dagesh" unicode="&#x5bc;" 
d="M195 678c0 -26.667 -9.83301 -49.334 -29.5 -68.001s-42.834 -28 -69.501 -28s-49.334 9.33301 -68.001 28s-28 41.334 -28 68.001s9.33301 49.334 28 68.001s41.334 28 68.001 28s49.834 -9.33301 69.501 -28s29.5 -41.334 29.5 -68.001z" />
    <glyph glyph-name="meteg" unicode="&#x5bd;" 
d="M117 -649h-117v495h117v-495z" />
    <glyph glyph-name="maqaf" unicode="&#x5be;" horiz-adv-x="952" 
d="M862 1188h-772v166h772v-166z" />
    <glyph glyph-name="rafe" unicode="&#x5bf;" 
d="M540 1546h-415v115h415v-115z" />
    <glyph glyph-name="paseq" unicode="&#x5c0;" horiz-adv-x="316" 
d="M219 0h-117v1358h117v-1358z" />
    <glyph glyph-name="shindot" unicode="&#x5c1;" horiz-adv-x="2" 
d="M1320 1638c0 -24.667 -9.5 -46.167 -28.5 -64.5s-41.167 -27.5 -66.5 -27.5s-47 9 -65 27s-27 39.667 -27 65c0 24.667 9 46 27 64s39.667 27 65 27s47.5 -9 66.5 -27s28.5 -39.333 28.5 -64z" />
    <glyph glyph-name="sindot" unicode="&#x5c2;" horiz-adv-x="2" 
d="M380 1638c0 -24.667 -9.5 -46.167 -28.5 -64.5s-41.167 -27.5 -66.5 -27.5s-47 9 -65 27s-27 39.667 -27 65c0 24.667 9 46 27 64s39.667 27 65 27s47.5 -9 66.5 -27s28.5 -39.333 28.5 -64z" />
    <glyph glyph-name="sofpasuq" unicode="&#x5c3;" horiz-adv-x="813" 
d="M483 166c-80 -48.667 -142.667 -112.334 -188 -191.001c-45.333 78.667 -108.333 142.334 -189 191.001c80.667 46.667 143.667 110 189 190c45.333 -80 108 -143.333 188 -190zM483 846c-80 -46.667 -142.667 -110.334 -188 -191.001
c-45.333 80.667 -108.333 144.334 -189 191.001c78.667 45.333 141.667 108.666 189 189.999c47.333 -81.333 110 -144.666 188 -189.999z" />
    <glyph glyph-name="upperdot" unicode="&#x5c4;" 
d="M379 1631c-64 -39.333 -114 -90.333 -150 -153c-36 62.667 -86.333 113.667 -151 153c64.667 37.333 115 88 151 152c36 -64 86 -114.667 150 -152z" />
    <glyph glyph-name="lowerdot" unicode="&#x5c5;" 
d="M379 -389c-64 -39.333 -114 -90.333 -150 -153c-36 62.667 -86.333 113.667 -151 153c64.667 37.333 115 88 151 152c36 -64 86 -114.667 150 -152z" />
    <glyph glyph-name="invertednun" unicode="&#x5c6;" horiz-adv-x="646" 
d="M526 1018h-167.999c-78.667 -89.333 -116.667 -177.333 -114 -264l12 -414h270v-340h-399v715c0 108.667 39.667 209.667 119 303c-48.667 2 -82.334 21 -101.001 57c-17.333 33.333 -26 89.333 -26 168c0 134 19 201 57 201c8 0 17.833 -14.333 29.5 -43
s35.167 -43 70.5 -43h250v-340z" />
    <glyph glyph-name="qamatsqatan" unicode="&#x5c7;" 
d="M0 -154h448.999v-114h-221c60 -281.333 90 -435 90 -461c0 -26.667 -9.66699 -49.334 -29 -68.001s-42.666 -28 -69.999 -28c-26 0 -48.5 9.33301 -67.5 28s-28.5 41.334 -28.5 68.001c0 39.333 30 193 90 461h-213v114z" />
    <glyph glyph-name="alef" unicode="&#x5d0;" horiz-adv-x="1221" 
d="M1143 213c0 -64 -21.666 -123 -64.999 -177c-36.667 -46 -67 -69 -91 -69c-12 0 -18 9.66699 -18 29c0 2.66699 4.33301 10.667 13 24s13 25 13 35c0 32.667 -22 74 -66 124l-102 102l-501 501c-37.333 -55.333 -56 -104.333 -56 -147c0 -58 41 -136.167 123 -234.5
s123 -176.5 123 -234.5c0 -47.333 -18 -86.833 -54 -118.5s-80 -47.5 -132 -47.5h-267l11 51c87.333 11.333 131 40.666 131 87.999c0 23.333 -19.833 72.166 -59.5 146.499s-59.5 134.166 -59.5 179.499c0 104.667 63.333 226.667 190 366l-49 50
c-60 60 -100.333 109.333 -121 148c-24 46.667 -36 103 -36 169c0 64 21 123 63 177c36 46 66 69 90 69c12.667 0 19 -9.66699 19 -29c0 -2 -4.5 -9.66699 -13.5 -23s-13.5 -24.666 -13.5 -33.999c0 -33.333 22 -74.666 66 -123.999l102 -101l299 -299l143 180
c-49.333 37.333 -82.333 72.333 -99 105c-11.333 23.333 -17 53.666 -17 90.999c0 64.667 23.667 122 71 172c38 41.333 70.333 62 97 62c12 0 18 -6.33301 18 -19c0 -2.66699 -1.66699 -5.66699 -5 -9s-5 -9.66602 -5 -18.999c0 -32.667 36 -75 108 -127
c86 -62.667 129 -142 129 -238c0 -66.667 -14.667 -118 -44 -154c-22.667 -28 -47.334 -42 -74.001 -42c-14.667 0 -28 11.333 -40 34c-20 36.667 -47.667 70.334 -83 101.001l-150 -187l252 -254c60 -60.667 100.667 -110 122 -148c25.333 -46.667 38 -103 38 -169z" />
    <glyph glyph-name="bet" unicode="&#x5d1;" horiz-adv-x="1362" 
d="M1307 340l-179 -340h-1099l164 340h864l-4 567c-2.66699 74 -60 111 -172 111h-625c-52.667 0 -89 18 -109 54c-18.667 33.333 -28 90.333 -28 171c0 134 19 201 57 201c8 0 17.833 -14.333 29.5 -43s35.167 -43 70.5 -43h586c187.333 0 281 -99 281 -297v-721h164z" />
    <glyph glyph-name="gimel" unicode="&#x5d2;" horiz-adv-x="741" 
d="M686 248c0 -165.333 -9.66797 -248.001 -29.001 -248.001c-13.333 0 -20.666 9 -21.999 27c-3.33301 31.333 -24.333 108.666 -63 231.999c-36 112.667 -54 207.334 -54 284.001c0 42.667 3.83301 110.167 11.5 202.5s11.5 146.166 11.5 161.499
c0 74 -61.667 111 -185 111h-100c-52.667 0 -89 18 -109 54c-18.667 33.333 -28 90.333 -28 171c0 134 19 201 57 201c8 0 17.833 -14.333 29.5 -43s35.167 -43 70.5 -43h62c185.333 0 278 -99 278 -297c0 -34 -3.33301 -68.5 -10 -103.5s-10 -79.833 -10 -134.5
c0 -39.333 15 -128.166 45 -266.499s45 -241.166 45 -308.499zM524.999 511.999l-181 -476l-289 -36l86 340z" />
    <glyph glyph-name="dalet" unicode="&#x5d3;" horiz-adv-x="1380" 
d="M1280 1188c0 -48 -12.498 -87.833 -37.498 -119.5s-96.833 -49.167 -215.5 -52.5l167 -852c0.666992 -14.667 -17.666 -45.667 -54.999 -93s-61.333 -71 -72 -71c-18 -0 -27 14.333 -27 43c0 74.667 -38.667 399 -116 973l-680 2c-52.667 0 -89.334 18 -110.001 54
c-18.667 33.333 -28 90.333 -28 171c0 134 19.333 201 58 201c6.66699 0 16.167 -14.333 28.5 -43s36.166 -43 71.499 -43h881c39.333 0 71.666 -15.667 96.999 -47s38 -72.333 38 -123z" />
    <glyph glyph-name="he" unicode="&#x5d4;" horiz-adv-x="1380" 
d="M1280 1188c0 -50 -13.165 -90.833 -39.498 -122.5s-56.833 -47.5 -91.5 -47.5h-8l53 -854c0.666992 -14.667 -17.666 -45.667 -54.999 -93s-61.333 -71 -72 -71c-18 -0 -27 14.333 -27 43c0 117.333 7 442.333 21 975h-817c-52.667 0 -89.334 18 -110.001 54
c-18.667 33.333 -28 90.333 -28 171c0 134 19.333 201 58 201c6.66699 0 16.167 -14.333 28.5 -43s36.166 -43 71.499 -43h881c39.333 0 71.666 -15.667 96.999 -47s38 -72.333 38 -123zM330.002 319c0 -134 -10.332 -211.668 -30.999 -233.001c-14 -14.667 -37 -32 -69 -52
c-35.333 -22.667 -60 -34 -74 -34c-26 0 -39 13.667 -39 41c0 16.667 5.16699 34.167 15.5 52.5s21.166 36.5 32.499 54.5c15.333 36 23 90.333 23 163c0 23.333 -1 55.333 -3 96s-3 79.667 -3 117c0 43.333 13.667 88.666 41 135.999c26 44.667 48 67 66 67
c17.333 0 26 -6 26 -18c0 -5.33301 -3 -18.166 -9 -38.499s-9 -43.166 -9 -68.499c0 -20 5.5 -56.333 16.5 -109s16.5 -110.667 16.5 -174z" />
    <glyph glyph-name="vav" unicode="&#x5d5;" horiz-adv-x="690" 
d="M567 164c0 -15.333 -18.832 -46.5 -56.499 -93.5s-61.834 -70.5 -72.501 -70.5c-16 -0 -24 14.333 -24 43c0 18 11.5 149.5 34.5 394.5s34.5 399.5 34.5 463.5c0 78 -42.333 117 -127 117h-137c-52.667 0 -89 18 -109 54c-18.667 33.333 -28 90.333 -28 171
c0 134 18.333 201 55 201c8 0 18 -14.333 30 -43s35.667 -43 71 -43h127c133.333 0 200 -99 200 -297z" />
    <glyph glyph-name="zayin" unicode="&#x5d6;" horiz-adv-x="707" 
d="M637 1157c0 -57.333 -12.667 -110.33 -38 -158.997c-22.667 -42.667 -42.667 -64 -60 -64c-8.66699 0 -13 5.33301 -13 16c0 2.66699 0.666992 4.66699 2 6s2 5.66602 2 12.999c0 21.333 -47 37.666 -141 48.999c-32.667 -58.667 -49 -103 -49 -133
c0 -18.667 15.333 -102.834 46 -252.501s46 -234.167 46 -253.5c0 -75.333 -14.667 -158.333 -44 -249c-28.667 -86.667 -53 -130 -73 -130c-14.667 0 -22 7.66699 -22 23c0 -1.33301 5.5 15 16.5 49s16.5 63.333 16.5 88c0 14 -15 94.667 -45 242s-45 233 -45 257
c0 123.333 31.333 245 94 365l-35 2c-81.333 4.66699 -135.5 20.667 -162.5 48s-40.5 81 -40.5 161c0 42.667 11.167 88.167 33.5 136.5s43.833 72.5 64.5 72.5c14 0 21 -7 21 -21c0 -4 -1 -7.83301 -3 -11.5s-3 -7.16699 -3 -10.5c0 -18.667 66 -33 198 -43
c156 -12 234 -79 234 -201z" />
    <glyph glyph-name="het" unicode="&#x5d7;" horiz-adv-x="1380" 
d="M1280 1188c0 -50 -13.165 -90.835 -39.498 -122.502s-56.833 -47.5 -91.5 -47.5h-8l53 -854c0.666992 -14.667 -17.666 -45.667 -54.999 -93s-61.333 -71 -72 -71c-18 0 -27 14.333 -27 43c0 117.333 7 442.333 21 975h-717c-50.667 -47.333 -76 -120.333 -76 -219
c0 -7.33301 10.333 -72.666 31 -195.999s31 -218 31 -284c0 -134 -10.333 -211.667 -31 -233c-14 -14.667 -37 -32 -69 -52c-35.333 -22.667 -60 -34 -74 -34c-26 0 -39 13.667 -39 41c0 16.667 4.66699 34.334 14 53.001c22 44 33 121.333 33 232
c0 22 -1.66699 77.833 -5 167.5s-5 153.167 -5 190.5c0 140.667 35.333 252 106 334h-16c-52.667 0 -89.334 18 -110.001 54c-18.667 33.333 -28 90.333 -28 171c0 134 19.333 201 58 201c6.66699 0 16.167 -14.333 28.5 -43s36.166 -43 71.499 -43h881
c39.333 0 71.666 -15.667 96.999 -47s38 -72.333 38 -123z" />
    <glyph glyph-name="tet" unicode="&#x5d8;" horiz-adv-x="1356" 
d="M1253 719c0 -100 -49.668 -339.667 -149.001 -719h-938c1.33301 92 -6 201.667 -22 329c-16.667 132 -25 237.333 -25 316c0 133.333 40.333 260.333 121 381c-51.333 22 -85.666 49.333 -102.999 82c-14.667 26.667 -22 69 -22 127c0 60 14.667 112.333 44 157
c23.333 34.667 42 52 56 52s21 -7 21 -21c0 -4 -1.16699 -7.83301 -3.5 -11.5s-3.5 -7.16699 -3.5 -10.5c0 -8.66699 15.667 -18 47 -28c57.333 -20 101.333 -36.667 132 -50c46 -20.667 76.5 -42.5 91.5 -65.5s22.5 -60.5 22.5 -112.5c0 -54.667 -15 -110 -45 -166
c-25.333 -46.667 -43 -70 -53 -70c-8 0 -12 5.66699 -12 17c0 2 0.666992 3.66699 2 5s2 5 2 11c0 9.33301 -39 28.333 -117 57c-58.667 -101.333 -88 -187.333 -88 -258c0 -58 12.667 -131.333 38 -220c27.333 -96.667 42 -157 44 -181h805c50.667 154 76 263.333 76 328
c0 114.667 -29.667 203.667 -89 267c-52.667 56.667 -118.667 85 -198 85c-73.333 0 -128.333 -29 -165 -87c-29.333 -45.333 -44 -101.666 -44 -168.999c0 -10 1 -25 3 -45s3 -33 3 -39c0 -12 -4.33301 -24.167 -13 -36.5s-18 -18.5 -28 -18.5c-38 0 -57 47 -57 141
c0 42 14 107 42 195c32 100 51.333 178.333 58 235c2 14 3 28.667 3 44c0 16.667 -1.33301 37.167 -4 61.5s-4 40.166 -4 47.499c0 15.333 3 26.333 9 33c4.66699 4.66699 17.667 7 39 7c51.333 0 109 -10.333 173 -31c80.667 -25.333 144 -60.333 190 -105
c66.667 -65.333 112 -134.333 136 -207c18 -52.667 27 -120.667 27 -204c0 -13.333 -0.333008 -33.5 -1 -60.5s-1 -47.833 -1 -62.5z" />
    <glyph glyph-name="yod" unicode="&#x5d9;" horiz-adv-x="691" 
d="M580 1061c0 -98 -6.66504 -185.333 -19.998 -262c-14 -80.667 -31.333 -121 -52 -121c-18.667 0 -29.667 5 -33 15v32c0 4 3.5 26.833 10.5 68.5s10.5 77.5 10.5 107.5c0 78 -55.333 117 -166 117h-99c-52.667 0 -89.334 18 -110.001 54
c-19.333 33.333 -29 90.333 -29 171c0 134 20 201 60 201c6.66699 0 16.167 -14.333 28.5 -43s36.166 -43 71.499 -43h59c178 0 267.667 -99 269 -297z" />
    <glyph glyph-name="finalkaf" unicode="&#x5da;" horiz-adv-x="1380" 
d="M1280 1188c0 -48 -12.498 -87.833 -37.498 -119.5s-54.167 -48.5 -87.5 -50.5l39 -1512c0.666992 -14 -17.666 -44.333 -54.999 -91s-61.333 -70 -72 -70c-18 0 -27 14.333 -27 43c0 34.667 5 280.667 15 738c10.667 492 18 789.333 22 892h-833
c-52.667 0 -89.334 18 -110.001 54c-18.667 33.333 -28 90.333 -28 171c0 134 19.333 201 58 201c6.66699 0 16.167 -14.333 28.5 -43s36.166 -43 71.499 -43h881c39.333 0 71.666 -15.667 96.999 -47s38 -72.333 38 -123z" />
    <glyph glyph-name="kaf" unicode="&#x5db;" horiz-adv-x="1262" 
d="M1198 678c0 -261.333 -55.999 -442.668 -167.999 -544.001c-98.667 -89.333 -265.334 -134 -500.001 -134h-501l164 340h579c114 0 202.333 28 265 84c65.333 58.667 98 143.334 98 254.001c0 226.667 -121 340 -363 340h-516c-52.667 0 -89 18 -109 54
c-18.667 33.333 -28 90.333 -28 171c0 134 19 201 57 201c8 0 17.833 -14.333 29.5 -43s35.167 -43 70.5 -43h459c164 0 281.333 -50 352 -150c74 -104 111 -280.667 111 -530z" />
    <glyph glyph-name="lamed" unicode="&#x5dc;" horiz-adv-x="1343" 
d="M1225 782c0 -148 -72.998 -274.998 -218.998 -380.998c-95.333 -68.667 -169 -141.334 -221 -218.001l-80 -148c-20.667 -36.667 -48.667 -55 -84 -55c-24.667 0 -46 9 -64 27c-20.667 20 -31 45.667 -31 77c0 46 22.333 95.667 67 149c56 68 136.333 124 241 168
c132.667 57.333 220.334 116 263.001 176c28 39.333 42 95.333 42 168c0 79.333 -18 143.666 -54 192.999c-37.333 52 -87 78 -149 78h-633c-84.667 0 -142 16.667 -172 50c-26 29.333 -39 82.333 -39 159v321c0 78 13.667 144.667 41 200c17.333 36 42.666 70 75.999 102
c27.333 26 41 42 41 48c0 23.333 -26.333 42.833 -79 58.5s-79 37.167 -79 64.5c0 38.667 11.333 75.334 34 110c19.333 29.333 34 44 44 44c10.667 0 16 -3.33301 16 -10c0 -1.33301 -0.666992 -4.16602 -2 -8.5c-1.33301 -4.33301 -2 -7.16602 -2 -8.5
c0 -6 14.667 -14 44 -24c37.333 -12.667 64.666 -26 81.999 -40c29.333 -23.333 44 -53.666 44 -90.999c0 -20 -8.33301 -42.333 -25 -67c-22.667 -32.667 -38.667 -63 -48 -91c-16.667 -51.333 -25 -120.333 -25 -207v-182c0 -32 4.33301 -53.667 13 -65
c11.333 -14 34.333 -21 69 -21h672c101.333 0 158.666 -42.333 171.999 -127l37 -234c5.33301 -34.667 8 -106.334 8 -215.001z" />
    <glyph glyph-name="finalmem" unicode="&#x5dd;" horiz-adv-x="1350" 
d="M358 1018c-78.667 -89.333 -116.667 -177.333 -114 -264l12 -414h877l-17 567c-1.33301 46 -14.333 76.667 -39 92c-20 12.667 -55.333 19 -106 19h-613zM1231 0h-1104v715c0 108.667 39.667 209.667 119 303c-48.667 2 -82.334 21 -101.001 57
c-17.333 33.333 -26 89.333 -26 168c0 134 19 201 57 201c8 0 17.833 -14.333 29.5 -43s35.167 -43 70.5 -43h676c186 0 279 -99 279 -297v-1061z" />
    <glyph glyph-name="mem" unicode="&#x5de;" horiz-adv-x="1329" 
d="M1229 719c0 -139.333 -41.667 -379 -125 -719h-655l75 340h574c24.667 95.333 37 195.666 37 300.999c0 110.667 -41 201.5 -123 272.5s-188 106.5 -318 106.5c-112 0 -211 -40 -297 -120s-129 -169 -129 -267c0 -64 6.16699 -122.333 18.5 -175s18.5 -99 18.5 -139
c0 -131.333 -11 -209 -33 -233c-52 -57.333 -90.667 -86 -116 -86c-26 0 -39 13.667 -39 41c0 16.667 4.66699 34.334 14 53.001c22 44 33 121.333 33 232c0 21.333 -1.66699 62.166 -5 122.499s-5 109.5 -5 147.5c0 122.667 44.333 228.334 133 317.001
c11.333 12 42.333 34 93 66l-101 18c-20.667 10 -43.334 20.333 -68.001 31c-34 21.333 -56.333 47.333 -67 78c-8.66699 25.333 -13 68.333 -13 129c0 59.333 21 111.666 63 156.999c32 34.667 56.667 52 74 52c12.667 0 19 -7 19 -21c0 -4 -0.666992 -7.83301 -2 -11.5
s-2 -7.16699 -2 -10.5c0 -16.667 45.667 -40.667 137 -72c47.333 -16 79.333 -36.333 96 -61s25 -65.667 25 -123c0 -28.667 -25 -68 -75 -118c72.667 34 124.334 55.333 155.001 64c43.333 14.667 68.333 33.334 75 56.001l26.5 113c11 46 19.833 76.667 26.5 92
c6.66699 44 27.667 66 63 66c48.667 0 105 -14.667 169 -44c72.667 -33.333 118 -71 136 -113c75.333 -108.667 113 -261 113 -457c0 -12 -0.333008 -27.667 -1 -47v-38z" />
    <glyph glyph-name="finalnun" unicode="&#x5df;" horiz-adv-x="752" 
d="M567 1106c0 -40.667 -23.9971 -109.333 -71.9971 -206c-46.667 -94 -68.334 -172.667 -65.001 -236l59 -1158c1.33301 -14 -16.834 -44.333 -54.501 -91s-61.834 -70 -72.501 -70c-16 0 -24 14.333 -24 43v1257c0 77.333 14 143.666 42 198.999s42 88 42 98
c0 18.667 -20.667 33.667 -62 45l-116 25c-56 14 -93.333 39.667 -112 77c-12.667 26.667 -19 70.667 -19 132c0 60.667 12 113.334 36 158.001c19.333 35.333 35.333 53 48 53c12 0 18 -7 18 -21c0 -4 -0.666992 -8 -2 -12s-2 -7.33301 -2 -10
c0 -8.66699 27.667 -18.667 83 -30c79.333 -16.667 136.333 -30.667 171 -42c42.667 -14.667 71.667 -42 87 -82c10 -28.667 15 -71.667 15 -129z" />
    <glyph glyph-name="nun" unicode="&#x5e0;" horiz-adv-x="717" 
d="M662 272c0 -82.667 -13.667 -173.333 -41 -272h-566l62 340h407c-4 132 -6 229.667 -6 293c0 42 3.83301 94.333 11.5 157s11.5 101.667 11.5 117c0 74 -61.667 111 -185 111h-100c-52.667 0 -89 18 -109 54c-18.667 33.333 -28 90.333 -28 171c0 134 19 201 57 201
c8 0 17.833 -14.333 29.5 -43s35.167 -43 70.5 -43h62c185.333 0 278 -99 278 -297c0 -34 -4 -72.833 -12 -116.5s-12 -92.834 -12 -147.501c0 -42 11.667 -126.167 35 -252.5s35 -217.166 35 -272.499z" />
    <glyph glyph-name="samekh" unicode="&#x5e1;" horiz-adv-x="1274" 
d="M373 1018c-60 -49.333 -105.001 -110.997 -135.001 -184.997c-20.667 -52.667 -31 -100.334 -31 -143.001c0 -102.667 31 -189.334 93 -260.001c64.667 -74 145.667 -111 243 -111h209c108 0 198.833 34.833 272.5 104.5s110.5 154.5 110.5 254.5
c0 117.333 -24.667 201.666 -74 252.999c-55.333 58 -151.666 87 -288.999 87h-399zM1198 678.003c0 -208 -42.3301 -372.999 -126.997 -494.999c-96.667 -140 -241.334 -210 -434.001 -210c-170 0 -297.333 57.333 -382 172c-76 101.333 -114 240.666 -114 417.999
c0 202 50.667 353.667 152 455h-49c-52.667 0 -89.334 18 -110.001 54c-18.667 33.333 -28 90.333 -28 171c0 134 19.333 201 58 201c6.66699 0 16.167 -14.333 28.5 -43s36.166 -43 71.499 -43h471c152 0 267.667 -59.333 347 -178c77.333 -116 116 -283.333 116 -502z" />
    <glyph glyph-name="ayin" unicode="&#x5e2;" horiz-adv-x="1213" 
d="M1150 1133c0 -44 -13.666 -98.667 -40.999 -164c-42 -100.667 -70.667 -176.667 -86 -228c-19.333 -64.667 -34 -145 -44 -241c-10 -91.333 -19.333 -149.333 -28 -174c-23.333 -68 -51.666 -116 -84.999 -144c-49.333 -41.333 -134.333 -72 -255 -92l-543 -90l50 348
l288 47c8 14 12 29.333 12 46c0 32.667 -27.333 98.167 -82 196.5s-82 178.166 -82 239.499c0 47.333 13.333 92.333 40 135c-55.333 14.667 -92 40.667 -110 78c-12.667 26.667 -19 70.334 -19 131.001c0 61.333 12 114 36 158c18.667 35.333 34.667 53 48 53
c12 0 18 -7 18 -21c0 -4 -0.666992 -8 -2 -12s-2 -7.33301 -2 -10c0 -9.33301 19.333 -19.333 58 -30c80 -22.667 128.333 -36.667 145 -42c45.333 -15.333 76.333 -36.333 93 -63c14 -23.333 21 -59.666 21 -108.999c0 -54.667 -11 -107.334 -33 -158.001
c-18 -42 -31.333 -63 -40 -63c-15.333 0 -23 4.66699 -23 14v18c0 6.66699 -13.667 12.667 -41 18c-32 6 -64 11.667 -96 17c-10 -20 -15 -41.333 -15 -64c0 -40.667 28.333 -105.5 85 -194.5s85 -159.833 85 -212.5c0 -36.667 -10 -72.667 -30 -108l153 18
c90.667 10.667 152 26.667 184 48c30 20 56.333 60 79 120l63 170c15.333 42 32.666 79 51.999 111c14.667 25.333 22 39 22 41c0 15.333 -18 30 -54 44l-139 46c-46.667 15.333 -78.334 39.333 -95.001 72c-15.333 29.333 -23 75.666 -23 138.999
c0 60.667 14.333 113.334 43 158.001c22.667 35.333 41 53 55 53c12 0 18 -7 18 -21c0 -4 -0.666992 -8 -2 -12s-2 -7.33301 -2 -10c0 -17.333 45.667 -41.333 137 -72c124.667 -42 187 -103.333 187 -184z" />
    <glyph glyph-name="finalpe" unicode="&#x5e3;" horiz-adv-x="1262" 
d="M1182 -494c0 -14 -18.999 -44.333 -56.999 -91s-62 -70 -72 -70c-16.667 0 -25 14.333 -25 43c0 18 11.667 258.667 35 722s35 727 35 791c0 78 -59.333 117 -178 117h-592c-63.333 -58.667 -95 -104.334 -95 -137.001c0 -24 12 -39 36 -45c10 -3.33301 31.667 -5 65 -5
c12.667 0 37.167 1.16699 73.5 3.5s72.5 3.5 108.5 3.5c32.667 0 62 -12.333 88 -37c30 -27.333 45 -63 45 -107c0 -43.333 -15.333 -78.333 -46 -105c-26 -22.667 -55 -34 -87 -34h-272c-36.667 0 -65.334 -14.333 -86.001 -43s-33.667 -43 -39 -43
c-11.333 0 -17 6.66699 -17 20c0 7.33301 4.5 30.333 13.5 69s13.5 76 13.5 112c0 13.333 -2 35.333 -6 66s-6 56.334 -6 77.001c0 69.333 45 137.666 135 204.999c-51.333 0.666992 -87 19.334 -107 56.001c-17.333 32.667 -26 89 -26 169c0 134 19 201 57 201
c8 0 17.833 -14.333 29.5 -43s35.167 -43 70.5 -43h625c185.333 0 278.333 -99 279 -297z" />
    <glyph glyph-name="pe" unicode="&#x5e4;" horiz-adv-x="1262" 
d="M649 694c0 -43.333 -15.333 -78.332 -46 -104.999c-26 -22.667 -55 -34 -87 -34h-272c-36.667 0 -65.334 -14.333 -86.001 -43s-33.667 -43 -39 -43c-11.333 0 -17 6.66699 -17 20c0 7.33301 4.5 30.333 13.5 69s13.5 76 13.5 112c0 13.333 -2 35.333 -6 66
s-6 56.334 -6 77.001c0 69.333 45 137.666 135 204.999c-51.333 0.666992 -87 19.334 -107 56.001c-17.333 32.667 -26 89 -26 169c0 134 19 201 57 201c8 0 17.833 -14.333 29.5 -43s35.167 -43 70.5 -43h463c172 0 291 -52 357 -156
c61.333 -96.667 92 -267.334 92 -512.001v-377l-111 -313h-1024l88 340h969v272c0 152.667 -20.333 253.667 -61 303c-57.333 68.667 -181.666 103 -372.999 103h-348c-63.333 -58.667 -95 -104.334 -95 -137.001c0 -24 12 -39 36 -45c10 -3.33301 31.667 -5 65 -5
c12.667 0 37.167 1.16699 73.5 3.5s72.5 3.5 108.5 3.5c32.667 0 62 -12.333 88 -37c30 -27.333 45 -63 45 -107z" />
    <glyph glyph-name="finaltsadi" unicode="&#x5e5;" horiz-adv-x="1210" 
d="M563 1106c0 -40.667 -24.0039 -109.332 -72.0039 -205.999c-46.667 -94 -68.334 -172.667 -65.001 -236l12 -248c44.667 105.333 105.667 215.333 183 330c70.667 104.667 137.334 188.334 200.001 251.001c-54 30.667 -90.333 56.334 -109 77.001
c-21.333 22 -32 48 -32 78c0 20.667 5.33301 51 16 91c16 59.333 40.333 111 73 155c26.667 36 45.334 53.333 56.001 52c14 -2 19.667 -10.333 17 -25c-2 -3.33301 -4.66699 -10 -8 -20c-2.66699 -12.667 56 -51 176 -115c60.667 -32 91 -75.667 91 -131
c0 -16 -1.66699 -35 -5 -57c-8.66699 -54.667 -28.667 -111.334 -60 -170.001c-27.333 -50.667 -45 -75.334 -53 -74.001c-14 2.66699 -20 8 -18 16c0 1.33301 0.666992 7.66602 2 18.999s-22.667 32.333 -72 63c-76.667 -76.667 -159 -188.667 -247 -336
c-97.333 -163.333 -163 -310 -197 -440l43 -823c0.666992 -14 -19.166 -44.5 -59.499 -91.5s-65.833 -70.5 -76.5 -70.5c-11.333 0 -18.666 4.66699 -21.999 14c-1.33301 5.33301 -2 14.333 -2 27v1409c0 77.333 14 143.666 42 198.999s42 88 42 98
c0 18.667 -20.667 33.667 -62 45l-116 25c-56 14 -93.333 39.667 -112 77c-12.667 26.667 -19 70.667 -19 132c0 60.667 12 113.334 36 158.001c19.333 35.333 35.333 53 48 53c13.333 0 20 -7 20 -21c0 -4 -1 -8 -3 -12s-3 -7.33301 -3 -10
c0 -8.66699 27.667 -18.667 83 -30c79.333 -16.667 136.333 -30.667 171 -42c42.667 -14.667 71.334 -42 86.001 -82c10.667 -28.667 16 -71.667 16 -129z" />
    <glyph glyph-name="tsadi" unicode="&#x5e6;" horiz-adv-x="1313" 
d="M1210 340c0 -54 -17.667 -125.67 -53 -215.003l-55 -125h-996l105 340h760c11.333 0 17 3 17 9c0 6.66699 -5.66699 13.334 -17 20.001l-383 217c-78 44 -117 103.333 -117 178v192c0 41.333 -18.333 62 -55 62h-160c-52.667 0 -89 18 -109 54
c-18.667 33.333 -28 90.333 -28 171c0 134 19 201 57 201c7.33301 0 16.833 -14.333 28.5 -43s35.5 -43 71.5 -43h107c110.667 0 166 -68.333 166 -205v-197c0 -95.333 34.667 -159.333 104 -192l144 -68l137 303c-76.667 34.667 -123.834 63.834 -141.501 87.501
s-26.5 68.5 -26.5 134.5c0 60.667 12.333 113.334 37 158.001c18.667 35.333 34.334 53 47.001 53c12 0 18 -7 18 -21c0 -4 -0.666992 -8 -2 -12s-2 -7.33301 -2 -10c0 -9.33301 19.333 -19.333 58 -30c80 -22.667 128.333 -36.667 145 -42
c45.333 -15.333 76.333 -36.333 93 -63c14.667 -23.333 22 -59.666 22 -108.999c0 -55.333 -11 -114.333 -33 -177c-19.333 -54 -33 -81 -41 -81c-14 0 -21 4 -21 12v19c0 10.667 -33.333 31 -100 61l-133 -311c158.667 -71.333 260.667 -131 306 -179
c33.333 -34.667 50 -84.334 50 -149.001z" />
    <glyph glyph-name="qof" unicode="&#x5e7;" horiz-adv-x="1247" 
d="M1184 758c0 -173.333 -28.667 -295.667 -86 -367c-46.667 -58.667 -147.667 -105.334 -303 -140.001c-60.667 -35.333 -118.334 -72.666 -173.001 -111.999c-27.333 -20 -54.666 -56.667 -81.999 -110c-16.667 -20.667 -34.667 -31 -54 -31c-28.667 0 -43 20.333 -43 61
c0 71.333 19.333 130.333 58 177c64 76 164 139.333 300 190c130 37.333 208.333 66.333 235 87c54.667 41.333 82 118.666 82 231.999c0 86.667 -22.333 154.334 -67 203.001c-42 46.667 -97.333 70 -166 70h-629c-52.667 0 -89 18 -109 54
c-18.667 33.333 -28 90.333 -28 171c0 134 19 201 57 201c8 0 17.833 -14.333 29.5 -43s35.167 -43 70.5 -43h574c110 0 189 -33.667 237 -101c64.667 -90 97 -256.333 97 -499zM367 765.999c-26.667 -43.333 -41.667 -76.498 -45 -99.498s-5 -71.167 -5 -144.5
c0 -125.333 1.5 -210.5 4.5 -255.5s7.5 -89.833 13.5 -134.5s1.83301 -123.667 -12.5 -237s-21.5 -158 -21.5 -134c33.333 76 30.333 67.333 -9 -26c-23.333 -33.333 -39.166 -60 -47.499 -80s-23 -33.333 -44 -40s-28.167 -3.33398 -21.5 9.99902
c2.66699 12.667 4 33.667 4 63c0 38 2.33301 93 7 165s2.66699 133.833 -6 185.5l-34 208c-14 87 -14.333 157.833 -1 212.5c0 89.333 27.333 176 82 260c41.333 54.667 88.666 82 141.999 82c9.33301 -6.66699 7.33301 -18.334 -6 -35.001z" />
    <glyph glyph-name="resh" unicode="&#x5e8;" horiz-adv-x="1381" 
d="M1221 164c0 -15.333 -18.998 -46.5 -56.998 -93.5s-62 -70.5 -72 -70.5c-16.667 -0 -25 14.333 -25 43c0 18 11.333 149.5 34 394.5s34 399.5 34 463.5c0 78 -59.667 117 -179 117h-712c-52.667 0 -89.334 18 -110.001 54c-18.667 33.333 -28 90.333 -28 171
c0 134 19.333 201 58 201c6.66699 0 16.167 -14.333 28.5 -43s36.166 -43 71.499 -43h676c185.333 0 278.333 -99 279 -297z" />
    <glyph glyph-name="shin" unicode="&#x5e9;" horiz-adv-x="1430" 
d="M1341 1145c0 -102 -29.001 -234 -87.001 -396c-24 -67.333 -81 -205.666 -171 -414.999c-68 -157.333 -108 -268.666 -120 -333.999h-734c-4 82 -30.333 203.667 -79 365c-45.333 152.667 -68 272 -68 358c0 109.333 21.667 211 65 305c-34 21.333 -56 47.333 -66 78
c-8.66699 25.333 -13 68.333 -13 129c0 60 14.333 112.333 43 157c22 34.667 40.333 52 55 52c12 0 18 -7 18 -21c0 -4 -1 -7.83301 -3 -11.5s-3 -7.16699 -3 -10.5c0 -16.667 46.333 -40.667 139 -72c49.333 -16.667 81.666 -39 96.999 -67c12 -22.667 18 -61.667 18 -117
c0 -54.667 -15 -110 -45 -166c-25.333 -46.667 -43 -70 -53 -70c-8 0 -12 5.66699 -12 17c0 2 0.666992 3.66699 2 5s2 5 2 11c0 9.33301 -4.16699 16 -12.5 20s-41.833 15.667 -100.5 35c-4 1.33301 -9.33301 3.66602 -16 6.99902c-31.333 -72.667 -47 -143 -47 -211
c0 -52 16.333 -128.667 49 -230c31.333 -96 62.666 -170.333 93.999 -223h21c124.667 200.667 223.334 428 296.001 682c-37.333 20.667 -62 49 -74 85c-9.33301 26 -14 68.667 -14 128c0 60 14.333 112.333 43 157c22.667 34.667 41.334 52 56.001 52c12 0 18 -7 18 -21
c0 -4 -0.666992 -7.83301 -2 -11.5s-2 -7.16699 -2 -10.5c0 -16.667 45.667 -40.667 137 -72c48 -16 79.667 -38.667 95 -68c13.333 -23.333 20 -62 20 -116c0 -54.667 -15.333 -110 -46 -166c-25.333 -46.667 -43 -70 -53 -70c-8 0 -12 5.66699 -12 17
c0 2 0.666992 3.66699 2 5s2 5 2 11c0 8.66699 -4.33301 15.334 -13 20.001c-6 2.66699 -36.333 13 -91 31c-77.333 -263.333 -166.333 -481 -267 -653h532c16.667 43.333 76.334 153.666 179.001 330.999c79.333 136.667 119 236 119 298c0 14 -8.66699 23 -26 27
c-55.333 12.667 -92.333 22 -111 28c-46.667 15.333 -78.667 39 -96 71c-15.333 29.333 -23 76 -23 140c0 60 14.333 112.333 43 157c22 34.667 39.667 52 53 52c14 0 21 -7 21 -21c0 -4 -1 -7.83301 -3 -11.5s-3 -7.16699 -3 -10.5c0 -16.667 46.333 -40.667 139 -72
c44.667 -15.333 75 -39 91 -71c11.333 -24.667 17 -62.334 17 -113.001z" />
    <glyph glyph-name="tav" unicode="&#x5ea;" horiz-adv-x="1348" 
d="M1245 164c1.33301 -15.333 -12.8311 -46.501 -42.498 -93.501s-49.5 -70.5 -59.5 -70.5c-16.667 0 -25 14.333 -25 43c0 10.667 0.666992 153 2 427s2 417.667 2 431c0 78 -63.333 117 -190 117h-592c-61.333 -115.333 -92 -223.333 -92 -324
c0 -57.333 32.333 -133.666 97 -228.999s97 -165 97 -209c0 -80.667 -15.333 -144.334 -46 -191.001c-28.667 -43.333 -65 -65 -109 -65h-264l59 340h154c-20.667 22.667 -40.334 64.667 -59.001 126c-16.667 58 -25 105.333 -25 142c0 78.667 8.33301 146.334 25 203.001
c14 48 43.667 117 89 207h-22c-52.667 0 -89.334 18 -110.001 54c-18.667 33.333 -28 90.333 -28 171c0 134 19.333 201 58 201c6.66699 0 16.167 -14.333 28.5 -43s36.166 -43 71.499 -43h649c170.667 0 262.334 -99 275.001 -297z" />
    <glyph glyph-name="vavdbl" unicode="&#x5f0;" horiz-adv-x="1217" 
d="M1144 164c0 -15.333 -18.832 -46.5 -56.499 -93.5s-61.834 -70.5 -72.501 -70.5c-16 -0 -24 14.333 -24 43c0 18 11.5 149.5 34.5 394.5s34.5 399.5 34.5 463.5c0 78 -42.333 117 -127 117h-137c-52.667 0 -89 18 -109 54c-18.667 33.333 -28 90.333 -28 171
c0 134 18.333 201 55 201c8 0 18 -14.333 30 -43s35.667 -43 71 -43h127c133.333 0 200 -99 200 -297zM567.001 164c0 -15.333 -18.832 -46.5 -56.499 -93.5s-61.834 -70.5 -72.501 -70.5c-16 -0 -24 14.333 -24 43c0 18 11.5 149.5 34.5 394.5s34.5 399.5 34.5 463.5
c0 78 -42.333 117 -127 117h-137c-52.667 0 -89 18 -109 54c-18.667 33.333 -28 90.333 -28 171c0 134 18.333 201 55 201c8 0 18 -14.333 30 -43s35.667 -43 71 -43h127c133.333 0 200 -99 200 -297z" />
    <glyph glyph-name="vavyod" unicode="&#x5f1;" horiz-adv-x="1257" 
d="M580 1061c0 -98 -6.66504 -185.333 -19.998 -262c-14 -80.667 -31.333 -121 -52 -121c-18.667 0 -29.667 5 -33 15v32c0 4 3.5 26.833 10.5 68.5s10.5 77.5 10.5 107.5c0 78 -55.333 117 -166 117h-99c-52.667 0 -89.334 18 -110.001 54
c-19.333 33.333 -29 90.333 -29 171c0 134 20 201 60 201c6.66699 0 16.167 -14.333 28.5 -43s36.166 -43 71.499 -43h59c178 0 267.667 -99 269 -297zM1182 164c0 -15.333 -18.832 -46.5 -56.499 -93.5s-61.834 -70.5 -72.501 -70.5c-16 -0 -24 14.333 -24 43
c0 18 11.5 149.5 34.5 394.5s34.5 399.5 34.5 463.5c0 78 -42.333 117 -127 117h-137c-52.667 0 -89 18 -109 54c-18.667 33.333 -28 90.333 -28 171c0 134 18.333 201 55 201c8 0 18 -14.333 30 -43s35.667 -43 71 -43h127c133.333 0 200 -99 200 -297z" />
    <glyph glyph-name="yoddbl" unicode="&#x5f2;" horiz-adv-x="1257" 
d="M580 1061c0 -98 -6.66504 -185.333 -19.998 -262c-14 -80.667 -31.333 -121 -52 -121c-18.667 0 -29.667 5 -33 15v32c0 4 3.5 26.833 10.5 68.5s10.5 77.5 10.5 107.5c0 78 -55.333 117 -166 117h-99c-52.667 0 -89.334 18 -110.001 54
c-19.333 33.333 -29 90.333 -29 171c0 134 20 201 60 201c6.66699 0 16.167 -14.333 28.5 -43s36.166 -43 71.499 -43h59c178 0 267.667 -99 269 -297zM1181 1061c0 -98 -6.66504 -185.333 -19.998 -262c-14 -80.667 -31.333 -121 -52 -121c-18.667 0 -29.667 5 -33 15v32
c0 4 3.5 26.833 10.5 68.5s10.5 77.5 10.5 107.5c0 78 -55.333 117 -166 117h-99c-52.667 0 -89.334 18 -110.001 54c-19.333 33.333 -29 90.333 -29 171c0 134 20 201 60 201c6.66699 0 16.167 -14.333 28.5 -43s36.166 -43 71.499 -43h59c178 0 267.667 -99 269 -297z" />
    <glyph glyph-name="geresh" unicode="&#x5f3;" horiz-adv-x="530" 
d="M530 1280c0 -32.667 -15.666 -63.333 -46.999 -92l-342 -314h-141l260 394c41.333 62.667 90.666 94 147.999 94c81.333 0 122 -27.333 122 -82z" />
    <glyph glyph-name="gershayim" unicode="&#x5f4;" horiz-adv-x="946" 
d="M946 1280c0 -32.667 -15.667 -63.333 -47 -92l-342 -314h-141l260 394c41.333 62.667 90.333 94 147 94c82 0 123 -27.333 123 -82zM530 1280c0 -32.667 -15.666 -63.333 -46.999 -92l-342 -314h-141l260 394c41.333 62.667 90.666 94 147.999 94
c81.333 0 122 -27.333 122 -82z" />
    <glyph glyph-name="enquad" unicode="&#x2000;" horiz-adv-x="1024" 
 />
    <glyph glyph-name="emquad" unicode="&#x2001;" horiz-adv-x="2048" 
 />
    <glyph glyph-name="enspace" unicode="&#x2002;" horiz-adv-x="1024" 
 />
    <glyph glyph-name="emspace" unicode="&#x2003;" horiz-adv-x="2048" 
 />
    <glyph glyph-name="threeperemspace" unicode="&#x2004;" horiz-adv-x="683" 
 />
    <glyph glyph-name="fourperemspace" unicode="&#x2005;" horiz-adv-x="512" 
 />
    <glyph glyph-name="sixperemspace" unicode="&#x2006;" horiz-adv-x="341" 
 />
    <glyph glyph-name="figurespace" unicode="&#x2007;" horiz-adv-x="1135" 
 />
    <glyph glyph-name="punctuationspace" unicode="&#x2008;" horiz-adv-x="592" 
 />
    <glyph glyph-name="thinspace" unicode="&#x2009;" horiz-adv-x="200" 
 />
    <glyph glyph-name="hairspace" unicode="&#x200a;" horiz-adv-x="100" 
 />
    <glyph glyph-name="zerowidthspace" unicode="&#x200b;" 
 />
    <glyph glyph-name="zeronojoin" unicode="&#x200c;" 
d="M294 1019l-16 -24c-59.333 40.667 -126 64.667 -200 72l148 -148l-32 -32l-183 183h-24l-180 -180l-32 32l145 145c-74 -6.66699 -140 -30 -198 -70l-16 22c75.333 70 153.333 110.667 234 122l-163 163l32 32l190 -190l193 193l32 -32l-166 -166
c81.333 -11.333 160 -52 236 -122zM32 932c0 -21.333 -10.667 -32 -32 -32s-32 10.667 -32 32s10.667 32 32 32s32 -10.667 32 -32zM32 782c0 -21.333 -10.667 -32 -32 -32s-32 10.667 -32 32s10.667 32 32 32s32 -10.667 32 -32zM32 632c0 -21.333 -10.667 -32 -32 -32
s-32 10.667 -32 32s10.667 32 32 32s32 -10.667 32 -32zM32 482c0 -21.333 -10.667 -32 -32 -32s-32 10.667 -32 32s10.667 32 32 32s32 -10.667 32 -32zM32 332c0 -21.333 -10.667 -32 -32 -32s-32 10.667 -32 32s10.667 32 32 32s32 -10.667 32 -32zM32 182
c0 -21.333 -10.667 -32 -32 -32s-32 10.667 -32 32s10.667 32 32 32s32 -10.667 32 -32zM32 32c0 -21.333 -10.667 -32 -32 -32s-32 10.667 -32 32s10.667 32 32 32s32 -10.667 32 -32z" />
    <glyph glyph-name="zerojoin" unicode="&#x200d;" 
d="M0 1145c105.333 0 203.335 -41.999 294.002 -125.999c0 -3.33301 -5.33301 -11.333 -16 -24c-72.667 50 -165.334 75 -278.001 75c-114.667 0 -207.334 -24.333 -278.001 -73c-10.667 11.333 -16 18.666 -16 21.999c90.667 84 188.667 126 294 126zM32.002 932.001
c0 -21.333 -10.667 -32 -32 -32s-32 10.667 -32 32s10.667 32 32 32s32 -10.667 32 -32zM32.002 782.001c0 -21.333 -10.667 -32 -32 -32s-32 10.667 -32 32s10.667 32 32 32s32 -10.667 32 -32zM32.002 632.001c0 -21.333 -10.667 -32 -32 -32s-32 10.667 -32 32
s10.667 32 32 32s32 -10.667 32 -32zM32.002 482.001c0 -21.333 -10.667 -32 -32 -32s-32 10.667 -32 32s10.667 32 32 32s32 -10.667 32 -32zM32.002 332.001c0 -21.333 -10.667 -32 -32 -32s-32 10.667 -32 32s10.667 32 32 32s32 -10.667 32 -32zM32.002 182.001
c0 -21.333 -10.667 -32 -32 -32s-32 10.667 -32 32s10.667 32 32 32s32 -10.667 32 -32zM32.002 32.001c0 -21.333 -10.667 -32 -32 -32s-32 10.667 -32 32s10.667 32 32 32s32 -10.667 32 -32z" />
    <glyph glyph-name="ulefttoright" unicode="&#x200e;" 
d="M80 1050l-100 -90v180z" />
    <glyph glyph-name="urighttoleft" unicode="&#x200f;" 
d="M20 960l-100 90l100 90v-180z" />
    <glyph glyph-name="hyphen" unicode="&#x2010;" horiz-adv-x="657" 
d="M565 416h-475v153h475v-153z" />
    <glyph glyph-name="hyphennobreak" unicode="&#x2011;" horiz-adv-x="657" 
d="M565 416h-475v153h475v-153z" />
    <glyph glyph-name="en" unicode="&#x2013;" horiz-adv-x="1024" 
d="M1024 541h-1024v180h1024v-180z" />
    <glyph glyph-name="em" unicode="&#x2014;" horiz-adv-x="2048" 
d="M2048 541h-2048v180h2048v-180z" />
    <glyph glyph-name="quoteleft" unicode="&#x2018;" horiz-adv-x="494" 
d="M508 1264c-38 -23.333 -76 -54.668 -114 -94.001s-63 -72.333 -75 -99c-102 58.667 -153 124.334 -153 197.001c0 54.667 30.333 117 91 187c54 62 92 93 114 93c14.667 0 22 -8 22 -24c0 -6 -7.83301 -19.167 -23.5 -39.5s-23.5 -42.833 -23.5 -67.5
c0 -55.333 54 -106.333 162 -153z" />
    <glyph glyph-name="quoteright" unicode="&#x2019;" horiz-adv-x="494" 
d="M387 1352c0 -55.333 -30.665 -117.667 -91.998 -187c-54.667 -62.667 -93 -94 -115 -94c-13.333 0 -20 8.33301 -20 25c0 4.66699 7.83301 17.5 23.5 38.5s23.5 43.5 23.5 67.5c0 53.333 -54 105.333 -162 156c37.333 21.333 75.666 52.333 114.999 93
c37.333 38 61.666 70.333 72.999 97c102.667 -56 154 -121.333 154 -196z" />
    <glyph glyph-name="quotesinglbase" unicode="&#x201a;" horiz-adv-x="440" 
d="M367 37c0 -84 -31.001 -166.001 -93.001 -246.001c-26 -33.333 -70.333 -77.666 -133 -132.999l-75 16c67.333 79.333 103 122 107 128c42.667 62 63.667 122.667 63 182c0 4 -0.5 11 -1.5 21s-1.5 16.667 -1.5 20h-129c-20 22 -30 48.333 -30 79
c0 36 11.333 65.833 34 89.5s52.334 35.5 89.001 35.5c52.667 0 94.167 -17 124.5 -51s45.5 -81 45.5 -141z" />
    <glyph glyph-name="quotedblleft" unicode="&#x201c;" horiz-adv-x="1057" 
d="M893 1264c-38.667 -23.333 -77.167 -54.833 -115.5 -94.5s-62.5 -72.5 -72.5 -98.5c-102.667 57.333 -154 123 -154 197c0 54.667 30.333 117 91 187c54 62 92 93 114 93c13.333 0 20 -8 20 -24c0 -6 -7.83301 -19.167 -23.5 -39.5s-23.5 -42.833 -23.5 -67.5
c0 -54.667 54.667 -105.667 164 -153zM508 1264c-38 -23.333 -76 -54.668 -114 -94.001s-63 -72.333 -75 -99c-102 58.667 -153 124.334 -153 197.001c0 54.667 30.333 117 91 187c54 62 92 93 114 93c14.667 0 22 -8 22 -24c0 -6 -7.83301 -19.167 -23.5 -39.5
s-23.5 -42.833 -23.5 -67.5c0 -55.333 54 -106.333 162 -153z" />
    <glyph glyph-name="quotedblright" unicode="&#x201d;" horiz-adv-x="815" 
d="M770 1352c0 -55.333 -30.333 -117.667 -91 -187c-54 -62.667 -92 -94 -114 -94c-13.333 0 -20 8.33301 -20 25c0 4.66699 7.5 17.5 22.5 38.5s22.5 43.5 22.5 67.5c0 53.333 -54 105.333 -162 156c38 22 76.333 52.667 115 92s63 72 73 98
c102.667 -54.667 154 -120 154 -196zM387 1352c0 -55.333 -30.665 -117.667 -91.998 -187c-54.667 -62.667 -93 -94 -115 -94c-13.333 0 -20 8.33301 -20 25c0 4.66699 7.83301 17.5 23.5 38.5s23.5 43.5 23.5 67.5c0 53.333 -54 105.333 -162 156
c37.333 21.333 75.666 52.333 114.999 93c37.333 38 61.666 70.333 72.999 97c102.667 -56 154 -121.333 154 -196z" />
    <glyph glyph-name="doublecomma" unicode="&#x201e;" horiz-adv-x="815" 
d="M770 150c0 -55.333 -30.333 -117.997 -91 -187.997c-54 -62 -92 -93 -114 -93c-7.33301 0 -12.5 1.33301 -15.5 4s-4.5 8.66699 -4.5 18c0 6 7.5 19.667 22.5 41s22.5 44 22.5 68c0 55.333 -54 106.666 -162 153.999c38 22.667 76.333 53.667 115 93s63 71.666 73 96.999
c102.667 -54.667 154 -119.334 154 -194.001zM387 150.003c0 -55.333 -30.665 -117.999 -91.998 -187.999c-54.667 -62 -93 -93 -115 -93c-7.33301 0 -12.5 1.33301 -15.5 4s-4.5 8.66699 -4.5 18c0 6 7.83301 19.667 23.5 41s23.5 44 23.5 68
c0 55.333 -54 106.666 -162 153.999c37.333 22.667 75.666 54 114.999 94c37.333 38.667 61.666 70.667 72.999 96c102.667 -56 154 -120.667 154 -194z" />
    <glyph glyph-name="dagger" unicode="&#x2020;" horiz-adv-x="1024" 
d="M608 1315l-82 -287h-28l-82 287l96 155zM995 985l-153 -94l-287 80v28l287 82zM471 971l-289 -80l-153 94l153 96l289 -82v-28zM616 602l-90 -866h-28l-90 866l90 340h28z" />
    <glyph glyph-name="daggerdbl" unicode="&#x2021;" horiz-adv-x="1024" 
d="M608 1315l-82 -287h-28l-80 287l94 155zM995 985l-153 -94l-287 80v28l287 82zM471 971l-289 -80l-153 94l153 96l289 -82v-28zM633 600l-107 -340h-28l-109 342l109 340h28zM995 217l-153 -96l-287 80v30l287 80zM471 201l-289 -80l-153 96l153 94l289 -80v-30z
M608 -113l-96 -155l-94 155l80 287h28z" />
    <glyph glyph-name="bullet" unicode="&#x2022;" horiz-adv-x="762" 
d="M662 748c0 -78 -27.333 -144 -82 -198s-121 -81 -199 -81s-144.333 27 -199 81s-82 120 -82 198s27.333 144.167 82 198.5s121 81.5 199 81.5s144.333 -27.167 199 -81.5s82 -120.5 82 -198.5z" />
    <glyph glyph-name="ellipsis" unicode="&#x2026;" horiz-adv-x="2048" 
d="M1845 121c0 -38 -13.167 -70.333 -39.5 -97s-58.833 -40 -97.5 -40c-38 0 -70.333 13.333 -97 40s-40 59 -40 97s13 70.333 39 97s58 40 96 40s70.667 -13.667 98 -41s41 -59.333 41 -96zM1161 121c0 -38.667 -13.333 -71.167 -40 -97.5s-59 -39.5 -97 -39.5
c-38.667 0 -71.167 13.333 -97.5 40s-39.5 59 -39.5 97s13.333 70.333 40 97s59 40 97 40s70.333 -13.333 97 -40s40 -59 40 -97zM479 121c0 -38 -13.333 -70.333 -40 -97s-59 -40 -97 -40s-70.333 13.333 -97 40s-40 59 -40 97s13.333 70.333 40 97s59 40 97 40
s70.333 -13.333 97 -40s40 -59 40 -97z" />
    <glyph glyph-name="lre" unicode="&#x202a;" 
d="M166 -70l-100 -90v70h-106v803h40v-763h66v70z" />
    <glyph glyph-name="rle" unicode="&#x202b;" 
d="M40 -90h-106v-70l-100 90l100 90v-70h66v763h40v-803z" />
    <glyph glyph-name="pdf" unicode="&#x202c;" 
d="M90 713h-70v-763h62v-40h-164v40h62v763h-70l90 100z" />
    <glyph glyph-name="lro" unicode="&#x202d;" 
d="M166 1105l-100 -90v70h-211v40h211v70zM32 932c0 -21.333 -10.667 -32 -32 -32s-32 10.667 -32 32s10.667 32 32 32s32 -10.667 32 -32zM32 782c0 -21.333 -10.667 -32 -32 -32s-32 10.667 -32 32s10.667 32 32 32s32 -10.667 32 -32zM32 632
c0 -21.333 -10.667 -32 -32 -32s-32 10.667 -32 32s10.667 32 32 32s32 -10.667 32 -32zM32 482c0 -21.333 -10.667 -32 -32 -32s-32 10.667 -32 32s10.667 32 32 32s32 -10.667 32 -32zM32 332c0 -21.333 -10.667 -32 -32 -32s-32 10.667 -32 32s10.667 32 32 32
s32 -10.667 32 -32zM32 182c0 -21.333 -10.667 -32 -32 -32s-32 10.667 -32 32s10.667 32 32 32s32 -10.667 32 -32zM32 32c0 -21.333 -10.667 -32 -32 -32s-32 10.667 -32 32s10.667 32 32 32s32 -10.667 32 -32z" />
    <glyph glyph-name="rlo" unicode="&#x202e;" 
d="M145 1085h-211v-70l-100 90l100 90v-70h211v-40zM32 932c0 -21.333 -10.667 -32 -32 -32s-32 10.667 -32 32s10.667 32 32 32s32 -10.667 32 -32zM32 782c0 -21.333 -10.667 -32 -32 -32s-32 10.667 -32 32s10.667 32 32 32s32 -10.667 32 -32zM32 632
c0 -21.333 -10.667 -32 -32 -32s-32 10.667 -32 32s10.667 32 32 32s32 -10.667 32 -32zM32 482c0 -21.333 -10.667 -32 -32 -32s-32 10.667 -32 32s10.667 32 32 32s32 -10.667 32 -32zM32 332c0 -21.333 -10.667 -32 -32 -32s-32 10.667 -32 32s10.667 32 32 32
s32 -10.667 32 -32zM32 182c0 -21.333 -10.667 -32 -32 -32s-32 10.667 -32 32s10.667 32 32 32s32 -10.667 32 -32zM32 32c0 -21.333 -10.667 -32 -32 -32s-32 10.667 -32 32s10.667 32 32 32s32 -10.667 32 -32z" />
    <glyph glyph-name="perthousand" unicode="&#x2030;" horiz-adv-x="2537" 
d="M2476 406c0 -126.667 -26 -228.666 -78 -305.999c-56 -83.333 -134.333 -125 -235 -125c-101.333 0 -180.333 42 -237 126c-52.667 77.333 -79 179 -79 305c0 125.333 26 226.666 78 303.999c56.667 84 136 126 238 126c101.333 0 180 -41.667 236 -125
c51.333 -77.333 77 -179 77 -305zM1700 406.001c0 -126 -26.666 -228.001 -79.999 -306.001c-56.667 -83.333 -135.334 -125 -236.001 -125c-101.333 0 -180 42 -236 126c-51.333 77.333 -77 179 -77 305s26 227.667 78 305c56.667 83.333 135.667 125 237 125
s180 -42 236 -126c52 -77.333 78 -178.666 78 -303.999zM1380 1374l-868 -1374h-129l868 1374h129zM696.001 971c0 -126.667 -26.667 -228.666 -80 -305.999c-56.667 -82.667 -135 -124 -235 -124c-102 0 -181 42 -237 126c-52 77.333 -78 178.666 -78 303.999
c0 126 26 227.667 78 305c56.667 83.333 135.667 125 237 125s180.333 -41.667 237 -125c52 -77.333 78 -179 78 -305zM2320 406.001c0 234.667 -53 352 -159 352c-105.333 0 -158 -117.333 -158 -352c0 -235.333 52.667 -353 158 -353c106 0 159 117.667 159 353z
M1544 406.001c0 234.667 -53.333 352 -160 352c-106 0 -159 -117.333 -159 -352c0 -235.333 53 -353 159 -353c106.667 0 160 117.667 160 353zM539.001 971.001c0 234.667 -52.667 352 -158 352c-106.667 0 -160 -117.333 -160 -352c0 -235.333 52.667 -353 158 -353
c106.667 0 160 117.667 160 353z" />
    <glyph glyph-name="guilsinglleft" unicode="&#x2039;" horiz-adv-x="502" 
d="M426 131l-340 279v163l340 281v-143l-238 -219l238 -218v-143z" />
    <glyph glyph-name="guilsinglright" unicode="&#x203a;" horiz-adv-x="502" 
d="M418 410l-340 -279v143l235 218l-235 219v143l340 -281v-163z" />
    <glyph glyph-name="newsheqel" unicode="&#x20aa;" horiz-adv-x="1153" 
d="M1063 249c0 -166 -81.667 -249 -245 -249h-448v1101h149v-962h282c75.333 0 113 39.667 113 119v952h149v-961zM791 280l-151 0.000976562v825c0 86.667 -48 130 -144 130h-249v-1067h-148v1206h449c68 0 124.333 -19 169 -57c49.333 -40.667 74 -96.334 74 -167.001
v-870z" />
    <glyph glyph-name="u20AC" unicode="&#x20ac;" horiz-adv-x="1153" 
d="M1081 47c-21.333 -10 -61.6709 -22.668 -121.004 -38.001c-90 -22.667 -172.333 -34 -247 -34c-159.333 0 -292.666 53.667 -399.999 161c-100 99.333 -164.333 229 -193 389h-120l47 110h60c-1.33301 18 -2 36.333 -2 55s0.666992 37 2 55h-107l47 110h72
c28 166.667 95.167 299 201.5 397s237.833 147 394.5 147c111.333 0 233.333 -24 366 -72v-321h-125l-25 186c-3.33301 22 -13.333 37.667 -30 47c-53.333 30 -112.666 45 -177.999 45c-104 0 -190.333 -35.667 -259 -107c-72 -74.667 -118 -182 -138 -322h568l-47 -110
h-530c-0.666992 -16 -1 -32.333 -1 -49c0 -20.667 0.333008 -41 1 -61h486l-47 -110h-428c20.667 -139.333 66.834 -247 138.501 -323s164.834 -114 279.501 -114c57.333 0 104.333 9 141 27c18.667 8.66699 29.667 22.334 33 41.001l40 223h121v-332z" />
    <glyph glyph-name="trademark" unicode="&#x2122;" horiz-adv-x="1671" 
d="M1462 817h-223v45l61 10v428l-184 -483h-49l-174 483v-428l61 -10v-45h-186v45l63 10v424l-63 13v47h213v-27l135 -360l135 360v27h211v-47l-65 -13v-424l65 -10v-45zM709 1212l-55.999 0.000976562l-14 86c0 7.33301 -2.66699 11 -8 11h-107v-437
c17.333 -2.66699 42.666 -6 75.999 -10v-45h-252v45c15.333 1.33301 41.333 4.66602 78 9.99902v437h-109c-5.33301 0 -8 -3.66699 -8 -11l-12 -86h-59v144h471v-144z" />
    <glyph glyph-name="minus" unicode="&#x2212;" horiz-adv-x="1706" 
d="M1452 545h-1198v133h1198v-133z" />
    <glyph glyph-name="bulletmath" unicode="&#x2219;" horiz-adv-x="573" 
d="M426 686c0 -38.667 -13.667 -71.167 -41 -97.5s-60 -39.5 -98 -39.5s-70.333 13.333 -97 40s-40 59 -40 97s13.333 70.667 40 98s59 41 97 41s70.667 -13.667 98 -41s41 -60 41 -98z" />
    <glyph glyph-name="circledotted" unicode="&#x25cc;" horiz-adv-x="1580" 
d="M1232 1045c0 -37.333 -18.333 -56 -55 -56c-40 0 -60 18.667 -60 56c0 38 20 57 60 57c36.667 0 55 -19 55 -57zM1060 1160c0 -38.667 -18.667 -58 -56 -58c-40 0 -60 19.333 -60 58c0 40 20 60 60 60c37.333 0 56 -20 56 -60zM1350 872c0 -40 -20 -60 -60 -60
c-38.667 0 -58 20 -58 60c0 38 20 57 60 57c38.667 0 58 -19 58 -57zM1391 668c0 -38.667 -18.333 -58 -55 -58c-40 0 -60 19.333 -60 58c0 38 20 57 60 57c36.667 0 55 -19 55 -57zM856 1203c0 -40 -19.333 -60 -58 -60s-58 20 -58 60c0 38.667 19.333 58 58 58
s58 -19.333 58 -58zM654 1160c0 -38.667 -20 -58 -60 -58c-38.667 0 -58 19.333 -58 58c0 40 19.333 60 58 60c40 0 60 -20 60 -60zM1350 464c0 -38.667 -20 -58 -60 -58c-38.667 0 -58 19.333 -58 58c0 40 19.333 60 58 60c40 0 60 -20 60 -60zM479 1045
c0 -37.333 -19.333 -56 -58 -56c-38 0 -57 17.667 -57 53c0 40 19 60 57 60c38.667 0 58 -19 58 -57zM1232 289c0 -38.667 -18.333 -58 -55 -58c-38 0 -57 19.333 -57 58c0 40 19 60 57 60c36.667 0 55 -20 55 -60zM1060 173c0 -36.667 -18.667 -55 -56 -55
c-38 0 -57 18.333 -57 55c0 40 19 60 57 60c37.333 0 56 -20 56 -60zM364 872c0 -40 -18.667 -60 -56 -60c-40 0 -60 20 -60 60c0 38 19.333 57 58 57s58 -19 58 -57zM323 668c0 -38.667 -19.333 -58 -58 -58c-40 0 -60 19.333 -60 58c0 38 20 57 60 57
c38.667 0 58 -19 58 -57zM856 135c0 -40 -19.333 -60 -58 -60s-58 20 -58 60c0 38.667 19.333 58 58 58s58 -19.333 58 -58zM364 464c0 -38.667 -19.333 -58 -58 -58s-58 19.333 -58 58c0 40 19.333 60 58 60s58 -20 58 -60zM654 178c0 -40 -20 -60 -60 -60
c-38.667 0 -58 18.333 -58 55c0 40 19.333 60 58 60c40 0 60 -18.333 60 -55zM479 289c0 -38.667 -19.333 -58 -58 -58c-38 0 -57 19.333 -57 58c0 40 19 60 57 60c38.667 0 58 -20 58 -60z" />
    <glyph glyph-name="yodhiriq" unicode="&#xfb1d;" horiz-adv-x="691" 
d="M580 1061c0 -98 -6.66504 -185.333 -19.998 -262c-14 -80.667 -31.333 -121 -52 -121c-18.667 0 -29.667 5 -33 15v32c0 4 3.5 26.833 10.5 68.5s10.5 77.5 10.5 107.5c0 78 -55.333 117 -166 117h-99c-52.667 0 -89.334 18 -110.001 54
c-19.333 33.333 -29 90.333 -29 171c0 134 20 201 60 201c6.66699 0 16.167 -14.333 28.5 -43s36.166 -43 71.499 -43h59c178 0 267.667 -99 269 -297zM422.002 196c0 -25.333 -9.5 -47.333 -28.5 -66s-41.167 -28 -66.5 -28s-47 9.33301 -65 28s-27 40.667 -27 66
c0 24.667 9 45.834 27 63.501s39.667 26.5 65 26.5s47.5 -8.83301 66.5 -26.5s28.5 -38.834 28.5 -63.501z" />
    <glyph glyph-name="varika" unicode="&#xfb1e;" 
d="M496 1686c-18.667 -50.667 -52.667 -91 -102 -121c-45.333 -27.333 -94 -41 -146 -41s-100.667 13.667 -146 41c-49.333 30 -83.333 70.333 -102 121v92c34 -93.333 116.667 -140 248 -140s214 46.667 248 140v-92z" />
    <glyph glyph-name="yodpatahdbl" unicode="&#xfb1f;" horiz-adv-x="1257" 
d="M1181 1061c0 -98 -6.66504 -185.333 -19.998 -262c-14 -80.667 -31.333 -121 -52 -121c-18.667 0 -29.667 5 -33 15v32c0 4 3.5 26.833 10.5 68.5s10.5 77.5 10.5 107.5c0 78 -55.333 117 -166 117h-99c-52.667 0 -89.334 18 -110.001 54
c-19.333 33.333 -29 90.333 -29 171c0 134 20 201 60 201c6.66699 0 16.167 -14.333 28.5 -43s36.166 -43 71.499 -43h59c178 0 267.667 -99 269 -297zM580.002 1061c0 -98 -6.66504 -185.333 -19.998 -262c-14 -80.667 -31.333 -121 -52 -121c-18.667 0 -29.667 5 -33 15
v32c0 4 3.5 26.833 10.5 68.5s10.5 77.5 10.5 107.5c0 78 -55.333 117 -166 117h-99c-52.667 0 -89.334 18 -110.001 54c-19.333 33.333 -29 90.333 -29 171c0 134 20 201 60 201c6.66699 0 16.167 -14.333 28.5 -43s36.166 -43 71.499 -43h59c178 0 267.667 -99 269 -297z
M1074 443h-409v114h409v-114zM623.004 443h-409v114h409v-114z" />
    <glyph glyph-name="altayin" unicode="&#xfb20;" horiz-adv-x="1213" 
d="M1150 1133c0 -44 -13.666 -98.667 -40.999 -164c-42 -100.667 -70.667 -176.667 -86 -228c-19.333 -64.667 -34 -145 -44 -241c-10 -91.333 -19.333 -149.333 -28 -174c-23.333 -68 -51.666 -116 -84.999 -144c-49.333 -41.333 -134.333 -72 -255 -92l-543 -90l50 348
l288 47c8 14 12 29.333 12 46c0 32.667 -27.333 98.167 -82 196.5s-82 178.166 -82 239.499c0 47.333 13.333 92.333 40 135c-55.333 14.667 -92 40.667 -110 78c-12.667 26.667 -19 70.334 -19 131.001c0 61.333 12 114 36 158c18.667 35.333 34.667 53 48 53
c12 0 18 -7 18 -21c0 -4 -0.666992 -8 -2 -12s-2 -7.33301 -2 -10c0 -9.33301 19.333 -19.333 58 -30c80 -22.667 128.333 -36.667 145 -42c45.333 -15.333 76.333 -36.333 93 -63c14 -23.333 21 -59.666 21 -108.999c0 -54.667 -11 -107.334 -33 -158.001
c-18 -42 -31.333 -63 -40 -63c-15.333 0 -23 4.66699 -23 14v18c0 6.66699 -13.667 12.667 -41 18c-32 6 -64 11.667 -96 17c-10 -20 -15 -41.333 -15 -64c0 -40.667 28.333 -105.5 85 -194.5s85 -159.833 85 -212.5c0 -36.667 -10 -72.667 -30 -108l153 18
c90.667 10.667 152 26.667 184 48c30 20 56.333 60 79 120l63 170c15.333 42 32.666 79 51.999 111c14.667 25.333 22 39 22 41c0 15.333 -18 30 -54 44l-139 46c-46.667 15.333 -78.334 39.333 -95.001 72c-15.333 29.333 -23 75.666 -23 138.999
c0 60.667 14.333 113.334 43 158.001c22.667 35.333 41 53 55 53c12 0 18 -7 18 -21c0 -4 -0.666992 -8 -2 -12s-2 -7.33301 -2 -10c0 -17.333 45.667 -41.333 137 -72c124.667 -42 187 -103.333 187 -184z" />
    <glyph glyph-name="altplussign" unicode="&#xfb29;" horiz-adv-x="1706" 
d="M246 433h551v551h116v-551h551v-117h-1218v117z" />
    <glyph glyph-name="shinshindot" unicode="&#xfb2a;" horiz-adv-x="1430" 
d="M1320 1639c0 -24.667 -9.5 -46.167 -28.5 -64.5s-41.167 -27.5 -66.5 -27.5s-47 9 -65 27s-27 39.667 -27 65c0 24.667 9 46 27 64s39.667 27 65 27s47.5 -9 66.5 -27s28.5 -39.333 28.5 -64zM1341 1145c0 -102 -29.001 -234 -87.001 -396
c-24 -67.333 -81 -205.666 -171 -414.999c-68 -157.333 -108 -268.666 -120 -333.999h-734c-4 82 -30.333 203.667 -79 365c-45.333 152.667 -68 272 -68 358c0 109.333 21.667 211 65 305c-34 21.333 -56 47.333 -66 78c-8.66699 25.333 -13 68.333 -13 129
c0 60 14.333 112.333 43 157c22 34.667 40.333 52 55 52c12 0 18 -7 18 -21c0 -4 -1 -7.83301 -3 -11.5s-3 -7.16699 -3 -10.5c0 -16.667 46.333 -40.667 139 -72c49.333 -16.667 81.666 -39 96.999 -67c12 -22.667 18 -61.667 18 -117c0 -54.667 -15 -110 -45 -166
c-25.333 -46.667 -43 -70 -53 -70c-8 0 -12 5.66699 -12 17c0 2 0.666992 3.66699 2 5s2 5 2 11c0 9.33301 -4.16699 16 -12.5 20s-41.833 15.667 -100.5 35c-4 1.33301 -9.33301 3.66602 -16 6.99902c-31.333 -72.667 -47 -143 -47 -211c0 -52 16.333 -128.667 49 -230
c31.333 -96 62.666 -170.333 93.999 -223h21c124.667 200.667 223.334 428 296.001 682c-37.333 20.667 -62 49 -74 85c-9.33301 26 -14 68.667 -14 128c0 60 14.333 112.333 43 157c22.667 34.667 41.334 52 56.001 52c12 0 18 -7 18 -21c0 -4 -0.666992 -7.83301 -2 -11.5
s-2 -7.16699 -2 -10.5c0 -16.667 45.667 -40.667 137 -72c48 -16 79.667 -38.667 95 -68c13.333 -23.333 20 -62 20 -116c0 -54.667 -15.333 -110 -46 -166c-25.333 -46.667 -43 -70 -53 -70c-8 0 -12 5.66699 -12 17c0 2 0.666992 3.66699 2 5s2 5 2 11
c0 8.66699 -4.33301 15.334 -13 20.001c-6 2.66699 -36.333 13 -91 31c-77.333 -263.333 -166.333 -481 -267 -653h532c16.667 43.333 76.334 153.666 179.001 330.999c79.333 136.667 119 236 119 298c0 14 -8.66699 23 -26 27c-55.333 12.667 -92.333 22 -111 28
c-46.667 15.333 -78.667 39 -96 71c-15.333 29.333 -23 76 -23 140c0 60 14.333 112.333 43 157c22 34.667 39.667 52 53 52c14 0 21 -7 21 -21c0 -4 -1 -7.83301 -3 -11.5s-3 -7.16699 -3 -10.5c0 -16.667 46.333 -40.667 139 -72c44.667 -15.333 75 -39 91 -71
c11.333 -24.667 17 -62.334 17 -113.001z" />
    <glyph glyph-name="shinsindot" unicode="&#xfb2b;" horiz-adv-x="1430" 
d="M380 1639c0 -24.667 -9.5 -46.167 -28.5 -64.5s-41.167 -27.5 -66.5 -27.5s-47 9 -65 27s-27 39.667 -27 65c0 24.667 9 46 27 64s39.667 27 65 27s47.5 -9 66.5 -27s28.5 -39.333 28.5 -64zM1341 1145c0 -102 -29.001 -234 -87.001 -396
c-24 -67.333 -81 -205.666 -171 -414.999c-68 -157.333 -108 -268.666 -120 -333.999h-734c-4 82 -30.333 203.667 -79 365c-45.333 152.667 -68 272 -68 358c0 109.333 21.667 211 65 305c-34 21.333 -56 47.333 -66 78c-8.66699 25.333 -13 68.333 -13 129
c0 60 14.333 112.333 43 157c22 34.667 40.333 52 55 52c12 0 18 -7 18 -21c0 -4 -1 -7.83301 -3 -11.5s-3 -7.16699 -3 -10.5c0 -16.667 46.333 -40.667 139 -72c49.333 -16.667 81.666 -39 96.999 -67c12 -22.667 18 -61.667 18 -117c0 -54.667 -15 -110 -45 -166
c-25.333 -46.667 -43 -70 -53 -70c-8 0 -12 5.66699 -12 17c0 2 0.666992 3.66699 2 5s2 5 2 11c0 9.33301 -4.16699 16 -12.5 20s-41.833 15.667 -100.5 35c-4 1.33301 -9.33301 3.66602 -16 6.99902c-31.333 -72.667 -47 -143 -47 -211c0 -52 16.333 -128.667 49 -230
c31.333 -96 62.666 -170.333 93.999 -223h21c124.667 200.667 223.334 428 296.001 682c-37.333 20.667 -62 49 -74 85c-9.33301 26 -14 68.667 -14 128c0 60 14.333 112.333 43 157c22.667 34.667 41.334 52 56.001 52c12 0 18 -7 18 -21c0 -4 -0.666992 -7.83301 -2 -11.5
s-2 -7.16699 -2 -10.5c0 -16.667 45.667 -40.667 137 -72c48 -16 79.667 -38.667 95 -68c13.333 -23.333 20 -62 20 -116c0 -54.667 -15.333 -110 -46 -166c-25.333 -46.667 -43 -70 -53 -70c-8 0 -12 5.66699 -12 17c0 2 0.666992 3.66699 2 5s2 5 2 11
c0 8.66699 -4.33301 15.334 -13 20.001c-6 2.66699 -36.333 13 -91 31c-77.333 -263.333 -166.333 -481 -267 -653h532c16.667 43.333 76.334 153.666 179.001 330.999c79.333 136.667 119 236 119 298c0 14 -8.66699 23 -26 27c-55.333 12.667 -92.333 22 -111 28
c-46.667 15.333 -78.667 39 -96 71c-15.333 29.333 -23 76 -23 140c0 60 14.333 112.333 43 157c22 34.667 39.667 52 53 52c14 0 21 -7 21 -21c0 -4 -1 -7.83301 -3 -11.5s-3 -7.16699 -3 -10.5c0 -16.667 46.333 -40.667 139 -72c44.667 -15.333 75 -39 91 -71
c11.333 -24.667 17 -62.334 17 -113.001z" />
    <glyph glyph-name="shindageshshindot" unicode="&#xfb2c;" horiz-adv-x="1430" 
d="M1341 1145c0 -102 -29.001 -234 -87.001 -396c-24 -67.333 -81 -205.666 -171 -414.999c-68 -157.333 -108 -268.666 -120 -333.999h-734c-4 82 -30.333 203.667 -79 365c-45.333 152.667 -68 272 -68 358c0 109.333 21.667 211 65 305c-34 21.333 -56 47.333 -66 78
c-8.66699 25.333 -13 68.333 -13 129c0 60 14.333 112.333 43 157c22 34.667 40.333 52 55 52c12 0 18 -7 18 -21c0 -4 -1 -7.83301 -3 -11.5s-3 -7.16699 -3 -10.5c0 -16.667 46.333 -40.667 139 -72c49.333 -16.667 81.666 -39 96.999 -67c12 -22.667 18 -61.667 18 -117
c0 -54.667 -15 -110 -45 -166c-25.333 -46.667 -43 -70 -53 -70c-8 0 -12 5.66699 -12 17c0 2 0.666992 3.66699 2 5s2 5 2 11c0 9.33301 -4.16699 16 -12.5 20s-41.833 15.667 -100.5 35c-4 1.33301 -9.33301 3.66602 -16 6.99902c-31.333 -72.667 -47 -143 -47 -211
c0 -52 16.333 -128.667 49 -230c31.333 -96 62.666 -170.333 93.999 -223h21c124.667 200.667 223.334 428 296.001 682c-37.333 20.667 -62 49 -74 85c-9.33301 26 -14 68.667 -14 128c0 60 14.333 112.333 43 157c22.667 34.667 41.334 52 56.001 52c12 0 18 -7 18 -21
c0 -4 -0.666992 -7.83301 -2 -11.5s-2 -7.16699 -2 -10.5c0 -16.667 45.667 -40.667 137 -72c48 -16 79.667 -38.667 95 -68c13.333 -23.333 20 -62 20 -116c0 -54.667 -15.333 -110 -46 -166c-25.333 -46.667 -43 -70 -53 -70c-8 0 -12 5.66699 -12 17
c0 2 0.666992 3.66699 2 5s2 5 2 11c0 8.66699 -4.33301 15.334 -13 20.001c-6 2.66699 -36.333 13 -91 31c-77.333 -263.333 -166.333 -481 -267 -653h532c16.667 43.333 76.334 153.666 179.001 330.999c79.333 136.667 119 236 119 298c0 14 -8.66699 23 -26 27
c-55.333 12.667 -92.333 22 -111 28c-46.667 15.333 -78.667 39 -96 71c-15.333 29.333 -23 76 -23 140c0 60 14.333 112.333 43 157c22 34.667 39.667 52 53 52c14 0 21 -7 21 -21c0 -4 -1 -7.83301 -3 -11.5s-3 -7.16699 -3 -10.5c0 -16.667 46.333 -40.667 139 -72
c44.667 -15.333 75 -39 91 -71c11.333 -24.667 17 -62.334 17 -113.001zM1320 1639c0 -24.667 -9.5 -46.167 -28.5 -64.5s-41.167 -27.5 -66.5 -27.5s-47 9 -65 27s-27 39.667 -27 65c0 24.667 9 46 27 64s39.667 27 65 27s47.5 -9 66.5 -27s28.5 -39.333 28.5 -64z
M934.999 678c0 -26.667 -9.83301 -49.334 -29.5 -68.001s-42.834 -28 -69.501 -28s-49.334 9.33301 -68.001 28s-28 41.334 -28 68.001s9.33301 49.334 28 68.001s41.334 28 68.001 28s49.834 -9.33301 69.501 -28s29.5 -41.334 29.5 -68.001z" />
    <glyph glyph-name="shindageshsindot" unicode="&#xfb2d;" horiz-adv-x="1430" 
d="M1341 1145c0 -102 -29.001 -234 -87.001 -396c-24 -67.333 -81 -205.666 -171 -414.999c-68 -157.333 -108 -268.666 -120 -333.999h-734c-4 82 -30.333 203.667 -79 365c-45.333 152.667 -68 272 -68 358c0 109.333 21.667 211 65 305c-34 21.333 -56 47.333 -66 78
c-8.66699 25.333 -13 68.333 -13 129c0 60 14.333 112.333 43 157c22 34.667 40.333 52 55 52c12 0 18 -7 18 -21c0 -4 -1 -7.83301 -3 -11.5s-3 -7.16699 -3 -10.5c0 -16.667 46.333 -40.667 139 -72c49.333 -16.667 81.666 -39 96.999 -67c12 -22.667 18 -61.667 18 -117
c0 -54.667 -15 -110 -45 -166c-25.333 -46.667 -43 -70 -53 -70c-8 0 -12 5.66699 -12 17c0 2 0.666992 3.66699 2 5s2 5 2 11c0 9.33301 -4.16699 16 -12.5 20s-41.833 15.667 -100.5 35c-4 1.33301 -9.33301 3.66602 -16 6.99902c-31.333 -72.667 -47 -143 -47 -211
c0 -52 16.333 -128.667 49 -230c31.333 -96 62.666 -170.333 93.999 -223h21c124.667 200.667 223.334 428 296.001 682c-37.333 20.667 -62 49 -74 85c-9.33301 26 -14 68.667 -14 128c0 60 14.333 112.333 43 157c22.667 34.667 41.334 52 56.001 52c12 0 18 -7 18 -21
c0 -4 -0.666992 -7.83301 -2 -11.5s-2 -7.16699 -2 -10.5c0 -16.667 45.667 -40.667 137 -72c48 -16 79.667 -38.667 95 -68c13.333 -23.333 20 -62 20 -116c0 -54.667 -15.333 -110 -46 -166c-25.333 -46.667 -43 -70 -53 -70c-8 0 -12 5.66699 -12 17
c0 2 0.666992 3.66699 2 5s2 5 2 11c0 8.66699 -4.33301 15.334 -13 20.001c-6 2.66699 -36.333 13 -91 31c-77.333 -263.333 -166.333 -481 -267 -653h532c16.667 43.333 76.334 153.666 179.001 330.999c79.333 136.667 119 236 119 298c0 14 -8.66699 23 -26 27
c-55.333 12.667 -92.333 22 -111 28c-46.667 15.333 -78.667 39 -96 71c-15.333 29.333 -23 76 -23 140c0 60 14.333 112.333 43 157c22 34.667 39.667 52 53 52c14 0 21 -7 21 -21c0 -4 -1 -7.83301 -3 -11.5s-3 -7.16699 -3 -10.5c0 -16.667 46.333 -40.667 139 -72
c44.667 -15.333 75 -39 91 -71c11.333 -24.667 17 -62.334 17 -113.001zM379.999 1639c0 -24.667 -9.5 -46.167 -28.5 -64.5s-41.167 -27.5 -66.5 -27.5s-47 9 -65 27s-27 39.667 -27 65c0 24.667 9 46 27 64s39.667 27 65 27s47.5 -9 66.5 -27s28.5 -39.333 28.5 -64z
M934.999 678c0 -26.667 -9.83301 -49.334 -29.5 -68.001s-42.834 -28 -69.501 -28s-49.334 9.33301 -68.001 28s-28 41.334 -28 68.001s9.33301 49.334 28 68.001s41.334 28 68.001 28s49.834 -9.33301 69.501 -28s29.5 -41.334 29.5 -68.001z" />
    <glyph glyph-name="alefpatah" unicode="&#xfb2e;" horiz-adv-x="1221" 
d="M1143 213c0 -64 -21.666 -123 -64.999 -177c-36.667 -46 -67 -69 -91 -69c-12 0 -18 9.66699 -18 29c0 2.66699 4.33301 10.667 13 24s13 25 13 35c0 32.667 -22 74 -66 124l-102 102l-501 501c-37.333 -55.333 -56 -104.333 -56 -147c0 -58 41 -136.167 123 -234.5
s123 -176.5 123 -234.5c0 -47.333 -18 -86.833 -54 -118.5s-80 -47.5 -132 -47.5h-267l11 51c87.333 11.333 131 40.666 131 87.999c0 23.333 -19.833 72.166 -59.5 146.499s-59.5 134.166 -59.5 179.499c0 104.667 63.333 226.667 190 366l-49 50
c-60 60 -100.333 109.333 -121 148c-24 46.667 -36 103 -36 169c0 64 21 123 63 177c36 46 66 69 90 69c12.667 0 19 -9.66699 19 -29c0 -2 -4.5 -9.66699 -13.5 -23s-13.5 -24.666 -13.5 -33.999c0 -33.333 22 -74.666 66 -123.999l102 -101l299 -299l143 180
c-49.333 37.333 -82.333 72.333 -99 105c-11.333 23.333 -17 53.666 -17 90.999c0 64.667 23.667 122 71 172c38 41.333 70.333 62 97 62c12 0 18 -6.33301 18 -19c0 -2.66699 -1.66699 -5.66699 -5 -9s-5 -9.66602 -5 -18.999c0 -32.667 36 -75 108 -127
c86 -62.667 129 -142 129 -238c0 -66.667 -14.667 -118 -44 -154c-22.667 -28 -47.334 -42 -74.001 -42c-14.667 0 -28 11.333 -40 34c-20 36.667 -47.667 70.334 -83 101.001l-150 -187l252 -254c60 -60.667 100.667 -110 122 -148c25.333 -46.667 38 -103 38 -169z
M779.001 -268h-409v114h409v-114z" />
    <glyph glyph-name="alefqamats" unicode="&#xfb2f;" horiz-adv-x="1221" 
d="M1143 213c0 -64 -21.666 -123 -64.999 -177c-36.667 -46 -67 -69 -91 -69c-12 0 -18 9.66699 -18 29c0 2.66699 4.33301 10.667 13 24s13 25 13 35c0 32.667 -22 74 -66 124l-102 102l-501 501c-37.333 -55.333 -56 -104.333 -56 -147c0 -58 41 -136.167 123 -234.5
s123 -176.5 123 -234.5c0 -47.333 -18 -86.833 -54 -118.5s-80 -47.5 -132 -47.5h-267l11 51c87.333 11.333 131 40.666 131 87.999c0 23.333 -19.833 72.166 -59.5 146.499s-59.5 134.166 -59.5 179.499c0 104.667 63.333 226.667 190 366l-49 50
c-60 60 -100.333 109.333 -121 148c-24 46.667 -36 103 -36 169c0 64 21 123 63 177c36 46 66 69 90 69c12.667 0 19 -9.66699 19 -29c0 -2 -4.5 -9.66699 -13.5 -23s-13.5 -24.666 -13.5 -33.999c0 -33.333 22 -74.666 66 -123.999l102 -101l299 -299l143 180
c-49.333 37.333 -82.333 72.333 -99 105c-11.333 23.333 -17 53.666 -17 90.999c0 64.667 23.667 122 71 172c38 41.333 70.333 62 97 62c12 0 18 -6.33301 18 -19c0 -2.66699 -1.66699 -5.66699 -5 -9s-5 -9.66602 -5 -18.999c0 -32.667 36 -75 108 -127
c86 -62.667 129 -142 129 -238c0 -66.667 -14.667 -118 -44 -154c-22.667 -28 -47.334 -42 -74.001 -42c-14.667 0 -28 11.333 -40 34c-20 36.667 -47.667 70.334 -83 101.001l-150 -187l252 -254c60 -60.667 100.667 -110 122 -148c25.333 -46.667 38 -103 38 -169z
M678.001 -553c0 -26.667 -9.66797 -49.334 -29.001 -68.001s-42.666 -28 -69.999 -28c-26 0 -48.5 9.33301 -67.5 28s-28.5 41.334 -28.5 68.001c0 39.333 30 134.333 90 285h-193v114h409v-114h-201c60 -164 90 -259 90 -285z" />
    <glyph glyph-name="alefmapiq" unicode="&#xfb30;" horiz-adv-x="1221" 
d="M1143 213c0 -64 -21.666 -123 -64.999 -177c-36.667 -46 -67 -69 -91 -69c-12 0 -18 9.66699 -18 29c0 2.66699 4.33301 10.667 13 24s13 25 13 35c0 32.667 -22 74 -66 124l-102 102l-501 501c-37.333 -55.333 -56 -104.333 -56 -147c0 -58 41 -136.167 123 -234.5
s123 -176.5 123 -234.5c0 -47.333 -18 -86.833 -54 -118.5s-80 -47.5 -132 -47.5h-267l11 51c87.333 11.333 131 40.666 131 87.999c0 23.333 -19.833 72.166 -59.5 146.499s-59.5 134.166 -59.5 179.499c0 104.667 63.333 226.667 190 366l-49 50
c-60 60 -100.333 109.333 -121 148c-24 46.667 -36 103 -36 169c0 64 21 123 63 177c36 46 66 69 90 69c12.667 0 19 -9.66699 19 -29c0 -2 -4.5 -9.66699 -13.5 -23s-13.5 -24.666 -13.5 -33.999c0 -33.333 22 -74.666 66 -123.999l102 -101l299 -299l143 180
c-49.333 37.333 -82.333 72.333 -99 105c-11.333 23.333 -17 53.666 -17 90.999c0 64.667 23.667 122 71 172c38 41.333 70.333 62 97 62c12 0 18 -6.33301 18 -19c0 -2.66699 -1.66699 -5.66699 -5 -9s-5 -9.66602 -5 -18.999c0 -32.667 36 -75 108 -127
c86 -62.667 129 -142 129 -238c0 -66.667 -14.667 -118 -44 -154c-22.667 -28 -47.334 -42 -74.001 -42c-14.667 0 -28 11.333 -40 34c-20 36.667 -47.667 70.334 -83 101.001l-150 -187l252 -254c60 -60.667 100.667 -110 122 -148c25.333 -46.667 38 -103 38 -169z
M806.001 98c0 -26.667 -9.83301 -49.334 -29.5 -68.001s-42.834 -28 -69.501 -28s-49.334 9.33301 -68.001 28s-28 41.334 -28 68.001s9.33301 49.334 28 68.001s41.334 28 68.001 28s49.834 -9.33301 69.501 -28s29.5 -41.334 29.5 -68.001z" />
    <glyph glyph-name="betdagesh" unicode="&#xfb31;" horiz-adv-x="1312" 
d="M1307 340l-179 -340h-1099l164 340h864l-4 567c-2.66699 74 -60 111 -172 111h-625c-52.667 0 -89 18 -109 54c-18.667 33.333 -28 90.333 -28 171c0 134 19 201 57 201c8 0 17.833 -14.333 29.5 -43s35.167 -43 70.5 -43h586c187.333 0 281 -99 281 -297v-721h164z
M700 678c0 -26.667 -9.83301 -49.334 -29.5 -68.001s-42.834 -28 -69.501 -28s-49.334 9.33301 -68.001 28s-28 41.334 -28 68.001s9.33301 49.334 28 68.001s41.334 28 68.001 28s49.834 -9.33301 69.501 -28s29.5 -41.334 29.5 -68.001z" />
    <glyph glyph-name="gimeldagesh" unicode="&#xfb32;" horiz-adv-x="799" 
d="M686 248c0 -165.333 -9.66797 -248.001 -29.001 -248.001c-13.333 0 -20.666 9 -21.999 27c-3.33301 31.333 -24.333 108.666 -63 231.999c-36 112.667 -54 207.334 -54 284.001c0 42.667 3.83301 110.167 11.5 202.5s11.5 146.166 11.5 161.499
c0 74 -61.667 111 -185 111h-100c-52.667 0 -89 18 -109 54c-18.667 33.333 -28 90.333 -28 171c0 134 19 201 57 201c8 0 17.833 -14.333 29.5 -43s35.167 -43 70.5 -43h62c185.333 0 278 -99 278 -297c0 -34 -3.33301 -68.5 -10 -103.5s-10 -79.833 -10 -134.5
c0 -39.333 15 -128.166 45 -266.499s45 -241.166 45 -308.499zM524.999 511.999l-181 -476l-289 -36l86 340zM334.999 677.999c0 -26.667 -9.83301 -49.334 -29.5 -68.001s-42.834 -28 -69.501 -28s-49.334 9.33301 -68.001 28s-28 41.334 -28 68.001
s9.33301 49.334 28 68.001s41.334 28 68.001 28s49.834 -9.33301 69.501 -28s29.5 -41.334 29.5 -68.001z" />
    <glyph glyph-name="daletdagesh" unicode="&#xfb33;" horiz-adv-x="1380" 
d="M1280 1188c0 -48 -12.498 -87.833 -37.498 -119.5s-96.833 -49.167 -215.5 -52.5l167 -852c0.666992 -14.667 -17.666 -45.667 -54.999 -93s-61.333 -71 -72 -71c-18 -0 -27 14.333 -27 43c0 74.667 -38.667 399 -116 973l-680 2c-52.667 0 -89.334 18 -110.001 54
c-18.667 33.333 -28 90.333 -28 171c0 134 19.333 201 58 201c6.66699 0 16.167 -14.333 28.5 -43s36.166 -43 71.499 -43h881c39.333 0 71.666 -15.667 96.999 -47s38 -72.333 38 -123zM735.002 678c0 -26.667 -9.83301 -49.334 -29.5 -68.001s-42.834 -28 -69.501 -28
s-49.334 9.33301 -68.001 28s-28 41.334 -28 68.001s9.33301 49.334 28 68.001s41.334 28 68.001 28s49.834 -9.33301 69.501 -28s29.5 -41.334 29.5 -68.001z" />
    <glyph glyph-name="hedagesh" unicode="&#xfb34;" horiz-adv-x="1343" 
d="M1280 1188c0 -50 -13.165 -90.833 -39.498 -122.5s-56.833 -47.5 -91.5 -47.5h-8l53 -854c0.666992 -14.667 -17.666 -45.667 -54.999 -93s-61.333 -71 -72 -71c-18 -0 -27 14.333 -27 43c0 117.333 7 442.333 21 975h-817c-52.667 0 -89.334 18 -110.001 54
c-18.667 33.333 -28 90.333 -28 171c0 134 19.333 201 58 201c6.66699 0 16.167 -14.333 28.5 -43s36.166 -43 71.499 -43h881c39.333 0 71.666 -15.667 96.999 -47s38 -72.333 38 -123zM330.002 319c0 -134 -10.332 -211.668 -30.999 -233.001c-14 -14.667 -37 -32 -69 -52
c-35.333 -22.667 -60 -34 -74 -34c-26 0 -39 13.667 -39 41c0 16.667 5.16699 34.167 15.5 52.5s21.166 36.5 32.499 54.5c15.333 36 23 90.333 23 163c0 23.333 -1 55.333 -3 96s-3 79.667 -3 117c0 43.333 13.667 88.666 41 135.999c26 44.667 48 67 66 67
c17.333 0 26 -6 26 -18c0 -5.33301 -3 -18.166 -9 -38.499s-9 -43.166 -9 -68.499c0 -20 5.5 -56.333 16.5 -109s16.5 -110.667 16.5 -174zM750.003 677.999c0 -26.667 -9.83301 -49.334 -29.5 -68.001s-42.834 -28 -69.501 -28s-49.334 9.33301 -68.001 28
s-28 41.334 -28 68.001s9.33301 49.334 28 68.001s41.334 28 68.001 28s49.834 -9.33301 69.501 -28s29.5 -41.334 29.5 -68.001z" />
    <glyph glyph-name="vavdagesh" unicode="&#xfb35;" horiz-adv-x="690" 
d="M318 678c0 -26.667 -9.83301 -49.334 -29.5 -68.001s-42.834 -28 -69.501 -28s-49.334 9.33301 -68.001 28s-28 41.334 -28 68.001s9.33301 49.334 28 68.001s41.334 28 68.001 28s49.834 -9.33301 69.501 -28s29.5 -41.334 29.5 -68.001zM567 164
c0 -15.333 -18.832 -46.5 -56.499 -93.5s-61.834 -70.5 -72.501 -70.5c-16 -0 -24 14.333 -24 43c0 18 11.5 149.5 34.5 394.5s34.5 399.5 34.5 463.5c0 78 -42.333 117 -127 117h-137c-52.667 0 -89 18 -109 54c-18.667 33.333 -28 90.333 -28 171c0 134 18.333 201 55 201
c8 0 18 -14.333 30 -43s35.667 -43 71 -43h127c133.333 0 200 -99 200 -297z" />
    <glyph glyph-name="zayindagesh" unicode="&#xfb36;" horiz-adv-x="813" 
d="M698 1157c0 -57.333 -12.667 -110.33 -38 -158.997c-22.667 -42.667 -42.667 -64 -60 -64c-8.66699 0 -13 5.33301 -13 16c0 2.66699 0.666992 4.66699 2 6s2 5.66602 2 12.999c0 21.333 -47 37.666 -141 48.999c-32.667 -58.667 -49 -103 -49 -133
c0 -18.667 15.333 -102.834 46 -252.501s46 -234.167 46 -253.5c0 -75.333 -14.667 -158.333 -44 -249c-28.667 -86.667 -53 -130 -73 -130c-14.667 0 -22 7.66699 -22 23c0 -1.33301 5.5 15 16.5 49s16.5 63.333 16.5 88c0 14 -15 94.667 -45 242s-45 233 -45 257
c0 123.333 31.333 245 94 365l-35 2c-81.333 4.66699 -135.5 20.667 -162.5 48s-40.5 81 -40.5 161c0 42.667 11.167 88.167 33.5 136.5s43.833 72.5 64.5 72.5c14 0 21 -7 21 -21c0 -4 -1 -7.83301 -3 -11.5s-3 -7.16699 -3 -10.5c0 -18.667 66 -33 198 -43
c156 -12 234 -79 234 -201zM225 678.003c0 -26.667 -9.83301 -49.334 -29.5 -68.001s-42.834 -28 -69.501 -28s-49.334 9.33301 -68.001 28s-28 41.334 -28 68.001s9.33301 49.334 28 68.001s41.334 28 68.001 28s49.834 -9.33301 69.501 -28s29.5 -41.334 29.5 -68.001z
" />
    <glyph glyph-name="tetdagesh" unicode="&#xfb38;" horiz-adv-x="1343" 
d="M1253 719c0 -100 -49.668 -339.667 -149.001 -719h-938c1.33301 92 -6 201.667 -22 329c-16.667 132 -25 237.333 -25 316c0 133.333 40.333 260.333 121 381c-51.333 22 -85.666 49.333 -102.999 82c-14.667 26.667 -22 69 -22 127c0 60 14.667 112.333 44 157
c23.333 34.667 42 52 56 52s21 -7 21 -21c0 -4 -1.16699 -7.83301 -3.5 -11.5s-3.5 -7.16699 -3.5 -10.5c0 -8.66699 15.667 -18 47 -28c57.333 -20 101.333 -36.667 132 -50c46 -20.667 76.5 -42.5 91.5 -65.5s22.5 -60.5 22.5 -112.5c0 -54.667 -15 -110 -45 -166
c-25.333 -46.667 -43 -70 -53 -70c-8 0 -12 5.66699 -12 17c0 2 0.666992 3.66699 2 5s2 5 2 11c0 9.33301 -39 28.333 -117 57c-58.667 -101.333 -88 -187.333 -88 -258c0 -58 12.667 -131.333 38 -220c27.333 -96.667 42 -157 44 -181h805c50.667 154 76 263.333 76 328
c0 114.667 -29.667 203.667 -89 267c-52.667 56.667 -118.667 85 -198 85c-73.333 0 -128.333 -29 -165 -87c-29.333 -45.333 -44 -101.666 -44 -168.999c0 -10 1 -25 3 -45s3 -33 3 -39c0 -12 -4.33301 -24.167 -13 -36.5s-18 -18.5 -28 -18.5c-38 0 -57 47 -57 141
c0 42 14 107 42 195c32 100 51.333 178.333 58 235c2 14 3 28.667 3 44c0 16.667 -1.33301 37.167 -4 61.5s-4 40.166 -4 47.499c0 15.333 3 26.333 9 33c4.66699 4.66699 17.667 7 39 7c51.333 0 109 -10.333 173 -31c80.667 -25.333 144 -60.333 190 -105
c66.667 -65.333 112 -134.333 136 -207c18 -52.667 27 -120.667 27 -204c0 -13.333 -0.333008 -33.5 -1 -60.5s-1 -47.833 -1 -62.5zM1010 678c0 -26.667 -9.83301 -49.334 -29.5 -68.001s-42.834 -28 -69.501 -28s-49.334 9.33301 -68.001 28s-28 41.334 -28 68.001
s9.33301 49.334 28 68.001s41.334 28 68.001 28s49.834 -9.33301 69.501 -28s29.5 -41.334 29.5 -68.001z" />
    <glyph glyph-name="yoddagesh" unicode="&#xfb39;" horiz-adv-x="741" 
d="M630 1061c0 -98 -6.66504 -185.333 -19.998 -262c-14 -80.667 -31.333 -121 -52 -121c-18.667 0 -29.667 5 -33 15v32c0 4 3.5 26.833 10.5 68.5s10.5 77.5 10.5 107.5c0 78 -55.333 117 -166 117h-99c-52.667 0 -89.334 18 -110.001 54
c-19.333 33.333 -29 90.333 -29 171c0 134 20 201 60 201c6.66699 0 16.167 -14.333 28.5 -43s36.166 -43 71.499 -43h59c178 0 267.667 -99 269 -297zM383.002 776c0 -26.667 -9.83301 -49.334 -29.5 -68.001s-42.834 -28 -69.501 -28s-49.334 9.33301 -68.001 28
s-28 41.334 -28 68.001s9.33301 49.334 28 68.001s41.334 28 68.001 28s49.834 -9.33301 69.501 -28s29.5 -41.334 29.5 -68.001z" />
    <glyph glyph-name="finalkafdagesh" unicode="&#xfb3a;" horiz-adv-x="1380" 
d="M1280 1188c0 -48 -12.498 -87.833 -37.498 -119.5s-54.167 -48.5 -87.5 -50.5l39 -1512c0.666992 -14 -17.666 -44.333 -54.999 -91s-61.333 -70 -72 -70c-18 0 -27 14.333 -27 43c0 34.667 5 280.667 15 738c10.667 492 18 789.333 22 892h-833
c-52.667 0 -89.334 18 -110.001 54c-18.667 33.333 -28 90.333 -28 171c0 134 19.333 201 58 201c6.66699 0 16.167 -14.333 28.5 -43s36.166 -43 71.499 -43h881c39.333 0 71.666 -15.667 96.999 -47s38 -72.333 38 -123zM728.002 678
c0 -26.667 -9.83301 -49.334 -29.5 -68.001s-42.834 -28 -69.501 -28s-49.334 9.33301 -68.001 28s-28 41.334 -28 68.001s9.33301 49.334 28 68.001s41.334 28 68.001 28s49.834 -9.33301 69.501 -28s29.5 -41.334 29.5 -68.001z" />
    <glyph glyph-name="kafdagesh" unicode="&#xfb3b;" horiz-adv-x="1343" 
d="M1198 678c0 -261.333 -55.999 -442.668 -167.999 -544.001c-98.667 -89.333 -265.334 -134 -500.001 -134h-501l164 340h579c114 0 202.333 28 265 84c65.333 58.667 98 143.334 98 254.001c0 226.667 -121 340 -363 340h-516c-52.667 0 -89 18 -109 54
c-18.667 33.333 -28 90.333 -28 171c0 134 19 201 57 201c8 0 17.833 -14.333 29.5 -43s35.167 -43 70.5 -43h459c164 0 281.333 -50 352 -150c74 -104 111 -280.667 111 -530zM750.001 677.998c0 -26.667 -9.83301 -49.334 -29.5 -68.001s-42.834 -28 -69.501 -28
s-49.334 9.33301 -68.001 28s-28 41.334 -28 68.001s9.33301 49.334 28 68.001s41.334 28 68.001 28s49.834 -9.33301 69.501 -28s29.5 -41.334 29.5 -68.001z" />
    <glyph glyph-name="lameddagesh" unicode="&#xfb3c;" horiz-adv-x="1343" 
d="M1225 782c0 -148 -72.998 -274.998 -218.998 -380.998c-95.333 -68.667 -169 -141.334 -221 -218.001l-80 -148c-20.667 -36.667 -48.667 -55 -84 -55c-24.667 0 -46 9 -64 27c-20.667 20 -31 45.667 -31 77c0 46 22.333 95.667 67 149c56 68 136.333 124 241 168
c132.667 57.333 220.334 116 263.001 176c28 39.333 42 95.333 42 168c0 79.333 -18 143.666 -54 192.999c-37.333 52 -87 78 -149 78h-633c-84.667 0 -142 16.667 -172 50c-26 29.333 -39 82.333 -39 159v321c0 78 13.667 144.667 41 200c17.333 36 42.666 70 75.999 102
c27.333 26 41 42 41 48c0 23.333 -26.333 42.833 -79 58.5s-79 37.167 -79 64.5c0 38.667 11.333 75.334 34 110c19.333 29.333 34 44 44 44c10.667 0 16 -3.33301 16 -10c0 -1.33301 -0.666992 -4.16602 -2 -8.5c-1.33301 -4.33301 -2 -7.16602 -2 -8.5
c0 -6 14.667 -14 44 -24c37.333 -12.667 64.666 -26 81.999 -40c29.333 -23.333 44 -53.666 44 -90.999c0 -20 -8.33301 -42.333 -25 -67c-22.667 -32.667 -38.667 -63 -48 -91c-16.667 -51.333 -25 -120.333 -25 -207v-182c0 -32 4.33301 -53.667 13 -65
c11.333 -14 34.333 -21 69 -21h672c101.333 0 158.666 -42.333 171.999 -127l37 -234c5.33301 -34.667 8 -106.334 8 -215.001zM790.002 678.002c0 -26.667 -9.83301 -49.334 -29.5 -68.001s-42.834 -28 -69.501 -28s-49.334 9.33301 -68.001 28s-28 41.334 -28 68.001
s9.33301 49.334 28 68.001s41.334 28 68.001 28s49.834 -9.33301 69.501 -28s29.5 -41.334 29.5 -68.001z" />
    <glyph glyph-name="memdagesh" unicode="&#xfb3e;" horiz-adv-x="1343" 
d="M1229 719c0 -139.333 -41.667 -379 -125 -719h-655l75 340h574c24.667 95.333 37 195.666 37 300.999c0 110.667 -41 201.5 -123 272.5s-188 106.5 -318 106.5c-112 0 -211 -40 -297 -120s-129 -169 -129 -267c0 -64 6.16699 -122.333 18.5 -175s18.5 -99 18.5 -139
c0 -131.333 -11 -209 -33 -233c-52 -57.333 -90.667 -86 -116 -86c-26 0 -39 13.667 -39 41c0 16.667 4.66699 34.334 14 53.001c22 44 33 121.333 33 232c0 21.333 -1.66699 62.166 -5 122.499s-5 109.5 -5 147.5c0 122.667 44.333 228.334 133 317.001
c11.333 12 42.333 34 93 66l-101 18c-20.667 10 -43.334 20.333 -68.001 31c-34 21.333 -56.333 47.333 -67 78c-8.66699 25.333 -13 68.333 -13 129c0 59.333 21 111.666 63 156.999c32 34.667 56.667 52 74 52c12.667 0 19 -7 19 -21c0 -4 -0.666992 -7.83301 -2 -11.5
s-2 -7.16699 -2 -10.5c0 -16.667 45.667 -40.667 137 -72c47.333 -16 79.333 -36.333 96 -61s25 -65.667 25 -123c0 -28.667 -25 -68 -75 -118c72.667 34 124.334 55.333 155.001 64c43.333 14.667 68.333 33.334 75 56.001l26.5 113c11 46 19.833 76.667 26.5 92
c6.66699 44 27.667 66 63 66c48.667 0 105 -14.667 169 -44c72.667 -33.333 118 -71 136 -113c75.333 -108.667 113 -261 113 -457c0 -12 -0.333008 -27.667 -1 -47v-38zM799 678c0 -26.667 -9.83301 -49.334 -29.5 -68.001s-42.834 -28 -69.501 -28
s-49.334 9.33301 -68.001 28s-28 41.334 -28 68.001s9.33301 49.334 28 68.001s41.334 28 68.001 28s49.834 -9.33301 69.501 -28s29.5 -41.334 29.5 -68.001z" />
    <glyph glyph-name="nundagesh" unicode="&#xfb40;" horiz-adv-x="752" 
d="M662 272c0 -82.667 -13.667 -173.333 -41 -272h-566l62 340h407c-4 132 -6 229.667 -6 293c0 42 3.83301 94.333 11.5 157s11.5 101.667 11.5 117c0 74 -61.667 111 -185 111h-100c-52.667 0 -89 18 -109 54c-18.667 33.333 -28 90.333 -28 171c0 134 19 201 57 201
c8 0 17.833 -14.333 29.5 -43s35.167 -43 70.5 -43h62c185.333 0 278 -99 278 -297c0 -34 -4 -72.833 -12 -116.5s-12 -92.834 -12 -147.501c0 -42 11.667 -126.167 35 -252.5s35 -217.166 35 -272.499zM318 678.001c0 -26.667 -9.83301 -49.334 -29.5 -68.001
s-42.834 -28 -69.501 -28s-49.334 9.33301 -68.001 28s-28 41.334 -28 68.001s9.33301 49.334 28 68.001s41.334 28 68.001 28s49.834 -9.33301 69.501 -28s29.5 -41.334 29.5 -68.001z" />
    </font>
</defs>
</svg>
