<?xml version="1.0" standalone="no"?>
<!DOCTYPE svg PUBLIC "-//W3C//DTD SVG 1.1//EN" "http://www.w3.org/Graphics/SVG/1.1/DTD/svg11.dtd" >
<svg>
<metadata>
Created by FontForge 20090914 at Fri Oct 13 01:43:43 2017
 By www-data
Copyright 2016 Michal Sahar. All rights reserved.
</metadata>
<defs>
<font id="SuezOne-Regular" horiz-adv-x="0" >
  <font-face 
    font-family="Suez One"
    font-weight="400"
    font-stretch="normal"
    units-per-em="1000"
    panose-1="0 0 5 0 0 0 0 0 0 0"
    ascent="800"
    descent="-200"
    x-height="523"
    cap-height="674.001"
    bbox="-509 -319 1072 986.999"
    underline-thickness="50"
    underline-position="-50"
    unicode-range="U+0020-U+FB4B"
  />
<missing-glyph horiz-adv-x="484" 
d="M396 -215h-306v967h306v-967zM162 687v-32h63v-35h-64v-32h161v32h-64v35h64v32h-160zM161 562v-100h161v33h-64v67h-97zM225 495h-32v35h32v-35zM161 436v-32h64v-36h-64v-32h97v68h64v32h-161zM290 378v-64h-129v-33h161v97h-32zM225 260v-54h33v22h32v-46h-97v78h-32
v-109h161v109h-97zM161 93v-110h161v110h-161zM290 15h-97v46h97v-46zM161 -39v-32h68l-68 -45v-32h161v32h-99l68 45h31v32h-161z" />
    <glyph glyph-name="fi" unicode="fi" horiz-adv-x="756" 
d="M476 730l170 45l42 -152l-170 -46zM25 92l70 21v293l-70 1v98l70 4v65c0 60 17.5 106.833 52.5 140.5s83.5 50.5 145.5 50.5c40.667 0 85.667 -4.33301 135 -13l-23 -136c-29.333 8 -54.833 13.5 -76.5 16.5s-43.5 4.16699 -65.5 3.5v-118l409 7v-379
c0 -14 1 -23.333 3 -28s7.66699 -9.66699 17 -15l49 -28l-3 -75h-300l-5 92l71 21v243c0 14.667 -1.5 24.5 -4.5 29.5s-10.833 10.833 -23.5 17.5l-213 1v-258c0 -14 1 -23.333 3 -28s7.66699 -9.66699 17 -15l62 -34l-3 -69h-314z" />
    <glyph glyph-name="fl" unicode="fl" horiz-adv-x="745" 
d="M25 92l70.0039 20.999v293l-70 1v98l70 4v66c0 40 8.16699 74.833 24.5 104.5s40.166 51.5 71.499 65.5c30 14 71.667 21 125 21c27.333 0 56.166 -1.5 86.499 -4.5s70.166 -7.5 119.499 -13.5c62 10.667 106 16.334 132 17.001c6 -16 10.333 -33.333 13 -52v-567
c0 -14 1.16699 -23.333 3.5 -28s8.16602 -9.66699 17.499 -15l49 -28l-4 -75h-300l-5 92l72 21v481c-18 3.33301 -37.667 8.33301 -59 15c-40 10 -72 17.333 -96 22c-30.667 5.33301 -58 7.33301 -82 6v-119l114 7v-123l-114 2v-258c0 -14 1 -23.333 3 -28
s7.66699 -9.66699 17 -15l62 -34l-3 -69h-314z" />
    <glyph glyph-name=".notdef" horiz-adv-x="484" 
d="M396 -215h-306v967h306v-967zM162 687v-32h63v-35h-64v-32h161v32h-64v35h64v32h-160zM161 562v-100h161v33h-64v67h-97zM225 495h-32v35h32v-35zM161 436v-32h64v-36h-64v-32h97v68h64v32h-161zM290 378v-64h-129v-33h161v97h-32zM225 260v-54h33v22h32v-46h-97v78h-32
v-109h161v109h-97zM161 93v-110h161v110h-161zM290 15h-97v46h97v-46zM161 -39v-32h68l-68 -45v-32h161v32h-99l68 45h31v32h-161z" />
    <glyph glyph-name="space" unicode=" " horiz-adv-x="206" 
 />
    <glyph glyph-name="exclam" unicode="!" horiz-adv-x="330" 
d="M70 682l132 16h47l-34 -481h-104zM75 107l150 39l37 -138l-149 -40z" />
    <glyph glyph-name="quotedbl" unicode="&#x22;" horiz-adv-x="454" 
d="M50 674h158v-59l-86 -245h-57zM256 674h158v-59l-87 -245h-56z" />
    <glyph glyph-name="numbersign" unicode="#" horiz-adv-x="622" 
d="M148 172h-103l24 60h105l35 83h-103l28 60h101l42 98h94l-50 -98h72l42 98h92l-50 -98h100l-28 -60h-104l-41 -83h108l-25 -60h-112l-53 -98h-57l41 98h-85l-55 -98h-60zM333 232l34 83h-77l-43 -83h86z" />
    <glyph glyph-name="dollar" unicode="$" horiz-adv-x="545" 
d="M439 41.5c-34 -31 -82 -49.8291 -144 -56.4961l8 -141h-70l8 138c-57.333 0 -119.333 9.33301 -186 28c4 74 8 125 12 153l60 11l65 -71c25.333 -6.66699 51.666 -10 78.999 -10c15.333 0 28 1 38 3c2 5.33301 3 12.666 3 21.999s-2 17.166 -6 23.499
s-12.833 13.666 -26.5 21.999s-36.167 20.5 -67.5 36.5c-41.333 21.333 -73 40.166 -95 56.499s-37.5 33.333 -46.5 51s-13.5 38.834 -13.5 63.501c0 50 16 90.5 48 121.5s76.667 50.167 134 57.5l-6 124h70l-6 -121c29.333 -0.666992 59 -4.33398 89 -11.001s57 -15 81 -25
c0 -42.667 -2.66699 -93.334 -8 -152.001l-55 -8l-71 77c-17.333 4.66699 -43.666 7 -78.999 7c-6 0 -17 -0.666992 -33 -2c-2 -2.66699 -3 -9.66699 -3 -21c0 -14 7 -27 21 -39s42.333 -28.667 85 -50c47.333 -23.333 82.333 -42.666 105 -57.999s38.5 -31 47.5 -47
s13.5 -36 13.5 -60c0 -50.667 -17 -91.5 -51 -122.5z" />
    <glyph glyph-name="percent" unicode="%" horiz-adv-x="637" 
d="M55 68l527 496v-106l-527 -495v105zM92 340c-19.333 20.667 -29.001 50.667 -29.001 90c0 34.667 12.333 63 37 85s55.667 33 93 33c36.667 0 64.834 -10.5 84.501 -31.5s29.5 -50.833 29.5 -89.5c0 -34 -12.333 -62.167 -37 -84.5s-56 -33.5 -94 -33.5
c-36.667 0 -64.667 10.333 -84 31zM212.999 379c4 12 5.99902 27 5.99902 45c0 38 -13 57 -39 57c-7.33301 0 -15.666 -1 -24.999 -3c-2.66699 -9.33301 -4 -23 -4 -41c0 -41.333 12.667 -62 38 -62c10 0 18 1.33301 24 4zM359.498 9.5c-19.667 21 -29.5 51.167 -29.5 90.5
c0 34 12.5 61.833 37.5 83.5s56.5 32.5 94.5 32.5c36.667 0 64.667 -10.167 84 -30.5s29 -49.833 29 -88.5c0 -34.667 -12.333 -63.167 -37 -85.5s-55.667 -33.5 -93 -33.5s-65.833 10.5 -85.5 31.5zM482.998 49c2 6 3 19.667 3 41c0 40.667 -12.333 61 -37 61
c-10.667 0 -19 -1.33301 -25 -4c-3.33301 -12 -5 -26.667 -5 -44c0 -38 13 -57 39 -57c6.66699 0 15 1 25 3z" />
    <glyph glyph-name="ampersand" unicode="&#x26;" horiz-adv-x="797" 
d="M683.5 125.5c28.333 8.33301 54.502 16.835 78.502 25.502l-6 -137c-32 -17.333 -70 -26 -114 -26c-42 0 -84.333 8 -127 24c-17.333 6.66699 -34 13.667 -50 21c-61.333 -32.667 -127 -49 -197 -49c-48 0 -90.5 7.66699 -127.5 23s-65.667 37.166 -86 65.499
s-30.5 61.166 -30.5 98.499s10 72.166 30 104.499s48.667 59.833 86 82.5c-20.667 48.667 -31 94 -31 136c0 60 20.5 107.667 61.5 143s96.5 53 166.5 53c61.333 0 109.5 -13.833 144.5 -41.5s52.5 -65.834 52.5 -114.501c0 -45.333 -15.667 -84.166 -47 -116.499
s-77.333 -56.833 -138 -73.5c22.667 -30.667 50 -61.667 82 -93c18 -18 43.667 -39.667 77 -65l8 17c10 20 15 36 15 48c0 11.333 -5.66699 21.666 -17 30.999l-28 27v44c54.667 19.333 113.667 29 177 29c0.666992 -4.66699 1 -15 1 -31c0 -42 -6.16699 -79.667 -18.5 -113
s-32.833 -67.666 -61.5 -102.999c15.333 -9.33301 29.666 -16.666 42.999 -21.999c9.33301 0 28.166 4.16699 56.499 12.5zM269.002 548.002c0 -37.333 10.668 -78 32.001 -122c27.333 11.333 47.166 24.333 59.499 39s18.5 32 18.5 52c0 42 -25.333 63 -76 63
c-14.667 0 -24.667 -0.666992 -30 -2c-2.66699 -7.33301 -4 -17.333 -4 -30zM221.003 125.502c26.667 -19.667 59.667 -29.5 99 -29.5c13.333 0 25.333 1 36 3c-36 26 -68.333 54 -97 84c-24.667 26 -46.667 53 -66 81c-8 -18 -12 -36.333 -12 -55
c0 -36 13.333 -63.833 40 -83.5z" />
    <glyph glyph-name="quotesingle" unicode="'" horiz-adv-x="243" 
d="M45 674h158v-59l-86 -245h-57z" />
    <glyph glyph-name="parenleft" unicode="(" horiz-adv-x="324" 
d="M179 -95.5c-38.667 47 -72.334 104.829 -101.001 173.496s-43 143.334 -43 224.001s14.333 154 43 220s62.334 120.833 101.001 164.5s75.334 76.834 110.001 99.501v-98c-34 -47.333 -62.833 -103.666 -86.5 -168.999s-35.5 -137.666 -35.5 -216.999
c0 -80 12 -154.333 36 -223s52.667 -128 86 -178v-105c-34.667 25.333 -71.334 61.5 -110.001 108.5z" />
    <glyph glyph-name="parenright" unicode=")" horiz-adv-x="324" 
d="M35 -99c33.333 50 62 109.337 86 178.004s36 143 36 223c0 79.333 -11.833 151.666 -35.5 216.999s-52.5 121.666 -86.5 168.999v98c34.667 -22.667 71.334 -55.834 110.001 -99.501s72.334 -98.5 101.001 -164.5s43 -139.333 43 -220s-14.333 -155.334 -43 -224.001
s-62.334 -126.5 -101.001 -173.5s-75.334 -83.167 -110.001 -108.5v105z" />
    <glyph glyph-name="asterisk" unicode="*" horiz-adv-x="466" 
d="M183 485l-83 -28l-35 59l66 57l-66 57l34 61l84 -29l15 86h70l16 -86l82 29l35 -60l-65 -57l65 -57l-34 -60l-83 28l-16 -85h-70z" />
    <glyph glyph-name="plus" unicode="+" horiz-adv-x="613" 
d="M533 210h-169v-171h-115v171h-169v111h169v172h115v-172h169v-111z" />
    <glyph glyph-name="comma" unicode="," horiz-adv-x="274" 
d="M105 -79.5c5.33301 15 8.00195 26.499 8.00195 34.499c0 7.33301 -1.5 13.833 -4.5 19.5s-8.16699 11.834 -15.5 18.501l-53 53c28.667 50 64 89.667 106 119c20 -14.667 38.333 -31.667 55 -51c22.667 -24.667 34 -50 34 -76c0 -12.667 -1.83301 -24.5 -5.5 -35.5
s-10.167 -28.167 -19.5 -51.5c-16.667 -36 -38.334 -77 -65.001 -123h-77c19.333 46.667 31.666 77.5 36.999 92.5z" />
    <glyph glyph-name="hyphen" unicode="-" horiz-adv-x="472" 
d="M88 339l244 33h52v-132h-296v99z" />
    <glyph glyph-name="period" unicode="." horiz-adv-x="303" 
d="M55 117l162 43l41 -149l-161 -43z" />
    <glyph glyph-name="slash" unicode="/" horiz-adv-x="307" 
d="M237 754h67l-233 -815h-68z" />
    <glyph glyph-name="zero" unicode="0" horiz-adv-x="655" 
d="M104 53c-45.333 48.667 -68 120 -68 214c0 54 13.333 102.5 40 145.5s63.834 76.5 111.501 100.5s101.5 36 161.5 36c88.667 0 155.834 -24.333 201.501 -73s68.5 -120.667 68.5 -216c0 -54 -13.333 -102.167 -40 -144.5s-63.834 -75.5 -111.501 -99.5
s-101.834 -36 -162.501 -36c-88.667 0 -155.667 24.333 -201 73zM419 119c5.33301 14.667 9.66699 34.168 13 58.501s5 49.166 5 74.499c0 55.333 -10.333 97.333 -31 126s-51 43 -91 43c-20.667 0 -47.667 -3 -81 -9c-10.667 -16.667 -16 -59.667 -16 -129
c0 -57.333 10.5 -101.5 31.5 -132.5s50.833 -46.5 89.5 -46.5c28 0 54.667 5 80 15z" />
    <glyph glyph-name="one" unicode="1" horiz-adv-x="392" 
d="M20 102l108 20v225c0 13.333 -1.16699 21.833 -3.5 25.5s-9.83301 9.16699 -22.5 16.5l-82 45l9 66l186 54l82 -7v-393c0 -15.333 0.833008 -25 2.5 -29s7.16699 -8.33301 16.5 -13l71 -36l-3 -76h-359z" />
    <glyph glyph-name="two" unicode="2" horiz-adv-x="433" 
d="M19 117c10.667 9.33301 26.999 22.502 48.999 39.502l54 41.5c62.667 48 102 79 118 93c3.33301 14.667 5 28.667 5 42c0 23.333 -6.5 40.333 -19.5 51s-33.5 16 -61.5 16c-35.333 0 -76.666 -3.33301 -123.999 -10l-5 39l12 101c50 12.667 100.667 19 152 19
c60.667 0 108.834 -13.333 144.501 -40s53.5 -63.334 53.5 -110.001c0 -48 -12.333 -90.333 -37 -127s-65.334 -77.334 -122.001 -122.001l-42 -31l167 38h41l-11 -157h-371z" />
    <glyph glyph-name="three" unicode="3" horiz-adv-x="473" 
d="M53.5 -145.5c-27 7 -50.498 16.501 -70.498 28.501l58 140h44c37.333 -18 82 -27 134 -27c43.333 0 72.666 7.33301 87.999 22c0.666992 36 -7.33301 63.167 -24 81.5s-42.667 29.166 -78 32.499l-67 6c-24 1.33301 -42 2.66602 -54 3.99902
c5.33301 49.333 12.333 89 21 119c45.333 5.33301 75.333 9.33301 90 12s27 6.33398 37 11.001c5.33301 20 8.33301 39 9 57c-0.666992 22 -7.5 37.333 -20.5 46s-35.833 13 -68.5 13c-38.667 0 -80 -5 -124 -15l1 46l20 96c48 14.667 98.667 22 152 22
c60 0 108.5 -12.5 145.5 -37.5s55.5 -58.5 55.5 -100.5c0 -23.333 -5.33301 -46.666 -16 -69.999s-27 -48.333 -49 -75c37.333 -10.667 64.666 -27.834 81.999 -51.501s26 -55.5 26 -95.5c0 -51.333 -13.5 -98 -40.5 -140s-64 -75 -111 -99s-98.833 -36 -155.5 -36
c-29.333 0 -57.5 3.5 -84.5 10.5z" />
    <glyph glyph-name="four" unicode="4" horiz-adv-x="595" 
d="M313 35h-272l-26 106l269 413l183 -20l8 -348h95v-39l-25 -112h-67l4 -160l-121 -18h-48v178zM313 186v213l-135 -213h135z" />
    <glyph glyph-name="five" unicode="5" horiz-adv-x="502" 
d="M28 -116l53.0039 135.999h40c35.333 -18.667 80.333 -28 135 -28c39.333 0 67.333 7.66699 84 23c0.666992 35.333 -6.83301 62.333 -22.5 81s-39.834 29.667 -72.501 33c16 -1.33301 -22.667 1.33398 -116 8.00098l-56 3l-22 259c-0.666992 19.333 1 41.333 5 66
s9.33301 49 16 73h222c15.333 0 25.333 0.833008 30 2.5s11 7.16699 19 16.5l19 24l78 -21c-4.66699 -54.667 -11.667 -115 -21 -181h-238v-84l29 -2c45.333 -2.66699 83.166 -6.5 113.499 -11.5s56.166 -14.167 77.499 -27.5c48 -28.667 72 -75 72 -139
c0 -50.667 -12.833 -96.667 -38.5 -138s-60.834 -73.833 -105.501 -97.5s-94.667 -35.5 -150 -35.5c-62.667 0 -113 13.333 -151 40z" />
    <glyph glyph-name="six" unicode="6" horiz-adv-x="564" 
d="M150 9c-36 19.333 -63.668 46.9961 -83.001 82.9961s-29 77.667 -29 125c0 40.667 5.16699 78.334 15.5 113.001s29.833 78.334 58.5 131.001c12 23.333 27.333 48.5 46 75.5s52.334 73.167 101.001 138.5l172 12l9 -40l-196 -225l89 20
c59.333 -7.33301 106.5 -29.166 141.5 -65.499s52.5 -81.166 52.5 -134.499c0 -48.667 -11 -93 -33 -133s-52.167 -71.5 -90.5 -94.5s-80.833 -34.5 -127.5 -34.5c-48 0 -90 9.66699 -126 29zM362.999 119.996c0.666992 5.33301 1.00098 16.333 1.00098 33
c0 56 -8.83301 97.333 -26.5 124s-45.167 40 -82.5 40c-20.667 0 -39 -1.33301 -55 -4c-0.666992 -6.66699 -1 -19 -1 -37c0 -52.667 9.16699 -93 27.5 -121s44.166 -42 77.499 -42c23.333 0 43 2.33301 59 7z" />
    <glyph glyph-name="seven" unicode="7" horiz-adv-x="499" 
d="M60 -99l280 486l-170 -4l-76 -75l-66 8l22 222h424l13 -97l-241 -584h-186v44z" />
    <glyph glyph-name="eight" unicode="8" horiz-adv-x="591" 
d="M101.5 28c-42.333 32 -64.167 78.6641 -65.5 139.997c0 38.667 8.5 72.834 25.5 102.501s41.5 54.167 73.5 73.5c-26 20 -44.167 41 -54.5 63s-15.5 49.333 -15.5 82c0 38.667 9.83301 73 29.5 103s47.5 53.333 83.5 70s77.333 25 124 25c70 0 124.5 -15.833 163.5 -47.5
s58.5 -76.167 58.5 -133.5c0 -31.333 -5.5 -60.333 -16.5 -87s-26.833 -48.667 -47.5 -66c33.333 -19.333 57.333 -42 72 -68s22 -58.333 22 -97c0 -41.333 -11 -77.666 -33 -108.999s-53 -55.666 -93 -72.999s-86.667 -26 -140 -26c-82 0 -144.167 16 -186.5 48z
M366.999 492.997c0 26.667 -8 46.501 -24 59.501s-40.667 19.5 -74 19.5c-5.33301 0 -15.333 -0.666992 -30 -2c-3.33301 -5.33301 -6.33301 -14 -9 -26s-4 -22 -4 -30c0 -14.667 3 -27 9 -37s17.167 -20 33.5 -30s41.833 -23 76.5 -39c14.667 31.333 22 59.666 22 84.999z
M364.999 99.998c12.667 22 19 44.667 19 68c-0.666992 15.333 -6 28.5 -16 39.5s-23.833 21 -41.5 30s-44.5 21.167 -80.5 36.5l-18 8c-8 -12.667 -14.5 -27.5 -19.5 -44.5s-7.5 -33.167 -7.5 -48.5c0 -62.667 38 -94 114 -94c11.333 0 28 1.66699 50 5z" />
    <glyph glyph-name="nine" unicode="9" horiz-adv-x="564" 
d="M125 -118l196 226.996l-89 -20c-58.667 7.33301 -105.667 29 -141 65s-53 81 -53 135c0 48.667 11 92.834 33 132.501s52 70.834 90 93.501s80.333 34 127 34c48 0 90 -9.66699 126 -29s63.833 -46.666 83.5 -81.999s29.5 -76.666 29.5 -123.999
c0 -40.667 -5.33301 -78.5 -16 -113.5s-30 -78.5 -58 -130.5c-12.667 -24 -29 -50.833 -49 -80.5s-52.333 -74.5 -97 -134.5l-173 -11zM364 217.996c0.666992 6.66699 1 18.667 1 36c0 52 -9 92.333 -27 121s-43.333 43 -76 43c-23.333 0 -43.333 -2 -60 -6
c-0.666992 -6 -1 -17.667 -1 -35c0 -56 8.83301 -97.167 26.5 -123.5s45.167 -39.5 82.5 -39.5c20.667 0 38.667 1.33301 54 4z" />
    <glyph glyph-name="colon" unicode=":" horiz-adv-x="344" 
d="M75 456l155 40l40 -141l-154 -41zM77 111l155 40l40 -141l-154 -41z" />
    <glyph glyph-name="semicolon" unicode=";" horiz-adv-x="277" 
d="M42 456l155 40l40 -141l-154 -41zM105 -79.5c5.33301 15 8.00195 26.499 8.00195 34.499c0 7.33301 -1.5 13.833 -4.5 19.5s-8.16699 11.834 -15.5 18.501l-53 53c28.667 50 64 89.667 106 119c20 -14.667 38.333 -31.667 55 -51c22.667 -24.667 34 -50 34 -76
c0 -12.667 -1.83301 -24.5 -5.5 -35.5s-10.167 -28.167 -19.5 -51.5c-16.667 -36 -38.334 -77 -65.001 -123h-77c19.333 46.667 31.666 77.5 36.999 92.5z" />
    <glyph glyph-name="less" unicode="&#x3c;" horiz-adv-x="669" 
d="M100 231v69l469 207v-135l-328 -107l328 -106v-137z" />
    <glyph glyph-name="equal" unicode="=" horiz-adv-x="611" 
d="M80 424h451v-112h-451v112zM80 220h451v-110h-451v110z" />
    <glyph glyph-name="greater" unicode="&#x3e;" horiz-adv-x="669" 
d="M100 159l328 106l-328 107v135l469 -207v-69l-469 -209v137z" />
    <glyph glyph-name="question" unicode="?" horiz-adv-x="377" 
d="M99 286c0 30.667 14.332 64.668 42.999 102.001l36 46c0.666992 22.667 -3 39.834 -11 51.501s-20 20.334 -36 26.001s-42.667 12.834 -80 21.501l-36 9l2 30c25.333 49.333 52.333 92.666 81 129.999c80.667 -13.333 141.667 -31.166 183 -53.499s62 -54.833 62 -97.5
c0 -24.667 -6.16699 -46.834 -18.5 -66.501s-30.166 -41.834 -53.499 -66.501l-18 -20c-12 -13.333 -20.667 -24.5 -26 -33.5s-8 -17.833 -8 -26.5s2.5 -17.834 7.5 -27.501s14.167 -24.167 27.5 -43.5c-36.667 -26.667 -78.667 -52.334 -126 -77.001
c-19.333 37.333 -29 69.333 -29 96zM78.999 107.001l149 39l37 -138l-148 -40z" />
    <glyph glyph-name="at" unicode="@" horiz-adv-x="877" 
d="M650 599c48.667 -21.333 87.835 -54.165 117.502 -98.498s44.5 -99.5 44.5 -165.5c0 -50.667 -8.66699 -94.834 -26 -132.501s-41.166 -66.5 -71.499 -86.5s-63.833 -30 -100.5 -30c-48 0 -90.667 13.333 -128 40c-28 -23.333 -60.333 -35 -97 -35
c-37.333 0 -64.833 11.833 -82.5 35.5s-26.5 56.834 -26.5 99.501c0 63.333 17.833 114.333 53.5 153s87.5 58 155.5 58c38 0 75.667 -6.66699 113 -20l-42 -239c19.333 -10 40 -15 62 -15c33.333 0 57.666 14.333 72.999 43s23 65 23 109c0 81.333 -22 142 -66 182
s-100.667 60 -170 60c-60.667 0 -114.334 -15 -161.001 -45s-82.834 -70.167 -108.501 -120.5s-38.5 -105.166 -38.5 -164.499c0 -80 24 -141.667 72 -185s117.667 -65.333 209 -66l-10 -75c-69.333 0 -132.5 10.167 -189.5 30.5s-103 53.666 -138 99.999
s-52.5 105.833 -52.5 178.5c0 75.333 18.333 145.166 55 209.499s87.5 115.666 152.5 153.999s137.5 57.5 217.5 57.5c58 0 111.333 -10.667 160 -32zM421.001 174.001c11.333 0 26.333 4.66797 45 14.001l28 165c-14 4.66699 -29 7 -45 7c-12 0 -26 -2 -42 -6
c-5.33301 -14 -10.5 -34.333 -15.5 -61s-7.5 -48.334 -7.5 -65.001c0 -36 12.333 -54 37 -54z" />
    <glyph glyph-name="A" unicode="A" horiz-adv-x="712" 
d="M16 89l30.999 18.9971l234 567l170 15l200 -540c6.66699 -17.333 11.334 -28.666 14.001 -33.999s7.66699 -12.666 15 -21.999l18 -23l-6 -71h-281l-10 95l71 18l-32 101l-203 -3l-22 -63c-2 -6 -3 -11 -3 -15c0 -4.66699 0.833008 -8.16699 2.5 -10.5
s4.5 -4.16602 8.5 -5.49902l69 -29l-10 -88h-262zM342.999 518.997l-66 -192l129 -6z" />
    <glyph glyph-name="B" unicode="B" horiz-adv-x="648" 
d="M42 4l-5.00098 97.999l73 20v381c0 17.333 -1.33301 28.833 -4 34.5s-9.66699 10.834 -21 15.501l-52 29l6 83c108 14 200.667 21 278 21c94.667 0 164 -14 208 -42s66 -72.333 66 -133c0 -30 -4.66699 -56.5 -14 -79.5s-23.666 -43.833 -42.999 -62.5
c66.667 -30 100 -78.667 100 -146c0 -60 -16.667 -108.333 -50 -145s-82.333 -60.667 -147 -72c-24 -6.66699 -83.667 -10 -179 -10c-72 0 -144 2.66699 -216 8zM414.999 487.999c0 28 -6.50098 48.668 -19.501 62.001s-32.833 20.666 -59.5 21.999
c-17.333 0 -34.666 -0.666992 -51.999 -2v-167c11.333 0.666992 26 1 44 1c27.333 0 53 -1 77 -3c6.66699 17.333 10 46.333 10 87zM443.998 130c6.66699 26.667 10 50.333 10 71c0 33.333 -8.66699 57 -26 71s-46.666 21 -87.999 21c-8.66699 0 -19.667 -0.666992 -33 -2
l-23 -1v-163c23.333 -4.66699 49.666 -7 78.999 -7c38 0 65 3.33301 81 10z" />
    <glyph glyph-name="C" unicode="C" horiz-adv-x="643" 
d="M107 78c-54.667 62 -82 149.667 -82 263c0 72 13.167 134.167 39.5 186.5s64.5 92.333 114.5 120s109.333 41.5 178 41.5c78 0 158.333 -17.667 241 -53c-6 -60 -15.667 -126.333 -29 -199l-76 -5l-69 101c-29.333 8.66699 -61.666 13 -96.999 13
c-26.667 0 -52 -2.33301 -76 -7c-10.667 -20.667 -19.334 -48 -26.001 -82s-10 -68.333 -10 -103c0 -74 13.5 -128.833 40.5 -164.5s69.833 -54.167 128.5 -55.5c23.333 0 52.833 3.5 88.5 10.5s70.5 16.167 104.5 27.5l31 -110c-34.667 -22.667 -76.5 -41.167 -125.5 -55.5
s-96.167 -21.5 -141.5 -21.5c-101.333 0 -179.333 31 -234 93z" />
    <glyph glyph-name="D" unicode="D" horiz-adv-x="735" 
d="M42 6l-5 95.999l73 20v381c0 17.333 -1.33301 28.833 -4 34.5s-9.66699 10.834 -21 15.501l-52 29l6 83c69.333 5.33301 127.666 9.5 174.999 12.5s85.333 4.5 114 4.5c92 0 165.833 -10.667 221.5 -32s96.334 -55 122.001 -101s38.5 -107 38.5 -183
c0 -96 -22 -173.667 -66 -233c-39.333 -51.333 -91.5 -86.833 -156.5 -106.5s-147.167 -29.5 -246.5 -29.5c-72 0 -138.333 3 -199 9zM500 159.999c6 16.667 11.5 42.667 16.5 78s7.5 68.333 7.5 99c0 75.333 -15.5 131 -46.5 167s-78.167 54 -141.5 54
c-8.66699 0 -16.667 -0.333008 -24 -1l-21 -2v-410c26.667 -3.33301 52 -5 76 -5c56 0 100.333 6.66699 133 20z" />
    <glyph glyph-name="E" unicode="E" horiz-adv-x="623" 
d="M27 102l73 19.999v383c0 17.333 -1.33301 28.833 -4 34.5s-9.66699 10.834 -21 15.501l-50 29l3 90h543c4.66699 -70 7 -138.333 7 -205l-74 -5l-71 88l-151 4v-163l213 18v-154l-213 23v-161l166 3l77 88l74 -5c-2.66699 -70 -7.66699 -138.333 -15 -205h-552z" />
    <glyph glyph-name="F" unicode="F" horiz-adv-x="608" 
d="M27 102l73 20v383c0 17.333 -1.33301 28.833 -4 34.5s-9.66699 10.834 -21 15.501l-50 29l3 90h543c4.66699 -70 7 -138.333 7 -205l-74 -5l-71 88l-151 4v-178l213 19v-154l-213 23v-104c0 -16 1.16699 -26.333 3.5 -31s8.5 -9.33398 18.5 -14.001l60 -36l-3 -81h-329z
" />
    <glyph glyph-name="G" unicode="G" horiz-adv-x="676" 
d="M110 77c-56.667 59.333 -85.001 147.335 -85.001 264.002c0 71.333 13.667 132.833 41 184.5s67 91.167 119 118.5s113.667 41 185 41c86.667 0 171 -17.333 253 -52c-6.66699 -64 -16 -128 -28 -192l-76 -5l-63 92c-33.333 12 -74.666 18 -123.999 18
c-23.333 0 -51.333 -2.33301 -84 -7c-12 -20 -21.333 -46.667 -28 -80s-10 -69.333 -10 -108c0 -76.667 15.333 -133.834 46 -171.501s78.334 -56.834 143.001 -57.501c16 0 36.333 1.33301 61 4v73c0 13.333 -1 22 -3 26s-7.66699 8.66699 -17 14l-38 19l4 68l23 4
c7.33301 1.33301 33.333 5.5 78 12.5s82 11.167 112 12.5c6.66699 -12.667 11.667 -27 15 -43v-262c-38.667 -19.333 -81.667 -34.5 -129 -45.5s-94.333 -16.5 -141 -16.5c-112.667 0 -197.334 29.667 -254.001 89z" />
    <glyph glyph-name="H" unicode="H" horiz-adv-x="765" 
d="M27 105l63.001 17v383c0 17.333 -1.16699 28.833 -3.5 34.5s-8.83301 10.834 -19.5 15.501l-42 24l3 95h312l5 -102l-74 -20v-146l228 6v93c0 17.333 -1.33301 28.833 -4 34.5s-9.66699 10.834 -21 15.501l-49 28l5 91h307l4 -105l-61 -17v-390
c0 -16 1.16699 -26.333 3.5 -31s8.16602 -9.33398 17.499 -14.001l41 -24l-4 -93h-304l-5 103l70 19v149l-228 10v-119c0 -16 1.16699 -26.333 3.5 -31s8.5 -9.33398 18.5 -14.001l53 -31l-4 -86h-310z" />
    <glyph glyph-name="I" unicode="I" horiz-adv-x="388" 
d="M32 102l73 20v383c0 17.333 -1.33301 28.833 -4 34.5s-9.66699 10.834 -21 15.501l-52 30l5 89h321l4 -102l-72 -20v-390c0 -16 1.16699 -26.333 3.5 -31s8.5 -9.33398 18.5 -14.001l51 -31l-3 -86h-319z" />
    <glyph glyph-name="J" unicode="J" horiz-adv-x="378" 
d="M87 -69c-19.333 14 -41.668 34.666 -67.001 61.999l81 98v414c0 17.333 -1.33301 28.833 -4 34.5s-9.66699 10.834 -21 15.501l-51 30l4 89h321l5 -102l-73 -20v-320c0 -70.667 -5.66699 -128.5 -17 -173.5s-31.666 -90.167 -60.999 -135.5l-31 -44
c-38 20.667 -66.667 38 -86 52z" />
    <glyph glyph-name="K" unicode="K" horiz-adv-x="703" 
d="M27 105l63 16.9971v383c0 17.333 -1.16699 28.833 -3.5 34.5s-8.83301 10.834 -19.5 15.501l-42 24l3 95h312l5 -102l-74 -20v-188l175 189c2.66699 2.66699 4 6.33398 4 11.001c0 3.33301 -1 6.33301 -3 9l-29 35l11 66h232l12 -68l-229 -245l245 -316v-45h-191
l-227 301v-139c0 -14.667 1.16699 -24.667 3.5 -30s8.5 -10.666 18.5 -15.999l53 -30l-4 -86h-310z" />
    <glyph glyph-name="L" unicode="L" horiz-adv-x="584" 
d="M27 105l63 16.999v383c0 17.333 -1.16699 28.833 -3.5 34.5s-8.83301 10.834 -19.5 15.501l-42 24l3 95h312l5 -102l-74 -20v-432l126 3l85 97l77 -4c-1.33301 -56 -6 -128 -14 -216h-513z" />
    <glyph glyph-name="M" unicode="M" horiz-adv-x="952" 
d="M228 442l-22 -296.002v-4c0 -12.667 4.66699 -21 14 -25l62 -26l-10 -91h-249l-10 89l46 28l57 386c0.666992 4.66699 1 10.334 1 17.001c0 8 -1.83301 14 -5.5 18s-10.5 9 -20.5 15l-46 26l6 95h287l143 -466l142 466h268l4 -105l-64 -16l54 -392
c2 -13.333 4.83301 -23.666 8.5 -30.999s12.167 -19.333 25.5 -36l21 -27l-6 -67h-298l-9 92l82 21l-34 335l-128 -452l-171 -15z" />
    <glyph glyph-name="N" unicode="N" horiz-adv-x="748" 
d="M205 426l17 -262.001c0.666992 -15.333 2.33398 -25.333 5.00098 -30s8.66699 -9.66699 18 -15l52 -35l-4 -84h-260l-5 109l54 13l4 394c0 12.667 -1 21.334 -3 26.001s-6.66699 10 -14 16l-37 28l7 88h207l302 -387l-14 223c-0.666992 16 -2.33398 26.333 -5.00098 31
s-8.66699 9.66699 -18 15l-52 34l3 84h258l4 -102l-51 -22l-4 -541l-115 -38z" />
    <glyph glyph-name="O" unicode="O" horiz-adv-x="722" 
d="M106.5 70c-54.333 56 -81.5 141.001 -81.5 255.001c0 74 13.667 138.167 41 192.5s66.333 96.166 117 125.499s111 44 181 44c222.667 0 334 -113.667 334 -341c0 -74.667 -13.667 -139 -41 -193s-66.833 -95.333 -118.5 -124s-113.167 -43 -184.5 -43
c-110.667 0 -193.167 28 -247.5 84zM484 153.001c7.33301 20.667 13 46.499 17 77.499s6 61.5 6 91.5c0 74 -13.833 130 -41.5 168s-68.167 57 -121.5 57c-38 0 -74.667 -7 -110 -21c-7.33301 -12.667 -13 -33.5 -17 -62.5s-6 -62.167 -6 -99.5
c0 -77.333 14 -136.666 42 -177.999s68.667 -62 122 -62c38 0 74.333 9.66699 109 29z" />
    <glyph glyph-name="P" unicode="P" horiz-adv-x="647" 
d="M37 102l73 20v381c0 17.333 -1.33301 28.833 -4 34.5s-9.66699 10.834 -21 15.501l-52 29l6 81c50.667 8 98.667 13.833 144 17.5s94 5.5 146 5.5c72 0 129.833 -7.66699 173.5 -23s75.667 -39.333 96 -72s30.5 -76 30.5 -130c0 -70 -25.167 -125 -75.5 -165
s-119.166 -60 -206.499 -60l-55 2v-76c0 -16 1.16699 -26.333 3.5 -31s8.16602 -9.33398 17.499 -14.001l61 -36l-4 -81h-328zM435 358c7.33301 32.667 11 67 11 103c0 39.333 -7.5 67.333 -22.5 84s-39.167 25 -72.5 25c-11.333 0 -31 -1.33301 -59 -4v-213
c18 -4 39.333 -6 64 -6c36 0 62.333 3.66699 79 11z" />
    <glyph glyph-name="Q" unicode="Q" horiz-adv-x="740" 
d="M421 -9c-23.333 -3.33301 -45.667 -4.99902 -67 -4.99902c-110.667 0 -193.167 28 -247.5 84s-81.5 141 -81.5 255c0 74 13.667 138.167 41 192.5s66.333 96.166 117 125.499s111 44 181 44c222.667 0 334 -113.667 334 -341c0 -105.333 -26 -189 -78 -251l111 5v-136
h-65zM430.499 131.001c17 4.66699 34.833 12 53.5 22c7.33301 20.667 13 46.5 17 77.5s6 61.5 6 91.5c0 74 -13.833 130 -41.5 168s-68.167 57 -121.5 57c-37.333 0 -74 -7 -110 -21c-7.33301 -12.667 -12.833 -33.334 -16.5 -62.001s-5.5 -62 -5.5 -100
c0 -77.333 13.833 -136.666 41.5 -177.999s68.167 -62 121.5 -62c20 0 38.5 2.33301 55.5 7z" />
    <glyph glyph-name="R" unicode="R" horiz-adv-x="674" 
d="M37 102l73 19.9971v381c0 17.333 -1.33301 28.833 -4 34.5s-9.66699 10.834 -21 15.501l-52 29l6 82c100 14.667 196.333 22 289 22c72 0 130 -7.16699 174 -21.5s76.167 -36.666 96.5 -66.999s30.5 -70.5 30.5 -120.5c0 -41.333 -10.667 -77.5 -32 -108.5
s-51.666 -54.833 -90.999 -71.5l160 -258l-1 -39h-182l-148 267l-44 1v-112c0 -16 1.16699 -26.167 3.5 -30.5s8.16602 -9.16602 17.499 -14.499l43 -25l-4 -86h-309zM433 389.997c6.66699 24 9.99902 52.667 9.99902 86s-7.16699 57 -21.5 71s-38.166 21 -71.499 21
c-18.667 0 -37.667 -1 -57 -3v-179c17.333 -4 38 -6 62 -6c35.333 0 61.333 3.33301 78 10z" />
    <glyph glyph-name="S" unicode="S" horiz-adv-x="571" 
d="M28 22c3.33301 66 8.66504 127.33 15.998 183.997l77 15l50 -85c40 -14 75.333 -21 106 -21c10.667 0 33.334 3 68.001 9c1.33301 13.333 2 22.333 2 27c0 16 -2.66699 28.167 -8 36.5s-17 17.666 -35 27.999s-50.333 25.833 -97 46.5
c-57.333 28 -98.666 58.167 -123.999 90.5s-38 70.5 -38 114.5c0 68.667 23.333 122.334 70 161.001s110.667 58 192 58c39.333 0 78.5 -3.83301 117.5 -11.5s73.167 -18.167 102.5 -31.5c-1.33301 -37.333 -4.33301 -83.666 -9 -138.999l-3 -43l-73 -11l-76 97
c-24 7.33301 -54 11 -90 11c-22.667 0 -39.667 -2 -51 -6c-3.33301 -13.333 -5 -23.666 -5 -30.999c0 -14.667 3.66699 -27.5 11 -38.5s20.333 -22.333 39 -34s46.334 -26.167 83.001 -43.5c53.333 -25.333 93.666 -47.666 120.999 -66.999s46.5 -39.5 57.5 -60.5
s16.5 -46.5 16.5 -76.5c0 -66 -26.333 -118 -79 -156s-125.334 -57 -218.001 -57c-73.333 0 -147.666 11.333 -222.999 34z" />
    <glyph glyph-name="T" unicode="T" horiz-adv-x="699" 
d="M172 98l87 24.001v433l-84 -7l-74 -89l-73 6c0 55.333 2.66699 125 8 209h626c5.33301 -84 8 -153.667 8 -209l-72 -6l-75 89l-82 7v-393c0 -16 1 -26.333 3 -31s7.66699 -9.33398 17 -14.001l62 -37l-4 -80h-342z" />
    <glyph glyph-name="U" unicode="U" horiz-adv-x="753" 
d="M148.5 64.5c-45.667 51.667 -68.501 132.83 -68.501 243.497v197c0 17.333 -1.16699 28.833 -3.5 34.5s-8.83301 10.834 -19.5 15.501l-32 19l3 100h312l5 -99l-83 -23v-205c0 -69.333 10 -124 30 -164s54.333 -60 103 -60c16 0 31.5 2.33301 46.5 7s27.833 11 38.5 19
c6.66699 15.333 11.334 35.833 14.001 61.5s4 60.167 4 103.5v191c0 17.333 -1.33301 28.833 -4 34.5s-9.66699 10.834 -21 15.501l-49 28l5 91h297l5 -108l-52 -14v-226c0 -107.333 -27.5 -190.666 -82.5 -249.999s-132.5 -89 -232.5 -89
c-98 0 -169.833 25.833 -215.5 77.5z" />
    <glyph glyph-name="V" unicode="V" horiz-adv-x="723" 
d="M58 557l-33 46.999l4 70h288l10 -95l-71 -18l133 -379l119 345c2 5.33301 3 10 3 14c0 8.66699 -4 14.334 -12 17.001l-69 28l7 88h261l6 -85l-44 -56l-218 -536l-172 -15z" />
    <glyph glyph-name="W" unicode="W" horiz-adv-x="1092" 
d="M59 557l-34 46.999l4 70h287l6 -95l-72 -19l124 -387l99 308l-44 129l4 64h266l6 -95l-66 -19l123 -387l115 354c2 5.33301 3 10 3 14c0 8.66699 -4.33301 14.334 -13 17.001l-68 28l6 88h262l5 -85l-41 -56l-210 -537l-175 -17l-105 306l-108 -289l-185 -17z" />
    <glyph glyph-name="X" unicode="X" horiz-adv-x="700" 
d="M356 90l52 13l-102 137l-74 -106c-2.66699 -3.33301 -4 -7 -4 -11c0 -4.66699 3.66699 -10 11 -16l35 -28l-7 -76h-242l-5 86l24 23l189 225l-161 217l-50 60l3 60h310l11 -90l-53 -13l97 -130l71 103c2 3.33301 3 6.33301 3 9c0 5.33301 -3.33301 11 -10 17l-36 27l7 77
h243l6 -86l-25 -23l-186 -222l167 -223l50 -60l-4 -60h-314z" />
    <glyph glyph-name="Y" unicode="Y" horiz-adv-x="673" 
d="M160 98l86.001 24.001v132l-183 293l-46 57l4 70h293l10 -95l-65 -18l105 -178l87 147c2.66699 4.66699 4 9.33398 4 14.001c0 7.33301 -4 12.666 -12 15.999l-58 26l7 88h252l7 -94l-40 -24l-184 -270v-124c0 -16 1.16699 -26.333 3.5 -31
s8.16602 -9.33398 17.499 -14.001l62 -37l-4 -80h-341z" />
    <glyph glyph-name="Z" unicode="Z" horiz-adv-x="625" 
d="M28 124l313 417.001l-141 -10l-79 -86l-79 15l27 214h502l10 -114l-322 -427l193 12l70 89l84 -19c-11.333 -98.667 -20.333 -170.334 -27 -215.001h-544z" />
    <glyph glyph-name="bracketleft" unicode="[" horiz-adv-x="320" 
d="M70 789h210v-91h-88v-818h88v-91h-210v1000z" />
    <glyph glyph-name="backslash" unicode="\" horiz-adv-x="307" 
d="M3 754h67l234 -815h-68z" />
    <glyph glyph-name="bracketright" unicode="]" horiz-adv-x="319" 
d="M39 -120h88v818h-88v91h210v-1000h-210v91z" />
    <glyph glyph-name="asciicircum" unicode="^" horiz-adv-x="616" 
d="M254 674h117l190 -399h-136l-113 292l-124 -292h-133z" />
    <glyph glyph-name="underscore" unicode="_" horiz-adv-x="490" 
d="M0 -66h490v-94h-490v94z" />
    <glyph glyph-name="grave" unicode="`" horiz-adv-x="570" 
d="M124 715v41h180l95 -173h-86z" />
    <glyph glyph-name="a" unicode="a" horiz-adv-x="554" 
d="M61 24.5c-27.333 25 -41.002 57.1699 -41.002 96.5029c0 52.667 26.5 94 79.5 124s130.167 47 231.5 51c0 31.333 -2.5 54.5 -7.5 69.5s-14 25.333 -27 31s-32.833 8.5 -59.5 8.5c-27.333 0 -46.666 -1 -57.999 -3l-41 -81l-74 5
c-11.333 53.333 -19.333 108.666 -24 165.999c37.333 12.667 78.166 22.667 122.499 30s85.833 11 124.5 11c70.667 0 121.334 -13.833 152.001 -41.5s46 -73.5 46 -137.5v-209c0 -12 1.16699 -20.333 3.5 -25s7.5 -9.33398 15.5 -14.001l40 -23l-4 -62
c-77.333 -18 -138.333 -28 -183 -30c-1.33301 4 -3.33301 11.167 -6 21.5s-5 20.166 -7 29.499c-26 -16.667 -54.5 -30 -85.5 -40s-60.5 -15 -88.5 -15c-45.333 0 -81.666 12.5 -108.999 37.5zM333.998 127.003l-4 76.001c-16 1.33301 -26.667 2 -32 2
c-18 0 -39 -1.83301 -63 -5.5s-43 -7.83398 -57 -12.501c-2 -8.66699 -3 -16.667 -3 -24c0 -20 5.5 -35.5 16.5 -46.5s26.167 -16.5 45.5 -16.5c26.667 0 59 9 97 27z" />
    <glyph glyph-name="b" unicode="b" horiz-adv-x="565" 
d="M143 -0.5c-36.667 7.66699 -70.668 17.8311 -102.001 30.498v562c0 14.667 -1 24.167 -3 28.5s-7.33301 9.16602 -16 14.499l-47 23l5 76c62 10.667 109 18.334 141 23.001s57 7.33398 75 8.00098c6.66699 -14 11.334 -31.333 14.001 -52v-200
c38 13.333 75.667 20 113 20c70 0 124.833 -22.167 164.5 -66.5s59.5 -107.833 59.5 -190.5c0 -91.333 -25.167 -162.166 -75.5 -212.499s-123.166 -75.5 -218.499 -75.5c-36.667 0 -73.334 3.83301 -110.001 11.5zM357.999 126.997c5.33301 18 9.66797 39 13.001 63
s5 47.333 5 70c0 102.667 -34.333 154 -103 154c-17.333 0 -38.333 -3 -63 -9v-275c17.333 -8.66699 43.333 -13 78 -13c31.333 0 54.666 3.33301 69.999 10z" />
    <glyph glyph-name="c" unicode="c" horiz-adv-x="504" 
d="M79 58.5c-42.667 47.667 -63.998 113.499 -63.998 197.499c0 87.333 22.833 155.333 68.5 204s108.167 73 187.5 73c60 0 124.333 -13.667 193 -41c-1.33301 -19.333 -4.33301 -44.833 -9 -76.5s-9.66699 -60.834 -15 -87.501l-67 -6l-62 79
c-16.667 3.33301 -35.334 5 -56.001 5c-16.667 0 -32 -1 -46 -3c-15.333 -29.333 -23 -70.666 -23 -123.999c0 -54.667 9.66699 -95.167 29 -121.5s48.666 -39.5 87.999 -39.5c18.667 0 41.334 2.83301 68.001 8.5s54 13.834 82 24.501l24 -100
c-26.667 -18.667 -59.834 -34 -99.501 -46s-79.167 -18 -118.5 -18c-77.333 0 -137.333 23.833 -180 71.5z" />
    <glyph glyph-name="d" unicode="d" horiz-adv-x="589" 
d="M69 59c-36 48 -53.998 112.333 -53.998 193c0 92.667 24.5 162.667 73.5 210s118.833 71 209.5 71c5.33301 0 22.666 -0.666992 51.999 -2v60c0 14.667 -1 24.334 -3 29.001s-7.66699 9.66699 -17 15l-45 23l5 76c64 11.333 111.333 19.166 142 23.499s55 6.83301 73 7.5
c6 -15.333 10.333 -32.666 13 -51.999v-569c0 -12 1.16699 -20.333 3.5 -25s7.83301 -9.33398 16.5 -14.001l38 -23l-4 -62c-65.333 -16.667 -129.333 -26.667 -192 -30c-4.66699 12.667 -9.33398 28 -14.001 46c-45.333 -32.667 -94.333 -49 -147 -49
c-64 0 -114 24 -150 72zM351.002 137l-0.000976562 259.001c-20 8.66699 -45.667 13 -77 13c-25.333 0 -49.666 -3.33301 -72.999 -10c-5.33301 -12.667 -9.5 -30 -12.5 -52s-4.5 -46.333 -4.5 -73c0 -54.667 7.5 -94.834 22.5 -120.501s38.5 -38.5 70.5 -38.5
c22 0 46.667 7.33301 74 22z" />
    <glyph glyph-name="e" unicode="e" horiz-adv-x="521" 
d="M78.5 59c-42.333 47.333 -63.499 112.667 -63.499 196c0 58 10.333 107.833 31 149.5s50 73.5 88 95.5s82.333 33 133 33c75.333 0 133.166 -24 173.499 -72s59.5 -116.333 57.5 -205l-304 -56c9.33301 -28 22.5 -48.5 39.5 -61.5s39.5 -19.5 67.5 -19.5
c19.333 0 42.333 2.83301 69 8.5s53.667 13.5 81 23.5l23 -99c-24.667 -18.667 -56.667 -34 -96 -46s-79 -18 -119 -18c-78 0 -138.167 23.667 -180.5 71zM334.001 340.001c-1.33301 25.333 -8.50098 43.833 -21.501 55.5s-31.167 17.5 -54.5 17.5
c-19.333 0 -37.666 -2.66699 -54.999 -8c-14 -32.667 -20.333 -68 -19 -106z" />
    <glyph glyph-name="f" unicode="f" horiz-adv-x="405" 
d="M25 92l70.001 21v293l-70 1v98l70 4v65c0 60.667 17.667 107.667 53 141s86.666 50 153.999 50c34.667 0 76.667 -4.33301 126 -13l-23 -136c-29.333 8 -54.833 13.5 -76.5 16.5s-43.5 4.16699 -65.5 3.5v-118l114 7v-123l-114 2v-258c0 -14 1 -23.333 3 -28
s7.66699 -9.66699 17 -15l62 -34l-3 -69h-314z" />
    <glyph glyph-name="g" unicode="g" horiz-adv-x="572" 
d="M58.5 -192c-39 24 -58.5 59.335 -58.5 106.002c0 49.333 22.667 92.666 68 129.999c-14 14 -21 29.333 -21 46c0 24 15.667 58 47 102c-54.667 28.667 -82 78 -82 148c0 61.333 20.833 108.833 62.5 142.5s101.834 50.5 180.501 50.5
c55.333 0 100.666 -8.33301 135.999 -25l120 37h47v-145h-78c3.33301 -16.667 5 -33 5 -49c0 -61.333 -20.667 -108 -62 -140s-102 -48 -182 -48c-27.333 0 -52 2 -74 6v-14c0 -10.667 4.5 -18.167 13.5 -22.5s28.5 -8.5 58.5 -12.5l90 -13
c70.667 -10 119.5 -27.333 146.5 -52s40.5 -56.334 40.5 -95.001c0 -60 -24.667 -106.333 -74 -139s-119.333 -49 -210 -49c-76.667 0 -134.5 12 -173.5 36zM304 267.002c2.66699 8 5.16602 20.001 7.49902 36.001s3.5 30.667 3.5 44c0 30 -6.5 52.333 -19.5 67
s-33.167 22 -60.5 22c-13.333 0 -28 -2 -44 -6c-3.33301 -8 -6.16602 -19.667 -8.49902 -35s-3.5 -30 -3.5 -44c0 -30.667 6.33301 -53.334 19 -68.001s32 -22 58 -22c14 0 30 2 48 6zM347.999 -106.997c4 8 6 18.667 6 32c0 16 -5.66699 28.167 -17 36.5
s-31.666 14.5 -60.999 18.5l-32 5c-29.333 3.33301 -59 8 -89 14c-4 -18 -6 -32.333 -6 -43c0 -24 10.667 -41.833 32 -53.5s53.666 -17.5 96.999 -17.5c30.667 0 54 2.66699 70 8z" />
    <glyph glyph-name="h" unicode="h" horiz-adv-x="660" 
d="M26 95l61.999 18.001v479c0 14.667 -1 24.167 -3 28.5s-7.33301 9.16602 -16 14.499l-44 23l3 76l31 5c88 16 149.667 24.667 185 26c6 -16 10.333 -33.333 13 -52v-228c36.667 16.667 67.834 28.834 93.501 36.501s51.167 11.5 76.5 11.5c104 0 156 -63.333 156 -190
v-197c0 -14 1 -23.333 3 -28s7.66699 -9.66699 17 -15l48 -28l-4 -75h-276l-5 95l49 14v190c0 29.333 -0.833008 50.166 -2.5 62.499s-7.16699 21.833 -16.5 28.5s-25 10 -47 10c-21.333 0 -52 -3.66699 -92 -11v-243c0 -14 1 -23.333 3 -28s7.33301 -9.66699 16 -15l49 -28
l-4 -75h-290z" />
    <glyph glyph-name="i" unicode="i" horiz-adv-x="347" 
d="M67 740l170 45l41 -152l-169 -46zM25 92l70.001 21.001v243c0 14.667 -1.16699 24.167 -3.5 28.5s-8.16602 9.16602 -17.499 14.499l-44 24l5 75c55.333 10.667 98.166 18.5 128.499 23.5s58.166 7.83301 83.499 8.5c8.66699 -28.667 14 -50 16 -64v-320
c0 -14 1 -23.333 3 -28s7.66699 -9.66699 17 -15l49 -28l-4 -75h-300z" />
    <glyph glyph-name="j" unicode="j" horiz-adv-x="286" 
d="M36 740l170 45l42 -152l-171 -46zM55 -179.5c-18 13.667 -41.334 34.835 -70.001 63.502l80 93v379c0 14.667 -1 24.167 -3 28.5s-7.66699 9.16602 -17 14.499l-45 24l5 75c9.33301 1.33301 16 2.66602 20 3.99902l78.5 14c45 8 82.5 12.667 112.5 14
c6.66699 -22 12.334 -43.333 17.001 -64v-353c0 -68 -5 -124.667 -15 -170s-29 -88.333 -57 -129l-28 -41c-34 18 -60 33.833 -78 47.5z" />
    <glyph glyph-name="k" unicode="k" horiz-adv-x="619" 
d="M26 95l62 18.001v479c0 14.667 -1 24.167 -3 28.5s-7.33301 9.16602 -16 14.499l-44 23l3 76l31 5c88 16 149.667 24.667 185 26c6 -16 10.333 -33.333 13 -52v-407l111 108c3.33301 3.33301 5 7 5 11c0 3.33301 -1 6 -3 8l-28 35l11 55h222c6 -22 10 -45.667 12 -71
l-166 -142l193 -266v-44h-176l-181 260v-114c0 -14 1 -23.333 3 -28s7.33301 -9.66699 16 -15l49 -28l-4 -75h-290z" />
    <glyph glyph-name="l" unicode="l" horiz-adv-x="342" 
d="M25 92l70 20.999v479c0 14.667 -1.16699 24.167 -3.5 28.5s-8.16602 9.16602 -17.499 14.499l-44 23l5 76c13.333 2.66699 23.666 4.33398 30.999 5.00098c88 16 149.333 24.667 184 26c6.66699 -15.333 11 -32.666 13 -51.999v-567c0 -14 1 -23.333 3 -28
s7.66699 -9.66699 17 -15l49 -28l-4 -75h-300z" />
    <glyph glyph-name="m" unicode="m" horiz-adv-x="964" 
d="M26 95l62 18.0029v243c0 14.667 -1 24.167 -3 28.5s-7.33301 9.16602 -16 14.499l-44 24l3 75l27 5c82 16.667 142.667 25.667 182 27c5.33301 -14 9.66602 -28.333 12.999 -43c36 16.667 66.833 28.5 92.5 35.5s49.167 10.5 70.5 10.5c26 0 50.333 -4.83301 73 -14.5
s39.667 -22.5 51 -38.5c38 18.667 72.167 32.167 102.5 40.5s59.166 12.5 86.499 12.5c54.667 0 95 -15.667 121 -47s39 -79 39 -143v-197c0 -14 1 -23.333 3 -28s7.66699 -9.66699 17 -15l48 -28l-4 -75h-272l-5 95l48 14v189c0 28.667 -0.833008 49.167 -2.5 61.5
s-7.16699 22 -16.5 29s-25 10.5 -47 10.5c-17.333 0 -46.333 -3 -87 -9c1.33301 -10.667 2 -26.334 2 -47.001v-197c0 -14 1 -23.333 3 -28s8 -9.66699 18 -15l49 -28l-4 -75h-274l-5 95l48 14v189c0 29.333 -0.833008 50.166 -2.5 62.499s-7.16699 21.833 -16.5 28.5
s-24.666 10 -45.999 10c-23.333 0 -51.666 -3 -84.999 -9v-244c0 -14 1 -23.333 3 -28s7.33301 -9.66699 16 -15l49 -28l-4 -75h-288z" />
    <glyph glyph-name="n" unicode="n" horiz-adv-x="660" 
d="M26 96l61.999 18.002v242c0 14.667 -1 24.167 -3 28.5s-7.33301 9.16602 -16 14.499l-44 24l3 75l22 4c87.333 17.333 150.333 26.666 189 27.999c5.33301 -14 9.66602 -29.333 12.999 -46c40.667 18.667 73.834 31.5 99.501 38.5s49.834 10.5 72.501 10.5
c106 0 159 -63.333 159 -190v-196c0 -14 1 -23.333 3 -28s7.66699 -9.66699 17 -15l48 -28l-4 -75h-276l-5 95l49 14v189c0 30 -1 51 -3 63s-7.5 21.333 -16.5 28s-24.833 10 -47.5 10c-24 0 -54.333 -3.66699 -91 -11v-242c0 -14 1 -23.333 3 -28s7.33301 -9.66699 16 -15
l49 -28l-4 -75h-290z" />
    <glyph glyph-name="o" unicode="o" horiz-adv-x="553" 
d="M77.5 52c-41.667 43.333 -62.498 109.666 -62.498 198.999c0 57.333 10.5 107.333 31.5 150s51.167 75.334 90.5 98.001s85.666 34 138.999 34c172.667 0 259 -89.333 259 -268c0 -87.333 -23.5 -155.5 -70.5 -204.5s-112.833 -73.5 -197.5 -73.5
s-147.834 21.667 -189.501 65zM318.002 107.5c10 2.33301 20.667 6.16699 32 11.5c4 15.333 7.33301 35 10 59s4 47 4 69c0 54 -8.5 95 -25.5 123s-42.167 42 -75.5 42c-22 0 -44.333 -3 -67 -9c-4.66699 -10 -8.33398 -26.167 -11.001 -48.5s-4 -47.833 -4 -76.5
c0 -56 8.83301 -99 26.5 -129s42.834 -45 75.501 -45c13.333 0 25 1.16699 35 3.5z" />
    <glyph glyph-name="p" unicode="p" horiz-adv-x="583" 
d="M-2 -120l61.9971 17.001v459c0 14.667 -1 24.167 -3 28.5s-7.66699 9.16602 -17 14.499l-45 24l5 75l10 2c3.33301 0.666992 7 1.33398 11 2.00098c31.333 6 64.5 11.833 99.5 17.5s63.833 9.16699 86.5 10.5c6 -14 10 -30 12 -48
c20.667 16.667 42.834 29.334 66.501 38.001s47.167 13 70.5 13c66.667 0 117.834 -23.5 153.501 -70.5s53.5 -113.833 53.5 -200.5c0 -90 -24.667 -158.833 -74 -206.5s-120.666 -71.5 -213.999 -71.5c-10 0 -25.667 0.666992 -47 2v-55c0 -14.667 1 -24.334 3 -29.001
s7.66699 -9.33398 17 -14.001l59 -33l-4 -70h-300zM376.997 121.001c5.33301 16.667 9.83496 36.832 13.502 60.499s5.5 45.834 5.5 66.501c0 51.333 -8.83301 91 -26.5 119s-42.167 42 -73.5 42c-19.333 0 -42 -5.66699 -68 -17v-272c19.333 -8 43.666 -12 72.999 -12
c31.333 0 56.666 4.33301 75.999 13z" />
    <glyph glyph-name="q" unicode="q" horiz-adv-x="575" 
d="M265 -126l87.001 23.002v106c-38.667 -10.667 -73.667 -16 -105 -16c-78 0 -136.167 23 -174.5 69s-57.5 112.333 -57.5 199c0 90 24.667 158.833 74 206.5s120.666 71.5 213.999 71.5c39.333 0 78.333 -4 117 -12s72 -18.333 100 -31v-559
c0 -14.667 1 -24.334 3 -29.001s8 -9.33398 18 -14.001l31 -18l-4 -85h-300zM309.501 115.502c11 3 24.832 8.16797 41.499 15.501v260c-22 10 -49.333 15 -82 15c-26.667 0 -49 -3.33301 -67 -10c-5.33301 -12 -9.66602 -29 -12.999 -51s-5 -46 -5 -72
c0 -52.667 8 -92.834 24 -120.501s38.667 -41.5 68 -41.5c11.333 0 22.5 1.5 33.5 4.5z" />
    <glyph glyph-name="r" unicode="r" horiz-adv-x="426" 
d="M27 95l61 18v243c0 14.667 -1 24.167 -3 28.5s-7.33301 9.16602 -16 14.499l-44 24l3 75c11.333 2.66699 21 4.33398 29 5.00098c80.667 16.667 140.334 25.667 179.001 27c6 -17.333 11.667 -39 17 -65c40 31.333 74 53 102 65h57
c-0.666992 -25.333 -2.33398 -52.833 -5.00098 -82.5s-6 -53.5 -10 -71.5c-24 1.33301 -41.667 2 -53 2c-28 0 -57 -1.66699 -87 -5v-227c0 -14 1 -23.333 3 -28s7.33301 -9.66699 16 -15l60 -32l-4 -71h-300z" />
    <glyph glyph-name="s" unicode="s" horiz-adv-x="461" 
d="M28 11c4 65.333 8.33301 113.671 13 145.004l57 11l63 -67c22 -6.66699 46.667 -10 74 -10c15.333 0 27.333 1 36 3c2 5.33301 3 12.666 3 21.999c0 8 -1.83301 14.667 -5.5 20s-11.834 11.666 -24.501 18.999s-34.667 18.666 -66 33.999
c-39.333 20.667 -69.333 39.167 -90 55.5s-35.5 33.166 -44.5 50.499s-13.5 38 -13.5 62c0 53.333 19.833 95.666 59.5 126.999s93.5 47 161.5 47c28 0 57.5 -3.16699 88.5 -9.5s58.833 -14.833 83.5 -25.5c0 -43.333 -3 -91.666 -9 -144.999l-52 -8l-67 72
c-17.333 5.33301 -42.666 8 -75.999 8c-5.33301 0 -16 -0.666992 -32 -2c-2 -4 -3 -10.333 -3 -19c0 -9.33301 2.66699 -17.5 8 -24.5s14.833 -14.667 28.5 -23s35.5 -20.166 65.5 -35.499c44 -21.333 77.167 -39.833 99.5 -55.5s38 -31.5 47 -47.5s13.5 -35.333 13.5 -58
c0 -54.667 -20.833 -97.334 -62.5 -128.001s-99.167 -46 -172.5 -46c-52.667 0 -113.667 9.33301 -183 28z" />
    <glyph glyph-name="t" unicode="t" horiz-adv-x="416" 
d="M92 30.5c-28 29 -42 73.166 -42 132.499v243h-70v73l180 164l58 -7v-113h168v-118h-168v-206c0 -32 4.5 -53.333 13.5 -64s26.5 -16 52.5 -16c22 0 52.667 3 92 9l12 -102c-24 -11.333 -50.833 -20.666 -80.5 -27.999s-58.167 -11 -85.5 -11
c-58.667 0 -102 14.5 -130 43.5z" />
    <glyph glyph-name="u" unicode="u" horiz-adv-x="612" 
d="M87 33.5c-26 31.667 -39 79.5049 -39 143.505v179c0 14.667 -1.16699 24.167 -3.5 28.5s-8.16602 9.16602 -17.499 14.499l-45 24l5 75c9.33301 1.33301 16 2.66602 20 3.99902l78.5 14c45 8 82.5 12.667 112.5 14c7.33301 -16.667 13 -36 17 -58v-252
c0 -29.333 0.833008 -50 2.5 -62s7 -21.167 16 -27.5s24.5 -9.5 46.5 -9.5c32 0 63 5.66699 93 17v218c0 14.667 -1 24.167 -3 28.5s-7.33301 9.16602 -16 14.499l-44 24l4 75l126.5 23c30.333 5.33301 58.166 8.33301 83.499 9c7.33301 -16.667 13 -36 17 -58v-328
c0 -12 1 -20.333 3 -25s6.66699 -9.33398 14 -14.001l40 -23l-3 -62c-28.667 -7.33301 -61.667 -13.833 -99 -19.5s-72 -9.16699 -104 -10.5c-2.66699 8 -5.66699 18 -9 30c-0.666992 5.33301 -2.33398 11.666 -5.00098 18.999h-3
c-27.333 -16 -56.166 -28.833 -86.499 -38.5s-57.833 -14.5 -82.5 -14.5c-53.333 0 -93 15.833 -119 47.5z" />
    <glyph glyph-name="v" unicode="v" horiz-adv-x="533" 
d="M14 386c-7.33301 18 -12.333 29.668 -15 35.001s-7.66699 12.666 -15 21.999l-17 22l5 58h252l10 -85l-58 -14l91 -258l88 237c1.33301 4 2 7 2 9c0 6 -3 10 -9 12l-47 20l9 79h190l10 -81l-198 -444l-144 -11z" />
    <glyph glyph-name="w" unicode="w" horiz-adv-x="812" 
d="M20 386c-7.33301 18 -12.333 29.668 -15 35.001s-7.66699 12.666 -15 21.999l-17 22l5 58h253l10 -85l-55 -13l68 -243l99 333l103 14l114 -356l64 230c1.33301 4 2 7 2 9c0 6 -3 10 -9 12l-48 20l10 79h190l10 -78l-172 -450l-144 -11l-83 278l-91 -267l-144 -11z" />
    <glyph glyph-name="x" unicode="x" horiz-adv-x="580" 
d="M25 75l165 190l-132 172c-6.66699 8.66699 -12.667 15.5 -18 20.5s-9 8.16699 -11 9.5l5 56h268l5 -77l-40 -9l69 -89l49 70c2.66699 3.33301 4 7 4 11c0 4.66699 -2 8 -6 10l-34 17l5 67h196l5 -76l-154 -184l134 -174c14.667 -18.667 24.667 -30.667 30 -36l-5 -53
h-276l-5 73l49 12l-73 95l-56 -75c-2.66699 -3.33301 -4 -7 -4 -11c0 -4.66699 2 -8 6 -10l34 -17l-5 -67h-202z" />
    <glyph glyph-name="y" unicode="y" horiz-adv-x="537" 
d="M51 -105l111 109.001l-145 382c-7.33301 18 -12.333 29.667 -15 35s-7.66699 12.666 -15 21.999l-17 22l5 58h256l10 -85l-58 -14l82 -251l92 230c1.33301 4 2 7 2 9c0 6 -2.66699 10 -8 12l-47 20l9 79h190l9 -81l-128 -279c-46 -100.667 -84 -179.667 -114 -237
s-60.333 -109 -91 -155c-48 32 -90.667 73.333 -128 124z" />
    <glyph glyph-name="z" unicode="z" horiz-adv-x="512" 
d="M25 103l259 305.001l-121 -9l-51 -68l-67 11c5.33301 77.333 10.666 137.666 15.999 180.999h403l14 -118l-240 -290l126 9l59 70l69 -14c-3.33301 -50.667 -9.66602 -110.667 -18.999 -180h-439z" />
    <glyph glyph-name="braceleft" unicode="{" horiz-adv-x="369" 
d="M192 -187.5c-23.333 14.333 -39.8369 35.167 -49.5039 62.5s-15.5 63.666 -17.5 108.999c-2.66699 70 -6 119.5 -10 148.5s-13.167 50.833 -27.5 65.5s-38.166 23.334 -71.499 26.001c4.66699 48 11 92.667 19 134c26.667 5.33301 45.834 15.5 57.501 30.5
s19.334 36.333 23.001 64s6.83398 75.167 9.50098 142.5c2.66699 68 16 117 40 147s65.333 45 124 45h40l-16 -134c-23.333 0 -39.333 -2.5 -48 -7.5s-14.334 -15.5 -17.001 -31.5s-4.66699 -46.667 -6 -92c-1.33301 -56 -4 -96.5 -8 -121.5s-12.5 -45.667 -25.5 -62
s-35.167 -32.5 -66.5 -48.5c31.333 -16.667 53.666 -33.5 66.999 -50.5s21.833 -37.667 25.5 -62s6.16699 -64.5 7.5 -120.5c1.33301 -46 3.33301 -76.833 6 -92.5s8.33398 -26 17.001 -31s24.667 -7.5 48 -7.5h16l-18 -135h-22c-41.333 0 -73.666 7.16699 -96.999 21.5z
" />
    <glyph glyph-name="bar" unicode="|" horiz-adv-x="324" 
d="M120 768h84v-995h-84v995z" />
    <glyph glyph-name="braceright" unicode="}" horiz-adv-x="368" 
d="M56 -75c23.333 0 39.1709 2.49805 47.5039 7.49805s13.833 15.333 16.5 31s4.66699 46.5 6 92.5c2 56.667 5 97.334 9 122.001s12.5 45.167 25.5 61.5s34.833 32.5 65.5 48.5c-31.333 16.667 -53.5 33.5 -66.5 50.5s-21.333 37.5 -25 61.5s-6.5 64.333 -8.5 121
c-1.33301 46 -3.33301 76.833 -6 92.5s-8.16699 26 -16.5 31s-24.166 7.5 -47.499 7.5h-16l18 135h22c41.333 0 73.666 -7.16699 96.999 -21.5s39.833 -35.166 49.5 -62.499s15.5 -63.666 17.5 -108.999c2.66699 -70 6 -119.5 10 -148.5s13.167 -50.833 27.5 -65.5
s38.166 -23.334 71.499 -26.001c-4 -47.333 -10.333 -92 -19 -134c-26.667 -5.33301 -45.834 -15.5 -57.501 -30.5s-19.334 -36.333 -23.001 -64s-6.83398 -75.167 -9.50098 -142.5c-2.66699 -68 -16 -117 -40 -147s-65.333 -45 -124 -45h-40z" />
    <glyph glyph-name="uni00A0" unicode="&#xa0;" horiz-adv-x="206" 
 />
    <glyph glyph-name="exclamdown" unicode="&#xa1;" horiz-adv-x="330" 
d="M68 526l149 40l38 -139l-150 -39zM115 317h104l41 -465l-132 -16h-47z" />
    <glyph glyph-name="cent" unicode="&#xa2;" horiz-adv-x="573" 
d="M446 8.5c-32.667 -11.667 -66.332 -19.501 -100.999 -23.501l7 -141h-69l6 139c-78.667 2.66699 -139 28.834 -181 78.501s-63 119.5 -63 209.5c0 82 21.667 148 65 198s102.666 77.667 177.999 83l-5 135h69l-6 -135c56 -4 112.667 -18.333 170 -43
c-2.66699 -31.333 -11.667 -87.666 -27 -168.999l-67 -6l-66 83c-22.667 4 -43 6 -61 6s-34 -1.33301 -48 -4c-8 -14 -14.167 -32.333 -18.5 -55s-6.5 -46.334 -6.5 -71.001c0 -118.667 41.333 -178 124 -178c18 0 41 3.33301 69 10s57.333 15.667 88 27l25 -102
c-22 -16 -49.333 -29.833 -82 -41.5z" />
    <glyph glyph-name="sterling" unicode="&#xa3;" horiz-adv-x="568" 
d="M35 87l74.998 20.999l11 139l-71 1l4 57l72 3l7 64c6 58 27.833 103.167 65.5 135.5s90.834 48.5 159.501 48.5c40.667 0 88.334 -5.66699 143.001 -17l-33 -134c-34 10.667 -63 17.834 -87 21.501s-48.333 5.16699 -73 4.5l-11 -114l116 7l-7 -81l-115 1l-12 -128h101
l61 76l85 -19l-15 -63c-9.33301 -40.667 -25.5 -69.167 -48.5 -85.5s-54.833 -24.5 -95.5 -24.5h-334z" />
    <glyph glyph-name="currency" unicode="&#xa4;" horiz-adv-x="646" 
d="M441 89c-36.667 -23.333 -76 -34.999 -118 -34.999c-44 0 -83.667 12.333 -119 37l-78 -87l-66 63l90 79c-24 33.333 -36 72.666 -36 117.999c0 44 12 83.333 36 118l-89 80l63 67l81 -92c34.667 24 74 36 118 36c45.333 0 85.333 -12 120 -36l78 90l65 -66l-89 -79
c24 -36 36 -75.333 36 -118c0 -43.333 -12 -83 -36 -119l88 -81l-66 -64zM398.5 188.501c21 21 31.5 46.167 31.5 75.5s-10.5 54.5 -31.5 75.5s-46.167 31.5 -75.5 31.5c-28.667 0 -53.5 -10.5 -74.5 -31.5s-31.5 -46.167 -31.5 -75.5s10.5 -54.5 31.5 -75.5
s45.833 -31.5 74.5 -31.5c29.333 0 54.5 10.5 75.5 31.5z" />
    <glyph glyph-name="yen" unicode="&#xa5;" horiz-adv-x="701" 
d="M499 317l132 1v-61l-176 2l-24 -31v-16l200 2v-61l-200 2v-22c0 -10 1 -16.833 3 -20.5s7.33301 -8.5 16 -14.5l56 -38l-4 -60h-306l-4 74l77 29v55l-199 2v48l189 2l-34 52l-155 1v48l122 2l-80 123l-42 43l6 56h262l9 -76l-54 -22l84 -130l61 98
c2.66699 4.66699 4 8.66699 4 12c0 4.66699 -3 10 -9 16l-42 32l6 70h227l7 -75l-36 -18z" />
    <glyph glyph-name="brokenbar" unicode="&#xa6;" horiz-adv-x="324" 
d="M120 768h84v-346h-84v346zM120 119h84v-346h-84v346z" />
    <glyph glyph-name="section" unicode="&#xa7;" horiz-adv-x="563" 
d="M319 250l1.00098 17.002c0 8.66699 -2.33301 16 -7 22s-13.167 12.667 -25.5 20s-33.833 19 -64.5 35c-39.333 20.667 -69.333 39.167 -90 55.5s-35.5 33.166 -44.5 50.499s-13.5 38 -13.5 62c0 54 19.667 96.5 59 127.5s93.333 46.5 162 46.5
c28 0 57.5 -3.33301 88.5 -10s58.833 -15 83.5 -25c0 -44 -3 -92.333 -9 -145l-53 -8l-66 72c-17.333 5.33301 -43 8 -77 8c-6 0 -16.333 -0.666992 -31 -2c-2 -4 -3 -10.333 -3 -19s2.66699 -16.5 8 -23.5s15 -15 29 -24s35.667 -20.833 65 -35.5
c44 -21.333 77.167 -39.833 99.5 -55.5s37.833 -31.334 46.5 -47.001s13 -35.167 13 -58.5c0 -21.333 -2.83301 -42 -8.5 -62s-13.834 -37 -24.501 -51c-36 10 -82 26.667 -138 50zM73.001 -126.998c4 62.667 7.99902 110.999 11.999 144.999l58 11l63 -67
c22 -6.66699 46.333 -10 73 -10c16 0 28.333 1 37 3c2 4.66699 3 12 3 22c0 8 -2 14.667 -6 20s-12.167 11.5 -24.5 18.5s-34.166 18.5 -65.499 34.5c-39.333 20.667 -69.333 39.167 -90 55.5s-35.5 33.166 -44.5 50.499s-13.5 38 -13.5 62c0 44 8 79 24 105
c50.667 -15.333 93.334 -30.666 128.001 -45.999c-0.666992 -2 -1 -5.66699 -1 -11c0 -11.333 3 -20.666 9 -27.999s15.667 -15 29 -23s35.666 -19.667 66.999 -35c44 -21.333 77.167 -39.833 99.5 -55.5s37.833 -31.5 46.5 -47.5s13 -35.333 13 -58
c0 -54.667 -20.667 -97.167 -62 -127.5s-99 -45.5 -173 -45.5c-54 0 -114.667 9 -182 27z" />
    <glyph glyph-name="dieresis" unicode="&#xa8;" horiz-adv-x="570" 
d="M80 713l141 38l34 -125l-141 -38zM317 713l140 38l34 -125l-140 -38z" />
    <glyph glyph-name="copyright" unicode="&#xa9;" horiz-adv-x="736" 
d="M210.5 3c-47.667 28 -85.5 66 -113.5 114s-42 100.333 -42 157s14 108.834 42 156.501s65.833 85.5 113.5 113.5s99.834 42 156.501 42c57.333 0 110 -14 158 -42s86 -65.833 114 -113.5s42 -99.834 42 -156.501s-14 -109 -42 -157s-66 -86 -114 -114
s-100.667 -42 -158 -42c-56.667 0 -108.834 14 -156.501 42zM461 48c30 8 56.666 19 79.999 33c34.667 49.333 52 106.333 52 171c0 47.333 -9.5 90.833 -28.5 130.5s-45.833 71.334 -80.5 95.001s-75 35.5 -121 35.5c-28.667 0 -58.167 -4.33301 -88.5 -13
s-57.166 -19.667 -80.499 -33c-35.333 -50.667 -53 -108 -53 -172c0 -46.667 9.5 -89.834 28.5 -129.501s46 -71.167 81 -94.5s75.5 -35 121.5 -35c29.333 0 59 4 89 12zM260.499 159c-24.333 27.333 -36.5029 65.332 -36.5029 113.999c0 50 13 88.667 39 116
s62.333 41 109 41c39.333 0 75.333 -7.66699 108 -23l-13 -88l-35 -2l-30 44c-13.333 4.66699 -27.666 7 -42.999 7c-13.333 0 -24.666 -1.66699 -33.999 -5c-5.33301 -8.66699 -9.5 -20.5 -12.5 -35.5s-4.5 -30.5 -4.5 -46.5c0 -64 25.333 -96 76 -96
c11.333 0 24.833 1.33301 40.5 4s30.834 6.33398 45.501 11.001l15 -48c-16 -10 -35.167 -18.167 -57.5 -24.5s-43.5 -9.5 -63.5 -9.5c-44.667 0 -79.167 13.667 -103.5 41z" />
    <glyph glyph-name="ordfeminine" unicode="&#xaa;" horiz-adv-x="397" 
d="M70 391c-16 14.667 -23.9961 33.9971 -23.9961 57.9971c0 30 15.833 53.833 47.5 71.5s76.167 26.834 133.5 27.501c0 18.667 -1.33301 32.334 -4 41.001s-7.83398 14.5 -15.501 17.5s-19.834 4.5 -36.501 4.5c-14.667 0 -25 -0.333008 -31 -1l-25 -46l-43 2
c-7.33301 39.333 -12 71.333 -14 96c21.333 8 45 14.167 71 18.5s51.333 6.5 76 6.5c39.333 0 67.666 -8.16699 84.999 -24.5s26 -42.833 26 -79.5v-122c0 -6.66699 0.666992 -11.167 2 -13.5s4.66602 -5.16602 9.99902 -8.49902l23 -14l-3 -36
c-41.333 -10 -76.333 -16.333 -105 -19l-9 33c-14 -10.667 -30 -19 -48 -25s-35.333 -9 -52 -9c-26.667 0 -48 7.33301 -64 22zM228.004 450.997l-1 43.999h-18c-12 0 -25 -1 -39 -3s-24 -4.33301 -30 -7c-2 -4 -3 -8.66699 -3 -14c0 -11.333 3 -20.166 9 -26.499
s14.333 -9.5 25 -9.5c15.333 0 34.333 5.33301 57 16zM43.0039 311.996h311v-48h-311v48z" />
    <glyph glyph-name="guillemotleft" unicode="&#xab;" horiz-adv-x="499" 
d="M20 277l147 215l76 -13l-91 -202l83 -205l-80 -13zM236 277l147 215l77 -13l-92 -202l84 -205l-81 -13z" />
    <glyph glyph-name="logicalnot" unicode="&#xac;" horiz-adv-x="637" 
d="M446 277h-366v107h477l-2 -244h-109v137z" />
    <glyph glyph-name="uni00AD" unicode="&#xad;" horiz-adv-x="462" 
d="M88 339l244 33h52v-132h-296v99z" />
    <glyph glyph-name="registered" unicode="&#xae;" horiz-adv-x="524" 
d="M154 290.5c-32.667 19 -58.5 44.833 -77.5 77.5s-28.5 68.667 -28.5 108s9.5 75.5 28.5 108.5s44.833 59 77.5 78s68.667 28.5 108 28.5s75.333 -9.5 108 -28.5s58.5 -45 77.5 -78s28.5 -69.167 28.5 -108.5s-9.5 -75.333 -28.5 -108s-44.833 -58.5 -77.5 -77.5
s-68.667 -28.5 -108 -28.5s-75.333 9.5 -108 28.5zM326 321c20.667 6 39.001 13.6689 55.001 23.002c11.333 17.333 20.166 36 26.499 56s9.5 40.333 9.5 61c0 32.667 -6.5 62.667 -19.5 90s-31.333 49.166 -55 65.499s-51.5 24.5 -83.5 24.5c-20 0 -40.333 -3 -61 -9
s-39 -13.667 -55 -23c-24 -34 -36 -72.667 -36 -116c0 -32.667 6.5 -62.834 19.5 -90.501s31.5 -49.667 55.5 -66s51.667 -24.5 83 -24.5c20 0 40.333 3 61 9zM175.001 410.002l21 6.99805v113c0 4.66699 -0.5 7.83398 -1.5 9.50098s-3.16699 3.16699 -6.5 4.5l-15 8l2 25
c36 4.66699 64.667 7 86 7c31.333 0 54 -4.83301 68 -14.5s21 -25.5 21 -47.5c0 -12 -3.16699 -22.667 -9.5 -32s-15.5 -16.333 -27.5 -21l48 -76l-1 -13h-56l-46 80h-8v-33c0 -4 0.166992 -7.16699 0.5 -9.5s1.83301 -4.16602 4.5 -5.49902l14 -6l-3 -26h-90zM291.001 497
c2 6 3 14.333 3 25c0 10 -2 17 -6 21s-11.333 6 -22 6c-8 0 -13 -0.333008 -15 -1v-53c4 -0.666992 10 -1 18 -1c10.667 0 18 1 22 3z" />
    <glyph glyph-name="macron" unicode="&#xaf;" horiz-adv-x="570" 
d="M131 721l306 -12v-90l-306 -9v111z" />
    <glyph glyph-name="degree" unicode="&#xb0;" horiz-adv-x="399" 
d="M78.5 442.5c-25.667 23.667 -38.5 55.832 -38.5 96.499c0 46.667 16.167 82.834 48.5 108.501s72.833 38.5 121.5 38.5c47.333 0 83.833 -12.167 109.5 -36.5s38.5 -56.833 38.5 -97.5c0 -46.667 -16.167 -82.5 -48.5 -107.5s-72.833 -37.5 -121.5 -37.5
c-47.333 0 -83.833 11.833 -109.5 35.5zM248 477.998c6.66699 18.667 10 39.667 10 63c0 53.333 -22.333 80 -67 80c-11.333 0 -25.333 -2 -42 -6c-4.66699 -15.333 -7 -35 -7 -59c0 -57.333 23 -86 69 -86c14 0 26.333 2.66699 37 8z" />
    <glyph glyph-name="plusminus" unicode="&#xb1;" horiz-adv-x="562" 
d="M229 318h-149v95h149v136h105v-136h148v-95h-148v-135h-105v135zM80 101l402 1v-102h-402v101z" />
    <glyph glyph-name="uni00B2" unicode="&#xb2;" horiz-adv-x="380" 
d="M60 486l69.001 53.998c35.333 26.667 62 47.334 80 62.001c2 6 3 16 3 30c0 15.333 -4.5 26.333 -13.5 33s-22.833 10 -41.5 10c-22 0 -49 -2.33301 -81 -7l-3 27l10 66c34.667 9.33301 67.667 14 99 14c40.667 0 72.667 -9.16699 96 -27.5s35 -43.5 35 -75.5
c0 -31.333 -9.83301 -59.166 -29.5 -83.499s-53.834 -55.833 -102.501 -94.5l113 19h26l-6 -105h-252z" />
    <glyph glyph-name="uni00B3" unicode="&#xb3;" horiz-adv-x="399" 
d="M60 420l38 81.001h27c26 -8.66699 51.667 -13 77 -13c20.667 0 37 3.33301 49 10c0 18 -4.33301 31.333 -13 40s-23 13.667 -43 15l-30 2c-4.66699 0 -10.667 0.166992 -18 0.5s-16.333 1.16602 -27 2.49902c3.33301 15.333 10 37.666 20 66.999l26 3
c26.667 4 41 6.33301 43 7c0.666992 4.66699 1 10.667 1 18c0 12 -2.83301 20.167 -8.5 24.5s-15.167 6.5 -28.5 6.5c-26.667 0 -53 -2.33301 -79 -7l-4 21l7 62c36 12 68 18 96 18c35.333 0 64.166 -7.33301 86.499 -22s33.5 -33.667 33.5 -57
c0 -22 -12.333 -46.667 -37 -74c22 -7.33301 38 -17.333 48 -30s15 -29.667 15 -51c0 -27.333 -8.16699 -52.166 -24.5 -74.499s-38.666 -40 -66.999 -53s-59.166 -19.5 -92.499 -19.5c-36.667 0 -68.334 7.66699 -95.001 23z" />
    <glyph glyph-name="acute" unicode="&#xb4;" horiz-adv-x="570" 
d="M274 756h180v-41l-188 -132h-87z" />
    <glyph glyph-name="uni00B5" unicode="&#xb5;" horiz-adv-x="664" 
d="M89 356c0 14.667 -0.99707 24.1689 -2.99707 28.502s-7.66699 9.16602 -17 14.499l-44 24l4 75c9.33301 1.33301 24 4 44 8c28.667 5.33301 58.5 10.5 89.5 15.5s56.5 7.83301 76.5 8.5c8 -18 13.333 -37.333 16 -58v-267c0 -22.667 1.33301 -39.667 4 -51
s8.66699 -19.833 18 -25.5s24 -8.5 44 -8.5c29.333 0 60.333 6 93 18v218c0 15.333 -0.833008 25.166 -2.5 29.499s-7.16699 8.83301 -16.5 13.5l-45 24l5 75l43 8c29.333 5.33301 59.666 10.5 90.999 15.5s56.666 7.83301 75.999 8.5c6 -14 11.333 -33.333 16 -58v-328
c0 -12.667 1.16699 -21.334 3.5 -26.001s7.83301 -9 16.5 -13l39 -23l-4 -63c-30 -7.33301 -63.333 -13.666 -100 -18.999s-71 -8.66602 -103 -9.99902c-2 5.33301 -4.5 13.5 -7.5 24.5s-5.16699 19.167 -6.5 24.5h-3c-25.333 -15.333 -52.333 -27.833 -81 -37.5
s-55.334 -14.834 -80.001 -15.501v-188l-132 -25h-34v583z" />
    <glyph glyph-name="paragraph" unicode="&#xb6;" horiz-adv-x="591" 
d="M275 259l-9 -0.000976562c-68 0 -120.167 17.333 -156.5 52s-54.5 87.334 -54.5 158.001c0 69.333 18 120.833 54 154.5s88.333 50.5 157 50.5h235v-819h-72v747h-82v-747h-72v404z" />
    <glyph glyph-name="periodcentered" unicode="&#xb7;" horiz-adv-x="268" 
d="M49 371l135 37l35 -124l-135 -36z" />
    <glyph glyph-name="cedilla" unicode="&#xb8;" horiz-adv-x="570" 
d="M176 -190c24 0 46 2 66 6s34.667 9.33301 44 16c1.33301 8 2 14.333 2 19c0 11.333 -5 19.333 -15 24s-31.333 9 -64 13v20l33 113h78l-39 -56c16 -3.33301 34.667 -8 56 -14c20 -7.33301 35 -16 45 -26s15 -24 15 -42c0 -35.333 -18.833 -62.5 -56.5 -81.5
s-89.167 -28.5 -154.5 -28.5z" />
    <glyph glyph-name="uni00B9" unicode="&#xb9;" horiz-adv-x="365" 
d="M60 477l71 14v150c0 8.66699 -0.666992 14.167 -2 16.5s-6 5.83301 -14 10.5l-55 29l6 45l123 37l55 -5v-263c0 -9.33301 0.666992 -15.5 2 -18.5s5 -6.16699 11 -9.5l48 -23l-2 -52h-241z" />
    <glyph glyph-name="ordmasculine" unicode="&#xba;" horiz-adv-x="398" 
d="M84 407c-24 25.333 -35.999 64 -35.999 116c0 50.667 13.667 90.667 41 120s64.666 44 111.999 44c99.333 0 149 -51.667 149 -155c0 -51.333 -13.667 -91.333 -41 -120s-65.333 -43 -114 -43c-50 0 -87 12.667 -111 38zM243.001 446
c5.33301 19.333 7.99902 43.999 7.99902 73.999c0 64.667 -19.667 97 -59 97c-10 0 -23 -2.33301 -39 -7c-2 -5.33301 -3.83301 -14.666 -5.5 -27.999s-2.5 -27.333 -2.5 -42c0 -68 20 -102 60 -102c10.667 0 23.334 2.66699 38.001 8zM44 311.999h311v-48h-311v48z" />
    <glyph glyph-name="guillemotright" unicode="&#xbb;" horiz-adv-x="499" 
d="M47 72l83 205l-91 202l77 13l147 -215l-136 -218zM264 72l83 205l-91 202l76 13l147 -215l-135 -218z" />
    <glyph glyph-name="onequarter" unicode="&#xbc;" horiz-adv-x="869" 
d="M585 702h58l-366 -789h-58zM60 358l71 14v150c0 8.66699 -0.666992 14.167 -2 16.5s-6 5.83301 -14 10.5l-55 30l6 45l123 36l55 -5v-262c0 -10 0.666992 -16.5 2 -19.5s5 -6.16699 11 -9.5l48 -23l-2 -51h-241zM653 63h-161l-16 70l150 229l122 -11l4 -195h57l-14 -93
h-43v-63l-77 -16h-22v79zM653 156v120l-70 -120h70z" />
    <glyph glyph-name="onehalf" unicode="&#xbd;" horiz-adv-x="859" 
d="M585 702h58l-366 -789h-58zM60 358l71 14v150c0 8.66699 -0.666992 14.167 -2 16.5s-6 5.83301 -14 10.5l-55 30l6 45l123 36l55 -5v-262c0 -10 0.666992 -16.5 2 -19.5s5 -6.16699 11 -9.5l48 -23l-2 -51h-241zM536 77c1.33301 1.33301 24.668 19.334 70.001 54.001
c31.333 22.667 58.666 43.667 81.999 63c2.66699 8 4 17.667 4 29c0 15.333 -4.33301 26.333 -13 33s-22 10 -40 10c-21.333 0 -49 -2 -83 -6l-2 26l8 67c36.667 8.66699 70.667 13 102 13c40 0 71.667 -8.83301 95 -26.5s35 -41.834 35 -72.501
c0 -33.333 -10.167 -63 -30.5 -89s-55.5 -57.333 -105.5 -94l114 21h27l-9 -105h-251z" />
    <glyph glyph-name="threequarters" unicode="&#xbe;" horiz-adv-x="872" 
d="M588 702h58l-366 -789h-58zM60 303l35.999 79.999h29c22 -8.66699 47.333 -13 76 -13c20.667 0 37.334 3 50.001 9c0 18 -4.66699 31.667 -14 41s-24 14.666 -44 15.999c-6 0 -16.167 0.333008 -30.5 1s-28.5 1.66699 -42.5 3c4 19.333 10 41.333 18 66
c32 4 55.333 7.66699 70 11c0.666992 4.66699 1 10.667 1 18c0 12 -2.83301 20.167 -8.5 24.5s-15.167 6.5 -28.5 6.5c-26 0 -52.333 -2.33301 -79 -7l-4 22l6 61c36 12 68 18 96 18c36 0 65.333 -7.16699 88 -21.5s34 -33.166 34 -56.499
c0 -21.333 -12.667 -46.666 -38 -75.999c22 -6 37.833 -15.333 47.5 -28s14.5 -30 14.5 -52c0 -27.333 -8.16699 -52.333 -24.5 -75s-38.333 -40.5 -66 -53.5s-58.167 -19.5 -91.5 -19.5c-35.333 0 -67 8.33301 -95 25zM654.999 62.999h-160l-16 70l150 229l121 -11l5 -195
h57l-15 -93h-42v-63l-78 -16h-22v79zM654.999 155.999v120l-69 -120h69z" />
    <glyph glyph-name="questiondown" unicode="&#xbf;" horiz-adv-x="377" 
d="M113 525l148 40l38 -139l-149 -39zM97 -115.5c-41.333 22.333 -61.999 54.832 -61.999 97.499c0 24.667 6.16699 46.834 18.5 66.501s30.166 41.834 53.499 66.501l18 20c12 13.333 20.667 24.5 26 33.5s8 17.833 8 26.5s-2.5 17.834 -7.5 27.501
s-14.167 24.167 -27.5 43.5c36.667 26.667 78.667 52.334 126 77.001c19.333 -37.333 29 -69.333 29 -96c0 -30.667 -14.333 -64.667 -43 -102l-36 -46c-0.666992 -22.667 3 -39.834 11 -51.501s20 -20.334 36 -26.001s42.667 -12.834 80 -21.501l36 -9l-2 -30
c-25.333 -49.333 -52.333 -92.666 -81 -129.999c-80.667 13.333 -141.667 31.166 -183 53.499z" />
    <glyph glyph-name="Agrave" unicode="&#xc0;" horiz-adv-x="712" 
d="M16 89l30.999 18.9971l234 567l170 15l200 -540c6.66699 -17.333 11.334 -28.666 14.001 -33.999s7.66699 -12.666 15 -21.999l18 -23l-6 -71h-281l-10 95l71 18l-32 101l-203 -3l-22 -63c-2 -6 -3 -11 -3 -15c0 -4.66699 0.833008 -8.16699 2.5 -10.5
s4.5 -4.16602 8.5 -5.49902l69 -29l-10 -88h-262zM342.999 518.997l-66 -192l129 -6zM171.999 879.997v41h180l95 -173h-86z" />
    <glyph glyph-name="Aacute" unicode="&#xc1;" horiz-adv-x="712" 
d="M16 89l30.999 18.9971l234 567l170 15l200 -540c6.66699 -17.333 11.334 -28.666 14.001 -33.999s7.66699 -12.666 15 -21.999l18 -23l-6 -71h-281l-10 95l71 18l-32 101l-203 -3l-22 -63c-2 -6 -3 -11 -3 -15c0 -4.66699 0.833008 -8.16699 2.5 -10.5
s4.5 -4.16602 8.5 -5.49902l69 -29l-10 -88h-262zM342.999 518.997l-66 -192l129 -6zM403.999 920.997h180v-41l-188 -132h-87z" />
    <glyph glyph-name="Acircumflex" unicode="&#xc2;" horiz-adv-x="712" 
d="M16 89l30.999 18.9971l234 567l170 15l200 -540c6.66699 -17.333 11.334 -28.666 14.001 -33.999s7.66699 -12.666 15 -21.999l18 -23l-6 -71h-281l-10 95l71 18l-32 101l-203 -3l-22 -63c-2 -6 -3 -11 -3 -15c0 -4.66699 0.833008 -8.16699 2.5 -10.5
s4.5 -4.16602 8.5 -5.49902l69 -29l-10 -88h-262zM342.999 518.997l-66 -192l129 -6zM302.999 920.997h149l125 -173h-83l-117 73l-116 -73h-83z" />
    <glyph glyph-name="Atilde" unicode="&#xc3;" horiz-adv-x="712" 
d="M16 89l30.999 18.9971l234 567l170 15l200 -540c6.66699 -17.333 11.334 -28.666 14.001 -33.999s7.66699 -12.666 15 -21.999l18 -23l-6 -71h-281l-10 95l71 18l-32 101l-203 -3l-22 -63c-2 -6 -3 -11 -3 -15c0 -4.66699 0.833008 -8.16699 2.5 -10.5
s4.5 -4.16602 8.5 -5.49902l69 -29l-10 -88h-262zM342.999 518.997l-66 -192l129 -6zM357.999 783.997c-13.333 4.66699 -26.667 8.83203 -40 12.499s-24.333 5.5 -33 5.5c-4 -2 -8.5 -5.5 -13.5 -10.5s-10.5 -11.833 -16.5 -20.5h-55c10.667 47.333 24.834 82 42.501 104
s40.167 33 67.5 33c13.333 0 27.166 -1.83301 41.499 -5.5s31.5 -9.16699 51.5 -16.5c3.33301 -1.33301 13.333 -4.66602 30 -9.99902s31.334 -8 44.001 -8c3.33301 2 7.33301 5.66699 12 11l17 20h55c-10.667 -47.333 -24.834 -82 -42.501 -104s-40.167 -33 -67.5 -33
c-20.667 0 -51.667 7.33301 -93 22z" />
    <glyph glyph-name="Adieresis" unicode="&#xc4;" horiz-adv-x="712" 
d="M16 89l30.999 18.9971l234 567l170 15l200 -540c6.66699 -17.333 11.334 -28.666 14.001 -33.999s7.66699 -12.666 15 -21.999l18 -23l-6 -71h-281l-10 95l71 18l-32 101l-203 -3l-22 -63c-2 -6 -3 -11 -3 -15c0 -4.66699 0.833008 -8.16699 2.5 -10.5
s4.5 -4.16602 8.5 -5.49902l69 -29l-10 -88h-262zM342.999 518.997l-66 -192l129 -6zM170.999 894.997l141 38l34 -125l-141 -38zM407.999 894.997l140 38l34 -125l-140 -38z" />
    <glyph glyph-name="Aring" unicode="&#xc5;" horiz-adv-x="712" 
d="M16 89l30.999 18.9971l234 567l170 15l200 -540c6.66699 -17.333 11.334 -28.666 14.001 -33.999s7.66699 -12.666 15 -21.999l18 -23l-6 -71h-281l-10 95l71 18l-32 101l-203 -3l-22 -63c-2 -6 -3 -11 -3 -15c0 -4.66699 0.833008 -8.16699 2.5 -10.5
s4.5 -4.16602 8.5 -5.49902l69 -29l-10 -88h-262zM342.999 518.997l-66 -192l129 -6zM282.999 771.997c-19.333 15.333 -29 39.666 -29 72.999c0 30.667 11.333 55.334 34 74.001s52.667 28 90 28c80.667 0 121 -32.333 121 -97c0 -32 -10.833 -56.833 -32.5 -74.5
s-52.167 -26.5 -91.5 -26.5c-42 0 -72.667 7.66699 -92 23zM408.999 806.997c4 17.333 6 29.667 6 37c0 30.667 -14 46 -42 46c-14 0 -23.667 -0.666992 -29 -2c-4 -9.33301 -6 -21 -6 -35c0 -16 3.5 -28.333 10.5 -37s17.167 -13 30.5 -13s23.333 1.33301 30 4z" />
    <glyph glyph-name="AE" unicode="&#xc6;" horiz-adv-x="927" 
d="M-10 89l31 19l365 566h489c4.66699 -70 7 -138.333 7 -205l-75 -5l-71 88l-138 4l14 -163l186 18v-154l-176 23l14 -161l115 3l78 88l74 -5c-2.66699 -60 -8 -128.333 -16 -205h-482l-10 95l62 18l-7 101l-205 -2l-36 -63c-2.66699 -5.33301 -4 -10 -4 -14
c0 -8 4 -14 12 -18l69 -29l-10 -88h-282zM428 538l-118 -214l133 -7z" />
    <glyph glyph-name="Ccedilla" unicode="&#xc7;" horiz-adv-x="643" 
d="M456 -75c10 -10 15 -23.999 15 -41.999c0 -35.333 -18.833 -62.5 -56.5 -81.5s-89.167 -28.5 -154.5 -28.5l-10 37c24 0 46 2 66 6s34.667 9.33301 44 16c1.33301 8 2 14.333 2 19c0 11.333 -5 19.333 -15 24s-31.333 9 -64 13v20l23 78
c-90.667 7.33301 -160.167 41.666 -208.5 102.999s-72.5 145.333 -72.5 252c0 72 13.167 134.167 39.5 186.5s64.5 92.333 114.5 120s109.333 41.5 178 41.5c78 0 158.333 -17.667 241 -53c-6 -60 -15.667 -126.333 -29 -199l-76 -5l-69 101
c-29.333 8.66699 -61.666 13 -96.999 13c-26.667 0 -52 -2.33301 -76 -7c-10.667 -20.667 -19.334 -48 -26.001 -82s-10 -68.333 -10 -103c0 -74 13.5 -128.833 40.5 -164.5s69.833 -54.167 128.5 -55.5c23.333 0 52.833 3.5 88.5 10.5s70.5 16.167 104.5 27.5l31 -110
c-30.667 -20 -67.5 -37 -110.5 -51s-85.5 -22.333 -127.5 -25l-15 -21c16 -3.33301 34.667 -8 56 -14c20 -7.33301 35 -16 45 -26z" />
    <glyph glyph-name="Egrave" unicode="&#xc8;" horiz-adv-x="623" 
d="M27 102l73 19.999v383c0 17.333 -1.33301 28.833 -4 34.5s-9.66699 10.834 -21 15.501l-50 29l3 90h543c4.66699 -70 7 -138.333 7 -205l-74 -5l-71 88l-151 4v-163l213 18v-154l-213 23v-161l166 3l77 88l74 -5c-2.66699 -70 -7.66699 -138.333 -15 -205h-552z
M109 866.999v41h180l95 -173h-86z" />
    <glyph glyph-name="Eacute" unicode="&#xc9;" horiz-adv-x="623" 
d="M27 102l73 19.999v383c0 17.333 -1.33301 28.833 -4 34.5s-9.66699 10.834 -21 15.501l-50 29l3 90h543c4.66699 -70 7 -138.333 7 -205l-74 -5l-71 88l-151 4v-163l213 18v-154l-213 23v-161l166 3l77 88l74 -5c-2.66699 -70 -7.66699 -138.333 -15 -205h-552z
M341 907.999h180v-41l-188 -132h-87z" />
    <glyph glyph-name="Ecircumflex" unicode="&#xca;" horiz-adv-x="623" 
d="M27 102l73 19.999v383c0 17.333 -1.33301 28.833 -4 34.5s-9.66699 10.834 -21 15.501l-50 29l3 90h543c4.66699 -70 7 -138.333 7 -205l-74 -5l-71 88l-151 4v-163l213 18v-154l-213 23v-161l166 3l77 88l74 -5c-2.66699 -70 -7.66699 -138.333 -15 -205h-552z
M240 907.999h149l125 -173h-83l-117 73l-116 -73h-83z" />
    <glyph glyph-name="Edieresis" unicode="&#xcb;" horiz-adv-x="623" 
d="M27 102l73 19.999v383c0 17.333 -1.33301 28.833 -4 34.5s-9.66699 10.834 -21 15.501l-50 29l3 90h543c4.66699 -70 7 -138.333 7 -205l-74 -5l-71 88l-151 4v-163l213 18v-154l-213 23v-161l166 3l77 88l74 -5c-2.66699 -70 -7.66699 -138.333 -15 -205h-552z
M108 881.999l141 38l34 -125l-141 -38zM345 881.999l140 38l34 -125l-140 -38z" />
    <glyph glyph-name="Igrave" unicode="&#xcc;" horiz-adv-x="388" 
d="M32 102l73 20v383c0 17.333 -1.33301 28.833 -4 34.5s-9.66699 10.834 -21 15.501l-52 30l5 89h321l4 -102l-72 -20v-390c0 -16 1.16699 -26.333 3.5 -31s8.5 -9.33398 18.5 -14.001l51 -31l-3 -86h-319zM-10 867v41h180l95 -173h-86z" />
    <glyph glyph-name="Iacute" unicode="&#xcd;" horiz-adv-x="388" 
d="M32 102l73 20v383c0 17.333 -1.33301 28.833 -4 34.5s-9.66699 10.834 -21 15.501l-52 30l5 89h321l4 -102l-72 -20v-390c0 -16 1.16699 -26.333 3.5 -31s8.5 -9.33398 18.5 -14.001l51 -31l-3 -86h-319zM222 908h180v-41l-188 -132h-87z" />
    <glyph glyph-name="Icircumflex" unicode="&#xce;" horiz-adv-x="388" 
d="M32 102l73 20v383c0 17.333 -1.33301 28.833 -4 34.5s-9.66699 10.834 -21 15.501l-52 30l5 89h321l4 -102l-72 -20v-390c0 -16 1.16699 -26.333 3.5 -31s8.5 -9.33398 18.5 -14.001l51 -31l-3 -86h-319zM121 908h149l125 -173h-83l-117 73l-116 -73h-83z" />
    <glyph glyph-name="Idieresis" unicode="&#xcf;" horiz-adv-x="388" 
d="M32 102l73 20v383c0 17.333 -1.33301 28.833 -4 34.5s-9.66699 10.834 -21 15.501l-52 30l5 89h321l4 -102l-72 -20v-390c0 -16 1.16699 -26.333 3.5 -31s8.5 -9.33398 18.5 -14.001l51 -31l-3 -86h-319zM-11 882l141 38l34 -125l-141 -38zM226 882l140 38l34 -125
l-140 -38z" />
    <glyph glyph-name="Eth" unicode="&#xd0;" horiz-adv-x="736" 
d="M549.5 650c55.667 -21.333 96.334 -55.001 122.001 -101.001s38.5 -107 38.5 -183c0 -96 -22 -173.667 -66 -233c-39.333 -51.333 -91.5 -86.833 -156.5 -106.5s-147.167 -29.5 -246.5 -29.5c-72 0 -138.333 3 -199 9l-5 96l73 20v175l-73 3v68l73 7v128
c0 17.333 -1.33301 28.833 -4 34.5s-9.66699 10.834 -21 15.501l-52 29l6 83c69.333 5.33301 127.666 9.5 174.999 12.5s85.333 4.5 114 4.5c92 0 165.833 -10.667 221.5 -32zM516.5 237.999c5 35.333 7.5 68.333 7.5 99c0 75.333 -15.5 131 -46.5 167s-78.167 54 -141.5 54
c-8.66699 0 -16.667 -0.333008 -24 -1l-21 -2v-163l87 8v-114l-87 4v-145c26.667 -3.33301 52 -5 76 -5c56 0 100.333 6.66699 133 20c6 16.667 11.5 42.667 16.5 78z" />
    <glyph glyph-name="Ntilde" unicode="&#xd1;" horiz-adv-x="748" 
d="M205 426l17 -262.001c0.666992 -15.333 2.33398 -25.333 5.00098 -30s8.66699 -9.66699 18 -15l52 -35l-4 -84h-260l-5 109l54 13l4 394c0 12.667 -1 21.334 -3 26.001s-6.66699 10 -14 16l-37 28l7 88h207l302 -387l-14 223c-0.666992 16 -2.33398 26.333 -5.00098 31
s-8.66699 9.66699 -18 15l-52 34l3 84h258l4 -102l-51 -22l-4 -541l-115 -38zM357 770.999c-13.333 4.66699 -26.667 8.83203 -40 12.499s-24.333 5.5 -33 5.5c-4 -2 -8.5 -5.5 -13.5 -10.5s-10.5 -11.833 -16.5 -20.5h-55c10.667 47.333 24.834 82 42.501 104
s40.167 33 67.5 33c13.333 0 27.166 -1.83301 41.499 -5.5s31.5 -9.16699 51.5 -16.5c3.33301 -1.33301 13.333 -4.66602 30 -9.99902s31.334 -8 44.001 -8c3.33301 2 7.33301 5.66699 12 11l17 20h55c-10.667 -47.333 -24.834 -82 -42.501 -104s-40.167 -33 -67.5 -33
c-20.667 0 -51.667 7.33301 -93 22z" />
    <glyph glyph-name="Ograve" unicode="&#xd2;" horiz-adv-x="722" 
d="M106.5 70c-54.333 56 -81.5 141.001 -81.5 255.001c0 74 13.667 138.167 41 192.5s66.333 96.166 117 125.499s111 44 181 44c222.667 0 334 -113.667 334 -341c0 -74.667 -13.667 -139 -41 -193s-66.833 -95.333 -118.5 -124s-113.167 -43 -184.5 -43
c-110.667 0 -193.167 28 -247.5 84zM484 153.001c7.33301 20.667 13 46.499 17 77.499s6 61.5 6 91.5c0 74 -13.833 130 -41.5 168s-68.167 57 -121.5 57c-38 0 -74.667 -7 -110 -21c-7.33301 -12.667 -13 -33.5 -17 -62.5s-6 -62.167 -6 -99.5
c0 -77.333 14 -136.666 42 -177.999s68.667 -62 122 -62c38 0 74.333 9.66699 109 29zM160 867v41h180l95 -173h-86z" />
    <glyph glyph-name="Oacute" unicode="&#xd3;" horiz-adv-x="722" 
d="M106.5 70c-54.333 56 -81.5 141.001 -81.5 255.001c0 74 13.667 138.167 41 192.5s66.333 96.166 117 125.499s111 44 181 44c222.667 0 334 -113.667 334 -341c0 -74.667 -13.667 -139 -41 -193s-66.833 -95.333 -118.5 -124s-113.167 -43 -184.5 -43
c-110.667 0 -193.167 28 -247.5 84zM484 153.001c7.33301 20.667 13 46.499 17 77.499s6 61.5 6 91.5c0 74 -13.833 130 -41.5 168s-68.167 57 -121.5 57c-38 0 -74.667 -7 -110 -21c-7.33301 -12.667 -13 -33.5 -17 -62.5s-6 -62.167 -6 -99.5
c0 -77.333 14 -136.666 42 -177.999s68.667 -62 122 -62c38 0 74.333 9.66699 109 29zM392 908h180v-41l-188 -132h-87z" />
    <glyph glyph-name="Ocircumflex" unicode="&#xd4;" horiz-adv-x="722" 
d="M106.5 70c-54.333 56 -81.5 141.001 -81.5 255.001c0 74 13.667 138.167 41 192.5s66.333 96.166 117 125.499s111 44 181 44c222.667 0 334 -113.667 334 -341c0 -74.667 -13.667 -139 -41 -193s-66.833 -95.333 -118.5 -124s-113.167 -43 -184.5 -43
c-110.667 0 -193.167 28 -247.5 84zM484 153.001c7.33301 20.667 13 46.499 17 77.499s6 61.5 6 91.5c0 74 -13.833 130 -41.5 168s-68.167 57 -121.5 57c-38 0 -74.667 -7 -110 -21c-7.33301 -12.667 -13 -33.5 -17 -62.5s-6 -62.167 -6 -99.5
c0 -77.333 14 -136.666 42 -177.999s68.667 -62 122 -62c38 0 74.333 9.66699 109 29zM291 908h149l125 -173h-83l-117 73l-116 -73h-83z" />
    <glyph glyph-name="Otilde" unicode="&#xd5;" horiz-adv-x="722" 
d="M106.5 70c-54.333 56 -81.5 141.001 -81.5 255.001c0 74 13.667 138.167 41 192.5s66.333 96.166 117 125.499s111 44 181 44c222.667 0 334 -113.667 334 -341c0 -74.667 -13.667 -139 -41 -193s-66.833 -95.333 -118.5 -124s-113.167 -43 -184.5 -43
c-110.667 0 -193.167 28 -247.5 84zM484 153.001c7.33301 20.667 13 46.499 17 77.499s6 61.5 6 91.5c0 74 -13.833 130 -41.5 168s-68.167 57 -121.5 57c-38 0 -74.667 -7 -110 -21c-7.33301 -12.667 -13 -33.5 -17 -62.5s-6 -62.167 -6 -99.5
c0 -77.333 14 -136.666 42 -177.999s68.667 -62 122 -62c38 0 74.333 9.66699 109 29zM346 771c-13.333 4.66699 -26.667 8.83203 -40 12.499s-24.333 5.5 -33 5.5c-4 -2 -8.5 -5.5 -13.5 -10.5s-10.5 -11.833 -16.5 -20.5h-55c10.667 47.333 24.834 82 42.501 104
s40.167 33 67.5 33c13.333 0 27.166 -1.83301 41.499 -5.5s31.5 -9.16699 51.5 -16.5c3.33301 -1.33301 13.333 -4.66602 30 -9.99902s31.334 -8 44.001 -8c3.33301 2 7.33301 5.66699 12 11l17 20h55c-10.667 -47.333 -24.834 -82 -42.501 -104s-40.167 -33 -67.5 -33
c-20.667 0 -51.667 7.33301 -93 22z" />
    <glyph glyph-name="Odieresis" unicode="&#xd6;" horiz-adv-x="722" 
d="M106.5 70c-54.333 56 -81.5 141.001 -81.5 255.001c0 74 13.667 138.167 41 192.5s66.333 96.166 117 125.499s111 44 181 44c222.667 0 334 -113.667 334 -341c0 -74.667 -13.667 -139 -41 -193s-66.833 -95.333 -118.5 -124s-113.167 -43 -184.5 -43
c-110.667 0 -193.167 28 -247.5 84zM484 153.001c7.33301 20.667 13 46.499 17 77.499s6 61.5 6 91.5c0 74 -13.833 130 -41.5 168s-68.167 57 -121.5 57c-38 0 -74.667 -7 -110 -21c-7.33301 -12.667 -13 -33.5 -17 -62.5s-6 -62.167 -6 -99.5
c0 -77.333 14 -136.666 42 -177.999s68.667 -62 122 -62c38 0 74.333 9.66699 109 29zM159 882l141 38l34 -125l-141 -38zM396 882l140 38l34 -125l-140 -38z" />
    <glyph glyph-name="multiply" unicode="&#xd7;" horiz-adv-x="540" 
d="M349 266l121 -121l-80 -79l-120 120l-121 -120l-79 79l120 121l-120 120l79 80l121 -121l120 121l80 -80z" />
    <glyph glyph-name="Oslash" unicode="&#xd8;" horiz-adv-x="722" 
d="M698 346c0 -74.667 -13.667 -138.998 -41 -192.998s-66.833 -95.333 -118.5 -124s-113.167 -43 -184.5 -43c-66.667 0 -123 10 -169 30l-34 -47h-113l71 98c-56 57.333 -84 143.333 -84 258c0 74 13.667 138.167 41 192.5s66.333 96.166 117 125.499s111 44 181 44
c68 0 124.667 -10.333 170 -31l37 51h113l-73 -101c58 -56.667 87 -143.334 87 -260.001zM229 234.002l207.001 286c-24.667 18 -55.334 27 -92.001 27c-38 0 -74.667 -7 -110 -21c-7.33301 -12.667 -13 -33.5 -17 -62.5s-6 -62.167 -6 -99.5c0 -50.667 6 -94 18 -130z
M501.001 230.502c4 31 6 61.5 6 91.5c0 46.667 -5.33301 86 -16 118l-207 -287c24.667 -19.333 55 -29 91 -29c38 0 74.333 9.66699 109 29c7.33301 20.667 13 46.5 17 77.5z" />
    <glyph glyph-name="Ugrave" unicode="&#xd9;" horiz-adv-x="753" 
d="M148.5 64.5c-45.667 51.667 -68.501 132.83 -68.501 243.497v197c0 17.333 -1.16699 28.833 -3.5 34.5s-8.83301 10.834 -19.5 15.501l-32 19l3 100h312l5 -99l-83 -23v-205c0 -69.333 10 -124 30 -164s54.333 -60 103 -60c16 0 31.5 2.33301 46.5 7s27.833 11 38.5 19
c6.66699 15.333 11.334 35.833 14.001 61.5s4 60.167 4 103.5v191c0 17.333 -1.33301 28.833 -4 34.5s-9.66699 10.834 -21 15.501l-49 28l5 91h297l5 -108l-52 -14v-226c0 -107.333 -27.5 -190.666 -82.5 -249.999s-132.5 -89 -232.5 -89
c-98 0 -169.833 25.833 -215.5 77.5zM181.999 866.996v41h180l95 -173h-86z" />
    <glyph glyph-name="Uacute" unicode="&#xda;" horiz-adv-x="753" 
d="M148.5 64.5c-45.667 51.667 -68.501 132.83 -68.501 243.497v197c0 17.333 -1.16699 28.833 -3.5 34.5s-8.83301 10.834 -19.5 15.501l-32 19l3 100h312l5 -99l-83 -23v-205c0 -69.333 10 -124 30 -164s54.333 -60 103 -60c16 0 31.5 2.33301 46.5 7s27.833 11 38.5 19
c6.66699 15.333 11.334 35.833 14.001 61.5s4 60.167 4 103.5v191c0 17.333 -1.33301 28.833 -4 34.5s-9.66699 10.834 -21 15.501l-49 28l5 91h297l5 -108l-52 -14v-226c0 -107.333 -27.5 -190.666 -82.5 -249.999s-132.5 -89 -232.5 -89
c-98 0 -169.833 25.833 -215.5 77.5zM413.999 907.996h180v-41l-188 -132h-87z" />
    <glyph glyph-name="Ucircumflex" unicode="&#xdb;" horiz-adv-x="753" 
d="M148.5 64.5c-45.667 51.667 -68.501 132.83 -68.501 243.497v197c0 17.333 -1.16699 28.833 -3.5 34.5s-8.83301 10.834 -19.5 15.501l-32 19l3 100h312l5 -99l-83 -23v-205c0 -69.333 10 -124 30 -164s54.333 -60 103 -60c16 0 31.5 2.33301 46.5 7s27.833 11 38.5 19
c6.66699 15.333 11.334 35.833 14.001 61.5s4 60.167 4 103.5v191c0 17.333 -1.33301 28.833 -4 34.5s-9.66699 10.834 -21 15.501l-49 28l5 91h297l5 -108l-52 -14v-226c0 -107.333 -27.5 -190.666 -82.5 -249.999s-132.5 -89 -232.5 -89
c-98 0 -169.833 25.833 -215.5 77.5zM312.999 907.996h149l125 -173h-83l-117 73l-116 -73h-83z" />
    <glyph glyph-name="Udieresis" unicode="&#xdc;" horiz-adv-x="753" 
d="M148.5 64.5c-45.667 51.667 -68.501 132.83 -68.501 243.497v197c0 17.333 -1.16699 28.833 -3.5 34.5s-8.83301 10.834 -19.5 15.501l-32 19l3 100h312l5 -99l-83 -23v-205c0 -69.333 10 -124 30 -164s54.333 -60 103 -60c16 0 31.5 2.33301 46.5 7s27.833 11 38.5 19
c6.66699 15.333 11.334 35.833 14.001 61.5s4 60.167 4 103.5v191c0 17.333 -1.33301 28.833 -4 34.5s-9.66699 10.834 -21 15.501l-49 28l5 91h297l5 -108l-52 -14v-226c0 -107.333 -27.5 -190.666 -82.5 -249.999s-132.5 -89 -232.5 -89
c-98 0 -169.833 25.833 -215.5 77.5zM180.999 881.996l141 38l34 -125l-141 -38zM417.999 881.996l140 38l34 -125l-140 -38z" />
    <glyph glyph-name="Yacute" unicode="&#xdd;" horiz-adv-x="673" 
d="M160 98l86.001 24.001v132l-183 293l-46 57l4 70h293l10 -95l-65 -18l105 -178l87 147c2.66699 4.66699 4 9.33398 4 14.001c0 7.33301 -4 12.666 -12 15.999l-58 26l7 88h252l7 -94l-40 -24l-184 -270v-124c0 -16 1.16699 -26.333 3.5 -31
s8.16602 -9.33398 17.499 -14.001l62 -37l-4 -80h-341zM386.001 908.001h180v-41l-188 -132h-87z" />
    <glyph glyph-name="Thorn" unicode="&#xde;" horiz-adv-x="624" 
d="M32 92l73 20.999v397c0 18 -1.33301 30.167 -4 36.5s-9.66699 12.166 -21 17.499l-52 31l5 79h321l4 -92l-72 -21v-39l38 1c193.333 4.66699 290 -54 290 -176c0 -63.333 -24.333 -112.166 -73 -146.499s-114.667 -50.166 -198 -47.499l-56 2v-3
c0 -15.333 1.16699 -25.333 3.5 -30s8.5 -9.66699 18.5 -15l60 -35l-4 -72h-328zM420 257.999c7.33301 25.333 11 52.333 11 81c0 36 -6.83301 60.167 -20.5 72.5s-37.167 18.5 -70.5 18.5c-23.333 0 -41 -0.666992 -53 -2v-175c16.667 -3.33301 36.667 -5 60 -5
c34.667 0 59 3.33301 73 10z" />
    <glyph glyph-name="germandbls" unicode="&#xdf;" horiz-adv-x="648" 
d="M303 15c0.666992 20.667 4.33398 58.0029 11.001 112.003l3 24h18l68 -29c31.333 -13.333 57 -20 77 -20c10 0 18 1.66699 24 5c0.666992 2 1 5 1 9c0 11.333 -4 21.666 -12 30.999s-26.667 27 -56 53c-42.667 37.333 -72.167 67.5 -88.5 90.5s-24.5 49.833 -24.5 80.5
c0 25.333 4.66699 46.166 14 62.499s25 36.166 47 59.499c3.33301 4.66699 7.16602 9.16699 11.499 13.5s8.5 8.83301 12.5 13.5c1.33301 7.33301 2 16 2 26c0 57.333 -31.333 86 -94 86c-20 0 -38 -2.33301 -54 -7v-625h-235l-3 91l70 21v291l-70 1v98l70 4v49
c0 66 21.333 117.5 64 154.5s101 55.5 175 55.5c51.333 0 95 -9 131 -27s63 -42.5 81 -73.5s27 -66.167 27 -105.5c0 -7.33301 -0.166992 -13 -0.5 -17s-0.5 -7 -0.5 -9l-55 -49c-19.333 -18 -32.166 -31.167 -38.499 -39.5s-9.5 -17.833 -9.5 -28.5
c0 -16 5.33301 -30.833 16 -44.5s27 -29.834 49 -48.501c21.333 -18.667 38.5 -35.334 51.5 -50.001s24.333 -32.667 34 -54s14.5 -45.666 14.5 -72.999c0 -51.333 -17 -91.166 -51 -119.499s-76.667 -42.5 -128 -42.5c-44.667 0 -95.334 10.333 -152.001 31z" />
    <glyph glyph-name="agrave" unicode="&#xe0;" horiz-adv-x="554" 
d="M61 24.5c-27.333 25 -41.002 57.1699 -41.002 96.5029c0 52.667 26.5 94 79.5 124s130.167 47 231.5 51c0 31.333 -2.5 54.5 -7.5 69.5s-14 25.333 -27 31s-32.833 8.5 -59.5 8.5c-27.333 0 -46.666 -1 -57.999 -3l-41 -81l-74 5
c-11.333 53.333 -19.333 108.666 -24 165.999c37.333 12.667 78.166 22.667 122.499 30s85.833 11 124.5 11c70.667 0 121.334 -13.833 152.001 -41.5s46 -73.5 46 -137.5v-209c0 -12 1.16699 -20.333 3.5 -25s7.5 -9.33398 15.5 -14.001l40 -23l-4 -62
c-77.333 -18 -138.333 -28 -183 -30c-1.33301 4 -3.33301 11.167 -6 21.5s-5 20.166 -7 29.499c-26 -16.667 -54.5 -30 -85.5 -40s-60.5 -15 -88.5 -15c-45.333 0 -81.666 12.5 -108.999 37.5zM333.998 127.003l-4 76.001c-16 1.33301 -26.667 2 -32 2
c-18 0 -39 -1.83301 -63 -5.5s-43 -7.83398 -57 -12.501c-2 -8.66699 -3 -16.667 -3 -24c0 -20 5.5 -35.5 16.5 -46.5s26.167 -16.5 45.5 -16.5c26.667 0 59 9 97 27zM69.998 714.004v41h180l95 -173h-86z" />
    <glyph glyph-name="aacute" unicode="&#xe1;" horiz-adv-x="554" 
d="M61 24.5c-27.333 25 -41.002 57.1699 -41.002 96.5029c0 52.667 26.5 94 79.5 124s130.167 47 231.5 51c0 31.333 -2.5 54.5 -7.5 69.5s-14 25.333 -27 31s-32.833 8.5 -59.5 8.5c-27.333 0 -46.666 -1 -57.999 -3l-41 -81l-74 5
c-11.333 53.333 -19.333 108.666 -24 165.999c37.333 12.667 78.166 22.667 122.499 30s85.833 11 124.5 11c70.667 0 121.334 -13.833 152.001 -41.5s46 -73.5 46 -137.5v-209c0 -12 1.16699 -20.333 3.5 -25s7.5 -9.33398 15.5 -14.001l40 -23l-4 -62
c-77.333 -18 -138.333 -28 -183 -30c-1.33301 4 -3.33301 11.167 -6 21.5s-5 20.166 -7 29.499c-26 -16.667 -54.5 -30 -85.5 -40s-60.5 -15 -88.5 -15c-45.333 0 -81.666 12.5 -108.999 37.5zM333.998 127.003l-4 76.001c-16 1.33301 -26.667 2 -32 2
c-18 0 -39 -1.83301 -63 -5.5s-43 -7.83398 -57 -12.501c-2 -8.66699 -3 -16.667 -3 -24c0 -20 5.5 -35.5 16.5 -46.5s26.167 -16.5 45.5 -16.5c26.667 0 59 9 97 27zM301.998 755.004h180v-41l-188 -132h-87z" />
    <glyph glyph-name="acircumflex" unicode="&#xe2;" horiz-adv-x="554" 
d="M61 24.5c-27.333 25 -41.002 57.1699 -41.002 96.5029c0 52.667 26.5 94 79.5 124s130.167 47 231.5 51c0 31.333 -2.5 54.5 -7.5 69.5s-14 25.333 -27 31s-32.833 8.5 -59.5 8.5c-27.333 0 -46.666 -1 -57.999 -3l-41 -81l-74 5
c-11.333 53.333 -19.333 108.666 -24 165.999c37.333 12.667 78.166 22.667 122.499 30s85.833 11 124.5 11c70.667 0 121.334 -13.833 152.001 -41.5s46 -73.5 46 -137.5v-209c0 -12 1.16699 -20.333 3.5 -25s7.5 -9.33398 15.5 -14.001l40 -23l-4 -62
c-77.333 -18 -138.333 -28 -183 -30c-1.33301 4 -3.33301 11.167 -6 21.5s-5 20.166 -7 29.499c-26 -16.667 -54.5 -30 -85.5 -40s-60.5 -15 -88.5 -15c-45.333 0 -81.666 12.5 -108.999 37.5zM333.998 127.003l-4 76.001c-16 1.33301 -26.667 2 -32 2
c-18 0 -39 -1.83301 -63 -5.5s-43 -7.83398 -57 -12.501c-2 -8.66699 -3 -16.667 -3 -24c0 -20 5.5 -35.5 16.5 -46.5s26.167 -16.5 45.5 -16.5c26.667 0 59 9 97 27zM200.998 755.004h149l125 -173h-83l-117 73l-116 -73h-83z" />
    <glyph glyph-name="atilde" unicode="&#xe3;" horiz-adv-x="554" 
d="M61 24.5c-27.333 25 -41.002 57.1699 -41.002 96.5029c0 52.667 26.5 94 79.5 124s130.167 47 231.5 51c0 31.333 -2.5 54.5 -7.5 69.5s-14 25.333 -27 31s-32.833 8.5 -59.5 8.5c-27.333 0 -46.666 -1 -57.999 -3l-41 -81l-74 5
c-11.333 53.333 -19.333 108.666 -24 165.999c37.333 12.667 78.166 22.667 122.499 30s85.833 11 124.5 11c70.667 0 121.334 -13.833 152.001 -41.5s46 -73.5 46 -137.5v-209c0 -12 1.16699 -20.333 3.5 -25s7.5 -9.33398 15.5 -14.001l40 -23l-4 -62
c-77.333 -18 -138.333 -28 -183 -30c-1.33301 4 -3.33301 11.167 -6 21.5s-5 20.166 -7 29.499c-26 -16.667 -54.5 -30 -85.5 -40s-60.5 -15 -88.5 -15c-45.333 0 -81.666 12.5 -108.999 37.5zM333.998 127.003l-4 76.001c-16 1.33301 -26.667 2 -32 2
c-18 0 -39 -1.83301 -63 -5.5s-43 -7.83398 -57 -12.501c-2 -8.66699 -3 -16.667 -3 -24c0 -20 5.5 -35.5 16.5 -46.5s26.167 -16.5 45.5 -16.5c26.667 0 59 9 97 27zM255.998 618.004c-13.333 4.66699 -26.667 8.83203 -40 12.499s-24.333 5.5 -33 5.5
c-4 -2 -8.5 -5.5 -13.5 -10.5s-10.5 -11.833 -16.5 -20.5h-55c10.667 47.333 24.834 82 42.501 104s40.167 33 67.5 33c13.333 0 27.166 -1.83301 41.499 -5.5s31.5 -9.16699 51.5 -16.5c3.33301 -1.33301 13.333 -4.66602 30 -9.99902s31.334 -8 44.001 -8
c3.33301 2 7.33301 5.66699 12 11l17 20h55c-10.667 -47.333 -24.834 -82 -42.501 -104s-40.167 -33 -67.5 -33c-20.667 0 -51.667 7.33301 -93 22z" />
    <glyph glyph-name="adieresis" unicode="&#xe4;" horiz-adv-x="554" 
d="M61 24.5c-27.333 25 -41.002 57.1699 -41.002 96.5029c0 52.667 26.5 94 79.5 124s130.167 47 231.5 51c0 31.333 -2.5 54.5 -7.5 69.5s-14 25.333 -27 31s-32.833 8.5 -59.5 8.5c-27.333 0 -46.666 -1 -57.999 -3l-41 -81l-74 5
c-11.333 53.333 -19.333 108.666 -24 165.999c37.333 12.667 78.166 22.667 122.499 30s85.833 11 124.5 11c70.667 0 121.334 -13.833 152.001 -41.5s46 -73.5 46 -137.5v-209c0 -12 1.16699 -20.333 3.5 -25s7.5 -9.33398 15.5 -14.001l40 -23l-4 -62
c-77.333 -18 -138.333 -28 -183 -30c-1.33301 4 -3.33301 11.167 -6 21.5s-5 20.166 -7 29.499c-26 -16.667 -54.5 -30 -85.5 -40s-60.5 -15 -88.5 -15c-45.333 0 -81.666 12.5 -108.999 37.5zM333.998 127.003l-4 76.001c-16 1.33301 -26.667 2 -32 2
c-18 0 -39 -1.83301 -63 -5.5s-43 -7.83398 -57 -12.501c-2 -8.66699 -3 -16.667 -3 -24c0 -20 5.5 -35.5 16.5 -46.5s26.167 -16.5 45.5 -16.5c26.667 0 59 9 97 27zM68.998 729.004l141 38l34 -125l-141 -38zM305.998 729.004l140 38l34 -125l-140 -38z" />
    <glyph glyph-name="aring" unicode="&#xe5;" horiz-adv-x="554" 
d="M61 24.5c-27.333 25 -41.002 57.1699 -41.002 96.5029c0 52.667 26.5 94 79.5 124s130.167 47 231.5 51c0 31.333 -2.5 54.5 -7.5 69.5s-14 25.333 -27 31s-32.833 8.5 -59.5 8.5c-27.333 0 -46.666 -1 -57.999 -3l-41 -81l-74 5
c-11.333 53.333 -19.333 108.666 -24 165.999c37.333 12.667 78.166 22.667 122.499 30s85.833 11 124.5 11c70.667 0 121.334 -13.833 152.001 -41.5s46 -73.5 46 -137.5v-209c0 -12 1.16699 -20.333 3.5 -25s7.5 -9.33398 15.5 -14.001l40 -23l-4 -62
c-77.333 -18 -138.333 -28 -183 -30c-1.33301 4 -3.33301 11.167 -6 21.5s-5 20.166 -7 29.499c-26 -16.667 -54.5 -30 -85.5 -40s-60.5 -15 -88.5 -15c-45.333 0 -81.666 12.5 -108.999 37.5zM333.998 127.003l-4 76.001c-16 1.33301 -26.667 2 -32 2
c-18 0 -39 -1.83301 -63 -5.5s-43 -7.83398 -57 -12.501c-2 -8.66699 -3 -16.667 -3 -24c0 -20 5.5 -35.5 16.5 -46.5s26.167 -16.5 45.5 -16.5c26.667 0 59 9 97 27zM180.998 606.004c-19.333 15.333 -29 39.666 -29 72.999c0 30.667 11.333 55.334 34 74.001
s52.667 28 90 28c80.667 0 121 -32.333 121 -97c0 -32 -10.833 -56.833 -32.5 -74.5s-52.167 -26.5 -91.5 -26.5c-42 0 -72.667 7.66699 -92 23zM306.998 641.004c4 17.333 6 29.667 6 37c0 30.667 -14 46 -42 46c-14 0 -23.667 -0.666992 -29 -2c-4 -9.33301 -6 -21 -6 -35
c0 -16 3.5 -28.333 10.5 -37s17.167 -13 30.5 -13s23.333 1.33301 30 4z" />
    <glyph glyph-name="ae" unicode="&#xe6;" horiz-adv-x="836" 
d="M60 22.5c-28 24.333 -42.001 56.833 -42.001 97.5c0 54 26.667 95.833 80 125.5s130.333 46.5 231 50.5c0 31.333 -2.33301 54.5 -7 69.5s-13.667 25.333 -27 31s-34 8.5 -62 8.5s-46.667 -1 -56 -3l-41 -81l-74 5c-12 63.333 -20 118.666 -24 165.999
c36 12 76 21.833 120 29.5s84.333 11.5 121 11.5c69.333 0 121 -14.333 155 -43c40.667 28.667 90 43 148 43c76 0 134 -24 174 -72s58.667 -116.333 56 -205l-304 -53c8 -29.333 20.667 -50.666 38 -63.999s40.333 -20 69 -20c19.333 0 42.333 2.83301 69 8.5
s53.667 13.5 81 23.5l24 -99c-24 -18.667 -56 -34 -96 -46s-80 -18 -120 -18c-79.333 0 -140 24.667 -182 74c-29.333 -22.667 -63.666 -41 -102.999 -55s-77.333 -21 -114 -21c-48 0 -86 12.167 -114 36.5zM647.999 340c-3.33301 49.333 -29.332 74 -77.999 74
c-19.333 0 -37 -3 -53 -9c-12.667 -30.667 -18.334 -66 -17.001 -106zM288 109.5c20 6.33301 40.001 15.1689 60.001 26.502c-7.33301 27.333 -12.333 49.666 -15 66.999c-18.667 1.33301 -31 2 -37 2c-20 0 -41.833 -1.83301 -65.5 -5.5s-41.834 -7.83398 -54.501 -12.501
c-2 -8.66699 -3 -17 -3 -25c0 -20 5.5 -35.333 16.5 -46s26.5 -16 46.5 -16c14.667 0 32 3.16699 52 9.5z" />
    <glyph glyph-name="ccedilla" unicode="&#xe7;" horiz-adv-x="504" 
d="M375 -75c10 -10 15.0029 -24 15.0029 -42c0 -35.333 -18.833 -62.5 -56.5 -81.5s-89.167 -28.5 -154.5 -28.5l-10 37c24 0 46 2 66 6s34.667 9.33301 44 16c1.33301 8 2 14.333 2 19c0 11.333 -5 19.333 -15 24s-31.333 9 -64 13v20l24 81
c-67.333 6.66699 -119.333 33.5 -156 80.5s-55 109.167 -55 186.5c0 87.333 22.833 155.333 68.5 204s108.167 73 187.5 73c60 0 124.333 -13.667 193 -41c-1.33301 -19.333 -4.33301 -44.833 -9 -76.5s-9.66699 -60.834 -15 -87.501l-67 -6l-62 79
c-16.667 3.33301 -35.334 5 -56.001 5c-16.667 0 -32 -1 -46 -3c-15.333 -29.333 -23 -70.666 -23 -123.999c0 -54.667 9.66699 -95.167 29 -121.5s48.666 -39.5 87.999 -39.5c18.667 0 41.334 2.83301 68.001 8.5s54 13.834 82 24.501l24 -100
c-22.667 -16 -50.834 -29.833 -84.501 -41.5s-67.834 -18.834 -102.501 -21.501l-16 -23c16 -3.33301 34.667 -8 56 -14c20 -7.33301 35 -16 45 -26z" />
    <glyph glyph-name="egrave" unicode="&#xe8;" horiz-adv-x="521" 
d="M78.5 59c-42.333 47.333 -63.499 112.667 -63.499 196c0 58 10.333 107.833 31 149.5s50 73.5 88 95.5s82.333 33 133 33c75.333 0 133.166 -24 173.499 -72s59.5 -116.333 57.5 -205l-304 -56c9.33301 -28 22.5 -48.5 39.5 -61.5s39.5 -19.5 67.5 -19.5
c19.333 0 42.333 2.83301 69 8.5s53.667 13.5 81 23.5l23 -99c-24.667 -18.667 -56.667 -34 -96 -46s-79 -18 -119 -18c-78 0 -138.167 23.667 -180.5 71zM334.001 340.001c-1.33301 25.333 -8.50098 43.833 -21.501 55.5s-31.167 17.5 -54.5 17.5
c-19.333 0 -37.666 -2.66699 -54.999 -8c-14 -32.667 -20.333 -68 -19 -106zM61 714.001v41h180l95 -173h-86z" />
    <glyph glyph-name="eacute" unicode="&#xe9;" horiz-adv-x="521" 
d="M78.5 59c-42.333 47.333 -63.499 112.667 -63.499 196c0 58 10.333 107.833 31 149.5s50 73.5 88 95.5s82.333 33 133 33c75.333 0 133.166 -24 173.499 -72s59.5 -116.333 57.5 -205l-304 -56c9.33301 -28 22.5 -48.5 39.5 -61.5s39.5 -19.5 67.5 -19.5
c19.333 0 42.333 2.83301 69 8.5s53.667 13.5 81 23.5l23 -99c-24.667 -18.667 -56.667 -34 -96 -46s-79 -18 -119 -18c-78 0 -138.167 23.667 -180.5 71zM334.001 340.001c-1.33301 25.333 -8.50098 43.833 -21.501 55.5s-31.167 17.5 -54.5 17.5
c-19.333 0 -37.666 -2.66699 -54.999 -8c-14 -32.667 -20.333 -68 -19 -106zM293 755.001h180v-41l-188 -132h-87z" />
    <glyph glyph-name="ecircumflex" unicode="&#xea;" horiz-adv-x="521" 
d="M78.5 59c-42.333 47.333 -63.499 112.667 -63.499 196c0 58 10.333 107.833 31 149.5s50 73.5 88 95.5s82.333 33 133 33c75.333 0 133.166 -24 173.499 -72s59.5 -116.333 57.5 -205l-304 -56c9.33301 -28 22.5 -48.5 39.5 -61.5s39.5 -19.5 67.5 -19.5
c19.333 0 42.333 2.83301 69 8.5s53.667 13.5 81 23.5l23 -99c-24.667 -18.667 -56.667 -34 -96 -46s-79 -18 -119 -18c-78 0 -138.167 23.667 -180.5 71zM334.001 340.001c-1.33301 25.333 -8.50098 43.833 -21.501 55.5s-31.167 17.5 -54.5 17.5
c-19.333 0 -37.666 -2.66699 -54.999 -8c-14 -32.667 -20.333 -68 -19 -106zM192 755.001h149l125 -173h-83l-117 73l-116 -73h-83z" />
    <glyph glyph-name="edieresis" unicode="&#xeb;" horiz-adv-x="521" 
d="M78.5 59c-42.333 47.333 -63.499 112.667 -63.499 196c0 58 10.333 107.833 31 149.5s50 73.5 88 95.5s82.333 33 133 33c75.333 0 133.166 -24 173.499 -72s59.5 -116.333 57.5 -205l-304 -56c9.33301 -28 22.5 -48.5 39.5 -61.5s39.5 -19.5 67.5 -19.5
c19.333 0 42.333 2.83301 69 8.5s53.667 13.5 81 23.5l23 -99c-24.667 -18.667 -56.667 -34 -96 -46s-79 -18 -119 -18c-78 0 -138.167 23.667 -180.5 71zM334.001 340.001c-1.33301 25.333 -8.50098 43.833 -21.501 55.5s-31.167 17.5 -54.5 17.5
c-19.333 0 -37.666 -2.66699 -54.999 -8c-14 -32.667 -20.333 -68 -19 -106zM60 729.001l141 38l34 -125l-141 -38zM297 729.001l140 38l34 -125l-140 -38z" />
    <glyph glyph-name="igrave" unicode="&#xec;" horiz-adv-x="347" 
d="M25 92l70.001 21.001v243c0 14.667 -1.16699 24.167 -3.5 28.5s-8.16602 9.16602 -17.499 14.499l-44 24l5 75c55.333 10.667 98.166 18.5 128.499 23.5s58.166 7.83301 83.499 8.5c8.66699 -28.667 14 -50 16 -64v-320c0 -14 1 -23.333 3 -28s7.66699 -9.66699 17 -15
l49 -28l-4 -75h-300zM-35.999 715.001v41h180l95 -173h-86z" />
    <glyph glyph-name="iacute" unicode="&#xed;" horiz-adv-x="347" 
d="M25 92l70.001 21.001v243c0 14.667 -1.16699 24.167 -3.5 28.5s-8.16602 9.16602 -17.499 14.499l-44 24l5 75c55.333 10.667 98.166 18.5 128.499 23.5s58.166 7.83301 83.499 8.5c8.66699 -28.667 14 -50 16 -64v-320c0 -14 1 -23.333 3 -28s7.66699 -9.66699 17 -15
l49 -28l-4 -75h-300zM196.001 756.001h180v-41l-188 -132h-87z" />
    <glyph glyph-name="icircumflex" unicode="&#xee;" horiz-adv-x="347" 
d="M25 92l70.001 21.001v243c0 14.667 -1.16699 24.167 -3.5 28.5s-8.16602 9.16602 -17.499 14.499l-44 24l5 75c55.333 10.667 98.166 18.5 128.499 23.5s58.166 7.83301 83.499 8.5c8.66699 -28.667 14 -50 16 -64v-320c0 -14 1 -23.333 3 -28s7.66699 -9.66699 17 -15
l49 -28l-4 -75h-300zM95.001 756.001h149l125 -173h-83l-117 73l-116 -73h-83z" />
    <glyph glyph-name="idieresis" unicode="&#xef;" horiz-adv-x="347" 
d="M25 92l70.001 21.001v243c0 14.667 -1.16699 24.167 -3.5 28.5s-8.16602 9.16602 -17.499 14.499l-44 24l5 75c55.333 10.667 98.166 18.5 128.499 23.5s58.166 7.83301 83.499 8.5c8.66699 -28.667 14 -50 16 -64v-320c0 -14 1 -23.333 3 -28s7.66699 -9.66699 17 -15
l49 -28l-4 -75h-300zM-36.999 730.001l141 38l34 -125l-141 -38zM200.001 730.001l140 38l34 -125l-140 -38z" />
    <glyph glyph-name="eth" unicode="&#xf0;" horiz-adv-x="562" 
d="M535 267c0 -89.333 -23.332 -158.332 -69.999 -206.999s-113.667 -73 -201 -73c-82.667 0 -144.834 22 -186.501 66s-62.5 108.333 -62.5 193c0 90.667 23.167 161.167 69.5 211.5s110.166 75.5 191.499 75.5h10l-44 52l-115 -54l-5 70l76 36l-76 90l8 42l179 -13l35 -50
l115 54l4 -70l-81 -38c44.667 -66 78.834 -123.833 102.501 -173.5s39.167 -100.834 46.5 -153.501c2.66699 -16 4 -35.333 4 -58zM360.501 178.001c2.33301 24 3.5 47.333 3.5 70c0 55.333 -8.66699 96.5 -26 123.5s-44.333 40.5 -81 40.5c-18 0 -38.333 -3 -61 -9
c-4.66699 -10 -8.33398 -26 -11.001 -48s-4 -45.667 -4 -71c0 -120 35.667 -180 107 -180c20.667 0 41.334 5 62.001 15c4.66699 15.333 8.16699 35 10.5 59z" />
    <glyph glyph-name="ntilde" unicode="&#xf1;" horiz-adv-x="660" 
d="M26 96l61.999 18.002v242c0 14.667 -1 24.167 -3 28.5s-7.33301 9.16602 -16 14.499l-44 24l3 75l22 4c87.333 17.333 150.333 26.666 189 27.999c5.33301 -14 9.66602 -29.333 12.999 -46c40.667 18.667 73.834 31.5 99.501 38.5s49.834 10.5 72.501 10.5
c106 0 159 -63.333 159 -190v-196c0 -14 1 -23.333 3 -28s7.66699 -9.66699 17 -15l48 -28l-4 -75h-276l-5 95l49 14v189c0 30 -1 51 -3 63s-7.5 21.333 -16.5 28s-24.833 10 -47.5 10c-24 0 -54.333 -3.66699 -91 -11v-242c0 -14 1 -23.333 3 -28s7.33301 -9.66699 16 -15
l49 -28l-4 -75h-290zM306.999 618.002c-13.333 4.66699 -26.667 8.83203 -40 12.499s-24.333 5.5 -33 5.5c-4 -2 -8.5 -5.5 -13.5 -10.5s-10.5 -11.833 -16.5 -20.5h-55c10.667 47.333 24.834 82 42.501 104s40.167 33 67.5 33c13.333 0 27.166 -1.83301 41.499 -5.5
s31.5 -9.16699 51.5 -16.5c3.33301 -1.33301 13.333 -4.66602 30 -9.99902s31.334 -8 44.001 -8c3.33301 2 7.33301 5.66699 12 11l17 20h55c-10.667 -47.333 -24.834 -82 -42.501 -104s-40.167 -33 -67.5 -33c-20.667 0 -51.667 7.33301 -93 22z" />
    <glyph glyph-name="ograve" unicode="&#xf2;" horiz-adv-x="553" 
d="M77.5 52c-41.667 43.333 -62.498 109.666 -62.498 198.999c0 57.333 10.5 107.333 31.5 150s51.167 75.334 90.5 98.001s85.666 34 138.999 34c172.667 0 259 -89.333 259 -268c0 -87.333 -23.5 -155.5 -70.5 -204.5s-112.833 -73.5 -197.5 -73.5
s-147.834 21.667 -189.501 65zM318.002 107.5c10 2.33301 20.667 6.16699 32 11.5c4 15.333 7.33301 35 10 59s4 47 4 69c0 54 -8.5 95 -25.5 123s-42.167 42 -75.5 42c-22 0 -44.333 -3 -67 -9c-4.66699 -10 -8.33398 -26.167 -11.001 -48.5s-4 -47.833 -4 -76.5
c0 -56 8.83301 -99 26.5 -129s42.834 -45 75.501 -45c13.333 0 25 1.16699 35 3.5zM73.002 715.001v41h180l95 -173h-86z" />
    <glyph glyph-name="oacute" unicode="&#xf3;" horiz-adv-x="553" 
d="M77.5 52c-41.667 43.333 -62.498 109.666 -62.498 198.999c0 57.333 10.5 107.333 31.5 150s51.167 75.334 90.5 98.001s85.666 34 138.999 34c172.667 0 259 -89.333 259 -268c0 -87.333 -23.5 -155.5 -70.5 -204.5s-112.833 -73.5 -197.5 -73.5
s-147.834 21.667 -189.501 65zM318.002 107.5c10 2.33301 20.667 6.16699 32 11.5c4 15.333 7.33301 35 10 59s4 47 4 69c0 54 -8.5 95 -25.5 123s-42.167 42 -75.5 42c-22 0 -44.333 -3 -67 -9c-4.66699 -10 -8.33398 -26.167 -11.001 -48.5s-4 -47.833 -4 -76.5
c0 -56 8.83301 -99 26.5 -129s42.834 -45 75.501 -45c13.333 0 25 1.16699 35 3.5zM305.002 756.001h180v-41l-188 -132h-87z" />
    <glyph glyph-name="ocircumflex" unicode="&#xf4;" horiz-adv-x="553" 
d="M77.5 52c-41.667 43.333 -62.498 109.666 -62.498 198.999c0 57.333 10.5 107.333 31.5 150s51.167 75.334 90.5 98.001s85.666 34 138.999 34c172.667 0 259 -89.333 259 -268c0 -87.333 -23.5 -155.5 -70.5 -204.5s-112.833 -73.5 -197.5 -73.5
s-147.834 21.667 -189.501 65zM318.002 107.5c10 2.33301 20.667 6.16699 32 11.5c4 15.333 7.33301 35 10 59s4 47 4 69c0 54 -8.5 95 -25.5 123s-42.167 42 -75.5 42c-22 0 -44.333 -3 -67 -9c-4.66699 -10 -8.33398 -26.167 -11.001 -48.5s-4 -47.833 -4 -76.5
c0 -56 8.83301 -99 26.5 -129s42.834 -45 75.501 -45c13.333 0 25 1.16699 35 3.5zM204.002 756.001h149l125 -173h-83l-117 73l-116 -73h-83z" />
    <glyph glyph-name="otilde" unicode="&#xf5;" horiz-adv-x="553" 
d="M77.5 52c-41.667 43.333 -62.498 109.666 -62.498 198.999c0 57.333 10.5 107.333 31.5 150s51.167 75.334 90.5 98.001s85.666 34 138.999 34c172.667 0 259 -89.333 259 -268c0 -87.333 -23.5 -155.5 -70.5 -204.5s-112.833 -73.5 -197.5 -73.5
s-147.834 21.667 -189.501 65zM318.002 107.5c10 2.33301 20.667 6.16699 32 11.5c4 15.333 7.33301 35 10 59s4 47 4 69c0 54 -8.5 95 -25.5 123s-42.167 42 -75.5 42c-22 0 -44.333 -3 -67 -9c-4.66699 -10 -8.33398 -26.167 -11.001 -48.5s-4 -47.833 -4 -76.5
c0 -56 8.83301 -99 26.5 -129s42.834 -45 75.501 -45c13.333 0 25 1.16699 35 3.5zM259.002 619.001c-13.333 4.66699 -26.667 8.83203 -40 12.499s-24.333 5.5 -33 5.5c-4 -2 -8.5 -5.5 -13.5 -10.5s-10.5 -11.833 -16.5 -20.5h-55c10.667 47.333 24.834 82 42.501 104
s40.167 33 67.5 33c13.333 0 27.166 -1.83301 41.499 -5.5s31.5 -9.16699 51.5 -16.5c3.33301 -1.33301 13.333 -4.66602 30 -9.99902s31.334 -8 44.001 -8c3.33301 2 7.33301 5.66699 12 11l17 20h55c-10.667 -47.333 -24.834 -82 -42.501 -104s-40.167 -33 -67.5 -33
c-20.667 0 -51.667 7.33301 -93 22z" />
    <glyph glyph-name="odieresis" unicode="&#xf6;" horiz-adv-x="553" 
d="M77.5 52c-41.667 43.333 -62.498 109.666 -62.498 198.999c0 57.333 10.5 107.333 31.5 150s51.167 75.334 90.5 98.001s85.666 34 138.999 34c172.667 0 259 -89.333 259 -268c0 -87.333 -23.5 -155.5 -70.5 -204.5s-112.833 -73.5 -197.5 -73.5
s-147.834 21.667 -189.501 65zM318.002 107.5c10 2.33301 20.667 6.16699 32 11.5c4 15.333 7.33301 35 10 59s4 47 4 69c0 54 -8.5 95 -25.5 123s-42.167 42 -75.5 42c-22 0 -44.333 -3 -67 -9c-4.66699 -10 -8.33398 -26.167 -11.001 -48.5s-4 -47.833 -4 -76.5
c0 -56 8.83301 -99 26.5 -129s42.834 -45 75.501 -45c13.333 0 25 1.16699 35 3.5zM72.002 730.001l141 38l34 -125l-141 -38zM309.002 730.001l140 38l34 -125l-140 -38z" />
    <glyph glyph-name="divide" unicode="&#xf7;" horiz-adv-x="729" 
d="M279 525l135 36l36 -121l-134 -36zM80 321h569v-111h-569v111zM279 90l135 36l36 -120l-134 -36z" />
    <glyph glyph-name="oslash" unicode="&#xf8;" horiz-adv-x="553" 
d="M535 265c0 -87.333 -23.501 -155.501 -70.501 -204.501s-112.833 -73.5 -197.5 -73.5c-43.333 0 -80.666 5.33301 -111.999 16l-48 -78h-85l70 113c-51.333 42.667 -77 113.667 -77 213c0 57.333 10.5 107.333 31.5 150s51.167 75.334 90.5 98.001s85.666 34 138.999 34
c42.667 0 80.334 -5.66699 113.001 -17l51 83h83l-72 -116c56 -44 84 -116.667 84 -218zM189.999 194.999l125.001 202c-14.667 10 -32 15 -52 15c-22 0 -44.333 -3 -67 -9c-4.66699 -10 -8.33398 -26.167 -11.001 -48.5s-4 -47.833 -4 -76.5c0 -31.333 3 -59 9 -83z
M360 177.999c2.66699 24 4 47.001 4 69.001c0 29.333 -2.66699 56.333 -8 81l-127 -205c14.667 -12.667 32.667 -19 54 -19c13.333 0 25 1.16699 35 3.5s20.667 6.16602 32 11.499c4 15.333 7.33301 35 10 59z" />
    <glyph glyph-name="ugrave" unicode="&#xf9;" horiz-adv-x="612" 
d="M87 33.5c-26 31.667 -39 79.5049 -39 143.505v179c0 14.667 -1.16699 24.167 -3.5 28.5s-8.16602 9.16602 -17.499 14.499l-45 24l5 75c9.33301 1.33301 16 2.66602 20 3.99902l78.5 14c45 8 82.5 12.667 112.5 14c7.33301 -16.667 13 -36 17 -58v-252
c0 -29.333 0.833008 -50 2.5 -62s7 -21.167 16 -27.5s24.5 -9.5 46.5 -9.5c32 0 63 5.66699 93 17v218c0 14.667 -1 24.167 -3 28.5s-7.33301 9.16602 -16 14.499l-44 24l4 75l126.5 23c30.333 5.33301 58.166 8.33301 83.499 9c7.33301 -16.667 13 -36 17 -58v-328
c0 -12 1 -20.333 3 -25s6.66699 -9.33398 14 -14.001l40 -23l-3 -62c-28.667 -7.33301 -61.667 -13.833 -99 -19.5s-72 -9.16699 -104 -10.5c-2.66699 8 -5.66699 18 -9 30c-0.666992 5.33301 -2.33398 11.666 -5.00098 18.999h-3
c-27.333 -16 -56.166 -28.833 -86.499 -38.5s-57.833 -14.5 -82.5 -14.5c-53.333 0 -93 15.833 -119 47.5zM78 714.005v41h180l95 -173h-86z" />
    <glyph glyph-name="uacute" unicode="&#xfa;" horiz-adv-x="612" 
d="M87 33.5c-26 31.667 -39 79.5049 -39 143.505v179c0 14.667 -1.16699 24.167 -3.5 28.5s-8.16602 9.16602 -17.499 14.499l-45 24l5 75c9.33301 1.33301 16 2.66602 20 3.99902l78.5 14c45 8 82.5 12.667 112.5 14c7.33301 -16.667 13 -36 17 -58v-252
c0 -29.333 0.833008 -50 2.5 -62s7 -21.167 16 -27.5s24.5 -9.5 46.5 -9.5c32 0 63 5.66699 93 17v218c0 14.667 -1 24.167 -3 28.5s-7.33301 9.16602 -16 14.499l-44 24l4 75l126.5 23c30.333 5.33301 58.166 8.33301 83.499 9c7.33301 -16.667 13 -36 17 -58v-328
c0 -12 1 -20.333 3 -25s6.66699 -9.33398 14 -14.001l40 -23l-3 -62c-28.667 -7.33301 -61.667 -13.833 -99 -19.5s-72 -9.16699 -104 -10.5c-2.66699 8 -5.66699 18 -9 30c-0.666992 5.33301 -2.33398 11.666 -5.00098 18.999h-3
c-27.333 -16 -56.166 -28.833 -86.499 -38.5s-57.833 -14.5 -82.5 -14.5c-53.333 0 -93 15.833 -119 47.5zM310 755.005h180v-41l-188 -132h-87z" />
    <glyph glyph-name="ucircumflex" unicode="&#xfb;" horiz-adv-x="612" 
d="M87 33.5c-26 31.667 -39 79.5049 -39 143.505v179c0 14.667 -1.16699 24.167 -3.5 28.5s-8.16602 9.16602 -17.499 14.499l-45 24l5 75c9.33301 1.33301 16 2.66602 20 3.99902l78.5 14c45 8 82.5 12.667 112.5 14c7.33301 -16.667 13 -36 17 -58v-252
c0 -29.333 0.833008 -50 2.5 -62s7 -21.167 16 -27.5s24.5 -9.5 46.5 -9.5c32 0 63 5.66699 93 17v218c0 14.667 -1 24.167 -3 28.5s-7.33301 9.16602 -16 14.499l-44 24l4 75l126.5 23c30.333 5.33301 58.166 8.33301 83.499 9c7.33301 -16.667 13 -36 17 -58v-328
c0 -12 1 -20.333 3 -25s6.66699 -9.33398 14 -14.001l40 -23l-3 -62c-28.667 -7.33301 -61.667 -13.833 -99 -19.5s-72 -9.16699 -104 -10.5c-2.66699 8 -5.66699 18 -9 30c-0.666992 5.33301 -2.33398 11.666 -5.00098 18.999h-3
c-27.333 -16 -56.166 -28.833 -86.499 -38.5s-57.833 -14.5 -82.5 -14.5c-53.333 0 -93 15.833 -119 47.5zM209 755.005h149l125 -173h-83l-117 73l-116 -73h-83z" />
    <glyph glyph-name="udieresis" unicode="&#xfc;" horiz-adv-x="612" 
d="M87 33.5c-26 31.667 -39 79.5049 -39 143.505v179c0 14.667 -1.16699 24.167 -3.5 28.5s-8.16602 9.16602 -17.499 14.499l-45 24l5 75c9.33301 1.33301 16 2.66602 20 3.99902l78.5 14c45 8 82.5 12.667 112.5 14c7.33301 -16.667 13 -36 17 -58v-252
c0 -29.333 0.833008 -50 2.5 -62s7 -21.167 16 -27.5s24.5 -9.5 46.5 -9.5c32 0 63 5.66699 93 17v218c0 14.667 -1 24.167 -3 28.5s-7.33301 9.16602 -16 14.499l-44 24l4 75l126.5 23c30.333 5.33301 58.166 8.33301 83.499 9c7.33301 -16.667 13 -36 17 -58v-328
c0 -12 1 -20.333 3 -25s6.66699 -9.33398 14 -14.001l40 -23l-3 -62c-28.667 -7.33301 -61.667 -13.833 -99 -19.5s-72 -9.16699 -104 -10.5c-2.66699 8 -5.66699 18 -9 30c-0.666992 5.33301 -2.33398 11.666 -5.00098 18.999h-3
c-27.333 -16 -56.166 -28.833 -86.499 -38.5s-57.833 -14.5 -82.5 -14.5c-53.333 0 -93 15.833 -119 47.5zM77 729.005l141 38l34 -125l-141 -38zM314 729.005l140 38l34 -125l-140 -38z" />
    <glyph glyph-name="yacute" unicode="&#xfd;" horiz-adv-x="537" 
d="M51 -105l111 109.001l-145 382c-7.33301 18 -12.333 29.667 -15 35s-7.66699 12.666 -15 21.999l-17 22l5 58h256l10 -85l-58 -14l82 -251l92 230c1.33301 4 2 7 2 9c0 6 -2.66699 10 -8 12l-47 20l9 79h190l9 -81l-128 -279c-46 -100.667 -84 -179.667 -114 -237
s-60.333 -109 -91 -155c-48 32 -90.667 73.333 -128 124zM298 756.001h180v-41l-188 -132h-87z" />
    <glyph glyph-name="thorn" unicode="&#xfe;" horiz-adv-x="583" 
d="M-2 -120l61.999 17.001v694c0 14.667 -1 24.334 -3 29.001s-7.66699 9.66699 -17 15l-45 23l5 76c64 11.333 111.333 19.166 142 23.499s55 6.83301 73 7.5c6 -15.333 10.333 -32.666 13 -51.999v-224c40.667 29.333 84.334 44 131.001 44c64 0 114 -23.833 150 -71.5
s54 -112.5 54 -194.5c0 -92.667 -24.5 -163 -73.5 -211s-120.167 -72 -213.5 -72c-10.667 0 -26.667 0.666992 -48 2v-55c0 -14.667 1 -24.334 3 -29.001s7.66699 -9.33398 17 -14.001l59 -33l-4 -70h-300zM376.999 121.001c5.33301 16.667 9.83496 37 13.502 61
s5.5 47 5.5 69c0 49.333 -8.83301 88 -26.5 116s-42.167 42 -73.5 42c-19.333 0 -42 -5.66699 -68 -17v-272c19.333 -8 43.666 -12 72.999 -12c31.333 0 56.666 4.33301 75.999 13z" />
    <glyph glyph-name="ydieresis" unicode="&#xff;" horiz-adv-x="537" 
d="M51 -105l111 109.001l-145 382c-7.33301 18 -12.333 29.667 -15 35s-7.66699 12.666 -15 21.999l-17 22l5 58h256l10 -85l-58 -14l82 -251l92 230c1.33301 4 2 7 2 9c0 6 -2.66699 10 -8 12l-47 20l9 79h190l9 -81l-128 -279c-46 -100.667 -84 -179.667 -114 -237
s-60.333 -109 -91 -155c-48 32 -90.667 73.333 -128 124zM65 730.001l141 38l34 -125l-141 -38zM302 730.001l140 38l34 -125l-140 -38z" />
    <glyph glyph-name="Amacron" unicode="&#x100;" horiz-adv-x="712" 
d="M16 89l30.999 18.9971l234 567l170 15l200 -540c6.66699 -17.333 11.334 -28.666 14.001 -33.999s7.66699 -12.666 15 -21.999l18 -23l-6 -71h-281l-10 95l71 18l-32 101l-203 -3l-22 -63c-2 -6 -3 -11 -3 -15c0 -4.66699 0.833008 -8.16699 2.5 -10.5
s4.5 -4.16602 8.5 -5.49902l69 -29l-10 -88h-262zM342.999 518.997l-66 -192l129 -6zM222.999 885.997l306 -12v-90l-306 -9v111z" />
    <glyph glyph-name="amacron" unicode="&#x101;" horiz-adv-x="554" 
d="M61 24.5c-27.333 25 -41.002 57.1699 -41.002 96.5029c0 52.667 26.5 94 79.5 124s130.167 47 231.5 51c0 31.333 -2.5 54.5 -7.5 69.5s-14 25.333 -27 31s-32.833 8.5 -59.5 8.5c-27.333 0 -46.666 -1 -57.999 -3l-41 -81l-74 5
c-11.333 53.333 -19.333 108.666 -24 165.999c37.333 12.667 78.166 22.667 122.499 30s85.833 11 124.5 11c70.667 0 121.334 -13.833 152.001 -41.5s46 -73.5 46 -137.5v-209c0 -12 1.16699 -20.333 3.5 -25s7.5 -9.33398 15.5 -14.001l40 -23l-4 -62
c-77.333 -18 -138.333 -28 -183 -30c-1.33301 4 -3.33301 11.167 -6 21.5s-5 20.166 -7 29.499c-26 -16.667 -54.5 -30 -85.5 -40s-60.5 -15 -88.5 -15c-45.333 0 -81.666 12.5 -108.999 37.5zM333.998 127.003l-4 76.001c-16 1.33301 -26.667 2 -32 2
c-18 0 -39 -1.83301 -63 -5.5s-43 -7.83398 -57 -12.501c-2 -8.66699 -3 -16.667 -3 -24c0 -20 5.5 -35.5 16.5 -46.5s26.167 -16.5 45.5 -16.5c26.667 0 59 9 97 27zM120.998 720.004l306 -12v-90l-306 -9v111z" />
    <glyph glyph-name="Abreve" unicode="&#x102;" horiz-adv-x="712" 
d="M16 89l30.999 18.9971l234 567l170 15l200 -540c6.66699 -17.333 11.334 -28.666 14.001 -33.999s7.66699 -12.666 15 -21.999l18 -23l-6 -71h-281l-10 95l71 18l-32 101l-203 -3l-22 -63c-2 -6 -3 -11 -3 -15c0 -4.66699 0.833008 -8.16699 2.5 -10.5
s4.5 -4.16602 8.5 -5.49902l69 -29l-10 -88h-262zM342.999 518.997l-66 -192l129 -6zM247.499 786.997c-24.333 26 -36.499 63.001 -36.499 111.001c0 10 0.333008 17.667 1 23h56c8.66699 -22.667 22.167 -39.834 40.5 -51.501s42.833 -17.5 73.5 -17.5
c31.333 0 55.166 6 71.499 18s27.166 29 32.499 51h57c-4 -54 -23.167 -96.333 -57.5 -127s-78.166 -46 -131.499 -46c-46.667 0 -82.167 13 -106.5 39z" />
    <glyph glyph-name="abreve" unicode="&#x103;" horiz-adv-x="554" 
d="M61 24.5c-27.333 25 -41.002 57.1699 -41.002 96.5029c0 52.667 26.5 94 79.5 124s130.167 47 231.5 51c0 31.333 -2.5 54.5 -7.5 69.5s-14 25.333 -27 31s-32.833 8.5 -59.5 8.5c-27.333 0 -46.666 -1 -57.999 -3l-41 -81l-74 5
c-11.333 53.333 -19.333 108.666 -24 165.999c37.333 12.667 78.166 22.667 122.499 30s85.833 11 124.5 11c70.667 0 121.334 -13.833 152.001 -41.5s46 -73.5 46 -137.5v-209c0 -12 1.16699 -20.333 3.5 -25s7.5 -9.33398 15.5 -14.001l40 -23l-4 -62
c-77.333 -18 -138.333 -28 -183 -30c-1.33301 4 -3.33301 11.167 -6 21.5s-5 20.166 -7 29.499c-26 -16.667 -54.5 -30 -85.5 -40s-60.5 -15 -88.5 -15c-45.333 0 -81.666 12.5 -108.999 37.5zM333.998 127.003l-4 76.001c-16 1.33301 -26.667 2 -32 2
c-18 0 -39 -1.83301 -63 -5.5s-43 -7.83398 -57 -12.501c-2 -8.66699 -3 -16.667 -3 -24c0 -20 5.5 -35.5 16.5 -46.5s26.167 -16.5 45.5 -16.5c26.667 0 59 9 97 27zM145.498 621.004c-24.333 26 -36.499 63.001 -36.499 111.001c0 10 0.333008 17.667 1 23h56
c8.66699 -22.667 22.167 -39.834 40.5 -51.501s42.833 -17.5 73.5 -17.5c31.333 0 55.166 6 71.499 18s27.166 29 32.499 51h57c-4 -54 -23.167 -96.333 -57.5 -127s-78.166 -46 -131.499 -46c-46.667 0 -82.167 13 -106.5 39z" />
    <glyph glyph-name="Aogonek" unicode="&#x104;" horiz-adv-x="712" 
d="M416 -200.5c-28.667 17.667 -43.001 44.8301 -43.001 81.4971c0 30.667 10.667 59.5 32 86.5s51.666 50.167 90.999 69.5l-56 177l-203 -3l-22 -63c-2 -6 -3 -11 -3 -15c0 -4.66699 0.833008 -8.16699 2.5 -10.5s4.5 -4.16602 8.5 -5.49902l69 -29l-10 -88h-262l-4 89
l31 19l234 567l170 15l200 -540c6.66699 -17.333 11.334 -28.666 14.001 -33.999s7.66699 -12.666 15 -21.999l18 -23l-5 -70h-1v-1h-8c-82 -10 -145 -25 -189 -45c-2.66699 -6.66699 -4 -16 -4 -28c0 -48 28.333 -72 85 -72c14.667 0 31.334 2.33301 50.001 7l13 -60
c-36.667 -19.333 -76.667 -29 -120 -29c-40 0 -74.333 8.83301 -103 26.5zM343.999 517.996l-67 -191l129 -6z" />
    <glyph glyph-name="aogonek" unicode="&#x105;" horiz-adv-x="552" 
d="M304.5 -199.5c-29 18.333 -43.5029 45.501 -43.5029 81.501c0 51.333 30.333 93 91 125l-10 35c-26 -16.667 -54.5 -30 -85.5 -40s-60.5 -15 -88.5 -15c-45.333 0 -81.666 12.5 -108.999 37.5s-41 57.167 -41 96.5c0 52.667 26.5 94 79.5 124s130.167 47 231.5 51
c0 31.333 -2.5 54.5 -7.5 69.5s-14 25.333 -27 31s-32.833 8.5 -59.5 8.5c-29.333 0 -48.666 -1 -57.999 -3l-41 -81l-74 5c-12 63.333 -20 118.666 -24 165.999c36 12.667 76.333 22.667 121 30s86.667 11 126 11c70.667 0 121.334 -13.833 152.001 -41.5
s46 -73.5 46 -137.5v-209c0 -12 1.16699 -20.333 3.5 -25s7.5 -9.33398 15.5 -14.001l40 -23l-5 -53c-38.667 -15.333 -70 -28.5 -94 -39.5s-44.333 -22.5 -61 -34.5c-2.66699 -5.33301 -4 -14.666 -4 -27.999c0 -48.667 28.333 -73 85 -73c16 0 32.667 2.33301 50 7l13 -60
c-36.667 -19.333 -76 -29 -118 -29c-40 0 -74.5 9.16699 -103.5 27.5zM331.997 127.001l-4 76.001c-16 1.33301 -26.667 2 -32 2c-18.667 0 -40.167 -1.83301 -64.5 -5.5s-42.833 -7.83398 -55.5 -12.501c-2 -8.66699 -3 -16.667 -3 -24c0 -20 5.5 -35.5 16.5 -46.5
s26.167 -16.5 45.5 -16.5c26.667 0 59 9 97 27z" />
    <glyph glyph-name="Cacute" unicode="&#x106;" horiz-adv-x="643" 
d="M107 78c-54.667 62 -82 149.667 -82 263c0 72 13.167 134.167 39.5 186.5s64.5 92.333 114.5 120s109.333 41.5 178 41.5c78 0 158.333 -17.667 241 -53c-6 -60 -15.667 -126.333 -29 -199l-76 -5l-69 101c-29.333 8.66699 -61.666 13 -96.999 13
c-26.667 0 -52 -2.33301 -76 -7c-10.667 -20.667 -19.334 -48 -26.001 -82s-10 -68.333 -10 -103c0 -74 13.5 -128.833 40.5 -164.5s69.833 -54.167 128.5 -55.5c23.333 0 52.833 3.5 88.5 10.5s70.5 16.167 104.5 27.5l31 -110c-34.667 -22.667 -76.5 -41.167 -125.5 -55.5
s-96.167 -21.5 -141.5 -21.5c-101.333 0 -179.333 31 -234 93zM379 921h180v-41l-188 -132h-87z" />
    <glyph glyph-name="cacute" unicode="&#x107;" horiz-adv-x="504" 
d="M79 58.5c-42.667 47.667 -63.998 113.499 -63.998 197.499c0 87.333 22.833 155.333 68.5 204s108.167 73 187.5 73c60 0 124.333 -13.667 193 -41c-1.33301 -19.333 -4.33301 -44.833 -9 -76.5s-9.66699 -60.834 -15 -87.501l-67 -6l-62 79
c-16.667 3.33301 -35.334 5 -56.001 5c-16.667 0 -32 -1 -46 -3c-15.333 -29.333 -23 -70.666 -23 -123.999c0 -54.667 9.66699 -95.167 29 -121.5s48.666 -39.5 87.999 -39.5c18.667 0 41.334 2.83301 68.001 8.5s54 13.834 82 24.501l24 -100
c-26.667 -18.667 -59.834 -34 -99.501 -46s-79.167 -18 -118.5 -18c-77.333 0 -137.333 23.833 -180 71.5zM302.002 754.999h180v-41l-188 -132h-87z" />
    <glyph glyph-name="Cdotaccent" unicode="&#x10a;" horiz-adv-x="643" 
d="M107 78c-54.667 62 -82 149.667 -82 263c0 72 13.167 134.167 39.5 186.5s64.5 92.333 114.5 120s109.333 41.5 178 41.5c78 0 158.333 -17.667 241 -53c-6 -60 -15.667 -126.333 -29 -199l-76 -5l-69 101c-29.333 8.66699 -61.666 13 -96.999 13
c-26.667 0 -52 -2.33301 -76 -7c-10.667 -20.667 -19.334 -48 -26.001 -82s-10 -68.333 -10 -103c0 -74 13.5 -128.833 40.5 -164.5s69.833 -54.167 128.5 -55.5c23.333 0 52.833 3.5 88.5 10.5s70.5 16.167 104.5 27.5l31 -110c-34.667 -22.667 -76.5 -41.167 -125.5 -55.5
s-96.167 -21.5 -141.5 -21.5c-101.333 0 -179.333 31 -234 93zM257 889l141 38l34 -125l-141 -38z" />
    <glyph glyph-name="cdotaccent" unicode="&#x10b;" horiz-adv-x="504" 
d="M79 58.5c-42.667 47.667 -63.998 113.499 -63.998 197.499c0 87.333 22.833 155.333 68.5 204s108.167 73 187.5 73c60 0 124.333 -13.667 193 -41c-1.33301 -19.333 -4.33301 -44.833 -9 -76.5s-9.66699 -60.834 -15 -87.501l-67 -6l-62 79
c-16.667 3.33301 -35.334 5 -56.001 5c-16.667 0 -32 -1 -46 -3c-15.333 -29.333 -23 -70.666 -23 -123.999c0 -54.667 9.66699 -95.167 29 -121.5s48.666 -39.5 87.999 -39.5c18.667 0 41.334 2.83301 68.001 8.5s54 13.834 82 24.501l24 -100
c-26.667 -18.667 -59.834 -34 -99.501 -46s-79.167 -18 -118.5 -18c-77.333 0 -137.333 23.833 -180 71.5zM180.002 722.999l141 38l34 -125l-141 -38z" />
    <glyph glyph-name="Ccaron" unicode="&#x10c;" horiz-adv-x="643" 
d="M107 78c-54.667 62 -82 149.667 -82 263c0 72 13.167 134.167 39.5 186.5s64.5 92.333 114.5 120s109.333 41.5 178 41.5c78 0 158.333 -17.667 241 -53c-6 -60 -15.667 -126.333 -29 -199l-76 -5l-69 101c-29.333 8.66699 -61.666 13 -96.999 13
c-26.667 0 -52 -2.33301 -76 -7c-10.667 -20.667 -19.334 -48 -26.001 -82s-10 -68.333 -10 -103c0 -74 13.5 -128.833 40.5 -164.5s69.833 -54.167 128.5 -55.5c23.333 0 52.833 3.5 88.5 10.5s70.5 16.167 104.5 27.5l31 -110c-34.667 -22.667 -76.5 -41.167 -125.5 -55.5
s-96.167 -21.5 -141.5 -21.5c-101.333 0 -179.333 31 -234 93zM153 921h83l117 -73l116 73h83l-125 -173h-149z" />
    <glyph glyph-name="ccaron" unicode="&#x10d;" horiz-adv-x="504" 
d="M79 58.5c-42.667 47.667 -63.998 113.499 -63.998 197.499c0 87.333 22.833 155.333 68.5 204s108.167 73 187.5 73c60 0 124.333 -13.667 193 -41c-1.33301 -19.333 -4.33301 -44.833 -9 -76.5s-9.66699 -60.834 -15 -87.501l-67 -6l-62 79
c-16.667 3.33301 -35.334 5 -56.001 5c-16.667 0 -32 -1 -46 -3c-15.333 -29.333 -23 -70.666 -23 -123.999c0 -54.667 9.66699 -95.167 29 -121.5s48.666 -39.5 87.999 -39.5c18.667 0 41.334 2.83301 68.001 8.5s54 13.834 82 24.501l24 -100
c-26.667 -18.667 -59.834 -34 -99.501 -46s-79.167 -18 -118.5 -18c-77.333 0 -137.333 23.833 -180 71.5zM76.002 754.999h83l117 -73l116 73h83l-125 -173h-149z" />
    <glyph glyph-name="Dcaron" unicode="&#x10e;" horiz-adv-x="735" 
d="M42 6l-5 95.999l73 20v381c0 17.333 -1.33301 28.833 -4 34.5s-9.66699 10.834 -21 15.501l-52 29l6 83c69.333 5.33301 127.666 9.5 174.999 12.5s85.333 4.5 114 4.5c92 0 165.833 -10.667 221.5 -32s96.334 -55 122.001 -101s38.5 -107 38.5 -183
c0 -96 -22 -173.667 -66 -233c-39.333 -51.333 -91.5 -86.833 -156.5 -106.5s-147.167 -29.5 -246.5 -29.5c-72 0 -138.333 3 -199 9zM500 159.999c6 16.667 11.5 42.667 16.5 78s7.5 68.333 7.5 99c0 75.333 -15.5 131 -46.5 167s-78.167 54 -141.5 54
c-8.66699 0 -16.667 -0.333008 -24 -1l-21 -2v-410c26.667 -3.33301 52 -5 76 -5c56 0 100.333 6.66699 133 20zM158 907.999h83l117 -73l116 73h83l-125 -173h-149z" />
    <glyph glyph-name="dcaron" unicode="&#x10f;" horiz-adv-x="589" 
d="M68.5 58.5c-35.667 47.667 -53.498 115.5 -53.498 203.5c0 86.667 25 153.5 75 200.5s121 70.5 213 70.5c2 0 17.667 -0.666992 47 -2v60c0 14.667 -1 24.334 -3 29.001s-7.66699 9.66699 -17 15l-45 23l5 76c64 11.333 111.333 19.166 142 23.499s55 6.83301 73 7.5
c6 -15.333 10.333 -32.666 13 -51.999v-569c0 -12 1.16699 -20.333 3.5 -25s7.83301 -9.33398 16.5 -14.001l38 -23l-4 -62c-65.333 -16.667 -129.333 -26.667 -192 -30c-4.66699 12.667 -9.33398 28 -14.001 46c-21.333 -15.333 -44.5 -27.333 -69.5 -36
s-49.833 -13 -74.5 -13c-66.667 0 -117.834 23.833 -153.501 71.5zM654.002 755h183v-41l-193 -145h-88zM311.502 120c11.667 3.33301 24.833 9 39.5 17v259c-20 8.66699 -47 13 -81 13c-22.667 0 -45.667 -3.33301 -69 -10c-5.33301 -12.667 -9.5 -30 -12.5 -52
s-4.5 -45.333 -4.5 -70c0 -56 7.5 -97 22.5 -123s38.167 -39 69.5 -39c12 0 23.833 1.66699 35.5 5z" />
    <glyph glyph-name="Dcroat" unicode="&#x110;" horiz-adv-x="736" 
d="M549.5 650c55.667 -21.333 96.334 -55.001 122.001 -101.001s38.5 -107 38.5 -183c0 -96 -22 -173.667 -66 -233c-39.333 -51.333 -91.5 -86.833 -156.5 -106.5s-147.167 -29.5 -246.5 -29.5c-72 0 -138.333 3 -199 9l-5 96l73 20v175l-73 3v68l73 7v128
c0 17.333 -1.33301 28.833 -4 34.5s-9.66699 10.834 -21 15.501l-52 29l6 83c69.333 5.33301 127.666 9.5 174.999 12.5s85.333 4.5 114 4.5c92 0 165.833 -10.667 221.5 -32zM516.5 237.999c5 35.333 7.5 68.333 7.5 99c0 75.333 -15.5 131 -46.5 167s-78.167 54 -141.5 54
c-8.66699 0 -16.667 -0.333008 -24 -1l-21 -2v-163l87 8v-114l-87 4v-145c26.667 -3.33301 52 -5 76 -5c56 0 100.333 6.66699 133 20c6 16.667 11.5 42.667 16.5 78z" />
    <glyph glyph-name="dcroat" unicode="&#x111;" horiz-adv-x="596" 
d="M576 82l-3.99902 -61.999c-65.333 -16.667 -129.333 -26.667 -192 -30c-4.66699 12.667 -9.33398 28 -14.001 46c-45.333 -32.667 -94.333 -49 -147 -49c-64 0 -114 24 -150 72s-54 112.333 -54 193c0 92.667 24.5 162.667 73.5 210s118.833 71 209.5 71
c8 0 25.333 -0.666992 52 -2v32h-113v47l110 12c-1.33301 6 -7 11.333 -17 16l-45 23l5 73c64 11.333 111.333 19.166 142 23.499s55 6.83301 73 7.5c6 -15.333 10.333 -32.666 13 -51.999v-73l54 6v-83h-54v-419c0 -12 1.16699 -20.333 3.5 -25
s7.83301 -9.33398 16.5 -14.001zM351.001 396.001c-20 8.66699 -45.668 13.001 -77.001 13.001c-25.333 0 -49.666 -3.33301 -72.999 -10c-5.33301 -12.667 -9.5 -30 -12.5 -52s-4.5 -46.333 -4.5 -73c0 -54.667 7.5 -94.834 22.5 -120.501s38.5 -38.5 70.5 -38.5
c22 0 46.667 7.33301 74 22v259z" />
    <glyph glyph-name="Emacron" unicode="&#x112;" horiz-adv-x="623" 
d="M27 102l73 19.999v383c0 17.333 -1.33301 28.833 -4 34.5s-9.66699 10.834 -21 15.501l-50 29l3 90h543c4.66699 -70 7 -138.333 7 -205l-74 -5l-71 88l-151 4v-163l213 18v-154l-213 23v-161l166 3l77 88l74 -5c-2.66699 -70 -7.66699 -138.333 -15 -205h-552z
M160 872.999l306 -12v-90l-306 -9v111z" />
    <glyph glyph-name="emacron" unicode="&#x113;" horiz-adv-x="521" 
d="M78.5 59c-42.333 47.333 -63.499 112.667 -63.499 196c0 58 10.333 107.833 31 149.5s50 73.5 88 95.5s82.333 33 133 33c75.333 0 133.166 -24 173.499 -72s59.5 -116.333 57.5 -205l-304 -56c9.33301 -28 22.5 -48.5 39.5 -61.5s39.5 -19.5 67.5 -19.5
c19.333 0 42.333 2.83301 69 8.5s53.667 13.5 81 23.5l23 -99c-24.667 -18.667 -56.667 -34 -96 -46s-79 -18 -119 -18c-78 0 -138.167 23.667 -180.5 71zM334.001 340.001c-1.33301 25.333 -8.50098 43.833 -21.501 55.5s-31.167 17.5 -54.5 17.5
c-19.333 0 -37.666 -2.66699 -54.999 -8c-14 -32.667 -20.333 -68 -19 -106zM112 720.001l306 -12v-90l-306 -9v111z" />
    <glyph glyph-name="Edotaccent" unicode="&#x116;" horiz-adv-x="623" 
d="M27 102l73 19.999v383c0 17.333 -1.33301 28.833 -4 34.5s-9.66699 10.834 -21 15.501l-50 29l3 90h543c4.66699 -70 7 -138.333 7 -205l-74 -5l-71 88l-151 4v-163l213 18v-154l-213 23v-161l166 3l77 88l74 -5c-2.66699 -70 -7.66699 -138.333 -15 -205h-552z
M219 875.999l141 38l34 -125l-141 -38z" />
    <glyph glyph-name="edotaccent" unicode="&#x117;" horiz-adv-x="521" 
d="M78.5 59c-42.333 47.333 -63.499 112.667 -63.499 196c0 58 10.333 107.833 31 149.5s50 73.5 88 95.5s82.333 33 133 33c75.333 0 133.166 -24 173.499 -72s59.5 -116.333 57.5 -205l-304 -56c9.33301 -28 22.5 -48.5 39.5 -61.5s39.5 -19.5 67.5 -19.5
c19.333 0 42.333 2.83301 69 8.5s53.667 13.5 81 23.5l23 -99c-24.667 -18.667 -56.667 -34 -96 -46s-79 -18 -119 -18c-78 0 -138.167 23.667 -180.5 71zM334.001 340.001c-1.33301 25.333 -8.50098 43.833 -21.501 55.5s-31.167 17.5 -54.5 17.5
c-19.333 0 -37.666 -2.66699 -54.999 -8c-14 -32.667 -20.333 -68 -19 -106zM171 723.001l141 38l34 -125l-141 -38z" />
    <glyph glyph-name="Eogonek" unicode="&#x118;" horiz-adv-x="621" 
d="M332 -200.5c-28.667 17.667 -43.001 44.832 -43.001 81.499c0 44 21.333 83.667 64 119h-323l-5 102l73 20v383c0 18 -1.16699 29.5 -3.5 34.5s-9.5 10.167 -21.5 15.5l-50 29l3 90h543c4.66699 -70 7 -138.333 7 -205l-74 -5l-71 88l-151 4v-163l213 18v-154l-213 23
v-161l166 3l77 88l74 -5c-1.33301 -58.667 -6.33301 -127 -15 -205c-31.333 -3.33301 -62.666 -8.66602 -93.999 -15.999s-57 -17 -77 -29c-2.66699 -5.33301 -4 -14.333 -4 -27c0 -25.333 7 -43.833 21 -55.5s35.333 -17.5 64 -17.5c14.667 0 31.334 2.33301 50.001 7
l12 -60c-36.667 -19.333 -76.334 -29 -119.001 -29c-40 0 -74.333 8.83301 -103 26.5z" />
    <glyph glyph-name="eogonek" unicode="&#x119;" horiz-adv-x="521" 
d="M233.5 -199.5c-29 17.667 -43.498 44.5 -43.498 80.5c0 36.667 16.667 72.334 50 107.001c-72.667 3.33301 -128.334 29.166 -167.001 77.499s-58 111.833 -58 190.5c0 57.333 10.333 106.833 31 148.5s50 73.5 88 95.5s82.333 33 133 33c76 0 134 -24.167 174 -72.5
s59 -116.833 57 -205.5l-304 -55c9.33301 -28 22.5 -48.5 39.5 -61.5s39.5 -19.5 67.5 -19.5c19.333 0 42.333 2.83301 69 8.5s53.667 13.5 81 23.5l23 -99c-12.667 -9.33301 -42.334 -26 -89.001 -50c-20 -10 -35 -18 -45 -24s-19.333 -12.667 -28 -20
c-2.66699 -9.33301 -4 -19.333 -4 -30c0 -48 28.333 -72 85 -72c14.667 0 31.334 2.33301 50.001 7l12 -60c-36.667 -19.333 -76.334 -29 -119.001 -29c-39.333 0 -73.5 8.83301 -102.5 26.5zM334.002 340c-2.66699 49.333 -28.001 74 -76.001 74
c-17.333 0 -35.666 -3 -54.999 -9c-14 -32.667 -20.333 -68 -19 -106z" />
    <glyph glyph-name="Ecaron" unicode="&#x11a;" horiz-adv-x="623" 
d="M27 102l73 19.999v383c0 17.333 -1.33301 28.833 -4 34.5s-9.66699 10.834 -21 15.501l-50 29l3 90h543c4.66699 -70 7 -138.333 7 -205l-74 -5l-71 88l-151 4v-163l213 18v-154l-213 23v-161l166 3l77 88l74 -5c-2.66699 -70 -7.66699 -138.333 -15 -205h-552z
M115 907.999h83l117 -73l116 73h83l-125 -173h-149z" />
    <glyph glyph-name="ecaron" unicode="&#x11b;" horiz-adv-x="521" 
d="M78.5 59c-42.333 47.333 -63.499 112.667 -63.499 196c0 58 10.333 107.833 31 149.5s50 73.5 88 95.5s82.333 33 133 33c75.333 0 133.166 -24 173.499 -72s59.5 -116.333 57.5 -205l-304 -56c9.33301 -28 22.5 -48.5 39.5 -61.5s39.5 -19.5 67.5 -19.5
c19.333 0 42.333 2.83301 69 8.5s53.667 13.5 81 23.5l23 -99c-24.667 -18.667 -56.667 -34 -96 -46s-79 -18 -119 -18c-78 0 -138.167 23.667 -180.5 71zM334.001 340.001c-1.33301 25.333 -8.50098 43.833 -21.501 55.5s-31.167 17.5 -54.5 17.5
c-19.333 0 -37.666 -2.66699 -54.999 -8c-14 -32.667 -20.333 -68 -19 -106zM67 755.001h83l117 -73l116 73h83l-125 -173h-149z" />
    <glyph glyph-name="Gbreve" unicode="&#x11e;" horiz-adv-x="676" 
d="M110 77c-56.667 59.333 -85.001 147.335 -85.001 264.002c0 71.333 13.667 132.833 41 184.5s67 91.167 119 118.5s113.667 41 185 41c86.667 0 171 -17.333 253 -52c-6.66699 -64 -16 -128 -28 -192l-76 -5l-63 92c-33.333 12 -74.666 18 -123.999 18
c-23.333 0 -51.333 -2.33301 -84 -7c-12 -20 -21.333 -46.667 -28 -80s-10 -69.333 -10 -108c0 -76.667 15.333 -133.834 46 -171.501s78.334 -56.834 143.001 -57.501c16 0 36.333 1.33301 61 4v73c0 13.333 -1 22 -3 26s-7.66699 8.66699 -17 14l-38 19l4 68l23 4
c7.33301 1.33301 33.333 5.5 78 12.5s82 11.167 112 12.5c6.66699 -12.667 11.667 -27 15 -43v-262c-38.667 -19.333 -81.667 -34.5 -129 -45.5s-94.333 -16.5 -141 -16.5c-112.667 0 -197.334 29.667 -254.001 89zM237.499 774.002
c-24.333 26 -36.499 63.001 -36.499 111.001c0 10 0.333008 17.667 1 23h56c8.66699 -22.667 22.167 -39.834 40.5 -51.501s42.833 -17.5 73.5 -17.5c31.333 0 55.166 6 71.499 18s27.166 29 32.499 51h57c-4 -54 -23.167 -96.333 -57.5 -127s-78.166 -46 -131.499 -46
c-46.667 0 -82.167 13 -106.5 39z" />
    <glyph glyph-name="gbreve" unicode="&#x11f;" horiz-adv-x="572" 
d="M58.5 -192c-39 24 -58.5 59.335 -58.5 106.002c0 49.333 22.667 92.666 68 129.999c-14 14 -21 29.333 -21 46c0 24 15.667 58 47 102c-54.667 28.667 -82 78 -82 148c0 61.333 20.833 108.833 62.5 142.5s101.834 50.5 180.501 50.5
c55.333 0 100.666 -8.33301 135.999 -25l120 37h47v-145h-78c3.33301 -16.667 5 -33 5 -49c0 -61.333 -20.667 -108 -62 -140s-102 -48 -182 -48c-27.333 0 -52 2 -74 6v-14c0 -10.667 4.5 -18.167 13.5 -22.5s28.5 -8.5 58.5 -12.5l90 -13
c70.667 -10 119.5 -27.333 146.5 -52s40.5 -56.334 40.5 -95.001c0 -60 -24.667 -106.333 -74 -139s-119.333 -49 -210 -49c-76.667 0 -134.5 12 -173.5 36zM304 267.002c2.66699 8 5.16602 20.001 7.49902 36.001s3.5 30.667 3.5 44c0 30 -6.5 52.333 -19.5 67
s-33.167 22 -60.5 22c-13.333 0 -28 -2 -44 -6c-3.33301 -8 -6.16602 -19.667 -8.49902 -35s-3.5 -30 -3.5 -44c0 -30.667 6.33301 -53.334 19 -68.001s32 -22 58 -22c14 0 30 2 48 6zM347.999 -106.997c4 8 6 18.667 6 32c0 16 -5.66699 28.167 -17 36.5
s-31.666 14.5 -60.999 18.5l-32 5c-29.333 3.33301 -59 8 -89 14c-4 -18 -6 -32.333 -6 -43c0 -24 10.667 -41.833 32 -53.5s53.666 -17.5 96.999 -17.5c30.667 0 54 2.66699 70 8zM121.499 621.003c-24.333 26 -36.499 63.001 -36.499 111.001c0 10 0.333008 17.667 1 23
h56c8.66699 -22.667 22.167 -39.834 40.5 -51.501s42.833 -17.5 73.5 -17.5c31.333 0 55.166 6 71.499 18s27.166 29 32.499 51h57c-4 -54 -23.167 -96.333 -57.5 -127s-78.166 -46 -131.499 -46c-46.667 0 -82.167 13 -106.5 39z" />
    <glyph glyph-name="Gdotaccent" unicode="&#x120;" horiz-adv-x="676" 
d="M110 77c-56.667 59.333 -85.001 147.335 -85.001 264.002c0 71.333 13.667 132.833 41 184.5s67 91.167 119 118.5s113.667 41 185 41c86.667 0 171 -17.333 253 -52c-6.66699 -64 -16 -128 -28 -192l-76 -5l-63 92c-33.333 12 -74.666 18 -123.999 18
c-23.333 0 -51.333 -2.33301 -84 -7c-12 -20 -21.333 -46.667 -28 -80s-10 -69.333 -10 -108c0 -76.667 15.333 -133.834 46 -171.501s78.334 -56.834 143.001 -57.501c16 0 36.333 1.33301 61 4v73c0 13.333 -1 22 -3 26s-7.66699 8.66699 -17 14l-38 19l4 68l23 4
c7.33301 1.33301 33.333 5.5 78 12.5s82 11.167 112 12.5c6.66699 -12.667 11.667 -27 15 -43v-262c-38.667 -19.333 -81.667 -34.5 -129 -45.5s-94.333 -16.5 -141 -16.5c-112.667 0 -197.334 29.667 -254.001 89zM271.999 876.002l141 38l34 -125l-141 -38z" />
    <glyph glyph-name="gdotaccent" unicode="&#x121;" horiz-adv-x="572" 
d="M58.5 -192c-39 24 -58.5 59.335 -58.5 106.002c0 49.333 22.667 92.666 68 129.999c-14 14 -21 29.333 -21 46c0 24 15.667 58 47 102c-54.667 28.667 -82 78 -82 148c0 61.333 20.833 108.833 62.5 142.5s101.834 50.5 180.501 50.5
c55.333 0 100.666 -8.33301 135.999 -25l120 37h47v-145h-78c3.33301 -16.667 5 -33 5 -49c0 -61.333 -20.667 -108 -62 -140s-102 -48 -182 -48c-27.333 0 -52 2 -74 6v-14c0 -10.667 4.5 -18.167 13.5 -22.5s28.5 -8.5 58.5 -12.5l90 -13
c70.667 -10 119.5 -27.333 146.5 -52s40.5 -56.334 40.5 -95.001c0 -60 -24.667 -106.333 -74 -139s-119.333 -49 -210 -49c-76.667 0 -134.5 12 -173.5 36zM304 267.002c2.66699 8 5.16602 20.001 7.49902 36.001s3.5 30.667 3.5 44c0 30 -6.5 52.333 -19.5 67
s-33.167 22 -60.5 22c-13.333 0 -28 -2 -44 -6c-3.33301 -8 -6.16602 -19.667 -8.49902 -35s-3.5 -30 -3.5 -44c0 -30.667 6.33301 -53.334 19 -68.001s32 -22 58 -22c14 0 30 2 48 6zM347.999 -106.997c4 8 6 18.667 6 32c0 16 -5.66699 28.167 -17 36.5
s-31.666 14.5 -60.999 18.5l-32 5c-29.333 3.33301 -59 8 -89 14c-4 -18 -6 -32.333 -6 -43c0 -24 10.667 -41.833 32 -53.5s53.666 -17.5 96.999 -17.5c30.667 0 54 2.66699 70 8zM155.999 723.003l141 38l34 -125l-141 -38z" />
    <glyph glyph-name="Gcommaaccent" unicode="&#x122;" horiz-adv-x="676" 
d="M110 77c-56.667 59.333 -85.001 147.335 -85.001 264.002c0 71.333 13.667 132.833 41 184.5s67 91.167 119 118.5s113.667 41 185 41c86.667 0 171 -17.333 253 -52c-6.66699 -64 -16 -128 -28 -192l-76 -5l-63 92c-33.333 12 -74.666 18 -123.999 18
c-23.333 0 -51.333 -2.33301 -84 -7c-12 -20 -21.333 -46.667 -28 -80s-10 -69.333 -10 -108c0 -76.667 15.333 -133.834 46 -171.501s78.334 -56.834 143.001 -57.501c16 0 36.333 1.33301 61 4v73c0 13.333 -1 22 -3 26s-7.66699 8.66699 -17 14l-38 19l4 68l23 4
c7.33301 1.33301 33.333 5.5 78 12.5s82 11.167 112 12.5c6.66699 -12.667 11.667 -27 15 -43v-262c-38.667 -19.333 -81.667 -34.5 -129 -45.5s-94.333 -16.5 -141 -16.5c-112.667 0 -197.334 29.667 -254.001 89zM289.999 -58.998h179v-41l-188 -132h-86z" />
    <glyph glyph-name="gcommaaccent" unicode="&#x123;" horiz-adv-x="572" 
d="M58.5 -192c-39 24 -58.5 59.335 -58.5 106.002c0 49.333 22.667 92.666 68 129.999c-14 14 -21 29.333 -21 46c0 24 15.667 58 47 102c-54.667 28.667 -82 78 -82 148c0 61.333 20.833 108.833 62.5 142.5s101.834 50.5 180.501 50.5
c55.333 0 100.666 -8.33301 135.999 -25l120 37h47v-145h-78c3.33301 -16.667 5 -33 5 -49c0 -61.333 -20.667 -108 -62 -140s-102 -48 -182 -48c-27.333 0 -52 2 -74 6v-14c0 -10.667 4.5 -18.167 13.5 -22.5s28.5 -8.5 58.5 -12.5l90 -13
c70.667 -10 119.5 -27.333 146.5 -52s40.5 -56.334 40.5 -95.001c0 -60 -24.667 -106.333 -74 -139s-119.333 -49 -210 -49c-76.667 0 -134.5 12 -173.5 36zM304 267.002c2.66699 8 5.16602 20.001 7.49902 36.001s3.5 30.667 3.5 44c0 30 -6.5 52.333 -19.5 67
s-33.167 22 -60.5 22c-13.333 0 -28 -2 -44 -6c-3.33301 -8 -6.16602 -19.667 -8.49902 -35s-3.5 -30 -3.5 -44c0 -30.667 6.33301 -53.334 19 -68.001s32 -22 58 -22c14 0 30 2 48 6zM347.999 -106.997c4 8 6 18.667 6 32c0 16 -5.66699 28.167 -17 36.5
s-31.666 14.5 -60.999 18.5l-32 5c-29.333 3.33301 -59 8 -89 14c-4 -18 -6 -32.333 -6 -43c0 -24 10.667 -41.833 32 -53.5s53.666 -17.5 96.999 -17.5c30.667 0 54 2.66699 70 8zM156.999 623.003l188 132h86l-95 -173h-179v41z" />
    <glyph glyph-name="Hbar" unicode="&#x126;" horiz-adv-x="765" 
d="M27 100l63.001 16.999v393c0 16.667 -1.16699 27.667 -3.5 33s-8.83301 10.666 -19.5 15.999l-42 25l3 90h312l5 -97l-74 -20v-47h228c0 17.333 -1.33301 28.5 -4 33.5s-9.66699 10.167 -21 15.5l-49 29l5 86h307l4 -100l-61 -17v-400c0 -16 1.16699 -26.167 3.5 -30.5
s8.16602 -9.16602 17.499 -14.499l41 -24l-4 -88h-304l-5 98l70 19v159l-228 10v-129c0 -16 1.16699 -26.167 3.5 -30.5s8.5 -9.16602 18.5 -14.499l53 -31l-4 -81h-310zM499.001 397.999v49h-228v-55z" />
    <glyph glyph-name="hbar" unicode="&#x127;" horiz-adv-x="666" 
d="M657 75l-3.99902 -74.999h-276l-5 95l49 14v190c0 29.333 -0.833008 50.166 -2.5 62.499s-7.16699 21.833 -16.5 28.5s-25 10 -47 10c-21.333 0 -52 -3.66699 -92 -11v-243c0 -14 1 -23.333 3 -28s7.33301 -9.66699 16 -15l49 -28l-4 -75h-290l-5 95l62 18v441h-67v47
l67 7c-0.666992 7.33301 -2.33398 12.666 -5.00098 15.999s-7.33398 7 -14.001 11l-44 23l3 76l31 5c88 16 149.667 24.667 185 26c6 -16 10.333 -33.333 13 -52v-86l99 11v-84h-99v-69c36.667 16.667 67.834 28.834 93.501 36.501s51.167 11.5 76.5 11.5
c104 0 156 -63.333 156 -190v-197c0 -14 1 -23.333 3 -28s7.66699 -9.66699 17 -15z" />
    <glyph glyph-name="Imacron" unicode="&#x12a;" horiz-adv-x="388" 
d="M32 102l73 20v383c0 17.333 -1.33301 28.833 -4 34.5s-9.66699 10.834 -21 15.501l-52 30l5 89h321l4 -102l-72 -20v-390c0 -16 1.16699 -26.333 3.5 -31s8.5 -9.33398 18.5 -14.001l51 -31l-3 -86h-319zM41 873l306 -12v-90l-306 -9v111z" />
    <glyph glyph-name="imacron" unicode="&#x12b;" horiz-adv-x="347" 
d="M25 92l70.001 21.001v243c0 14.667 -1.16699 24.167 -3.5 28.5s-8.16602 9.16602 -17.499 14.499l-44 24l5 75c55.333 10.667 98.166 18.5 128.499 23.5s58.166 7.83301 83.499 8.5c8.66699 -28.667 14 -50 16 -64v-320c0 -14 1 -23.333 3 -28s7.66699 -9.66699 17 -15
l49 -28l-4 -75h-300zM15.001 721.001l306 -12v-90l-306 -9v111z" />
    <glyph glyph-name="Iogonek" unicode="&#x12e;" horiz-adv-x="388" 
d="M135 -200.5c-28.667 17.667 -43 44.833 -43 81.5c0 44 21.333 83.667 64 119h-119l-5 102l73 20v383c0 17.333 -1.33301 28.833 -4 34.5s-9.66699 10.834 -21 15.501l-52 30l5 89h321l4 -102l-72 -20v-390c0 -16 1.16699 -26.333 3.5 -31s8.5 -9.33398 18.5 -14.001
l51 -31l-2 -81c-25.333 -4 -51 -10 -77 -18s-48 -16.667 -66 -26c-2.66699 -8 -4 -18.667 -4 -32c0 -26 7 -44.833 21 -56.5s35.333 -17.5 64 -17.5c14.667 0 31.334 2.33301 50.001 7l12 -60c-36.667 -19.333 -76.334 -29 -119.001 -29c-40 0 -74.333 8.83301 -103 26.5z
" />
    <glyph glyph-name="iogonek" unicode="&#x12f;" horiz-adv-x="347" 
d="M67 740l170 45l41 -152l-169 -46zM100.5 -199.5c-29 18.333 -43.5 45.833 -43.5 82.5c0 48 26.333 87 79 117h-108l-3 92l70 21v243c0 14.667 -1.16699 24.167 -3.5 28.5s-8.16602 9.16602 -17.499 14.499l-44 24l5 75c55.333 10.667 98.166 18.5 128.499 23.5
s58.166 7.83301 83.499 8.5c8.66699 -28.667 14 -50 16 -64v-320c0 -14 1 -23.333 3 -28s7.66699 -9.66699 17 -15l49 -28l-4 -71c-61.333 -11.333 -111.333 -27.333 -150 -48c-2.66699 -5.33301 -4 -14.666 -4 -27.999c0 -48.667 28.667 -73 86 -73
c14.667 0 31.334 2.33301 50.001 7l12 -60c-36.667 -19.333 -76 -29 -118 -29c-40 0 -74.5 9.16699 -103.5 27.5z" />
    <glyph glyph-name="Idotaccent" unicode="&#x130;" horiz-adv-x="388" 
d="M32 102l73 20v383c0 17.333 -1.33301 28.833 -4 34.5s-9.66699 10.834 -21 15.501l-52 30l5 89h321l4 -102l-72 -20v-390c0 -16 1.16699 -26.333 3.5 -31s8.5 -9.33398 18.5 -14.001l51 -31l-3 -86h-319zM100 876l141 38l34 -125l-141 -38z" />
    <glyph glyph-name="dotlessi" unicode="&#x131;" horiz-adv-x="347" 
d="M25 92l70.001 21.001v243c0 14.667 -1.16699 24.167 -3.5 28.5s-8.16602 9.16602 -17.499 14.499l-44 24l5 75c55.333 10.667 98.166 18.5 128.499 23.5s58.166 7.83301 83.499 8.5c8.66699 -28.667 14 -50 16 -64v-320c0 -14 1 -23.333 3 -28s7.66699 -9.66699 17 -15
l49 -28l-4 -75h-300z" />
    <glyph glyph-name="Kcommaaccent" unicode="&#x136;" horiz-adv-x="703" 
d="M27 105l63 16.9971v383c0 17.333 -1.16699 28.833 -3.5 34.5s-8.83301 10.834 -19.5 15.501l-42 24l3 95h312l5 -102l-74 -20v-188l175 189c2.66699 2.66699 4 6.33398 4 11.001c0 3.33301 -1 6.33301 -3 9l-29 35l11 66h232l12 -68l-229 -245l245 -316v-45h-191
l-227 301v-139c0 -14.667 1.16699 -24.667 3.5 -30s8.5 -10.666 18.5 -15.999l53 -30l-4 -86h-310zM305 -54.0029h179v-41l-188 -132h-86z" />
    <glyph glyph-name="kcommaaccent" unicode="&#x137;" horiz-adv-x="619" 
d="M26 95l62 18.001v479c0 14.667 -1 24.167 -3 28.5s-7.33301 9.16602 -16 14.499l-44 23l3 76l31 5c88 16 149.667 24.667 185 26c6 -16 10.333 -33.333 13 -52v-407l111 108c3.33301 3.33301 5 7 5 11c0 3.33301 -1 6 -3 8l-28 35l11 55h222c6 -22 10 -45.667 12 -71
l-166 -142l193 -266v-44h-176l-181 260v-114c0 -14 1 -23.333 3 -28s7.33301 -9.66699 16 -15l49 -28l-4 -75h-290zM282 -58.999h179v-41l-188 -132h-86z" />
    <glyph glyph-name="Lacute" unicode="&#x139;" horiz-adv-x="584" 
d="M27 105l63 16.999v383c0 17.333 -1.16699 28.833 -3.5 34.5s-8.83301 10.834 -19.5 15.501l-42 24l3 95h312l5 -102l-74 -20v-432l126 3l85 97l77 -4c-1.33301 -56 -6 -128 -14 -216h-513zM207 907.999h180v-41l-188 -132h-87z" />
    <glyph glyph-name="lacute" unicode="&#x13a;" horiz-adv-x="342" 
d="M25 92l70 20.999v479c0 14.667 -1.16699 24.167 -3.5 28.5s-8.16602 9.16602 -17.499 14.499l-44 23l5 76c13.333 2.66699 23.666 4.33398 30.999 5.00098c88 16 149.333 24.667 184 26c6.66699 -15.333 11 -32.666 13 -51.999v-567c0 -14 1 -23.333 3 -28
s7.66699 -9.66699 17 -15l49 -28l-4 -75h-300zM204 986.999h180v-41l-188 -132h-87z" />
    <glyph glyph-name="Lcommaaccent" unicode="&#x13b;" horiz-adv-x="584" 
d="M27 105l63 16.999v383c0 17.333 -1.16699 28.833 -3.5 34.5s-8.83301 10.834 -19.5 15.501l-42 24l3 95h312l5 -102l-74 -20v-432l126 3l85 97l77 -4c-1.33301 -56 -6 -128 -14 -216h-513zM219 -54.001h179v-41l-188 -132h-86z" />
    <glyph glyph-name="lcommaaccent" unicode="&#x13c;" horiz-adv-x="342" 
d="M25 92l70 20.999v479c0 14.667 -1.16699 24.167 -3.5 28.5s-8.16602 9.16602 -17.499 14.499l-44 23l5 76c13.333 2.66699 23.666 4.33398 30.999 5.00098c88 16 149.333 24.667 184 26c6.66699 -15.333 11 -32.666 13 -51.999v-567c0 -14 1 -23.333 3 -28
s7.66699 -9.66699 17 -15l49 -28l-4 -75h-300zM101 -59.001h179v-41l-188 -132h-86z" />
    <glyph glyph-name="Lcaron" unicode="&#x13d;" horiz-adv-x="584" 
d="M27 105l63 16.999v383c0 17.333 -1.16699 28.833 -3.5 34.5s-8.83301 10.834 -19.5 15.501l-42 24l3 95h312l5 -102l-74 -20v-432l126 3l85 97l77 -4c-1.33301 -56 -6 -128 -14 -216h-513zM467 673.999h175v-41l-165 -135h-78z" />
    <glyph glyph-name="lcaron" unicode="&#x13e;" horiz-adv-x="342" 
d="M25 92l70 20.999v479c0 14.667 -1.16699 24.167 -3.5 28.5s-8.16602 9.16602 -17.499 14.499l-44 23l5 76c13.333 2.66699 23.666 4.33398 30.999 5.00098c88 16 149.333 24.667 184 26c6.66699 -15.333 11 -32.666 13 -51.999v-567c0 -14 1 -23.333 3 -28
s7.66699 -9.66699 17 -15l49 -28l-4 -75h-300zM395 754.999h172v-41l-182 -135h-79z" />
    <glyph glyph-name="Lslash" unicode="&#x141;" horiz-adv-x="584" 
d="M27 105l63 16.999v86l-63 -42l-3 89l66 45v205c0 17.333 -1.16699 28.833 -3.5 34.5s-8.83301 10.834 -19.5 15.501l-42 24l3 95h312l5 -102l-74 -20v-132l148 98l5 -88l-153 -102v-208l126 3l85 97l77 -4c-1.33301 -56 -6 -128 -14 -216h-513z" />
    <glyph glyph-name="lslash" unicode="&#x142;" horiz-adv-x="364" 
d="M270.5 118c2.33301 -4.66699 8.16699 -9.66797 17.5 -15.001l49 -28l-4 -75h-300l-5 92l72 21v138l-66 -57l-5 89l71 62v247c0 14.667 -1.16699 24.167 -3.5 28.5s-8.16602 9.16602 -17.499 14.499l-44 23l5 76c13.333 2.66699 23.666 4.33398 30.999 5.00098
c88 16 149.333 24.667 184 26c6 -13.333 10 -30.666 12 -51.999v-223l75 65l5 -89l-80 -70v-250c0 -14 1.16699 -23.333 3.5 -28z" />
    <glyph glyph-name="Nacute" unicode="&#x143;" horiz-adv-x="748" 
d="M205 426l17 -262.001c0.666992 -15.333 2.33398 -25.333 5.00098 -30s8.66699 -9.66699 18 -15l52 -35l-4 -84h-260l-5 109l54 13l4 394c0 12.667 -1 21.334 -3 26.001s-6.66699 10 -14 16l-37 28l7 88h207l302 -387l-14 223c-0.666992 16 -2.33398 26.333 -5.00098 31
s-8.66699 9.66699 -18 15l-52 34l3 84h258l4 -102l-51 -22l-4 -541l-115 -38zM403 907.999h180v-41l-188 -132h-87z" />
    <glyph glyph-name="nacute" unicode="&#x144;" horiz-adv-x="660" 
d="M26 96l61.999 18.002v242c0 14.667 -1 24.167 -3 28.5s-7.33301 9.16602 -16 14.499l-44 24l3 75l22 4c87.333 17.333 150.333 26.666 189 27.999c5.33301 -14 9.66602 -29.333 12.999 -46c40.667 18.667 73.834 31.5 99.501 38.5s49.834 10.5 72.501 10.5
c106 0 159 -63.333 159 -190v-196c0 -14 1 -23.333 3 -28s7.66699 -9.66699 17 -15l48 -28l-4 -75h-276l-5 95l49 14v189c0 30 -1 51 -3 63s-7.5 21.333 -16.5 28s-24.833 10 -47.5 10c-24 0 -54.333 -3.66699 -91 -11v-242c0 -14 1 -23.333 3 -28s7.33301 -9.66699 16 -15
l49 -28l-4 -75h-290zM352.999 755.002h180v-41l-188 -132h-87z" />
    <glyph glyph-name="Ncommaaccent" unicode="&#x145;" horiz-adv-x="748" 
d="M205 426l17 -262.001c0.666992 -15.333 2.33398 -25.333 5.00098 -30s8.66699 -9.66699 18 -15l52 -35l-4 -84h-260l-5 109l54 13l4 394c0 12.667 -1 21.334 -3 26.001s-6.66699 10 -14 16l-37 28l7 88h207l302 -387l-14 223c-0.666992 16 -2.33398 26.333 -5.00098 31
s-8.66699 9.66699 -18 15l-52 34l3 84h258l4 -102l-51 -22l-4 -541l-115 -38zM302 -54.001h179v-41l-188 -132h-86z" />
    <glyph glyph-name="ncommaaccent" unicode="&#x146;" horiz-adv-x="660" 
d="M26 96l61.999 18.002v242c0 14.667 -1 24.167 -3 28.5s-7.33301 9.16602 -16 14.499l-44 24l3 75l22 4c87.333 17.333 150.333 26.666 189 27.999c5.33301 -14 9.66602 -29.333 12.999 -46c40.667 18.667 73.834 31.5 99.501 38.5s49.834 10.5 72.501 10.5
c106 0 159 -63.333 159 -190v-196c0 -14 1 -23.333 3 -28s7.66699 -9.66699 17 -15l48 -28l-4 -75h-276l-5 95l49 14v189c0 30 -1 51 -3 63s-7.5 21.333 -16.5 28s-24.833 10 -47.5 10c-24 0 -54.333 -3.66699 -91 -11v-242c0 -14 1 -23.333 3 -28s7.33301 -9.66699 16 -15
l49 -28l-4 -75h-290zM264.999 -53.998h179v-41l-188 -132h-86z" />
    <glyph glyph-name="Ncaron" unicode="&#x147;" horiz-adv-x="748" 
d="M205 426l17 -262.001c0.666992 -15.333 2.33398 -25.333 5.00098 -30s8.66699 -9.66699 18 -15l52 -35l-4 -84h-260l-5 109l54 13l4 394c0 12.667 -1 21.334 -3 26.001s-6.66699 10 -14 16l-37 28l7 88h207l302 -387l-14 223c-0.666992 16 -2.33398 26.333 -5.00098 31
s-8.66699 9.66699 -18 15l-52 34l3 84h258l4 -102l-51 -22l-4 -541l-115 -38zM177 907.999h83l117 -73l116 73h83l-125 -173h-149z" />
    <glyph glyph-name="ncaron" unicode="&#x148;" horiz-adv-x="660" 
d="M26 96l61.999 18.002v242c0 14.667 -1 24.167 -3 28.5s-7.33301 9.16602 -16 14.499l-44 24l3 75l22 4c87.333 17.333 150.333 26.666 189 27.999c5.33301 -14 9.66602 -29.333 12.999 -46c40.667 18.667 73.834 31.5 99.501 38.5s49.834 10.5 72.501 10.5
c106 0 159 -63.333 159 -190v-196c0 -14 1 -23.333 3 -28s7.66699 -9.66699 17 -15l48 -28l-4 -75h-276l-5 95l49 14v189c0 30 -1 51 -3 63s-7.5 21.333 -16.5 28s-24.833 10 -47.5 10c-24 0 -54.333 -3.66699 -91 -11v-242c0 -14 1 -23.333 3 -28s7.33301 -9.66699 16 -15
l49 -28l-4 -75h-290zM126.999 755.002h83l117 -73l116 73h83l-125 -173h-149z" />
    <glyph glyph-name="Eng" unicode="&#x14a;" horiz-adv-x="748" 
d="M509 -168.5c-12 9.66699 -28.667 27.166 -50 52.499l95 87l-349 455l17 -262c0.666992 -15.333 2.33398 -25.333 5.00098 -30s8.66699 -9.66699 18 -15l52 -35l-4 -84h-260l-5 109l54 13l4 394c0 12.667 -1 21.334 -3 26.001s-6.66699 10 -14 16l-37 28l7 88h207
l302 -387l-14 223c-0.666992 16 -2.33398 26.333 -5.00098 31s-8.66699 9.66699 -18 15l-52 34l3 84h258l4 -102l-51 -22l-3 -413c0 -70.667 -4.83301 -128.5 -14.5 -173.5s-26.5 -90.167 -50.5 -135.5l-25 -44c-35.333 22 -59 37.833 -71 47.5z" />
    <glyph glyph-name="eng" unicode="&#x14b;" horiz-adv-x="621" 
d="M406 -180.5c-18 13.667 -40.998 35.1709 -68.998 64.5039l78 93v322c0 29.333 -0.833008 50.166 -2.5 62.499s-7.16699 21.833 -16.5 28.5s-25 10 -47 10c-24.667 0 -55.334 -3.66699 -92.001 -11v-242c0 -14 1 -23.333 3 -28s7.33301 -9.66699 16 -15l49 -28l-4 -75
h-290l-5 95l62 18v242c0 14.667 -1 24.167 -3 28.5s-7.33301 9.16602 -16 14.499l-44 24l3 75l22 4c87.333 17.333 150.333 26.666 189 27.999c5.33301 -14 9.66602 -29.333 12.999 -46c71.333 32.667 126.333 49 165 49c57.333 0 99.333 -15.5 126 -46.5
s40 -78.833 40 -143.5v-230c0 -72.667 -5 -130.334 -15 -173.001s-29 -84.667 -57 -126l-27 -41c-34 17.333 -60 32.833 -78 46.5z" />
    <glyph glyph-name="Omacron" unicode="&#x14c;" horiz-adv-x="722" 
d="M106.5 70c-54.333 56 -81.5 141.001 -81.5 255.001c0 74 13.667 138.167 41 192.5s66.333 96.166 117 125.499s111 44 181 44c222.667 0 334 -113.667 334 -341c0 -74.667 -13.667 -139 -41 -193s-66.833 -95.333 -118.5 -124s-113.167 -43 -184.5 -43
c-110.667 0 -193.167 28 -247.5 84zM484 153.001c7.33301 20.667 13 46.499 17 77.499s6 61.5 6 91.5c0 74 -13.833 130 -41.5 168s-68.167 57 -121.5 57c-38 0 -74.667 -7 -110 -21c-7.33301 -12.667 -13 -33.5 -17 -62.5s-6 -62.167 -6 -99.5
c0 -77.333 14 -136.666 42 -177.999s68.667 -62 122 -62c38 0 74.333 9.66699 109 29zM211 873l306 -12v-90l-306 -9v111z" />
    <glyph glyph-name="omacron" unicode="&#x14d;" horiz-adv-x="553" 
d="M77.5 52c-41.667 43.333 -62.498 109.666 -62.498 198.999c0 57.333 10.5 107.333 31.5 150s51.167 75.334 90.5 98.001s85.666 34 138.999 34c172.667 0 259 -89.333 259 -268c0 -87.333 -23.5 -155.5 -70.5 -204.5s-112.833 -73.5 -197.5 -73.5
s-147.834 21.667 -189.501 65zM318.002 107.5c10 2.33301 20.667 6.16699 32 11.5c4 15.333 7.33301 35 10 59s4 47 4 69c0 54 -8.5 95 -25.5 123s-42.167 42 -75.5 42c-22 0 -44.333 -3 -67 -9c-4.66699 -10 -8.33398 -26.167 -11.001 -48.5s-4 -47.833 -4 -76.5
c0 -56 8.83301 -99 26.5 -129s42.834 -45 75.501 -45c13.333 0 25 1.16699 35 3.5zM124.002 721.001l306 -12v-90l-306 -9v111z" />
    <glyph glyph-name="Ohungarumlaut" unicode="&#x150;" horiz-adv-x="722" 
d="M106.5 70c-54.333 56 -81.5 141.001 -81.5 255.001c0 74 13.667 138.167 41 192.5s66.333 96.166 117 125.499s111 44 181 44c222.667 0 334 -113.667 334 -341c0 -74.667 -13.667 -139 -41 -193s-66.833 -95.333 -118.5 -124s-113.167 -43 -184.5 -43
c-110.667 0 -193.167 28 -247.5 84zM484 153.001c7.33301 20.667 13 46.499 17 77.499s6 61.5 6 91.5c0 74 -13.833 130 -41.5 168s-68.167 57 -121.5 57c-38 0 -74.667 -7 -110 -21c-7.33301 -12.667 -13 -33.5 -17 -62.5s-6 -62.167 -6 -99.5
c0 -77.333 14 -136.666 42 -177.999s68.667 -62 122 -62c38 0 74.333 9.66699 109 29zM271 908h161v-41l-170 -132h-86zM488 908h161v-41l-169 -132h-87z" />
    <glyph glyph-name="ohungarumlaut" unicode="&#x151;" horiz-adv-x="553" 
d="M77.5 52c-41.667 43.333 -62.498 109.666 -62.498 198.999c0 57.333 10.5 107.333 31.5 150s51.167 75.334 90.5 98.001s85.666 34 138.999 34c172.667 0 259 -89.333 259 -268c0 -87.333 -23.5 -155.5 -70.5 -204.5s-112.833 -73.5 -197.5 -73.5
s-147.834 21.667 -189.501 65zM318.002 107.5c10 2.33301 20.667 6.16699 32 11.5c4 15.333 7.33301 35 10 59s4 47 4 69c0 54 -8.5 95 -25.5 123s-42.167 42 -75.5 42c-22 0 -44.333 -3 -67 -9c-4.66699 -10 -8.33398 -26.167 -11.001 -48.5s-4 -47.833 -4 -76.5
c0 -56 8.83301 -99 26.5 -129s42.834 -45 75.501 -45c13.333 0 25 1.16699 35 3.5zM184.002 756.001h161v-41l-170 -132h-86zM401.002 756.001h161v-41l-169 -132h-87z" />
    <glyph glyph-name="OE" unicode="&#x152;" horiz-adv-x="1011" 
d="M106.5 70c-54.333 56 -81.501 141 -81.501 255c0 74 13.667 138.167 41 192.5s66.333 96.166 117 125.499s111 44 181 44c46 0 84.333 -4.33301 115 -13h480c4 -63.333 6 -131.666 6 -204.999l-74 -5l-70 88l-141 4v-163l202 18v-154l-202 23v-161l156 3l77 88l73 -5
c-2 -58.667 -7 -127 -15 -205h-508c-35.333 -9.33301 -71.666 -14 -108.999 -14c-110.667 0 -193.167 28 -247.5 84zM483.999 153c6.66699 20.667 12.167 46.499 16.5 77.499s6.5 61.5 6.5 91.5c0 74 -13.833 130 -41.5 168s-68.167 57 -121.5 57c-39.333 0 -76 -7 -110 -21
c-7.33301 -12.667 -13 -33.5 -17 -62.5s-6 -62.167 -6 -99.5c0 -77.333 14 -136.666 42 -177.999s68.667 -62 122 -62c38 0 74.333 9.66699 109 29z" />
    <glyph glyph-name="oe" unicode="&#x153;" horiz-adv-x="864" 
d="M77.5 52c-41.667 43.333 -62.4951 109.666 -62.4951 198.999c0 57.333 10.5 107.333 31.5 150s51.167 75.334 90.5 98.001s85.666 34 138.999 34c73.333 0 131.666 -17 174.999 -51c44.667 34 97.667 51 159 51c75.333 0 133.166 -24 173.499 -72
s59.5 -116.333 57.5 -205l-303 -56c8 -28 20.667 -48.5 38 -61.5s40 -19.5 68 -19.5c19.333 0 42.333 2.83301 69 8.5s53.667 13.5 81 23.5l24 -99c-24.667 -18.667 -56.834 -34 -96.501 -46s-79.5 -18 -119.5 -18c-66 0 -119.333 17.333 -160 52
c-46.667 -35.333 -105 -53 -175 -53c-84.667 0 -147.834 21.667 -189.501 65zM677.005 340c-1.33301 22 -7.5 39.5 -18.5 52.5s-25.833 19.833 -44.5 20.5l-17 1c-18.667 0 -35.667 -3 -51 -9c-13.333 -32.667 -19.333 -68 -18 -106zM318.005 107.5
c10 2.33301 20.667 6.16699 32 11.5c4 15.333 7.33301 35 10 59s4 47 4 69c0 54 -8.5 95 -25.5 123s-42.167 42 -75.5 42c-22 0 -44.333 -3 -67 -9c-4.66699 -10 -8.33398 -26.167 -11.001 -48.5s-4 -47.833 -4 -76.5c0 -56 8.83301 -99 26.5 -129s42.834 -45 75.501 -45
c13.333 0 25 1.16699 35 3.5z" />
    <glyph glyph-name="Racute" unicode="&#x154;" horiz-adv-x="674" 
d="M37 102l73 19.9971v381c0 17.333 -1.33301 28.833 -4 34.5s-9.66699 10.834 -21 15.501l-52 29l6 82c100 14.667 196.333 22 289 22c72 0 130 -7.16699 174 -21.5s76.167 -36.666 96.5 -66.999s30.5 -70.5 30.5 -120.5c0 -41.333 -10.667 -77.5 -32 -108.5
s-51.666 -54.833 -90.999 -71.5l160 -258l-1 -39h-182l-148 267l-44 1v-112c0 -16 1.16699 -26.167 3.5 -30.5s8.16602 -9.16602 17.499 -14.499l43 -25l-4 -86h-309zM433 389.997c6.66699 24 9.99902 52.667 9.99902 86s-7.16699 57 -21.5 71s-38.166 21 -71.499 21
c-18.667 0 -37.667 -1 -57 -3v-179c17.333 -4 38 -6 62 -6c35.333 0 61.333 3.33301 78 10zM369.999 907.997h180v-41l-188 -132h-87z" />
    <glyph glyph-name="racute" unicode="&#x155;" horiz-adv-x="426" 
d="M27 95l61 18v243c0 14.667 -1 24.167 -3 28.5s-7.33301 9.16602 -16 14.499l-44 24l3 75c11.333 2.66699 21 4.33398 29 5.00098c80.667 16.667 140.334 25.667 179.001 27c6 -17.333 11.667 -39 17 -65c40 31.333 74 53 102 65h57
c-0.666992 -25.333 -2.33398 -52.833 -5.00098 -82.5s-6 -53.5 -10 -71.5c-24 1.33301 -41.667 2 -53 2c-28 0 -57 -1.66699 -87 -5v-227c0 -14 1 -23.333 3 -28s7.33301 -9.66699 16 -15l60 -32l-4 -71h-300zM215 755h180v-41l-188 -132h-87z" />
    <glyph glyph-name="Rcommaaccent" unicode="&#x156;" horiz-adv-x="674" 
d="M37 102l73 19.9971v381c0 17.333 -1.33301 28.833 -4 34.5s-9.66699 10.834 -21 15.501l-52 29l6 82c100 14.667 196.333 22 289 22c72 0 130 -7.16699 174 -21.5s76.167 -36.666 96.5 -66.999s30.5 -70.5 30.5 -120.5c0 -41.333 -10.667 -77.5 -32 -108.5
s-51.666 -54.833 -90.999 -71.5l160 -258l-1 -39h-182l-148 267l-44 1v-112c0 -16 1.16699 -26.167 3.5 -30.5s8.16602 -9.16602 17.499 -14.499l43 -25l-4 -86h-309zM433 389.997c6.66699 24 9.99902 52.667 9.99902 86s-7.16699 57 -21.5 71s-38.166 21 -71.499 21
c-18.667 0 -37.667 -1 -57 -3v-179c17.333 -4 38 -6 62 -6c35.333 0 61.333 3.33301 78 10zM316.999 -54.0029h179v-41l-188 -132h-86z" />
    <glyph glyph-name="rcommaaccent" unicode="&#x157;" horiz-adv-x="426" 
d="M27 95l61 18v243c0 14.667 -1 24.167 -3 28.5s-7.33301 9.16602 -16 14.499l-44 24l3 75c11.333 2.66699 21 4.33398 29 5.00098c80.667 16.667 140.334 25.667 179.001 27c6 -17.333 11.667 -39 17 -65c40 31.333 74 53 102 65h57
c-0.666992 -25.333 -2.33398 -52.833 -5.00098 -82.5s-6 -53.5 -10 -71.5c-24 1.33301 -41.667 2 -53 2c-28 0 -57 -1.66699 -87 -5v-227c0 -14 1 -23.333 3 -28s7.33301 -9.66699 16 -15l60 -32l-4 -71h-300zM105 -59h179v-41l-188 -132h-86z" />
    <glyph glyph-name="Rcaron" unicode="&#x158;" horiz-adv-x="674" 
d="M37 102l73 19.9971v381c0 17.333 -1.33301 28.833 -4 34.5s-9.66699 10.834 -21 15.501l-52 29l6 82c100 14.667 196.333 22 289 22c72 0 130 -7.16699 174 -21.5s76.167 -36.666 96.5 -66.999s30.5 -70.5 30.5 -120.5c0 -41.333 -10.667 -77.5 -32 -108.5
s-51.666 -54.833 -90.999 -71.5l160 -258l-1 -39h-182l-148 267l-44 1v-112c0 -16 1.16699 -26.167 3.5 -30.5s8.16602 -9.16602 17.499 -14.499l43 -25l-4 -86h-309zM433 389.997c6.66699 24 9.99902 52.667 9.99902 86s-7.16699 57 -21.5 71s-38.166 21 -71.499 21
c-18.667 0 -37.667 -1 -57 -3v-179c17.333 -4 38 -6 62 -6c35.333 0 61.333 3.33301 78 10zM143.999 907.997h83l117 -73l116 73h83l-125 -173h-149z" />
    <glyph glyph-name="rcaron" unicode="&#x159;" horiz-adv-x="426" 
d="M27 95l61 18v243c0 14.667 -1 24.167 -3 28.5s-7.33301 9.16602 -16 14.499l-44 24l3 75c11.333 2.66699 21 4.33398 29 5.00098c80.667 16.667 140.334 25.667 179.001 27c6 -17.333 11.667 -39 17 -65c40 31.333 74 53 102 65h57
c-0.666992 -25.333 -2.33398 -52.833 -5.00098 -82.5s-6 -53.5 -10 -71.5c-24 1.33301 -41.667 2 -53 2c-28 0 -57 -1.66699 -87 -5v-227c0 -14 1 -23.333 3 -28s7.33301 -9.66699 16 -15l60 -32l-4 -71h-300zM-11 755h83l117 -73l116 73h83l-125 -173h-149z" />
    <glyph glyph-name="Sacute" unicode="&#x15a;" horiz-adv-x="571" 
d="M28 22c3.33301 66 8.66504 127.33 15.998 183.997l77 15l50 -85c40 -14 75.333 -21 106 -21c10.667 0 33.334 3 68.001 9c1.33301 13.333 2 22.333 2 27c0 16 -2.66699 28.167 -8 36.5s-17 17.666 -35 27.999s-50.333 25.833 -97 46.5
c-57.333 28 -98.666 58.167 -123.999 90.5s-38 70.5 -38 114.5c0 68.667 23.333 122.334 70 161.001s110.667 58 192 58c39.333 0 78.5 -3.83301 117.5 -11.5s73.167 -18.167 102.5 -31.5c-1.33301 -37.333 -4.33301 -83.666 -9 -138.999l-3 -43l-73 -11l-76 97
c-24 7.33301 -54 11 -90 11c-22.667 0 -39.667 -2 -51 -6c-3.33301 -13.333 -5 -23.666 -5 -30.999c0 -14.667 3.66699 -27.5 11 -38.5s20.333 -22.333 39 -34s46.334 -26.167 83.001 -43.5c53.333 -25.333 93.666 -47.666 120.999 -66.999s46.5 -39.5 57.5 -60.5
s16.5 -46.5 16.5 -76.5c0 -66 -26.333 -118 -79 -156s-125.334 -57 -218.001 -57c-73.333 0 -147.666 11.333 -222.999 34zM332.999 907.997h180v-41l-188 -132h-87z" />
    <glyph glyph-name="sacute" unicode="&#x15b;" horiz-adv-x="461" 
d="M28 11c4 65.333 8.33301 113.671 13 145.004l57 11l63 -67c22 -6.66699 46.667 -10 74 -10c15.333 0 27.333 1 36 3c2 5.33301 3 12.666 3 21.999c0 8 -1.83301 14.667 -5.5 20s-11.834 11.666 -24.501 18.999s-34.667 18.666 -66 33.999
c-39.333 20.667 -69.333 39.167 -90 55.5s-35.5 33.166 -44.5 50.499s-13.5 38 -13.5 62c0 53.333 19.833 95.666 59.5 126.999s93.5 47 161.5 47c28 0 57.5 -3.16699 88.5 -9.5s58.833 -14.833 83.5 -25.5c0 -43.333 -3 -91.666 -9 -144.999l-52 -8l-67 72
c-17.333 5.33301 -42.666 8 -75.999 8c-5.33301 0 -16 -0.666992 -32 -2c-2 -4 -3 -10.333 -3 -19c0 -9.33301 2.66699 -17.5 8 -24.5s14.833 -14.667 28.5 -23s35.5 -20.166 65.5 -35.499c44 -21.333 77.167 -39.833 99.5 -55.5s38 -31.5 47 -47.5s13.5 -35.333 13.5 -58
c0 -54.667 -20.833 -97.334 -62.5 -128.001s-99.167 -46 -172.5 -46c-52.667 0 -113.667 9.33301 -183 28zM271 756.005h180v-41l-188 -132h-87z" />
    <glyph glyph-name="Scedilla" unicode="&#x15e;" horiz-adv-x="571" 
d="M482.5 55.5c-43.667 -37 -104.5 -58.8359 -182.5 -65.5029l-17 -25c16 -3.33301 34.667 -8 56 -14c20 -7.33301 35 -16 45 -26s15 -24 15 -42c0 -35.333 -18.833 -62.5 -56.5 -81.5s-89.167 -28.5 -154.5 -28.5l-10 37c24 0 46 2 66 6s34.667 9.33301 44 16
c1.33301 8 2 14.333 2 19c0 11.333 -5 19.333 -15 24s-31.333 9 -64 13v20l23 80c-66.667 2 -135.334 13.333 -206.001 34c3.33301 66 8.66602 127.333 15.999 184l77 15l50 -85c40 -14 75.333 -21 106 -21c10.667 0 33.334 3 68.001 9c1.33301 13.333 2 22.333 2 27
c0 16 -2.66699 28.167 -8 36.5s-17 17.666 -35 27.999s-50.333 25.833 -97 46.5c-57.333 28 -98.666 58.167 -123.999 90.5s-38 70.5 -38 114.5c0 68.667 23.333 122.334 70 161.001s110.667 58 192 58c39.333 0 78.5 -3.83301 117.5 -11.5s73.167 -18.167 102.5 -31.5
c-1.33301 -37.333 -4.33301 -83.666 -9 -138.999l-3 -43l-73 -11l-76 97c-24 7.33301 -54 11 -90 11c-22.667 0 -39.667 -2 -51 -6c-3.33301 -13.333 -5 -23.666 -5 -30.999c0 -14.667 3.66699 -27.5 11 -38.5s20.333 -22.333 39 -34s46.334 -26.167 83.001 -43.5
c53.333 -25.333 93.666 -47.666 120.999 -66.999s46.5 -39.5 57.5 -60.5s16.5 -46.5 16.5 -76.5c0 -60 -21.833 -108.5 -65.5 -145.5z" />
    <glyph glyph-name="scedilla" unicode="&#x15f;" horiz-adv-x="461" 
d="M389 33.5c-38 -30.333 -91 -47.1631 -159 -50.4961l-19 -27c16 -3.33301 34.667 -8 56 -14c20 -7.33301 35 -16 45 -26s15 -24 15 -42c0 -35.333 -18.833 -62.5 -56.5 -81.5s-89.167 -28.5 -154.5 -28.5l-10 37c24 0 46 2 66 6s34.667 9.33301 44 16
c1.33301 8 2 14.333 2 19c0 11.333 -5 19.333 -15 24s-31.333 9 -64 13v20l25 86c-42 4 -87.333 12.667 -136 26c4 65.333 8.33301 113.666 13 144.999l57 11l63 -67c22 -6.66699 46.667 -10 74 -10c15.333 0 27.333 1 36 3c2 5.33301 3 12.666 3 21.999
c0 8 -1.83301 14.667 -5.5 20s-11.834 11.666 -24.501 18.999s-34.667 18.666 -66 33.999c-39.333 20.667 -69.333 39.167 -90 55.5s-35.5 33.166 -44.5 50.499s-13.5 38 -13.5 62c0 53.333 19.833 95.666 59.5 126.999s93.5 47 161.5 47c28 0 57.5 -3.16699 88.5 -9.5
s58.833 -14.833 83.5 -25.5c0 -43.333 -3 -91.666 -9 -144.999l-52 -8l-67 72c-17.333 5.33301 -42.666 8 -75.999 8c-5.33301 0 -16 -0.666992 -32 -2c-2 -4 -3 -10.333 -3 -19c0 -9.33301 2.66699 -17.5 8 -24.5s14.833 -14.667 28.5 -23s35.5 -20.166 65.5 -35.499
c44 -21.333 77.167 -39.833 99.5 -55.5s38 -31.5 47 -47.5s13.5 -35.333 13.5 -58c0 -52 -19 -93.167 -57 -123.5z" />
    <glyph glyph-name="Scaron" unicode="&#x160;" horiz-adv-x="571" 
d="M28 22c3.33301 66 8.66504 127.33 15.998 183.997l77 15l50 -85c40 -14 75.333 -21 106 -21c10.667 0 33.334 3 68.001 9c1.33301 13.333 2 22.333 2 27c0 16 -2.66699 28.167 -8 36.5s-17 17.666 -35 27.999s-50.333 25.833 -97 46.5
c-57.333 28 -98.666 58.167 -123.999 90.5s-38 70.5 -38 114.5c0 68.667 23.333 122.334 70 161.001s110.667 58 192 58c39.333 0 78.5 -3.83301 117.5 -11.5s73.167 -18.167 102.5 -31.5c-1.33301 -37.333 -4.33301 -83.666 -9 -138.999l-3 -43l-73 -11l-76 97
c-24 7.33301 -54 11 -90 11c-22.667 0 -39.667 -2 -51 -6c-3.33301 -13.333 -5 -23.666 -5 -30.999c0 -14.667 3.66699 -27.5 11 -38.5s20.333 -22.333 39 -34s46.334 -26.167 83.001 -43.5c53.333 -25.333 93.666 -47.666 120.999 -66.999s46.5 -39.5 57.5 -60.5
s16.5 -46.5 16.5 -76.5c0 -66 -26.333 -118 -79 -156s-125.334 -57 -218.001 -57c-73.333 0 -147.666 11.333 -222.999 34zM106.999 907.997h83l117 -73l116 73h83l-125 -173h-149z" />
    <glyph glyph-name="scaron" unicode="&#x161;" horiz-adv-x="461" 
d="M28 11c4 65.333 8.33301 113.671 13 145.004l57 11l63 -67c22 -6.66699 46.667 -10 74 -10c15.333 0 27.333 1 36 3c2 5.33301 3 12.666 3 21.999c0 8 -1.83301 14.667 -5.5 20s-11.834 11.666 -24.501 18.999s-34.667 18.666 -66 33.999
c-39.333 20.667 -69.333 39.167 -90 55.5s-35.5 33.166 -44.5 50.499s-13.5 38 -13.5 62c0 53.333 19.833 95.666 59.5 126.999s93.5 47 161.5 47c28 0 57.5 -3.16699 88.5 -9.5s58.833 -14.833 83.5 -25.5c0 -43.333 -3 -91.666 -9 -144.999l-52 -8l-67 72
c-17.333 5.33301 -42.666 8 -75.999 8c-5.33301 0 -16 -0.666992 -32 -2c-2 -4 -3 -10.333 -3 -19c0 -9.33301 2.66699 -17.5 8 -24.5s14.833 -14.667 28.5 -23s35.5 -20.166 65.5 -35.499c44 -21.333 77.167 -39.833 99.5 -55.5s38 -31.5 47 -47.5s13.5 -35.333 13.5 -58
c0 -54.667 -20.833 -97.334 -62.5 -128.001s-99.167 -46 -172.5 -46c-52.667 0 -113.667 9.33301 -183 28zM45 756.005h83l117 -73l116 73h83l-125 -173h-149z" />
    <glyph glyph-name="uni0162" unicode="&#x162;" horiz-adv-x="699" 
d="M670 465l-72 -5.99902l-75 89l-82 7v-393c0 -16 1 -26.333 3 -31s7.66699 -9.33398 17 -14.001l62 -37l-4 -80h-148l-24 -35c16 -3.33301 34.667 -8 56 -14c20 -7.33301 35 -16 45 -26s15 -24 15 -42c0 -35.333 -18.833 -62.5 -56.5 -81.5s-89.167 -28.5 -154.5 -28.5
l-10 37c24 0 46 2 66 6s34.667 9.33301 44 16c1.33301 8 2 14.333 2 19c0 11.333 -5 19.333 -15 24s-31.333 9 -64 13v20l27 92h-125l-5 98l87 24v433l-84 -7l-74 -89l-73 6c0 55.333 2.66699 125 8 209h626c5.33301 -84 8 -153.667 8 -209z" />
    <glyph glyph-name="uni0163" unicode="&#x163;" horiz-adv-x="416" 
d="M321 -80c10 -10 15 -24.002 15 -42.002c0 -35.333 -18.833 -62.5 -56.5 -81.5s-89.167 -28.5 -154.5 -28.5l-10 37c24 0 46 2 66 6s34.667 9.33301 44 16c1.33301 8 2 14.333 2 19c0 11.333 -5 19.333 -15 24s-31.333 9 -64 13v20l26 88
c-42 6.66699 -73.167 24.334 -93.5 53.001s-30.5 68.334 -30.5 119.001v243h-70v73l180 164l58 -7v-113h168v-118h-168v-206c0 -32 4.5 -53.333 13.5 -64s26.5 -16 52.5 -16c22 0 52.667 3 92 9l12 -102c-22 -10 -46 -18.5 -72 -25.5s-51.667 -11.167 -77 -12.5l-19 -28
c16 -3.33301 34.667 -8 56 -14c20 -7.33301 35 -16 45 -26z" />
    <glyph glyph-name="Tcaron" unicode="&#x164;" horiz-adv-x="699" 
d="M172 98l87 24.001v433l-84 -7l-74 -89l-73 6c0 55.333 2.66699 125 8 209h626c5.33301 -84 8 -153.667 8 -209l-72 -6l-75 89l-82 7v-393c0 -16 1 -26.333 3 -31s7.66699 -9.33398 17 -14.001l62 -37l-4 -80h-342zM150 908.001h83l117 -73l116 73h83l-125 -173h-149z" />
    <glyph glyph-name="tcaron" unicode="&#x165;" horiz-adv-x="416" 
d="M433 765h173v-41l-183 -135h-78zM92 30.5c-28 29 -42 73.166 -42 132.499v243h-70v73l180 164l58 -7v-113h168v-118h-168v-206c0 -32 4.5 -53.333 13.5 -64s26.5 -16 52.5 -16c22 0 52.667 3 92 9l12 -102c-24 -11.333 -50.833 -20.666 -80.5 -27.999
s-58.167 -11 -85.5 -11c-58.667 0 -102 14.5 -130 43.5z" />
    <glyph glyph-name="Tbar" unicode="&#x166;" horiz-adv-x="699" 
d="M441 555v-169.999l84 4v-109l-84 3v-121c0 -16 1 -26.333 3 -31s7.66699 -9.33398 17 -14.001l62 -37l-4 -80h-342l-5 98l87 24v168l-100 4v79l100 4v178l-84 -7l-74 -89l-73 6c0 55.333 2.66699 125 8 209h626c5.33301 -84 8 -153.667 8 -209l-72 -6l-75 89z" />
    <glyph glyph-name="tbar" unicode="&#x167;" horiz-adv-x="416" 
d="M388 26c-24 -11.333 -50.833 -20.667 -80.5 -28s-58.167 -11 -85.5 -11c-58.667 0 -102 14.5 -130 43.5s-42 73.167 -42 132.5v71l-70 2v63l70 5v102h-70v73l180 164l58 -7v-113h168v-118h-168v-90l168 11v-101l-168 5v-31c0 -32 4.5 -53.333 13.5 -64s26.5 -16 52.5 -16
c22 0 52.667 3 92 9z" />
    <glyph glyph-name="Umacron" unicode="&#x16a;" horiz-adv-x="753" 
d="M148.5 64.5c-45.667 51.667 -68.501 132.83 -68.501 243.497v197c0 17.333 -1.16699 28.833 -3.5 34.5s-8.83301 10.834 -19.5 15.501l-32 19l3 100h312l5 -99l-83 -23v-205c0 -69.333 10 -124 30 -164s54.333 -60 103 -60c16 0 31.5 2.33301 46.5 7s27.833 11 38.5 19
c6.66699 15.333 11.334 35.833 14.001 61.5s4 60.167 4 103.5v191c0 17.333 -1.33301 28.833 -4 34.5s-9.66699 10.834 -21 15.501l-49 28l5 91h297l5 -108l-52 -14v-226c0 -107.333 -27.5 -190.666 -82.5 -249.999s-132.5 -89 -232.5 -89
c-98 0 -169.833 25.833 -215.5 77.5zM232.999 872.996l306 -12v-90l-306 -9v111z" />
    <glyph glyph-name="umacron" unicode="&#x16b;" horiz-adv-x="612" 
d="M87 33.5c-26 31.667 -39 79.5049 -39 143.505v179c0 14.667 -1.16699 24.167 -3.5 28.5s-8.16602 9.16602 -17.499 14.499l-45 24l5 75c9.33301 1.33301 16 2.66602 20 3.99902l78.5 14c45 8 82.5 12.667 112.5 14c7.33301 -16.667 13 -36 17 -58v-252
c0 -29.333 0.833008 -50 2.5 -62s7 -21.167 16 -27.5s24.5 -9.5 46.5 -9.5c32 0 63 5.66699 93 17v218c0 14.667 -1 24.167 -3 28.5s-7.33301 9.16602 -16 14.499l-44 24l4 75l126.5 23c30.333 5.33301 58.166 8.33301 83.499 9c7.33301 -16.667 13 -36 17 -58v-328
c0 -12 1 -20.333 3 -25s6.66699 -9.33398 14 -14.001l40 -23l-3 -62c-28.667 -7.33301 -61.667 -13.833 -99 -19.5s-72 -9.16699 -104 -10.5c-2.66699 8 -5.66699 18 -9 30c-0.666992 5.33301 -2.33398 11.666 -5.00098 18.999h-3
c-27.333 -16 -56.166 -28.833 -86.499 -38.5s-57.833 -14.5 -82.5 -14.5c-53.333 0 -93 15.833 -119 47.5zM129 720.005l306 -12v-90l-306 -9v111z" />
    <glyph glyph-name="Uring" unicode="&#x16e;" horiz-adv-x="753" 
d="M148.5 64.5c-45.667 51.667 -68.501 132.83 -68.501 243.497v197c0 17.333 -1.16699 28.833 -3.5 34.5s-8.83301 10.834 -19.5 15.501l-32 19l3 100h312l5 -99l-83 -23v-205c0 -69.333 10 -124 30 -164s54.333 -60 103 -60c16 0 31.5 2.33301 46.5 7s27.833 11 38.5 19
c6.66699 15.333 11.334 35.833 14.001 61.5s4 60.167 4 103.5v191c0 17.333 -1.33301 28.833 -4 34.5s-9.66699 10.834 -21 15.501l-49 28l5 91h297l5 -108l-52 -14v-226c0 -107.333 -27.5 -190.666 -82.5 -249.999s-132.5 -89 -232.5 -89
c-98 0 -169.833 25.833 -215.5 77.5zM292.999 758.996c-19.333 15.333 -29 39.666 -29 72.999c0 30.667 11.333 55.334 34 74.001s52.667 28 90 28c80.667 0 121 -32.333 121 -97c0 -32 -10.833 -56.833 -32.5 -74.5s-52.167 -26.5 -91.5 -26.5
c-42 0 -72.667 7.66699 -92 23zM418.999 793.996c4 17.333 6 29.667 6 37c0 30.667 -14 46 -42 46c-14 0 -23.667 -0.666992 -29 -2c-4 -9.33301 -6 -21 -6 -35c0 -16 3.5 -28.333 10.5 -37s17.167 -13 30.5 -13s23.333 1.33301 30 4z" />
    <glyph glyph-name="uring" unicode="&#x16f;" horiz-adv-x="612" 
d="M87 33.5c-26 31.667 -39 79.5049 -39 143.505v179c0 14.667 -1.16699 24.167 -3.5 28.5s-8.16602 9.16602 -17.499 14.499l-45 24l5 75c9.33301 1.33301 16 2.66602 20 3.99902l78.5 14c45 8 82.5 12.667 112.5 14c7.33301 -16.667 13 -36 17 -58v-252
c0 -29.333 0.833008 -50 2.5 -62s7 -21.167 16 -27.5s24.5 -9.5 46.5 -9.5c32 0 63 5.66699 93 17v218c0 14.667 -1 24.167 -3 28.5s-7.33301 9.16602 -16 14.499l-44 24l4 75l126.5 23c30.333 5.33301 58.166 8.33301 83.499 9c7.33301 -16.667 13 -36 17 -58v-328
c0 -12 1 -20.333 3 -25s6.66699 -9.33398 14 -14.001l40 -23l-3 -62c-28.667 -7.33301 -61.667 -13.833 -99 -19.5s-72 -9.16699 -104 -10.5c-2.66699 8 -5.66699 18 -9 30c-0.666992 5.33301 -2.33398 11.666 -5.00098 18.999h-3
c-27.333 -16 -56.166 -28.833 -86.499 -38.5s-57.833 -14.5 -82.5 -14.5c-53.333 0 -93 15.833 -119 47.5zM189 606.005c-19.333 15.333 -29 39.666 -29 72.999c0 30.667 11.333 55.334 34 74.001s52.667 28 90 28c80.667 0 121 -32.333 121 -97
c0 -32 -10.833 -56.833 -32.5 -74.5s-52.167 -26.5 -91.5 -26.5c-42 0 -72.667 7.66699 -92 23zM315 641.005c4 17.333 6 29.667 6 37c0 30.667 -14 46 -42 46c-14 0 -23.667 -0.666992 -29 -2c-4 -9.33301 -6 -21 -6 -35c0 -16 3.5 -28.333 10.5 -37s17.167 -13 30.5 -13
s23.333 1.33301 30 4z" />
    <glyph glyph-name="Uhungarumlaut" unicode="&#x170;" horiz-adv-x="753" 
d="M148.5 64.5c-45.667 51.667 -68.501 132.83 -68.501 243.497v197c0 17.333 -1.16699 28.833 -3.5 34.5s-8.83301 10.834 -19.5 15.501l-32 19l3 100h312l5 -99l-83 -23v-205c0 -69.333 10 -124 30 -164s54.333 -60 103 -60c16 0 31.5 2.33301 46.5 7s27.833 11 38.5 19
c6.66699 15.333 11.334 35.833 14.001 61.5s4 60.167 4 103.5v191c0 17.333 -1.33301 28.833 -4 34.5s-9.66699 10.834 -21 15.501l-49 28l5 91h297l5 -108l-52 -14v-226c0 -107.333 -27.5 -190.666 -82.5 -249.999s-132.5 -89 -232.5 -89
c-98 0 -169.833 25.833 -215.5 77.5zM292.999 907.996h161v-41l-170 -132h-86zM509.999 907.996h161v-41l-169 -132h-87z" />
    <glyph glyph-name="uhungarumlaut" unicode="&#x171;" horiz-adv-x="612" 
d="M87 33.5c-26 31.667 -39 79.5049 -39 143.505v179c0 14.667 -1.16699 24.167 -3.5 28.5s-8.16602 9.16602 -17.499 14.499l-45 24l5 75c9.33301 1.33301 16 2.66602 20 3.99902l78.5 14c45 8 82.5 12.667 112.5 14c7.33301 -16.667 13 -36 17 -58v-252
c0 -29.333 0.833008 -50 2.5 -62s7 -21.167 16 -27.5s24.5 -9.5 46.5 -9.5c32 0 63 5.66699 93 17v218c0 14.667 -1 24.167 -3 28.5s-7.33301 9.16602 -16 14.499l-44 24l4 75l126.5 23c30.333 5.33301 58.166 8.33301 83.499 9c7.33301 -16.667 13 -36 17 -58v-328
c0 -12 1 -20.333 3 -25s6.66699 -9.33398 14 -14.001l40 -23l-3 -62c-28.667 -7.33301 -61.667 -13.833 -99 -19.5s-72 -9.16699 -104 -10.5c-2.66699 8 -5.66699 18 -9 30c-0.666992 5.33301 -2.33398 11.666 -5.00098 18.999h-3
c-27.333 -16 -56.166 -28.833 -86.499 -38.5s-57.833 -14.5 -82.5 -14.5c-53.333 0 -93 15.833 -119 47.5zM189 755.005h161v-41l-170 -132h-86zM406 755.005h161v-41l-169 -132h-87z" />
    <glyph glyph-name="Uogonek" unicode="&#x172;" horiz-adv-x="753" 
d="M333 -200.5c-28.667 17.667 -43 44.832 -43 81.499c0 38.667 16.667 74 50 106c-89.333 4 -155 32.167 -197 84.5s-63 131.166 -63 236.499v197c0 17.333 -1.16699 28.833 -3.5 34.5s-8.83301 10.834 -19.5 15.501l-32 19l3 100h312l5 -99l-83 -23v-205
c0 -69.333 10 -124 30 -164s54.333 -60 103 -60c16 0 31.5 2.33301 46.5 7s27.833 11 38.5 19c6.66699 15.333 11.334 35.833 14.001 61.5s4 60.167 4 103.5v191c0 17.333 -1.33301 28.833 -4 34.5s-9.66699 10.834 -21 15.501l-49 28l5 91h297l5 -108l-52 -14v-226
c0 -140 -46.667 -239 -140 -297l-47 -27c-42.667 -23.333 -69.334 -39 -80.001 -47c-2.66699 -6.66699 -4 -16 -4 -28c0 -48 28.333 -72 85 -72c14.667 0 31.334 2.33301 50.001 7l12 -60c-36.667 -19.333 -76.334 -29 -119.001 -29c-40 0 -74.333 8.83301 -103 26.5z" />
    <glyph glyph-name="uogonek" unicode="&#x173;" horiz-adv-x="612" 
d="M364.5 -200.5c-29 17.667 -43.501 44.5059 -43.501 80.5059c0 23.333 6.16699 46.166 18.5 68.499s28.833 40.166 49.5 53.499l-9 37h-5c-27.333 -16 -56.166 -28.833 -86.499 -38.5s-57.833 -14.5 -82.5 -14.5c-53.333 0 -93 15.833 -119 47.5s-39 79.5 -39 143.5v179
c0 14.667 -1.16699 24.167 -3.5 28.5s-8.16602 9.16602 -17.499 14.499l-45 24l5 75c9.33301 1.33301 16 2.66602 20 3.99902l78.5 14c45 8 82.5 12.667 112.5 14c7.33301 -14 13 -33.333 17 -58v-252c0 -29.333 0.833008 -50 2.5 -62s7 -21.167 16 -27.5
s24.5 -9.5 46.5 -9.5c28 0 59 5.66699 93 17v218c0 14.667 -1 24.167 -3 28.5s-7.33301 9.16602 -16 14.499l-44 24l4 75l126.5 23c30.333 5.33301 58.166 8.33301 83.499 9c7.33301 -14 13 -33.333 17 -58v-328c0 -12 1 -20.333 3 -25s6.66699 -9.33398 14 -14.001l40 -23
l-1 -57c-72 -22.667 -123 -44.334 -153 -65.001c-3.33301 -13.333 -5 -24.666 -5 -33.999c0 -47.333 28.667 -71 86 -71c14.667 0 30.667 2.33301 48 7l13 -60c-36.667 -19.333 -76.667 -29 -120 -29c-38.667 0 -72.5 8.83301 -101.5 26.5z" />
    <glyph glyph-name="Wcircumflex" unicode="&#x174;" horiz-adv-x="1092" 
d="M59 557l-34 46.999l4 70h287l6 -95l-72 -19l124 -387l99 308l-44 129l4 64h266l6 -95l-66 -19l123 -387l115 354c2 5.33301 3 10 3 14c0 8.66699 -4.33301 14.334 -13 17.001l-68 28l6 88h262l5 -85l-41 -56l-210 -537l-175 -17l-105 306l-108 -289l-185 -17z
M492 907.999h149l125 -173h-83l-117 73l-116 -73h-83z" />
    <glyph glyph-name="wcircumflex" unicode="&#x175;" horiz-adv-x="812" 
d="M20 386c-7.33301 18 -12.333 29.668 -15 35.001s-7.66699 12.666 -15 21.999l-17 22l5 58h253l10 -85l-55 -13l68 -243l99 333l103 14l114 -356l64 230c1.33301 4 2 7 2 9c0 6 -3 10 -9 12l-48 20l10 79h190l10 -78l-172 -450l-144 -11l-83 278l-91 -267l-144 -11z
M340 756.001h149l125 -173h-83l-117 73l-116 -73h-83z" />
    <glyph glyph-name="Ycircumflex" unicode="&#x176;" horiz-adv-x="673" 
d="M160 98l86.001 24.001v132l-183 293l-46 57l4 70h293l10 -95l-65 -18l105 -178l87 147c2.66699 4.66699 4 9.33398 4 14.001c0 7.33301 -4 12.666 -12 15.999l-58 26l7 88h252l7 -94l-40 -24l-184 -270v-124c0 -16 1.16699 -26.333 3.5 -31
s8.16602 -9.33398 17.499 -14.001l62 -37l-4 -80h-341zM285.001 908.001h149l125 -173h-83l-117 73l-116 -73h-83z" />
    <glyph glyph-name="ycircumflex" unicode="&#x177;" horiz-adv-x="537" 
d="M51 -105l111 109.001l-145 382c-7.33301 18 -12.333 29.667 -15 35s-7.66699 12.666 -15 21.999l-17 22l5 58h256l10 -85l-58 -14l82 -251l92 230c1.33301 4 2 7 2 9c0 6 -2.66699 10 -8 12l-47 20l9 79h190l9 -81l-128 -279c-46 -100.667 -84 -179.667 -114 -237
s-60.333 -109 -91 -155c-48 32 -90.667 73.333 -128 124zM197 756.001h149l125 -173h-83l-117 73l-116 -73h-83z" />
    <glyph glyph-name="Ydieresis" unicode="&#x178;" horiz-adv-x="673" 
d="M160 98l86.001 24.001v132l-183 293l-46 57l4 70h293l10 -95l-65 -18l105 -178l87 147c2.66699 4.66699 4 9.33398 4 14.001c0 7.33301 -4 12.666 -12 15.999l-58 26l7 88h252l7 -94l-40 -24l-184 -270v-124c0 -16 1.16699 -26.333 3.5 -31
s8.16602 -9.33398 17.499 -14.001l62 -37l-4 -80h-341zM153.001 882.001l141 38l34 -125l-141 -38zM390.001 882.001l140 38l34 -125l-140 -38z" />
    <glyph glyph-name="Zacute" unicode="&#x179;" horiz-adv-x="625" 
d="M28 124l313 417.001l-141 -10l-79 -86l-79 15l27 214h502l10 -114l-322 -427l193 12l70 89l84 -19c-11.333 -98.667 -20.333 -170.334 -27 -215.001h-544zM352 908.001h180v-41l-188 -132h-87z" />
    <glyph glyph-name="zacute" unicode="&#x17a;" horiz-adv-x="512" 
d="M25 103l259 305.001l-121 -9l-51 -68l-67 11c5.33301 77.333 10.666 137.666 15.999 180.999h403l14 -118l-240 -290l126 9l59 70l69 -14c-3.33301 -50.667 -9.66602 -110.667 -18.999 -180h-439zM294 756.001h180v-41l-188 -132h-87z" />
    <glyph glyph-name="Zdotaccent" unicode="&#x17b;" horiz-adv-x="625" 
d="M28 124l313 417.001l-141 -10l-79 -86l-79 15l27 214h502l10 -114l-322 -427l193 12l70 89l84 -19c-11.333 -98.667 -20.333 -170.334 -27 -215.001h-544zM230 876.001l141 38l34 -125l-141 -38z" />
    <glyph glyph-name="zdotaccent" unicode="&#x17c;" horiz-adv-x="512" 
d="M25 103l259 305.001l-121 -9l-51 -68l-67 11c5.33301 77.333 10.666 137.666 15.999 180.999h403l14 -118l-240 -290l126 9l59 70l69 -14c-3.33301 -50.667 -9.66602 -110.667 -18.999 -180h-439zM172 724.001l141 38l34 -125l-141 -38z" />
    <glyph glyph-name="Zcaron" unicode="&#x17d;" horiz-adv-x="625" 
d="M28 124l313 417.001l-141 -10l-79 -86l-79 15l27 214h502l10 -114l-322 -427l193 12l70 89l84 -19c-11.333 -98.667 -20.333 -170.334 -27 -215.001h-544zM126 908.001h83l117 -73l116 73h83l-125 -173h-149z" />
    <glyph glyph-name="zcaron" unicode="&#x17e;" horiz-adv-x="512" 
d="M25 103l259 305.001l-121 -9l-51 -68l-67 11c5.33301 77.333 10.666 137.666 15.999 180.999h403l14 -118l-240 -290l126 9l59 70l69 -14c-3.33301 -50.667 -9.66602 -110.667 -18.999 -180h-439zM68 756.001h83l117 -73l116 73h83l-125 -173h-149z" />
    <glyph glyph-name="florin" unicode="&#x192;" horiz-adv-x="556" 
d="M-43 -153l43.001 135.999c28.667 -8 53.5 -13.333 74.5 -16s42.167 -3.66699 63.5 -3l52 370l-71 1l14 98l72 4l9 65c8 60.667 31.833 107.834 71.5 141.501s90.5 50.5 152.5 50.5c41.333 0 85.666 -4.33301 132.999 -13l-42 -136c-29.333 8 -54.5 13.333 -75.5 16
s-41.833 3.66699 -62.5 3l-18 -118l116 6l-18 -123l-113 2l-44 -307c-8 -60 -31.833 -106.833 -71.5 -140.5s-90.5 -50.5 -152.5 -50.5c-42 0 -86.333 4.66699 -133 14z" />
    <glyph glyph-name="Scommaaccent" unicode="&#x218;" horiz-adv-x="571" 
d="M28 22c3.33301 66 8.66504 127.33 15.998 183.997l77 15l50 -85c40 -14 75.333 -21 106 -21c10.667 0 33.334 3 68.001 9c1.33301 13.333 2 22.333 2 27c0 16 -2.66699 28.167 -8 36.5s-17 17.666 -35 27.999s-50.333 25.833 -97 46.5
c-57.333 28 -98.666 58.167 -123.999 90.5s-38 70.5 -38 114.5c0 68.667 23.333 122.334 70 161.001s110.667 58 192 58c39.333 0 78.5 -3.83301 117.5 -11.5s73.167 -18.167 102.5 -31.5c-1.33301 -37.333 -4.33301 -83.666 -9 -138.999l-3 -43l-73 -11l-76 97
c-24 7.33301 -54 11 -90 11c-22.667 0 -39.667 -2 -51 -6c-3.33301 -13.333 -5 -23.666 -5 -30.999c0 -14.667 3.66699 -27.5 11 -38.5s20.333 -22.333 39 -34s46.334 -26.167 83.001 -43.5c53.333 -25.333 93.666 -47.666 120.999 -66.999s46.5 -39.5 57.5 -60.5
s16.5 -46.5 16.5 -76.5c0 -66 -26.333 -118 -79 -156s-125.334 -57 -218.001 -57c-73.333 0 -147.666 11.333 -222.999 34zM205.999 -54.0029h179v-41l-188 -132h-86z" />
    <glyph glyph-name="scommaaccent" unicode="&#x219;" horiz-adv-x="461" 
d="M28 11c4 65.333 8.33301 113.671 13 145.004l57 11l63 -67c22 -6.66699 46.667 -10 74 -10c15.333 0 27.333 1 36 3c2 5.33301 3 12.666 3 21.999c0 8 -1.83301 14.667 -5.5 20s-11.834 11.666 -24.501 18.999s-34.667 18.666 -66 33.999
c-39.333 20.667 -69.333 39.167 -90 55.5s-35.5 33.166 -44.5 50.499s-13.5 38 -13.5 62c0 53.333 19.833 95.666 59.5 126.999s93.5 47 161.5 47c28 0 57.5 -3.16699 88.5 -9.5s58.833 -14.833 83.5 -25.5c0 -43.333 -3 -91.666 -9 -144.999l-52 -8l-67 72
c-17.333 5.33301 -42.666 8 -75.999 8c-5.33301 0 -16 -0.666992 -32 -2c-2 -4 -3 -10.333 -3 -19c0 -9.33301 2.66699 -17.5 8 -24.5s14.833 -14.667 28.5 -23s35.5 -20.166 65.5 -35.499c44 -21.333 77.167 -39.833 99.5 -55.5s38 -31.5 47 -47.5s13.5 -35.333 13.5 -58
c0 -54.667 -20.833 -97.334 -62.5 -128.001s-99.167 -46 -172.5 -46c-52.667 0 -113.667 9.33301 -183 28zM134 -62.9951h179v-41l-188 -132h-86z" />
    <glyph glyph-name="uni021A" unicode="&#x21a;" horiz-adv-x="699" 
d="M172 98l87 24.001v433l-84 -7l-74 -89l-73 6c0 55.333 2.66699 125 8 209h626c5.33301 -84 8 -153.667 8 -209l-72 -6l-75 89l-82 7v-393c0 -16 1 -26.333 3 -31s7.66699 -9.33398 17 -14.001l62 -37l-4 -80h-342zM270 -53.999h179v-41l-188 -132h-86z" />
    <glyph glyph-name="uni021B" unicode="&#x21b;" horiz-adv-x="416" 
d="M92 30.5c-28 29 -42 73.166 -42 132.499v243h-70v73l180 164l58 -7v-113h168v-118h-168v-206c0 -32 4.5 -53.333 13.5 -64s26.5 -16 52.5 -16c22 0 52.667 3 92 9l12 -102c-24 -11.333 -50.833 -20.666 -80.5 -27.999s-58.167 -11 -85.5 -11
c-58.667 0 -102 14.5 -130 43.5zM143 -59.001h179v-41l-188 -132h-86z" />
    <glyph glyph-name="circumflex" unicode="&#x2c6;" horiz-adv-x="570" 
d="M210 756h149l125 -173h-83l-117 73l-116 -73h-83z" />
    <glyph glyph-name="caron" unicode="&#x2c7;" horiz-adv-x="570" 
d="M83 756h83l117 -73l116 73h83l-125 -173h-149z" />
    <glyph glyph-name="breve" unicode="&#x2d8;" horiz-adv-x="570" 
d="M156.5 622c-24.333 26 -36.499 63.001 -36.499 111.001c0 10 0.333008 17.667 1 23h56c8.66699 -22.667 22.167 -39.834 40.5 -51.501s42.833 -17.5 73.5 -17.5c31.333 0 55.166 6 71.499 18s27.166 29 32.499 51h57c-4 -54 -23.167 -96.333 -57.5 -127
s-78.166 -46 -131.499 -46c-46.667 0 -82.167 13 -106.5 39z" />
    <glyph glyph-name="dotaccent" unicode="&#x2d9;" horiz-adv-x="570" 
d="M200 713l141 38l34 -125l-141 -38z" />
    <glyph glyph-name="ring" unicode="&#x2da;" horiz-adv-x="570" 
d="M185 606c-19.333 15.333 -29 39.666 -29 72.999c0 30.667 11.333 55.334 34 74.001s52.667 28 90 28c80.667 0 121 -32.333 121 -97c0 -32 -10.833 -56.833 -32.5 -74.5s-52.167 -26.5 -91.5 -26.5c-42 0 -72.667 7.66699 -92 23zM311 641c4 17.333 6 29.667 6 37
c0 30.667 -14 46 -42 46c-14 0 -23.667 -0.666992 -29 -2c-4 -9.33301 -6 -21 -6 -35c0 -16 3.5 -28.333 10.5 -37s17.167 -13 30.5 -13s23.333 1.33301 30 4z" />
    <glyph glyph-name="ogonek" unicode="&#x2db;" horiz-adv-x="570" 
d="M181 -200.5c-28.667 17.667 -43 45.167 -43 82.5c0 42 20 80.333 60 115s95 60.667 165 78l44 -51c-70 -20.667 -119.333 -43.667 -148 -69c-2.66699 -5.33301 -4 -14.333 -4 -27c0 -25.333 7 -43.833 21 -55.5s35.333 -17.5 64 -17.5c14.667 0 31.334 2.33301 50.001 7
l12 -60c-38.667 -19.333 -78.334 -29 -119.001 -29c-39.333 0 -73.333 8.83301 -102 26.5z" />
    <glyph glyph-name="tilde" unicode="&#x2dc;" horiz-adv-x="570" 
d="M258 619c-13.333 4.66699 -26.667 8.83203 -40 12.499s-24.333 5.5 -33 5.5c-4 -2 -8.5 -5.5 -13.5 -10.5s-10.5 -11.833 -16.5 -20.5h-55c10.667 47.333 24.834 82 42.501 104s40.167 33 67.5 33c13.333 0 27.166 -1.83301 41.499 -5.5s31.5 -9.16699 51.5 -16.5
c3.33301 -1.33301 13.333 -4.66602 30 -9.99902s31.334 -8 44.001 -8c3.33301 2 7.33301 5.66699 12 11l17 20h55c-10.667 -47.333 -24.834 -82 -42.501 -104s-40.167 -33 -67.5 -33c-20.667 0 -51.667 7.33301 -93 22z" />
    <glyph glyph-name="hungarumlaut" unicode="&#x2dd;" horiz-adv-x="570" 
d="M69 756h161v-41l-170 -132h-86zM286 756h161v-41l-169 -132h-87z" />
    <glyph glyph-name="gravecomb" unicode="&#x300;" 
d="M-496 715v41h180l95 -173h-86z" />
    <glyph glyph-name="acutecomb" unicode="&#x301;" 
d="M-258 756h180v-41l-188 -132h-87z" />
    <glyph glyph-name="uni0302" unicode="&#x302;" 
d="M-337 756h149l125 -173h-83l-117 73l-116 -73h-83z" />
    <glyph glyph-name="tildecomb" unicode="&#x303;" 
d="M-279 619c-13.333 4.66699 -26.667 8.83203 -40 12.499s-24.333 5.5 -33 5.5c-4 -2 -8.5 -5.5 -13.5 -10.5s-10.5 -11.833 -16.5 -20.5h-55c10.667 47.333 24.834 82 42.501 104s40.167 33 67.5 33c13.333 0 27.166 -1.83301 41.499 -5.5s31.5 -9.16699 51.5 -16.5
c3.33301 -1.33301 13.333 -4.66602 30 -9.99902s31.334 -8 44.001 -8c3.33301 2 7.33301 5.66699 12 11l17 20h55c-10.667 -47.333 -24.834 -82 -42.501 -104s-40.167 -33 -67.5 -33c-20.667 0 -51.667 7.33301 -93 22z" />
    <glyph glyph-name="uni0304" unicode="&#x304;" 
d="M-410 721l306 -12v-90l-306 -9v111z" />
    <glyph glyph-name="uni0306" unicode="&#x306;" 
d="M-366.5 622c-24.333 26 -36.499 63.001 -36.499 111.001c0 10 0.333008 17.667 1 23h56c8.66699 -22.667 22.167 -39.834 40.5 -51.501s42.833 -17.5 73.5 -17.5c31.333 0 55.166 6 71.499 18s27.166 29 32.499 51h57c-4 -54 -23.167 -96.333 -57.5 -127
s-78.166 -46 -131.499 -46c-46.667 0 -82.167 13 -106.5 39z" />
    <glyph glyph-name="uni0307" unicode="&#x307;" 
d="M-277 713l141 38l34 -125l-141 -38z" />
    <glyph glyph-name="uni0308" unicode="&#x308;" 
d="M-443 713l141 38l34 -125l-141 -38zM-206 713l140 38l34 -125l-140 -38z" />
    <glyph glyph-name="uni030A" unicode="&#x30a;" 
d="M-308 606c-19.333 15.333 -29 39.666 -29 72.999c0 30.667 11.333 55.334 34 74.001s52.667 28 90 28c80.667 0 121 -32.333 121 -97c0 -32 -10.833 -56.833 -32.5 -74.5s-52.167 -26.5 -91.5 -26.5c-42 0 -72.667 7.66699 -92 23zM-182 641c4 17.333 6 29.667 6 37
c0 30.667 -14 46 -42 46c-14 0 -23.667 -0.666992 -29 -2c-4 -9.33301 -6 -21 -6 -35c0 -16 3.5 -28.333 10.5 -37s17.167 -13 30.5 -13s23.333 1.33301 30 4z" />
    <glyph glyph-name="uni030B" unicode="&#x30b;" 
d="M-414 756h161v-41l-170 -132h-86zM-197 756h161v-41l-169 -132h-87z" />
    <glyph glyph-name="uni030C" unicode="&#x30c;" 
d="M-458 756h83l117 -73l116 73h83l-125 -173h-149z" />
    <glyph glyph-name="uni0312" unicode="&#x312;" 
d="M-394 624l188 132h86l-95 -173h-179v41z" />
    <glyph glyph-name="uni0326" unicode="&#x326;" 
d="M-372 -54h179v-41l-188 -132h-86z" />
    <glyph glyph-name="uni0327" unicode="&#x327;" 
d="M-334 -190c24 0 46 2 66 6s34.667 9.33301 44 16c1.33301 8 2 14.333 2 19c0 11.333 -5 19.333 -15 24s-31.333 9 -64 13v20l33 113h78l-39 -56c16 -3.33301 34.667 -8 56 -14c20 -7.33301 35 -16 45 -26s15 -24 15 -42c0 -35.333 -18.833 -62.5 -56.5 -81.5
s-89.167 -28.5 -154.5 -28.5z" />
    <glyph glyph-name="uni0328" unicode="&#x328;" 
d="M-291 -200.5c-28.667 17.667 -43 45.167 -43 82.5c0 42 20 80.333 60 115s95 60.667 165 78l44 -51c-70 -20.667 -119.333 -43.667 -148 -69c-2.66699 -5.33301 -4 -14.333 -4 -27c0 -25.333 7 -43.833 21 -55.5s35.333 -17.5 64 -17.5c14.667 0 31.334 2.33301 50.001 7
l12 -60c-38.667 -19.333 -78.334 -29 -119.001 -29c-39.333 0 -73.333 8.83301 -102 26.5z" />
    <glyph glyph-name="uni0335" unicode="&#x335;" 
d="M-384 248v44l296 24v-81z" />
    <glyph glyph-name="uni0336" unicode="&#x336;" 
d="M-509 310h418v-62h-418v62z" />
    <glyph glyph-name="uni0337" unicode="&#x337;" 
d="M-401 176l313 272l5 -89l-313 -273z" />
    <glyph glyph-name="uni0338" unicode="&#x338;" 
d="M-64 674h83l-416 -674h-85z" />
    <glyph glyph-name="pi" unicode="&#x3c0;" horiz-adv-x="902" 
d="M577 11.5c-22.667 18.333 -34.002 47.5 -34.002 87.5c0 11.333 1 23 3 35l41 299h-158l-52 -433h-188l71 433h-77c-4 -22 -6 -44.667 -6 -68c0 -8.66699 0.666992 -22.334 2 -41.001c-53.333 -12.667 -100.666 -20.667 -141.999 -24c-1.33301 12 -2 29 -2 51
c0 71.333 19.333 124.833 58 160.5s97.334 53.834 176.001 54.501h589l-19 -133h-78l-36 -252c-2 -12 -3 -23.333 -3 -34c0 -19.333 5 -32.333 15 -39s28 -10 54 -10l-14 -97c-39.333 -11.333 -75 -17 -107 -17c-39.333 0 -70.333 9.16699 -93 27.5z" />
    <glyph glyph-name="uni05B0" unicode="&#x5b0;" 
d="M244 -98l72 42l40 -67l-71 -42zM244 -218l72 42l40 -67l-71 -42z" />
    <glyph glyph-name="uni05B1" unicode="&#x5b1;" 
d="M110 -98l72 42l40 -67l-71 -42zM244 -98l72 42l40 -67l-71 -42zM378 -98l72 42l40 -67l-71 -42zM178 -218l72 42l40 -67l-71 -42zM378 -218l72 42l40 -67l-71 -42z" />
    <glyph glyph-name="uni05B2" unicode="&#x5b2;" 
d="M373 -98l72 42l40 -67l-71 -42zM116 -74h212v-58l-212 -8v66zM373 -218l72 42l40 -67l-71 -42z" />
    <glyph glyph-name="uni05B3" unicode="&#x5b3;" 
d="M371 -98l72 42l40 -67l-71 -42zM197 -137l-80 -3v66h212v-58l-82 -3l6 -111h-62zM371 -218l72 42l40 -67l-71 -42z" />
    <glyph glyph-name="uni05B4" unicode="&#x5b4;" 
d="M232 -104l88 51l47 -80l-87 -51z" />
    <glyph glyph-name="uni05B5" unicode="&#x5b5;" 
d="M177 -98l72 42l40 -67l-71 -42zM311 -98l72 42l40 -67l-71 -42z" />
    <glyph glyph-name="uni05B6" unicode="&#x5b6;" 
d="M177 -98l72 42l40 -67l-71 -42zM311 -98l72 42l40 -67l-71 -42zM245 -218l72 42l40 -67l-71 -42z" />
    <glyph glyph-name="uni05B7" unicode="&#x5b7;" 
d="M189 -66h222v-61l-222 -8v69z" />
    <glyph glyph-name="uni05B8" unicode="&#x5b8;" 
d="M274 -132l-85 -3v69h222v-61l-84 -3l6 -112h-66z" />
    <glyph glyph-name="uni05B9" unicode="&#x5b9;" 
d="M238 664l80 46l44 -73l-78 -46z" />
    <glyph glyph-name="uni05BA" unicode="&#x5ba;" 
d="M238 664l80 46l44 -73l-78 -46z" />
    <glyph glyph-name="uni05BB" unicode="&#x5bb;" 
d="M244 -98l72 42l40 -67l-71 -42zM330 -175l72 42l40 -67l-71 -42zM416 -252l72 42l40 -67l-71 -42z" />
    <glyph glyph-name="uni05BC" unicode="&#x5bc;" 
d="M238 289l80 46l44 -74l-78 -46z" />
    <glyph glyph-name="uni05BE" unicode="&#x5be;" horiz-adv-x="447" 
d="M73 554h69l240 -30v-39l-10 -100h-312z" />
    <glyph glyph-name="uni05C1" unicode="&#x5c1;" 
d="M238 664l80 46l44 -73l-78 -46z" />
    <glyph glyph-name="uni05C2" unicode="&#x5c2;" 
d="M238 664l80 46l44 -73l-78 -46z" />
    <glyph glyph-name="uni05C7" unicode="&#x5c7;" 
d="M274 -132l-85 -3v69h222v-61l-84 -3l6 -112h-66z" />
    <glyph glyph-name="uni05D0" unicode="&#x5d0;" horiz-adv-x="614" 
d="M194 289l7.00195 -278.998l-106 -17h-46v57c5.33301 104 13.666 196.667 24.999 278c2.66699 16.667 4 30.334 4 41.001c0 8.66699 -1.33301 16 -4 22s-7.66699 14 -15 24l-21 29c22.667 59.333 42 101.666 58 126.999l41 6l78 -82l200 -208
c13.333 54.667 20 86.334 20 95.001c0 5.33301 -1.33301 9.66602 -4 12.999s-8 7.66602 -16 12.999l-65 43c0.666992 7.33301 9.66699 27 27 59s30.666 54.333 39.999 67h29c6 -2.66699 22.333 -11.667 49 -27c28.667 -16 49.334 -33.5 62.001 -52.5s19 -40.833 19 -65.5
c0 -36.667 -25.667 -114.334 -77 -233.001l67 -68c-16.667 -50 -35.334 -97.333 -56.001 -142h-38z" />
    <glyph glyph-name="uni05D1" unicode="&#x5d1;" horiz-adv-x="516" 
d="M37 167l271.002 -0.000976562v70c0 18 -0.333008 35 -1 51c-1.33301 24 -3.5 42.333 -6.5 55s-9.33301 22.834 -19 30.501s-24.834 11.5 -45.501 11.5h-121c-10.667 0 -34.334 5.66699 -71.001 17c4.66699 61.333 13.667 119.333 27 174l68 12l18 -20
c6 -7.33301 11.5 -11.833 16.5 -13.5s14.167 -2.5 27.5 -2.5h68c44 0 77.833 -6.33301 101.5 -19s40.5 -33.667 50.5 -63s15 -71.333 15 -126c0 -42 -2.66699 -101 -8 -177h70l-9 -167h-461z" />
    <glyph glyph-name="uni05D2" unicode="&#x5d2;" horiz-adv-x="365" 
d="M17 164l177 38.001l-10 75c-4 27.333 -7.5 46.333 -10.5 57s-7.33301 18.667 -13 24s-15.834 11.666 -30.501 18.999l-85 40c14.667 54.667 31.334 106.334 50.001 155.001l26 8c52.667 -20 89.334 -35.333 110.001 -46s36.5 -21.834 47.5 -33.501s19.167 -27 24.5 -46
s9.33301 -45.833 12 -80.5c6 -66 11.667 -184.667 17 -356l-82 -29h-28c-5.33301 38 -9 64.667 -11 80c-44 -26.667 -99.333 -55.667 -166 -87h-35c1.33301 61.333 3.66602 122 6.99902 182z" />
    <glyph glyph-name="uni05D3" unicode="&#x5d3;" horiz-adv-x="527" 
d="M269 56c0 97.333 1.66797 207 5.00098 329h-185c-10.667 0 -34.334 5.66699 -71.001 17c4 55.333 13 113.333 27 174l68 12l18 -20c6 -7.33301 11.5 -11.833 16.5 -13.5s14.167 -2.5 27.5 -2.5h335l-26 -167h-81l10 -377l-105 -20h-39v68z" />
    <glyph glyph-name="uni05D4" unicode="&#x5d4;" horiz-adv-x="614" 
d="M428 49c0 110 -1.66504 194 -4.99805 252c-1.33301 22.667 -4.5 40 -9.5 52s-12.833 20.333 -23.5 25s-26.334 7 -47.001 7h-227c-10.667 0 -34.334 5.66699 -71.001 17c4.66699 61.333 13.667 119.333 27 174l68 12l18 -20c6 -7.33301 11.5 -11.833 16.5 -13.5
s14.167 -2.5 27.5 -2.5h180c48.667 0 85.5 -6.83301 110.5 -20.5s42.5 -37 52.5 -70s15 -81.167 15 -144.5c0 -44.667 -1 -96.667 -3 -156s-4.66699 -110.333 -8 -153l-78 -20h-42c0 24.667 -0.333008 45 -1 61zM66.002 273l102 19l41 1l-1 -285l-105 -20h-42z" />
    <glyph glyph-name="uni05D5" unicode="&#x5d5;" horiz-adv-x="324" 
d="M135 287c0 26.667 -0.666016 44.499 -1.99902 53.499s-4.33301 15.833 -9 20.5s-14.667 11 -30 19l-78 37c11.333 63.333 24.333 114 39 152l29 12c55.333 -21.333 94.666 -38.666 117.999 -51.999c28 -14.667 47.333 -33.5 58 -56.5s16 -55.833 16 -98.5
c0 -50.667 -4.33301 -172.667 -13 -366l-89 -21h-39v300z" />
    <glyph glyph-name="uni05D6" unicode="&#x5d6;" horiz-adv-x="378" 
d="M124 100c-12.667 113.333 -18.999 196.998 -18.999 250.998v29c-41.333 6.66699 -71 14 -89 22c1.33301 62 10.666 120 27.999 174l68 12l18 -20c6 -7.33301 11.5 -11.833 16.5 -13.5s14.167 -2.5 27.5 -2.5h11c30.667 0 77.667 1.66699 141 5l34 2
c0 -10 -2.66699 -34.167 -8 -72.5s-11 -72.166 -17 -101.499c-18 -2.66699 -45 -5.33398 -81 -8.00098l-27 -2c1.33301 -17.333 4.83301 -39 10.5 -65s9.16699 -42.667 10.5 -50s5.5 -28.166 12.5 -62.499s12.5 -67.166 16.5 -98.499c0.666992 -6.66699 1 -16.667 1 -30
l-1 -57c-6.66699 -3.33301 -20.167 -7.33301 -40.5 -12s-42.5 -8.66699 -66.5 -12h-32c-2 12.667 -6.66699 50 -14 112z" />
    <glyph glyph-name="uni05D7" unicode="&#x5d7;" horiz-adv-x="612" 
d="M429 88c-1.33301 106.667 -3 177.999 -5 213.999c-1.33301 22.667 -4.5 39.834 -9.5 51.501s-13 19.834 -24 24.501s-26.833 7 -47.5 7h-131l1 -377l-103 -18h-38c1.33301 82.667 4.33301 190.667 9 324l1 33c0 15.333 -1.16699 25.5 -3.5 30.5s-7.83301 11.5 -16.5 19.5
l-22 20c2.66699 20 7 40.833 13 62.5s15.333 50.167 28 85.5l32 9l41 -16c6.66699 -2.66699 14.167 -4.33398 22.5 -5.00098s29.5 -1 63.5 -1h140c48.667 0 85.5 -6.83301 110.5 -20.5s42.5 -36.834 52.5 -69.501s15 -80.667 15 -144c0 -45.333 -1 -97.666 -3 -156.999
s-4.66699 -110.333 -8 -153l-78 -21h-39c-0.666992 16 -1 49.667 -1 101z" />
    <glyph glyph-name="uni05D8" unicode="&#x5d8;" horiz-adv-x="577" 
d="M65 364c-1.33301 14.667 -3.16699 24.998 -5.5 30.998s-8.16602 14.667 -17.499 26l-22 27c14 46.667 32.667 89 56 127l28 4c14 -6 31 -16.333 51 -31c20.667 -15.333 34.667 -32.333 42 -51s10.666 -48 9.99902 -88l-7 -244c17.333 1.33301 37.333 4 60 8
s40.667 8 54 12c28 8 49.167 17.333 63.5 28s24.5 24.834 30.5 42.501s9 42.167 9 73.5c0 25.333 -2.16699 42.166 -6.5 50.499s-13.833 13.833 -28.5 16.5l-111 21c8.66699 60.667 20 114.334 34 161.001h30c28 -3.33301 62.667 -10 104 -20c35.333 -8 61 -22.833 77 -44.5
s24 -52.5 24 -92.5c0 -41.333 -7.66699 -100.5 -23 -177.5s-30 -131.167 -44 -162.5c-34 -20.667 -80.833 -39.667 -140.5 -57s-121.167 -29.666 -184.5 -36.999h-49z" />
    <glyph glyph-name="uni05D9" unicode="&#x5d9;" horiz-adv-x="296" 
d="M64 180l35 137.999c4.66699 14.667 7 27 7 37c0 6 -2.16699 11.5 -6.5 16.5s-13.166 11.833 -26.499 20.5l-63 42c16 46 37.667 93.333 65 142l22 7c8 -4 14 -7.33301 18 -10c22.667 -11.333 41.667 -21.666 57 -30.999c33.333 -20 56.666 -39.167 69.999 -57.5
s20 -40.5 20 -66.5s-5.33301 -54 -16 -84c-13.333 -44 -30 -90.667 -50 -140l-104 -25z" />
    <glyph glyph-name="uni05DA" unicode="&#x5da;" horiz-adv-x="484" 
d="M299 289c0 29.333 -1.49902 50.499 -4.49902 63.499s-8.5 21.667 -16.5 26s-21.667 6.5 -41 6.5h-134c-10.667 0 -34.334 5.66699 -71.001 17c4.66699 61.333 13.667 119.333 27 174l68 12l18 -20c6 -7.33301 11.5 -11.833 16.5 -13.5s14.167 -2.5 27.5 -2.5h57
c51.333 0 89.833 -5.16699 115.5 -15.5s43.5 -28.666 53.5 -54.999s15.333 -66.5 16 -120.5l1 -72c0 -138 -3.66699 -276.667 -11 -416l-78 -20h-43z" />
    <glyph glyph-name="uni05DB" unicode="&#x5db;" horiz-adv-x="504" 
d="M42 167h289c0 24.667 -2 69 -6 133c-2 23.333 -5.66699 41 -11 53s-14.166 20.333 -26.499 25s-30.5 7 -54.5 7h-115c-10.667 0 -34.334 5.66699 -71.001 17c4.66699 61.333 13.667 119.333 27 174l68 12l18 -20c6 -7.33301 11.5 -11.833 16.5 -13.5
s14.167 -2.5 27.5 -2.5h90c46 0 80.667 -9.16699 104 -27.5s38.833 -45 46.5 -80s11.5 -82.5 11.5 -142.5c0 -76 -3 -142.667 -9 -200c-3.33301 -36.667 -7.33301 -70.667 -12 -102h-408z" />
    <glyph glyph-name="uni05DC" unicode="&#x5dc;" horiz-adv-x="469" 
d="M63 85c0 34 1.66895 63.332 5.00195 87.999c64.667 34.667 118 65.834 160 93.501s69.667 49.5 83 65.5c0.666992 16 0.166992 27.667 -1.5 35s-5 12.333 -10 15s-13.167 4 -24.5 4c-99.333 0 -157.333 1 -174 3c-26.667 2.66699 -45.834 12.167 -57.501 28.5
s-18.834 43.5 -21.501 81.5c-1.33301 24 -2 47.667 -2 71c0 63.333 1.66699 115 5 155c19.333 7.33301 42 13.833 68 19.5s45 8.5 57 8.5c2.66699 -16 6.33398 -52.667 11.001 -110l3 -41c1.33301 -14.667 3.16602 -25 5.49902 -31s6.33301 -10 12 -12
s15.5 -3.33301 29.5 -4l39 -1c18.667 0 44 -0.666992 76 -2c37.333 -2 65.5 -14.667 84.5 -38s28.5 -56.666 28.5 -99.999c0 -137.333 -113.333 -278.333 -340 -423h-31c-3.33301 35.333 -5 66.666 -5 93.999z" />
    <glyph glyph-name="uni05DD" unicode="&#x5dd;" horiz-adv-x="641" 
d="M84 316l0.00292969 30.002c0 17.333 -1 28.5 -3 33.5s-7.33301 11.5 -16 19.5l-21 20c2.66699 19.333 6.66699 39.333 12 60s14.666 50 27.999 88l32 9l41 -16c6.66699 -2.66699 15.667 -4.16699 27 -4.5s31.333 -0.5 60 -0.5h174c45.333 0 80.166 -6.5 104.499 -19.5
s41.5 -34.833 51.5 -65.5s15 -74.334 15 -131.001c0 -50.667 -0.833008 -111.334 -2.5 -182.001s-3.83398 -123 -6.50098 -157h-500zM466.003 167.002v34c0 42 -1 76 -3 102c-2 24 -5 41.833 -9 53.5s-10.667 19.667 -20 24s-24 6.83301 -44 7.5h-179l10 -221h245z" />
    <glyph glyph-name="uni05DE" unicode="&#x5de;" horiz-adv-x="601" 
d="M40 38c5.33301 41.333 19 120.999 41 238.999c5.33301 25.333 9.33301 46.666 12 63.999c2 12 3 21 3 27c0 5.33301 -1.33301 9.5 -4 12.5s-9 7.5 -19 13.5l-35 21c5.33301 56.667 15.333 109 30 157l23 7l45 -17c26 -10 43.667 -16.167 53 -18.5s19 -3.5 29 -3.5
c9.33301 0 33.333 2.66699 72 8c6.66699 0.666992 20.667 2.33398 42 5.00098s37.666 4 48.999 4c37.333 0 69 -7.16699 95 -21.5s44.333 -35.166 55 -62.499c8.66699 -21.333 14.334 -47 17.001 -77s4 -68.667 4 -116c0 -56.667 -1 -107.667 -3 -153l-11 -127h-271l7 167
h158c0 34 -2.33301 79 -7 135c-2 26 -5.5 45.333 -10.5 58s-13 21.667 -24 27s-27.5 8 -49.5 8c-31.333 0 -70 -2 -116 -6c-4 -38.667 -7.5 -75.5 -10.5 -110.5s-5.83301 -65.167 -8.5 -90.5l-16 -177c-38 -10 -72 -16 -102 -18h-47z" />
    <glyph glyph-name="uni05DF" unicode="&#x5df;" horiz-adv-x="335" 
d="M139 286c0 27.333 -0.499023 45.333 -1.49902 54s-3.83301 15.167 -8.5 19.5s-15 10.5 -31 18.5l-78 38c10.667 63.333 23.667 114.666 39 153.999l29 9c58.667 -20.667 99.667 -37.667 123 -51c20 -10.667 35.167 -22.667 45.5 -36s17.666 -30.833 21.999 -52.5
s6.5 -51.167 6.5 -88.5c0 -38 -1.33301 -106.667 -4 -206s-6 -191.666 -10 -276.999l-96 -16h-34z" />
    <glyph glyph-name="uni05E0" unicode="&#x5e0;" horiz-adv-x="358" 
d="M24 167l160.999 -0.000976562c-2.66699 46 -5 82 -7 108c-2 26.667 -4.16699 45.5 -6.5 56.5s-6.16602 19.5 -11.499 25.5s-15 12.667 -29 20l-88 46c8.66699 30.667 27.334 81.334 56.001 152.001l26 5c50 -21.333 86 -38.666 108 -51.999c20.667 -12 36 -24 46 -36
s17.167 -27.5 21.5 -46.5s7.16602 -46.167 8.49902 -81.5c0.666992 -16.667 1 -47.334 1 -92.001c0 -115.333 -2 -206 -6 -272h-289z" />
    <glyph glyph-name="uni05E1" unicode="&#x5e1;" horiz-adv-x="593" 
d="M70 315c-1.33301 24 -2.83496 41 -4.50195 51s-4 17.833 -7 23.5s-8.5 12.167 -16.5 19.5l-22 22c1.33301 12 5.83301 31 13.5 57s16.834 53.333 27.501 82l31 6l41 -16c6.66699 -2.66699 14 -4.33398 22 -5.00098s28.667 -1 62 -1l118 1c34 0 58 -0.333008 72 -1
c54 -1.33301 92.667 -14.166 116 -38.499s35 -64.5 35 -120.5c0 -44.667 -6.33301 -96.167 -19 -154.5s-28.667 -108.5 -48 -150.5c-72 -50.667 -182 -84.667 -330 -102l-60 -1c-13.333 102 -23.666 211.333 -30.999 328zM328.998 187c39.333 10.667 66.833 26.5 82.5 47.5
s23.5 50.833 23.5 89.5c0 24 -3.16699 40 -9.5 48s-19.833 13 -40.5 15c-10 1.33301 -42 2 -96 2s-86 -0.333008 -96 -1l9 -221c56.667 5.33301 99 12 127 20z" />
    <glyph glyph-name="uni05E2" unicode="&#x5e2;" horiz-adv-x="543" 
d="M491 506.5c13.333 -19.667 19.9971 -47.167 19.9971 -82.5c0 -32.667 -7.66699 -84.334 -23 -155.001s-30.666 -124.334 -45.999 -161.001c-33.333 -30 -86.333 -61.833 -159 -95.5s-149 -61.5 -229 -83.5h-39v159c62 18 112.333 34.333 151 49l-64 216
c-4.66699 16 -9.66699 27.167 -15 33.5s-18.666 15.833 -39.999 28.5l-30 19c16 50 34.333 95.667 55 137l28 7c19.333 -8 34.333 -15 45 -21c30 -14.667 51.5 -32 64.5 -52s23.5 -51 31.5 -93c8.66699 -44 22.334 -121.333 41.001 -232c37.333 16 62.333 36.333 75 61
s19.667 61.334 21 110.001c0 16.667 -1.5 27.834 -4.5 33.501s-10.5 11.5 -22.5 17.5l-58 29c20 58.667 38 106.667 54 144h22c20 -6.66699 36.667 -13 50 -19c34.667 -13.333 58.667 -29.833 72 -49.5z" />
    <glyph glyph-name="uni05E3" unicode="&#x5e3;" horiz-adv-x="532" 
d="M355 -35c-1.33301 164.667 -2.66504 278.335 -3.99805 341.002c-0.666992 28.667 -6.83398 48.834 -18.501 60.501s-33.834 20.5 -66.501 26.5l-95 18c-2.66699 -34.667 -4 -56.667 -4 -66c0 -10.667 1.33301 -17.834 4 -21.501s8.66699 -7.5 18 -11.5l53 -26
c-4.66699 -50 -14.667 -99.667 -30 -149c-48 14.667 -84.333 28.167 -109 40.5s-42 26.666 -52 42.999s-15 37.5 -15 63.5c0 29.333 5.5 72 16.5 128s23.167 109 36.5 159l41 9c49.333 -5.33301 114 -16.333 194 -33c54 -11.333 92.333 -28.333 115 -51
s35.667 -57.667 39 -105c2.66699 -27.333 4 -92.333 4 -195c0 -138.667 -1.66699 -247.334 -5 -326.001l-85 -17h-37v112z" />
    <glyph glyph-name="uni05E4" unicode="&#x5e4;" horiz-adv-x="546" 
d="M43 162l330.999 -0.00195312c0.666992 47.333 -1 99 -5 155c-1.33301 20 -3.66602 34.833 -6.99902 44.5s-9 16.834 -17 21.501s-21 8.66699 -39 12c-52 8.66699 -93.333 14.667 -124 18l1 -20c0.666992 -16.667 2.33398 -27.334 5.00098 -32.001s9 -9.33398 19 -14.001
l41 -17c-2.66699 -18.667 -6.83398 -40.667 -12.501 -66s-11.834 -48.333 -18.501 -69c-45.333 12.667 -78.666 23.834 -99.999 33.501s-36.333 20.834 -45 33.501s-14 30.667 -16 54c-1.33301 18.667 0.333984 48.334 5.00098 89.001s12 95 22 163l47 12
c81.333 -7.33301 154.666 -16.333 219.999 -27c42 -7.33301 73.167 -18.833 93.5 -34.5s34.5 -39.667 42.5 -72s12 -79.833 12 -142.5c0 -48 -1.66699 -102.167 -5 -162.5s-7 -107.5 -11 -141.5h-447z" />
    <glyph glyph-name="uni05E5" unicode="&#x5e5;" horiz-adv-x="518" 
d="M459 333c-17.333 -40.667 -48 -103.001 -92 -187.001l108 -195l-83 -100h-36l-286 502l-62 108c25.333 42.667 52 80.334 80 113.001l32 5c22 -31.333 84.333 -140 187 -326c26 70.667 39 113.334 39 128.001c0 5.33301 -1.33301 9.83301 -4 13.5
s-7.66699 8.83398 -15 15.501l-63 47c25.333 51.333 49.333 91.666 72 120.999h29c12 -6.66699 29.333 -17.334 52 -32.001c45.333 -29.333 68 -66 68 -110c0 -28 -8.66699 -62.333 -26 -103z" />
    <glyph glyph-name="uni05E6" unicode="&#x5e6;" horiz-adv-x="542" 
d="M492 364c-16 -43.333 -40.3311 -99.665 -72.998 -168.998l48 -64c-4.66699 -47.333 -10.334 -91 -17.001 -131h-414l13 167l242 -2c-84.667 77.333 -152.334 142.666 -203.001 195.999c-19.333 21.333 -41.333 59.333 -66 114c19.333 40 40.333 73 63 99l41 6l158 -205
l59 -82c16.667 57.333 25 88.666 25 93.999s-1.33301 9.66602 -4 12.999s-8 7.66602 -16 12.999l-63 43c25.333 56.667 48.333 98 69 124h23l53 -32c26.667 -16 46.167 -33.167 58.5 -51.5s18.5 -39.166 18.5 -62.499c0 -21.333 -5 -44.666 -15 -69.999z" />
    <glyph glyph-name="uni05E7" unicode="&#x5e7;" horiz-adv-x="576" 
d="M278 131l0.00195312 42.001c50 51.333 84.333 87.5 103 108.5s31 37.833 37 50.5c0.666992 22 -1.33301 36.333 -6 43s-14.667 10 -30 10h-266c-10.667 0 -34.334 5.66699 -71.001 17c4.66699 61.333 13.667 119.333 27 174l68 12l18 -20
c6 -7.33301 11.5 -11.833 16.5 -13.5s14.167 -2.5 27.5 -2.5l220 -1c38.667 0 68.667 -11.667 90 -35s32 -56 32 -98c0 -64.667 -17.833 -131.334 -53.5 -200.001s-90.834 -142 -165.501 -220h-43c-2.66699 38 -4 82.333 -4 133zM51.002 -107.999
c0 141.333 2.33301 275.667 7 403l97 11h29c8.66699 -102 13 -206.333 13 -313c0 -36.667 -0.666992 -75.667 -2 -117l-111 -23h-33v39z" />
    <glyph glyph-name="uni05E8" unicode="&#x5e8;" horiz-adv-x="494" 
d="M309 70c0 111.333 -0.999023 188.331 -2.99902 230.998c-0.666992 32.667 -6 54.834 -16 66.501s-27.667 17.5 -53 17.5h-141c-10.667 0 -34.334 5.66699 -71.001 17c4.66699 61.333 13.667 119.333 27 174l68 12l18 -20c6 -7.33301 11.5 -11.833 16.5 -13.5
s14.167 -2.5 27.5 -2.5h86c46 0 81.5 -6.16699 106.5 -18.5s42.667 -33.5 53 -63.5s15.833 -72.667 16.5 -128c0 -47.333 -1.33301 -103.666 -4 -168.999s-6 -120.333 -10 -165l-77 -20h-43c0 32 -0.333008 59.333 -1 82z" />
    <glyph glyph-name="uni05E9" unicode="&#x5e9;" horiz-adv-x="690" 
d="M243 284l34.999 81c8 18 12 30 12 36c0 4.66699 -1.5 8.5 -4.5 11.5s-8.83301 7.83301 -17.5 14.5l-35 27c22.667 48 43.667 88.333 63 121l24 3c7.33301 -3.33301 17.166 -9 29.499 -17s23.5 -16 33.5 -24c12.667 -10 22.334 -21.5 29.001 -34.5s10 -26.5 10 -40.5
c0 -23.333 -8.66699 -55.333 -26 -96s-36 -79 -56 -115c-29.333 -8 -61.666 -12.667 -96.999 -14v47zM59.999 369c-0.666992 12 -2.33301 21 -5 27s-8 15.333 -16 28l-17 26c14.667 44 32.667 84.667 54 122l23 4c14 -6 29.667 -15.333 47 -28
c23.333 -17.333 38.833 -35.333 46.5 -54s10.834 -47.334 9.50098 -86.001l-6 -244c57.333 2.66699 101 6.66699 131 12c49.333 7.33301 88.333 18 117 32s49.5 32.833 62.5 56.5s19.5 53.834 19.5 90.501c0 18.667 -1.66699 31.167 -5 37.5s-10.666 11.833 -21.999 16.5
l-49 21c19.333 73.333 34 122.333 44 147h23l41 -12c33.333 -10 57.5 -24.833 72.5 -44.5s22.5 -46.5 22.5 -80.5c0 -42 -8.33301 -100.667 -25 -176s-32.334 -130.333 -47.001 -165c-20.667 -19.333 -51 -36.833 -91 -52.5s-87.333 -28.167 -142 -37.5
c-74.667 -13.333 -140.334 -20 -197.001 -20h-57z" />
    <glyph glyph-name="uni05EA" unicode="&#x5ea;" horiz-adv-x="627" 
d="M440 297c-1.33301 27.333 -3.33105 46.835 -5.99805 58.502s-7.83398 19.5 -15.501 23.5s-20.5 6 -38.5 6h-140c24.667 -128 37 -203.333 37 -226c0 -10.667 -1.66699 -35.334 -5 -74.001l-10 -85h-227l9 167h104c-12.667 56 -32.334 129 -59.001 219
c-6 1.33301 -25.667 6.66602 -59 15.999c4.66699 61.333 13.667 119.333 27 174l68 12l18 -20c6 -7.33301 11.5 -11.833 16.5 -13.5s14.167 -2.5 27.5 -2.5h230c41.333 0 73.5 -6.83301 96.5 -20.5s39.333 -36 49 -67s14.5 -74.167 14.5 -129.5
c0 -125.333 -3.66699 -234 -11 -326l-83 -21h-40c0 154.667 -1 257.667 -3 309z" />
    <glyph glyph-name="uni05F3" unicode="&#x5f3;" horiz-adv-x="270" 
d="M89.5 456.5c5.66699 13.667 8.5 24.5 8.5 32.5c0 6 -1.5 11.833 -4.5 17.5s-8.5 12.167 -16.5 19.5l-52 46c34 49.333 68.333 91.333 103 126c25.333 -18.667 43.666 -33.334 54.999 -44.001c18.667 -15.333 32 -29.166 40 -41.499s12 -25.5 12 -39.5
c0 -32.667 -37.333 -102 -112 -208l-79 -7c24.667 52 39.834 84.833 45.501 98.5z" />
    <glyph glyph-name="uni05F4" unicode="&#x5f4;" horiz-adv-x="466" 
d="M90.5 456.5c5.66699 13.667 8.49707 24.5 8.49707 32.5c0 6 -1.66699 11.833 -5 17.5s-9 12.167 -17 19.5l-52 46c32 46 66.333 88 103 126c23.333 -16 42 -30.667 56 -44c14.667 -12.667 25.834 -24 33.501 -34s12.834 -20.333 15.501 -31c30.667 42.667 61 79 91 109
c25.333 -18.667 43.666 -33.334 54.999 -44.001c18.667 -15.333 32 -29.166 40 -41.499s12 -25.5 12 -39.5c0 -32.667 -37.333 -102 -112 -208l-79 -7c24.667 52 39.834 84.833 45.501 98.5s8.5 24.5 8.5 32.5c0 6 -1.5 11.833 -4.5 17.5s-8.5 12.167 -16.5 19.5l-39 34
c-8 -37.333 -45 -102.333 -111 -195l-78 -7c24.667 52 39.834 84.833 45.501 98.5z" />
    <glyph glyph-name="Wgrave" unicode="&#x1e80;" horiz-adv-x="1092" 
d="M59 557l-34 46.999l4 70h287l6 -95l-72 -19l124 -387l99 308l-44 129l4 64h266l6 -95l-66 -19l123 -387l115 354c2 5.33301 3 10 3 14c0 8.66699 -4.33301 14.334 -13 17.001l-68 28l6 88h262l5 -85l-41 -56l-210 -537l-175 -17l-105 306l-108 -289l-185 -17z
M361 866.999v41h180l95 -173h-86z" />
    <glyph glyph-name="wgrave" unicode="&#x1e81;" horiz-adv-x="812" 
d="M20 386c-7.33301 18 -12.333 29.668 -15 35.001s-7.66699 12.666 -15 21.999l-17 22l5 58h253l10 -85l-55 -13l68 -243l99 333l103 14l114 -356l64 230c1.33301 4 2 7 2 9c0 6 -3 10 -9 12l-48 20l10 79h190l10 -78l-172 -450l-144 -11l-83 278l-91 -267l-144 -11z
M209 715.001v41h180l95 -173h-86z" />
    <glyph glyph-name="Wacute" unicode="&#x1e82;" horiz-adv-x="1092" 
d="M59 557l-34 46.999l4 70h287l6 -95l-72 -19l124 -387l99 308l-44 129l4 64h266l6 -95l-66 -19l123 -387l115 354c2 5.33301 3 10 3 14c0 8.66699 -4.33301 14.334 -13 17.001l-68 28l6 88h262l5 -85l-41 -56l-210 -537l-175 -17l-105 306l-108 -289l-185 -17z
M593 907.999h180v-41l-188 -132h-87z" />
    <glyph glyph-name="wacute" unicode="&#x1e83;" horiz-adv-x="812" 
d="M20 386c-7.33301 18 -12.333 29.668 -15 35.001s-7.66699 12.666 -15 21.999l-17 22l5 58h253l10 -85l-55 -13l68 -243l99 333l103 14l114 -356l64 230c1.33301 4 2 7 2 9c0 6 -3 10 -9 12l-48 20l10 79h190l10 -78l-172 -450l-144 -11l-83 278l-91 -267l-144 -11z
M441 756.001h180v-41l-188 -132h-87z" />
    <glyph glyph-name="Wdieresis" unicode="&#x1e84;" horiz-adv-x="1092" 
d="M59 557l-34 46.999l4 70h287l6 -95l-72 -19l124 -387l99 308l-44 129l4 64h266l6 -95l-66 -19l123 -387l115 354c2 5.33301 3 10 3 14c0 8.66699 -4.33301 14.334 -13 17.001l-68 28l6 88h262l5 -85l-41 -56l-210 -537l-175 -17l-105 306l-108 -289l-185 -17z
M360 881.999l141 38l34 -125l-141 -38zM597 881.999l140 38l34 -125l-140 -38z" />
    <glyph glyph-name="wdieresis" unicode="&#x1e85;" horiz-adv-x="812" 
d="M20 386c-7.33301 18 -12.333 29.668 -15 35.001s-7.66699 12.666 -15 21.999l-17 22l5 58h253l10 -85l-55 -13l68 -243l99 333l103 14l114 -356l64 230c1.33301 4 2 7 2 9c0 6 -3 10 -9 12l-48 20l10 79h190l10 -78l-172 -450l-144 -11l-83 278l-91 -267l-144 -11z
M208 730.001l141 38l34 -125l-141 -38zM445 730.001l140 38l34 -125l-140 -38z" />
    <glyph glyph-name="Ygrave" unicode="&#x1ef2;" horiz-adv-x="673" 
d="M160 98l86.001 24.001v132l-183 293l-46 57l4 70h293l10 -95l-65 -18l105 -178l87 147c2.66699 4.66699 4 9.33398 4 14.001c0 7.33301 -4 12.666 -12 15.999l-58 26l7 88h252l7 -94l-40 -24l-184 -270v-124c0 -16 1.16699 -26.333 3.5 -31
s8.16602 -9.33398 17.499 -14.001l62 -37l-4 -80h-341zM154.001 867.001v41h180l95 -173h-86z" />
    <glyph glyph-name="ygrave" unicode="&#x1ef3;" horiz-adv-x="537" 
d="M51 -105l111 109.001l-145 382c-7.33301 18 -12.333 29.667 -15 35s-7.66699 12.666 -15 21.999l-17 22l5 58h256l10 -85l-58 -14l82 -251l92 230c1.33301 4 2 7 2 9c0 6 -2.66699 10 -8 12l-47 20l9 79h190l9 -81l-128 -279c-46 -100.667 -84 -179.667 -114 -237
s-60.333 -109 -91 -155c-48 32 -90.667 73.333 -128 124zM66 715.001v41h180l95 -173h-86z" />
    <glyph glyph-name="endash" unicode="&#x2013;" horiz-adv-x="774" 
d="M78 344h618v-104h-618v104z" />
    <glyph glyph-name="emdash" unicode="&#x2014;" horiz-adv-x="1098" 
d="M108 344h882v-104h-882v104z" />
    <glyph glyph-name="quoteleft" unicode="&#x2018;" horiz-adv-x="280" 
d="M86 401c-18 16.667 -31 30.999 -39 42.999s-12 25 -12 39c0 32.667 37.333 102 112 208l79 7c-24.667 -52 -39.834 -84.833 -45.501 -98.5s-8.5 -24.5 -8.5 -32.5c0 -6.66699 1.5 -12.667 4.5 -18s8.5 -11.666 16.5 -18.999l52 -46
c-33.333 -50 -67.666 -92 -102.999 -126c-25.333 18.667 -44 33 -56 43z" />
    <glyph glyph-name="quoteright" unicode="&#x2019;" horiz-adv-x="280" 
d="M100.5 456.5c5.66699 13.667 8.49902 24.5 8.49902 32.5c0 6 -1.66699 11.833 -5 17.5s-9 12.167 -17 19.5l-52 46c32 46 66.333 88 103 126c28 -20.667 46.667 -35.334 56 -44.001c18 -15.333 31 -29.166 39 -41.499s12 -25.5 12 -39.5
c0 -32.667 -37.333 -102 -112 -208l-78 -7c24.667 52 39.834 84.833 45.501 98.5z" />
    <glyph glyph-name="quotesinglbase" unicode="&#x201a;" horiz-adv-x="280" 
d="M100.5 -74.5c5.66699 13.667 8.49902 24.501 8.49902 32.501c0 6.66699 -1.5 12.667 -4.5 18s-8.83301 11.666 -17.5 18.999l-52 46c34 49.333 68.333 91.333 103 126c28 -20.667 46.667 -35.334 56 -44.001c18 -15.333 31 -29.166 39 -41.499s12 -25.5 12 -39.5
c0 -32.667 -37.333 -102 -112 -208l-78 -7c24.667 52 39.834 84.833 45.501 98.5z" />
    <glyph glyph-name="quotedblleft" unicode="&#x201c;" horiz-adv-x="475" 
d="M86 401c-18.667 16 -31.8311 29.9961 -39.498 41.9961s-11.5 25.333 -11.5 40c0 32.667 37.333 102 112 208l78 7c-24.667 -52 -39.834 -84.833 -45.501 -98.5s-8.5 -24.5 -8.5 -32.5c0 -6.66699 1.5 -12.667 4.5 -18s8.5 -11.666 16.5 -18.999l39 -35
c8 38 45 103.333 111 196l79 7c-24.667 -52 -39.834 -84.833 -45.501 -98.5s-8.5 -24.5 -8.5 -32.5c0 -6.66699 1.5 -12.667 4.5 -18s8.5 -11.666 16.5 -18.999l52 -46c-36.667 -52.667 -71 -94.667 -103 -126c-25.333 18.667 -44 33 -56 43
c-15.333 14 -26.833 25.833 -34.5 35.5s-12.5 19.834 -14.5 30.501c-28.667 -41.333 -58.667 -77.666 -90 -108.999c-18 12 -36.667 26.333 -56 43z" />
    </font>
</defs>
</svg>
