<?xml version="1.0" standalone="no"?>
<!DOCTYPE svg PUBLIC "-//W3C//DTD SVG 1.1//EN" "http://www.w3.org/Graphics/SVG/1.1/DTD/svg11.dtd" >
<svg>
<metadata>
Created by FontForge 20090914 at Fri Nov  7 20:18:25 2014
 By www-data
Copyright 2012 by Yoram Gnat (yoram.gnat@gmail.com)
Distributed under the terms of GNU General Public License version 2(http://www.gnu.org/licenses/gpl.html).

Latin glyphs and punctuation Copyright (URW)++,Copyright 1999 by (URW)++ Design &#38; Development;
 
Hebrew Cantillation marks GSUB and GPOS OpenType positioning rules copyright (c) 2011-2012 by Yoram Gnat (yoram.gnat@gmail.com)
Distributed under the terms of GNU General Public License version 2(http://www.gnu.org/licenses/gpl.html).
Inspired by the Hebrew OpenType Layout logic copyright (c) 2003 &#38; 2007, Ralph Hancock &#38; John Hudson published under the MIT License.

As a special exception, if you create a document which uses this font, and embed this font or unaltered portions of this font into the document, this font does not by itself cause the resulting document to be covered by the GNU General Public License. This exception does not however invalidate any other reasons why the document might be covered by the GNU General Public License. If you modify this font, you may extend this exception to your version of the font, but you are not obligated to do so. If you do not wish to do so, delete this exception statement from your version.
</metadata>
<defs>
<font id="TaameyAshkenaz-Medium" horiz-adv-x="0" >
  <font-face 
    font-family="Taamey Ashkenaz"
    font-weight="500"
    font-stretch="normal"
    units-per-em="2048"
    panose-1="2 0 0 0 0 0 0 0 0 0"
    ascent="1638"
    descent="-410"
    x-height="886"
    cap-height="1372"
    bbox="-390 -616.001 2054 1895"
    underline-thickness="70"
    underline-position="-170"
    unicode-range="U+0020-U+FB4F"
  />
<missing-glyph horiz-adv-x="748" 
d="M68 0v1365h544v-1365h-544zM136 68h408v1229h-408v-1229z" />
    <glyph glyph-name=".notdef" horiz-adv-x="748" 
d="M68 0v1365h544v-1365h-544zM136 68h408v1229h-408v-1229z" />
    <glyph glyph-name=".null" horiz-adv-x="1008" 
d="M488 371l-45.998 0.000976562v35c0 40.667 5 76 15 106c6.66699 18 13.667 32.667 21 44s31 44.333 71 99c22.667 32.667 34 70.667 34 114c0 40.667 -10.5 72.334 -31.5 95.001s-50.167 34 -87.5 34c-24.667 0 -46.834 -5.5 -66.501 -16.5s-29.5 -23.167 -29.5 -36.5
c0 -6.66699 5.66699 -14 17 -22c20 -18 30 -37 30 -57c0 -16 -5.83301 -29.5 -17.5 -40.5s-25.834 -16.5 -42.501 -16.5c-19.333 0 -35.5 7.66699 -48.5 23s-19.5 34.666 -19.5 57.999c0 44.667 19.333 81.667 58 111s87.667 44 147 44c60 0 108.667 -16.833 146 -50.5
s56 -77.834 56 -132.501c0 -36.667 -8.16699 -67.667 -24.5 -93s-50.5 -61.333 -102.5 -108c-32.667 -28.667 -54 -54 -64 -76s-15 -56.667 -15 -104v-10zM463.002 286.001c18 0 33.5 -6.33301 46.5 -19s19.5 -28 19.5 -46c0 -18.667 -6.33301 -34.5 -19 -47.5
s-28.334 -19.5 -47.001 -19.5c-18 0 -33.5 6.5 -46.5 19.5s-19.5 28.833 -19.5 47.5c0 18 6.33301 33.333 19 46s28.334 19 47.001 19zM126.002 1095v-1081h756v1081h-756zM40.002 1189h929v-1253h-929v1253z" />
    <glyph glyph-name=".null" horiz-adv-x="1008" 
d="M488 371l-45.998 0.000976562v35c0 40.667 5 76 15 106c6.66699 18 13.667 32.667 21 44s31 44.333 71 99c22.667 32.667 34 70.667 34 114c0 40.667 -10.5 72.334 -31.5 95.001s-50.167 34 -87.5 34c-24.667 0 -46.834 -5.5 -66.501 -16.5s-29.5 -23.167 -29.5 -36.5
c0 -6.66699 5.66699 -14 17 -22c20 -18 30 -37 30 -57c0 -16 -5.83301 -29.5 -17.5 -40.5s-25.834 -16.5 -42.501 -16.5c-19.333 0 -35.5 7.66699 -48.5 23s-19.5 34.666 -19.5 57.999c0 44.667 19.333 81.667 58 111s87.667 44 147 44c60 0 108.667 -16.833 146 -50.5
s56 -77.834 56 -132.501c0 -36.667 -8.16699 -67.667 -24.5 -93s-50.5 -61.333 -102.5 -108c-32.667 -28.667 -54 -54 -64 -76s-15 -56.667 -15 -104v-10zM463.002 286.001c18 0 33.5 -6.33301 46.5 -19s19.5 -28 19.5 -46c0 -18.667 -6.33301 -34.5 -19 -47.5
s-28.334 -19.5 -47.001 -19.5c-18 0 -33.5 6.5 -46.5 19.5s-19.5 28.833 -19.5 47.5c0 18 6.33301 33.333 19 46s28.334 19 47.001 19zM126.002 1095v-1081h756v1081h-756zM40.002 1189h929v-1253h-929v1253z" />
    <glyph glyph-name="space" unicode=" " horiz-adv-x="650" 
 />
    <glyph glyph-name="exclam" unicode="!" horiz-adv-x="422" 
d="M244 335l-68 -0.000976562c-1.33301 157.333 -4.5 269.833 -9.5 337.5s-15.833 142.5 -32.5 224.5c-22 108 -33 184.667 -33 230c0 109.333 36.667 164 110 164c71.333 0 107 -55.333 107 -166c0 -47.333 -10.667 -123.333 -32 -228
c-16.667 -82.667 -27.667 -158.667 -33 -228s-8.33301 -180.666 -9 -333.999zM211 194.999c30 0 55.666 -10.667 76.999 -32s32 -47 32 -77c0 -30.667 -10.667 -56.834 -32 -78.501s-47.666 -32.5 -78.999 -32.5c-30 0 -55.5 10.833 -76.5 32.5s-31.5 47.834 -31.5 78.501
c0 30 10.667 55.667 32 77s47.333 32 78 32z" />
    <glyph glyph-name="quotedbl" unicode="&#x22;" horiz-adv-x="772" 
d="M456 780l-40 49c118 75.333 177 154.666 177 237.999c0 10.667 -4 16 -12 16h-5h-23c-38.667 0 -69.167 9 -91.5 27s-33.5 43 -33.5 75c0 30 11 55.167 33 75.5s49.333 30.5 82 30.5c42 0 76.5 -15.5 103.5 -46.5s40.5 -71.167 40.5 -120.5c0 -76 -24.667 -147 -74 -213
c-17.333 -23.333 -60 -60.666 -128 -111.999c-2.66699 -1.33301 -7.5 -4.5 -14.5 -9.5s-11.833 -8.16699 -14.5 -9.5zM139 780l-40 49c118 75.333 177 154.666 177 237.999c0 10.667 -4 16 -12 16h-5h-23c-38.667 0 -69.167 9 -91.5 27s-33.5 43 -33.5 75
c0 30 11 55.167 33 75.5s49.333 30.5 82 30.5c42 0 76.5 -15.5 103.5 -46.5s40.5 -71.167 40.5 -120.5c0 -76 -24.667 -147 -74 -213c-17.333 -23.333 -60 -60.666 -128 -111.999c-2.66699 -1.33301 -7.5 -4.5 -14.5 -9.5s-11.833 -8.16699 -14.5 -9.5z" />
    <glyph glyph-name="numbersign" unicode="#" horiz-adv-x="975" 
d="M228 400h-179v99h193l34 231h-180v99h193l55 375h114l-55 -375h216l55 375h114l-55 -375h177v-99h-191l-33 -231h177v-99h-191l-58 -400h-114l58 400h-216l-58 -400h-114zM389 730l-33 -231h216l33 231h-216z" />
    <glyph glyph-name="dollar" unicode="$" horiz-adv-x="960" 
d="M520 1405l-0.000976562 -181.997c93.333 0 169.833 -25 229.5 -75s89.5 -111 89.5 -183c0 -38.667 -9.66699 -68.834 -29 -90.501s-45.666 -32.5 -78.999 -32.5c-32 0 -57.667 9.33301 -77 28s-29 43.334 -29 74.001c0 20 4.33301 36.333 13 49s25.667 28.334 51 47.001
c6.66699 6.66699 10 12.667 10 18c0 19.333 -18.5 38.5 -55.5 57.5s-78.167 28.5 -123.5 28.5v-434c2 -0.666992 4.83301 -1.5 8.5 -2.5s8 -2.33301 13 -4s11.167 -3.5 18.5 -5.5c65.333 -20 116.5 -38.833 153.5 -56.5s68.833 -39.5 95.5 -65.5
c55.333 -55.333 83 -129 83 -221c0 -112 -33.5 -202 -100.5 -270s-157.5 -102 -271.5 -102v-211h-83v208c-48 0 -99.333 8.33301 -154 25c-64.667 20.667 -115.334 53.834 -152.001 99.501s-55 97.5 -55 155.5c0 43.333 11.833 79.166 35.5 107.499s53.5 42.5 89.5 42.5
c30 0 55.167 -10.333 75.5 -31s30.5 -46.334 30.5 -77.001c0 -25.333 -5.83301 -46.333 -17.5 -63s-32.5 -33.667 -62.5 -51c-9.33301 -4.66699 -14 -11 -14 -19c0 -28 22 -53.667 66 -77s96.667 -35 158 -35v489c-88 26.667 -151.667 51.667 -191 75
c-47.333 28.667 -83.666 66.167 -108.999 112.5s-38 98.166 -38 155.499c0 91.333 29.667 166.166 89 224.499s142.333 94.166 249 107.499v184h83zM436.999 737.003v404c-60.667 0 -111.167 -19.167 -151.5 -57.5s-60.5 -84.166 -60.5 -137.499
c0 -50.667 16 -91.834 48 -123.501s86.667 -60.167 164 -85.5zM519.999 523.003v-465.002c36.667 4 69 11.667 97 23c43.333 18.667 78.333 47.167 105 85.5s40 79.833 40 124.5c0 96.667 -56.333 166.334 -169 209.001c-16.667 6.66699 -41 14.334 -73 23.001z" />
    <glyph glyph-name="percent" unicode="%" horiz-adv-x="1450" 
d="M1133 1267l-726.999 -1267h-88l632 1107c-55.333 -33.333 -111.333 -50 -168 -50c-34 0 -70.667 6.66699 -110 20c3.33301 -30 5 -48.667 5 -56c0 -53.333 -11.5 -109.5 -34.5 -168.5s-53.167 -110.833 -90.5 -155.5c-75.333 -89.333 -161 -134 -257 -134
c-64.667 0 -118.167 20.5 -160.5 61.5s-63.5 93.167 -63.5 156.5c0 58.667 18 123.834 54 195.501s80 129.834 132 174.501c72.667 61.333 147 92 223 92c35.333 0 65.166 -6.33301 89.499 -19s47.833 -34 70.5 -64c44 -25.333 86.667 -38 128 -38
c56.667 0 109.5 12.333 158.5 37s90.833 60.667 125.5 108h81zM494.001 1174c-36.667 -12.667 -64.4971 -28.501 -83.4971 -47.501s-45.167 -57.5 -78.5 -115.5c-41.333 -72 -69.833 -128 -85.5 -168s-23.5 -76.333 -23.5 -109c0 -30.667 9.16699 -55.667 27.5 -75
s42.166 -29 71.499 -29c46 0 91.667 19.667 137 59s82.166 90.333 110.499 153s42.5 125.334 42.5 188.001c0 25.333 -3.66699 49.333 -11 72c-42.667 14.667 -78.334 38.667 -107.001 72zM1176 703.997c59.333 0 108.499 -19.666 147.499 -58.999s58.5 -89.333 58.5 -150
c0 -52 -12.167 -109 -36.5 -171s-56.833 -118 -97.5 -168c-32.667 -40.667 -70.667 -72.334 -114 -95.001s-87.666 -34 -132.999 -34c-66 0 -120.5 20 -163.5 60s-64.5 90.667 -64.5 152c0 49.333 10.833 102 32.5 158s51.167 107.333 88.5 154
c83.333 102 177.333 153 282 153zM1206 632.998c-26.667 0 -52.168 -9.99902 -76.501 -29.999s-50.166 -52.333 -77.499 -97c-86.667 -140.667 -130 -244.334 -130 -311.001c0 -28 9.5 -51.667 28.5 -71s42.167 -29 69.5 -29c46 0 92 19.5 138 58.5s83.667 89.5 113 151.5
s44 124 44 186c0 39.333 -10.667 72.833 -32 100.5s-47 41.5 -77 41.5z" />
    <glyph glyph-name="ampersand" unicode="&#x26;" horiz-adv-x="1387" 
d="M1251 296l77.0039 -9.99609c-9.33301 -70 -29 -127.333 -59 -172c-31.333 -46.667 -66.5 -80.667 -105.5 -102s-86.5 -32 -142.5 -32c-48.667 0 -91.834 9 -129.501 27s-77.5 48.667 -119.5 92c-58 -44 -113.167 -76 -165.5 -96s-109.5 -30 -171.5 -30
c-118.667 0 -211.334 36 -278.001 108c-30.667 33.333 -55 72.666 -73 117.999s-27 89.666 -27 132.999c0 78.667 26.167 151.5 78.5 218.5s127.5 124.167 225.5 171.5c-26.667 58 -45.5 106.333 -56.5 145s-16.5 77.334 -16.5 116.001c0 93.333 28 168.333 84 225
s130 85 222 85c81.333 0 147.5 -21.667 198.5 -65s76.5 -100.333 76.5 -171c0 -46.667 -12.167 -92.167 -36.5 -136.5s-56.833 -80.833 -97.5 -109.5c-22 -15.333 -43.5 -28.5 -64.5 -39.5s-56.5 -27.5 -106.5 -49.5c102.667 -188.667 197 -334 283 -436
c37.333 43.333 67.166 89 89.499 137s33.5 90.667 33.5 128c0 54.667 -52.667 82 -158 82h-17v76h494v-76h-18c-58.667 0 -104.667 -15.667 -138 -47c-14.667 -15.333 -26.334 -30.333 -35.001 -45s-35.334 -63.334 -80.001 -146.001l-25 -44.5
c-3.33301 -5.66699 -9.66602 -15.834 -18.999 -30.501s-19 -28.167 -29 -40.5l-43 -53.5c66.667 -71.333 131 -107 193 -107c38.667 0 71.667 15.667 99 47s46.333 74.666 57 129.999zM528.004 795.004c28.667 14 45.667 22.667 51 26
c99.333 53.333 149 130.666 149 231.999c0 48.667 -13 88.334 -39 119.001s-59.333 46 -100 46c-40 0 -72.833 -16.167 -98.5 -48.5s-38.5 -73.833 -38.5 -124.5c0 -62.667 25.333 -146 76 -250zM395.004 650.004c-52.667 -31.333 -90.667 -64.333 -114 -99
s-35 -76 -35 -124c0 -88 29.667 -165.667 89 -233s127.666 -101 204.999 -101c28.667 0 55.667 4.66699 81 14s57.333 26.333 96 51c-73.333 86 -130.666 160.5 -171.999 223.5s-91.333 152.5 -150 268.5z" />
    <glyph glyph-name="quotesingle" unicode="'" horiz-adv-x="456" 
d="M140 790l-40 49c118 75.333 177 154.666 177 237.999c0 10.667 -4 16 -12 16h-5h-23c-38.667 0 -69.167 9 -91.5 27s-33.5 43 -33.5 75c0 30 11 55.167 33 75.5s49.333 30.5 82 30.5c42 0 76.5 -15.5 103.5 -46.5s40.5 -71.167 40.5 -120.5c0 -76 -24.667 -147 -74 -213
c-17.333 -23.333 -60 -60.666 -128 -111.999c-2.66699 -1.33301 -7.5 -4.5 -14.5 -9.5s-11.833 -8.16699 -14.5 -9.5z" />
    <glyph glyph-name="parenleft" unicode="(" horiz-adv-x="551" 
d="M515 1400l0.00195312 -62.999c-88 -76.667 -150.833 -168.334 -188.5 -275.001s-56.5 -244.334 -56.5 -413.001c0 -169.333 18.833 -307.5 56.5 -414.5s100.5 -198.833 188.5 -275.5v-65c-58 36 -104.833 69.5 -140.5 100.5s-70.5 67.833 -104.5 110.5
c-120.667 160.667 -181 342 -181 544c0 220 68.333 410.667 205 572c29.333 34.667 60.166 64.834 92.499 90.501s75.166 55.167 128.499 88.5z" />
    <glyph glyph-name="parenright" unicode=")" horiz-adv-x="557" 
d="M38 -109v64.998c88 76.667 150.833 168.5 188.5 275.5s56.5 245.167 56.5 414.5c0 168.667 -18.833 306.334 -56.5 413.001s-100.5 198.334 -188.5 275.001v66c58 -35.333 104.667 -68.5 140 -99.5s70.333 -68.5 105 -112.5c120.667 -158.667 181 -339.334 181 -542.001
c0 -107.333 -17.5 -210.166 -52.5 -308.499s-85.833 -186.166 -152.5 -263.499c-30 -36 -61.167 -67.333 -93.5 -94s-74.833 -56.334 -127.5 -89.001z" />
    <glyph glyph-name="asterisk" unicode="*" horiz-adv-x="885" 
d="M415 705l0.000976562 63.002c0 28 -2.16699 50.167 -6.5 66.5s-15.5 46.166 -33.5 89.499c-10.667 22.667 -16 40 -16 52c0 19.333 7.66699 37 23 53s32.333 24 51 24c18 0 34.833 -7.83301 50.5 -23.5s23.5 -33.5 23.5 -53.5c0 -12 -10 -42 -30 -90
c-17.333 -37.333 -26 -76.666 -26 -117.999v-63l56 31c23.333 14 42.5 28.5 57.5 43.5s33.833 38.5 56.5 70.5c14 18.667 26.5 31.5 37.5 38.5s24.5 10.5 40.5 10.5c20 0 37.333 -6.5 52 -19.5s22 -29.167 22 -48.5c0 -48.667 -30.667 -76.667 -92 -84
c-40 -4.66699 -69.833 -9.66699 -89.5 -15s-41.834 -15 -66.501 -29l-54 -32l54 -31c25.333 -13.333 47.166 -22.5 65.499 -27.5s48.5 -9.83301 90.5 -14.5c61.333 -7.33301 92 -35.333 92 -84c0 -19.333 -7.33301 -35.666 -22 -48.999s-32 -20 -52 -20
c-16 0 -29.5 3.5 -40.5 10.5s-23.5 19.833 -37.5 38.5c-22.667 32 -41.5 55.5 -56.5 70.5s-34.167 29.5 -57.5 43.5l-56 32v-64c0 -28 2.33301 -50.5 7 -67.5s16.334 -47.167 35.001 -90.5c9.33301 -24.667 14 -42.667 14 -54c0 -18.667 -7.83301 -36 -23.5 -52
s-32.5 -24 -50.5 -24c-18.667 0 -35.667 8.16699 -51 24.5s-23 34.166 -23 53.499c0 15.333 4.66699 32.666 14 51.999c19.333 43.333 31.166 73.333 35.499 90s6.5 39.334 6.5 68.001v64l-56 -32c-24.667 -14.667 -44 -29.167 -58 -43.5s-32.667 -38.5 -56 -72.5
c-14 -18 -26.5 -30.333 -37.5 -37s-24.5 -10 -40.5 -10c-20 0 -37 6.66699 -51 20s-21 29.666 -21 48.999c0 49.333 30 77.333 90 84c41.333 4.66699 71.5 9.5 90.5 14.5s40.833 14.5 65.5 28.5l54 30l-54 32c-19.333 11.333 -34.333 19.5 -45 24.5s-25.5 9.5 -44.5 13.5
s-41.167 6 -66.5 6c-29.333 0 -51.666 7.66699 -66.999 23s-23 35.666 -23 60.999c0 18.667 7 34.667 21 48s31 20 51 20c16 0 29.5 -3.5 40.5 -10.5s23.5 -19.833 37.5 -38.5c23.333 -32.667 42.333 -56.5 57 -71.5s33.667 -29.167 57 -42.5z" />
    <glyph glyph-name="plus" unicode="+" horiz-adv-x="1001" 
d="M431 708v372h140v-372h372v-140h-372v-374h-140v374h-373v140h373z" />
    <glyph glyph-name="comma" unicode="," horiz-adv-x="466" 
d="M126 -321l-41 49.001c118.667 83.333 178 163 178 239c0 10.667 -4 16 -12 16h-6c-2.66699 -2 -12 -3 -28 -3c-36 0 -65 9.5 -87 28.5s-33 44.167 -33 75.5c0 30 11 55 33 75s49.333 30 82 30c43.333 0 78 -15.833 104 -47.5s39 -73.834 39 -126.501
c0 -61.333 -18.667 -119.333 -56 -174s-95 -108.667 -173 -162z" />
    <glyph glyph-name="hyphen" unicode="-" horiz-adv-x="674" 
d="M119 702h437v-146h-437v146z" />
    <glyph glyph-name="period" unicode="." horiz-adv-x="427" 
d="M206 195c30 0 55.667 -10.667 77 -32s32 -47 32 -77c0 -30.667 -10.833 -56.834 -32.5 -78.501s-47.834 -32.5 -78.501 -32.5c-30 0 -55.667 10.833 -77 32.5s-32 47.834 -32 78.501c0 30 10.833 55.667 32.5 77s47.834 32 78.501 32z" />
    <glyph glyph-name="slash" unicode="/" horiz-adv-x="638" 
d="M507 1291h102l-468 -1316h-102z" />
    <glyph glyph-name="zero" unicode="0" horiz-adv-x="975" 
d="M499 1236c55.333 0 109 -16 161 -48s95.333 -75.667 130 -131c74.667 -122 112 -276 112 -462c0 -182.667 -39 -332 -117 -448s-178.333 -174 -301 -174c-78 0 -148.333 26.833 -211 80.5s-111.5 128.334 -146.5 224.001s-52.5 203.167 -52.5 322.5
c0 183.333 40.167 335.166 120.5 455.499s181.833 180.5 304.5 180.5zM486 1160c-33.333 0 -65.002 -12.332 -95.002 -36.999s-55 -59 -75 -103c-17.333 -37.333 -29.666 -85 -36.999 -143s-11 -138 -11 -240c0 -142.667 4.5 -247.834 13.5 -315.501
s25.833 -122.167 50.5 -163.5c43.333 -72.667 95.333 -109 156 -109c33.333 0 65 12.333 95 37s55 58.667 75 102c17.333 38.667 29.5 90.5 36.5 155.5s10.5 159.167 10.5 282.5c0 120.667 -4.5 211.5 -13.5 272.5s-25.167 111.833 -48.5 152.5
c-20.667 34.667 -44.667 61.5 -72 80.5s-55.666 28.5 -84.999 28.5z" />
    <glyph glyph-name="one" unicode="1" horiz-adv-x="975" 
d="M565 1236h63c-8 -110 -12 -208.333 -12 -295v-725c0 -48.667 0.5 -77.5 1.5 -86.5s4.5 -16.5 10.5 -22.5c14 -16.667 62.667 -25 146 -25h97v-82h-695v82h114c70 0 113.5 4.5 130.5 13.5s25.5 32.167 25.5 69.5v51v703c0 52 -5.33301 83.5 -16 94.5
s-41.667 16.5 -93 16.5h-154v75c80 1.33301 156.167 14.5 228.5 39.5s123.5 55.5 153.5 91.5z" />
    <glyph glyph-name="two" unicode="2" horiz-adv-x="975" 
d="M886 379l-32.9961 -378.997h-791v49c67.333 89.333 124.333 161.333 171 216l137 147l104 109c73.333 77.333 126.166 147.5 158.499 210.5s48.5 126.833 48.5 191.5c0 73.333 -20.667 131.166 -62 173.499s-98 63.5 -170 63.5c-40.667 0 -78.667 -7.66699 -114 -23
s-64 -36 -86 -62c-28 -33.333 -42 -65.333 -42 -96c0 -11.333 3.16699 -19.5 9.5 -24.5s26.166 -14.5 59.499 -28.5c19.333 -7.33301 34.5 -20 45.5 -38s16.5 -38.333 16.5 -61c0 -31.333 -10 -57 -30 -77s-46 -30 -78 -30c-42 0 -76 17.167 -102 51.5
s-39 79.166 -39 134.499c0 93.333 38 171.666 114 234.999s169.667 95 281 95c114 0 208.333 -32.5 283 -97.5s112 -146.833 112 -245.5c0 -84.667 -28 -164.667 -84 -240c-36.667 -47.333 -126.334 -126.333 -269.001 -237c-54.667 -42.667 -98.334 -79 -131.001 -109
s-80 -77.333 -142 -142h393c54 0 89 6.83301 105 20.5s29.667 48.5 41 104.5l17 89h77z" />
    <glyph glyph-name="three" unicode="3" horiz-adv-x="975" 
d="M356 688c10 0 28.832 -0.835938 56.499 -2.50293s45.167 -2.5 52.5 -2.5c63.333 0 111.333 21 144 63s49 103.667 49 185c0 74.667 -16.5 131.5 -49.5 170.5s-80.833 58.5 -143.5 58.5c-49.333 0 -95.333 -10.833 -138 -32.5s-64 -44.834 -64 -69.501
c0 -10 7.66699 -20.333 23 -31c36 -25.333 54 -55.333 54 -90c0 -31.333 -9.5 -56.666 -28.5 -75.999s-43.833 -29 -74.5 -29c-33.333 0 -61 11.5 -83 34.5s-33 52.5 -33 88.5c0 79.333 34.5 146 103.5 200s154.833 81 257.5 81c108.667 0 195.667 -27.5 261 -82.5
s98 -128.167 98 -219.5c0 -62 -16.833 -116.833 -50.5 -164.5s-81.167 -84.167 -142.5 -109.5c-4 -2 -9.66699 -4.16699 -17 -6.5l-23 -7.5c90.667 -25.333 157.667 -63.666 201 -114.999s65 -118.333 65 -201c0 -108 -38.333 -194.5 -115 -259.5
s-178.334 -97.5 -305.001 -97.5c-112.667 0 -204.167 26.667 -274.5 80s-105.5 122.666 -105.5 207.999c0 46 11.5 83.333 34.5 112s52.833 43 89.5 43c32 0 58.667 -10.667 80 -32s32 -47.666 32 -78.999c0 -22 -5.16699 -41 -15.5 -57s-27.5 -31.333 -51.5 -46
c-17.333 -10 -28.166 -17.167 -32.499 -21.5s-6.5 -10.166 -6.5 -17.499c0 -27.333 24.5 -53.166 73.5 -77.499s101.167 -36.5 156.5 -36.5c78 0 138.5 24.667 181.5 74s64.5 119.333 64.5 210s-20.167 158.5 -60.5 203.5s-98.166 67.5 -173.499 67.5
c-16 0 -32.333 -1 -49 -3c-15.333 -2 -29.333 -3 -42 -3c-36.667 0 -55 14.333 -55 43c0 31.333 18.667 47 56 47z" />
    <glyph glyph-name="four" unicode="4" horiz-adv-x="975" 
d="M646 1236h75.999c-6.66699 -98 -10 -214.667 -10 -350v-481h213v-98h-213v-91v-51c0 -37.333 8.83301 -60.5 26.5 -69.5s61.834 -13.5 132.501 -13.5h7v-82h-513v82h20c70.667 0 114.5 4.5 131.5 13.5s25.5 32.167 25.5 69.5v51v91h-493v98zM541.999 405v532l-386 -532
h386z" />
    <glyph glyph-name="five" unicode="5" horiz-adv-x="975" 
d="M288 1037l-30.0029 -298.001c48.667 20 89.334 33.833 122.001 41.5s67.334 11.5 104.001 11.5c118.667 0 214.5 -36.667 287.5 -110s109.5 -169.666 109.5 -288.999c0 -129.333 -40.333 -231.666 -121 -306.999s-190 -113 -328 -113c-88 0 -162.333 19.667 -223 59
c-40 27.333 -71.667 61.5 -95 102.5s-35 83.167 -35 126.5c0 40.667 12.333 75.5 37 104.5s54.667 43.5 90 43.5c31.333 0 57.5 -10.333 78.5 -31s31.5 -46.667 31.5 -78c0 -23.333 -5 -42.333 -15 -57s-28.333 -30.334 -55 -47.001c-21.333 -12 -32 -24.667 -32 -38
c0 -26.667 22.5 -51.5 67.5 -74.5s93.833 -34.5 146.5 -34.5c36 0 70.667 5.66699 104 17s58.666 26.333 75.999 45c26 26.667 46.167 63.834 60.5 111.501s21.5 100.834 21.5 159.501c0 100 -22.333 178.667 -67 236s-106 86 -184 86c-67.333 0 -130.666 -21 -189.999 -63
c-7.33301 -71.333 -33.333 -107 -78 -107c-16.667 0 -30.334 5.5 -41.001 16.5s-16 25.167 -16 42.5c0 25.333 16.333 55.333 49 90c24.667 215.333 40.667 399.666 48 552.999c91.333 -22 160.166 -36.333 206.499 -43s97.833 -10 154.5 -10c50 0 90.833 3 122.5 9
s68.834 18.333 111.501 37c8.66699 4.66699 16.334 7 23.001 7c8.66699 0 13 -5.66699 13 -17c0 -12.667 -8.66699 -33.334 -26 -62.001c-59.333 -99.333 -164.666 -149 -315.999 -149c-61.333 0 -132 9.66699 -212 29z" />
    <glyph glyph-name="six" unicode="6" horiz-adv-x="975" 
d="M268 596c40.667 55.333 84.168 95.667 130.501 121s99.5 38 159.5 38c99.333 0 182.166 -34.5 248.499 -103.5s99.5 -155.167 99.5 -258.5c0 -55.333 -11 -110.166 -33 -164.499s-51.667 -100.833 -89 -139.5c-74 -77.333 -168 -116 -282 -116
c-130 0 -233.833 51.833 -311.5 155.5s-116.5 241.167 -116.5 412.5c0 95.333 13 187.166 39 275.499s62.667 166.166 110 233.499c42 58.667 95 104.334 159 137.001s132 49 204 49c82.667 0 151.334 -20 206.001 -60s82 -90.333 82 -151
c0 -36.667 -11 -66.834 -33 -90.501s-49.667 -35.5 -83 -35.5c-31.333 0 -57 9.66699 -77 29s-30 44 -30 74c0 20.667 9 48.334 27 83.001c5.33301 9.33301 8 17.333 8 24c0 16 -8.66699 28.5 -26 37.5s-41.333 13.5 -72 13.5c-55.333 0 -105.333 -17.333 -150 -52
s-79.667 -83 -105 -145c-19.333 -44 -32.833 -88.333 -40.5 -133s-15.834 -122.667 -24.501 -234zM511.001 648.001c-71.333 0 -127.501 -26 -168.501 -78s-61.5 -123.333 -61.5 -214c0 -65.333 14 -125 42 -179c42.667 -85.333 103.667 -128 183 -128
c64 0 114.833 29.833 152.5 89.5s56.5 140.167 56.5 241.5c0 83.333 -18.167 148.833 -54.5 196.5s-86.166 71.5 -149.499 71.5z" />
    <glyph glyph-name="seven" unicode="7" horiz-adv-x="975" 
d="M104 811l53.9971 425.001c212 -13.333 365.333 -20 460 -20c77.333 0 168.333 4.33301 273 13v-52l-8 -20c-2.66699 -6.66699 -4.66699 -11.834 -6 -15.501s-2.33301 -5.83398 -3 -6.50098l-79 -164c-85.333 -188 -142 -329 -170 -423s-42 -192.667 -42 -296
c0 -30 0.333008 -52.667 1 -68v-13c0 -70.667 -8.83301 -121 -26.5 -151s-47.167 -45 -88.5 -45c-34 0 -61 11.667 -81 35s-30 55 -30 95c0 72.667 27.333 178.334 82 317.001c22 53.333 42.5 100 61.5 140s61.833 125.667 128.5 257l119 239
c-10.667 -0.666992 -25 -1 -43 -1c-10 0 -22.167 0.166992 -36.5 0.5s-23.833 0.5 -28.5 0.5c-37.333 0 -137.666 4 -300.999 12h-38c-25.333 0 -43.166 -7.66699 -53.499 -23s-22.166 -52 -35.499 -110l-32 -138z" />
    <glyph glyph-name="eight" unicode="8" horiz-adv-x="975" 
d="M656 685c58.667 -26 103.332 -52.333 133.999 -79c74 -64.667 111 -149 111 -253c0 -53.333 -11 -105 -33 -155s-51.667 -91.333 -89 -124c-74.667 -67.333 -178 -101 -310 -101c-112.667 0 -204.667 25.333 -276 76c-37.333 28.667 -66.833 65 -88.5 109
s-32.5 89.667 -32.5 137c0 94 35.667 170.333 107 229c34 28 83.667 54.667 149 80c-55.333 28.667 -95.666 58 -120.999 88c-24 26.667 -42.833 58.667 -56.5 96s-20.5 75 -20.5 113c0 96.667 35 176.667 105 240s158.333 95 265 95c100.667 0 184 -26.5 250 -79.5
s99 -119.833 99 -200.5c0 -56.667 -15.667 -107 -47 -151s-80 -84 -146 -120zM468.998 753l115 -43c50 42 85.167 80.5 105.5 115.5s30.5 75.167 30.5 120.5c0 64.667 -20.667 116.5 -62 155.5s-95.666 58.5 -162.999 58.5c-69.333 0 -125 -17 -167 -51s-63 -79 -63 -135
c0 -50.667 16.167 -93.667 48.5 -129s84.166 -66 155.499 -92zM570.998 511l-161.999 57.999c-68 -31.333 -116.833 -68.333 -146.5 -111s-44.5 -97 -44.5 -163c0 -77.333 22.833 -137.666 68.5 -180.999s109.167 -65 190.5 -65c86 0 154.667 20.667 206 62
s77 97.333 77 168c0 58 -14.833 105.333 -44.5 142s-77.834 66.667 -144.501 90z" />
    <glyph glyph-name="nine" unicode="9" horiz-adv-x="975" 
d="M709 609c-47.333 -59.333 -92.498 -100.833 -135.498 -124.5s-95.5 -35.5 -157.5 -35.5c-100 0 -182.833 34.333 -248.5 103s-98.5 155.334 -98.5 260.001c0 118.667 38.667 219 116 301s172.333 123 285 123c130.667 0 235.167 -52.667 313.5 -158
s117.5 -246 117.5 -422c0 -184.667 -44.667 -344.667 -134 -480c-43.333 -65.333 -98 -115.5 -164 -150.5s-138.667 -52.5 -218 -52.5c-80.667 0 -148.334 19.5 -203.001 58.5s-82 87.5 -82 145.5c0 35.333 11.5 65.166 34.5 89.499s51.167 36.5 84.5 36.5
c29.333 0 54 -10 74 -30s30 -44.333 30 -73c0 -18 -8.33301 -43.667 -25 -77c-6.66699 -13.333 -10 -23.333 -10 -30c0 -13.333 9 -24 27 -32s41.667 -12 71 -12c58.667 0 111 18.167 157 54.5s80.333 86.833 103 151.5c15.333 43.333 26.666 85.833 33.999 127.5
s17 117.167 29 226.5zM477.002 1160c-38.667 0 -70.666 -7.49805 -95.999 -22.498s-48 -39.833 -68 -74.5c-35.333 -56 -53 -129 -53 -219c0 -92.667 18 -164.167 54 -214.5s87.667 -75.5 155 -75.5c37.333 0 72.333 9.16699 105 27.5s59 43.166 79 74.499
c26.667 39.333 40 98.666 40 177.999c0 98 -19.833 176.833 -59.5 236.5s-91.834 89.5 -156.501 89.5z" />
    <glyph glyph-name="colon" unicode=":" horiz-adv-x="487" 
d="M261 195c30 0 55.667 -10.6689 77 -32.002s32 -47 32 -77c0 -31.333 -10.667 -57.666 -32 -78.999s-47.333 -32 -78 -32c-30 0 -55.667 10.833 -77 32.5s-32 47.834 -32 78.501c0 30 10.667 55.667 32 77s47.333 32 78 32zM261 829.998c30 0 55.667 -10.502 77 -31.502
s32 -46.5 32 -76.5c0 -31.333 -10.667 -57.666 -32 -78.999s-47.333 -32 -78 -32c-30 0 -55.667 10.833 -77 32.5s-32 47.834 -32 78.501c0 30 10.667 55.5 32 76.5s47.333 31.5 78 31.5z" />
    <glyph glyph-name="semicolon" unicode=";" horiz-adv-x="487" 
d="M167 -321l-41 48.999c118 82.667 177 162.334 177 239.001c0 10.667 -4 16 -12 16h-5c-2.66699 -2 -12 -3 -28 -3c-36 0 -64.833 9.5 -86.5 28.5s-32.5 44.167 -32.5 75.5c0 30 10.833 55 32.5 75s48.834 30 81.501 30c43.333 0 78.166 -15.833 104.499 -47.5
s39.5 -73.834 39.5 -126.501c0 -61.333 -18.667 -119.166 -56 -173.499s-95.333 -108.5 -174 -162.5zM263 828.999c30 0 55.666 -10.667 76.999 -32s32 -47 32 -77c0 -30.667 -10.667 -56.834 -32 -78.501s-47.666 -32.5 -78.999 -32.5c-30 0 -55.5 10.833 -76.5 32.5
s-31.5 47.834 -31.5 78.501c0 30 10.667 55.667 32 77s47.333 32 78 32z" />
    <glyph glyph-name="less" unicode="&#x3c;" horiz-adv-x="1063" 
d="M979 769l-698 -325l698 -325v-149l-893 407v134l893 407v-149z" />
    <glyph glyph-name="equal" unicode="=" horiz-adv-x="1063" 
d="M89 196v141h885v-141h-885zM89 551v141h885v-141h-885z" />
    <glyph glyph-name="greater" unicode="&#x3e;" horiz-adv-x="1063" 
d="M84 769v149l894 -407v-134l-894 -407v149l698 325z" />
    <glyph glyph-name="question" unicode="?" horiz-adv-x="778" 
d="M380 335l-76.9971 -0.00390625v57c0 70 8.33301 129 25 177c11.333 30.667 23.166 55.5 35.499 74.5s51.5 73.5 117.5 163.5c37.333 54.667 56 118 56 190c0 67.333 -17.333 120.166 -52 158.499s-83 57.5 -145 57.5c-42 0 -79.333 -9 -112 -27s-49 -38.333 -49 -61
c0 -7.33301 1.33301 -13 4 -17s10.667 -11 24 -21c34 -28.667 51 -60 51 -94c0 -27.333 -9.5 -50.166 -28.5 -68.499s-42.833 -27.5 -71.5 -27.5c-32.667 0 -59.834 12.833 -81.501 38.5s-32.5 57.834 -32.5 96.501c0 75.333 32.167 137.333 96.5 186s146.166 73 245.499 73
c100 0 181 -28 243 -84s93 -129.667 93 -221c0 -61.333 -13.5 -113.166 -40.5 -155.499s-83.833 -102.166 -170.5 -179.499c-54 -47.333 -89.333 -89.166 -106 -125.499s-25 -92.833 -25 -169.5v-21zM338.003 192.996c30 0 55.667 -10.6689 77 -32.002s32 -47 32 -77
c0 -31.333 -10.667 -57.666 -32 -78.999s-47.333 -32 -78 -32c-30 0 -55.667 10.833 -77 32.5s-32 47.834 -32 78.501c0 30 10.667 55.667 32 77s47.333 32 78 32z" />
    <glyph glyph-name="at" unicode="@" horiz-adv-x="1293" 
d="M1118 330l106.998 -0.00683594c-30.667 -71.333 -84.667 -142.666 -162 -213.999c-107.333 -94 -233 -141 -377 -141c-113.333 0 -216.666 28.333 -309.999 85s-166.833 134.834 -220.5 234.501s-80.5 209.834 -80.5 330.501c0 94.667 15.667 183.834 47 267.501
s76 155.834 134 216.501c55.333 56.667 120.833 101.167 196.5 133.5s152.5 48.5 230.5 48.5c100 0 192.5 -23.5 277.5 -70.5s152.333 -111 202 -192s74.5 -169.167 74.5 -264.5c0 -79.333 -17 -156.166 -51 -230.499s-80.667 -136.166 -140 -185.499
c-71.333 -60 -141 -90 -209 -90c-36 0 -65.167 10.333 -87.5 31s-33.5 48.334 -33.5 83.001l-1 16c-0.666992 11.333 -0.333984 17.666 0.999023 18.999c-34.667 -51.333 -66 -87.333 -94 -108s-59.333 -31 -94 -31c-28.667 0 -57.667 7.33301 -87 22s-54 34 -74 58
c-39.333 45.333 -59 106 -59 182c0 111.333 38 210.333 114 297c34.667 38 73.834 68.5 117.501 91.5s84.5 34.5 122.5 34.5c33.333 0 61.833 -10 85.5 -30s40.834 -48 51.501 -84l28 98h154l-128 -507c-4.66699 -19.333 -7 -37 -7 -53
c0 -12.667 4.16699 -22.834 12.5 -30.501s19.166 -11.5 32.499 -11.5c22.667 0 48.834 11 78.501 33s57.5 51.333 83.5 88c28 40 50.5 87.167 67.5 141.5s25.5 105.833 25.5 154.5c0 59.333 -13 118.333 -39 177s-61.667 109.334 -107 152.001
c-83.333 80.667 -186 121 -308 121c-150 0 -273.833 -53.667 -371.5 -161s-146.5 -243.333 -146.5 -408c0 -166 49.333 -302.167 148 -408.5s224.667 -159.5 378 -159.5c87.333 0 166.5 22.5 237.5 67.5s131.167 110.833 180.5 197.5zM685.998 880.993
c-42 0 -78.666 -24.668 -109.999 -74.001c-32.667 -50 -59 -105.333 -79 -166s-30 -115.667 -30 -165c0 -42.667 7.5 -76.334 22.5 -101.001s35.5 -37 61.5 -37c26.667 0 53.167 13.333 79.5 40s50.166 64.334 71.499 113.001c18 40.667 33 86.167 45 136.5
s18 92.833 18 127.5c0 38.667 -7 69.334 -21 92.001s-33.333 34 -58 34z" />
    <glyph glyph-name="A" unicode="A" horiz-adv-x="1370" 
d="M718 1400l485 -1189c21.333 -53.333 41.333 -87 60 -101s51.667 -21 99 -21h27v-89h-589v89h79c34.667 0 63 4.66699 85 14s33 21.666 33 36.999c0 7.33301 -5 24.333 -15 51l-103 253h-502l-63 -167c-12 -32.667 -18 -59 -18 -79c0 -72.667 51.333 -109 154 -109h38v-89
h-503v89h7c25.333 0 50.5 5.33301 75.5 16s44.833 25 59.5 43c14.667 15.333 26 30.5 34 45.5s21.333 47.167 40 96.5l438 1110h79zM626 1086l-212 -538h426z" />
    <glyph glyph-name="B" unicode="B" horiz-adv-x="1370" 
d="M56 1372l683.003 0.00195312c114 0 205.667 -15.333 275 -46c54.667 -24 99.5 -63 134.5 -117s52.5 -111.333 52.5 -172c0 -48 -11.333 -94.333 -34 -139s-54 -81.334 -94 -110.001c-24 -18 -48.833 -32.167 -74.5 -42.5s-60.834 -19.833 -105.501 -28.5
c129.333 -22.667 225 -62.334 287 -119.001s93 -132 93 -226c0 -116 -46.667 -207 -140 -273s-222 -99 -386 -99h-691v89h35c33.333 0 59.166 0.666992 77.499 2s34.666 3.5 48.999 6.5s24.333 8.16699 30 15.5s9.66699 15.833 12 25.5s3.5 23.167 3.5 40.5v55v904v55
c0 40 -9.33301 64.833 -28 74.5s-66.667 14.5 -144 14.5h-35v90zM475.003 755.002l168.999 0.00195312c122 0 208.667 19.667 260 59s77 105.666 77 198.999c0 109.333 -35 185.666 -105 228.999c-39.333 26.667 -105.666 40 -198.999 40h-77
c-49.333 0 -82.5 -6.33301 -99.5 -19s-25.5 -37.667 -25.5 -75v-433zM475.002 665.004v-456.001c0 -52 6.5 -85 19.5 -99s43.5 -21 91.5 -21h79c115.333 0 201.333 14.667 258 44c37.333 18 66 48.333 86 91s30 94.334 30 155.001c0 124 -45.333 207.333 -136 250
c-54 24 -141 36 -261 36h-167z" />
    <glyph glyph-name="C" unicode="C" horiz-adv-x="1370" 
d="M1215 1385l27.002 -549h-84c-38.667 130.667 -74.334 224.667 -107.001 282c-36.667 60.667 -83.167 108 -139.5 142s-117.5 51 -183.5 51c-61.333 0 -119.166 -15.667 -173.499 -47s-95.833 -73.333 -124.5 -126c-62.667 -110 -94 -267.667 -94 -473
c0 -204 33.833 -355.5 101.5 -454.5s171.834 -148.5 312.501 -148.5c158 0 276 65.667 354 197c33.333 53.333 58.666 128.333 75.999 225l89 -14c-21.333 -159.333 -78.833 -282.333 -172.5 -369s-216.5 -130 -368.5 -130c-123.333 0 -233.833 29.833 -331.5 89.5
s-173.834 143 -228.501 250s-82 227.5 -82 361.5c0 191.333 59.333 358 178 500c127.333 152 282.666 228 465.999 228c63.333 0 118.5 -8.83301 165.5 -26.5s103.833 -51.167 170.5 -100.5l76 112h73z" />
    <glyph glyph-name="D" unicode="D" horiz-adv-x="1477" 
d="M261 234l-0.000976562 904v55c0 14.667 -0.5 26.167 -1.5 34.5s-3.83301 16.333 -8.5 24s-10.334 13.167 -17.001 16.5s-17 6.16602 -31 8.49902s-29.333 3.83301 -46 4.5s-38.667 1 -66 1h-36v90h604c205.333 0 359.333 -32.667 462 -98
c87.333 -57.333 154.166 -135.666 200.499 -234.999s69.5 -214.333 69.5 -345c0 -142.667 -25.833 -266.667 -77.5 -372s-125.5 -185 -221.5 -239c-100 -55.333 -232.667 -83 -398 -83h-639v89h36c32.667 0 58.334 0.666992 77.001 2s34.834 3.5 48.501 6.5
s23.334 8.16699 29.001 15.5s9.66699 15.833 12 25.5s3.5 23.167 3.5 40.5v55zM580.999 89h129c153.333 0 263.333 46.167 330 138.5s100 244.833 100 457.5c0 210 -36.167 362 -108.5 456s-189.5 141 -351.5 141h-99c-47.333 0 -77.166 -6 -89.499 -18s-18.5 -41 -18.5 -87
v-983c0 -46 6.16699 -75 18.5 -87s42.166 -18 89.499 -18z" />
    <glyph glyph-name="E" unicode="E" horiz-adv-x="1370" 
d="M1196 1372l26.9971 -486.001h-81c-28.667 169.333 -74.334 278.333 -137.001 327c-32 26 -71.167 44 -117.5 54s-111.833 15 -196.5 15h-98c-51.333 0 -84.166 -5.5 -98.499 -16.5s-21.5 -36.833 -21.5 -77.5v-433h46c90.667 0 156.5 20 197.5 60
s63.833 106.333 68.5 199h89v-622h-89c-1.33301 56 -7.66602 100.833 -18.999 134.5s-29.333 62.834 -54 87.501c-18.667 20 -42.167 33.5 -70.5 40.5s-71.833 10.5 -130.5 10.5h-38v-484c0 -20.667 0.833008 -35 2.5 -43s5.83398 -14.667 12.501 -20
c8 -8 23.5 -14.833 46.5 -20.5s48.167 -8.5 75.5 -8.5h126c160.667 0 269.334 37.333 326.001 112c22.667 27.333 44.334 68.833 65.001 124.5s37.334 116.5 50.001 182.5h83l-38 -508h-1167v89h34c33.333 0 59.166 0.666992 77.499 2s34.666 3.5 48.999 6.5
s24.333 8.16699 30 15.5s9.66699 15.833 12 25.5s3.5 23.167 3.5 40.5v55v904v55c0 40 -9.33301 64.833 -28 74.5s-66.667 14.5 -144 14.5h-34v90h1141z" />
    <glyph glyph-name="F" unicode="F" horiz-adv-x="1266" 
d="M1185 1372l28.001 -486h-84c-9.33301 56 -19.166 103.5 -29.499 142.5s-23.833 73.833 -40.5 104.5s-35.334 55 -56.001 73s-47 33 -79 45s-67 20.167 -105 24.5s-84.333 6.5 -139 6.5h-87c-51.333 0 -84.166 -5.5 -98.499 -16.5s-21.5 -36.833 -21.5 -77.5v-433h46
c90.667 0 156.5 20 197.5 60s63.833 106.333 68.5 199h89v-622h-89c-1.33301 56.667 -7.33301 101.667 -18 135s-28 62.333 -52 87c-20 20 -44.167 33.5 -72.5 40.5s-72.166 10.5 -131.499 10.5h-38v-431v-55c0 -17.333 1.16699 -30.833 3.5 -40.5s6.33301 -18.167 12 -25.5
s15.5 -12.5 29.5 -15.5s30.167 -5.16699 48.5 -6.5s44.166 -2 77.499 -2h63v-89h-652v89h34c33.333 0 59.166 0.666992 77.499 2s34.666 3.5 48.999 6.5s24.333 8.16699 30 15.5s9.66699 15.833 12 25.5s3.5 23.167 3.5 40.5v55v904v55c0 40 -9.33301 64.833 -28 74.5
s-66.667 14.5 -144 14.5h-34v90h1130z" />
    <glyph glyph-name="G" unicode="G" horiz-adv-x="1477" 
d="M1235 1385l26 -533h-81c-78.667 306 -226.667 459 -444 459c-132 0 -232.667 -55.333 -302 -166s-104 -272 -104 -484c0 -101.333 8 -187.166 24 -257.499s41.667 -131.833 77 -184.5c32.667 -46.667 77.5 -84.5 134.5 -113.5s115.833 -43.5 176.5 -43.5
c62 0 120.167 14.667 174.5 44s93.5 67 117.5 113c25.333 49.333 38 117 38 203c0 23.333 -1.16699 41 -3.5 53s-6 22.667 -11 32s-14.833 15.833 -29.5 19.5s-31.167 6.16699 -49.5 7.5s-44.833 2 -79.5 2h-36v90h604v-90h-29c-90 0 -143 -9 -159 -27
c-5.33301 -6.66699 -8.5 -14.834 -9.5 -24.501s-1.5 -40.5 -1.5 -92.5v-421h-80l-71 174c-62 -62 -123.5 -106.5 -184.5 -133.5s-131.167 -40.5 -210.5 -40.5c-91.333 0 -178.5 18.667 -261.5 56s-154.167 89.333 -213.5 156c-111.333 124.667 -167 284 -167 478
c0 128.667 22.333 241.667 67 339s114 184.333 208 261c60 48 121 83.167 183 105.5s130.333 33.5 205 33.5c70 0 129.667 -9.5 179 -28.5s105 -53.167 167 -102.5l74 116h72z" />
    <glyph glyph-name="H" unicode="H" horiz-adv-x="1581" 
d="M1110 659h-636.996v-425v-55c0 -17.333 1.16699 -30.833 3.5 -40.5s6.33301 -18.167 12 -25.5s15.5 -12.5 29.5 -15.5s30.167 -5.16699 48.5 -6.5s44.166 -2 77.499 -2h36v-89h-625v89h34c33.333 0 59.166 0.666992 77.499 2s34.666 3.5 48.999 6.5
s24.333 8.16699 30 15.5s9.66699 15.833 12 25.5s3.5 23.167 3.5 40.5v55v904v55c0 40 -9.33301 64.833 -28 74.5s-66.667 14.5 -144 14.5h-34v90h625v-90h-36c-33.333 0 -59.166 -0.666992 -77.499 -2s-34.5 -3.33301 -48.5 -6s-23.833 -7.66699 -29.5 -15
s-9.66699 -15.833 -12 -25.5s-3.5 -23.167 -3.5 -40.5v-55v-376h637v376v55c0 17.333 -1.16699 30.833 -3.5 40.5s-6.33301 18.167 -12 25.5s-15.5 12.333 -29.5 15s-30.167 4.66699 -48.5 6s-44.166 2 -77.499 2h-27v90h616v-90h-34
c-77.333 0 -125.333 -4.83301 -144 -14.5s-28 -34.5 -28 -74.5v-55v-904v-55c0 -17.333 1.16699 -30.833 3.5 -40.5s6.33301 -18.167 12 -25.5s15.667 -12.5 30 -15.5s30.666 -5.16699 48.999 -6.5s44.166 -2 77.499 -2h34v-89h-623v89h34
c33.333 0 59.166 0.666992 77.499 2s34.5 3.5 48.5 6.5s23.833 8.16699 29.5 15.5s9.66699 15.833 12 25.5s3.5 23.167 3.5 40.5v55v425z" />
    <glyph glyph-name="I" unicode="I" horiz-adv-x="771" 
d="M494 1138l-0.00195312 -904.001v-55c0 -17.333 1.16699 -30.833 3.5 -40.5s6.33301 -18.167 12 -25.5s15.334 -12.5 29.001 -15.5s29.834 -5.16699 48.501 -6.5s44.334 -2 77.001 -2h38v-89h-629v89h37c33.333 0 59.166 0.666992 77.499 2s34.5 3.5 48.5 6.5
s23.833 8.16699 29.5 15.5s9.66699 15.833 12 25.5s3.5 23.167 3.5 40.5v55v904v55c0 17.333 -1.16699 30.833 -3.5 40.5s-6.33301 18.167 -12 25.5s-15.5 12.333 -29.5 15s-30.167 4.66699 -48.5 6s-44.166 2 -77.499 2h-37v90h629v-90h-38
c-27.333 0 -49.333 -0.333008 -66 -1s-32 -2.16699 -46 -4.5s-24.333 -5.16602 -31 -8.49902s-12.334 -8.83301 -17.001 -16.5s-7.5 -15.667 -8.5 -24s-1.5 -19.833 -1.5 -34.5v-55z" />
    <glyph glyph-name="J" unicode="J" horiz-adv-x="1055" 
d="M814 1138l-0.00195312 -629.002c0 -177.333 -23.667 -302.666 -71 -375.999c-67.333 -108 -185.666 -162 -354.999 -162c-116 0 -205.333 27.333 -268 82c-34 28 -60.833 63.667 -80.5 107s-29.5 88 -29.5 134c0 67.333 17.833 122.833 53.5 166.5
s80.834 65.5 135.501 65.5c41.333 0 75.5 -12.667 102.5 -38s40.5 -58 40.5 -98c0 -39.333 -11.333 -72.166 -34 -98.499s-51 -39.5 -85 -39.5c-17.333 0 -40.666 3.66699 -69.999 11h-7c-6.66699 0 -12.167 -3.16699 -16.5 -9.5s-6.5 -13.5 -6.5 -21.5
c0 -28.667 12 -57.667 36 -87c20 -25.333 47.333 -45.5 82 -60.5s72 -22.5 112 -22.5c113.333 0 188.333 54.667 225 164c16 50 24 150 24 300v612v55c0 28.667 -3.83301 48.667 -11.5 60s-22.334 19 -44.001 23s-59.5 6 -113.5 6h-36v90h624v-90h-37c-54 0 -92 -2 -114 -6
s-36.833 -11.667 -44.5 -23s-11.5 -31.333 -11.5 -60v-55z" />
    <glyph glyph-name="K" unicode="K" horiz-adv-x="1477" 
d="M475 621l466.001 468.001c62 62 93 107.667 93 137c0 20 -9.66699 34.333 -29 43s-51 13 -95 13h-47v90h586v-90c-57.333 0 -114.166 -13.167 -170.499 -39.5s-107.166 -63.5 -152.499 -111.5l-283 -284l460 -662c28 -40.667 53.167 -66.834 75.5 -78.501
s59.5 -17.5 111.5 -17.5h36v-89h-650v89h59c86 0 129 14.667 129 44c0 14.667 -12.667 41 -38 79l-330 485l-221 -222v-241v-55c0 -22 1.33301 -38.167 4 -48.5s10.5 -19 23.5 -26s29.667 -11.333 50 -13s51.166 -2.5 92.499 -2.5h37v-89h-626v89h35
c33.333 0 59.166 0.666992 77.499 2s34.666 3.5 48.999 6.5s24.333 8.16699 30 15.5s9.66699 15.833 12 25.5s3.5 23.167 3.5 40.5v55v904v55c0 40 -9.33301 64.833 -28 74.5s-66.667 14.5 -144 14.5h-35v90h626v-90h-37c-54 0 -92 -2 -114 -6s-36.833 -11.667 -44.5 -23
s-11.5 -31.333 -11.5 -60v-55v-517z" />
    <glyph glyph-name="L" unicode="L" horiz-adv-x="1266" 
d="M1228 521l-39.999 -521.001h-1121v89h34c33.333 0 59.166 0.666992 77.499 2s34.5 3.5 48.5 6.5s23.833 8.16699 29.5 15.5s9.66699 15.833 12 25.5s3.5 23.167 3.5 40.5v55v904v55c0 17.333 -1.16699 30.833 -3.5 40.5s-6.33301 18.167 -12 25.5s-15.5 12.333 -29.5 15
s-30.167 4.66699 -48.5 6s-44.166 2 -77.499 2h-34v90h623v-90h-34c-77.333 0 -125.333 -4.83301 -144 -14.5s-28 -34.5 -28 -74.5v-55v-957c0 -20 1 -34.167 3 -42.5s6.33301 -15.166 13 -20.499c19.333 -19.333 59.666 -29 120.999 -29h81c162 0 271.333 36.667 328 110
c24.667 32 47.667 77.667 69 137s36.333 121 45 185h84z" />
    <glyph glyph-name="M" unicode="M" horiz-adv-x="1792" 
d="M546 1372l363.998 -1013l348 1013h476v-90h-33c-33.333 0 -59.166 -0.666992 -77.499 -2s-34.5 -3.33301 -48.5 -6s-23.833 -7.66699 -29.5 -15s-9.66699 -15.833 -12 -25.5s-3.5 -23.167 -3.5 -40.5v-55v-904v-55c0 -22 1.5 -38.333 4.5 -49s11 -19.334 24 -26.001
s29.667 -10.834 50 -12.501s51.166 -2.5 92.499 -2.5h33v-89h-622v89h33c41.333 0 72.166 0.833008 92.499 2.5s37 5.83398 50 12.501s21 15.334 24 26.001s4.5 27 4.5 49v55v1016l-423 -1250h-76l-452 1250v-840c0 -54 2 -98.167 6 -132.5s10.333 -64.166 19 -89.499
s21.834 -44.5 39.501 -57.5s38.334 -22.667 62.001 -29s54.5 -10.5 92.5 -12.5v-89h-542v89c38 2 69.167 6.16699 93.5 12.5s45.333 16 63 29s30.834 32.167 39.501 57.5s15 55.166 19 89.499s6 78.5 6 132.5v728v55c0 40 -9.33301 64.833 -28 74.5s-66.667 14.5 -144 14.5
h-36v90h491z" />
    <glyph glyph-name="N" unicode="N" horiz-adv-x="1548" 
d="M428 1372l757.004 -1009v596c0 90 -5.83301 156.667 -17.5 200s-32.334 74 -62.001 92s-75.834 28.333 -138.501 31v90h541v-90c-63.333 -2.66699 -110 -13 -140 -31s-50.833 -48.667 -62.5 -92s-17.5 -110 -17.5 -200v-986h-79l-848 1144v-706
c0 -68 2.66699 -121.333 8 -160s16.666 -70.334 33.999 -95.001s39.333 -41.5 66 -50.5s63.667 -14.5 111 -16.5v-89h-542v89c48 2 85.5 7.33301 112.5 16s49 25.5 66 50.5s28.333 56.833 34 95.5s8.5 92 8.5 160v809c-17.333 24 -38.833 40.333 -64.5 49
s-62.834 13 -111.501 13h-47v90h392z" />
    <glyph glyph-name="O" unicode="O" horiz-adv-x="1477" 
d="M747 1400c90 0 174.834 -18.501 254.501 -55.501s148 -87.167 205 -150.5s102.167 -139.166 135.5 -227.499s50 -182.166 50 -281.499c0 -100 -16.667 -194.167 -50 -282.5s-78.833 -164 -136.5 -227s-127 -112.833 -208 -149.5s-167.167 -55 -258.5 -55
s-177.333 18.333 -258 55s-149.834 86.5 -207.501 149.5s-103.334 138.667 -137.001 227s-50.5 182.166 -50.5 281.499c0 108.667 20.333 212 61 310s97.334 180.333 170.001 247c114.667 106 258 159 430 159zM745.001 1311c-140 0 -244.669 -54.333 -314.002 -163
c-35.333 -57.333 -60 -119.666 -74 -186.999s-21 -157.666 -21 -270.999c0 -118.667 6.83301 -211.667 20.5 -279s38.5 -129.666 74.5 -186.999c68.667 -108 171.334 -162 308.001 -162s239.334 54 308.001 162c35.333 57.333 60 119.666 74 186.999s21 158.666 21 273.999
s-7 207.166 -21 275.499s-38.667 130.833 -74 187.5c-34 52.667 -77 93 -129 121s-109.667 42 -173 42z" />
    <glyph glyph-name="P" unicode="P" horiz-adv-x="1266" 
d="M471 610l0.00195312 -376v-55c0 -17.333 1.16699 -30.833 3.5 -40.5s6.33301 -18.167 12 -25.5s15.5 -12.5 29.5 -15.5s30.167 -5.16699 48.5 -6.5s44.166 -2 77.499 -2h49v-89h-638v89h35c33.333 0 59.166 0.666992 77.499 2s34.5 3.5 48.5 6.5
s23.833 8.16699 29.5 15.5s9.66699 15.833 12 25.5s3.5 23.167 3.5 40.5v55v904v55c0 17.333 -1.16699 30.833 -3.5 40.5s-6.33301 18.167 -12 25.5s-15.5 12.333 -29.5 15s-30.167 4.66699 -48.5 6s-44.166 2 -77.499 2h-35v90h665c137.333 0 244.666 -19.667 321.999 -59
c128.667 -64.667 193 -170.667 193 -318c0 -74.667 -18.333 -141.167 -55 -199.5s-88.667 -103.833 -156 -136.5c-38 -18 -82.333 -30.667 -133 -38s-118.667 -11 -204 -11h-214zM471.002 699l230.999 -0.000976562c100.667 0 175.334 23.667 224.001 71s73 120 73 218
c0 100.667 -23.5 174.834 -70.5 222.501s-120.167 71.5 -219.5 71.5h-122c-52.667 0 -85.167 -5.16699 -97.5 -15.5s-18.5 -37.5 -18.5 -81.5v-486z" />
    <glyph glyph-name="Q" unicode="Q" horiz-adv-x="1477" 
d="M1336 -38l84.998 0.000976562v-6c0 -98 -21.667 -175 -65 -231s-102.666 -84 -177.999 -84c-78 0 -139.667 31.333 -185 94s-70 151 -74 265c-55.333 -19.333 -111.666 -29 -168.999 -29c-121.333 0 -233 31.667 -335 95s-182.333 149.666 -241 258.999s-88 229 -88 359
c0 108.667 21.5 212 64.5 310s103.5 182 181.5 252c113.333 102.667 248.333 154 405 154c120 0 230.333 -30.833 331 -92.5s180.167 -146 238.5 -253s87.5 -224.5 87.5 -352.5c0 -250 -99.667 -457 -299 -621c32.667 -104 61.5 -177.667 86.5 -221s51.167 -65 78.5 -65
c23.333 0 40.5 12.5 51.5 37.5s19.167 68.167 24.5 129.5zM1045 226.001c36.667 58.667 62.332 122.832 76.999 192.499s22 160.167 22 271.5c0 187.333 -26 331.666 -78 432.999c-28.667 58.667 -71.667 104.667 -129 138s-122.333 50 -195 50
c-70 0 -131.667 -14.5 -185 -43.5s-94.666 -70.167 -123.999 -123.5c-64.667 -115.333 -97 -268.666 -97 -459.999c0 -218 36.667 -375.667 110 -473c-0.666992 4.66699 -1 9.33398 -1 14.001s0.166992 9 0.5 13s0.5 6.33301 0.5 7c0 76 25.667 138 77 186s117 72 197 72
s148 -23.833 204 -71.5s96.333 -116.167 121 -205.5zM911.996 102.999v18c0 93.333 -17.5 165.5 -52.5 216.5s-84.833 76.5 -149.5 76.5c-52.667 0 -95.167 -17.167 -127.5 -51.5s-48.5 -79.833 -48.5 -136.5c0 -52 17.5 -92.333 52.5 -121s84.167 -43 147.5 -43
c66 0 125.333 13.667 178 41z" />
    <glyph glyph-name="R" unicode="R" horiz-adv-x="1370" 
d="M468 665l0.00292969 -432.999v-53c0 -17.333 1.16699 -30.833 3.5 -40.5s6.33301 -18.167 12 -25.5s15.5 -12.5 29.5 -15.5s30.167 -5.16699 48.5 -6.5s44.166 -2 77.499 -2h33v-89h-623v89h34c33.333 0 59.166 0.666992 77.499 2s34.5 3.5 48.5 6.5
s23.833 8.16699 29.5 15.5s9.66699 15.833 12 25.5s3.5 23.167 3.5 40.5v53v906v55c0 17.333 -1.16699 30.833 -3.5 40.5s-6.33301 18.167 -12 25.5s-15.5 12.333 -29.5 15s-30.167 4.66699 -48.5 6s-44.166 2 -77.499 2h-34v90h658c160 0 283.667 -29.5 371 -88.5
s131 -142.833 131 -251.5c0 -96 -33.5 -172.167 -100.5 -228.5s-168.833 -93.833 -305.5 -112.5c74 -19.333 131.333 -51.333 172 -96s71.334 -110.334 92.001 -197.001l32 -119c16 -65.333 30.333 -108.833 43 -130.5s29.667 -32.5 51 -32.5
c25.333 0 44.166 14.667 56.499 44s20.5 77.333 24.5 144h80c-2.66699 -114 -23.167 -198 -61.5 -252s-96.5 -81 -174.5 -81c-74.667 0 -130.834 23.667 -168.501 71s-62.167 124.666 -73.5 231.999l-10 96c-6.66699 62.667 -17.5 112.334 -32.5 149.001s-36.5 66 -64.5 88
c-46.667 38.667 -110.334 58 -191.001 58h-110zM468.003 755.001h208.999c45.333 0 88 5.83301 128 17.5s72 27.5 96 47.5c49.333 40 74 110 74 210c0 86 -22 149.5 -66 190.5s-113 61.5 -207 61.5h-103c-40 0 -66.667 -0.833008 -80 -2.5s-23.666 -5.16699 -30.999 -10.5
c-9.33301 -7.33301 -15 -16 -17 -26s-3 -33.667 -3 -71v-417z" />
    <glyph glyph-name="S" unicode="S" horiz-adv-x="1196" 
d="M1037 1384l22.9961 -495.001h-81c-26 98.667 -64 183.667 -114 255c-77.333 110 -183 165 -317 165c-80.667 0 -146 -20.667 -196 -62s-75 -95.333 -75 -162c0 -58 20.333 -106 61 -144s103.334 -67.667 188.001 -89l204 -52c75.333 -18.667 133.833 -37.167 175.5 -55.5
s75.5 -39.833 101.5 -64.5c76 -74 114 -170.667 114 -290c0 -127.333 -41.333 -229 -124 -305s-193.667 -114 -333 -114c-83.333 0 -155 10.667 -215 32s-121.667 58.333 -185 111l-85 -129h-74l-9 541h83c14.667 -74 33.167 -135.667 55.5 -185s53.166 -96 92.499 -140
c44.667 -49.333 93.334 -85.5 146.001 -108.5s114.334 -34.5 185.001 -34.5c52 0 95.167 5.83301 129.5 17.5s67.5 31.167 99.5 58.5c57.333 52 86 115.667 86 191c0 76 -29 136.333 -87 181c-19.333 14.667 -38.666 25.334 -57.999 32.001s-65 19.334 -137 38.001l-180 45
c-140 36.667 -238.667 83.667 -296 141s-86 137.666 -86 240.999c0 118.667 38.333 214.5 115 287.5s177.334 109.5 302.001 109.5c140 0 255.333 -43.667 346 -131l75 115h70z" />
    <glyph glyph-name="T" unicode="T" horiz-adv-x="1266" 
d="M1203 1372l28.002 -529.002h-81c-14.667 106.667 -36 193.667 -64 261c-24 57.333 -58.167 101.333 -102.5 132s-95.5 46 -153.5 46c-31.333 0 -53.833 -5.16699 -67.5 -15.5s-20.5 -27.5 -20.5 -51.5v-981v-55c0 -28.667 3.66699 -48.667 11 -60s22 -19.166 44 -23.499
s59.667 -6.5 113 -6.5h49v-89h-650v89h48c33.333 0 59.166 0.666992 77.499 2s34.5 3.5 48.5 6.5s23.833 8.16699 29.5 15.5s9.66699 15.833 12 25.5s3.5 23.167 3.5 40.5v55v981c0 24 -7 41.167 -21 51.5s-37 15.5 -69 15.5c-130.667 0 -220.334 -70 -269.001 -210
c-21.333 -59.333 -38.333 -135.666 -51 -228.999h-82l29 529h1138z" />
    <glyph glyph-name="U" unicode="U" horiz-adv-x="1548" 
d="M1298 959l0.00488281 -431.002c0 -86 -6.16699 -156.167 -18.5 -210.5s-33.833 -103.166 -64.5 -146.499c-90.667 -133.333 -242.334 -200 -455.001 -200c-107.333 0 -201.5 17 -282.5 51s-143.5 82.333 -187.5 145c-32.667 48 -51.334 119.667 -56.001 215v131v625v55
c0 28.667 -3.83301 48.667 -11.5 60s-22.334 19 -44.001 23s-59.5 6 -113.5 6h-33v90h622v-90h-36c-77.333 0 -125.333 -4.83301 -144 -14.5s-28 -34.5 -28 -74.5v-55v-636c0 -87.333 3.83301 -149.166 11.5 -185.499s24.5 -72.166 50.5 -107.499
c31.333 -42.667 73.5 -75.667 126.5 -99s111.833 -35 176.5 -35c76.667 0 144.5 16.167 203.5 48.5s104.167 78.166 135.5 137.499c18 33.333 30 69 36 107s9 95.333 9 172v419c0 90 -5.83301 156.667 -17.5 200s-32.334 74 -62.001 92s-75.834 28.333 -138.501 31v90h541
v-90c-63.333 -2.66699 -110 -13 -140 -31s-50.833 -48.667 -62.5 -92s-17.5 -110 -17.5 -200z" />
    <glyph glyph-name="V" unicode="V" horiz-adv-x="1370" 
d="M747 294l293 782.999c16 44 24 79.333 24 106c0 30.667 -13.667 54.834 -41 72.501s-65 26.5 -113 26.5h-36v90h515v-90h-18c-54 0 -95.167 -12.5 -123.5 -37.5s-56.5 -74.167 -84.5 -147.5l-438 -1126h-75l-481 1206c-18 44 -36 72.5 -54 85.5s-48.667 19.5 -92 19.5
h-38v90h593v-90h-76c-43.333 0 -73.833 -3.5 -91.5 -10.5s-26.5 -19.167 -26.5 -36.5c0 -16.667 4.66699 -35.667 14 -57z" />
    <glyph glyph-name="W" unicode="W" horiz-adv-x="1863" 
d="M664 346l219.002 729l-49 148c-7.33301 22.667 -19.333 38.167 -36 46.5s-44.334 12.5 -83.001 12.5h-44v90h549v-90h-30c-56.667 0 -93.334 -3 -110.001 -9c-18 -8.66699 -27 -22.667 -27 -42c0 -6.66699 4.33301 -24.334 13 -53.001l262 -832l228 771c8 22 12 44 12 66
c0 66 -54.667 99 -164 99h-15v90h466v-90h-8c-64 0 -111 -22.333 -141 -67c-10 -14 -18 -28.667 -24 -44s-15 -43.666 -27 -84.999l-335 -1115h-78l-307 945l-281 -945h-82l-411 1238c-11.333 33.333 -23 53.833 -35 61.5s-38 11.5 -78 11.5h-37v90h537v-90h-86
c-31.333 0 -52.833 -2.66699 -64.5 -8s-17.5 -15.333 -17.5 -30c0 -10.667 3.33301 -26.667 10 -48z" />
    <glyph glyph-name="X" unicode="X" horiz-adv-x="1335" 
d="M739 760l399.003 -572.004c23.333 -33.333 42.166 -56.166 56.499 -68.499s31 -20.5 50 -24.5s50.167 -6 93.5 -6h22v-89h-623v89h53c33.333 0.666992 57.166 1.33398 71.499 2.00098s26.5 2.33398 36.5 5.00098s15.833 5.83398 17.5 9.50098s2.5 9.5 2.5 17.5
c0 14.667 -8.33301 34.667 -25 60l-283 401l-220 -320c-20.667 -33.333 -31 -61 -31 -83c0 -28 11.167 -50.333 33.5 -67s52.5 -25 90.5 -25h46v-89h-539v89h10c48.667 0 92.667 12 132 36s77.666 62.667 114.999 116l307 428l-373 541
c-21.333 31.333 -41.5 51.166 -60.5 59.499s-51.833 12.5 -98.5 12.5h-33v90h587v-90h-73c-36 0 -60.333 -1.66699 -73 -5s-19 -9.66602 -19 -18.999c0 -12 7.33301 -28 22 -48l252 -364l207 298c17.333 23.333 26 45 26 65c0 25.333 -10.5 43.833 -31.5 55.5
s-54.167 17.5 -99.5 17.5h-27v90h522v-90h-29c-50.667 0 -93.5 -11.833 -128.5 -35.5s-79.167 -71.167 -132.5 -142.5z" />
    <glyph glyph-name="Y" unicode="Y" horiz-adv-x="1335" 
d="M739 678l236.003 420.998c21.333 36.667 32 69 32 97c0 30.667 -11.333 52.667 -34 66s-60.334 20 -113.001 20h-45v90h539v-90h-15c-65.333 0 -121 -21.333 -167 -64c-26 -26 -57.667 -72.333 -95 -139l-282 -512v-333v-55c0 -22 1.16699 -38.167 3.5 -48.5
s10 -19.166 23 -26.499s29.333 -11.666 49 -12.999s50.167 -2 91.5 -2h51v-89h-652v89h49c33.333 0 59.166 0.666992 77.499 2s34.5 3.5 48.5 6.5s23.833 8.16699 29.5 15.5s9.66699 15.833 12 25.5s3.5 23.167 3.5 40.5v55v312l-410 649
c-21.333 34.667 -42.333 57.834 -63 69.501s-51.334 17.5 -92.001 17.5h-41v90h611v-90h-113c-50 0 -75 -12 -75 -36c0 -12.667 7.33301 -30.334 22 -53.001z" />
    <glyph glyph-name="Z" unicode="Z" horiz-adv-x="1160" 
d="M1080 1372v-69.001l-779 -1214h315c62 0 117 8.66699 165 26s84 41.666 108 72.999c27.333 34 49.833 77.167 67.5 129.5s33.167 122.5 46.5 210.5h89l-33 -528h-1014v68l778 1214h-247c-66 0 -119.333 -5.16699 -160 -15.5s-76.167 -30.666 -106.5 -60.999
s-54.5 -69.666 -72.5 -117.999s-35 -113.5 -51 -195.5h-85l39 480h940z" />
    <glyph glyph-name="bracketleft" unicode="[" horiz-adv-x="583" 
d="M273 -43h248v-63h-405v1456h405v-65h-248v-1328z" />
    <glyph glyph-name="backslash" unicode="\" horiz-adv-x="1063" 
d="M231 1293l703 -1293h-102l-702 1293h101z" />
    <glyph glyph-name="bracketright" unicode="]" horiz-adv-x="583" 
d="M308 1287h-245v63h404v-1456h-404v65h245v1328z" />
    <glyph glyph-name="asciicircum" unicode="^" horiz-adv-x="1063" 
d="M973 558h-154l-285 546l-290 -546h-153l367 709h150z" />
    <glyph glyph-name="underscore" unicode="_" horiz-adv-x="877" 
d="M0 -129h878v-106h-878v106z" />
    <glyph glyph-name="grave" unicode="`" horiz-adv-x="357" 
d="M276 1291l42 -48.001c-119.333 -84.667 -179 -165 -179 -241c0 -10.667 4 -16 12 -16c1.33301 0 3 0.666992 5 2l32 2c34.667 0 62.5 -9.5 83.5 -28.5s31.5 -44.167 31.5 -75.5c0 -30.667 -10.833 -56.167 -32.5 -76.5s-48.834 -30.5 -81.501 -30.5
c-43.333 0 -78.166 15.833 -104.499 47.5s-39.5 73.834 -39.5 126.501c0 120 77 232.667 231 338z" />
    <glyph glyph-name="a" unicode="a" horiz-adv-x="1055" 
d="M860 612l-0.000976562 -381.002c0 -47.333 5.33301 -81.166 16 -101.499s29 -30.5 55 -30.5c10 0 27.667 4.66699 53 14c12 4.66699 21.667 7 29 7c5.33301 0 9.83301 -2.33301 13.5 -7s5.5 -10.334 5.5 -17.001c0 -27.333 -18.333 -52.333 -55 -75s-76.667 -34 -120 -34
c-44.667 0 -80 10.333 -106 31s-46.333 55 -61 103c-40.667 -48 -89.667 -85 -147 -111s-118.666 -39 -183.999 -39c-83.333 0 -150.166 20.333 -200.499 61s-75.5 94.667 -75.5 162c0 117.333 81.333 207 244 269c46.667 18 92.334 32.5 137.001 43.5
s116.667 25.167 216 42.5v75c0 43.333 -3.66699 77.333 -11 102s-20 44.334 -38 59.001c-14.667 14 -36.834 25.5 -66.501 34.5s-59.5 13.5 -89.5 13.5c-45.333 0 -84.833 -7.5 -118.5 -22.5s-50.5 -32.5 -50.5 -52.5c0 -6 4.33301 -14 13 -24
c19.333 -28.667 29 -54.667 29 -78c0 -28 -9.83301 -51.167 -29.5 -69.5s-44.167 -27.5 -73.5 -27.5c-34 0 -61 10.667 -81 32s-30 50 -30 86c0 68 35.5 124.5 106.5 169.5s159.5 67.5 265.5 67.5c119.333 0 211.666 -25.333 276.999 -76
c28 -22.667 47.833 -51.167 59.5 -85.5s17.5 -81.166 17.5 -140.499zM679.999 379.998v88.001c-135.333 -22.667 -229.333 -46.334 -282 -71.001c-81.333 -39.333 -122 -98 -122 -176c0 -42.667 14 -78 42 -106s63.667 -42 107 -42c40.667 0 81 10.833 121 32.5
s72 50.167 96 85.5c16 24.667 26.333 48.167 31 70.5s7 61.833 7 118.5z" />
    <glyph glyph-name="b" unicode="b" horiz-adv-x="1055" 
d="M342 1400l-0.00195312 -634.999c36.667 54 74.334 92.333 113.001 115s87 34 145 34c114 0 207.167 -43.5 279.5 -130.5s108.5 -198.833 108.5 -335.5s-38.667 -250.334 -116 -341.001s-174.666 -136 -291.999 -136c-114.667 0 -210 50 -286 150l-93 -150h-72
c22.667 102.667 34 266.667 34 492v740c0 40.667 -5 66.667 -15 78s-32.333 17 -67 17h-66v81zM565.998 817.001c-76 0 -133.999 -33.667 -173.999 -101s-60 -164.333 -60 -291c0 -116.667 21.167 -207.834 63.5 -273.501s101.166 -98.5 176.499 -98.5
c69.333 0 122.666 32.833 159.999 98.5s56 158.5 56 278.5c0 124.667 -19.167 220.334 -57.5 287.001s-93.166 100 -164.499 100z" />
    <glyph glyph-name="c" unicode="c" horiz-adv-x="842" 
d="M736 279l73.0029 -28.999c-40.667 -100.667 -87.5 -172.334 -140.5 -215.001s-121.833 -64 -206.5 -64c-118 0 -213.667 42.333 -287 127s-110 194.667 -110 330c0 141.333 39.667 257.666 119 348.999s180.666 137 303.999 137c84 0 154.5 -21.833 211.5 -65.5
s85.5 -97.5 85.5 -161.5c0 -38 -10.833 -68.833 -32.5 -92.5s-49.5 -35.5 -83.5 -35.5c-33.333 0 -60.833 9.83301 -82.5 29.5s-32.5 45.167 -32.5 76.5c0 16 2.66699 30 8 42s15.666 27 30.999 45c7.33301 10 11 17.667 11 23c0 15.333 -10.667 28.833 -32 40.5
s-46 17.5 -74 17.5c-70.667 0 -127.334 -35.333 -170.001 -106s-64 -163.667 -64 -279c0 -111.333 22 -199.166 66 -263.499s104.333 -96.5 181 -96.5c49.333 0 91.333 14.833 126 44.5s67.667 78.5 99 146.5z" />
    <glyph glyph-name="d" unicode="d" horiz-adv-x="1089" 
d="M722 -13v148.998c-31.333 -57.333 -67.833 -99.166 -109.5 -125.499s-92.5 -39.5 -152.5 -39.5c-110.667 0 -201.5 43.333 -272.5 130s-106.5 197.334 -106.5 332.001c0 136.667 36.333 251 109 343s162.667 138 270 138c106.667 0 194 -46.667 262 -140v429
c0 40 -5.16699 65.833 -15.5 77.5s-32.5 17.5 -66.5 17.5h-112v81l373 21v-1179c0 -60 6.83301 -98.333 20.5 -115s46.167 -25 97.5 -25h34v-81zM498 810.998c-38.667 0 -74.5 -12.667 -107.5 -38s-57.5 -59 -73.5 -101c-24 -62.667 -36 -150 -36 -262
c0 -105.333 19.167 -187.5 57.5 -246.5s90.833 -88.5 157.5 -88.5c68 0 122.667 33 164 99s62 154 62 264c0 90.667 -12.667 167 -38 229c-17.333 44 -42.833 79 -76.5 105s-70.167 39 -109.5 39z" />
    <glyph glyph-name="e" unicode="e" horiz-adv-x="949" 
d="M883 428l-615 0.000976562v-19c0 -90 15.667 -160 47 -210c48.667 -82.667 121 -124 217 -124c63.333 0 117 15.5 161 46.5s85.333 82.833 124 155.5l66 -36c-77.333 -180 -206.333 -270 -387 -270c-128 0 -231.5 41.167 -310.5 123.5s-118.5 190.166 -118.5 323.499
c0 142.667 40.333 261 121 355s182 141 304 141c115.333 0 209.333 -44.833 282 -134.5s109 -205.167 109 -346.5v-5zM270 509.001h331.999c30.667 0 51.334 4.83301 62.001 14.5s16 28.5 16 56.5c0 76.667 -17.5 138 -52.5 184s-81.5 69 -139.5 69
c-88.667 0 -152.667 -56.333 -192 -169c-17.333 -51.333 -26 -103 -26 -155z" />
    <glyph glyph-name="f" unicode="f" horiz-adv-x="631" 
d="M382 886l209 -0.00195312v-83h-209v-569v-76c0 -38 8.66699 -62.5 26 -73.5s56.666 -16.5 117.999 -16.5h35v-68h-508v68h9c60.667 0 99.5 5.5 116.5 16.5s25.5 35.5 25.5 73.5v76v569h-168v83h168v58c0 77.333 5.5 139.333 16.5 186s30.5 90 58.5 130
c67.333 93.333 165.666 140 294.999 140c76.667 0 137.334 -15.833 182.001 -47.5s67 -75.167 67 -130.5c0 -34 -9.83301 -62 -29.5 -84s-45.167 -33 -76.5 -33c-29.333 0 -54.166 9.83301 -74.499 29.5s-30.5 43.5 -30.5 71.5c0 22.667 5.66699 43.334 17 62.001
c7.33301 10.667 11 19 11 25c0 20.667 -21.333 31 -64 31c-38 0 -72.667 -12 -104 -36s-54.333 -56.667 -69 -98c-14 -35.333 -21 -100.666 -21 -195.999v-108z" />
    <glyph glyph-name="g" unicode="g" horiz-adv-x="1018" 
d="M372 141l194 -0.00195312c112 0 192.667 -9 242 -27c34.667 -14.667 62.167 -39.834 82.5 -75.501s30.5 -77.167 30.5 -124.5c0 -198.667 -159 -298 -477 -298c-128 0 -226.833 16.5 -296.5 49.5s-104.5 80.833 -104.5 143.5c0 78.667 58.667 139 176 181
c-44.667 14.667 -77.167 35.334 -97.5 62.001s-30.5 60.667 -30.5 102c0 52.667 14.333 93.834 43 123.501s74.667 51.834 138 66.501c-49.333 22.667 -88.166 56.667 -116.499 102s-42.5 96.333 -42.5 153c0 95.333 33.833 171.666 101.5 228.999s158.167 86 271.5 86
c46.667 0 87.667 -5.5 123 -16.5s73 -29.833 113 -56.5c44.667 40.667 78.667 67.5 102 80.5s50.333 19.5 81 19.5c37.333 0 67.5 -10.333 90.5 -31s34.5 -47.334 34.5 -80.001c0 -25.333 -8.33301 -46.833 -25 -64.5s-37 -26.5 -61 -26.5c-48 0 -76 23.333 -84 70
c-2.66699 18 -9.33398 27 -20.001 27c-15.333 0 -37 -15.333 -65 -46c26.667 -31.333 45.167 -60.666 55.5 -87.999s15.5 -60 15.5 -98c0 -62.667 -15.5 -118 -46.5 -166s-75.167 -84.667 -132.5 -110c-31.333 -14.667 -62 -24 -92 -28s-90 -6.66699 -180 -8
c-63.333 -1.33301 -108.833 -8.83301 -136.5 -22.5s-41.5 -34.5 -41.5 -62.5c0 -23.333 7.33301 -39.666 22 -48.999c12 -6.66699 24.5 -11 37.5 -13s44.833 -3.33301 95.5 -4zM484 832.998c-63.333 0 -112.334 -20.499 -147.001 -61.499s-52 -99.167 -52 -174.5
c0 -71.333 17.167 -127.833 51.5 -169.5s80.833 -62.5 139.5 -62.5c60.667 0 108.334 21 143.001 63s52 100 52 174c0 73.333 -16.167 130.166 -48.5 170.499s-78.5 60.5 -138.5 60.5zM467.999 -23.001l-140.999 0.000976562c-46 -24 -78.5 -47.333 -97.5 -70
s-28.5 -49.667 -28.5 -81c0 -42.667 21.833 -75.834 65.5 -99.501s105.167 -35.5 184.5 -35.5c106 0 188.667 15.333 248 46s89 73 89 127c0 30.667 -10.833 55.5 -32.5 74.5s-51.834 30.5 -90.501 34.5c-26 2.66699 -91.667 4 -197 4z" />
    <glyph glyph-name="h" unicode="h" horiz-adv-x="1160" 
d="M380 1400l0.00390625 -670c42.667 63.333 88.167 109.833 136.5 139.5s102.833 44.5 163.5 44.5c56.667 0 107.834 -13 153.501 -39s80.5 -61.667 104.5 -107c17.333 -32 28.166 -62 32.499 -90s6.5 -76.667 6.5 -146v-298v-76c0 -38 8.5 -62.5 25.5 -73.5
s55.5 -16.5 115.5 -16.5h8v-68h-481v68h9c61.333 0 100.666 5.5 117.999 16.5s26 35.5 26 73.5v76v306c0 86.667 -14 150.334 -42 191.001c-14.667 19.333 -34.667 35.333 -60 48s-50.333 19 -75 19c-40.667 0 -80.334 -13.333 -119.001 -40s-68 -61.334 -88 -104.001
c-22.667 -44 -34 -118.667 -34 -224v-196v-76c0 -38 8.66699 -62.5 26 -73.5s56.666 -16.5 117.999 -16.5h8v-68h-481v68h7c60.667 0 99.667 5.5 117 16.5s26 35.5 26 73.5v76v969c0 40.667 -4.83301 66.667 -14.5 78s-31.834 17 -66.501 17h-91v81z" />
    <glyph glyph-name="i" unicode="i" horiz-adv-x="597" 
d="M392 886l0.00195312 -652.001v-76c0 -38 8.66699 -62.5 26 -73.5s56.666 -16.5 117.999 -16.5h13v-68h-493v68h14c60.667 0 99.5 5.5 116.5 16.5s25.5 35.5 25.5 73.5v76v453c0 40.667 -4.83301 66.834 -14.5 78.501s-31.834 17.5 -66.501 17.5h-96v82zM302.002 1359
c30.667 0 56.5 -10.667 77.5 -32s31.5 -47.666 31.5 -78.999s-10.5 -57.5 -31.5 -78.5s-47.167 -31.5 -78.5 -31.5c-28.667 0 -54 11 -76 33s-33 47.667 -33 77c0 31.333 10.667 57.666 32 78.999s47.333 32 78 32z" />
    <glyph glyph-name="j" unicode="j" horiz-adv-x="561" 
d="M393 886l0.000976562 -752.003c0 -106.667 -5.66699 -188.667 -17 -246s-31.666 -107 -60.999 -149c-27.333 -38 -64 -68 -110 -90s-95.667 -33 -149 -33c-63.333 0 -114.5 14.333 -153.5 43s-58.5 66.334 -58.5 113.001c0 32.667 10.167 59.834 30.5 81.501
s45.833 32.5 76.5 32.5c26.667 0 49.667 -9 69 -27s29 -39 29 -63c0 -10.667 -4.33301 -25.667 -13 -45c-6 -13.333 -9 -23.333 -9 -30s4.66699 -12.5 14 -17.5s20.666 -7.5 33.999 -7.5c20 0 40.167 6.5 60.5 19.5s34.833 28.833 43.5 47.5
c13.333 27.333 22.5 61.333 27.5 102s7.5 100 7.5 178v644c0 40.667 -4.83301 66.834 -14.5 78.501s-31.834 17.5 -66.501 17.5h-110v82zM304.001 1359c30.667 0 56.668 -10.667 78.001 -32s32 -47.666 32 -78.999c0 -30.667 -10.833 -56.667 -32.5 -78
s-48.167 -32 -79.5 -32c-28.667 0 -53.834 11 -75.501 33s-32.5 47.667 -32.5 77c0 31.333 10.667 57.666 32 78.999s47.333 32 78 32z" />
    <glyph glyph-name="k" unicode="k" horiz-adv-x="1125" 
d="M379 460l255.002 246.999c29.333 29.333 44 54.333 44 75c0 23.333 -29.667 35 -89 35h-60v69h501v-69c-64.667 -7.33301 -120.667 -23.166 -168 -47.499s-98.333 -63.5 -153 -117.5l-85 -85l269 -368c39.333 -49.333 72.833 -82.333 100.5 -99
s68.167 -27.334 121.5 -32.001v-68h-501v68h36c31.333 0 53.166 2.33301 65.499 7s18.5 13.334 18.5 26.001c0 6.66699 -4.66699 17.667 -14 33l-226 317l-115 -109v-108v-76c0 -38 8.5 -62.5 25.5 -73.5s56.167 -16.5 117.5 -16.5h7v-68h-480v68h7
c60.667 0 99.667 5.5 117 16.5s26 35.5 26 73.5v76v969c0 40.667 -4.83301 66.667 -14.5 78s-31.834 17 -66.501 17h-91v81l352 21v-940z" />
    <glyph glyph-name="l" unicode="l" horiz-adv-x="597" 
d="M388 1400l0.000976562 -1166v-76c0 -38 8.66699 -62.5 26 -73.5s56.666 -16.5 117.999 -16.5h14v-68h-493v68h14c60.667 0 99.5 5.5 116.5 16.5s25.5 35.5 25.5 73.5v76v969c0 40.667 -4.83301 66.667 -14.5 78s-31.5 17 -65.5 17h-93v81z" />
    <glyph glyph-name="m" unicode="m" horiz-adv-x="1687" 
d="M382 886l0.00195312 -147.004c37.333 60 78.166 104.167 122.499 132.5s94.833 42.5 151.5 42.5c63.333 0 118.833 -17.5 166.5 -52.5s79.5 -81.167 95.5 -138.5c40.667 65.333 85 113.5 133 144.5s102.667 46.5 164 46.5c91.333 0 165.666 -36.333 222.999 -109
c24.667 -32.667 41 -63.167 49 -91.5s12 -71.5 12 -129.5v-350v-75c0 -38.667 8.5 -63.5 25.5 -74.5s55.833 -16.5 116.5 -16.5h9v-68h-481v68h8c61.333 0 100.5 5.5 117.5 16.5s25.5 35.5 25.5 73.5v76v312c0 66.667 -7.33301 119.334 -22 158.001
c-12.667 29.333 -31.334 52.333 -56.001 69s-52.667 25 -84 25c-66.667 0 -119.5 -28.167 -158.5 -84.5s-58.5 -132.166 -58.5 -227.499v-252v-76c0 -38 8.5 -62.5 25.5 -73.5s55.833 -16.5 116.5 -16.5h8v-68h-481v68h8c61.333 0 100.666 5.5 117.999 16.5s26 35.5 26 73.5
v76v332c0 78.667 -13 135.334 -39 170.001c-11.333 18 -28.666 32.833 -51.999 44.5s-47.333 17.5 -72 17.5c-61.333 0 -112.833 -28.167 -154.5 -84.5s-62.5 -126.5 -62.5 -210.5v-269v-75c0 -38.667 8.5 -63.5 25.5 -74.5s55.833 -16.5 116.5 -16.5h8v-68h-479v68h9
c60.667 0 99.334 5.33301 116.001 16s25 35.667 25 75v75v453c0 40.667 -5 66.834 -15 78.501s-32.333 17.5 -67 17.5h-78v82z" />
    <glyph glyph-name="n" unicode="n" horiz-adv-x="1160" 
d="M380 886l0.00390625 -155c80.667 122 180.667 183 300 183c56.667 0 107.834 -13 153.501 -39s80.5 -61.667 104.5 -107c17.333 -32 28.166 -62 32.499 -90s6.5 -76.667 6.5 -146v-298v-76c0 -38 8.5 -62.5 25.5 -73.5s55.5 -16.5 115.5 -16.5h8v-68h-481v68h9
c61.333 0 100.666 5.5 117.999 16.5s26 35.5 26 73.5v76v307c0 88 -14 151.333 -42 190c-14.667 19.333 -34.667 35.333 -60 48s-50.333 19 -75 19c-40.667 0 -80.334 -13.333 -119.001 -40s-68 -61.334 -88 -104.001c-22.667 -44 -34 -118.333 -34 -223v-197v-76
c0 -38 8.66699 -62.5 26 -73.5s56.666 -16.5 117.999 -16.5h8v-68h-481v68h7c60.667 0 99.667 5.5 117 16.5s26 35.5 26 73.5v76v453c0 40.667 -4.83301 66.834 -14.5 78.501s-31.834 17.5 -66.501 17.5h-69v82z" />
    <glyph glyph-name="o" unicode="o" horiz-adv-x="949" 
d="M479 914c112 0 207.833 -46 287.5 -138s119.5 -203 119.5 -333c0 -131.333 -40 -242.833 -120 -334.5s-177 -137.5 -291 -137.5s-210.833 45.667 -290.5 137s-119.5 202.333 -119.5 333c0 132.667 40 244.667 120 336s178 137 294 137zM479 833
c-143.333 0 -215 -130.666 -215 -391.999c0 -125.333 18.167 -221.333 54.5 -288s88.5 -100 156.5 -100s120 33.5 156 100.5s54 163.5 54 289.5c0 125.333 -17.667 221.666 -53 288.999s-86.333 101 -153 101z" />
    <glyph glyph-name="p" unicode="p" horiz-adv-x="1089" 
d="M382 886l0.000976562 -136.002c34 57.333 71.5 99 112.5 125s90.833 39 149.5 39c104.667 0 193 -45.167 265 -135.5s108 -201.166 108 -332.499c0 -136 -36.5 -249.167 -109.5 -339.5s-164.833 -135.5 -275.5 -135.5c-58 0 -106.333 12 -145 36s-73.667 63.667 -105 119
v-276v-76c0 -38 8.66699 -62.333 26 -73s56.666 -16 117.999 -16h22v-69h-495v69h9c60.667 0 99.5 5.33301 116.5 16s25.5 35 25.5 73v76v837c0 40.667 -5 66.834 -15 78.501s-32.667 17.5 -68 17.5h-68v82zM610.001 810.998c-72 0 -128.333 -33.5 -169 -100.5
s-61 -159.5 -61 -277.5c0 -108.667 20.5 -195.5 61.5 -260.5s95.167 -97.5 162.5 -97.5s119.666 33.333 156.999 100s56 161 56 283c0 111.333 -18.167 198 -54.5 260s-87.166 93 -152.499 93z" />
    <glyph glyph-name="q" unicode="q" horiz-adv-x="1055" 
d="M853 886l69.999 -0.000976562c-17.333 -78.667 -27.333 -133 -30 -163v-36c0 -30.667 -0.333008 -64 -1 -100v-737v-76c0 -38 8.5 -62.333 25.5 -73s55.833 -16 116.5 -16h6v-69h-492v69h19c61.333 0 100.833 5.33301 118.5 16s26.5 35 26.5 73v76v260
c-38 -52.667 -75.667 -89 -113 -109s-85.666 -30 -144.999 -30c-111.333 0 -203.5 42.5 -276.5 127.5s-109.5 192.833 -109.5 323.5c0 140.667 38.833 257.834 116.5 351.501s174.5 140.5 290.5 140.5c117.333 0 213.333 -52.667 288 -158zM491.999 832.999
c-149.333 0 -224 -133.333 -224 -400c0 -114 19.167 -202.167 57.5 -264.5s92.833 -93.5 163.5 -93.5c148.667 0 223 129.333 223 388c0 102.667 -13.333 183 -40 241c-18 40 -43 71.5 -75 94.5s-67 34.5 -105 34.5z" />
    <glyph glyph-name="r" unicode="r" horiz-adv-x="842" 
d="M377 886l0.000976562 -236c31.333 84 71.5 149 120.5 195s103.5 69 163.5 69c50 0 90.167 -13.833 120.5 -41.5s45.5 -64.5 45.5 -110.5c0 -38.667 -11 -70 -33 -94s-50 -36 -84 -36c-30.667 0 -55.667 9.66699 -75 29s-29 44.666 -29 75.999c0 18 2.33301 33.167 7 45.5
s13.667 25.833 27 40.5c-81.333 -10 -144.666 -68.667 -189.999 -176c-48.667 -109.333 -73 -241 -73 -395v-18v-76c0 -38 8.5 -62.5 25.5 -73.5s55.833 -16.5 116.5 -16.5h35v-68h-506v68h7c61.333 0 100.666 5.5 117.999 16.5s26 35.5 26 73.5v76v453
c0 40.667 -4.83301 66.834 -14.5 78.501s-31.834 17.5 -66.501 17.5h-78v82z" />
    <glyph glyph-name="s" unicode="s" horiz-adv-x="879" 
d="M742 906l-0.00195312 -319h-68c-15.333 44 -29.5 77.833 -42.5 101.5s-29.833 45.834 -50.5 66.501c-52 50 -113.333 75 -184 75c-52 0 -94.333 -12.333 -127 -37s-49 -56 -49 -94c0 -21.333 5.83301 -41.166 17.5 -59.499s27.834 -31.833 48.501 -40.5l10 -5
c5.33301 -2.66699 8.5 -4.33398 9.5 -5.00098s3.83301 -2 8.5 -4l9.5 -4c1.66699 -0.666992 5.33398 -1.83398 11.001 -3.50098s10.667 -3 15 -4s10.5 -2.5 18.5 -4.5l25 -6l31 -7l96 -20c58.667 -12.667 101 -24 127 -34s50 -25 72 -45
c53.333 -43.333 80 -107.666 80 -192.999c0 -88 -28.5 -158.833 -85.5 -212.5s-132.167 -80.5 -225.5 -80.5c-94.667 0 -180.667 31.333 -258 94l-68 -78h-67v359h76c22.667 -94.667 61.667 -167.167 117 -217.5s123 -75.5 203 -75.5c56 0 101.667 14.167 137 42.5
s53 64.833 53 109.5c0 38 -15 68 -45 90s-82.667 42 -158 60l-100 24c-58.667 14 -102 26.667 -130 38s-52.333 26.666 -73 45.999c-44 40 -66 98.667 -66 176c0 82.667 25.5 149.167 76.5 199.5s118.167 75.5 201.5 75.5c88.667 0 165.667 -25.333 231 -76l55 68h68z" />
    <glyph glyph-name="t" unicode="t" horiz-adv-x="738" 
d="M368 886l279.004 -0.000976562v-83h-279v-518c0 -66.667 5.66699 -114 17 -142c6.66699 -16 19 -29.167 37 -39.5s37.667 -15.5 59 -15.5c93.333 0 142.666 86 147.999 258h80c0.666992 -6 1 -20.667 1 -44c0 -52.667 -8.5 -102.5 -25.5 -149.5
s-41.167 -85.833 -72.5 -116.5c-44.667 -43.333 -105.334 -65 -182.001 -65c-55.333 0 -101.833 10.5 -139.5 31.5s-63.834 51.5 -78.501 91.5c-8.66699 20.667 -14.334 46.167 -17.001 76.5s-4 79.833 -4 148.5v484h-156v75c152 10.667 237 138.334 255 383.001h78v-375z
" />
    <glyph glyph-name="u" unicode="u" horiz-adv-x="1160" 
d="M783 -13l0.00390625 158c-42 -60.667 -86.333 -104.834 -133 -132.501s-101.334 -41.5 -164.001 -41.5c-116.667 0 -201.667 40.667 -255 122c-14 21.333 -23.667 45.166 -29 71.499s-8 63.833 -8 112.5v410c0 40.667 -4.83301 66.834 -14.5 78.501
s-31.834 17.5 -66.501 17.5h-73v82l332 21v-580c0 -52 1.66699 -87.167 5 -105.5s11.333 -36.5 24 -54.5c25.333 -38.667 69.666 -58 132.999 -58c46 0 87.333 11.667 124 35s65 56 85 98c26.667 58 40 135.667 40 233v233c0 40.667 -4.83301 66.834 -14.5 78.501
s-31.834 17.5 -66.501 17.5h-98v82l357 21v-665c0 -60.667 6.83301 -99.167 20.5 -115.5s46.5 -24.5 98.5 -24.5h49v-81z" />
    <glyph glyph-name="v" unicode="v" horiz-adv-x="1018" 
d="M561 231l174.999 439.999c10.667 30.667 16 57 16 79c0 44.667 -34 67 -102 67h-26v69h379v-69h-8c-36.667 0 -68.667 -13.833 -96 -41.5s-53.666 -73.167 -78.999 -136.5l-271 -668h-66l-327 765c-13.333 32.667 -28.5 54.334 -45.5 65.001s-43.833 16 -80.5 16h-15v69
h448v-69h-26c-38.667 0 -65.667 -3.16699 -81 -9.5s-23 -17.5 -23 -33.5c0 -10.667 3.66699 -24 11 -40z" />
    <glyph glyph-name="w" unicode="w" horiz-adv-x="1477" 
d="M1039 245l161.999 432.999c10 22.667 15 46.334 15 71.001c0 24 -7.16699 41.333 -21.5 52s-38.166 16 -71.499 16h-32v69h359v-69h-13c-33.333 0 -60 -10.167 -80 -30.5s-40.333 -58.5 -61 -114.5l-266 -701h-59l-232 601l-226 -601h-67l-285 752
c-13.333 38 -26.333 63.167 -39 75.5s-32.334 18.5 -59.001 18.5h-34v69h417v-69h-35c-28 0 -48 -3.16699 -60 -9.5s-18 -17.5 -18 -33.5c0 -2.66699 3 -17 9 -43l184 -477l168 443l-17 50c-8 27.333 -19.167 45.833 -33.5 55.5s-36.166 14.5 -65.499 14.5h-32v69h425v-69
h-46c-32 0 -53.167 -2.83301 -63.5 -8.5s-15.5 -17.167 -15.5 -34.5c0 -14.667 2.33301 -28 7 -40z" />
    <glyph glyph-name="x" unicode="x" horiz-adv-x="1018" 
d="M587 484l240.001 -323.001c24 -33.333 49 -57.166 75 -71.499s56 -21.5 90 -21.5h13v-68h-479v68h14c36 0 61.667 2.66699 77 8s23 14.333 23 27c0 15.333 -8 34 -24 56l-145 193l-159 -193c-10.667 -10.667 -16 -23.667 -16 -39c0 -8 2.66699 -16.333 8 -25
s11.666 -15 18.999 -19c14 -5.33301 36.333 -8 67 -8h28v-68h-402v68h13c58 0 114.667 33 170 99l219 255l-232 293c-32 40.667 -57.5 67.167 -76.5 79.5s-45.833 19.833 -80.5 22.5v69h450v-69h-28c-29.333 0 -50.5 -2.5 -63.5 -7.5s-19.5 -13.833 -19.5 -26.5
c0 -11.333 6.66699 -25 20 -41l146 -188l120 143c24.667 29.333 37 55.333 37 78c0 28 -28.333 42 -85 42h-37v69h393v-69h-16c-50 0 -97.667 -26.667 -143 -80z" />
    <glyph glyph-name="y" unicode="y" horiz-adv-x="1018" 
d="M569 241l174 430.002c12.667 31.333 19 56.666 19 75.999c0 24.667 -8 42.5 -24 53.5s-42.333 16.5 -79 16.5h-30v69h379v-69h-11c-36.667 0 -66.334 -11 -89.001 -33s-46 -62 -70 -120l-217 -537c-40.667 -102.667 -73.334 -179 -98.001 -229s-52 -95.667 -82 -137
c-75.333 -102 -162.666 -153 -261.999 -153c-49.333 0 -90.666 14.167 -123.999 42.5s-50 63.166 -50 104.499c0 34 10.833 62.167 32.5 84.5s49.167 33.5 82.5 33.5c27.333 0 50.333 -8 69 -24s28 -36.333 28 -61c0 -12.667 -3.33301 -29.667 -10 -51
c-2 -8 -3 -13.333 -3 -16c0 -5.33301 3 -10 9 -14s13 -6 21 -6c30.667 0 66 22.667 106 68s77 104.666 111 177.999l33 66l-310 702c-17.333 38 -35.5 64.5 -54.5 79.5s-43.833 22.5 -74.5 22.5h-20v69h451v-69h-39c-32 0 -54.5 -3.66699 -67.5 -11
s-19.5 -19.666 -19.5 -36.999c0 -11.333 3.66699 -24.333 11 -39z" />
    <glyph glyph-name="z" unicode="z" horiz-adv-x="913" 
d="M814 886l0.000976562 -69l-520 -736h194c85.333 0 148.166 19.667 188.499 59s64.833 106 73.5 200h77l-13 -340h-739v68l518 735h-165c-78 0 -135.833 -18.5 -173.5 -55.5s-60.5 -98.167 -68.5 -183.5h-76l17 322h687z" />
    <glyph glyph-name="braceleft" unicode="{" horiz-adv-x="583" 
d="M116 594l0.00195312 56.001c37.333 12.667 63.666 24.167 78.999 34.5s27.333 25.166 36 44.499c8 16.667 13 33.5 15 50.5s3 51.5 3 103.5v203c0 58 4.66699 103.667 14 137s25 59.666 47 78.999c16 14 39.5 25.5 70.5 34.5s62.833 13.5 95.5 13.5h45v-60
c-56.667 -3.33301 -94.5 -19.833 -113.5 -49.5s-28.5 -86.834 -28.5 -171.501v-228c0 -60 -7.66699 -104.167 -23 -132.5s-47 -57.166 -95 -86.499c48 -29.333 79.667 -58.166 95 -86.499s23 -72.5 23 -132.5v-229c0 -84.667 9.5 -141.834 28.5 -171.501
s56.833 -46.167 113.5 -49.5v-59h-45c-32.667 0 -64.5 4.33301 -95.5 13s-54.5 20 -70.5 34c-22 19.333 -37.667 45.666 -47 78.999s-14 79 -14 137v204c0 58 -1.33301 96.333 -4 115s-9.33398 36.334 -20.001 53.001c-10.667 14.667 -23 26.334 -37 35.001
s-38 18.667 -72 30z" />
    <glyph glyph-name="bar" unicode="|" horiz-adv-x="1063" 
d="M600 1267v-1267h-136v1267h136z" />
    <glyph glyph-name="braceright" unicode="}" horiz-adv-x="583" 
d="M469 650v-56.0049c-38 -12.667 -64.667 -24.167 -80 -34.5s-28 -25.166 -38 -44.499c-8 -16.667 -13 -33.5 -15 -50.5s-3 -51.5 -3 -103.5v-204c0 -58.667 -4.66699 -104.667 -14 -138s-25 -59.333 -47 -78c-16 -14 -39.333 -25.333 -70 -34s-62.334 -13 -95.001 -13h-44
v59c56 3.33301 93.5 19.833 112.5 49.5s28.5 86.834 28.5 171.501v229c0 60.667 7.66699 105 23 133s46.666 56.667 93.999 86c-47.333 29.333 -78.666 58 -93.999 86s-23 72.333 -23 133v228c0 84.667 -9.5 141.834 -28.5 171.501s-56.5 46.167 -112.5 49.5v60h44
c32.667 0 64.334 -4.5 95.001 -13.5s54 -20.5 70 -34.5c22 -18.667 37.667 -44.667 47 -78s14 -79.333 14 -138v-203c0 -57.333 1.5 -95.5 4.5 -114.5s10.5 -36.833 22.5 -53.5c10 -15.333 22 -27.166 36 -35.499s38.333 -18.166 73 -29.499z" />
    <glyph glyph-name="asciitilde" unicode="~" horiz-adv-x="1063" 
d="M183 504l-93.999 66c32.667 56.667 71.334 102.167 116.001 136.5s88 51.5 130 51.5c22 0 45.167 -3.83301 69.5 -11.5s59.166 -22.5 104.499 -44.5l81 -39c46 -22.667 76.5 -36.5 91.5 -41.5s31.167 -7.5 48.5 -7.5c24.667 0 50.167 10 76.5 30s51.166 48 74.499 84
l93 -67c-32.667 -56.667 -71.334 -102 -116.001 -136s-88 -51 -130 -51c-38 0 -96 18 -174 54l-80 41c-52 24 -84.167 38.167 -96.5 42.5s-27.166 6.5 -44.499 6.5c-50.667 0 -100.667 -38 -150 -114z" />
    <glyph glyph-name="dotnosp" unicode="&#x307;" 
d="M-58 1450c0 16 5.5 29.667 16.5 41s24.833 17 41.5 17s30.5 -5.66699 41.5 -17s16.5 -25 16.5 -41s-5.66699 -29.667 -17 -41s-25 -17 -41 -17s-29.667 5.66699 -41 17s-17 25 -17 41z" />
    <glyph glyph-name="dieresisnosp" unicode="&#x308;" 
d="M48 1451c0 15.333 5.66699 28.666 17 39.999s25 17 41 17c16.667 0 30.667 -5.66699 42 -17s17 -24.666 17 -39.999c0 -16 -5.83301 -29.833 -17.5 -41.5s-25.5 -17.5 -41.5 -17.5s-29.667 5.83301 -41 17.5s-17 25.5 -17 41.5zM-165 1451
c0 15.333 5.66699 28.666 17 39.999s25.333 17 42 17c16 0 29.667 -5.66699 41 -17s17 -24.666 17 -39.999c0 -16 -5.66699 -29.833 -17 -41.5s-25 -17.5 -41 -17.5s-29.833 5.83301 -41.5 17.5s-17.5 25.5 -17.5 41.5z" />
    <glyph glyph-name="ringnosp" unicode="&#x30a;" 
d="M0 1295c-32 0 -59.333 11.667 -82 35s-34 51 -34 83c0 30.667 11.167 57.5 33.5 80.5s49.833 34.5 82.5 34.5c31.333 0 58.5 -11 81.5 -33s34.5 -49.333 34.5 -82c0 -32 -11.333 -59.667 -34 -83s-50 -35 -82 -35zM0 1488c-20 0 -37.001 -7 -51.001 -21s-21 -32 -21 -54
s7 -40.167 21 -54.5s31 -21.5 51 -21.5s37 7.16699 51 21.5s21 32.5 21 54.5s-7.16699 40 -21.5 54s-31.166 21 -50.499 21z" />
    <glyph glyph-name="cgj" unicode="&#x34f;" 
 />
    <glyph glyph-name="atnah" unicode="&#x591;" 
d="M39 -157l0.000976562 -88c77.333 -11.333 116 -73.333 116 -186c0 -8.66699 -0.833008 -17.834 -2.5 -27.501s-2.5 -17.834 -2.5 -24.501c-12.667 -7.33301 -23.334 -11 -32.001 -11c-6 0 -17.667 3.66699 -35 11v52c0 78.667 -27.667 118 -83 118s-83 -39.333 -83 -118
v-52c-13.333 -7.33301 -25 -11 -35 -11s-20.667 3.66699 -32 11c0 6.66699 -0.833008 14.834 -2.5 24.501s-2.5 18.834 -2.5 27.501c0 112.667 38.667 174.667 116 186v88c12 10 25 15 39 15c11.333 0 24.333 -5 39 -15z" />
    <glyph glyph-name="segolta" unicode="&#x592;" 
d="M-145 1346c0 15.333 5.33301 28.166 16 38.499s23.667 15.5 39 15.5s28.333 -5.16699 39 -15.5s16 -23.166 16 -38.499s-5.33301 -28.333 -16 -39s-23.667 -16 -39 -16s-28.333 5.33301 -39 16s-16 23.667 -16 39zM35 1346c0 15.333 5.33301 28.166 16 38.499
s23.667 15.5 39 15.5s28.333 -5.16699 39 -15.5s16 -23.166 16 -38.499s-5.33301 -28.333 -16 -39s-23.667 -16 -39 -16s-28.333 5.33301 -39 16s-16 23.667 -16 39zM-55 1480c0 15.333 5.33301 28.333 16 39s23.667 16 39 16s28.333 -5.33301 39 -16s16 -23.667 16 -39
s-5.33301 -28.333 -16 -39s-23.667 -16 -39 -16s-28.333 5.33301 -39 16s-16 23.667 -16 39z" />
    <glyph glyph-name="shalshelet" unicode="&#x593;" 
d="M69 1597l-68.9971 -52.9971c-11.333 -9.33301 -16.333 -14.666 -15 -15.999s10.666 -2 27.999 -2h51c20 0 30.5 -1 31.5 -3s-5.16699 -9.66699 -18.5 -23l-67 -56c-15.333 -13.333 -22.333 -20.833 -21 -22.5s12 -2.5 32 -2.5h28c27.333 0 42 -1.5 44 -4.5
s-7.33301 -12.833 -28 -29.5l-52 -45c-16.667 -14 -24.334 -22.167 -23.001 -24.5s12.333 -3.5 33 -3.5h52c15.333 0 24.166 -0.833008 26.499 -2.5s3.5 -8.83398 3.5 -21.501c0 -13.333 -1.16699 -21 -3.5 -23s-11.833 -3 -28.5 -3h-142c-22 0 -33 1.33301 -33 4
s10.333 12.667 31 30l54 44c6.66699 5.33301 11.334 9.16602 14.001 11.499s5 4.66602 7 6.99902s1.16699 3.66602 -2.5 3.99902l-10.5 1c-3.33301 0.333008 -10 0.5 -20 0.5h-39c-22.667 0 -34.5 1.66699 -35.5 5s7.83301 12.333 26.5 27l65 54
c12.667 10 18.667 15.833 18 17.5s-9 2.5 -25 2.5h-58c-17.333 0 -26.5 1 -27.5 3s4.5 8.66699 16.5 20l141 120l21 6c7.33301 -6 5.66602 -13.333 -5.00098 -22z" />
    <glyph glyph-name="zaqefqatan" unicode="&#x594;" 
d="M-69 1325c0 19.333 6.66699 35.666 20 48.999s29.666 20 48.999 20s35.666 -6.66699 48.999 -20s20 -29.666 20 -48.999s-6.66699 -35.5 -20 -48.5s-29.666 -19.5 -48.999 -19.5s-35.666 6.5 -48.999 19.5s-20 29.167 -20 48.5zM-69 1516
c0 19.333 6.66699 35.666 20 48.999s29.666 20 48.999 20s35.666 -6.66699 48.999 -20s20 -29.666 20 -48.999s-6.66699 -35.5 -20 -48.5s-29.666 -19.5 -48.999 -19.5s-35.666 6.5 -48.999 19.5s-20 29.167 -20 48.5z" />
    <glyph glyph-name="zaqefgadol" unicode="&#x595;" 
d="M30 1326c0 19.333 6.66699 35.666 20 48.999s29.666 20 48.999 20s35.333 -6.66699 48 -20s19 -29.666 19 -48.999s-6.33301 -35.666 -19 -48.999s-28.667 -20 -48 -20s-35.666 6.66699 -48.999 20s-20 29.666 -20 48.999zM30 1517c0 19.333 6.66699 35.666 20 48.999
s29.666 20 48.999 20s35.333 -6.66699 48 -20s19 -29.666 19 -48.999s-6.33301 -35.666 -19 -48.999s-28.667 -20 -48 -20s-35.666 6.66699 -48.999 20s-20 29.666 -20 48.999zM-118 1586c25.333 0 39.999 -1.50098 43.999 -4.50098s6 -14.167 6 -33.5v-251v-7
c0 -15.333 -2.5 -24.666 -7.5 -27.999s-19.167 -5 -42.5 -5s-37.166 1.83301 -41.499 5.5s-6.5 15.167 -6.5 34.5v251c0 18.667 2 29.667 6 33s18 5 42 5z" />
    <glyph glyph-name="tipeha" unicode="&#x596;" 
d="M133 -421c2 -6.66699 3 -17.9971 3 -33.9971c0 -16.667 -5 -30.667 -15 -42c-120.667 24 -181 89.333 -181 196c0 63.333 3.66699 112 11 146c14.667 6.66699 27.334 10 38.001 10c10 0 22.333 -3.33301 37 -10c-6.66699 -53.333 -10 -93 -10 -119
c0 -54.667 6.33301 -89.334 19 -104.001s43 -28.334 91 -41.001c3.33301 -0.666992 5.66602 -1.33398 6.99902 -2.00098z" />
    <glyph glyph-name="revia" unicode="&#x597;" 
d="M0 1254c-4 0 -8.00098 2.00195 -12.001 6.00195s-9.83301 10.667 -17.5 20s-15.167 17.666 -22.5 24.999c-5.33301 6 -11.166 11.833 -17.499 17.5l-14 12.5c-3 2.66699 -5.5 5.66699 -7.5 9s-3 6.66602 -3 9.99902c0 4.66699 1.33301 9.16699 4 13.5s8.16699 11 16.5 20
l20.5 22.5c6 6.66699 13.167 15.667 21.5 27s14.666 18.833 18.999 22.5s8.5 5.5 12.5 5.5s8.16699 -1.83301 12.5 -5.5s10.666 -11.167 18.999 -22.5s15.5 -20.333 21.5 -27c4.66699 -6 10.167 -12.333 16.5 -19l14 -14.5c3 -3 5.5 -6.5 7.5 -10.5s3 -8 3 -12
s-1.33301 -7.83301 -4 -11.5s-8.16699 -9.16699 -16.5 -16.5s-15.5 -14.333 -21.5 -21c-6 -6 -12 -12.5 -18 -19.5l-14 -16.5c-3.33301 -4 -6.66602 -7.5 -9.99902 -10.5s-6.66602 -4.5 -9.99902 -4.5z" />
    <glyph glyph-name="zarqa" unicode="&#x598;" 
d="M133 1376c0 22 -14 40 -42 54c0 26.667 10 47.667 30 63c48 -25.333 72 -63.666 72 -114.999c0 -37.333 -10.5 -67.666 -31.5 -90.999s-45.167 -35 -72.5 -35c-15.333 0 -29 2.83301 -41 8.5s-22.667 14.167 -32 25.5s-16.5 21.166 -21.5 29.499s-11.167 19.5 -18.5 33.5
l-13 26c-16.667 31.333 -33.667 47 -51 47c-12 0 -22.5 -5.5 -31.5 -16.5s-13.5 -24.5 -13.5 -40.5c0 -24.667 13.667 -43 41 -55c0 -24.667 -10 -45.334 -30 -62.001c-48 28 -72 67 -72 117c0 36 10.333 65.5 31 88.5s45.667 34.5 75 34.5c24.667 0 45.5 -8 62.5 -24
s33.5 -39.667 49.5 -71l14 -27c14.667 -28.667 30.667 -43 48 -43c12.667 0 23.667 5 33 15s14 22.667 14 38z" />
    <glyph glyph-name="pashta" unicode="&#x599;" 
d="M-133 1530c-2 6.66699 -3 17.9971 -3 33.9971c0 16.667 5 30.667 15 42c120.667 -24 181 -89.333 181 -196c0 -63.333 -3.66699 -112 -11 -146c-14.667 -6.66699 -27.334 -10 -38.001 -10c-10 0 -22.333 3.33301 -37 10c6.66699 53.333 10 93 10 119
c0 54.667 -6.33301 89.334 -19 104.001s-43 28.334 -91 41.001c-3.33301 0.666992 -5.66602 1.33398 -6.99902 2.00098z" />
    <glyph glyph-name="yetiv" unicode="&#x59a;" 
d="M64 -164c14 10 23.167 14.665 27.5 13.998s11.5 -8.33398 21.5 -23.001c10 -15.333 14.667 -24.666 14 -27.999s-8.33398 -10 -23.001 -20l-83 -60c-18 -12.667 -27.167 -21 -27.5 -25s8.83398 -12.667 27.501 -26l79 -55c17.333 -10.667 26 -19.667 26 -27
c0 -5.33301 -4.66699 -14.666 -14 -27.999c-10 -13.333 -17 -20.166 -21 -20.499s-13 4.5 -27 14.5l-154 110c-24 14.667 -36 25 -36 31c0 6.66699 12 18 36 34z" />
    <glyph glyph-name="tevir" unicode="&#x59b;" 
d="M-120 -279c0 12.667 4.5 23.334 13.5 32.001s19.833 13 32.5 13s23.334 -4.33301 32.001 -13s13 -19.334 13 -32.001s-4.33301 -23.167 -13 -31.5s-19.334 -12.5 -32.001 -12.5c-13.333 0 -24.333 4.16699 -33 12.5s-13 18.833 -13 31.5zM-73 -418
c46.667 12.667 75.666 23.333 86.999 32c18.667 14.667 28.667 46 30 94v21c0 26 -3.33301 65.667 -10 119c14.667 6.66699 27.334 10 38.001 10c9.33301 0 21.333 -3.33301 36 -10c8 -56 12 -104.667 12 -146c0 -106.667 -60.333 -172 -181 -196
c-9.33301 10.667 -14 24.667 -14 42c0 16 0.666992 27.333 2 34z" />
    <glyph glyph-name="gereshaccent" unicode="&#x59c;" 
d="M133 1530c-46.667 -12.667 -75.666 -23.333 -86.999 -32c-18.667 -14.667 -28.667 -46 -30 -94v-21c0 -26 3.33301 -65.667 10 -119c-14.667 -6.66699 -27 -10 -37 -10c-10.667 0 -23.334 3.33301 -38.001 10c-7.33301 34 -11 82.667 -11 146
c0 106.667 60.333 172 181 196c10 -11.333 15 -25.333 15 -42c0 -16 -1 -27.333 -3 -34z" />
    <glyph glyph-name="gereshmuqdam" unicode="&#x59d;" 
d="M133 1530c-46.667 -12.667 -75.666 -23.333 -86.999 -32c-18.667 -14.667 -28.667 -46 -30 -94v-21c0 -26 3.33301 -65.667 10 -119c-14.667 -6.66699 -27 -10 -37 -10c-10.667 0 -23.334 3.33301 -38.001 10c-7.33301 34 -11 82.667 -11 146
c0 106.667 60.333 172 181 196c10 -11.333 15 -25.333 15 -42c0 -16 -1 -27.333 -3 -34z" />
    <glyph glyph-name="gershayimaccent" unicode="&#x59e;" 
d="M192 1530c-16 -4 -25.666 -6.50488 -28.999 -7.50488l-22.5 -7c-11.667 -3.66699 -18.5 -6.5 -20.5 -8.5s-6.83301 -5.16699 -14.5 -9.5s-12 -8.66602 -13 -12.999s-3.5 -9.66602 -7.5 -15.999s-6.16699 -13.666 -6.5 -21.999s-1 -17.666 -2 -27.999
s-1.5 -22.166 -1.5 -35.499c0 -29.333 3.66699 -69 11 -119c-14.667 -6.66699 -27.334 -10 -38.001 -10c-9.33301 0 -21.333 3.33301 -36 10c-8 37.333 -12 86 -12 146c-0 58 15.833 102.333 47.5 133s76.167 51.667 133.5 63c9.33301 -10.667 14 -24.667 14 -42
c0 -16 -1 -27.333 -3 -34zM0.000976562 1530c-47.333 -12.667 -76.667 -23.334 -88 -32.001c-20 -15.333 -30.667 -47 -32 -95v-20c0 -33.333 3.33301 -73 10 -119c-15.333 -6.66699 -27.666 -10 -36.999 -10c-10.667 0 -23.334 3.33301 -38.001 10
c-6.66699 46.667 -10 95.334 -10 146.001c0 58 15.833 102.333 47.5 133s76.167 51.667 133.5 63c9.33301 -10.667 14 -24.667 14 -42v-34z" />
    <glyph glyph-name="qarneypara" unicode="&#x59f;" 
d="M42 1334c8.66699 8.66699 13.166 13.9971 13.499 15.9971s-3.5 9.33301 -11.5 22c-10.667 24 -16 45 -16 63c0 31.333 10.833 57.833 32.5 79.5s47.5 32.5 77.5 32.5c29.333 0 54.333 -10.667 75 -32s31 -47.666 31 -78.999c0 -32.667 -10.667 -60.667 -32 -84
s-46.666 -35 -75.999 -35h-6.5h-6.5c-1.33301 0 -3.33301 -0.166992 -6 -0.5s-4.83398 -0.833008 -6.50098 -1.5s-3.5 -1.5 -5.5 -2.5s-4.16699 -2.33301 -6.5 -4s-4.83301 -3.83398 -7.5 -6.50098c-3.33301 -3.33301 -8.16602 -7.66602 -14.499 -12.999l-13.5 -11.5
l-11 -9.5c-4.66699 -4 -8.16699 -6.83301 -10.5 -8.5s-5.33301 -4 -9 -7s-6.66699 -5 -9 -6l-8 -3.5c-3 -1.33301 -5.66699 -2.16602 -8 -2.49902s-4.83301 -0.5 -7.5 -0.5c-14 0 -39.667 17 -77 51c-6 4.66699 -10.333 8.33398 -13 11.001c-2.66699 2 -5 3.83301 -7 5.5
s-3.83301 3 -5.5 4s-3.5 1.83301 -5.5 2.5l-4.5 1.5c-1 0.333008 -2.83301 0.666016 -5.5 0.999023s-4.33398 0.5 -5.00098 0.5h-6h-7c-29.333 0 -54.666 11.333 -75.999 34s-32 50.334 -32 83.001c0 32 10.333 58.833 31 80.5s45.667 32.5 75 32.5
c30 0 55.833 -10.833 77.5 -32.5s32.5 -48.167 32.5 -79.5c0 -18 -5.33301 -37.667 -16 -59c-8 -12 -11.833 -19.667 -11.5 -23s4.83301 -9 13.5 -17c20.667 -21.333 34.667 -32 42 -32c6.66699 0 20.667 10 42 30zM-139.001 1492c-18 0 -32.167 -5.16699 -42.5 -15.5
s-15.5 -23.833 -15.5 -40.5c0 -18 5.33301 -33.167 16 -45.5s25 -18.5 43 -18.5s32 6.16699 42 18.5s15 27.5 15 45.5c0 16.667 -5 30.167 -15 40.5s-24.333 15.5 -43 15.5zM139.999 1492c-18.667 0 -33.167 -5.16699 -43.5 -15.5s-15.5 -23.833 -15.5 -40.5
c0 -18 5 -33.167 15 -45.5s24 -18.5 42 -18.5s32.333 6.16699 43 18.5s16 27.5 16 45.5c0 16.667 -5 30.167 -15 40.5s-24 15.5 -42 15.5z" />
    <glyph glyph-name="telishagedola" unicode="&#x5a0;" 
d="M0 1508c-28 0 -49.333 -7.16895 -64 -21.502s-22 -33.166 -22 -56.499c0 -24 7.33301 -43.667 22 -59s36 -23 64 -23c27.333 0 48.833 7.83301 64.5 23.5s23.5 35.167 23.5 58.5c0 22.667 -7.83301 41.334 -23.5 56.001s-37.167 22 -64.5 22zM0 1293
c-5.33301 0 -12.333 0.999023 -21 2.99902s-15 3 -19 3c-7.33301 0 -12.5 -1.33301 -15.5 -4s-7.5 -9.33398 -13.5 -20.001l-24 -42c-7.33301 -13.333 -13 -20.666 -17 -21.999s-12.667 1.66699 -26 9c-12 6.66699 -18.167 12 -18.5 16s4.5 13.333 14.5 28l24 36
c8.66699 11.333 13 21 13 29c0 6.66699 -3.16699 13.334 -9.5 20.001s-12.5 16.5 -18.5 29.5s-9 30.167 -9 51.5c0 37.333 12.667 68.5 38 93.5s59.333 37.5 102 37.5c44 0 78.667 -12.833 104 -38.5s38 -56.5 38 -92.5c0 -34.667 -14.333 -66.167 -43 -94.5
s-61.667 -42.5 -99 -42.5z" />
    <glyph glyph-name="pazer" unicode="&#x5a1;" 
d="M132 1489c0 -51.333 -11.833 -93.666 -35.5 -126.999s-59.5 -50 -107.5 -50h-43v-83c-14.667 -6 -27 -9 -37 -9c-14 0 -28.333 3 -43 9v325c14.667 5.33301 28 8 40 8c12.667 0 26 -2.66699 40 -8v-168c8 -2.66699 18.667 -4 32 -4c54.667 0 82 35.667 82 107v7
c0 18.667 -3.33301 38 -10 58c12 5.33301 23 8 33 8c10.667 0 23 -2.66699 37 -8l5.5 -20c2.33301 -8.66699 4 -16.334 5 -23.001s1.5 -14 1.5 -22z" />
    <glyph glyph-name="atnahhafukh" unicode="&#x5a2;" 
d="M-39 -479l-0.000976562 88c-77.333 11.333 -116 73.333 -116 186c0 8.66699 0.833008 17.834 2.5 27.501s2.5 17.834 2.5 24.501c12.667 7.33301 23.334 11 32.001 11c6 0 17.667 -3.66699 35 -11v-52c0 -78.667 27.667 -118 83 -118s83 39.333 83 118v52
c13.333 7.33301 25 11 35 11s20.667 -3.66699 32 -11c0 -6.66699 0.833008 -14.834 2.5 -24.501s2.5 -18.834 2.5 -27.501c0 -112.667 -38.667 -174.667 -116 -186v-88c-12 -10 -25 -15 -39 -15c-11.333 0 -24.333 5 -39 15z" />
    <glyph glyph-name="munah" unicode="&#x5a3;" 
d="M49 -448l-117.001 -0.000976562c-15.333 0 -24.333 1.5 -27 4.5s-4 13.5 -4 31.5c0 14.667 1.16699 23 3.5 25s11.5 3 27.5 3h73c16.667 0 26.667 1.5 30 4.5s5 12.5 5 28.5v173c0 14.667 1.33301 23.334 4 26.001s11.334 4 26.001 4c14 0 22.333 -1.16699 25 -3.5
s4 -10.833 4 -25.5v-230c0 -20 -2.33301 -31.833 -7 -35.5s-19 -5.5 -43 -5.5z" />
    <glyph glyph-name="mahapakh" unicode="&#x5a4;" 
d="M64 -164c14 10 23.167 14.665 27.5 13.998s11.5 -8.33398 21.5 -23.001c10 -15.333 14.667 -24.666 14 -27.999s-8.33398 -10 -23.001 -20l-83 -60c-18 -12.667 -27.167 -21 -27.5 -25s8.83398 -12.667 27.501 -26l79 -55c17.333 -10.667 26 -19.667 26 -27
c0 -5.33301 -4.66699 -14.666 -14 -27.999c-10 -13.333 -17 -20.166 -21 -20.499s-13 4.5 -27 14.5l-154 110c-24 14.667 -36 25 -36 31c0 6.66699 12 18 36 34z" />
    <glyph glyph-name="merkha" unicode="&#x5a5;" 
d="M-133 -418c46.667 12.667 75.666 23.333 86.999 32c18.667 14.667 28.667 46 30 94v21c0 26 -3.33301 65.667 -10 119c14.667 6.66699 27 10 37 10c10.667 0 23.334 -3.33301 38.001 -10c7.33301 -34 11 -82.667 11 -146c0 -106.667 -60.333 -172 -181 -196
c-10 11.333 -15 25.333 -15 42c0 16 1 27.333 3 34z" />
    <glyph glyph-name="merkhakefula" unicode="&#x5a6;" 
d="M-192 -418c16 4 25.666 6.50488 28.999 7.50488l22.5 7c11.667 3.66699 18.5 6.5 20.5 8.5s6.83301 5.16699 14.5 9.5s12 8.66602 13 12.999s3.5 9.66602 7.5 15.999s6.16699 13.666 6.5 21.999s1 17.666 2 27.999s1.5 22.166 1.5 35.499c0 29.333 -3.66699 69 -11 119
c14.667 6.66699 27.334 10 38.001 10c9.33301 0 21.333 -3.33301 36 -10c8 -37.333 12 -86 12 -146c0 -58 -15.833 -102.333 -47.5 -133s-76.167 -51.667 -133.5 -63c-9.33301 10.667 -14 24.667 -14 42c0 16 1 27.333 3 34zM-0.000976562 -417.995
c47.333 12.667 76.667 23.334 88 32.001c20 15.333 30.667 47 32 95v20c0 33.333 -3.33301 73 -10 119c15.333 6.66699 27.666 10 36.999 10c10.667 0 23.334 -3.33301 38.001 -10c6.66699 -46.667 10 -95.334 10 -146.001c0 -58 -15.833 -102.333 -47.5 -133
s-76.167 -51.667 -133.5 -63c-9.33301 10.667 -14 24.667 -14 42v34z" />
    <glyph glyph-name="darga" unicode="&#x5a7;" 
d="M65 -207c-23.333 0 -44.832 -4.83105 -64.499 -14.498s-29.5 -23.5 -29.5 -41.5c0 -2.66699 9.5 -6 28.5 -10s38.167 -12.5 57.5 -25.5s29 -31.167 29 -54.5c0 -40 -12.333 -68.5 -37 -85.5s-66.667 -29.5 -126 -37.5c-5.33301 24 -5.33301 44.667 0 62
c8.66699 2 20.667 4.5 36 7.5s25.666 5.16699 30.999 6.5s11.5 3.83301 18.5 7.5s11.667 8.5 14 14.5s3.5 13.667 3.5 23c0 2.66699 -5.83301 5.66699 -17.5 9l-38.5 11c-14 4 -26.833 11.833 -38.5 23.5s-17.5 26.5 -17.5 44.5c0 41.333 11.5 70.166 34.5 86.499
s61.833 28.166 116.5 35.499c8 -18 8 -38.667 0 -62z" />
    <glyph glyph-name="qadma" unicode="&#x5a8;" 
d="M-133 1523c-2 6.66699 -3.00098 18.334 -3.00098 35.001s5 30.667 15 42c120.667 -24 181 -89.667 181 -197c0 -61.333 -3.66699 -110.333 -11 -147c-14 -5.33301 -26.667 -8 -38 -8c-10.667 0 -23 2.66699 -37 8c6.66699 53.333 10 93.333 10 120
c0 17.333 -0.666992 32.166 -2 44.499s-2.66602 23 -3.99902 32s-5 16.833 -11 23.5l-14 15.5c-3.33301 3.66699 -10.833 7.66699 -22.5 12s-20.667 7.5 -27 9.5s-18.5 5.33301 -36.5 10z" />
    <glyph glyph-name="telishaqetana" unicode="&#x5a9;" 
d="M0 1508c-27.333 0 -48.5 -7.33105 -63.5 -21.998s-22.5 -33.334 -22.5 -56.001c0 -23.333 7.5 -42.833 22.5 -58.5s36.167 -23.5 63.5 -23.5c28 0 49.667 7.66699 65 23s23 35 23 59c0 23.333 -7.5 42.166 -22.5 56.499s-36.833 21.5 -65.5 21.5zM0 1293
c-37.333 0 -70 14.168 -98 42.501s-42 59.833 -42 94.5c0 36.667 12.5 67.667 37.5 93s59.167 38 102.5 38c42.667 0 77 -12.5 103 -37.5s39 -56.167 39 -93.5c0 -21.333 -3 -38.5 -9 -51.5s-12.167 -22.833 -18.5 -29.5s-9.5 -13.334 -9.5 -20.001
c0 -8 4.33301 -17.667 13 -29l24 -36c10 -14.667 14.833 -24 14.5 -28s-6.5 -9.33301 -18.5 -16c-13.333 -7.33301 -22 -10.333 -26 -9s-9.66699 8.66602 -17 21.999l-24 42c-6 10.667 -10.5 17.334 -13.5 20.001s-8.16699 4 -15.5 4c-4 0 -10.5 -1 -19.5 -3
s-16.5 -3 -22.5 -3z" />
    <glyph glyph-name="yerahbenyomo" unicode="&#x5aa;" 
d="M-39 -479l-0.000976562 88c-77.333 11.333 -116 73.333 -116 186c0 8.66699 0.833008 17.834 2.5 27.501s2.5 17.834 2.5 24.501c12.667 7.33301 23.334 11 32.001 11c6 0 17.667 -3.66699 35 -11v-52c0 -78.667 27.667 -118 83 -118s83 39.333 83 118v52
c13.333 7.33301 25 11 35 11s20.667 -3.66699 32 -11c0 -6.66699 0.833008 -14.834 2.5 -24.501s2.5 -18.834 2.5 -27.501c0 -112.667 -38.667 -174.667 -116 -186v-88c-12 -10 -25 -15 -39 -15c-11.333 0 -24.333 5 -39 15z" />
    <glyph glyph-name="ole" unicode="&#x5ab;" 
d="M64 1557c10 8.66699 17.168 13.668 21.501 15.001s8.16602 0.5 11.499 -2.5s9 -10.167 17 -21.5c7.33301 -10 11.333 -17 12 -21s0 -7.5 -2 -10.5s-8.33301 -8.5 -19 -16.5l-84 -58c-12.667 -9.33301 -20.334 -15.833 -23.001 -19.5s-2.66699 -7.5 0 -11.5
s10.334 -10.667 23.001 -20l79 -55c17.333 -10.667 26 -19.667 26 -27c0 -5.33301 -4.66699 -14.666 -14 -27.999c-10 -12.667 -17 -19.334 -21 -20.001s-13 3.66602 -27 12.999l-154 111c-24 14.667 -36 25 -36 31c0 6.66699 12 18 36 34z" />
    <glyph glyph-name="iluy" unicode="&#x5ac;" 
d="M49 1260l-117.001 0.00195312c-14.667 0 -23.5 1.83301 -26.5 5.5s-4.5 14.167 -4.5 31.5c0 15.333 1.33301 24.166 4 26.499s11.667 3.5 27 3.5h73c17.333 0 27.5 1.33301 30.5 4s4.5 11.667 4.5 27v173c0 15.333 1.33301 24.166 4 26.499s11.334 3.5 26.001 3.5
c14 0 22.333 -1.16699 25 -3.5s4 -10.833 4 -25.5v-230c0 -20 -2.5 -32 -7.5 -36s-19.167 -6 -42.5 -6z" />
    <glyph glyph-name="dehi" unicode="&#x5ad;" 
d="M133 -418c2 -6.66699 3 -17.9971 3 -33.9971c0 -16.667 -5 -30.667 -15 -42c-120.667 24 -181 89.333 -181 196c0 63.333 3.66699 112 11 146c14.667 6.66699 27.334 10 38.001 10c10 0 22.333 -3.33301 37 -10c-6.66699 -53.333 -10 -93 -10 -119
c0 -54.667 6.33301 -89.334 19 -104.001s43 -28.334 91 -41.001c3.33301 -0.666992 5.66602 -1.33398 6.99902 -2.00098z" />
    <glyph glyph-name="tsinor" unicode="&#x5ae;" 
d="M133 1392c0 22.667 -13.668 40.6641 -41.001 53.9971c0 26.667 10 47.667 30 63c48 -25.333 72 -63.666 72 -114.999c0 -37.333 -10.667 -67.666 -32 -90.999s-45.666 -35 -72.999 -35c-19.333 0 -37 5.66699 -53 17s-27.667 22.833 -35 34.5s-15.333 26.834 -24 45.501
l-14 26c-16.667 31.333 -33.667 47 -51 47c-12 0 -22.5 -5.5 -31.5 -16.5s-13.5 -24.5 -13.5 -40.5c0 -24.667 13.667 -43 41 -55c0 -26 -10 -46.667 -30 -62c-48 28 -72 67 -72 117c0 36 10.5 65.5 31.5 88.5s45.833 34.5 74.5 34.5c43.333 0 81 -31.667 113 -95l14 -27
c14 -28.667 29.667 -43 47 -43c12.667 0 23.667 5 33 15s14 22.667 14 38z" />
    <glyph glyph-name="masoracircle" unicode="&#x5af;" 
d="M0 1260c-42 0 -77.667 14.999 -107 44.999s-44 66 -44 108c0 40 14.5 75 43.5 105s64.833 45 107.5 45c40.667 0 76 -14.5 106 -43.5s45 -64.5 45 -106.5c0 -41.333 -14.833 -77.166 -44.5 -107.499s-65.167 -45.5 -106.5 -45.5zM0 1507c-26.667 0 -49 -8.66699 -67 -26
s-27 -40 -27 -68s9.16699 -51.333 27.5 -70s40.5 -28 66.5 -28c25.333 0 47.333 9.16699 66 27.5s28 41.833 28 70.5s-9.16699 51.5 -27.5 68.5s-40.5 25.5 -66.5 25.5z" />
    <glyph glyph-name="sheva" unicode="&#x5b0;" 
d="M-69 -405c0 19.333 6.66699 35.666 20 48.999s29.666 20 48.999 20s35.666 -6.66699 48.999 -20s20 -29.666 20 -48.999c0 -18.667 -6.66699 -34.5 -20 -47.5s-29.666 -19.5 -48.999 -19.5s-35.666 6.5 -48.999 19.5s-20 28.833 -20 47.5zM-69 -214
c0 19.333 6.66699 35.666 20 48.999s29.666 20 48.999 20s35.666 -6.66699 48.999 -20s20 -29.666 20 -48.999c0 -18.667 -6.66699 -34.5 -20 -47.5s-29.666 -19.5 -48.999 -19.5s-35.666 6.5 -48.999 19.5s-20 28.833 -20 47.5z" />
    <glyph glyph-name="hatafsegol" unicode="&#x5b1;" 
d="M-282 -219c0 20 6.66699 37 20 51s30 21 50 21s37 -7 51 -21s21 -31 21 -51s-7 -36.833 -21 -50.5s-31 -20.5 -51 -20.5s-36.667 6.83301 -50 20.5s-20 30.5 -20 50.5zM-68 -219c0 20 6.33301 37 19 51s29 21 49 21s37.333 -7 52 -21s22 -31 22 -51
s-7.33301 -36.833 -22 -50.5s-32 -20.5 -52 -20.5s-36.333 6.83301 -49 20.5s-19 30.5 -19 50.5zM-176 -379c0 20 7 36.833 21 50.5s31 20.5 51 20.5s37 -6.83301 51 -20.5s21 -30.5 21 -50.5s-7 -37 -21 -51s-31 -21 -51 -21s-37 7 -51 21s-21 31 -21 51zM146 -405
c0 19.333 6.5 35.667 19.5 49s29.167 20 48.5 20c20 0 36.333 -6.5 49 -19.5s19 -29.5 19 -49.5c0 -19.333 -6.33301 -35.333 -19 -48s-29 -19 -49 -19c-19.333 0 -35.5 6.5 -48.5 19.5s-19.5 28.833 -19.5 47.5zM146 -213.999c0 19.333 6.5 35.667 19.5 49
s29.167 20 48.5 20c20 0 36.333 -6.5 49 -19.5s19 -29.5 19 -49.5c0 -19.333 -6.33301 -35.333 -19 -48s-29 -19 -49 -19c-19.333 0 -35.5 6.5 -48.5 19.5s-19.5 28.833 -19.5 47.5z" />
    <glyph glyph-name="hatafpatah" unicode="&#x5b2;" 
d="M-246 -258c-9.33301 0 -16.5 0.5 -21.5 1.5s-8.5 4.5 -10.5 10.5s-3.16699 10.833 -3.5 14.5s-0.5 12.167 -0.5 25.5c0 21.333 1.5 33.666 4.5 36.999s13.833 5 32.5 5h282c18.667 0 29.5 -1.66699 32.5 -5s4.5 -15.666 4.5 -36.999s-2.16699 -35.333 -6.5 -42
s-15.5 -10 -33.5 -10h-280zM146 -405c0 19.333 6.5 35.666 19.5 48.999s29.167 20 48.5 20s35.666 -6.66699 48.999 -20s20 -29.666 20 -48.999c0 -18.667 -6.66699 -34.5 -20 -47.5s-29.666 -19.5 -48.999 -19.5s-35.5 6.33301 -48.5 19s-19.5 28.667 -19.5 48zM146 -214
c0 19.333 6.5 35.666 19.5 48.999s29.167 20 48.5 20s35.666 -6.66699 48.999 -20s20 -29.666 20 -48.999c0 -18.667 -6.66699 -34.5 -20 -47.5s-29.666 -19.5 -48.999 -19.5s-35.5 6.33301 -48.5 19s-19.5 28.667 -19.5 48z" />
    <glyph glyph-name="hatafqamats" unicode="&#x5b3;" 
d="M37 -162c18.667 0 29.502 -1.66699 32.502 -5s4.5 -15.333 4.5 -36c0 -22 -2.16699 -36.167 -6.5 -42.5s-15.5 -9.5 -33.5 -9.5h-107c-2.66699 -8 -4 -16 -4 -24c0 -15.333 7 -37 21 -65s21 -49 21 -63c0 -20.667 -6.83301 -38.834 -20.5 -54.501
s-29.834 -23.5 -48.501 -23.5s-34.834 7.83301 -48.501 23.5s-20.5 33.834 -20.5 54.501c0 14 7 35 21 63s21 49.667 21 65c0 8 -1.33301 16 -4 24h-107c-18 0 -29.167 3.16699 -33.5 9.5s-6.5 20.5 -6.5 42.5c0 20.667 1.5 32.667 4.5 36s13.833 5 32.5 5h282z
M146.002 -404c0 19.333 6.5 35.666 19.5 48.999s29.167 20 48.5 20s35.5 -6.66699 48.5 -20s19.5 -29.666 19.5 -48.999c0 -18.667 -6.5 -34.334 -19.5 -47.001s-29.167 -19 -48.5 -19s-35.5 6.33301 -48.5 19s-19.5 28.334 -19.5 47.001zM146.002 -212
c0 19.333 6.5 35.5 19.5 48.5s29.167 19.5 48.5 19.5s35.5 -6.5 48.5 -19.5s19.5 -29.167 19.5 -48.5s-6.5 -35.333 -19.5 -48s-29.167 -19 -48.5 -19s-35.5 6.33301 -48.5 19s-19.5 28.667 -19.5 48z" />
    <glyph glyph-name="hiriq" unicode="&#x5b4;" 
d="M-69 -236c0 19.333 6.66699 35.666 20 48.999s29.666 20 48.999 20s35.666 -6.66699 48.999 -20s20 -29.666 20 -48.999c0 -18.667 -6.66699 -34.5 -20 -47.5s-29.666 -19.5 -48.999 -19.5s-35.666 6.5 -48.999 19.5s-20 28.833 -20 47.5z" />
    <glyph glyph-name="tsere" unicode="&#x5b5;" 
d="M-178 -238c0 20 6.83301 37 20.5 51s30.5 21 50.5 21s36.833 -7 50.5 -21s20.5 -31 20.5 -51s-6.83301 -37 -20.5 -51s-30.5 -21 -50.5 -21s-36.833 7 -50.5 21s-20.5 31 -20.5 51zM36 -238c0 20 6.83301 37 20.5 51s30.5 21 50.5 21s36.833 -7 50.5 -21
s20.5 -31 20.5 -51s-6.83301 -37 -20.5 -51s-30.5 -21 -50.5 -21s-36.833 7 -50.5 21s-20.5 31 -20.5 51z" />
    <glyph glyph-name="segol" unicode="&#x5b6;" 
d="M-178 -218c0 20 6.83301 37 20.5 51s30.5 21 50.5 21s36.833 -7 50.5 -21s20.5 -31 20.5 -51s-6.83301 -36.833 -20.5 -50.5s-30.5 -20.5 -50.5 -20.5s-36.833 6.83301 -50.5 20.5s-20.5 30.5 -20.5 50.5zM36 -218c0 20 6.83301 37 20.5 51s30.5 21 50.5 21
s36.833 -7 50.5 -21s20.5 -31 20.5 -51s-6.83301 -36.833 -20.5 -50.5s-30.5 -20.5 -50.5 -20.5s-36.833 6.83301 -50.5 20.5s-20.5 30.5 -20.5 50.5zM-73 -378c0 20 7 36.833 21 50.5s31.333 20.5 52 20.5s38 -6.83301 52 -20.5s21 -30.5 21 -50.5s-7 -37 -21 -51
s-31.333 -21 -52 -21s-38 7 -52 21s-21 31 -21 51z" />
    <glyph glyph-name="patah" unicode="&#x5b7;" 
d="M-128 -239c-16 0 -25.335 3 -28.002 9s-4 20.333 -4 43c0 20.667 1.33301 32.834 4 36.501s12.334 5.5 29.001 5.5h254c16.667 0 26.334 -1.83301 29.001 -5.5s4 -15.834 4 -36.501c0 -21.333 -2 -35.333 -6 -42s-14 -10 -30 -10h-252z" />
    <glyph glyph-name="qamats" unicode="&#x5b8;" 
d="M127 -146c16.667 0 26.334 -1.66699 29.001 -5s4 -15.333 4 -36c0 -22 -2 -36.167 -6 -42.5s-14 -9.5 -30 -9.5h-93c-2.66699 -8 -4 -16 -4 -24c0 -15.333 7 -37 21 -65s21 -49 21 -63c0 -20.667 -6.83301 -38.834 -20.5 -54.501s-29.834 -23.5 -48.501 -23.5
s-34.834 7.83301 -48.501 23.5s-20.5 33.834 -20.5 54.501c0 14 7 35 21 63s21 49.667 21 65c0 8 -1.33301 16 -4 24h-93c-16 0 -26 3.16699 -30 9.5s-6 20.5 -6 42.5c0 20.667 1.33301 32.667 4 36s12.334 5 29.001 5h254z" />
    <glyph glyph-name="holam" unicode="&#x5b9;" 
d="M-75 1347c0 20.667 7.16699 38.334 21.5 53.001s32.166 22 53.499 22s39.166 -7.33301 53.499 -22s21.5 -32.334 21.5 -53.001c0 -21.333 -7.16699 -39.166 -21.5 -53.499s-32.166 -21.5 -53.499 -21.5s-39.166 7.16699 -53.499 21.5s-21.5 32.166 -21.5 53.499z" />
    <glyph glyph-name="holamhaser" unicode="&#x5ba;" 
d="M-75 1346c0 20.667 7.16699 38.334 21.5 53.001s32.166 22 53.499 22s39.166 -7.33301 53.499 -22s21.5 -32.334 21.5 -53.001c0 -21.333 -7.16699 -39.166 -21.5 -53.499s-32.166 -21.5 -53.499 -21.5s-39.166 7.16699 -53.499 21.5s-21.5 32.166 -21.5 53.499z" />
    <glyph glyph-name="qubuts" unicode="&#x5bb;" 
d="M133 -430c0 20 6.66699 36.5 20 49.5s29.666 19.5 48.999 19.5s35.666 -6.5 48.999 -19.5s20 -29.5 20 -49.5c0 -18.667 -6.66699 -34.334 -20 -47.001s-29.666 -19 -48.999 -19s-35.666 6.33301 -48.999 19s-20 28.334 -20 47.001zM-155 -211
c0 19.333 6.5 35.666 19.5 48.999s29.5 20 49.5 20s36.5 -6.66699 49.5 -20s19.5 -29.666 19.5 -48.999s-6.5 -35.166 -19.5 -47.499s-29.5 -18.5 -49.5 -18.5s-36.5 6.16699 -49.5 18.5s-19.5 28.166 -19.5 47.499zM-11 -322c0 19.333 6.66699 35.5 20 48.5
s29.666 19.5 48.999 19.5s35.666 -6.5 48.999 -19.5s20 -29.167 20 -48.5c0 -18.667 -6.66699 -34.5 -20 -47.5s-29.666 -19.5 -48.999 -19.5s-35.666 6.5 -48.999 19.5s-20 28.833 -20 47.5z" />
    <glyph glyph-name="dagesh" unicode="&#x5bc;" 
d="M-75 542c0 20.667 7.16699 38.5 21.5 53.5s32.166 22.5 53.499 22.5s39.166 -7.5 53.499 -22.5s21.5 -32.833 21.5 -53.5s-7.16699 -38.667 -21.5 -54s-32.166 -23 -53.499 -23s-39.166 7.66699 -53.499 23s-21.5 33.333 -21.5 54z" />
    <glyph glyph-name="meteg" unicode="&#x5bd;" 
d="M0 -146c24.667 0 39 -1.33301 43 -4s6 -13.334 6 -32.001v-252c0 -18.667 -2 -29.334 -6 -32.001s-18.333 -4 -43 -4s-39 1.33301 -43 4s-6 13.334 -6 32.001v252c0 18.667 2 29.334 6 32.001s18.333 4 43 4z" />
    <glyph glyph-name="makaf" unicode="&#x5be;" horiz-adv-x="988" 
d="M794 1097c28 0 46.9971 -0.835938 56.9971 -2.50293s15 -6.16699 15 -13.5s-9 -26.666 -27 -57.999l-22 -39l-15 -22.5l-12 -18c-2 -3 -5 -7.16699 -9 -12.5s-7.5 -8.5 -10.5 -9.5s-6.66699 -2.66699 -11 -5s-9.66602 -3.66602 -15.999 -3.99902
s-13.166 -0.666016 -20.499 -0.999023s-16.666 -0.5 -27.999 -0.5h-509c-22 0 -36.333 0.666992 -43 2s-10 5.33301 -10 12c0 13.333 7.66699 32.333 23 57l25 41c22.667 37.333 39.5 59 50.5 65s39.5 9 85.5 9h477z" />
    <glyph glyph-name="rafe" unicode="&#x5bf;" 
d="M-180 1236c-22 0 -28.6709 8.66699 -20.0039 26l29 78c4.66699 12 9.33398 18.667 14.001 20c1.33301 0.666992 3.33301 1 6 1h332c10.667 0 17.334 -1.5 20.001 -4.5s2.33398 -9.83301 -0.999023 -20.5l-24 -79c-5.33301 -14 -13.666 -21 -24.999 -21h-331z" />
    <glyph glyph-name="paseq" unicode="&#x5c0;" horiz-adv-x="351" 
d="M152 1139h53v-1161h-53v1161z" />
    <glyph glyph-name="shindot" unicode="&#x5c1;" 
d="M-75 1260c0 20.667 7.16699 38.334 21.5 53.001s32.166 22 53.499 22s39.166 -7.33301 53.499 -22s21.5 -32.334 21.5 -53.001c0 -21.333 -7.16699 -39.166 -21.5 -53.499s-32.166 -21.5 -53.499 -21.5s-39.166 7.16699 -53.499 21.5s-21.5 32.166 -21.5 53.499z" />
    <glyph glyph-name="sindot" unicode="&#x5c2;" 
d="M-75 1260c0 20.667 7.16699 38.334 21.5 53.001s32.166 22 53.499 22s39.166 -7.33301 53.499 -22s21.5 -32.334 21.5 -53.001c0 -21.333 -7.16699 -39.166 -21.5 -53.499s-32.166 -21.5 -53.499 -21.5s-39.166 7.16699 -53.499 21.5s-21.5 32.166 -21.5 53.499z" />
    <glyph glyph-name="sofpasuq" unicode="&#x5c3;" horiz-adv-x="539" 
d="M318 88c-6.66699 -17.333 -17.333 -26.001 -32 -26.001s-25.334 8.66699 -32.001 26c-8 23.333 -21.333 43 -40 59s-42.667 32 -72 48c-12.667 7.33301 -19 17.666 -19 30.999c0 14.667 7.33301 26 22 34l15 10.5l16 11.5l14.5 11c7 5.33301 12.167 9.5 15.5 12.5
s7.66602 7.16699 12.999 12.5s9.83301 10.333 13.5 15s7.33398 10.167 11.001 16.5s7.16699 12.833 10.5 19.5c6 17.333 16.167 26.333 30.5 27s24.833 -7.66602 31.5 -24.999c4 -8.66699 8.83301 -17.167 14.5 -25.5s10.834 -15.166 15.501 -20.499
s11.167 -11.5 19.5 -18.5s14.666 -12.167 18.999 -15.5s11.5 -8.5 21.5 -15.5s16.667 -11.833 20 -14.5c13.333 -7.33301 20 -17.833 20 -31.5s-6.33301 -24.167 -19 -31.5c-57.333 -32 -93.666 -68.667 -108.999 -110zM317.001 793.999
c-6.66699 -17.333 -17.167 -25.834 -31.5 -25.501s-24.5 9.16602 -30.5 26.499c-8.66699 24 -22 43.833 -40 59.5s-42 32.167 -72 49.5c-13.333 8 -20 18.333 -20 31c0 13.333 7.33301 24.333 22 33c0.666992 0.666992 4.66699 3.5 12 8.5s11.666 8 12.999 9
s5.33301 3.83301 12 8.5s10.834 7.83398 12.501 9.50098s5.33398 4.83398 11.001 9.50098s9.66699 8.33398 12 11.001l10 11c4.33301 4.66699 7.66602 9 9.99902 13l8 13.5c3 5 5.83301 10.167 8.5 15.5c6.66699 17.333 17.167 26.166 31.5 26.499s24.5 -8.16699 30.5 -25.5
c4 -8.66699 9 -17.167 15 -25.5s11 -14.833 15 -19.5s10.667 -10.834 20 -18.501l18 -15c2.66699 -2.33301 10 -7.66602 22 -15.999s18.667 -12.833 20 -13.5c14 -8.66699 21 -19.667 21 -33c0 -12.667 -6.33301 -23 -19 -31c-58.667 -32.667 -95.667 -70 -111 -112z" />
    <glyph glyph-name="upperdot" unicode="&#x5c4;" 
d="M0 1420c-4 0 -8.00098 2.00195 -12.001 6.00195s-9.83301 10.667 -17.5 20s-15.167 17.666 -22.5 24.999c-5.33301 6 -11.166 11.833 -17.499 17.5l-14 12.5c-3 2.66699 -5.5 5.66699 -7.5 9s-3 6.66602 -3 9.99902c0 4.66699 1.33301 9.16699 4 13.5s8.16699 11 16.5 20
l20.5 22.5c6 6.66699 13.167 15.667 21.5 27s14.666 18.833 18.999 22.5s8.5 5.5 12.5 5.5s8.16699 -1.83301 12.5 -5.5s10.666 -11.167 18.999 -22.5s15.5 -20.333 21.5 -27c4.66699 -6 10.167 -12.333 16.5 -19l14 -14.5c3 -3 5.5 -6.5 7.5 -10.5s3 -8 3 -12
s-1.33301 -7.83301 -4 -11.5s-8.16699 -9.16699 -16.5 -16.5s-15.5 -14.333 -21.5 -21c-6 -6 -12 -12.5 -18 -19.5l-14 -16.5c-3.33301 -4 -6.66602 -7.5 -9.99902 -10.5s-6.66602 -4.5 -9.99902 -4.5z" />
    <glyph glyph-name="lowerdot" unicode="&#x5c5;" 
d="M0 -508c-4 0 -8.00098 2.00195 -12.001 6.00195s-9.83301 10.667 -17.5 20s-15.167 17.666 -22.5 24.999c-5.33301 6 -11.166 11.833 -17.499 17.5l-14 12.5c-3 2.66699 -5.5 5.66699 -7.5 9s-3 6.66602 -3 9.99902c0 4.66699 1.33301 9.16699 4 13.5s8.16699 11 16.5 20
l20.5 22.5c6 6.66699 13.167 15.667 21.5 27s14.666 18.833 18.999 22.5s8.5 5.5 12.5 5.5s8.16699 -1.83301 12.5 -5.5s10.666 -11.167 18.999 -22.5s15.5 -20.333 21.5 -27c4.66699 -6 10.167 -12.333 16.5 -19l14 -14.5c3 -3 5.5 -6.5 7.5 -10.5s3 -8 3 -12
s-1.33301 -7.83301 -4 -11.5s-8.16699 -9.16699 -16.5 -16.5s-15.5 -14.333 -21.5 -21c-6 -6 -12 -12.5 -18 -19.5l-14 -16.5c-3.33301 -4 -6.66602 -7.5 -9.99902 -10.5s-6.66602 -4.5 -9.99902 -4.5z" />
    <glyph glyph-name="nunhapukha" unicode="&#x5c6;" horiz-adv-x="712" 
d="M222 798c-6.66699 4 -14.0029 6.00391 -22.0029 6.00391c-9.33301 0 -22.833 -2.66699 -40.5 -8s-29.5 -8 -35.5 -8c-12 0 -18 8 -18 24c0 4 0.666992 10.833 2 20.5s2 17.167 2 22.5c0 16 1 28.5 3 37.5s5.66699 19.833 11 32.5s10 25.334 14 38.001
c8.66699 28 31.834 52.833 69.501 74.5s82.834 40.834 135.501 57.501s81.334 26 86.001 28c12.667 6.66699 22.5 21.334 29.5 44.001s13.167 34 18.5 34c26.667 0 40 -55.333 40 -166c0 -26.667 -4 -50.834 -12 -72.501s-17.667 -38.834 -29 -51.501
s-25.5 -24.334 -42.5 -35.001s-32 -18.167 -45 -22.5l-45 -14.5c-17 -5.33301 -28.167 -9 -33.5 -11c-21.333 -8.66699 -34.5 -17.834 -39.5 -27.501s-7.5 -33.5 -7.5 -71.5c0 -9.33301 -1.83301 -47.333 -5.5 -114s-5.5 -117.667 -5.5 -153
c0 -30 0.833008 -71.833 2.5 -125.5s2.5 -81.834 2.5 -84.501c0 -10.667 2.83301 -17.834 8.5 -21.501s17.167 -5.5 34.5 -5.5h105h29c47.333 0 79.5 -2.83301 96.5 -8.5s36.5 -21.834 58.5 -48.501c23.333 -27.333 40.333 -54.166 51 -80.499s16 -46.833 16 -61.5
c0 -12 -7.16699 -19.333 -21.5 -22s-42.833 -4 -85.5 -4h-117c-17.333 0 -31.333 0.333008 -42 1s-20.667 1 -30 1s-17.5 1.66699 -24.5 5s-12.5 5.33301 -16.5 6s-9 4.83398 -15 12.501s-10 12.5 -12 14.5s-7.33301 9.16699 -16 21.5s-14.667 21.166 -18 26.499l-77 110
c-4 10 -6 20 -6 30c0 4.66699 0.5 13.167 1.5 25.5s1.5 22.166 1.5 29.499c0 60 7.33301 151.333 22 274s22 203 22 241z" />
    <glyph glyph-name="qamatsqatan" unicode="&#x5c7;" 
d="M29 -270c0 -32.667 1.83203 -59 5.49902 -79s7.83398 -33 12.501 -39s8.83398 -14 12.501 -24s5.5 -22.667 5.5 -38c0 -20.667 -6.16699 -39 -18.5 -55s-27.833 -24 -46.5 -24s-34.834 8 -48.501 24s-20.5 34.333 -20.5 55c0 15.333 2 28 6 38s8.33301 18 13 24
s9 19 13 39s6 46.333 6 79v39h-83c-14 0 -22.5 3.16699 -25.5 9.5s-4.5 20.5 -4.5 42.5c0 20.667 1.33301 32.667 4 36s11.667 5 27 5h226c15.333 0 24.333 -1.66699 27 -5s4 -15.333 4 -36c0 -21.333 -2 -35.333 -6 -42s-13.333 -10 -28 -10h-80
c-0.666992 -2.66699 -1 -15.667 -1 -39z" />
    <glyph glyph-name="alef" unicode="&#x5d0;" horiz-adv-x="1057" 
d="M157 953c0 46 9.49805 94.6641 28.498 145.997s36.5 77 52.5 77c14 0 23.333 -21 28 -63c2.66699 -23.333 8.83398 -47.166 18.501 -71.499s19.834 -46.333 30.501 -66s26.834 -42.667 48.501 -69s39.834 -47.666 54.501 -63.999s37.167 -38.833 67.5 -67.5l67.5 -62.5
l75 -65.5l71 -62l133 181l-123 124c-23.333 29.333 -35 61.333 -35 96c0 40.667 14.333 82.667 43 126c4 6 9.33301 14.5 16 25.5l16.5 27.5c4.33301 7.33301 9.33301 14.666 15 21.999s10.834 13 15.501 17s9.33398 6 14.001 6c11.333 0 17 -6.66699 17 -20
c0 -4.66699 -1.33301 -14.167 -4 -28.5s-4 -25.5 -4 -33.5c0 -18.667 10.667 -39.667 32 -63s44.666 -44.666 69.999 -63.999s48.666 -41.666 69.999 -66.999s32 -48.666 32 -69.999c0 -18 -5 -36.333 -15 -55s-24 -40.334 -42 -65.001s-31.333 -45.334 -40 -62.001l-53 60
l-131 -180l141 -139c56 -56.667 84 -127.667 84 -213c0 -66 -5.5 -116 -16.5 -150s-25.833 -51 -44.5 -51c-14.667 0 -28.334 19.667 -41.001 59c-16.667 48 -38.667 92.5 -66 133.5s-57.666 77.5 -90.999 109.5s-66.333 61.167 -99 87.5l-105.5 87.5
c-37.667 32 -68.834 62 -93.501 90c-4.66699 3.33301 -10 8.66602 -16 15.999s-11.667 13 -17 17s-12 6 -20 6c-34.667 0 -62.834 -15.667 -84.501 -47s-32.5 -65.666 -32.5 -102.999c0 -20 6.66699 -37.333 20 -52s29.5 -27.667 48.5 -39s38 -24.166 57 -38.499
s35.167 -35.166 48.5 -62.499s20 -60.333 20 -99s-20.333 -76.834 -61 -114.501s-71.667 -56.5 -93 -56.5h-107c-31.333 0 -47 9.33301 -47 28c0 12.667 5.33301 22.834 16 30.501s22.5 13.167 35.5 16.5s24.833 10.166 35.5 20.499s16 24.166 16 41.499
c0 11.333 -8.5 28.5 -25.5 51.5s-34.167 49.5 -51.5 79.5s-26 59.667 -26 89c0 56.667 18.667 110.834 56 162.501s83 95.167 137 130.5c-51.333 57.333 -88.5 106.833 -111.5 148.5s-34.5 92.167 -34.5 151.5z" />
    <glyph glyph-name="bet" unicode="&#x5d1;" horiz-adv-x="961" 
d="M443 900l-8.99609 0.000976562c-90 0 -157 11.5 -201 34.5s-66 66.833 -66 131.5v23c0 28.667 1.33301 54 4 76c2 15.333 6.83301 26.5 14.5 33.5s15.667 7.83301 24 2.5s14.833 -16 19.5 -32c6.66699 -21.333 13 -34 19 -38s22.667 -6 50 -6h270
c79.333 0 143.833 -23.5 193.5 -70.5s74.5 -97.5 74.5 -151.5v-640v-13c0 -4.66699 -0.166992 -7.83398 -0.5 -9.50098s-0.333008 -3.66699 0 -6s0.666016 -3.66602 0.999023 -3.99902s1.5 -0.833008 3.5 -1.5s3.83301 -1 5.5 -1h8.5h17c25.333 0 39.5 -0.5 42.5 -1.5
s4.5 -5.83301 4.5 -14.5c0 -10 -11.667 -34.667 -35 -74l-35 -56c-24.667 -40 -41.334 -63.667 -50.001 -71s-26.667 -11 -54 -11h-47h-586c-28 0 -47.167 1 -57.5 3s-15.5 7.33301 -15.5 16s11.667 32 35 70l28 47l22.5 39.5c4.33301 7.66699 10.833 16 19.5 25
s15 14.5 19 16.5s12.667 4.33301 26 7s24.666 4 33.999 4h50l463 1c27.333 0 44.333 1.66699 51 5s10 13.666 10 30.999v25l-22 445c0 22 -2 41.5 -6 58.5s-11.333 34.167 -22 51.5s-27.834 30.833 -51.501 40.5s-53.167 14.5 -88.5 14.5h-163z" />
    <glyph glyph-name="gimel" unicode="&#x5d2;" horiz-adv-x="665" 
d="M539 544c0 -72 2.5 -139.501 7.5 -202.501s10.167 -112 15.5 -147s8 -54.167 8 -57.5c0 -6 -0.833008 -12.333 -2.5 -19s-3 -11.667 -4 -15s-3.83301 -10.5 -8.5 -21.5l-10 -23.5l-19 -33c-17.333 -19.333 -31 -29 -41 -29c-11.333 0 -17 12.667 -17 38v30
c0 11.333 1 37 3 77s3 65.333 3 76c0 20 -0.666992 32.833 -2 38.5s-4 6.5 -8 2.5s-10.333 -14 -19 -30l-65 -170c-15.333 -28.667 -27.166 -45.5 -35.499 -50.5s-27.833 -7.5 -58.5 -7.5h-204c-33.333 0 -50 4.66699 -50 14c0 4 6.33301 18 19 42l64 111
c17.333 30.667 30.166 48.5 38.499 53.5s28.5 7.5 60.5 7.5h131c28 0 56.333 23.167 85 69.5s46.334 84.5 53.001 114.5c9.33301 63.333 14 120.666 14 171.999v99c0 40.667 -4.83301 73.5 -14.5 98.5s-29.834 44.833 -60.501 59.5c-6.66699 3.33301 -20.167 7.5 -40.5 12.5
s-39 10.833 -56 17.5s-34.5 16 -52.5 28s-32.333 29.5 -43 52.5s-16 50.5 -16 82.5c0 120 12.333 180 37 180c4.66699 0 8.66699 -5 12 -15s7.83301 -21.667 13.5 -35s13.167 -22.666 22.5 -27.999c18 -10 42.5 -18.667 73.5 -26s48.833 -11.666 53.5 -12.999
c29.333 -10 55.5 -27.333 78.5 -52s34.5 -51 34.5 -79v-422z" />
    <glyph glyph-name="dalet" unicode="&#x5d3;" horiz-adv-x="1040" 
d="M348 901c-103.333 0 -174.832 10.3311 -214.499 30.998s-59.5 64.334 -59.5 131.001v27c0 42.667 1 72.334 3 89.001c2 15.333 6.83301 26.5 14.5 33.5s15.667 7.83301 24 2.5s14.833 -16 19.5 -32c6.66699 -22.667 14.5 -37.5 23.5 -44.5s26.5 -10.5 52.5 -10.5h539h71
c32 0 54.5 -2.5 67.5 -7.5s22.167 -16.167 27.5 -33.5l13 -81c5.33301 -34.667 8 -59 8 -73c0 -16 -2.66699 -30.167 -8 -42.5s-10.333 -18.5 -15 -18.5c-8.66699 -1.33301 -17.334 3.33398 -26.001 14.001c-6.66699 8 -17.5 12.667 -32.5 14
s-23.5 -0.333984 -25.5 -5.00098v-108c0 -284 10.333 -492.667 31 -626c0 -26.667 -2.5 -50.5 -7.5 -71.5s-10.667 -36.833 -17 -47.5s-13.5 -19.5 -21.5 -26.5s-14.167 -11.333 -18.5 -13s-7.5 -2.5 -9.5 -2.5c-15.333 0 -23 21.667 -23 65
c0 38.667 1.16699 153.334 3.5 344.001s3.5 312 3.5 364v59v9c0 27.333 -2.83301 44.166 -8.5 50.499s-22.167 9.5 -49.5 9.5h-365z" />
    <glyph glyph-name="he" unicode="&#x5d4;" horiz-adv-x="1096" 
d="M987 945c0 -16 -2.66602 -29.8291 -7.99902 -41.4961s-10.333 -17.5 -15 -17.5c-1.33301 0 -4 2.5 -8 7.5s-9.33301 7.5 -16 7.5c-9.33301 0 -15.833 -1.5 -19.5 -4.5s-5.5 -9.83301 -5.5 -20.5v-89c0 -297.333 9.33301 -506.333 28 -627
c0 -26.667 -2.33301 -50.334 -7 -71.001s-10.334 -36.334 -17.001 -47.001s-13.834 -19.5 -21.501 -26.5s-13.667 -11.333 -18 -13s-7.5 -2.5 -9.5 -2.5c-15.333 0 -23 21.333 -23 64c0 38.667 1.16699 153.5 3.5 344.5s3.5 312.5 3.5 364.5v59v9
c0 27.333 -2.83301 44.166 -8.5 50.499s-22.167 9.5 -49.5 9.5h-418c-96.667 0 -166.667 11.333 -210 34s-65 67 -65 133v21c0 22.667 1.66699 48 5 76c2 15.333 6.83301 26.5 14.5 33.5s15.667 7.83301 24 2.5s14.833 -16 19.5 -32c6 -19.333 11.667 -31 17 -35
s18.333 -6 39 -6h13h601c51.333 0 86.333 -7.33301 105 -22s30.334 -36.334 35.001 -65.001c7.33301 -48.667 11 -80.667 11 -96zM230.001 573.004v-422c0 -24 -0.333008 -42 -1 -54s-4.5 -24.167 -11.5 -36.5s-12.667 -20.833 -17 -25.5l-33.5 -35
c-9.33301 -9.33301 -17.333 -14 -24 -14c-2.66699 0 -4 1.66699 -4 5c0 0.666992 1.83301 10 5.5 28s5.5 36.333 5.5 55v465c0 18 0.166992 30.5 0.5 37.5s0.333008 14.167 0 21.5s0.5 12.833 2.5 16.5s3.16699 6.5 3.5 8.5s2.83301 5.66699 7.5 11s8 9.33301 10 12
c18 24 32 36 42 36c6.66699 0 10.667 -7.5 12 -22.5s2 -43.833 2 -86.5z" />
    <glyph glyph-name="vav" unicode="&#x5d5;" horiz-adv-x="551" 
d="M426 130c0 -36 -2.66797 -65.3398 -8.00098 -88.0068c-2.66699 -9.33301 -8.66699 -18.666 -18 -27.999c-17.333 -19.333 -31 -29 -41 -29c-11.333 0 -17 13 -17 39v31c8.66699 58.667 17.334 168.334 26.001 329.001s13 273.334 13 338.001
c0 34.667 -3.83301 57.667 -11.5 69s-28.167 25 -61.5 41c-6.66699 3.33301 -20.167 7.5 -40.5 12.5s-39 10.667 -56 17s-34.5 15.5 -52.5 27.5s-32.333 29.5 -43 52.5s-16 50.5 -16 82.5v41c0 9.33301 0.333008 22 1 38s1.66699 28.333 3 37s3 17.667 5 27
s5 16.166 9 20.499s8.33301 6.5 13 6.5s8.66699 -5 12 -15s7.83301 -21.667 13.5 -35s13.167 -22.666 22.5 -27.999c18 -10 42.667 -18.667 74 -26s49.333 -11.666 54 -12.999c30 -10 57.167 -27.167 81.5 -51.5s36.5 -50.166 36.5 -77.499
c0 -57.333 -0.333008 -131.333 -1 -222s-1 -155 -1 -193c0 -72 0.166992 -139.167 0.5 -201.5s0.833008 -110.666 1.5 -144.999s1 -53.166 1 -56.499z" />
    <glyph glyph-name="zayin" unicode="&#x5d6;" horiz-adv-x="564" 
d="M170 998c0 31.333 10.001 75 30.001 131s37.667 84 53 84h2c4 -1.33301 6.33301 -7.33301 7 -18s2.16699 -23.167 4.5 -37.5s7.16602 -25.166 14.499 -32.499c10.667 -10.667 29.5 -23.834 56.5 -39.501l74 -43c22.333 -13 42.5 -30.5 60.5 -52.5s27 -45.333 27 -70
c0 -9.33301 -1.33301 -20.666 -4 -33.999l-23 -83c-4.66699 -16.667 -9 -28.334 -13 -35.001s-9 -10 -15 -10c-7.33301 0 -30 12 -68 36c-16.667 -36.667 -29.334 -82.167 -38.001 -136.5s-13 -101.166 -13 -140.499c0 -47.333 5.33301 -112.333 16 -195s16 -146 16 -190
c0 -50 -20.333 -98 -61 -144c-6.66699 -6 -13.167 -10.333 -19.5 -13s-11.666 -2.66699 -15.999 0s-6.5 7.66699 -6.5 15c8 66.667 12 130.667 12 192c0 33.333 -7 79.166 -21 137.499s-21 106.833 -21 145.5c0 82.667 40.333 196.667 121 342
c-4 3.33301 -17 10.833 -39 22.5s-42.167 23.5 -60.5 35.5s-35.5 30 -51.5 54s-24 50.333 -24 79z" />
    <glyph glyph-name="het" unicode="&#x5d7;" horiz-adv-x="1135" 
d="M1025 948c0 -16.667 -2.83398 -31.1631 -8.50098 -43.4961s-10.834 -18.5 -15.501 -18.5c-0.666992 0 -3.66699 2.66699 -9 8s-11.666 8 -18.999 8c-6 0 -9.83301 -1.5 -11.5 -4.5s-2.5 -9.83301 -2.5 -20.5v-170c0 -244 9.33301 -426.333 28 -547
c0 -26.667 -2.5 -50.334 -7.5 -71.001s-10.667 -36.334 -17 -47.001s-13.5 -19.5 -21.5 -26.5s-14.167 -11.333 -18.5 -13s-7.5 -2.5 -9.5 -2.5c-15.333 0 -23 21.333 -23 64c0 38.667 1.5 140.167 4.5 304.5s4.5 272.5 4.5 324.5v59v90c0 28 -2.66699 45 -8 51
s-21.333 9 -48 9h-468h-128c-9.33301 -66.667 -14 -156.334 -14 -269.001c0 -50 4.66699 -128.167 14 -234.5s14 -188.833 14 -247.5c0 -16.667 0.166992 -33.334 0.5 -50.001s0.5 -26.334 0.5 -29.001c0 -8 -1.83301 -15.333 -5.5 -22s-12.167 -17 -25.5 -31
c-30 -32 -48 -48 -54 -48c-14 0 -21 29.333 -21 88v609v25c0 107.333 20.333 177 61 209c-28.667 8.66699 -55.667 28.167 -81 58.5s-38 66.166 -38 107.499v21c0 20.667 2.33301 49.667 7 87c2 15.333 6.83301 26.5 14.5 33.5s15.667 7.83301 24 2.5s14.833 -16 19.5 -32
c5.33301 -17.333 9.33301 -28.5 12 -33.5s8.16699 -9.33301 16.5 -13s21.5 -5.5 39.5 -5.5h647c27.333 0 49.333 -1.83301 66 -5.5s29.5 -10.667 38.5 -21s14.833 -18.666 17.5 -24.999s6.33398 -18.166 11.001 -35.499c9.33301 -47.333 14 -78.333 14 -93z" />
    <glyph glyph-name="tet" unicode="&#x5d8;" horiz-adv-x="1097" 
d="M157 1204c12 0 20.667 -11.998 26 -35.998c7.33301 -22 19.5 -38.833 36.5 -50.5s50.167 -24.834 99.5 -39.501c2 -0.666992 11.167 -4.16699 27.5 -10.5s26.166 -10.333 29.499 -12l25 -12.5c13.333 -6.66699 22.166 -11.834 26.499 -15.501l20 -17
c9 -7.66699 15 -14.834 18 -21.501s6 -15 9 -25s4.5 -20.333 4.5 -31c0 -2.66699 -0.333008 -6.83398 -1 -12.501s-1 -10.167 -1 -13.5l-27 -136l-152 47c-19.333 -23.333 -35.166 -58.333 -47.499 -105s-18.5 -88.334 -18.5 -125.001c0 -37.333 3.5 -85.833 10.5 -145.5
s13.167 -102.834 18.5 -129.501c7.33301 -34.667 16.833 -57.5 28.5 -68.5s32.167 -16.5 61.5 -16.5h366c10.667 0 18.167 0.166992 22.5 0.5s9.5 0.5 15.5 0.5s10.333 0.833008 13 2.5s5.5 2.83398 8.5 3.50098s6.16699 3.16699 9.5 7.5s6.16602 7.66602 8.49902 9.99902
s6.33301 7.33301 12 15l14.5 19.5c17.333 24 31 44.167 41 60.5s22.833 40 38.5 71s27.5 64.333 35.5 100s12 72.834 12 111.501c0 60.667 -13.5 117.334 -40.5 170.001s-61.5 79 -103.5 79c-20 0 -38.667 -4.83301 -56 -14.5s-31.833 -21.334 -43.5 -35.001
s-23.834 -33 -36.501 -58s-23 -47.667 -31 -68l-31 -81c-12.667 -33.667 -23.667 -61.167 -33 -82.5c-2 -3.33301 -4.66699 -8.16602 -8 -14.499s-5.66602 -10.666 -6.99902 -12.999s-3.16602 -5.33301 -5.49902 -9s-4.33301 -6.16699 -6 -7.5s-4 -2.83301 -7 -4.5
s-6.16699 -2.66699 -9.5 -3s-7.33301 -0.5 -12 -0.5l126 558c6.66699 30 15.667 51.167 27 63.5s30 18.5 56 18.5c10 0 25.5 -3 46.5 -9s47.833 -19 80.5 -39s62.834 -45 90.501 -75s51.667 -72.833 72 -128.5s30.5 -118.5 30.5 -188.5c0 -56 -10.833 -123.167 -32.5 -201.5
s-43.167 -143.666 -64.5 -195.999s-50.333 -119.5 -87 -201.5c-18.667 -42 -34.167 -68 -46.5 -78s-36.5 -15 -72.5 -15h-476c-35.333 0 -57.166 2.66699 -65.499 8s-12.5 19.333 -12.5 42v60c0 38 -2.16699 78.5 -6.5 121.5s-10.333 92 -18 147
s-12.834 96.167 -15.501 123.5c0 57.333 10.167 116.166 30.5 176.499s46.5 114.5 78.5 162.5c-56.667 11.333 -94.667 31.333 -114 60s-29 69 -29 121c0 24.667 3.66699 61.834 11 111.501s17.333 74.5 30 74.5z" />
    <glyph glyph-name="yod" unicode="&#x5d9;" horiz-adv-x="530" 
d="M389 591l0.00195312 80.9971c0 49.333 -3.83301 86.666 -11.5 111.999s-23.5 40 -47.5 44c-7.33301 3.33301 -21.5 7.33301 -42.5 12s-40.833 10.167 -59.5 16.5s-37.834 15.333 -57.501 27s-35.334 28.834 -47.001 51.501s-17.5 50 -17.5 82v40
c0 97.333 9.33301 146 28 146c4.66699 0 8.66699 -5 12 -15s8 -21.667 14 -35s13.667 -22.666 23 -27.999c18 -10 42.5 -18.667 73.5 -26s48.833 -11.666 53.5 -12.999c28 -9.33301 53.667 -28.166 77 -56.499s35 -56.833 35 -85.5c0 -57.333 -0.166992 -122 -0.5 -194
s-0.5 -127 -0.5 -165c0 -8.66699 -1.66699 -15.5 -5 -20.5s-7.33301 -7.5 -12 -7.5c-10 0 -15 11.333 -15 34z" />
    <glyph glyph-name="finalkaf" unicode="&#x5da;" horiz-adv-x="955" 
d="M657 901l-316.002 -0.000976562c-96 0 -165.833 11.5 -209.5 34.5s-65.5 67.5 -65.5 133.5v21c0 22.667 1.66699 48 5 76c2 15.333 6.83301 26.5 14.5 33.5s15.667 7.83301 24 2.5s14.833 -16 19.5 -32c6 -19.333 11.667 -31.166 17 -35.499s18.333 -6.5 39 -6.5h13h499
c51.333 0 86.333 -7.33301 105 -22s30.334 -36.334 35.001 -65.001c7.33301 -48.667 11 -80.667 11 -96c0 -16 -2.66699 -29.833 -8 -41.5s-10.333 -17.5 -15 -17.5c-1.33301 0 -4 2.5 -8 7.5s-9.33301 7.5 -16 7.5c-9.33301 0 -15.833 -1.5 -19.5 -4.5
s-5.5 -9.83301 -5.5 -20.5v-171c0 -2.66699 -0.166992 -6.83398 -0.5 -12.501s-0.5 -10.167 -0.5 -13.5c0 -127.333 5.5 -319.166 16.5 -575.499s22.167 -421.5 33.5 -495.5c0 -26.667 -3 -50.5 -9 -71.5s-13 -37.167 -21 -48.5s-16.667 -20.666 -26 -27.999
s-16.666 -12 -21.999 -14s-9 -3 -11 -3c-15.333 0 -23 21.333 -23 64c0 38.667 0.5 233 1.5 583s1.5 551 1.5 603v59v9c0 93.333 -19.667 140 -59 140z" />
    <glyph glyph-name="kaf" unicode="&#x5db;" horiz-adv-x="976" 
d="M819 133l-27 -40.001c-34 -40 -61.833 -65.5 -83.5 -76.5s-58.5 -16.5 -110.5 -16.5h-480c-28 0 -47 1 -57 3s-15 7.33301 -15 16c0 2.66699 1 6.33398 3 11.001s4.16699 9.33398 6.5 14.001s6.16602 11.5 11.499 20.5l14 24.5l25 47c18 32 31.667 53.167 41 63.5
s21 17.666 35 21.999s37 6.5 69 6.5h26h461c38.667 0 61.834 4.33301 69.501 13s11.5 33 11.5 73v346c0 24 -1.83301 47.667 -5.5 71s-10.834 49 -21.501 77s-28 50.667 -52 68s-53.333 26 -88 26h-262h-22c-84.667 0 -148.167 11.833 -190.5 35.5s-63.5 67.167 -63.5 130.5
v21c0 28.667 1.33301 54 4 76c2 15.333 6.83301 26.5 14.5 33.5s15.667 7.83301 24 2.5s14.833 -16 19.5 -32c6.66699 -21.333 13.167 -34 19.5 -38s23.166 -6 50.499 -6h360c78.667 0 142.834 -23.667 192.501 -71s74.5 -98 74.5 -152v-608
c0 -24 -3.16699 -46.833 -9.5 -68.5s-12.166 -37.5 -17.499 -47.5s-14.333 -25 -27 -45z" />
    <glyph glyph-name="lamed" unicode="&#x5dc;" horiz-adv-x="898" 
d="M61 1417c0 18 5.33301 33.335 16 46.002s22.5 22 35.5 28s24.833 14.333 35.5 25s16 23.334 16 38.001c0 11.333 -3.5 20.833 -10.5 28.5s-14.833 13.667 -23.5 18s-16.5 12.166 -23.5 23.499s-10.5 26 -10.5 44c0 21.333 9 43.5 27 66.5s31.667 34.5 41 34.5
c6.66699 0 11.334 -2.5 14.001 -7.5s4.83398 -12 6.50098 -21s3.5 -15.833 5.5 -20.5c5.33301 -10.667 13.666 -23.334 24.999 -38.001s20.166 -28.167 26.499 -40.5s9.5 -26.5 9.5 -42.5c0 -18.667 -6.33301 -36.334 -19 -53.001s-26.5 -30.167 -41.5 -40.5
s-28.833 -23.166 -41.5 -38.499s-19 -31.666 -19 -48.999v-129c0 -42.667 7.33301 -80.667 22 -114s34.667 -50 60 -50h385c70 0 117.833 -12.5 143.5 -37.5s40.834 -66.833 45.501 -125.5l25 -502c1.33301 -16 2 -27.333 2 -34c0 -30.667 -16.667 -61.334 -50 -92.001
l-202 -169c-17.333 -19.333 -26 -41 -26 -65c0 -5.33301 -0.333008 -9.83301 -1 -13.5s-2.5 -7.33398 -5.5 -11.001s-5 -6.16699 -6 -7.5s-4.16699 -4.16602 -9.5 -8.49902s-8.33301 -6.83301 -9 -7.5l-112 -93c-4.66699 -4 -8.83398 -4.33301 -12.501 -1
s-5.5 8.66602 -5.5 15.999c0 54 18.667 97.333 56 130l308 257c12 10.667 19.833 18.5 23.5 23.5s5.5 11.167 5.5 18.5c0 4 -1.33301 11.667 -4 23s-4.66699 22.333 -6 33l-47 375c-8 26.667 -21 44.5 -39 53.5s-48 13.5 -90 13.5h-368c-37.333 0 -71 13.667 -101 41
s-45 68.333 -45 123z" />
    <glyph glyph-name="finalmem" unicode="&#x5dd;" horiz-adv-x="1126" 
d="M421 901l-107 -0.000976562c-16 0 -33.667 -39.167 -53 -117.5s-29 -155.166 -29 -230.499v-261c0 -3.33301 0.5 -7.5 1.5 -12.5s1.5 -8.5 1.5 -10.5c0 -18.667 2.83301 -30.167 8.5 -34.5s19.5 -6.5 41.5 -6.5h22h607c16 0 26 2 30 6s6 14.333 6 31v469
c0 21.333 -2.33301 41 -7 59s-12.5 35.5 -23.5 52.5s-27.5 30.5 -49.5 40.5s-48.333 15 -79 15h-370zM132 164.999l-0.000976562 391.999c0 54 11.833 115.167 35.5 183.5s53.5 121.833 89.5 160.5c-74 17.333 -111 73 -111 167v22c0 28.667 1.33301 54 4 76
c2 15.333 6.83301 26.5 14.5 33.5s15.834 7.83301 24.501 2.5s15.334 -16 20.001 -32c6.66699 -21.333 13.167 -34.166 19.5 -38.499s22.833 -6.5 49.5 -6.5h449c79.333 0 145.666 -24 198.999 -72s80 -98.667 80 -152v-736v-70.5c0 -14.333 -1.83301 -29.333 -5.5 -45
s-7 -25.5 -10 -29.5s-10.5 -8.33301 -22.5 -13s-23 -7 -33 -7h-52h-617c-64 0 -104.667 4.33301 -122 13s-26 34.334 -26 77.001c0 6 2.33301 17.167 7 33.5s7 30.166 7 41.499z" />
    <glyph glyph-name="mem" unicode="&#x5de;" horiz-adv-x="1096" 
d="M530 942l80.998 160.996c6 18.667 16.667 32.5 32 41.5s30 13.5 44 13.5c12 0 33.667 -11 65 -33c48.667 -32.667 90.834 -72.667 126.501 -120s63.5 -95.666 83.5 -144.999s35.833 -105.166 47.5 -167.499s19.167 -119.333 22.5 -171s5 -108.834 5 -171.501
c0 -41.333 -12.333 -93.333 -37 -156l-48 -96l-21 -42c-4 -8 -10.167 -16.833 -18.5 -26.5s-14.166 -15.5 -17.499 -17.5s-11 -4.5 -23 -7.5s-22.333 -4.5 -31 -4.5h-45h-467c-31.333 0 -52.166 0.666992 -62.499 2s-15.5 5.33301 -15.5 12c0 2 0.666992 4.66699 2 8
s3.5 7.16602 6.5 11.499l9 13.5c3 4.66699 7.33301 11 13 19s10.834 15.667 15.501 23l36 55c24 36.667 44.5 60 61.5 70s41.833 15 74.5 15c6 0 16.333 -0.166992 31 -0.5s27 -0.5 37 -0.5h362c36 0 59 7.16699 69 21.5s15 35.833 15 64.5c0 71.333 -8 140.833 -24 208.5
s-39.333 130.167 -70 187.5s-72.167 103.5 -124.5 138.5s-111.5 52.5 -177.5 52.5c-76 0 -143.167 -23.667 -201.5 -71s-101.833 -106.833 -130.5 -178.5s-43 -147.834 -43 -228.501c0 -27.333 4.5 -61.666 13.5 -102.999s13.5 -75.666 13.5 -102.999
c0 -26 -4.83301 -49.667 -14.5 -71s-22.667 -44.166 -39 -68.499s-28.5 -46.5 -36.5 -66.5c-4 -10 -12.333 -15 -25 -15c-6.66699 0 -10 2.66699 -10 8c0 4 5 26 15 66s15 72.667 15 98c0 22.667 -5 51.5 -15 86.5s-15 63.833 -15 86.5c0 76 15.833 154 47.5 234
s72.834 150 123.501 210c2 2.66699 6.16699 6.83398 12.5 12.501s11.333 11 15 16s5.5 10.167 5.5 15.5c-3.33301 3.33301 -15.833 10.833 -37.5 22.5s-41.334 23.5 -59.001 35.5s-34.167 30 -49.5 54s-23 50.333 -23 79c0 30 10.667 69.667 32 119s40 74 56 74h2
c4.66699 -1.33301 9.16699 -11.833 13.5 -31.5s11.166 -34.167 20.499 -43.5c11.333 -11.333 29.333 -23.666 54 -36.999s47.667 -24.833 69 -34.5s40.166 -20.5 56.499 -32.5s24.5 -23 24.5 -33v-3c-2 -10.667 -4.33301 -21 -7 -31l-6 -22.5c-1.33301 -5 -2 -8.5 -2 -10.5
c0 -4 5 -6 15 -6h22c3.33301 0 9 1.5 17 4.5s12.667 6.16699 14 9.5z" />
    <glyph glyph-name="finalnun" unicode="&#x5df;" horiz-adv-x="544" 
d="M343 890c-36.667 0 -67.001 0.833008 -91.001 2.5s-48.5 5.5 -73.5 11.5s-44.5 14.5 -58.5 25.5s-25.5 26.167 -34.5 45.5s-13.5 43 -13.5 71v43c0 22.667 1.66699 48 5 76c2 15.333 6.83301 26.5 14.5 33.5s15.667 7.83301 24 2.5s14.833 -16 19.5 -32
c6.66699 -21.333 13 -34 19 -38s22.667 -6 50 -6c68 0 119.5 -5.33301 154.5 -16s58.667 -27 71 -49s18.5 -54.667 18.5 -98c0 -38 -10 -83 -30 -135s-40 -101.167 -60 -147.5s-30 -81.833 -30 -106.5c0 -32.667 -0.833008 -109.834 -2.5 -231.501
s-2.5 -218.167 -2.5 -289.5c0 -205.333 5.33301 -341.666 16 -408.999c0 -26.667 -3 -50.5 -9 -71.5s-13 -37 -21 -48s-16.667 -20.167 -26 -27.5s-16.666 -12 -21.999 -14s-9 -3 -11 -3c-15.333 0 -23 21 -23 63c0 38.667 0.5 194.667 1.5 468s1.5 436 1.5 488
c0 22.667 12.667 73 38 151s52 144.667 80 200c0.666992 2 2 5.5 4 10.5s3.33301 8.83301 4 11.5s1 5.66699 1 9s-1.16699 5.83301 -3.5 7.5s-5.83301 2.5 -10.5 2.5z" />
    <glyph glyph-name="nun" unicode="&#x5e0;" horiz-adv-x="601" 
d="M446 462c0 20.667 -1.33691 48.6621 -4.00391 83.9951s-4 60.333 -4 75c0 72 -3.66699 127 -11 165c-2 9.33301 -24.333 21.666 -67 36.999c-6 2.66699 -19.667 6.83398 -41 12.501s-40.166 12.167 -56.499 19.5s-33.833 17.5 -52.5 30.5s-33.167 31.167 -43.5 54.5
s-15.5 51 -15.5 83c0 46.667 3.66699 89 11 127s18 57 32 57c4.66699 0 8.66699 -5 12 -15s7.83301 -21.667 13.5 -35s13.167 -22.666 22.5 -27.999c18 -10 42.667 -18.667 74 -26s49.333 -11.666 54 -12.999c28 -9.33301 53.5 -28.166 76.5 -56.499
s34.5 -56.833 34.5 -85.5c0 -183.333 18 -382 54 -596c0 -6.66699 0.666992 -15.667 2 -27s2 -19.666 2 -24.999c0 -12 -2.33301 -23 -7 -33l-94 -179c-9.33301 -18 -15.666 -30.5 -18.999 -37.5s-9.16602 -15 -17.499 -24s-14.333 -14.333 -18 -16
s-12.5 -3.83398 -26.5 -6.50098s-26.167 -4 -36.5 -4h-54.5h-117c-42.667 0 -71.167 1.33301 -85.5 4s-21.5 10.334 -21.5 23.001s19.667 55.667 59 129c22.667 34 43.834 54.5 63.501 61.5s60.5 10.5 122.5 10.5h20h105c19.333 0 31.166 2.33301 35.499 7
s6.5 18.334 6.5 41.001c0 1.33301 -0.666992 12.5 -2 33.5s-2.66602 46.333 -3.99902 76s-2 55.167 -2 76.5z" />
    <glyph glyph-name="samekh" unicode="&#x5e1;" horiz-adv-x="1053" 
d="M385 902c-104 0 -156 -115.667 -156 -347v-213c0 -76 40 -114 120 -114h441c28.667 0 54.334 14.167 77.001 42.5s34 53.166 34 74.499v312c0 18 -1 36.333 -3 55s-6.33301 39.834 -13 63.501s-15.334 44.5 -26.001 62.5s-25.5 33.167 -44.5 45.5
s-40.833 18.5 -65.5 18.5h-364zM672 0l-270.003 0.000976562c-80 0 -146.5 27.5 -199.5 82.5s-79.5 122.5 -79.5 202.5v272c0 50 15.167 109.667 45.5 179s64.5 124.666 102.5 165.999c-77.333 18 -116 73.667 -116 167v21c0 28.667 1.33301 54 4 76
c2 15.333 6.83301 26.5 14.5 33.5s15.834 7.83301 24.501 2.5s15.334 -16 20.001 -32c6.66699 -21.333 13.167 -34.166 19.5 -38.499s22.833 -6.5 49.5 -6.5h398c40 0 78.5 -10.167 115.5 -30.5s67.333 -45.5 91 -75.5s42.667 -61 57 -93s21.5 -60.667 21.5 -86v-504
c0 -64.667 -26 -140.667 -78 -228c-14.667 -24.667 -30.667 -44.834 -48 -60.501s-36.666 -26.667 -57.999 -33s-39.5 -10.333 -54.5 -12s-34.833 -2.5 -59.5 -2.5z" />
    <glyph glyph-name="ayin" unicode="&#x5e2;" horiz-adv-x="1001" 
d="M278 616c0 -30.667 6.16113 -60.1709 18.4941 -88.5039s27.333 -55.5 45 -81.5s35.334 -53.833 53.001 -83.5s32.667 -67.5 45 -113.5s18.5 -97 18.5 -153c0 -15.333 7.66699 -23 23 -23c14.667 0 32.334 8.33301 53.001 25c45.333 34 81.333 65.333 108 94
s46.334 57.834 59.001 87.501s21.334 56.667 26.001 81l18.5 100.5c7.66699 42.667 16.834 82.667 27.501 120c5.33301 13.333 13.166 41.5 23.499 84.5s15.5 68.5 15.5 76.5c0 4 -7 11 -21 21s-30.333 20.667 -49 32s-28.667 17.666 -30 18.999
c-28.667 20 -58.667 48.667 -90 86c-5.33301 7.33301 -10.333 18.333 -15 33s-7 27.334 -7 38.001c0 26 13.333 60 40 102l72 116c10.667 14.667 21.334 22 32.001 22c6 0 11 -2.66699 15 -8s6 -12 6 -20c0 -4.66699 -1 -13 -3 -25s-3 -20.333 -3 -25
c0 -12 2.66699 -20 8 -24l113 -95c40 -37.333 60 -72.666 60 -105.999c0 -6 -0.166992 -11.333 -0.5 -16s-0.833008 -9 -1.5 -13s-2 -9 -4 -15s-3.66699 -10.833 -5 -14.5s-4 -10.167 -8 -19.5s-7.33301 -16.833 -10 -22.5l-14.5 -30.5l-17.5 -37
c-26.667 -57.333 -60.667 -185.333 -102 -384c-10.667 -51.333 -16 -90 -16 -116v-88v-53.5c0 -11 -1.66699 -23.833 -5 -38.5s-6.16602 -24.5 -8.49902 -29.5s-9 -13.5 -20 -25.5s-20.667 -21.167 -29 -27.5l-45.5 -35.5l-356 -266
c-45.333 -33.333 -78.333 -56.666 -99 -69.999s-36.667 -20 -48 -20c-14 0 -22.5 5.33301 -25.5 16s-4.5 37.334 -4.5 80.001v34v8c0 6.66699 0.333008 12.667 1 18s1.16699 10.333 1.5 15s1.83301 9.33398 4.5 14.001s4.66699 8.66699 6 12s4.5 7.5 9.5 12.5l12 12
c3 3 8.66699 7.83301 17 14.5l20 16l26 20l30.5 23l97 77c20.667 15.333 34.667 27.833 42 37.5s11 21.167 11 34.5c0 55.333 -9.5 112.5 -28.5 171.5s-39.833 108.667 -62.5 149s-43.5 81.666 -62.5 123.999s-28.5 76.5 -28.5 102.5v16c0 58 16 129.333 48 214
c-1.33301 1.33301 -18.666 9.83301 -51.999 25.5s-61 35.667 -83 60s-33 55.166 -33 92.499c0 31.333 11.167 76.833 33.5 136.5s41.166 89.5 56.499 89.5h2c4 -1.33301 6.5 -7.33301 7.5 -18s2.83301 -23.167 5.5 -37.5s7.66699 -25.166 15 -32.499
c10.667 -10.667 30.5 -23.5 59.5 -38.5l80.5 -41c24.667 -12.333 47 -29.333 67 -51s30 -44.834 30 -69.501c0 -3.33301 -1.66699 -14 -5 -32l-15 -99c-5.33301 -17.333 -9.83301 -29.166 -13.5 -35.499s-8.5 -9.5 -14.5 -9.5c-3.33301 0 -17.333 6.5 -42 19.5
s-45 21.5 -61 25.5c-16 -31.333 -24 -90 -24 -176z" />
    <glyph glyph-name="finalpe" unicode="&#x5e3;" horiz-adv-x="1058" 
d="M937 896c0 -146 6.66797 -389.67 20.001 -731.003s25.333 -546.666 36 -615.999c0 -26.667 -3 -50.5 -9 -71.5s-13 -37.167 -21 -48.5s-16.667 -20.666 -26 -27.999s-16.666 -12 -21.999 -14s-9 -3 -11 -3c-15.333 0 -23 21.333 -23 64c0 22.667 1.5 203.667 4.5 543
s4.5 561 4.5 665c0 24 -1.83301 47.667 -5.5 71s-10.834 49.333 -21.501 78s-28 51.834 -52 69.501s-53.333 26.5 -88 26.5h-302h-60h-34c-12.667 -10.667 -32 -38.334 -58 -83.001s-39 -85 -39 -121c0 -5.33301 0.666992 -12 2 -20c4 -25.333 11 -38 21 -38h140
c31.333 0 53.166 -3.66699 65.499 -11s18.5 -25.666 18.5 -54.999l3 -15c2 -14 3 -26.333 3 -37c0 -54.667 -24 -82 -72 -82h-202c-8.66699 -6.66699 -17.834 -17.5 -27.501 -32.5s-17 -27 -22 -36l-26.5 -49.5c-2 -3.33301 -5.66699 -6 -11 -8s-10.666 -1.5 -15.999 1.5
s-8 8.83301 -8 17.5c0 7.33301 1.5 14.833 4.5 22.5s8 16.334 15 26.001s12.833 17.334 17.5 23.001l23.5 28c11 13 18.167 21.167 21.5 24.5c-14.667 13.333 -25 23.166 -31 29.499s-11.667 15 -17 26s-8 23.167 -8 36.5c0 38.667 4.5 76.667 13.5 114
s20.333 69.666 34 96.999s27 51 40 71s24.833 36.667 35.5 50s16.334 20.333 17.001 21c-49.333 0 -81.5 11 -96.5 33s-22.5 53.333 -22.5 94v39v22c0 76.667 10.667 115 32 115c12 0 22 -11.667 30 -35c6.66699 -21.333 13.167 -34 19.5 -38s23.166 -6 50.499 -6h380
c79.333 0 145.833 -24.667 199.5 -74s80.5 -101 80.5 -155z" />
    <glyph glyph-name="pe" unicode="&#x5e4;" horiz-adv-x="968" 
d="M490 567c0 -42.667 -4.99707 -73.3359 -14.9971 -92.0029s-28 -28 -54 -28h-202c-22 -18 -47.333 -57.333 -76 -118c-2.66699 -7.33301 -9.16699 -10.666 -19.5 -9.99902s-15.5 7.66699 -15.5 21c0 7.33301 1.5 14.833 4.5 22.5s8 16.334 15 26.001
s12.833 17.334 17.5 23.001l23.5 28c11 13 18.167 21.167 21.5 24.5c-4 4 -10.167 9.5 -18.5 16.5s-14.166 12.167 -17.499 15.5s-7.33301 7.83301 -12 13.5s-7.83398 11.5 -9.50098 17.5s-2.5 13 -2.5 21c0 40 4.66699 78.833 14 116.5s21 70 35 97s27.667 50.5 41 70.5
s25.5 36.5 36.5 49.5s16.833 19.833 17.5 20.5c-36 0 -65.667 15.667 -89 47s-35 67.333 -35 108v32c0 76.667 10.667 115 32 115c12.667 0 23 -11.667 31 -35c6.66699 -21.333 13 -34 19 -38s22.667 -6 50 -6h309c53.333 0 108.333 -25.333 165 -76s87 -99.667 91 -147
l60 -605c1.33301 -6.66699 2 -11.667 2 -15c0 -20.667 -19.333 -69.334 -58 -146.001l-23 -46c-21.333 -41.333 -42.833 -66.666 -64.5 -75.999s-60.167 -14 -115.5 -14h-505c-28 0 -47.167 1 -57.5 3s-15.5 7.33301 -15.5 16c0 3.33301 1.66699 8 5 14
s8.33301 14.333 15 25s12.667 21 18 31l22 47l22.5 39.5c4.33301 7.66699 10.833 16 19.5 25s15 14.5 19 16.5s12.667 4.33301 26 7s24.666 4 33.999 4h50h441c33.333 0 55.5 3.5 66.5 10.5s16.5 21.167 16.5 42.5v33l-11 362c0 21.333 -0.5 39.833 -1.5 55.5
s-4.33301 35 -10 58s-13.667 42 -24 57s-25.5 28 -45.5 39s-44 16.5 -72 16.5h-230h-104c-7.33301 -6 -16.333 -17 -27 -33s-22.334 -42.5 -35.001 -79.5s-19.334 -76.5 -20.001 -118.5c0 -15.333 6.33301 -23 19 -23h140c29.333 0 51 -6 65 -18s21 -33 21 -63z" />
    <glyph glyph-name="finaltsadi" unicode="&#x5e5;" horiz-adv-x="898" 
d="M281 770c0 11.333 -6.00195 22.498 -18.002 33.498s-26.5 21.667 -43.5 32s-34 21.666 -51 33.999s-31.5 28 -43.5 47s-18 40.5 -18 64.5c0 29.333 11 73.833 33 133.5s41.667 89.5 59 89.5c4 -1.33301 6.33301 -7.33301 7 -18s2.16699 -23.167 4.5 -37.5
s7.16602 -25.166 14.499 -32.499c10.667 -10.667 28 -23.167 52 -37.5l64.5 -38c19 -11 36 -26.833 51 -47.5s22.5 -43.334 22.5 -68.001c0 -19.333 -23.167 -74.166 -69.5 -164.499s-69.5 -150.166 -69.5 -179.499v-172c0 -36 3 -54 9 -54
c8.66699 0 27.334 23.667 56.001 71l235 387c16.667 24 24.334 38.333 23.001 43c-0.666992 4 -6 10 -16 18c-18 14 -30.167 23.833 -36.5 29.5s-12.333 15.5 -18 29.5s-8.5 31.667 -8.5 53c0 29.333 11.667 74.5 35 135.5s43.666 91.5 60.999 91.5
c4 -1.33301 6.33301 -7.33301 7 -18s2.16699 -23.167 4.5 -37.5s7.16602 -25.166 14.499 -32.499c10.667 -16 27.167 -31.667 49.5 -47s42.833 -28 61.5 -38s35.334 -24 50.001 -42s22 -38.667 22 -62c0 -10 -2 -20.667 -6 -32l-32 -96
c-7.33301 -23.333 -18.666 -35 -33.999 -35c-12 0 -29.667 8.33301 -53 25s-38.666 25 -45.999 25c-10.667 0 -24.667 -13.333 -42 -40l-300 -493c-18 -24 -28.5 -41.333 -31.5 -52s-4.5 -37 -4.5 -79v-114c0 -77.333 0.833008 -159.5 2.5 -246.5s2.5 -138.833 2.5 -155.5
c0 -26.667 -2.83301 -50.5 -8.5 -71.5s-12.334 -37 -20.001 -48s-16 -20.167 -25 -27.5s-16.167 -12 -21.5 -14s-9 -3 -11 -3c-6 0 -10.167 1 -12.5 3s-4.66602 8 -6.99902 18s-3.83301 24.667 -4.5 44s-1 47 -1 83v869c0 18 18.5 65.833 55.5 143.5
s55.5 121.167 55.5 130.5z" />
    <glyph glyph-name="tsadi" unicode="&#x5e6;" horiz-adv-x="1016" 
d="M891 925c0 -8.66699 -6.00098 -17.3281 -18.001 -25.9951s-23 -13 -33 -13h-163c-19.333 0 -31.666 -3.16699 -36.999 -9.5s-9.66602 -24.5 -12.999 -54.5l-26 -192c0 -10.667 -0.333008 -23.334 -1 -38.001s-1 -24 -1 -28c0 -12 0.333008 -21.333 1 -28
s3 -13.334 7 -20.001s7.16699 -11.167 9.5 -13.5s8.16602 -7.83301 17.499 -16.5l23 -22l66 -52c29.333 -22.667 52.5 -41.334 69.5 -56.001s35.333 -32.167 55 -52.5s34.167 -40.833 43.5 -61.5s14 -42 14 -64c0 -43.333 -14 -83.833 -42 -121.5s-58 -56.5 -90 -56.5h-558
c-42 0 -70 1.33301 -84 4s-21 10 -21 22c0 11.333 10 38 30 80l46 97c6 12 19.167 19.167 39.5 21.5s80.166 3.5 179.499 3.5h156c52 0 83 1.83301 93 5.5s15 14.834 15 33.501c0 8.66699 -12.667 25.834 -38 51.501s-60 58.167 -104 97.5l-80 72
c-17.333 16.667 -28.166 30.667 -32.499 42s-6.5 34.666 -6.5 69.999c0 1.33301 -0.5 4 -1.5 8s-1.5 7 -1.5 9v187c0 30 -11.333 52 -34 66s-51.667 21 -87 21h-9c-13.333 0 -29.5 2 -48.5 6s-40 10.5 -63 19.5s-42.333 23.333 -58 43s-23.5 42.5 -23.5 68.5
c0 48 3.66699 92.5 11 133.5s18 61.5 32 61.5c5.33301 0 12.5 -10.333 21.5 -31s19.5 -34.667 31.5 -42c17.333 -9.33301 45.5 -15.833 84.5 -19.5s62.833 -6.83398 71.5 -9.50098c32 -8.66699 58.833 -28.667 80.5 -60s32.5 -62.333 32.5 -93
c0 -31.333 -0.833008 -68.5 -2.5 -111.5s-2.5 -72.5 -2.5 -88.5c0 -50.667 6 -101 18 -151c2 -11.333 12 -23.333 30 -36c30 -22 48.333 -33 55 -33c16.667 0 25 34.667 25 104c32 217.333 48 393 48 527c0 20 3.5 31.833 10.5 35.5s15.167 -0.166016 24.5 -11.499
c0 -36.667 3 -58.334 9 -65.001s25 -10 57 -10h46c51.333 0 84.5 -7.33301 99.5 -22s22.5 -36.334 22.5 -65.001c2.66699 -50.667 4 -89.334 4 -116.001z" />
    <glyph glyph-name="qof" unicode="&#x5e7;" horiz-adv-x="951" 
d="M134 482c8.66699 50.667 21.168 104.002 37.501 160.002s27.166 84 32.499 84c6 0 9 -11 9 -33c0 -8 -2.16699 -47.333 -6.5 -118s-6.5 -136 -6.5 -196c0 -294.667 20 -532.334 60 -713.001v-33c0 -38.667 -2.5 -64.334 -7.5 -77.001s-19.833 -33.667 -44.5 -63
c-22 -25.333 -37.333 -38 -46 -38c-8 0 -15.5 6.83301 -22.5 20.5s-10.5 32.167 -10.5 55.5v88c0 70 -1 185 -3 345s-3 264.333 -3 313c0 86.667 3.66699 155 11 205zM82.001 1067c0 91.333 11 137.001 33 137.001c12 0 22 -11.667 30 -35c6 -20 12 -31.833 18 -35.5
s21 -5.5 45 -5.5h448c12 0 23 -0.833008 33 -2.5s18.833 -3.33398 26.5 -5.00098s14.834 -5 21.501 -10s12.167 -8.83301 16.5 -11.5s9 -7.83398 14 -15.501s8.5 -13.167 10.5 -16.5s4.83301 -10 8.5 -20s6 -16.667 7 -20l7 -23c3.66699 -12 5.83398 -19.667 6.50098 -23
c34.667 -118.667 57.334 -223.667 68.001 -315s16 -206.666 16 -345.999c0 -18.667 -7.16699 -40.834 -21.5 -66.501s-32.833 -46.5 -55.5 -62.5c-24 -17.333 -50.833 -31.5 -80.5 -42.5s-57 -19.5 -82 -25.5s-50.333 -13.167 -76 -21.5s-50.334 -21.5 -74.001 -39.5
s-44.834 -41.333 -63.501 -70c-12.667 -18.667 -24.667 -28 -36 -28c-12.667 0 -16 13.667 -10 41c16 53.333 33.5 91.5 52.5 114.5s54.5 43.167 106.5 60.5c28 9.33301 88.333 27.666 181 54.999c54.667 17.333 87.834 35.333 99.501 54s17.5 61.334 17.5 128.001
c0 112.667 -25.667 230.334 -77 353.001c-0.666992 0.666992 -3.33398 7.16699 -8.00098 19.5s-7.83398 20 -9.50098 23l-11.5 21c-6 11 -11.5 18.5 -16.5 22.5l-22.5 17.5c-10 7.66699 -20.167 13 -30.5 16s-23.333 5.83301 -39 8.5s-32.5 4 -50.5 4h-229h-55
c-32 0 -57.167 0.666992 -75.5 2s-38 5 -59 11s-36.667 14.667 -47 26s-19 27.5 -26 48.5s-10.5 46.833 -10.5 77.5z" />
    <glyph glyph-name="resh" unicode="&#x5e8;" horiz-adv-x="1089" 
d="M893 18c-11.333 -22 -21.334 -36.0029 -30.001 -42.0029s-15.5 -4 -20.5 6s-7.5 26.333 -7.5 49c0 36.667 -1.16699 90.834 -3.5 162.501s-3.5 125.5 -3.5 161.5v301c0 25.333 -1.83301 49.833 -5.5 73.5s-10.834 49.667 -21.501 78s-28 51 -52 68s-53.333 25.5 -88 25.5
h-311c-106.667 0 -179.5 10.833 -218.5 32.5s-58.5 66.5 -58.5 134.5v22c0 22.667 1.66699 48 5 76c2 15.333 6.83301 26.5 14.5 33.5s15.667 7.83301 24 2.5s14.833 -16 19.5 -32c6.66699 -21.333 13.167 -34.166 19.5 -38.499s22.833 -6.5 49.5 -6.5h404
c36.667 0 68.5 -3.16699 95.5 -9.5s53.333 -19.166 79 -38.499s46.334 -45.5 62.001 -78.5s28.334 -77.5 38.001 -133.5s14.5 -123 14.5 -201v-574c0 -4.66699 0.166992 -11 0.5 -19s0.5 -14 0.5 -18c0 -11.333 -2 -23 -6 -35z" />
    <glyph glyph-name="shin" unicode="&#x5e9;" horiz-adv-x="1340" 
d="M486 228l359.998 -0.00292969c12 0 26.5 12 43.5 36s31.5 49.333 43.5 76l187 329c12 20.667 18 38.667 18 54c0 14.667 -5.66699 27.334 -17 38.001l-126 144c-10.667 11.333 -16 29 -16 53c0 27.333 11 64 33 110l49 102c10 14.667 20.333 22 31 22
c12.667 0 19 -9 19 -27c0 -4.66699 -0.833008 -13 -2.5 -25s-2.5 -20.667 -2.5 -26c0 -12 3 -20 9 -24l113 -94c39.333 -36.667 59 -72.334 59 -107.001c0 -4.66699 -0.666992 -9.83398 -2 -15.501l-3.5 -14.5c-1 -4 -3.33301 -9.66699 -7 -17l-8 -16
c-1.66699 -3.33301 -5 -9.66602 -10 -18.999s-8.5 -15.666 -10.5 -18.999l-393 -735c-20.667 -26.667 -34.334 -42.167 -41.001 -46.5s-20.667 -6.5 -42 -6.5h-591c0 10 3.66699 25.167 11 45.5s11 35.833 11 46.5c0 58 -3.16699 108.667 -9.5 152s-13.5 75.5 -21.5 96.5
s-15.167 47.167 -21.5 78.5s-9.5 65.333 -9.5 102c0 24.667 2 48.167 6 70.5s10.833 45.333 20.5 69s17.834 42.167 24.501 55.5s18 33.833 34 61.5s26.667 46.5 32 56.5l-84 48c-32 20.667 -48 45.667 -48 75c0 7.33301 1.66699 16 5 26l46 189c7.33301 20 17.333 30 30 30
c6.66699 0 12.334 -3.16699 17.001 -9.5s7 -15.166 7 -26.499c0 -32 6.66699 -51 20 -57l117 -51c62.667 -34.667 94 -71.334 94 -110.001c0 -18.667 -6 -45.667 -18 -81s-27 -70 -45 -104c-38.667 27.333 -74 46.333 -106 57c-2 -4.66699 -8 -17.167 -18 -37.5l-23 -48
c-5.33301 -11.667 -11.666 -26.5 -18.999 -44.5s-12.833 -34.167 -16.5 -48.5s-5.5 -27.166 -5.5 -38.499c0 -27.333 7 -56 21 -86l130 -284c1.33301 -3.33301 4.33301 -5 9 -5c14 0 27.333 12 40 36l283 548l-100 83c-23.333 23.333 -35 46.333 -35 69
c0 13.333 3 25.666 9 36.999l62 176c10 17.333 21.333 25.333 34 24c12 -2 18 -12 18 -30l10 -70l113 -76c50 -40 75 -77 75 -111c0 -3.33301 -0.666992 -7.66602 -2 -12.999c-17.333 -69.333 -43 -125.666 -77 -168.999c-28 28 -53.333 48.333 -76 61l-262 -526
c-13.333 -26 -5 -39 25 -39z" />
    <glyph glyph-name="tav" unicode="&#x5ea;" horiz-adv-x="1156" 
d="M318 244c0 7.33301 -5.33496 23.3301 -16.002 47.9971l-35.5 80.5c-13 29 -24.833 66.5 -35.5 112.5s-16 91.667 -16 137c0 38.667 4.5 85.5 13.5 140.5s20.833 101.167 35.5 138.5h-7c-88 0 -132 29.333 -132 88v101c0 28.667 1.33301 54 4 76
c2 15.333 6.83301 26.5 14.5 33.5s15.667 7.83301 24 2.5s14.833 -16 19.5 -32c6.66699 -21.333 13.167 -34.166 19.5 -38.499s22.833 -6.5 49.5 -6.5h502c36.667 0 68.5 -3.16699 95.5 -9.5s53.333 -19.166 79 -38.499s46.334 -45.5 62.001 -78.5
s28.334 -77.5 38.001 -133.5s14.5 -123 14.5 -201v-574c0 -4.66699 0.166992 -11 0.5 -19s0.5 -14 0.5 -18c0 -11.333 -2 -23 -6 -35c-11.333 -22 -21.333 -36 -30 -42s-15.5 -4 -20.5 6s-7.5 26.333 -7.5 49c0 36.667 -1.16699 90.834 -3.5 162.501s-3.5 125.5 -3.5 161.5
v301c0 25.333 -1.83301 49.833 -5.5 73.5s-10.834 49.667 -21.501 78s-28 51 -52 68s-53.333 25.5 -88 25.5h-388h-96c-16.667 -24.667 -29.5 -61 -38.5 -109s-13.5 -87.667 -13.5 -119c0 -44 6.5 -87 19.5 -129s28.833 -78.167 47.5 -108.5s37.334 -58.333 56.001 -84
s34.5 -49.167 47.5 -70.5s19.5 -39 19.5 -53c0 -5.33301 -0.833008 -11.5 -2.5 -18.5s-4.16699 -15.833 -7.5 -26.5s-6 -20.667 -8 -30l-17 -70c-4 -16 -9 -29.5 -15 -40.5s-12.167 -19.333 -18.5 -25s-15.833 -9.83398 -28.5 -12.501s-23.5 -4.16699 -32.5 -4.5
s-23.167 -0.5 -42.5 -0.5h-164c-24 0 -40.333 2.5 -49 7.5s-13 13.167 -13 24.5c0 4.66699 4 25.334 12 62.001c14.667 63.333 27.167 101.5 37.5 114.5s36.5 19.5 78.5 19.5h43c54 0 81 5.33301 81 16z" />
    <glyph glyph-name="vavvav" unicode="&#x5f0;" horiz-adv-x="1111" 
d="M426 130c0 -36 -2.66797 -65.3398 -8.00098 -88.0068c-2.66699 -9.33301 -8.66699 -18.666 -18 -27.999c-17.333 -19.333 -31 -29 -41 -29c-11.333 0 -17 13 -17 39v31c8.66699 58.667 17.334 168.334 26.001 329.001s13 273.334 13 338.001
c0 34.667 -3.83301 57.667 -11.5 69s-28.167 25 -61.5 41c-6.66699 3.33301 -20.167 7.5 -40.5 12.5s-39 10.667 -56 17s-34.5 15.5 -52.5 27.5s-32.333 29.5 -43 52.5s-16 50.5 -16 82.5v41c0 9.33301 0.333008 22 1 38s1.66699 28.333 3 37s3 17.667 5 27
s5 16.166 9 20.499s8.33301 6.5 13 6.5s8.66699 -5 12 -15s7.83301 -21.667 13.5 -35s13.167 -22.666 22.5 -27.999c18 -10 42.667 -18.667 74 -26s49.333 -11.666 54 -12.999c30 -10 57.167 -27.167 81.5 -51.5s36.5 -50.166 36.5 -77.499
c0 -57.333 -0.333008 -131.333 -1 -222s-1 -155 -1 -193c0 -72 0.166992 -139.167 0.5 -201.5s0.833008 -110.666 1.5 -144.999s1 -53.166 1 -56.499zM985.999 138.993c0 -36 -2.66797 -65.3398 -8.00098 -88.0068c-2.66699 -9.33301 -8.66699 -18.666 -18 -27.999
c-17.333 -19.333 -31 -29 -41 -29c-11.333 0 -17 13 -17 39v31c8.66699 58.667 17.334 168.334 26.001 329.001s13 273.334 13 338.001c0 34.667 -3.83301 57.667 -11.5 69s-28.167 25 -61.5 41c-6.66699 3.33301 -20.167 7.5 -40.5 12.5s-39 10.667 -56 17
s-34.5 15.5 -52.5 27.5s-32.333 29.5 -43 52.5s-16 50.5 -16 82.5v41c0 9.33301 0.333008 22 1 38s1.66699 28.333 3 37s3 17.667 5 27s5 16.166 9 20.499s8.33301 6.5 13 6.5s8.66699 -5 12 -15s7.83301 -21.667 13.5 -35s13.167 -22.666 22.5 -27.999
c18 -10 42.667 -18.667 74 -26s49.333 -11.666 54 -12.999c30 -10 57.167 -27.167 81.5 -51.5s36.5 -50.166 36.5 -77.499c0 -57.333 -0.333008 -131.333 -1 -222s-1 -155 -1 -193c0 -72 0.166992 -139.167 0.5 -201.5s0.833008 -110.666 1.5 -144.999s1 -53.166 1 -56.499z
" />
    <glyph glyph-name="vavyod" unicode="&#x5f1;" horiz-adv-x="1113" 
d="M988 130c0 -36 -2.66797 -65.3398 -8.00098 -88.0068c-2.66699 -9.33301 -8.66699 -18.666 -18 -27.999c-17.333 -19.333 -31 -29 -41 -29c-11.333 0 -17 13 -17 39v31c8.66699 58.667 17.334 168.334 26.001 329.001s13 273.334 13 338.001
c0 34.667 -3.83301 57.667 -11.5 69s-28.167 25 -61.5 41c-6.66699 3.33301 -20.167 7.5 -40.5 12.5s-39 10.667 -56 17s-34.5 15.5 -52.5 27.5s-32.333 29.5 -43 52.5s-16 50.5 -16 82.5v41c0 9.33301 0.333008 22 1 38s1.66699 28.333 3 37s3 17.667 5 27
s5 16.166 9 20.499s8.33301 6.5 13 6.5s8.66699 -5 12 -15s7.83301 -21.667 13.5 -35s13.167 -22.666 22.5 -27.999c18 -10 42.667 -18.667 74 -26s49.333 -11.666 54 -12.999c30 -10 57.167 -27.167 81.5 -51.5s36.5 -50.166 36.5 -77.499
c0 -57.333 -0.333008 -131.333 -1 -222s-1 -155 -1 -193c0 -72 0.166992 -139.167 0.5 -201.5s0.833008 -110.666 1.5 -144.999s1 -53.166 1 -56.499zM388.999 590.993l0.00195312 80.9971c0 49.333 -3.83301 86.666 -11.5 111.999s-23.5 40 -47.5 44
c-7.33301 3.33301 -21.5 7.33301 -42.5 12s-40.833 10.167 -59.5 16.5s-37.834 15.333 -57.501 27s-35.334 28.834 -47.001 51.501s-17.5 50 -17.5 82v40c0 97.333 9.33301 146 28 146c4.66699 0 8.66699 -5 12 -15s8 -21.667 14 -35s13.667 -22.666 23 -27.999
c18 -10 42.5 -18.667 73.5 -26s48.833 -11.666 53.5 -12.999c28 -9.33301 53.667 -28.166 77 -56.499s35 -56.833 35 -85.5c0 -57.333 -0.166992 -122 -0.5 -194s-0.5 -127 -0.5 -165c0 -8.66699 -1.66699 -15.5 -5 -20.5s-7.33301 -7.5 -12 -7.5c-10 0 -15 11.333 -15 34z
" />
    <glyph glyph-name="yodyod" unicode="&#x5f2;" horiz-adv-x="1092" 
d="M389 591l0.00195312 80.9971c0 49.333 -3.83301 86.666 -11.5 111.999s-23.5 40 -47.5 44c-7.33301 3.33301 -21.5 7.33301 -42.5 12s-40.833 10.167 -59.5 16.5s-37.834 15.333 -57.501 27s-35.334 28.834 -47.001 51.501s-17.5 50 -17.5 82v40
c0 97.333 9.33301 146 28 146c4.66699 0 8.66699 -5 12 -15s8 -21.667 14 -35s13.667 -22.666 23 -27.999c18 -10 42.5 -18.667 73.5 -26s48.833 -11.666 53.5 -12.999c28 -9.33301 53.667 -28.166 77 -56.499s35 -56.833 35 -85.5c0 -57.333 -0.166992 -122 -0.5 -194
s-0.5 -127 -0.5 -165c0 -8.66699 -1.66699 -15.5 -5 -20.5s-7.33301 -7.5 -12 -7.5c-10 0 -15 11.333 -15 34zM951.002 590.997l0.00195312 80.9971c0 49.333 -3.83301 86.666 -11.5 111.999s-23.5 40 -47.5 44c-7.33301 3.33301 -21.5 7.33301 -42.5 12
s-40.833 10.167 -59.5 16.5s-37.834 15.333 -57.501 27s-35.334 28.834 -47.001 51.501s-17.5 50 -17.5 82v40c0 97.333 9.33301 146 28 146c4.66699 0 8.66699 -5 12 -15s8 -21.667 14 -35s13.667 -22.666 23 -27.999c18 -10 42.5 -18.667 73.5 -26
s48.833 -11.666 53.5 -12.999c28 -9.33301 53.667 -28.166 77 -56.499s35 -56.833 35 -85.5c0 -57.333 -0.166992 -122 -0.5 -194s-0.5 -127 -0.5 -165c0 -8.66699 -1.66699 -15.5 -5 -20.5s-7.33301 -7.5 -12 -7.5c-10 0 -15 11.333 -15 34z" />
    <glyph glyph-name="geresh" unicode="&#x5f3;" horiz-adv-x="306" 
d="M99 1096c-12 12 -20.834 21.501 -26.501 28.501s-11.167 16.333 -16.5 28s-8 23.5 -8 35.5c0 30 10.5 55.5 31.5 76.5s46.5 31.5 76.5 31.5s55.5 -10.5 76.5 -31.5s31.5 -46.5 31.5 -76.5c0 -17.333 -2.33301 -34.333 -7 -51c-26.667 -91.333 -81 -204.333 -163 -339h-52
c4 8.66699 12.333 25.667 25 51s22.334 45.666 29.001 60.999s13.167 36.166 19.5 62.499s9.5 51.833 9.5 76.5c0 12.667 -8.66699 28.334 -26 47.001z" />
    <glyph glyph-name="gershayim" unicode="&#x5f4;" horiz-adv-x="597" 
d="M390 1090c-12 12 -20.834 21.501 -26.501 28.501s-11.167 16.333 -16.5 28s-8 23.5 -8 35.5c0 30 10.5 55.5 31.5 76.5s46.5 31.5 76.5 31.5s55.5 -10.5 76.5 -31.5s31.5 -46.5 31.5 -76.5c0 -17.333 -2.33301 -34.333 -7 -51c-26.667 -91.333 -81 -204.333 -163 -339
h-52c4 8.66699 12.333 25.667 25 51s22.334 45.666 29.001 60.999s13.167 36.166 19.5 62.499s9.5 51.833 9.5 76.5c0 12.667 -8.66699 28.334 -26 47.001zM98.999 1096c-12 12 -20.834 21.501 -26.501 28.501s-11.167 16.333 -16.5 28s-8 23.5 -8 35.5
c0 30 10.5 55.5 31.5 76.5s46.5 31.5 76.5 31.5s55.5 -10.5 76.5 -31.5s31.5 -46.5 31.5 -76.5c0 -17.333 -2.33301 -34.333 -7 -51c-26.667 -91.333 -81 -204.333 -163 -339h-52c4 8.66699 12.333 25.667 25 51s22.334 45.666 29.001 60.999s13.167 36.166 19.5 62.499
s9.5 51.833 9.5 76.5c0 12.667 -8.66699 28.334 -26 47.001z" />
    <glyph glyph-name="thinspace" unicode="&#x2009;" horiz-adv-x="150" 
 />
    <glyph glyph-name="hairspace" unicode="&#x200a;" horiz-adv-x="50" 
 />
    <glyph glyph-name="zerononjoin" unicode="&#x200c;" 
d="M-108 1894l108 -108l106 107l34 -33l-107 -107l107 -107l-34 -33l-106 106l-108 -106l-33 33l107 107l-107 107z" />
    <glyph glyph-name="zerojoin" unicode="&#x200d;" 
d="M157 1637v93h-313v-93h-47v140h407v-140h-47z" />
    <glyph glyph-name="lrm" unicode="&#x200e;" 
d="M21 1860l33 34l141 -141l-141 -141l-33 34l84 84h-259v47h258z" />
    <glyph glyph-name="rlm" unicode="&#x200f;" 
d="M-20 1647l-33 -34l-141 141l141 141l33 -34l-84 -84h259v-47h-258z" />
    <glyph glyph-name="quoteleft" unicode="&#x2018;" horiz-adv-x="357" 
d="M140 790l-40 49c118 75.333 177 154.666 177 237.999c0 10.667 -4 16 -12 16h-5h-23c-38.667 0 -69.167 9 -91.5 27s-33.5 43 -33.5 75c0 30 11 55.167 33 75.5s49.333 30.5 82 30.5c42 0 76.5 -15.5 103.5 -46.5s40.5 -71.167 40.5 -120.5c0 -76 -24.667 -147 -74 -213
c-17.333 -23.333 -60 -60.666 -128 -111.999c-2.66699 -1.33301 -7.5 -4.5 -14.5 -9.5s-11.833 -8.16699 -14.5 -9.5z" />
    <glyph glyph-name="quoteright" unicode="&#x2019;" horiz-adv-x="357" 
d="M140 790l-40 49c118 75.333 177 154.666 177 237.999c0 10.667 -4 16 -12 16h-5h-23c-38.667 0 -69.167 9 -91.5 27s-33.5 43 -33.5 75c0 30 11 55.167 33 75.5s49.333 30.5 82 30.5c42 0 76.5 -15.5 103.5 -46.5s40.5 -71.167 40.5 -120.5c0 -76 -24.667 -147 -74 -213
c-17.333 -23.333 -60 -60.666 -128 -111.999c-2.66699 -1.33301 -7.5 -4.5 -14.5 -9.5s-11.833 -8.16699 -14.5 -9.5z" />
    <glyph glyph-name="quotesinglbase" unicode="&#x201a;" horiz-adv-x="297" 
d="M140 -537l-40 49c118 75.333 177 154.666 177 237.999c0 10.667 -4 16 -12 16h-5h-23c-38.667 0 -69.167 9 -91.5 27s-33.5 43 -33.5 75c0 30 11 55.167 33 75.5s49.333 30.5 82 30.5c42 0 76.5 -15.5 103.5 -46.5s40.5 -71.167 40.5 -120.5c0 -76 -24.667 -147 -74 -213
c-17.333 -23.333 -60 -60.666 -128 -111.999c-2.66699 -1.33301 -7.5 -4.5 -14.5 -9.5s-11.833 -8.16699 -14.5 -9.5z" />
    <glyph glyph-name="quotedblleft" unicode="&#x201c;" horiz-adv-x="674" 
d="M456 780l-40 49c118 75.333 177 154.666 177 237.999c0 10.667 -4 16 -12 16h-5h-23c-38.667 0 -69.167 9 -91.5 27s-33.5 43 -33.5 75c0 30 11 55.167 33 75.5s49.333 30.5 82 30.5c42 0 76.5 -15.5 103.5 -46.5s40.5 -71.167 40.5 -120.5c0 -76 -24.667 -147 -74 -213
c-17.333 -23.333 -60 -60.666 -128 -111.999c-2.66699 -1.33301 -7.5 -4.5 -14.5 -9.5s-11.833 -8.16699 -14.5 -9.5zM139 780l-40 49c118 75.333 177 154.666 177 237.999c0 10.667 -4 16 -12 16h-5h-23c-38.667 0 -69.167 9 -91.5 27s-33.5 43 -33.5 75
c0 30 11 55.167 33 75.5s49.333 30.5 82 30.5c42 0 76.5 -15.5 103.5 -46.5s40.5 -71.167 40.5 -120.5c0 -76 -24.667 -147 -74 -213c-17.333 -23.333 -60 -60.666 -128 -111.999c-2.66699 -1.33301 -7.5 -4.5 -14.5 -9.5s-11.833 -8.16699 -14.5 -9.5z" />
    <glyph glyph-name="quotedblright" unicode="&#x201d;" horiz-adv-x="674" 
d="M456 780l-40 49c118 75.333 177 154.666 177 237.999c0 10.667 -4 16 -12 16h-5h-23c-38.667 0 -69.167 9 -91.5 27s-33.5 43 -33.5 75c0 30 11 55.167 33 75.5s49.333 30.5 82 30.5c42 0 76.5 -15.5 103.5 -46.5s40.5 -71.167 40.5 -120.5c0 -76 -24.667 -147 -74 -213
c-17.333 -23.333 -60 -60.666 -128 -111.999c-2.66699 -1.33301 -7.5 -4.5 -14.5 -9.5s-11.833 -8.16699 -14.5 -9.5zM139 780l-40 49c118 75.333 177 154.666 177 237.999c0 10.667 -4 16 -12 16h-5h-23c-38.667 0 -69.167 9 -91.5 27s-33.5 43 -33.5 75
c0 30 11 55.167 33 75.5s49.333 30.5 82 30.5c42 0 76.5 -15.5 103.5 -46.5s40.5 -71.167 40.5 -120.5c0 -76 -24.667 -147 -74 -213c-17.333 -23.333 -60 -60.666 -128 -111.999c-2.66699 -1.33301 -7.5 -4.5 -14.5 -9.5s-11.833 -8.16699 -14.5 -9.5z" />
    <glyph glyph-name="quotedblbase" unicode="&#x201e;" horiz-adv-x="674" 
d="M456 -453l-40 49c118 75.333 177 154.666 177 237.999c0 10.667 -4 16 -12 16h-5h-23c-38.667 0 -69.167 9 -91.5 27s-33.5 43 -33.5 75c0 30 11 55.167 33 75.5s49.333 30.5 82 30.5c42 0 76.5 -15.5 103.5 -46.5s40.5 -71.167 40.5 -120.5c0 -76 -24.667 -147 -74 -213
c-17.333 -23.333 -60 -60.666 -128 -111.999c-2.66699 -1.33301 -7.5 -4.5 -14.5 -9.5s-11.833 -8.16699 -14.5 -9.5zM139 -453l-40 49c118 75.333 177 154.666 177 237.999c0 10.667 -4 16 -12 16h-5h-23c-38.667 0 -69.167 9 -91.5 27s-33.5 43 -33.5 75
c0 30 11 55.167 33 75.5s49.333 30.5 82 30.5c42 0 76.5 -15.5 103.5 -46.5s40.5 -71.167 40.5 -120.5c0 -76 -24.667 -147 -74 -213c-17.333 -23.333 -60 -60.666 -128 -111.999c-2.66699 -1.33301 -7.5 -4.5 -14.5 -9.5s-11.833 -8.16699 -14.5 -9.5z" />
    <glyph glyph-name="newshekel" unicode="&#x20aa;" horiz-adv-x="1295" 
d="M793 788c-2.66699 -17.333 -5.66504 -32.502 -8.99805 -45.502s-6.33301 -21.833 -9 -26.5s-4.66699 -7 -6 -7c-1.33301 0.666992 -2.83301 1.66699 -4.5 3s-4.83398 3 -9.50098 5s-8.83398 3.16699 -12.501 3.5s-7 -0.833984 -10 -3.50098s-4.5 -7.33398 -4.5 -14.001
v-59c0 -42.667 2.33301 -112.167 7 -208.5s7 -163.166 7 -200.499c0 -15.333 -2.66699 -33 -8 -53h30c26 0 47.333 14.667 64 44l195 314c7.33301 16 11 31.333 11 46c0 9.33301 -4.33301 18.333 -13 27l-112 108c-8.66699 8.66699 -13 21.334 -13 38.001
c0 20 7.33301 37.333 22 52l67 71c8.66699 10.667 17.667 15.5 27 14.5s14 -7.16699 14 -18.5c0 -4 -0.833008 -9.83301 -2.5 -17.5s-2.33398 -14.167 -2.00098 -19.5s2.83301 -9.66602 7.5 -12.999l80 -66c31.333 -25.333 47 -49 47 -71
c0 -5.33301 -1.16699 -11.166 -3.5 -17.499s-4.66602 -11.666 -6.99902 -15.999s-6.16602 -10.333 -11.499 -18s-9 -13.5 -11 -17.5l-329 -587c-16.667 -17.333 -27.834 -27.5 -33.501 -30.5s-17.167 -4.5 -34.5 -4.5h-392c7.33301 15.333 11 36 11 62v198
c0 24 9.83301 63.667 29.5 119s40.834 100.333 63.501 135l-54 26c-20 10.667 -30 23 -30 37c0 4 0.833008 8.33301 2.5 13s4 10 7 16l6.5 13l38 71c3.33301 7.33301 7.83301 12.166 13.5 14.499s10.667 2 15 -1s6.5 -8.5 6.5 -16.5c0 -18 4.33301 -28.333 13 -31l100 -42
c21.333 -10 36.333 -19 45 -27s13 -17.667 13 -29c0 -6 -0.166992 -10.5 -0.5 -13.5s-1.83301 -7 -4.5 -12s-5.66699 -9.66699 -9 -14s-9 -12.5 -17 -24.5l-25 -38c-50 28.667 -82.333 45.334 -97 50.001c-12.667 -22.667 -27.667 -61.667 -45 -117s-26 -93 -26 -113
c0 -37.333 4 -62.333 12 -75c8.66699 -12.667 31.667 -19 69 -19h30h163c12 271.333 18 431.666 18 480.999v17c0 18.667 -2.5 30.167 -7.5 34.5s-18.5 6.5 -40.5 6.5h-390c-6.66699 -40.667 -10 -83 -10 -127c0 -37.333 4.66699 -116.833 14 -238.5s14 -217.5 14 -287.5
c0 -10.667 -10 -24.667 -30 -42s-32.667 -26 -38 -26s-10.166 5.16699 -14.499 15.5s-6.5 24.833 -6.5 43.5v559v20c0 20.667 2.66699 36.167 8 46.5s18.333 22.5 39 36.5c-11.333 2.66699 -21 5.66699 -29 9s-16.333 8.16602 -25 14.499s-15.334 14.833 -20.001 25.5
s-7 23.334 -7 38.001v67c0 18 1 35 3 51c3.33301 16.667 10.5 25.667 21.5 27s19.5 -6.33398 25.5 -23.001c4.66699 -14 9.5 -22.333 14.5 -25s18.5 -4 40.5 -4h433c29.333 0 50.833 -2.16699 64.5 -6.5s22.167 -9.16602 25.5 -14.499s8.66602 -17.333 15.999 -36
c6.66699 -17.333 10 -36 10 -56z" />
    <glyph glyph-name="Euro" unicode="&#x20ac;" horiz-adv-x="1024" 
d="M960 108c-41.333 -36.667 -93 -66.8311 -155 -90.498s-124.667 -35.5 -188 -35.5c-62 0 -117.667 11.667 -167 35c-137.333 64 -223 194.333 -257 391h-134v79h122v31v30v69h-122v79h134c34.667 214.667 127.667 356.667 279 426c50.667 23.333 111.667 35 183 35
c58 0 112.667 -8.16699 164 -24.5s89 -38.833 113 -67.5c20.667 -24.667 31 -54.334 31 -89.001c0 -25.333 -8.33301 -46 -25 -62s-37.334 -24 -62.001 -24c-37.333 0 -66.5 16 -87.5 48s-31.5 71.667 -31.5 119c-33.333 19.333 -70.333 29 -111 29
c-43.333 0 -80.666 -10.333 -111.999 -31c-94 -58.667 -151.333 -178.334 -172 -359.001h425v-79h-431v-31c0 -34 2 -67 6 -99h375v-79h-361c12 -45.333 25.833 -85.5 41.5 -120.5s35.834 -68 60.501 -99s55.5 -54.833 92.5 -71.5s79.5 -25 127.5 -25
c44.667 0 85.667 5.66699 123 17s78.666 28.333 123.999 51c4.66699 -6 9.66699 -14.667 15 -26v-26z" />
    <glyph glyph-name="dottedcircle" unicode="&#x25cc;" horiz-adv-x="1244" 
d="M83 527c0 48 23.667 72 71 72c48 0 72 -24 72 -72c0 -47.333 -24 -71 -72 -71c-47.333 0 -71 23.667 -71 71zM1019 527c0 48 23.667 72 71 72c48 0 72 -24 72 -72c0 -47.333 -24 -71 -72 -71c-47.333 0 -71 23.667 -71 71zM551 995c0 48 23.667 72 71 72
c48 0 72 -24 72 -72c0 -47.333 -24 -71 -72 -71c-47.333 0 -71 23.667 -71 71zM551 59c0 48 23.667 72 71 72c48 0 72 -24 72 -72c0 -47.333 -24 -71 -72 -71c-47.333 0 -71 23.667 -71 71zM959 761c0 48 23.667 72 71 72c48 0 72 -24 72 -72c0 -47.333 -24 -71 -72 -71
c-47.333 0 -71 23.667 -71 71zM959 293c0 48 23.667 72 71 72c48 0 72 -24 72 -72c0 -47.333 -24 -71 -72 -71c-47.333 0 -71 23.667 -71 71zM143 761c0 48 23.667 72 71 72c48 0 72 -24 72 -72c0 -47.333 -24 -71 -72 -71c-47.333 0 -71 23.667 -71 71zM143 293
c0 48 23.667 72 71 72c48 0 72 -24 72 -72c0 -47.333 -24 -71 -72 -71c-47.333 0 -71 23.667 -71 71zM317 935c0 48 23.667 72 71 72c48 0 72 -24 72 -72c0 -47.333 -24 -71 -72 -71c-47.333 0 -71 23.667 -71 71zM785 935c0 48 23.667 72 71 72c48 0 72 -24 72 -72
c0 -47.333 -24 -71 -72 -71c-47.333 0 -71 23.667 -71 71zM317 119c0 48 23.667 72 71 72c48 0 72 -24 72 -72c0 -47.333 -24 -71 -72 -71c-47.333 0 -71 23.667 -71 71zM785 119c0 48 23.667 72 71 72c48 0 72 -24 72 -72c0 -47.333 -24 -71 -72 -71
c-47.333 0 -71 23.667 -71 71z" />
    <glyph glyph-name="yod_hiriq" unicode="&#xfb1d;" horiz-adv-x="530" 
d="M324 -236c0 19.333 6.66699 35.666 20 48.999s29.666 20 48.999 20s35.666 -6.66699 48.999 -20s20 -29.666 20 -48.999c0 -18.667 -6.66699 -34.5 -20 -47.5s-29.666 -19.5 -48.999 -19.5s-35.666 6.5 -48.999 19.5s-20 28.833 -20 47.5zM389 591l0.00195312 80.9971
c0 49.333 -3.83301 86.666 -11.5 111.999s-23.5 40 -47.5 44c-7.33301 3.33301 -21.5 7.33301 -42.5 12s-40.833 10.167 -59.5 16.5s-37.834 15.333 -57.501 27s-35.334 28.834 -47.001 51.501s-17.5 50 -17.5 82v40c0 97.333 9.33301 146 28 146
c4.66699 0 8.66699 -5 12 -15s8 -21.667 14 -35s13.667 -22.666 23 -27.999c18 -10 42.5 -18.667 73.5 -26s48.833 -11.666 53.5 -12.999c28 -9.33301 53.667 -28.166 77 -56.499s35 -56.833 35 -85.5c0 -57.333 -0.166992 -122 -0.5 -194s-0.5 -127 -0.5 -165
c0 -8.66699 -1.66699 -15.5 -5 -20.5s-7.33301 -7.5 -12 -7.5c-10 0 -15 11.333 -15 34z" />
    <glyph glyph-name="jsvarika" unicode="&#xfb1e;" 
d="M114 1388c0 11.333 16.999 17 50.999 17c30.667 0 46 -6.66699 46 -20c0 -43.333 -20.167 -78.5 -60.5 -105.5s-90.166 -40.5 -149.499 -40.5s-109.5 13.5 -150.5 40.5s-61.5 62.167 -61.5 105.5c0 12 18 18 54 18c28.667 0 43 -5 43 -15c0 -41.333 38.333 -62 115 -62
c75.333 0 113 20.667 113 62z" />
    <glyph glyph-name="yodyodpatah" unicode="&#xfb1f;" horiz-adv-x="1092" 
d="M389 591l0.00195312 80.9971c0 49.333 -3.83301 86.666 -11.5 111.999s-23.5 40 -47.5 44c-7.33301 3.33301 -21.5 7.33301 -42.5 12s-40.833 10.167 -59.5 16.5s-37.834 15.333 -57.501 27s-35.334 28.834 -47.001 51.501s-17.5 50 -17.5 82v40
c0 97.333 9.33301 146 28 146c4.66699 0 8.66699 -5 12 -15s8 -21.667 14 -35s13.667 -22.666 23 -27.999c18 -10 42.5 -18.667 73.5 -26s48.833 -11.666 53.5 -12.999c28 -9.33301 53.667 -28.166 77 -56.499s35 -56.833 35 -85.5c0 -57.333 -0.166992 -122 -0.5 -194
s-0.5 -127 -0.5 -165c0 -8.66699 -1.66699 -15.5 -5 -20.5s-7.33301 -7.5 -12 -7.5c-10 0 -15 11.333 -15 34zM951.002 590.997l0.00195312 80.9971c0 49.333 -3.83301 86.666 -11.5 111.999s-23.5 40 -47.5 44c-7.33301 3.33301 -21.5 7.33301 -42.5 12
s-40.833 10.167 -59.5 16.5s-37.834 15.333 -57.501 27s-35.334 28.834 -47.001 51.501s-17.5 50 -17.5 82v40c0 97.333 9.33301 146 28 146c4.66699 0 8.66699 -5 12 -15s8 -21.667 14 -35s13.667 -22.666 23 -27.999c18 -10 42.5 -18.667 73.5 -26
s48.833 -11.666 53.5 -12.999c28 -9.33301 53.667 -28.166 77 -56.499s35 -56.833 35 -85.5c0 -57.333 -0.166992 -122 -0.5 -194s-0.5 -127 -0.5 -165c0 -8.66699 -1.66699 -15.5 -5 -20.5s-7.33301 -7.5 -12 -7.5c-10 0 -15 11.333 -15 34zM512.027 234.994
c-23.4971 0 -37.2041 3 -41.1201 9s-5.87402 20.333 -5.87402 43c0 20.667 1.95801 32.834 5.87402 36.501s18.1123 5.5 42.5889 5.5h373.016c24.4766 0 38.6729 -1.83301 42.5889 -5.5s5.87402 -15.834 5.87402 -36.501c0 -21.333 -2.9375 -35.333 -8.81152 -42
s-20.5596 -10 -44.0566 -10h-370.079z" />
    <glyph glyph-name="ayin.alt" unicode="&#xfb20;" horiz-adv-x="1082" 
d="M290 626l-0.00390625 5.99805c0 58.667 11.667 119 35 181c-1.33301 1.33301 -18.666 9.83301 -51.999 25.5s-61 35.667 -83 60s-33 55.166 -33 92.499c0 31.333 11.167 76.833 33.5 136.5s41.166 89.5 56.499 89.5h2c4 -1.33301 6.5 -7.33301 7.5 -18
s2.83301 -23.167 5.5 -37.5s7.66699 -25.166 15 -32.499c10.667 -10.667 30.5 -23.5 59.5 -38.5l80.5 -41c24.667 -12.333 47 -29.333 67 -51s30 -44.834 30 -69.501c0 -3.33301 -1.66699 -14 -5 -32l-15 -99c-5.33301 -17.333 -9.83301 -29.166 -13.5 -35.499
s-8.5 -9.5 -14.5 -9.5c-3.33301 0 -17.333 6.5 -42 19.5s-45 21.5 -61 25.5c-15.333 -42.667 -23 -86 -23 -130c0 -22 3.33301 -44 10 -66c2.66699 -10 10 -24.167 22 -42.5l35.5 -55c11.667 -18.333 22.167 -46 31.5 -83s14 -78.167 14 -123.5
c0 -16 1.16699 -27.167 3.5 -33.5s7.83301 -9.5 16.5 -9.5s21.334 3 38.001 9l73.5 20.5c15.667 4.33301 34.667 11.833 57 22.5s38 19.167 47 25.5s21.667 19.333 38 39s28.333 36.667 36 51s19.834 39.333 36.501 75s30.834 68.5 42.501 98.5l51.5 132
c0 2.66699 -3.66699 7.33398 -11 14.001s-16.5 14 -27.5 22l-32.5 23l-31.5 21c-10.333 6.66699 -16.166 10.667 -17.499 12c-28.667 20 -58.667 48.667 -90 86c-5.33301 7.33301 -10.333 18.333 -15 33s-7 27.334 -7 38.001c0 26 13.333 60 40 102l72 116
c10.667 14.667 21.334 22 32.001 22c6 0 11 -2.66699 15 -8s6 -12 6 -20c0 -4.66699 -1 -13 -3 -25s-3 -20.333 -3 -25c0 -12 2.66699 -20 8 -24l113 -95c40 -37.333 60 -72.666 60 -105.999v-9c0 -22 -2.83301 -43.167 -8.5 -63.5s-19.5 -54.166 -41.5 -101.499
c-16.667 -36 -43 -111 -79 -225s-60 -200.667 -72 -260c-6.66699 -31.333 -31.5 -66.5 -74.5 -105.5s-88.833 -64.5 -137.5 -76.5l-463 -127c-36 -8.66699 -59 -13 -69 -13c-14 0 -21 6.66699 -21 20c0 9.33301 6.66699 36.666 20 81.999l18 55
c3.33301 10 5.66602 17.167 6.99902 21.5s3.66602 9.33301 6.99902 15s5.33301 9.16699 6 10.5s3.83398 3.66602 9.50098 6.99902s9.5 5.33301 11.5 6l18.5 6l24.5 8l191 57c24 6.66699 36 20.667 36 42c0 2.66699 0.666992 8.16699 2 16.5s2 15.5 2 21.5
c0 38 -5.16699 73.5 -15.5 106.5s-21.5 59.333 -33.5 79s-23.167 42 -33.5 67s-15.5 49.167 -15.5 72.5z" />
    <glyph glyph-name="alef.wide" unicode="&#xfb21;" horiz-adv-x="1852" 
d="M152 950c0 46 9.50195 94.6699 28.502 146.003s36.5 77 52.5 77c9.33301 0 19.333 -5.83301 30 -17.5s16 -29.5 16 -53.5c4.66699 -22.667 19.167 -46.834 43.5 -72.501s54 -50 89 -73s77.833 -47.333 128.5 -73s99.5 -48.834 146.5 -69.501s100.333 -42.667 160 -66
l152.5 -58l140 -50.5c51.333 -18.333 87.333 -31.5 108 -39.5l284 231l-96 115c-23.333 29.333 -35 61.333 -35 96c0 40.667 14.333 82.667 43 126c4 6 9.33301 14.5 16 25.5l16.5 27.5c4.33301 7.33301 9.33301 14.666 15 21.999s10.834 13 15.501 17s9.33398 6 14.001 6
c11.333 0 17 -6.66699 17 -20c0 -4.66699 -1.33301 -14.167 -4 -28.5s-4 -25.5 -4 -33.5c0 -18.667 10.667 -39.667 32 -63s44.666 -44.666 69.999 -63.999s48.666 -41.666 69.999 -66.999s32 -48.666 32 -69.999c0 -18 -5 -36.333 -15 -55s-24 -40.334 -42 -65.001
s-31.333 -45.334 -40 -62.001l-73 68l-262 -238c31.333 -13.333 75.5 -30.166 132.5 -50.499s105 -39.166 144 -56.499s74.167 -37 105.5 -59c56 -48 84 -119 84 -213c0 -66 -5.5 -116 -16.5 -150s-25.833 -51 -44.5 -51c-2.66699 0 -5.16699 0.666992 -7.5 2
s-4.5 3.83301 -6.5 7.5l-6.5 11.5c-2.33301 4 -5.33301 9.66699 -9 17s-7.5 14.333 -11.5 21c-24.667 44 -60 84.833 -106 122.5s-95.667 69.667 -149 96s-113.5 53 -180.5 80s-131 51.167 -192 72.5s-125.333 46.666 -193 75.999s-125.5 58.666 -173.5 87.999
c-16 10 -45.333 23.167 -88 39.5s-72.334 24.5 -89.001 24.5c-2 0 -5.83301 -0.333008 -11.5 -1s-10.167 -1 -13.5 -1c-60 -7.33301 -111.333 -30.833 -154 -70.5s-64 -78.167 -64 -115.5c0 -20 6 -37 18 -51s26.667 -26.5 44 -37.5s34.666 -23.5 51.999 -37.5
s32 -34.5 44 -61.5s18 -59.833 18 -98.5s-22.5 -77 -67.5 -115s-78.5 -57 -100.5 -57h-107c-31.333 0 -47 9.33301 -47 28c0 12.667 5.33301 22.834 16 30.501s22.5 13.167 35.5 16.5s24.833 10.166 35.5 20.499s16 24.166 16 41.499c0 9.33301 -5.33301 22.333 -16 39
s-22.5 33.167 -35.5 49.5s-24.833 36.666 -35.5 60.999s-16 47.833 -16 70.5c0 28.667 9.5 60.334 28.5 95.001s43.167 67.5 72.5 98.5s58.666 59 87.999 84s57.333 46.167 84 63.5c-17.333 19.333 -40.666 39.5 -69.999 60.5s-54.5 38.333 -75.5 52s-39.667 32.667 -56 57
s-24.5 51.833 -24.5 82.5z" />
    <glyph glyph-name="dalet.wide" unicode="&#xfb22;" horiz-adv-x="2003" 
d="M362 895c-102 0 -173.167 11.167 -213.5 33.5s-60.5 67.166 -60.5 134.499v27c0 42.667 1 72.334 3 89.001c2 15.333 6.83301 26.5 14.5 33.5s15.667 7.83301 24 2.5s14.833 -16 19.5 -32c7.33301 -24 15.5 -40.167 24.5 -48.5s26.167 -12.5 51.5 -12.5h1489h71
c32 0 54.5 -2.5 67.5 -7.5s22.167 -16.167 27.5 -33.5l13 -81c5.33301 -34.667 8 -59 8 -73c0 -16 -2.66699 -30.167 -8 -42.5s-10.333 -18.5 -15 -18.5c-8 -1.33301 -16.667 3.66699 -26 15c-6.66699 8 -17.5 12.5 -32.5 13.5s-23.5 -0.833008 -25.5 -5.5v-108
c0 -284 10.333 -492.667 31 -626c0 -26.667 -2.5 -50.5 -7.5 -71.5s-10.667 -36.833 -17 -47.5s-13.5 -19.5 -21.5 -26.5s-14.167 -11.333 -18.5 -13s-7.5 -2.5 -9.5 -2.5c-15.333 0 -23 21.667 -23 65c0 38.667 1.16699 153.334 3.5 344.001s3.5 312 3.5 364v59v9
c0 27.333 -2.83301 44.166 -8.5 50.499s-22.167 9.5 -49.5 9.5h-1315z" />
    <glyph glyph-name="he.wide" unicode="&#xfb23;" horiz-adv-x="2039" 
d="M1930 945c0 -16 -2.66602 -29.8291 -7.99902 -41.4961s-10.333 -17.5 -15 -17.5c-1.33301 0 -4 2.5 -8 7.5s-9.33301 7.5 -16 7.5c-9.33301 0 -15.833 -1.5 -19.5 -4.5s-5.5 -9.83301 -5.5 -20.5v-89c0 -297.333 9.33301 -506.333 28 -627
c0 -26.667 -2.33301 -50.334 -7 -71.001s-10.334 -36.334 -17.001 -47.001s-13.834 -19.5 -21.501 -26.5s-13.667 -11.333 -18 -13s-7.5 -2.5 -9.5 -2.5c-15.333 0 -23 21.333 -23 64c0 38.667 1.16699 153.5 3.5 344.5s3.5 312.5 3.5 364.5v59v9
c0 27.333 -2.83301 44.166 -8.5 50.499s-22.167 9.5 -49.5 9.5h-1359c-96.667 0 -166.667 11.333 -210 34s-65 67 -65 133v21c0 22.667 1.66699 48 5 76c2 15.333 6.83301 26.5 14.5 33.5s15.667 7.83301 24 2.5s14.833 -16 19.5 -32c6 -19.333 11.667 -31 17 -35
s18.333 -6 39 -6h13h1542c51.333 0 86.333 -7.33301 105 -22s30.334 -36.334 35.001 -65.001c7.33301 -48.667 11 -80.667 11 -96zM232.001 573.004v-422c0 -24 -0.333008 -42 -1 -54s-4.5 -24.167 -11.5 -36.5s-12.667 -20.833 -17 -25.5l-33.5 -35
c-9.33301 -9.33301 -17.333 -14 -24 -14c-2.66699 0 -4 1.66699 -4 5c0 0.666992 1.83301 10 5.5 28s5.5 36.333 5.5 55v465c0 18 0.166992 30.5 0.5 37.5s0.333008 14.167 0 21.5s0.5 12.833 2.5 16.5s3.16699 6.5 3.5 8.5s2.83301 5.66699 7.5 11s8 9.33301 10 12
c18 24 32 36 42 36c6.66699 0 10.667 -7.5 12 -22.5s2 -43.833 2 -86.5z" />
    <glyph glyph-name="kaf.wide" unicode="&#xfb24;" horiz-adv-x="2160" 
d="M1998 133l-24.998 -40.0029c-34 -40 -62 -65.5 -84 -76.5s-58.667 -16.5 -110 -16.5h-1647c-28 0 -47 1 -57 3s-15 7.33301 -15 16c0 2.66699 1 6.33398 3 11.001s4.16699 9.33398 6.5 14.001s6.16602 11.5 11.499 20.5l14 24.5l25 47c24.667 42.667 43.5 68 56.5 76
s42.167 12 87.5 12c2.66699 0 6.83398 0.166992 12.501 0.5s10.167 0.5 13.5 0.5h1617c38.667 0 61.834 4.33301 69.501 13s11.5 33 11.5 73v346c0 24 -1.83301 47.667 -5.5 71s-10.834 49.333 -21.501 78s-28 51.834 -52 69.501s-53.333 26.5 -88 26.5h-1417
c-46 0 -84.5 2.16699 -115.5 6.5s-59.333 12.333 -85 24s-44.667 28.667 -57 51s-18.5 50.5 -18.5 84.5v21c0 28.667 1.33301 54 4 76c2 15.333 6.83301 26.5 14.5 33.5s15.667 7.83301 24 2.5s14.833 -16 19.5 -32c6.66699 -21.333 13.167 -34 19.5 -38
s23.166 -6 50.499 -6h1527c78.667 0 142.834 -23.667 192.501 -71s74.5 -98 74.5 -152v-608c0 -7.33301 -0.333008 -14.666 -1 -21.999s-1.33398 -14 -2 -20c-0.666992 -6 -2 -12.333 -4 -19l-5 -16.5c-1.33301 -4.33301 -3.5 -9.83301 -6.5 -16.5
s-5.16699 -11.334 -6.5 -14.001s-4 -7.5 -8 -14.5s-6.33301 -11.333 -7 -13s-3.33398 -6.16699 -8.00098 -13.5s-7.33398 -11.333 -8.00098 -12z" />
    <glyph glyph-name="lamed.wide" unicode="&#xfb25;" horiz-adv-x="1703" 
d="M78 1414c0 18 5.33301 33.3311 16 45.998s22.5 22 35.5 28s24.833 14.333 35.5 25s16 23.334 16 38.001c0 11.333 -3.5 20.833 -10.5 28.5s-14.833 13.667 -23.5 18s-16.5 12.166 -23.5 23.499s-10.5 26 -10.5 44c0 21.333 9 43.5 27 66.5s31.667 34.5 41 34.5
c6.66699 0 11.334 -2.5 14.001 -7.5s5 -12.167 7 -21.5s4 -16 6 -20c5.33301 -10.667 13.666 -23.334 24.999 -38.001s20 -28.167 26 -40.5s9 -26.5 9 -42.5c0 -18.667 -6.33301 -36.334 -19 -53.001s-26.5 -30.167 -41.5 -40.5s-28.833 -23.166 -41.5 -38.499
s-19 -31.666 -19 -48.999v-130c0 -42.667 7.5 -80.167 22.5 -112.5s35.167 -48.5 60.5 -48.5h1142c36 0 65.333 -3.16699 88 -9.5s40.667 -17.666 54 -33.999s23 -32.666 29 -48.999s12.333 -40.166 19 -71.499l66 -453c0 -4 1.16699 -16.833 3.5 -38.5
s3.5 -34.167 3.5 -37.5c0 -26.667 -32 -59.334 -96 -98.001l-436 -197c-6 -2.66699 -14.833 -6 -26.5 -10s-19.5 -7.5 -23.5 -10.5s-6 -7.83301 -6 -14.5c0 -8 -5.5 -17.333 -16.5 -28s-24.333 -21.667 -40 -33l-27.5 -20l-107 -81c-4.66699 -3.33301 -10 -1.83301 -16 4.5
s-9 13.166 -9 20.499c0 36 5.16699 75.833 15.5 119.5s28.166 70.834 53.499 81.501l614 258c18.667 8 28 21.667 28 41c0 11.333 -3.33301 30 -10 56l-51 214l-12 39.5c-2.66699 9 -8.16699 23 -16.5 42s-16.5 33.667 -24.5 44s-18.667 20 -32 29
s-27.666 13.5 -42.999 13.5h-1124c-38 0 -72.667 13.667 -104 41s-47 68 -47 122v349z" />
    <glyph glyph-name="finalmem.wide" unicode="&#xfb26;" horiz-adv-x="2076" 
d="M423 901l-107 -0.000976562c-16 0 -33.667 -39.167 -53 -117.5s-29 -155.166 -29 -230.499v-261c0 -3.33301 0.5 -7.5 1.5 -12.5s1.5 -8.5 1.5 -10.5c0 -18.667 2.83301 -30.167 8.5 -34.5s19.5 -6.5 41.5 -6.5h22h1522c16.667 0 27.5 2 32.5 6s7.5 14 7.5 30v469
c0 46 -12.5 85.5 -37.5 118.5s-66.833 49.5 -125.5 49.5h-1285zM134 164.999l-0.000976562 391.999c0 54 11.833 115.167 35.5 183.5s53.5 121.833 89.5 160.5c-74 17.333 -111 73 -111 167v22c0 28.667 1.33301 54 4 76c2 15.333 6.83301 26.5 14.5 33.5
s15.834 7.83301 24.501 2.5s15.334 -16 20.001 -32c6.66699 -21.333 13.167 -34.166 19.5 -38.499s22.833 -6.5 49.5 -6.5h1395c79.333 0 145.666 -24 198.999 -72s80 -98.667 80 -152v-736v-70.5c0 -14.333 -1.83301 -29.333 -5.5 -45s-7 -25.5 -10 -29.5
s-10.5 -8.33301 -22.5 -13s-23 -7 -33 -7h-52h-1563c-64 0 -104.667 4.33301 -122 13s-26 34.334 -26 77.001c0 6 2.33301 17.167 7 33.5s7 30.166 7 41.499z" />
    <glyph glyph-name="resh.wide" unicode="&#xfb27;" horiz-adv-x="2015" 
d="M1897 19c-11.333 -22 -21.334 -36.002 -30.001 -42.002s-15.5 -4 -20.5 6s-7.5 26.333 -7.5 49c0 36.667 -1.16699 90.834 -3.5 162.501s-3.5 125.5 -3.5 161.5v301c0 25.333 -1.83301 49.833 -5.5 73.5s-10.834 49.5 -21.501 77.5s-28 50.5 -52 67.5
s-53.333 25.5 -88 25.5h-1301c-106.667 0 -179.5 10.833 -218.5 32.5s-58.5 66.5 -58.5 134.5v22c0 22.667 1.66699 48 5 76c2 15.333 6.83301 26.5 14.5 33.5s15.667 7.83301 24 2.5s14.833 -16 19.5 -32c6.66699 -21.333 13 -34 19 -38s22.667 -6 50 -6h1394
c36.667 0 68.5 -3.16699 95.5 -9.5s53.333 -19.166 79 -38.499s46.334 -45.5 62.001 -78.5s28.334 -77.5 38.001 -133.5s14.5 -123 14.5 -201v-574c0 -4.66699 0.166992 -11 0.5 -19s0.5 -14 0.5 -18c0 -11.333 -2 -23 -6 -35z" />
    <glyph glyph-name="tav.wide" unicode="&#xfb28;" horiz-adv-x="1997" 
d="M322 244c0 7.33301 -5.33496 23.3311 -16.002 47.998l-35.5 80.5c-13 29 -24.833 66.5 -35.5 112.5s-16 91.667 -16 137c0 38.667 4.5 85.5 13.5 140.5s20.833 101.167 35.5 138.5h-7c-88 0 -132 29.333 -132 88v101c0 28.667 1.33301 54 4 76
c2 15.333 6.83301 26.5 14.5 33.5s15.667 7.83301 24 2.5s14.833 -16 19.5 -32c6.66699 -21.333 13 -34 19 -38s22.667 -6 50 -6h1335c36.667 0 68.5 -3.16699 95.5 -9.5s53.333 -19.166 79 -38.499s46.334 -45.5 62.001 -78.5s28.334 -77.5 38.001 -133.5
s14.5 -123 14.5 -201v-574c0 -4.66699 0.166992 -11 0.5 -19s0.5 -14 0.5 -18c0 -11.333 -2 -23 -6 -35c-11.333 -22 -21.333 -36 -30 -42s-15.5 -4 -20.5 6s-7.5 26.333 -7.5 49c0 36.667 -1.16699 90.834 -3.5 162.501s-3.5 125.5 -3.5 161.5v301
c0 25.333 -1.83301 49.833 -5.5 73.5s-10.834 49.5 -21.501 77.5s-28 50.5 -52 67.5s-53.333 25.5 -88 25.5h-1221h-96c-16.667 -24.667 -29.5 -61 -38.5 -109s-13.5 -87.667 -13.5 -119c0 -44 6.5 -87 19.5 -129s28.833 -78.167 47.5 -108.5s37.334 -58.333 56.001 -84
s34.5 -49.167 47.5 -70.5s19.5 -39 19.5 -53c0 -5.33301 -0.833008 -11.5 -2.5 -18.5s-4.16699 -15.833 -7.5 -26.5s-6 -20.667 -8 -30l-17 -70c-4 -16 -9 -29.5 -15 -40.5s-12.167 -19.333 -18.5 -25s-15.833 -9.83398 -28.5 -12.501s-23.5 -4.16699 -32.5 -4.5
s-23.167 -0.5 -42.5 -0.5h-164c-24 0 -40.333 2.5 -49 7.5s-13 13.167 -13 24.5c0 4.66699 4 25.334 12 62.001c14.667 63.333 27.167 101.5 37.5 114.5s36.5 19.5 78.5 19.5h43c54 0 81 5.33301 81 16z" />
    <glyph glyph-name="hebrewplussign" unicode="&#xfb29;" horiz-adv-x="670" 
d="M324 612l-0.000976562 207c8.66699 2.66699 21 4 37 4c10 0 21 -0.666992 33 -2v-209h200c9.33301 0 15 -1.5 17 -4.5s3 -10.5 3 -22.5v-71c0 -6.66699 -1.5 -11.667 -4.5 -15s-6 -5.16602 -9 -5.49902s-7.5 -0.5 -13.5 -0.5h-470c-10 0 -15.5 1 -16.5 3
s-1.5 9.66699 -1.5 23v70c0 5.33301 0.166992 9.16602 0.5 11.499s1 4.5 2 6.5s2.83301 3.33301 5.5 4s6.33398 1 11.001 1h206z" />
    <glyph glyph-name="shinshindot" unicode="&#xfb2a;" horiz-adv-x="1340" 
d="M486 228l359.998 -0.00292969c12 0 26.5 12 43.5 36s31.5 49.333 43.5 76l187 329c12 20.667 18 38.667 18 54c0 14.667 -5.66699 27.334 -17 38.001l-126 144c-10.667 11.333 -16 29 -16 53c0 27.333 11 64 33 110l49 102c10 14.667 20.333 22 31 22
c12.667 0 19 -9 19 -27c0 -4.66699 -0.833008 -13 -2.5 -25s-2.5 -20.667 -2.5 -26c0 -12 3 -20 9 -24l113 -94c39.333 -36.667 59 -72.334 59 -107.001c0 -4.66699 -0.666992 -9.83398 -2 -15.501l-3.5 -14.5c-1 -4 -3.33301 -9.66699 -7 -17l-8 -16
c-1.66699 -3.33301 -5 -9.66602 -10 -18.999s-8.5 -15.666 -10.5 -18.999l-393 -735c-20.667 -26.667 -34.334 -42.167 -41.001 -46.5s-20.667 -6.5 -42 -6.5h-591c0 10 3.66699 25.167 11 45.5s11 35.833 11 46.5c0 58 -3.16699 108.667 -9.5 152s-13.5 75.5 -21.5 96.5
s-15.167 47.167 -21.5 78.5s-9.5 65.333 -9.5 102c0 24.667 2 48.167 6 70.5s10.833 45.333 20.5 69s17.834 42.167 24.501 55.5s18 33.833 34 61.5s26.667 46.5 32 56.5l-84 48c-32 20.667 -48 45.667 -48 75c0 7.33301 1.66699 16 5 26l46 189c7.33301 20 17.333 30 30 30
c6.66699 0 12.334 -3.16699 17.001 -9.5s7 -15.166 7 -26.499c0 -32 6.66699 -51 20 -57l117 -51c62.667 -34.667 94 -71.334 94 -110.001c0 -18.667 -6 -45.667 -18 -81s-27 -70 -45 -104c-38.667 27.333 -74 46.333 -106 57c-2 -4.66699 -8 -17.167 -18 -37.5l-23 -48
c-5.33301 -11.667 -11.666 -26.5 -18.999 -44.5s-12.833 -34.167 -16.5 -48.5s-5.5 -27.166 -5.5 -38.499c0 -27.333 7 -56 21 -86l130 -284c1.33301 -3.33301 4.33301 -5 9 -5c14 0 27.333 12 40 36l283 548l-100 83c-23.333 23.333 -35 46.333 -35 69
c0 13.333 3 25.666 9 36.999l62 176c10 17.333 21.333 25.333 34 24c12 -2 18 -12 18 -30l10 -70l113 -76c50 -40 75 -77 75 -111c0 -3.33301 -0.666992 -7.66602 -2 -12.999c-17.333 -69.333 -43 -125.666 -77 -168.999c-28 28 -53.333 48.333 -76 61l-262 -526
c-13.333 -26 -5 -39 25 -39zM1167 1266c0 20.667 7.16699 38.334 21.5 53.001s32.166 22 53.499 22s39.166 -7.33301 53.499 -22s21.5 -32.334 21.5 -53.001c0 -21.333 -7.16699 -39.166 -21.5 -53.499s-32.166 -21.5 -53.499 -21.5s-39.166 7.16699 -53.499 21.5
s-21.5 32.166 -21.5 53.499z" />
    <glyph glyph-name="shinsindot" unicode="&#xfb2b;" horiz-adv-x="1340" 
d="M486 228l359.998 -0.00292969c12 0 26.5 12 43.5 36s31.5 49.333 43.5 76l187 329c12 20.667 18 38.667 18 54c0 14.667 -5.66699 27.334 -17 38.001l-126 144c-10.667 11.333 -16 29 -16 53c0 27.333 11 64 33 110l49 102c10 14.667 20.333 22 31 22
c12.667 0 19 -9 19 -27c0 -4.66699 -0.833008 -13 -2.5 -25s-2.5 -20.667 -2.5 -26c0 -12 3 -20 9 -24l113 -94c39.333 -36.667 59 -72.334 59 -107.001c0 -4.66699 -0.666992 -9.83398 -2 -15.501l-3.5 -14.5c-1 -4 -3.33301 -9.66699 -7 -17l-8 -16
c-1.66699 -3.33301 -5 -9.66602 -10 -18.999s-8.5 -15.666 -10.5 -18.999l-393 -735c-20.667 -26.667 -34.334 -42.167 -41.001 -46.5s-20.667 -6.5 -42 -6.5h-591c0 10 3.66699 25.167 11 45.5s11 35.833 11 46.5c0 58 -3.16699 108.667 -9.5 152s-13.5 75.5 -21.5 96.5
s-15.167 47.167 -21.5 78.5s-9.5 65.333 -9.5 102c0 24.667 2 48.167 6 70.5s10.833 45.333 20.5 69s17.834 42.167 24.501 55.5s18 33.833 34 61.5s26.667 46.5 32 56.5l-84 48c-32 20.667 -48 45.667 -48 75c0 7.33301 1.66699 16 5 26l46 189c7.33301 20 17.333 30 30 30
c6.66699 0 12.334 -3.16699 17.001 -9.5s7 -15.166 7 -26.499c0 -32 6.66699 -51 20 -57l117 -51c62.667 -34.667 94 -71.334 94 -110.001c0 -18.667 -6 -45.667 -18 -81s-27 -70 -45 -104c-38.667 27.333 -74 46.333 -106 57c-2 -4.66699 -8 -17.167 -18 -37.5l-23 -48
c-5.33301 -11.667 -11.666 -26.5 -18.999 -44.5s-12.833 -34.167 -16.5 -48.5s-5.5 -27.166 -5.5 -38.499c0 -27.333 7 -56 21 -86l130 -284c1.33301 -3.33301 4.33301 -5 9 -5c14 0 27.333 12 40 36l283 548l-100 83c-23.333 23.333 -35 46.333 -35 69
c0 13.333 3 25.666 9 36.999l62 176c10 17.333 21.333 25.333 34 24c12 -2 18 -12 18 -30l10 -70l113 -76c50 -40 75 -77 75 -111c0 -3.33301 -0.666992 -7.66602 -2 -12.999c-17.333 -69.333 -43 -125.666 -77 -168.999c-28 28 -53.333 48.333 -76 61l-262 -526
c-13.333 -26 -5 -39 25 -39zM275.998 1257c0 20.667 7.16699 38.334 21.5 53.001s32.166 22 53.499 22s39.166 -7.33301 53.499 -22s21.5 -32.334 21.5 -53.001c0 -21.333 -7.16699 -39.166 -21.5 -53.499s-32.166 -21.5 -53.499 -21.5s-39.166 7.16699 -53.499 21.5
s-21.5 32.166 -21.5 53.499z" />
    <glyph glyph-name="shindageshshindot" unicode="&#xfb2c;" horiz-adv-x="1340" 
d="M486 228l359.998 -0.00292969c12 0 26.5 12 43.5 36s31.5 49.333 43.5 76l187 329c12 20.667 18 38.667 18 54c0 14.667 -5.66699 27.334 -17 38.001l-126 144c-10.667 11.333 -16 29 -16 53c0 27.333 11 64 33 110l49 102c10 14.667 20.333 22 31 22
c12.667 0 19 -9 19 -27c0 -4.66699 -0.833008 -13 -2.5 -25s-2.5 -20.667 -2.5 -26c0 -12 3 -20 9 -24l113 -94c39.333 -36.667 59 -72.334 59 -107.001c0 -4.66699 -0.666992 -9.83398 -2 -15.501l-3.5 -14.5c-1 -4 -3.33301 -9.66699 -7 -17l-8 -16
c-1.66699 -3.33301 -5 -9.66602 -10 -18.999s-8.5 -15.666 -10.5 -18.999l-393 -735c-20.667 -26.667 -34.334 -42.167 -41.001 -46.5s-20.667 -6.5 -42 -6.5h-591c0 10 3.66699 25.167 11 45.5s11 35.833 11 46.5c0 58 -3.16699 108.667 -9.5 152s-13.5 75.5 -21.5 96.5
s-15.167 47.167 -21.5 78.5s-9.5 65.333 -9.5 102c0 24.667 2 48.167 6 70.5s10.833 45.333 20.5 69s17.834 42.167 24.501 55.5s18 33.833 34 61.5s26.667 46.5 32 56.5l-84 48c-32 20.667 -48 45.667 -48 75c0 7.33301 1.66699 16 5 26l46 189c7.33301 20 17.333 30 30 30
c6.66699 0 12.334 -3.16699 17.001 -9.5s7 -15.166 7 -26.499c0 -32 6.66699 -51 20 -57l117 -51c62.667 -34.667 94 -71.334 94 -110.001c0 -18.667 -6 -45.667 -18 -81s-27 -70 -45 -104c-38.667 27.333 -74 46.333 -106 57c-2 -4.66699 -8 -17.167 -18 -37.5l-23 -48
c-5.33301 -11.667 -11.666 -26.5 -18.999 -44.5s-12.833 -34.167 -16.5 -48.5s-5.5 -27.166 -5.5 -38.499c0 -27.333 7 -56 21 -86l130 -284c1.33301 -3.33301 4.33301 -5 9 -5c14 0 27.333 12 40 36l283 548l-100 83c-23.333 23.333 -35 46.333 -35 69
c0 13.333 3 25.666 9 36.999l62 176c10 17.333 21.333 25.333 34 24c12 -2 18 -12 18 -30l10 -70l113 -76c50 -40 75 -77 75 -111c0 -3.33301 -0.666992 -7.66602 -2 -12.999c-17.333 -69.333 -43 -125.666 -77 -168.999c-28 28 -53.333 48.333 -76 61l-262 -526
c-13.333 -26 -5 -39 25 -39zM1167 1266c0 20.667 7.16699 38.334 21.5 53.001s32.166 22 53.499 22s39.166 -7.33301 53.499 -22s21.5 -32.334 21.5 -53.001c0 -21.333 -7.16699 -39.166 -21.5 -53.499s-32.166 -21.5 -53.499 -21.5s-39.166 7.16699 -53.499 21.5
s-21.5 32.166 -21.5 53.499zM740.998 541.997c0 20.667 7.16699 38.5 21.5 53.5s32.166 22.5 53.499 22.5s39.166 -7.5 53.499 -22.5s21.5 -32.833 21.5 -53.5s-7.16699 -38.667 -21.5 -54s-32.166 -23 -53.499 -23s-39.166 7.66699 -53.499 23s-21.5 33.333 -21.5 54z" />
    <glyph glyph-name="shindageshsindot" unicode="&#xfb2d;" horiz-adv-x="1340" 
d="M486 228l359.998 -0.00292969c12 0 26.5 12 43.5 36s31.5 49.333 43.5 76l187 329c12 20.667 18 38.667 18 54c0 14.667 -5.66699 27.334 -17 38.001l-126 144c-10.667 11.333 -16 29 -16 53c0 27.333 11 64 33 110l49 102c10 14.667 20.333 22 31 22
c12.667 0 19 -9 19 -27c0 -4.66699 -0.833008 -13 -2.5 -25s-2.5 -20.667 -2.5 -26c0 -12 3 -20 9 -24l113 -94c39.333 -36.667 59 -72.334 59 -107.001c0 -4.66699 -0.666992 -9.83398 -2 -15.501l-3.5 -14.5c-1 -4 -3.33301 -9.66699 -7 -17l-8 -16
c-1.66699 -3.33301 -5 -9.66602 -10 -18.999s-8.5 -15.666 -10.5 -18.999l-393 -735c-20.667 -26.667 -34.334 -42.167 -41.001 -46.5s-20.667 -6.5 -42 -6.5h-591c0 10 3.66699 25.167 11 45.5s11 35.833 11 46.5c0 58 -3.16699 108.667 -9.5 152s-13.5 75.5 -21.5 96.5
s-15.167 47.167 -21.5 78.5s-9.5 65.333 -9.5 102c0 24.667 2 48.167 6 70.5s10.833 45.333 20.5 69s17.834 42.167 24.501 55.5s18 33.833 34 61.5s26.667 46.5 32 56.5l-84 48c-32 20.667 -48 45.667 -48 75c0 7.33301 1.66699 16 5 26l46 189c7.33301 20 17.333 30 30 30
c6.66699 0 12.334 -3.16699 17.001 -9.5s7 -15.166 7 -26.499c0 -32 6.66699 -51 20 -57l117 -51c62.667 -34.667 94 -71.334 94 -110.001c0 -18.667 -6 -45.667 -18 -81s-27 -70 -45 -104c-38.667 27.333 -74 46.333 -106 57c-2 -4.66699 -8 -17.167 -18 -37.5l-23 -48
c-5.33301 -11.667 -11.666 -26.5 -18.999 -44.5s-12.833 -34.167 -16.5 -48.5s-5.5 -27.166 -5.5 -38.499c0 -27.333 7 -56 21 -86l130 -284c1.33301 -3.33301 4.33301 -5 9 -5c14 0 27.333 12 40 36l283 548l-100 83c-23.333 23.333 -35 46.333 -35 69
c0 13.333 3 25.666 9 36.999l62 176c10 17.333 21.333 25.333 34 24c12 -2 18 -12 18 -30l10 -70l113 -76c50 -40 75 -77 75 -111c0 -3.33301 -0.666992 -7.66602 -2 -12.999c-17.333 -69.333 -43 -125.666 -77 -168.999c-28 28 -53.333 48.333 -76 61l-262 -526
c-13.333 -26 -5 -39 25 -39zM275.998 1257c0 20.667 7.16699 38.334 21.5 53.001s32.166 22 53.499 22s39.166 -7.33301 53.499 -22s21.5 -32.334 21.5 -53.001c0 -21.333 -7.16699 -39.166 -21.5 -53.499s-32.166 -21.5 -53.499 -21.5s-39.166 7.16699 -53.499 21.5
s-21.5 32.166 -21.5 53.499zM740.998 541.997c0 20.667 7.16699 38.5 21.5 53.5s32.166 22.5 53.499 22.5s39.166 -7.5 53.499 -22.5s21.5 -32.833 21.5 -53.5s-7.16699 -38.667 -21.5 -54s-32.166 -23 -53.499 -23s-39.166 7.66699 -53.499 23s-21.5 33.333 -21.5 54z" />
    <glyph glyph-name="alefpatah" unicode="&#xfb2e;" horiz-adv-x="1057" 
d="M157 953c0 46 9.49805 94.6641 28.498 145.997s36.5 77 52.5 77c14 0 23.333 -21 28 -63c2.66699 -23.333 8.83398 -47.166 18.501 -71.499s19.834 -46.333 30.501 -66s26.834 -42.667 48.501 -69s39.834 -47.666 54.501 -63.999s37.167 -38.833 67.5 -67.5l67.5 -62.5
l75 -65.5l71 -62l133 181l-123 124c-23.333 29.333 -35 61.333 -35 96c0 40.667 14.333 82.667 43 126c4 6 9.33301 14.5 16 25.5l16.5 27.5c4.33301 7.33301 9.33301 14.666 15 21.999s10.834 13 15.501 17s9.33398 6 14.001 6c11.333 0 17 -6.66699 17 -20
c0 -4.66699 -1.33301 -14.167 -4 -28.5s-4 -25.5 -4 -33.5c0 -18.667 10.667 -39.667 32 -63s44.666 -44.666 69.999 -63.999s48.666 -41.666 69.999 -66.999s32 -48.666 32 -69.999c0 -18 -5 -36.333 -15 -55s-24 -40.334 -42 -65.001s-31.333 -45.334 -40 -62.001l-53 60
l-131 -180l141 -139c56 -56.667 84 -127.667 84 -213c0 -66 -5.5 -116 -16.5 -150s-25.833 -51 -44.5 -51c-14.667 0 -28.334 19.667 -41.001 59c-16.667 48 -38.667 92.5 -66 133.5s-57.666 77.5 -90.999 109.5s-66.333 61.167 -99 87.5l-105.5 87.5
c-37.667 32 -68.834 62 -93.501 90c-4.66699 3.33301 -10 8.66602 -16 15.999s-11.667 13 -17 17s-12 6 -20 6c-34.667 0 -62.834 -15.667 -84.501 -47s-32.5 -65.666 -32.5 -102.999c0 -20 6.66699 -37.333 20 -52s29.5 -27.667 48.5 -39s38 -24.166 57 -38.499
s35.167 -35.166 48.5 -62.499s20 -60.333 20 -99s-20.333 -76.834 -61 -114.501s-71.667 -56.5 -93 -56.5h-107c-31.333 0 -47 9.33301 -47 28c0 12.667 5.33301 22.834 16 30.501s22.5 13.167 35.5 16.5s24.833 10.166 35.5 20.499s16 24.166 16 41.499
c0 11.333 -8.5 28.5 -25.5 51.5s-34.167 49.5 -51.5 79.5s-26 59.667 -26 89c0 56.667 18.667 110.834 56 162.501s83 95.167 137 130.5c-51.333 57.333 -88.5 106.833 -111.5 148.5s-34.5 92.167 -34.5 151.5zM457.998 -239.003c-16 0 -25.335 3 -28.002 9s-4 20.333 -4 43
c0 20.667 1.33301 32.834 4 36.501s12.334 5.5 29.001 5.5h254c16.667 0 26.334 -1.83301 29.001 -5.5s4 -15.834 4 -36.501c0 -21.333 -2 -35.333 -6 -42s-14 -10 -30 -10h-252z" />
    <glyph glyph-name="alefkamats" unicode="&#xfb2f;" horiz-adv-x="1057" 
d="M157 953c0 46 9.49805 94.6641 28.498 145.997s36.5 77 52.5 77c14 0 23.333 -21 28 -63c2.66699 -23.333 8.83398 -47.166 18.501 -71.499s19.834 -46.333 30.501 -66s26.834 -42.667 48.501 -69s39.834 -47.666 54.501 -63.999s37.167 -38.833 67.5 -67.5l67.5 -62.5
l75 -65.5l71 -62l133 181l-123 124c-23.333 29.333 -35 61.333 -35 96c0 40.667 14.333 82.667 43 126c4 6 9.33301 14.5 16 25.5l16.5 27.5c4.33301 7.33301 9.33301 14.666 15 21.999s10.834 13 15.501 17s9.33398 6 14.001 6c11.333 0 17 -6.66699 17 -20
c0 -4.66699 -1.33301 -14.167 -4 -28.5s-4 -25.5 -4 -33.5c0 -18.667 10.667 -39.667 32 -63s44.666 -44.666 69.999 -63.999s48.666 -41.666 69.999 -66.999s32 -48.666 32 -69.999c0 -18 -5 -36.333 -15 -55s-24 -40.334 -42 -65.001s-31.333 -45.334 -40 -62.001l-53 60
l-131 -180l141 -139c56 -56.667 84 -127.667 84 -213c0 -66 -5.5 -116 -16.5 -150s-25.833 -51 -44.5 -51c-14.667 0 -28.334 19.667 -41.001 59c-16.667 48 -38.667 92.5 -66 133.5s-57.666 77.5 -90.999 109.5s-66.333 61.167 -99 87.5l-105.5 87.5
c-37.667 32 -68.834 62 -93.501 90c-4.66699 3.33301 -10 8.66602 -16 15.999s-11.667 13 -17 17s-12 6 -20 6c-34.667 0 -62.834 -15.667 -84.501 -47s-32.5 -65.666 -32.5 -102.999c0 -20 6.66699 -37.333 20 -52s29.5 -27.667 48.5 -39s38 -24.166 57 -38.499
s35.167 -35.166 48.5 -62.499s20 -60.333 20 -99s-20.333 -76.834 -61 -114.501s-71.667 -56.5 -93 -56.5h-107c-31.333 0 -47 9.33301 -47 28c0 12.667 5.33301 22.834 16 30.501s22.5 13.167 35.5 16.5s24.833 10.166 35.5 20.499s16 24.166 16 41.499
c0 11.333 -8.5 28.5 -25.5 51.5s-34.167 49.5 -51.5 79.5s-26 59.667 -26 89c0 56.667 18.667 110.834 56 162.501s83 95.167 137 130.5c-51.333 57.333 -88.5 106.833 -111.5 148.5s-34.5 92.167 -34.5 151.5zM721.998 -146.003c16.667 0 26.334 -1.66699 29.001 -5
s4 -15.333 4 -36c0 -22 -2 -36.167 -6 -42.5s-14 -9.5 -30 -9.5h-93c-2.66699 -8 -4 -16 -4 -24c0 -15.333 7 -37 21 -65s21 -49 21 -63c0 -20.667 -6.83301 -38.834 -20.5 -54.501s-29.834 -23.5 -48.501 -23.5s-34.834 7.83301 -48.501 23.5s-20.5 33.834 -20.5 54.501
c0 14 7 35 21 63s21 49.667 21 65c0 8 -1.33301 16 -4 24h-93c-16 0 -26 3.16699 -30 9.5s-6 20.5 -6 42.5c0 20.667 1.33301 32.667 4 36s12.334 5 29.001 5h254z" />
    <glyph glyph-name="alefmapiq" unicode="&#xfb30;" horiz-adv-x="1057" 
d="M516 122c0 20.667 7.16699 38.5 21.5 53.5s32.166 22.5 53.499 22.5s39.166 -7.5 53.499 -22.5s21.5 -32.833 21.5 -53.5s-7.16699 -38.667 -21.5 -54s-32.166 -23 -53.499 -23s-39.166 7.66699 -53.499 23s-21.5 33.333 -21.5 54zM157 953
c0 46 9.49805 94.6641 28.498 145.997s36.5 77 52.5 77c14 0 23.333 -21 28 -63c2.66699 -23.333 8.83398 -47.166 18.501 -71.499s19.834 -46.333 30.501 -66s26.834 -42.667 48.501 -69s39.834 -47.666 54.501 -63.999s37.167 -38.833 67.5 -67.5l67.5 -62.5l75 -65.5
l71 -62l133 181l-123 124c-23.333 29.333 -35 61.333 -35 96c0 40.667 14.333 82.667 43 126c4 6 9.33301 14.5 16 25.5l16.5 27.5c4.33301 7.33301 9.33301 14.666 15 21.999s10.834 13 15.501 17s9.33398 6 14.001 6c11.333 0 17 -6.66699 17 -20
c0 -4.66699 -1.33301 -14.167 -4 -28.5s-4 -25.5 -4 -33.5c0 -18.667 10.667 -39.667 32 -63s44.666 -44.666 69.999 -63.999s48.666 -41.666 69.999 -66.999s32 -48.666 32 -69.999c0 -18 -5 -36.333 -15 -55s-24 -40.334 -42 -65.001s-31.333 -45.334 -40 -62.001l-53 60
l-131 -180l141 -139c56 -56.667 84 -127.667 84 -213c0 -66 -5.5 -116 -16.5 -150s-25.833 -51 -44.5 -51c-14.667 0 -28.334 19.667 -41.001 59c-16.667 48 -38.667 92.5 -66 133.5s-57.666 77.5 -90.999 109.5s-66.333 61.167 -99 87.5l-105.5 87.5
c-37.667 32 -68.834 62 -93.501 90c-4.66699 3.33301 -10 8.66602 -16 15.999s-11.667 13 -17 17s-12 6 -20 6c-34.667 0 -62.834 -15.667 -84.501 -47s-32.5 -65.666 -32.5 -102.999c0 -20 6.66699 -37.333 20 -52s29.5 -27.667 48.5 -39s38 -24.166 57 -38.499
s35.167 -35.166 48.5 -62.499s20 -60.333 20 -99s-20.333 -76.834 -61 -114.501s-71.667 -56.5 -93 -56.5h-107c-31.333 0 -47 9.33301 -47 28c0 12.667 5.33301 22.834 16 30.501s22.5 13.167 35.5 16.5s24.833 10.166 35.5 20.499s16 24.166 16 41.499
c0 11.333 -8.5 28.5 -25.5 51.5s-34.167 49.5 -51.5 79.5s-26 59.667 -26 89c0 56.667 18.667 110.834 56 162.501s83 95.167 137 130.5c-51.333 57.333 -88.5 106.833 -111.5 148.5s-34.5 92.167 -34.5 151.5z" />
    <glyph glyph-name="betdagesh" unicode="&#xfb31;" horiz-adv-x="961" 
d="M409 545c0 20.667 7.16699 38.5 21.5 53.5s32.166 22.5 53.499 22.5s39.166 -7.5 53.499 -22.5s21.5 -32.833 21.5 -53.5s-7.16699 -38.667 -21.5 -54s-32.166 -23 -53.499 -23s-39.166 7.66699 -53.499 23s-21.5 33.333 -21.5 54zM443 900l-8.99609 0.000976562
c-90 0 -157 11.5 -201 34.5s-66 66.833 -66 131.5v23c0 28.667 1.33301 54 4 76c2 15.333 6.83301 26.5 14.5 33.5s15.667 7.83301 24 2.5s14.833 -16 19.5 -32c6.66699 -21.333 13 -34 19 -38s22.667 -6 50 -6h270c79.333 0 143.833 -23.5 193.5 -70.5
s74.5 -97.5 74.5 -151.5v-640v-13c0 -4.66699 -0.166992 -7.83398 -0.5 -9.50098s-0.333008 -3.66699 0 -6s0.666016 -3.66602 0.999023 -3.99902s1.5 -0.833008 3.5 -1.5s3.83301 -1 5.5 -1h8.5h17c25.333 0 39.5 -0.5 42.5 -1.5s4.5 -5.83301 4.5 -14.5
c0 -10 -11.667 -34.667 -35 -74l-35 -56c-24.667 -40 -41.334 -63.667 -50.001 -71s-26.667 -11 -54 -11h-47h-586c-28 0 -47.167 1 -57.5 3s-15.5 7.33301 -15.5 16s11.667 32 35 70l28 47l22.5 39.5c4.33301 7.66699 10.833 16 19.5 25s15 14.5 19 16.5
s12.667 4.33301 26 7s24.666 4 33.999 4h50l463 1c27.333 0 44.333 1.66699 51 5s10 13.666 10 30.999v25l-22 445c0 22 -2 41.5 -6 58.5s-11.333 34.167 -22 51.5s-27.834 30.833 -51.501 40.5s-53.167 14.5 -88.5 14.5h-163z" />
    <glyph glyph-name="gimeldagesh" unicode="&#xfb32;" horiz-adv-x="665" 
d="M237 543c0 20.667 7.16699 38.5 21.5 53.5s32.166 22.5 53.499 22.5s39.166 -7.5 53.499 -22.5s21.5 -32.833 21.5 -53.5s-7.16699 -38.667 -21.5 -54s-32.166 -23 -53.499 -23s-39.166 7.66699 -53.499 23s-21.5 33.333 -21.5 54zM539 544
c0 -72 2.5 -139.501 7.5 -202.501s10.167 -112 15.5 -147s8 -54.167 8 -57.5c0 -6 -0.833008 -12.333 -2.5 -19s-3 -11.667 -4 -15s-3.83301 -10.5 -8.5 -21.5l-10 -23.5l-19 -33c-17.333 -19.333 -31 -29 -41 -29c-11.333 0 -17 12.667 -17 38v30c0 11.333 1 37 3 77
s3 65.333 3 76c0 20 -0.666992 32.833 -2 38.5s-4 6.5 -8 2.5s-10.333 -14 -19 -30l-65 -170c-15.333 -28.667 -27.166 -45.5 -35.499 -50.5s-27.833 -7.5 -58.5 -7.5h-204c-33.333 0 -50 4.66699 -50 14c0 4 6.33301 18 19 42l64 111
c17.333 30.667 30.166 48.5 38.499 53.5s28.5 7.5 60.5 7.5h131c28 0 56.333 23.167 85 69.5s46.334 84.5 53.001 114.5c9.33301 63.333 14 120.666 14 171.999v99c0 40.667 -4.83301 73.5 -14.5 98.5s-29.834 44.833 -60.501 59.5c-6.66699 3.33301 -20.167 7.5 -40.5 12.5
s-39 10.833 -56 17.5s-34.5 16 -52.5 28s-32.333 29.5 -43 52.5s-16 50.5 -16 82.5c0 120 12.333 180 37 180c4.66699 0 8.66699 -5 12 -15s7.83301 -21.667 13.5 -35s13.167 -22.666 22.5 -27.999c18 -10 42.5 -18.667 73.5 -26s48.833 -11.666 53.5 -12.999
c29.333 -10 55.5 -27.333 78.5 -52s34.5 -51 34.5 -79v-422z" />
    <glyph glyph-name="daletdagesh" unicode="&#xfb33;" horiz-adv-x="1040" 
d="M384 545c0 20.667 7.16699 38.5 21.5 53.5s32.166 22.5 53.499 22.5s39.166 -7.5 53.499 -22.5s21.5 -32.833 21.5 -53.5s-7.16699 -38.667 -21.5 -54s-32.166 -23 -53.499 -23s-39.166 7.66699 -53.499 23s-21.5 33.333 -21.5 54zM348 901
c-103.333 0 -174.832 10.3311 -214.499 30.998s-59.5 64.334 -59.5 131.001v27c0 42.667 1 72.334 3 89.001c2 15.333 6.83301 26.5 14.5 33.5s15.667 7.83301 24 2.5s14.833 -16 19.5 -32c6.66699 -22.667 14.5 -37.5 23.5 -44.5s26.5 -10.5 52.5 -10.5h539h71
c32 0 54.5 -2.5 67.5 -7.5s22.167 -16.167 27.5 -33.5l13 -81c5.33301 -34.667 8 -59 8 -73c0 -16 -2.66699 -30.167 -8 -42.5s-10.333 -18.5 -15 -18.5c-8.66699 -1.33301 -17.334 3.33398 -26.001 14.001c-6.66699 8 -17.5 12.667 -32.5 14
s-23.5 -0.333984 -25.5 -5.00098v-108c0 -284 10.333 -492.667 31 -626c0 -26.667 -2.5 -50.5 -7.5 -71.5s-10.667 -36.833 -17 -47.5s-13.5 -19.5 -21.5 -26.5s-14.167 -11.333 -18.5 -13s-7.5 -2.5 -9.5 -2.5c-15.333 0 -23 21.667 -23 65
c0 38.667 1.16699 153.334 3.5 344.001s3.5 312 3.5 364v59v9c0 27.333 -2.83301 44.166 -8.5 50.499s-22.167 9.5 -49.5 9.5h-365z" />
    <glyph glyph-name="hedagesh" unicode="&#xfb34;" horiz-adv-x="1096" 
d="M459 541c0 20.667 7.16699 38.5 21.5 53.5s32.166 22.5 53.499 22.5s39.166 -7.5 53.499 -22.5s21.5 -32.833 21.5 -53.5s-7.16699 -38.667 -21.5 -54s-32.166 -23 -53.499 -23s-39.166 7.66699 -53.499 23s-21.5 33.333 -21.5 54zM987 945
c0 -16 -2.66602 -29.8291 -7.99902 -41.4961s-10.333 -17.5 -15 -17.5c-1.33301 0 -4 2.5 -8 7.5s-9.33301 7.5 -16 7.5c-9.33301 0 -15.833 -1.5 -19.5 -4.5s-5.5 -9.83301 -5.5 -20.5v-89c0 -297.333 9.33301 -506.333 28 -627c0 -26.667 -2.33301 -50.334 -7 -71.001
s-10.334 -36.334 -17.001 -47.001s-13.834 -19.5 -21.501 -26.5s-13.667 -11.333 -18 -13s-7.5 -2.5 -9.5 -2.5c-15.333 0 -23 21.333 -23 64c0 38.667 1.16699 153.5 3.5 344.5s3.5 312.5 3.5 364.5v59v9c0 27.333 -2.83301 44.166 -8.5 50.499s-22.167 9.5 -49.5 9.5h-418
c-96.667 0 -166.667 11.333 -210 34s-65 67 -65 133v21c0 22.667 1.66699 48 5 76c2 15.333 6.83301 26.5 14.5 33.5s15.667 7.83301 24 2.5s14.833 -16 19.5 -32c6 -19.333 11.667 -31 17 -35s18.333 -6 39 -6h13h601c51.333 0 86.333 -7.33301 105 -22
s30.334 -36.334 35.001 -65.001c7.33301 -48.667 11 -80.667 11 -96zM230.001 573.004v-422c0 -24 -0.333008 -42 -1 -54s-4.5 -24.167 -11.5 -36.5s-12.667 -20.833 -17 -25.5l-33.5 -35c-9.33301 -9.33301 -17.333 -14 -24 -14c-2.66699 0 -4 1.66699 -4 5
c0 0.666992 1.83301 10 5.5 28s5.5 36.333 5.5 55v465c0 18 0.166992 30.5 0.5 37.5s0.333008 14.167 0 21.5s0.5 12.833 2.5 16.5s3.16699 6.5 3.5 8.5s2.83301 5.66699 7.5 11s8 9.33301 10 12c18 24 32 36 42 36c6.66699 0 10.667 -7.5 12 -22.5s2 -43.833 2 -86.5z" />
    <glyph glyph-name="vavdagesh" unicode="&#xfb35;" horiz-adv-x="551" 
d="M123 541c0 20.667 7.16699 38.5 21.5 53.5s32.166 22.5 53.499 22.5s39.166 -7.5 53.499 -22.5s21.5 -32.833 21.5 -53.5s-7.16699 -38.667 -21.5 -54s-32.166 -23 -53.499 -23s-39.166 7.66699 -53.499 23s-21.5 33.333 -21.5 54zM426 130
c0 -36 -2.66797 -65.3398 -8.00098 -88.0068c-2.66699 -9.33301 -8.66699 -18.666 -18 -27.999c-17.333 -19.333 -31 -29 -41 -29c-11.333 0 -17 13 -17 39v31c8.66699 58.667 17.334 168.334 26.001 329.001s13 273.334 13 338.001c0 34.667 -3.83301 57.667 -11.5 69
s-28.167 25 -61.5 41c-6.66699 3.33301 -20.167 7.5 -40.5 12.5s-39 10.667 -56 17s-34.5 15.5 -52.5 27.5s-32.333 29.5 -43 52.5s-16 50.5 -16 82.5v41c0 9.33301 0.333008 22 1 38s1.66699 28.333 3 37s3 17.667 5 27s5 16.166 9 20.499s8.33301 6.5 13 6.5
s8.66699 -5 12 -15s7.83301 -21.667 13.5 -35s13.167 -22.666 22.5 -27.999c18 -10 42.667 -18.667 74 -26s49.333 -11.666 54 -12.999c30 -10 57.167 -27.167 81.5 -51.5s36.5 -50.166 36.5 -77.499c0 -57.333 -0.333008 -131.333 -1 -222s-1 -155 -1 -193
c0 -72 0.166992 -139.167 0.5 -201.5s0.833008 -110.666 1.5 -144.999s1 -53.166 1 -56.499z" />
    <glyph glyph-name="zayindagesh" unicode="&#xfb36;" horiz-adv-x="564" 
d="M3 536c0 20.667 7.16699 38.5 21.5 53.5s32.166 22.5 53.499 22.5s39.166 -7.5 53.499 -22.5s21.5 -32.833 21.5 -53.5s-7.16699 -38.667 -21.5 -54s-32.166 -23 -53.499 -23s-39.166 7.66699 -53.499 23s-21.5 33.333 -21.5 54zM170 998c0 31.333 10.001 75 30.001 131
s37.667 84 53 84h2c4 -1.33301 6.33301 -7.33301 7 -18s2.16699 -23.167 4.5 -37.5s7.16602 -25.166 14.499 -32.499c10.667 -10.667 29.5 -23.834 56.5 -39.501l74 -43c22.333 -13 42.5 -30.5 60.5 -52.5s27 -45.333 27 -70c0 -9.33301 -1.33301 -20.666 -4 -33.999
l-23 -83c-4.66699 -16.667 -9 -28.334 -13 -35.001s-9 -10 -15 -10c-7.33301 0 -30 12 -68 36c-16.667 -36.667 -29.334 -82.167 -38.001 -136.5s-13 -101.166 -13 -140.499c0 -47.333 5.33301 -112.333 16 -195s16 -146 16 -190c0 -50 -20.333 -98 -61 -144
c-6.66699 -6 -13.167 -10.333 -19.5 -13s-11.666 -2.66699 -15.999 0s-6.5 7.66699 -6.5 15c8 66.667 12 130.667 12 192c0 33.333 -7 79.166 -21 137.499s-21 106.833 -21 145.5c0 82.667 40.333 196.667 121 342c-4 3.33301 -17 10.833 -39 22.5s-42.167 23.5 -60.5 35.5
s-35.5 30 -51.5 54s-24 50.333 -24 79z" />
    <glyph glyph-name="tetdagesh" unicode="&#xfb38;" horiz-adv-x="1097" 
d="M688 543c0 20.667 7.16699 38.5 21.5 53.5s32.166 22.5 53.499 22.5s39.166 -7.5 53.499 -22.5s21.5 -32.833 21.5 -53.5s-7.16699 -38.667 -21.5 -54s-32.166 -23 -53.499 -23s-39.166 7.66699 -53.499 23s-21.5 33.333 -21.5 54zM157 1206
c12 0 20.667 -11.998 26 -35.998c7.33301 -22 19.5 -38.833 36.5 -50.5s50.167 -24.834 99.5 -39.501c2 -0.666992 11.167 -4.16699 27.5 -10.5s26.166 -10.333 29.499 -12l25 -12.5c13.333 -6.66699 22.166 -11.834 26.499 -15.501l20 -17
c9 -7.66699 15 -14.834 18 -21.501s6 -15 9 -25s4.5 -20.333 4.5 -31c0 -2.66699 -0.333008 -6.83398 -1 -12.501s-1 -10.167 -1 -13.5l-27 -136l-152 47c-19.333 -23.333 -35.166 -58.333 -47.499 -105s-18.5 -88.334 -18.5 -125.001c0 -37.333 3.5 -85.833 10.5 -145.5
s13.167 -102.834 18.5 -129.501c7.33301 -34.667 16.833 -57.5 28.5 -68.5s32.167 -16.5 61.5 -16.5h366c10.667 0 18.167 0.166992 22.5 0.5s9.5 0.5 15.5 0.5s10.333 0.833008 13 2.5s5.5 2.83398 8.5 3.50098s6.16699 3.16699 9.5 7.5s6.16602 7.66602 8.49902 9.99902
s6.33301 7.33301 12 15l14.5 19.5c17.333 24 31 44.167 41 60.5s22.833 40 38.5 71s27.5 64.333 35.5 100s12 72.834 12 111.501c0 60.667 -13.5 117.334 -40.5 170.001s-61.5 79 -103.5 79c-20 0 -38.667 -4.83301 -56 -14.5s-31.833 -21.334 -43.5 -35.001
s-23.834 -33 -36.501 -58s-23 -47.667 -31 -68l-31 -81c-12.667 -33.667 -23.667 -61.167 -33 -82.5c-2 -3.33301 -4.66699 -8.16602 -8 -14.499s-5.66602 -10.666 -6.99902 -12.999s-3.16602 -5.33301 -5.49902 -9s-4.33301 -6.16699 -6 -7.5s-4 -2.83301 -7 -4.5
s-6.16699 -2.66699 -9.5 -3s-7.33301 -0.5 -12 -0.5l126 558c6.66699 30 15.667 51.167 27 63.5s30 18.5 56 18.5c10 0 25.5 -3 46.5 -9s47.833 -19 80.5 -39s62.834 -45 90.501 -75s51.667 -72.833 72 -128.5s30.5 -118.5 30.5 -188.5c0 -56 -10.833 -123.167 -32.5 -201.5
s-43.167 -143.666 -64.5 -195.999s-50.333 -119.5 -87 -201.5c-18.667 -42 -34.167 -68 -46.5 -78s-36.5 -15 -72.5 -15h-476c-35.333 0 -57.166 2.66699 -65.499 8s-12.5 19.333 -12.5 42v60c0 38 -2.16699 78.5 -6.5 121.5s-10.333 92 -18 147
s-12.834 96.167 -15.501 123.5c0 57.333 10.167 116.166 30.5 176.499s46.5 114.5 78.5 162.5c-56.667 11.333 -94.667 31.333 -114 60s-29 69 -29 121c0 24.667 3.66699 61.834 11 111.501s17.333 74.5 30 74.5z" />
    <glyph glyph-name="yoddagesh" unicode="&#xfb39;" horiz-adv-x="530" 
d="M126 671c0 20.667 7.16699 38.5 21.5 53.5s32.166 22.5 53.499 22.5s39.166 -7.5 53.499 -22.5s21.5 -32.833 21.5 -53.5s-7.16699 -38.667 -21.5 -54s-32.166 -23 -53.499 -23s-39.166 7.66699 -53.499 23s-21.5 33.333 -21.5 54zM389 591l0.00195312 80.9971
c0 49.333 -3.83301 86.666 -11.5 111.999s-23.5 40 -47.5 44c-7.33301 3.33301 -21.5 7.33301 -42.5 12s-40.833 10.167 -59.5 16.5s-37.834 15.333 -57.501 27s-35.334 28.834 -47.001 51.501s-17.5 50 -17.5 82v40c0 97.333 9.33301 146 28 146
c4.66699 0 8.66699 -5 12 -15s8 -21.667 14 -35s13.667 -22.666 23 -27.999c18 -10 42.5 -18.667 73.5 -26s48.833 -11.666 53.5 -12.999c28 -9.33301 53.667 -28.166 77 -56.499s35 -56.833 35 -85.5c0 -57.333 -0.166992 -122 -0.5 -194s-0.5 -127 -0.5 -165
c0 -8.66699 -1.66699 -15.5 -5 -20.5s-7.33301 -7.5 -12 -7.5c-10 0 -15 11.333 -15 34z" />
    <glyph glyph-name="finalkafdagesh" unicode="&#xfb3a;" horiz-adv-x="955" 
d="M349 543c0 20.667 7.16699 38.5 21.5 53.5s32.166 22.5 53.499 22.5s39.166 -7.5 53.499 -22.5s21.5 -32.833 21.5 -53.5s-7.16699 -38.667 -21.5 -54s-32.166 -23 -53.499 -23s-39.166 7.66699 -53.499 23s-21.5 33.333 -21.5 54zM657 901l-316.002 -0.000976562
c-96 0 -165.833 11.5 -209.5 34.5s-65.5 67.5 -65.5 133.5v21c0 22.667 1.66699 48 5 76c2 15.333 6.83301 26.5 14.5 33.5s15.667 7.83301 24 2.5s14.833 -16 19.5 -32c6 -19.333 11.667 -31.166 17 -35.499s18.333 -6.5 39 -6.5h13h499c51.333 0 86.333 -7.33301 105 -22
s30.334 -36.334 35.001 -65.001c7.33301 -48.667 11 -80.667 11 -96c0 -16 -2.66699 -29.833 -8 -41.5s-10.333 -17.5 -15 -17.5c-1.33301 0 -4 2.5 -8 7.5s-9.33301 7.5 -16 7.5c-9.33301 0 -15.833 -1.5 -19.5 -4.5s-5.5 -9.83301 -5.5 -20.5v-171
c0 -2.66699 -0.166992 -6.83398 -0.5 -12.501s-0.5 -10.167 -0.5 -13.5c0 -127.333 5.5 -319.166 16.5 -575.499s22.167 -421.5 33.5 -495.5c0 -26.667 -3 -50.5 -9 -71.5s-13 -37.167 -21 -48.5s-16.667 -20.666 -26 -27.999s-16.666 -12 -21.999 -14s-9 -3 -11 -3
c-15.333 0 -23 21.333 -23 64c0 38.667 0.5 233 1.5 583s1.5 551 1.5 603v59v9c0 93.333 -19.667 140 -59 140z" />
    <glyph glyph-name="kafdagesh" unicode="&#xfb3b;" horiz-adv-x="976" 
d="M407 544c0 20.667 7.16699 38.5 21.5 53.5s32.166 22.5 53.499 22.5s39.166 -7.5 53.499 -22.5s21.5 -32.833 21.5 -53.5s-7.16699 -38.667 -21.5 -54s-32.166 -23 -53.499 -23s-39.166 7.66699 -53.499 23s-21.5 33.333 -21.5 54zM819 133l-27 -40.001
c-34 -40 -61.833 -65.5 -83.5 -76.5s-58.5 -16.5 -110.5 -16.5h-480c-28 0 -47 1 -57 3s-15 7.33301 -15 16c0 2.66699 1 6.33398 3 11.001s4.16699 9.33398 6.5 14.001s6.16602 11.5 11.499 20.5l14 24.5l25 47c18 32 31.667 53.167 41 63.5s21 17.666 35 21.999
s37 6.5 69 6.5h26h461c38.667 0 61.834 4.33301 69.501 13s11.5 33 11.5 73v346c0 24 -1.83301 47.667 -5.5 71s-10.834 49 -21.501 77s-28 50.667 -52 68s-53.333 26 -88 26h-262h-22c-84.667 0 -148.167 11.833 -190.5 35.5s-63.5 67.167 -63.5 130.5v21
c0 28.667 1.33301 54 4 76c2 15.333 6.83301 26.5 14.5 33.5s15.667 7.83301 24 2.5s14.833 -16 19.5 -32c6.66699 -21.333 13.167 -34 19.5 -38s23.166 -6 50.499 -6h360c78.667 0 142.834 -23.667 192.501 -71s74.5 -98 74.5 -152v-608c0 -24 -3.16699 -46.833 -9.5 -68.5
s-12.166 -37.5 -17.499 -47.5s-14.333 -25 -27 -45z" />
    <glyph glyph-name="lameddagesh" unicode="&#xfb3c;" horiz-adv-x="898" 
d="M381 540c0 20.667 7.16699 38.5 21.5 53.5s32.166 22.5 53.499 22.5s39.166 -7.5 53.499 -22.5s21.5 -32.833 21.5 -53.5s-7.16699 -38.667 -21.5 -54s-32.166 -23 -53.499 -23s-39.166 7.66699 -53.499 23s-21.5 33.333 -21.5 54zM61 1417
c0 18 5.33301 33.335 16 46.002s22.5 22 35.5 28s24.833 14.333 35.5 25s16 23.334 16 38.001c0 11.333 -3.5 20.833 -10.5 28.5s-14.833 13.667 -23.5 18s-16.5 12.166 -23.5 23.499s-10.5 26 -10.5 44c0 21.333 9 43.5 27 66.5s31.667 34.5 41 34.5
c6.66699 0 11.334 -2.5 14.001 -7.5s4.83398 -12 6.50098 -21s3.5 -15.833 5.5 -20.5c5.33301 -10.667 13.666 -23.334 24.999 -38.001s20.166 -28.167 26.499 -40.5s9.5 -26.5 9.5 -42.5c0 -18.667 -6.33301 -36.334 -19 -53.001s-26.5 -30.167 -41.5 -40.5
s-28.833 -23.166 -41.5 -38.499s-19 -31.666 -19 -48.999v-129c0 -42.667 7.33301 -80.667 22 -114s34.667 -50 60 -50h385c70 0 117.833 -12.5 143.5 -37.5s40.834 -66.833 45.501 -125.5l25 -502c1.33301 -16 2 -27.333 2 -34c0 -30.667 -16.667 -61.334 -50 -92.001
l-202 -169c-17.333 -19.333 -26 -41 -26 -65c0 -5.33301 -0.333008 -9.83301 -1 -13.5s-2.5 -7.33398 -5.5 -11.001s-5 -6.16699 -6 -7.5s-4.16699 -4.16602 -9.5 -8.49902s-8.33301 -6.83301 -9 -7.5l-112 -93c-4.66699 -4 -8.83398 -4.33301 -12.501 -1
s-5.5 8.66602 -5.5 15.999c0 54 18.667 97.333 56 130l308 257c12 10.667 19.833 18.5 23.5 23.5s5.5 11.167 5.5 18.5c0 4 -1.33301 11.667 -4 23s-4.66699 22.333 -6 33l-47 375c-8 26.667 -21 44.5 -39 53.5s-48 13.5 -90 13.5h-368c-37.333 0 -71 13.667 -101 41
s-45 68.333 -45 123z" />
    </font>
</defs>
</svg>
