<?xml version="1.0" standalone="no"?>
<!DOCTYPE svg PUBLIC "-//W3C//DTD SVG 1.1//EN" "http://www.w3.org/Graphics/SVG/1.1/DTD/svg11.dtd" >
<svg xmlns="http://www.w3.org/2000/svg" xmlns:xlink="http://www.w3.org/1999/xlink" version="1.1">
<metadata>
Created by FontForge 20170910 at Sun Jan 20 09:26:36 2013
 By Jimmy Wärting
Copyright 2013 by Maxim Iorsh (iorsh@users.sourceforge.net). Distributed under the terms of GNU General Public License version 2(http://www.gnu.org/licenses/gpl-2.0.html). All rights reserved.
</metadata>
<defs>
<font id="TrashimCLM-Bold" horiz-adv-x="600" >
  <font-face 
    font-family="Trashim CLM"
    font-weight="700"
    font-stretch="normal"
    units-per-em="1200"
    panose-1="2 0 8 3 0 0 0 0 0 0"
    ascent="800"
    descent="-400"
    cap-height="600"
    bbox="-14.2744 -313.543 913.247 842.409"
    underline-thickness="50"
    underline-position="-100"
    unicode-range="U+0020-2026"
  />
<missing-glyph 
d="M60 0v533h480v-533h-480zM120 60h360v413h-360v-413z" />
    <glyph glyph-name=".notdef" 
d="M60 0v533h480v-533h-480zM120 60h360v413h-360v-413z" />
    <glyph glyph-name="uni0000" 
d="M200 500v-500h200v500h-200zM100 600h400v-700h-400v700z" />
    <glyph glyph-name="uni0000" 
d="M200 500v-500h200v500h-200zM100 600h400v-700h-400v700z" />
    <glyph glyph-name="space" unicode=" " horiz-adv-x="350" 
 />
    <glyph glyph-name="exclam" unicode="!" horiz-adv-x="361" 
d="M88.9951 -8.65039l12.1279 152.251c51.9746 16.2754 100.484 15.75 145.53 1.0498l6.35156 -148.051c-51.3984 -15.2246 -107.414 -16.7998 -164.01 -5.25zM81.1006 724.001c71.4766 6.68555 139.169 -1.33105 200 -36l-57 -440c-28.665 -8.99609 -76 -8 -106 4z" />
    <glyph glyph-name="quotedbl" unicode="&#x22;" horiz-adv-x="490" 
d="M321 754c70 3 122 -7 179 -31l-59 -292c-47 -18 -93 -24 -138 -12zM61 765c68 -3 125 -22 178 -52l-71 -284c-43 -16 -84 -16 -128 4z" />
    <glyph glyph-name="percent" unicode="%" horiz-adv-x="744" 
d="M549.222 636.767c41 -10 89 -41 108 -74l-441 -575c-57.875 11.7754 -96.6719 42.7676 -121.672 97.7666zM526.448 126.996l-17.5166 -71.2939c-3.50488 -14.2646 7.38672 -23.3936 22.3691 -20.335l60.0098 12.25c15.6113 3.18555 24.1064 15.9746 21.8115 30.3789
l-5.38965 33.8105c-2.00391 12.7559 -6.6377 24.8906 -19.8486 26.9482l-31.7881 6.125c-15.4814 2.9834 -26.2139 -3.90625 -29.6475 -17.8838zM562.991 257.599l101.138 -44.1006c33.8027 -14.7393 56.8213 -42.6094 48.6611 -81.2002l-25.8994 -122.5
c-9.07617 -42.9209 -30.167 -65.2373 -70 -65.7998l-148.809 -2.09961c-69.3008 -0.978516 -105.361 56.9717 -78.5371 112.699l76.1465 158.2c19.4326 40.373 59.8955 61.1104 97.2998 44.8008zM203.783 378.52l-102.101 31.499
c-15.4717 4.77246 -30.7559 24.1328 -30.8701 41.5811l-0.810547 122.5c-0.407227 61.6143 39.084 94.666 98.5586 88.1992l122.332 -13.2998c56.2393 -5.29688 67.3271 -47.54 51.5889 -99.3994l-30.7988 -101.5c-15.7725 -51.9736 -61.1963 -77.79 -107.899 -69.5801z
M168.187 547.744l-3.66699 -23.9863c-2.27734 -14.8652 -1.19238 -31.2041 7.92188 -33.3643l19.5713 -4.63477c13.4941 -3.19629 23.9229 2.84473 33.2021 16.1699l30.5332 43.9287c10.3164 14.8389 1.91406 28.5332 -17.1924 28.0283l-49.0254 -2.42578
c-11.9004 -0.588867 -19.0215 -8.5332 -21.3438 -23.7158z" />
    <glyph glyph-name="quotesingle" unicode="'" horiz-adv-x="225" 
d="M53 765c79 -0.810547 103 -6.20312 182 -31l-73 -294c-65.6582 -19.8379 -63 -25 -122 -16z" />
    <glyph glyph-name="parenleft" unicode="(" horiz-adv-x="335" 
d="M181.463 772c56.8877 2.94824 107.773 -10.25 153.999 -35.999c-223.008 -398 -230.671 -490.157 -5.00781 -851c-46.9717 -31.8584 -99.0752 -54.8125 -161.999 -59.001c-162 290 -158 658 13.0078 946z" />
    <glyph glyph-name="parenright" unicode=")" horiz-adv-x="320" 
d="M-14.2744 718.215c43.2275 33.7051 92.0098 58.1582 150.778 66.3027c181.52 -327.331 157.598 -624.862 8.89551 -944.044c-53.4541 4.93457 -103.235 35.1963 -131.65 75.2295c177.186 384.617 183.924 486.559 -28.0234 802.512z" />
    <glyph glyph-name="asterisk" unicode="*" horiz-adv-x="739" 
d="M317 49c-68 -1 -128 22 -170 69c164.572 178.733 101.792 158.222 -65.9277 111.4c-14.0723 75.5996 -0.0722656 149.6 41.9277 202.6c200 -129 245 -85 156.872 102.601c68.1279 40.3994 141.128 44.3994 214.2 29.3994c-58.0723 -198 -73.0723 -240 117.928 -103
c45 -44 61 -117 41.6719 -178.399c-226.672 25.3994 -183.672 -27.6006 -41.6719 -130.601c-33 -52 -85 -86 -152.928 -96.1992c-60.6338 190.498 -88.8779 239.702 -142.072 -6.80078z" />
    <glyph glyph-name="plus" unicode="+" horiz-adv-x="618" 
d="M106 356.45l100.751 -10.499c59.9307 0.584961 62.5098 31.0293 61.5 63l-2.75 87.0498c33.8457 11.2305 70.8232 12.9512 109.999 8l2 -92.7998c0.787109 -36.5029 9.32422 -63.3926 51 -64.5l104.5 7.75c9.85449 -42.5615 6.04492 -83.3477 -4.49902 -123.25l-107 2
c-34.5352 0.645508 -61.2666 -27.5967 -60.001 -56.001l5 -112.2c-40.6689 -4.85254 -83.502 -3.25293 -129.5 7.75l9.5 94.25c4.42676 43.917 -25.4385 53.8369 -60 56l-121 -3.7998c2.87402 50.5303 13.9678 97.3623 40.5 137.25z" />
    <glyph glyph-name="comma" unicode="," horiz-adv-x="332" 
d="M60 -176.5l47 282c57.5977 22.9912 128 18 181 3l-88.5 -253.5c-55.4697 -27.1592 -91.9092 -30.75 -139.5 -31.5z" />
    <glyph glyph-name="hyphen" unicode="-" horiz-adv-x="539" 
d="M133 329l336 16.999c4.33008 -61.4297 -11.6758 -119.9 -44 -175.999l-355 17c13.2676 53.3867 32.7285 101.924 63 142z" />
    <glyph glyph-name="period" unicode="." horiz-adv-x="301" 
d="M59.0479 -3.46289l3.85156 148.118c55.9971 19.5996 113.747 17.8496 168.348 -0.00195312l-0.704102 -150.848c-50.3975 -18.9004 -117.247 -16.8008 -171.495 2.73145z" />
    <glyph glyph-name="slash" unicode="/" horiz-adv-x="450" 
d="M314 747.421c62.5 3.93262 113.5 15.4082 176 -7.4209c-160.08 -286.634 -266 -594.579 -364 -884c-47.6084 -8.39746 -93.2168 -6.64062 -135.5 11.999c128.49 294.314 243.5 573.422 323.5 879.422z" />
    <glyph glyph-name="zero" unicode="0" horiz-adv-x="640" 
d="M201.335 488.784l-31.9004 -295.785c-5.74902 -53.3027 28.293 -85.8955 83.5996 -93l101.2 -13c51.79 -6.41699 79.3359 25.6855 88 74l47.2998 263.784c8.03711 44.8242 -6.50684 73.9785 -42.8994 83.001l-157.3 39c-49.5186 12.2783 -82.707 -8.9209 -88 -58z
M60.2324 502.428c-5.12305 119.907 74.8994 165.957 203.5 158l210.1 -13c86.542 -12.8672 129.018 -65.5693 126.5 -146l-11 -351.429c-3.8584 -123.303 -89.1006 -187 -224.4 -187l-161.7 -13c-69.7158 -5.60449 -120.725 31.0693 -123.199 89z" />
    <glyph glyph-name="one" unicode="1" horiz-adv-x="405" 
d="M54.0342 583.8l172.999 71c44.5283 18.2754 91.793 -10.9971 91.8896 -65l1.11035 -622c-51.5146 -22.4229 -104.672 -28.8115 -161.516 -24l48 500c2.8291 28.708 -16.8818 44.3936 -38 43l-117.483 -20c-7.40137 35 -9.68262 82 3 117z" />
    <glyph glyph-name="two" unicode="2" horiz-adv-x="663" 
d="M132.714 625.3l258.491 30.7002c104.544 12.416 168.845 -33.5977 176 -121l14 -171c5.07129 -61.9414 -34.4639 -106.788 -99 -122l-285 -83c-64.5049 -18.7861 -54.5039 -97.3271 21 -87l382 43c7.77148 -51.2998 0.291992 -109.3 -18.999 -158l-446 3
c-73.5059 0.235352 -98.6885 60.499 -78.5059 134.7l34 125c16.3535 43.4912 52.1846 77.4141 94.5059 80.2998l176 12c64.1172 5.77148 98 48 97 103c-1.55469 85.5205 -52.8604 138.022 -165.493 102.3l-177.506 -56.2998
c-9.93457 58.0791 -2.72949 122.739 17.5068 164.3z" />
    <glyph glyph-name="three" unicode="3" horiz-adv-x="667" 
d="M84.4053 656.6l395.758 -22.6016c71.1211 -5.19043 126.335 -43.834 122.1 -117l-6.59961 -114c-3.2373 -55.8975 -38.5 -94 -97.9395 -102.4c69.3389 -3.59961 108.661 -41.0898 103.439 -108.6l-9.90039 -128c-4.94922 -63.9648 -51.8096 -93.9307 -123.2 -97
l-380.354 -14c-12.1016 55 -8.80176 111 7.69922 161l302.256 -42c26.3037 -4.46387 44.0205 7.77637 50.5996 34l14.2998 57c9.71387 38.7227 -10.9404 66.4756 -66.0391 67.5996l-172.417 2.40039c-4.40039 44 7.73828 115.4 27.499 147l131.755 -22
c55.0342 -15.7236 88.5029 8.89648 79.2012 53.001l-13.1621 62.4004c-8.44922 40.0615 -33.6543 56.4297 -71.5 51l-309.994 -36.7998c-7.58398 48.001 0.292969 121 16.5 169z" />
    <glyph glyph-name="four" unicode="4" horiz-adv-x="694" 
d="M164.481 653c59.5508 10.1885 119.089 12.2148 178.64 -2.99902l-158 -270c-24.4102 -41.7129 -5.22461 -76.6162 43.999 -84l240 -36l20.1377 356c36.8652 32.9668 108.272 26.0264 139.862 30.999l-42 -685c-53.6279 -12.0117 -108.373 -16.5928 -162 -2l34 206
l-346 -6c-64.9678 -1.12695 -91.125 35.6064 -72 97z" />
    <glyph glyph-name="five" unicode="5" horiz-adv-x="676" 
d="M122.638 635.3l486.751 24.7002c11.7568 -59.8584 4.47852 -115.435 -42.9014 -162.001l-346.5 42l-1.64941 -131c-0.376953 -29.9727 24.9424 -19.3857 50.6006 -18l166.65 9c103.583 10.5049 181.924 -43.0771 180.398 -140l-2.19922 -140
c-1.55859 -99.2852 -54.9805 -174.272 -172.699 -171l-382.8 10c-15.9619 52.6182 -8.80078 113 20.8994 162l369.656 -44c44.4912 -5.64941 56.7178 21.334 42.6787 72.75l-32.835 120.25c-13.2139 27.6504 -36.332 35.7842 -63.4873 26.1904l-169.163 -35.8896
c-106.995 -22.7002 -172.06 -0.860352 -154 98z" />
    <glyph glyph-name="six" unicode="6" horiz-adv-x="653" 
d="M188.536 243l-2.1123 -127c-0.597656 -35.9482 23.3486 -51.5137 66.1504 -45l203.699 31c25.2266 3.83887 37.7393 18.0068 39.9004 42l6.30469 70c4.34277 46.5293 -29.5088 54.6162 -84 62l-180.06 24.4004c-24.2764 3.29004 -48.7061 -20.4199 -49.8828 -57.4004z
M447.88 701c54.5986 -28 100.798 -82.001 118.647 -134.001l-319.2 -93c-50.2266 -14.6338 -52.4873 -70.8994 16.8008 -69.999l230.994 3c63.541 0.825195 104.72 -29.9941 103.409 -90l-5.75977 -264c-2.34082 -56.5146 -44.0986 -89.7256 -109.198 -89.5996
l-310.801 0.599609c-50.5527 0.0976562 -85.4336 30.374 -89.249 74.5996l-27.2939 316.4c-6.98242 80.9463 15.9502 146.599 64.5957 172.4z" />
    <glyph glyph-name="seven" unicode="7" horiz-adv-x="585" 
d="M66.002 658l224.999 -30c18.2939 -2.09082 35.624 -3.38379 53 -3l131 14c75.9873 8.12109 148.43 -67.5322 87.001 -156l-163.869 -236c-11.4971 -15.1348 -21.1758 -32.8877 -27.1328 -56l-74.998 -257c-58.002 7 -110.002 28 -143.002 62l85.4795 227
c14.042 37.291 36.7617 74.8398 63.8955 103l115.625 120c39.7793 38.0127 22.0215 91.6377 -40 88l-357.998 -21c-0.179688 53.3066 12.9434 102.351 46 145z" />
    <glyph glyph-name="eight" unicode="8" horiz-adv-x="684" 
d="M237.648 235l-35.748 -145.5c-7.15234 -29.1113 14.7305 -45.6914 45.6494 -41.5l221.591 31c36.4121 5.09375 52.5938 26.6025 47.9092 56l-11 69c-4.0918 26.0342 -23.6387 38.8008 -50.5996 43l-157.3 24.5c-31.7617 5.10547 -53.4941 -7.97559 -60.502 -36.5z
M229.607 503l-6.80859 -44.501c-4.2207 -27.5791 14.0996 -44.792 46.751 -50.5l114.4 -20c25.377 -4.24512 44.3838 5.2793 61.5996 30l56.6504 81.5c19.1357 27.5322 3.54883 52.9365 -31.9004 52.001l-201.093 -4.5c-22.0977 -0.494141 -35.29 -15.833 -39.5996 -44z
M107.241 532.999c-0.582031 88.0205 55.5264 131.688 140.802 126.001l284.9 -19c80.3428 -7.56836 96.1816 -67.9141 73.6992 -142l-44 -145c-3.08008 -10.1533 8.26367 -17.9785 20.2812 -25.001c32.5176 -19 52.7773 -63.1191 44.6172 -108l-22 -121
c-13.1211 -72.1748 -7.92969 -147.284 -100.1 -148l-330 -3c-99 -0.900391 -151.844 82.04 -112.199 161l74.3076 148c6.89062 17.3096 14.6484 39.7568 4.94922 45c-20.3496 11 -33.9355 31.0762 -34.0996 56z" />
    <glyph glyph-name="nine" unicode="9" horiz-adv-x="693" 
d="M508.354 387.601l-8.78809 110.397c-2.6416 33.1924 -24.4619 51.5146 -69.2988 45.001l-213.401 -31c-26.4287 -3.83984 -39.8184 -17.9883 -41.7998 -42l-4.40625 -53.3994c-3.91895 -47.4766 30.8633 -54.9385 88 -61.999l197.435 -24.4014
c32.8203 -4.05566 55.2686 19.5811 52.2598 57.4014zM79.0947 90.998l340.999 -28c30.5586 -0.370117 46.3281 18.5469 47.665 42.667l-3.09473 82.7324c-1.31055 35.0371 -16.2891 58.0742 -54.4707 57.6016l-231.829 -22.3994
c-66.2012 -6.39746 -109.708 29.9922 -108.335 89.999l3.83496 247.399c0.876953 56.5537 46.2002 89.71 114.401 89.5996l371.529 -0.599609c52.9609 -0.0976562 99.1367 -30.5205 93.5 -74.5996l-77 -525.4c-7.86035 -47.3389 -50.5107 -67.9297 -92.4004 -73l-388.3 -47
c-17.6006 47 -22 106 -16.5 161z" />
    <glyph glyph-name="colon" unicode=":" horiz-adv-x="326" 
d="M61.0684 423.696l3.92773 151.082c57.1162 19.9932 116.022 18.2061 171.715 -0.00195312l-0.717773 -153.865c-51.4043 -19.2773 -119.591 -17.1367 -174.925 2.78516zM59.999 -4.91602l3.92773 151.081c57.1162 19.9912 116.021 18.2061 171.715 -0.00195312
l-0.717773 -153.865c-51.4043 -19.2783 -119.592 -17.1367 -174.925 2.78613z" />
    <glyph glyph-name="semicolon" unicode=";" horiz-adv-x="357" 
d="M94.5332 428.101l3.85254 148.118c55.9971 19.5996 113.747 17.8486 168.347 -0.00195312l-0.704102 -150.848c-50.3965 -18.9004 -117.247 -16.8018 -171.495 2.73145zM105.601 129.625c60.8037 12.3721 108.523 6.09961 165.601 -15.8242l-101.5 -294.91
c-42.1328 -15.6621 -81.2676 -9.04102 -119.7 2.79883z" />
    <glyph glyph-name="less" unicode="&#x3c;" horiz-adv-x="742" 
d="M563.712 596.675c35 -42 51 -96.001 49 -161.001l-338 -125c-55.2207 -20.4219 -52.2168 -33.3809 0.956055 -49.2881l360.044 -107.712c-4 -66 -22 -115 -63.7119 -164.675l-411.288 203.675c-92.9551 46.0322 -84.6562 128.264 -2 175.001z" />
    <glyph glyph-name="equal" unicode="=" horiz-adv-x="628" 
d="M114.694 191.5l419.001 40.001c13.0469 -53.2773 11.4268 -105.389 -9 -156.001l-387 3c-27.1885 36.5674 -22.9688 71.2109 -23.001 113zM138.695 470.501l395 -14c19.3047 -41.959 15.6338 -76.9297 9 -111l-442 -35c-3.36816 55.6719 4.91504 109.646 38 160z" />
    <glyph glyph-name="greater" unicode="&#x3e;" horiz-adv-x="742" 
d="M172.496 -3.84766c-33.5137 43.1963 -47.6172 97.7207 -43.3506 162.611l342.156 113.128c55.8994 18.4824 53.3506 31.5381 0.764648 49.292l-356.065 120.211c6.30078 65.8203 26 114.162 69.4199 162.352l403.93 -217.904
c91.292 -49.249 80.1289 -131.14 -4.11035 -174.964z" />
    <glyph glyph-name="question" unicode="?" horiz-adv-x="537" 
d="M173.5 -7l10.5 145c45 15.5 99.5 15 138.5 1l5.5 -141c-44.5 -14.5 -105.5 -16 -154.5 -5zM142 717.6l229 -72.5986c117.683 -37.3086 142.76 -151.885 49 -226l-105 -83c-18.4277 -14.5664 -17.9346 -33.6035 -12 -52.001l10 -31
c-43.9805 -27.7188 -86 -43 -142.277 -46.4004l-33.1191 92.001c-8.33301 28.665 4.46777 45.5674 26 62l161.396 96.3994c40.1152 23.96 28.3057 70.9209 -17.999 76l-233.396 25.6006c3.39648 58.8994 27.3965 113.399 68.3965 158.999z" />
    <glyph glyph-name="A" unicode="A" 
d="M200 500v-500h200v500h-200zM100 600h400v-700h-400v700z" />
    <glyph glyph-name="bracketleft" unicode="[" horiz-adv-x="456" 
d="M72.6611 656c-6.95898 50.3301 22.249 87.2773 80.001 91.999l246.619 16c17 -50 14.1416 -96.4004 3.1416 -156.4l-124.927 10c-39.4902 2.61523 -69.9727 -17.9111 -70.251 -65.25l-3.2041 -545.25c0.0908203 -46.9854 22.9277 -66.666 77.0732 -64.5l143.308 15
c11.499 -50.1221 15.8584 -98.5996 -0.141602 -157.6l-252 6c-75.4375 5.98047 -109.525 42.1279 -101 102.001l44 309c6.67871 46.9004 5.62109 90.1182 -1 138z" />
    <glyph glyph-name="backslash" unicode="\" horiz-adv-x="445" 
d="M163.213 736.543l65.5664 -254.526c22.1602 -86.0283 50.0762 -177.614 87.8301 -269.682l129.164 -314.981c-52.0752 -21.5439 -103.807 -33.0312 -159.469 -21.9805l-68.3047 261.628c-23.3906 89.5928 -45.3818 171.35 -76.333 249.993l-124.832 317.184
c46.9863 21.4238 89.332 31.459 146.378 32.3652z" />
    <glyph glyph-name="bracketright" unicode="]" horiz-adv-x="456" 
d="M376.787 -95.0791c6.08008 -50.4443 -23.7656 -86.877 -81.5928 -90.5898l-246.86 -11.6934c-16.125 50.2891 -12.457 96.6318 -0.411133 156.432l124.732 -12.1787c39.4395 -3.30469 70.2744 16.6855 71.3779 64.0137l12.7197 545.111
c0.728516 46.9795 -21.7617 67.0557 -75.9365 65.8359l-143.548 -12.4971c-10.6221 50.3154 -14.1348 98.8613 2.89258 157.573l251.856 -10.3975c75.3223 -7.29688 108.773 -44.0322 99.2051 -103.747l-49.3867 -308.185
c-7.49609 -46.7773 -7.19238 -90.0068 -1.4082 -137.997z" />
    <glyph glyph-name="grave" unicode="`" horiz-adv-x="250" 
d="M1.53906 717.634c72.5596 31.2539 96.6875 36.0439 178.961 45.3662l52.3242 -298.374c-33.3242 -19.626 -78.8828 -24.1436 -130.324 -20.626z" />
    <glyph glyph-name="afii57645" unicode="&#x5be;" horiz-adv-x="610" 
d="M371.451 464.159c-46.9414 -6.90332 -101.019 -5.8877 -162.149 -1.66309l-123 8.5c-0.0820312 60.5352 9.26758 101.596 41.8496 148.837l139.5 -21.833c27.209 -1.76172 53.6289 -1.63086 79.5 2l142 32.833c26.7266 -52.6309 27.0332 -88.0596 18.2998 -148.674z" />
    <glyph glyph-name="afii57664" unicode="&#x5d0;" horiz-adv-x="791" 
d="M171.662 660l336.338 -396.601l40.5 146.6c10.9385 38.9561 -2.27539 71.9648 -41.8369 78l-59 9c18.6562 57.6992 49.9199 107.601 103 144.001l86 -14c81.1924 -13.2168 116.306 -73.8086 80.3389 -162l-121 -283.6l130.662 -124.4
c-25 -41 -56.8125 -79.1533 -104.001 -110l-342.662 372l-39.5 -151.5c-7.28125 -30.3379 1.68848 -48.875 33.499 -58.5l39.6621 -12c-8.14844 -53.3359 -28 -105 -61 -146l-106 24c-73.6221 16.6689 -94.4258 88.501 -61.1621 156.5l124.5 245.5l-127.338 129
c10 54 42 104 89 154z" />
    <glyph glyph-name="afii57665" unicode="&#x5d1;" horiz-adv-x="684" 
d="M89 639l396.197 -31.999c103.656 -8.37207 143.857 -55.8525 122 -149.001l-84 -338l126 11c13.7432 -55.1572 0.860352 -104.814 -24 -152l-595.198 -18c17.1172 59.9023 47.8965 118.76 100 176l303.198 -23l17 290c3.3125 60.4248 -36.6191 97.1621 -103.999 90
l-235.198 -25c-27.6885 50.2568 -36.6201 106.415 -22 170z" />
    <glyph glyph-name="afii57666" unicode="&#x5d2;" horiz-adv-x="483" 
d="M121.499 647.05l112.771 -17.6504c67.1943 -10.5156 104.639 -57.1045 119.638 -143.981l85.4248 -494.791c-32.9277 -26.0205 -88 -45 -139.744 -39.75l-2.25098 178.123l-226.12 -190.517c-30.4258 72.4834 -23.2461 165.818 -8.68555 224.853l213.918 97.7578
l-13.001 134.507c-5.78223 59.833 -55.2314 62.0264 -148.896 76.8525c-4.41699 38.5859 -16.4443 126.954 6.94531 174.597z" />
    <glyph glyph-name="afii57667" unicode="&#x5d3;" horiz-adv-x="717" 
d="M91.0596 633l262.036 -36.7139c76.7725 -10.7559 140.837 -1.68359 205.002 14.6016l95 24.1113c18.501 -70.458 18.459 -110.872 1 -176c-101 -1 -112.022 -43.0703 -108.556 -115l16 -332c-62.4033 -44.8076 -110.649 -57.0684 -189.001 -54l54.9639 430.277
c7.2002 56.3594 -23.0342 87.1787 -66 84.001l-311.445 -22.2773c-0.977539 63.4316 9.87109 124.895 41 183z" />
    <glyph glyph-name="afii57668" unicode="&#x5d4;" horiz-adv-x="720" 
d="M103 248c39 8.75195 78 9.5625 117 1l27 -259c-63.207 -28.8545 -130.795 -29.9053 -202 -8zM71 610.001l369.001 18c109.127 5.32324 208.848 -9.96777 215 -157l20 -478c-51.2393 -21.7637 -119.769 -27.8447 -179.001 -14l34 442
c4.86621 63.2617 -24.4287 89.8906 -91 76l-379 -83c-17.2754 69.7148 -9.86133 134.269 11 196z" />
    <glyph glyph-name="afii57669" unicode="&#x5d5;" horiz-adv-x="377" 
d="M76.7725 638.9l145.773 -33.0967c42.0742 -8.57617 74.3223 -17.6436 75 -68.001l6.22656 -530.9c-43.8486 -26.5732 -97.165 -39.8623 -157 -44l53.7734 409.9c3.84375 29.3027 -2.34961 53.2764 -32.001 55.999l-104.772 12.0986
c-13.6992 64.5146 -13.79 125.513 13 198z" />
    <glyph glyph-name="afii57670" unicode="&#x5d6;" horiz-adv-x="460" 
d="M107.575 628.67l88.999 -8.99902c27.1279 -2.74316 53.9648 -3.52246 79.5 1.99902l92.5 20c26.7266 -52.6309 30.7314 -110.386 21.999 -171l-86 -20c-27.6328 -6.42676 -39.251 -26.8691 -36 -60l40 -407.67c-60.7598 -17.9258 -119.902 -11.7295 -177.999 10
l40 396.17c3.91016 38.7256 -1.89648 63.3779 -32.999 67l-73 8.5c-0.0830078 60.5352 10.417 116.759 43 164z" />
    <glyph glyph-name="afii57671" unicode="&#x5d7;" horiz-adv-x="725" 
d="M107.265 612l384.001 30c79.5039 6.21094 135.077 -14.7637 144 -101l54.7354 -529c-35.6699 -35.0518 -106.741 -49.3252 -155.735 -50l9.73535 474c1.67285 22.9219 -13.9766 40.3691 -50.2656 41l-265.126 4.6084l26.3906 -465.608
c-36.1602 -32.6543 -107.194 -44.7881 -170 -43l49.4395 510.245l-43.4395 0.754883c-9 43 -2 92 16.2646 128z" />
    <glyph glyph-name="afii57672" unicode="&#x5d8;" horiz-adv-x="744" 
d="M215 644l47 -518.999c1.84082 -20.2871 16.54 -29.4648 39 -26l175 27c21.5 3 34.8848 18.835 35.5 45l6 255c0.552734 23.4824 -23.123 33 -44 33h-151.5c-10.3232 47 -15.1221 90 0.5 141l235.5 39c84.3691 13.9717 151.97 -33.6377 134 -127.001l-92 -478
c-9.63672 -50.0703 -42.4785 -64.2627 -86 -66l-255 -7c-53.8047 -1.47656 -80.8047 27.5215 -92 79l-117 538c42.083 37.501 98.9492 57.2617 165 66z" />
    <glyph glyph-name="afii57673" unicode="&#x5d9;" horiz-adv-x="369" 
d="M61.3887 614l165 17c43.2383 4.45508 91.8223 -19.6807 92 -70l1 -283c-51.5146 -22.4229 -106.154 -28.8115 -162.999 -24l16 183c2.51172 28.7383 -18.1035 35.7871 -38.001 43l-80 29c-7.40137 35 -5.68262 70 7 105z" />
    <glyph glyph-name="afii57674" unicode="&#x5da;" horiz-adv-x="605" 
d="M60.6162 640.607l281.502 -20.6064c108.964 -7.97656 212.924 -9.85449 215 -157l10.6934 -757.805c-51.2402 -21.7627 -98.7686 -23.8438 -158.001 -10l39.8066 717.805c3.5127 63.3506 -23.7715 86.2373 -91.001 75.999l-309 -44.3926
c-17.2754 69.7158 -9.86133 134.27 11 196z" />
    <glyph glyph-name="afii57675" unicode="&#x5db;" horiz-adv-x="631" 
d="M115.135 645l361.79 -48.7998c51.1963 -6.90527 80.7207 -45.3428 94.21 -90.2002c43 -143 41.209 -346 -12 -486.8c-10.7842 -28.5371 -45.2812 -36.0068 -90 -39l-408 -18.2002c-4.79102 57.7998 5.20898 114.8 37.209 162.8l297.791 -21.7998
c24.418 -0.650391 43.2119 20.7285 55 45c34 70 49 187 30.791 284.2c-4.87109 26.001 -25.6562 34.6016 -46 34l-359 -11.2002c-9.79102 59.7998 14.418 140.8 38.209 190z" />
    <glyph glyph-name="afii57676" unicode="&#x5dc;" horiz-adv-x="594" 
d="M60.5312 816.542c60.167 28.6689 118.24 29.3975 186.991 21.7031l-93.4189 -213.511l289.365 3.68945c86.6875 1.10547 149.869 -37.5586 106.871 -133.279l-236.793 -527.145c-55.4414 1.36035 -143.651 17.248 -178.906 57.0391l291.346 437.943
c15.9766 24.0146 -7.39648 43.3076 -29.4131 41.1816l-346.573 -33.4746z" />
    <glyph glyph-name="afii57677" unicode="&#x5dd;" horiz-adv-x="772" 
d="M146 626l440 -9.00098c111.43 -2.2793 138.716 -60.8691 136 -147l-11.793 -374c-1.35547 -42.9639 -23.9043 -72.5654 -69.207 -77.9229l-415 -49.0771c-102.053 -12.0684 -147.83 36.9043 -121.91 135.352l96.8994 368.029l-150.989 -8.37988c11 62 46 116 96 162z
M316.09 480.35l-59.999 -322.998c-6.90234 -25.2334 0.645508 -44.9746 33.999 -49.001l217.91 -24.9365c24.9502 -2.85547 44.7959 11.6055 47.417 37.585l32.583 323c3.81543 37.8174 -14.625 56.541 -47 54z" />
    <glyph glyph-name="afii57678" unicode="&#x5de;" horiz-adv-x="758" 
d="M126.701 647l83.002 -42c27.6289 -13.9814 58.7627 -14.8066 93 -13.001l237 12.5c82.6982 4.99414 128.956 -31.0596 133 -113l21 -425.5c2.95312 -51.9004 -18.0371 -87.1621 -72.8125 -89.5635l-211 -7.93652c-24.1211 44.8799 -28.9717 114.459 -24.1875 162
l136.132 -19.9629c19.5928 -3.68457 31.3594 7.89355 33.8672 33.4639l21 226.5c4.64941 50.1387 -15.0127 79.1787 -62 80l-173 2.5c-23.0029 0.332031 -36.0947 -13.6191 -38 -44l-25 -424c-47 -16 -104 -12 -153 6.5l72 394
c4.75488 25.0469 -6.93457 38.3779 -31.001 46.5l-80 27c-6.8623 65.3809 7.15039 127.952 40 188z" />
    <glyph glyph-name="afii57679" unicode="&#x5df;" horiz-adv-x="394" 
d="M94.0479 627l111 3c89.5908 2.42188 115.878 -51.8457 117 -119l11.9961 -718c-52.2441 -25.9678 -98 -36 -156 -29l50 646c1.30664 27.4004 -6.20215 35.6221 -27 34l-145 -11c-5 65 8 133 38.0039 194z" />
    <glyph glyph-name="afii57680" unicode="&#x5e0;" horiz-adv-x="438" 
d="M144 647l135 -15c68.707 -7.63379 92.3184 -24.9912 94 -88l13.2646 -497c1.0752 -40.2842 -23.5479 -66.6455 -61.2646 -69.1006l-275 -17.8994c1.74707 58.1572 13.9922 111.84 34.5 162l125 -4c26.8311 -0.858398 40.9971 11.0557 43.5 36l28 279
c3.23926 32.2773 -11.9932 50.585 -50 50l-130 -2c2 59 16.3877 110.666 43 166z" />
    <glyph glyph-name="afii57681" unicode="&#x5e1;" horiz-adv-x="716" 
d="M285.5 476.5c-21.2627 -2.7832 -30.6162 -16.0088 -28.999 -41.499l16.3682 -258c3.86426 -60.2412 35.3721 -81.4258 103.632 -66l76 17.1748c34.0918 7.7041 52.3174 30.8467 56.499 64.8242l32 260c4.71191 38.2842 -17.9238 54.5898 -53 50zM78.001 636.001l76 -14
c25.5283 -4.70312 51 -9 80 -9h354.635c74 0 119.315 -49.0996 98 -132.042l-92.6348 -360.458c-27.1328 -105.58 -69.9482 -152.593 -165 -150l-110 3c-79.7939 2.17578 -132.951 55.1191 -142.5 126l-39.5 292.5c-3.29785 24.4209 -3.03711 58.7705 -30 63l-51 8
c-13.1875 58.7734 -6 115 22 173z" />
    <glyph glyph-name="afii57682" unicode="&#x5e2;" horiz-adv-x="667" 
d="M40 608c57 22 121.001 32.001 185.018 18.001l62 -435c6.18555 -43.4033 9.25684 -87.0547 40 -97.001c34 -11 88.0371 32.8115 93.9834 108l31 392c53 25 128 36 184 23l-129 -503c-18.5361 -72.2754 -92.1689 -142.152 -164.983 -166l-259 -83
c-29.0938 50.8535 -42.5547 110.146 -42 177l147 10c23.0977 1.7998 30.6133 19.5576 19.999 49z" />
    <glyph glyph-name="afii57683" unicode="&#x5e3;" horiz-adv-x="605" 
d="M290.391 322c18.3135 -56.0029 15.7168 -96.9971 2.00098 -153l-170 25c-47.0127 6.91406 -70.7812 31.2822 -67 82l15 266c2.76367 49.0098 30.043 75.043 74 77l292 13c64.0947 2.85449 97.9873 -20.7158 100.999 -92l33 -780.952c-55.9297 -3.95605 -109 3 -159 30
l33 603.952c3.28418 60.1074 -23.168 94.1123 -78 100l-149 16c-34.3701 6.58594 -47.7305 -16.1748 -46 -45l6 -100c2.00098 -23.5059 17.7354 -31.1846 40 -34z" />
    <glyph glyph-name="afii57684" unicode="&#x5e4;" horiz-adv-x="641" 
d="M479.902 610c57.7461 -4.92969 99.291 -47.8018 102 -124.001l14 -394c3.53223 -79.9316 -59.6211 -107.527 -106 -111l-414.001 -31c-4.44824 52.0742 9.6084 138.571 39.0977 188l275.001 -41c36.7295 -5.33984 55.3389 15.4209 59.001 51l26 266
c4.08398 41.7852 -19.0371 61.2031 -60 61l-202 -1c-56.5 -5.0498 -45.7178 -89.0703 -10.001 -98l164.001 -41c-23 -63 -71 -109 -136.001 -140l-90 53c-59.5068 35.043 -65.2832 96.2266 -59 167l13.1396 148c4.66016 49.9082 39.7949 85.5166 96.7627 82.1387z" />
    <glyph glyph-name="afii57685" unicode="&#x5e5;" horiz-adv-x="621" 
d="M20 592c59.1523 24.6748 122.192 33.3896 183.999 30l108.013 -293c8.73828 -23.7041 24.6035 -29.3838 42.9873 -17.9277l40 24.9277c23.0283 14.3506 32.9248 41.1709 32.001 77l-5 194c46.2734 24.4482 98.3994 35.0645 158 28l-15 -238
c-4.95801 -78.666 -30.6816 -132.158 -87 -153l-88 -32.5674c-24.6602 -9.12598 -37.9834 -24.6309 -35.4082 -50.4326l39.4082 -395c-65.5469 -3.0459 -120.406 14.8232 -170 43l3 297c0.647461 64.0137 -6.34961 115.136 -29 157z" />
    <glyph glyph-name="afii57686" unicode="&#x5e6;" horiz-adv-x="706" 
d="M75 576c39.2041 32.999 127.471 60.9443 172 64.999l137 -314.5l142 313.5c64 -6 125 -30 165 -74l-209 -294l108 -80c90.1943 -66.8105 37.7461 -202.255 -47 -208l-454 -16c-12 61 -7 127 19 187l335 -46c24.1729 -3.31934 34.9785 27.7676 17 38l-94 53.5
c-54.3232 30.918 -98.709 81.5361 -142.086 147.85z" />
    <glyph glyph-name="afii57687" unicode="&#x5e7;" horiz-adv-x="671" 
d="M111 265c28 30 71 56 116 68l14.9492 -541c-45.335 -28.665 -94.666 -43.998 -148 -46zM91.9492 651l366.999 -22.998c100.001 -7.9873 161.113 -51.5537 157 -168.001l-13 -368c-11.3037 -90.4414 -48.9629 -129.817 -118 -129l-169 2
c-30.2266 41.3662 -24.7793 54.2451 -29.999 109l102 12c27.5 9.49414 52.3682 29.5166 59 60l62 285c6.63672 39.4053 -15.959 61.6689 -62 56l-336 -35c-30.9941 59.4756 -29.8799 131.53 -19 198.999z" />
    <glyph glyph-name="afii57688" unicode="&#x5e8;" horiz-adv-x="573" 
d="M39 621l278.001 15c117.424 6.33594 176.15 -60.8184 179.999 -153l21 -503c-47 -19 -104 -21 -159 -11l37 426c2.23047 31.5234 -8.46191 61.9463 -49 66l-307 28c-11 45 -9 92 -1 132z" />
    <glyph glyph-name="afii57689" unicode="&#x5e9;" horiz-adv-x="862" 
d="M593.632 177l70.3691 464c62 -2 129.825 -24.3799 158 -71l-151 -484c-19.3291 -61.9551 -52.9932 -90.1221 -121.089 -95.9238l-269 -22.9189c-60.1729 -5.12695 -86.4395 21.5469 -102.647 86.8428l-138.263 557c46.3369 22.1201 114 35 187 24l33.9268 -255.604
c9.35254 -96.332 104.892 -96.6826 100.072 7l-11 243.604c59 16 124 17 180 -1l-25 -262.604c-11.7725 -123.664 -106.466 -130.141 -184.001 -141.396c-31 -4.5 -48.4482 -23.5576 -47.5 -52c1 -30 18.916 -48.4941 43.9004 -50.6006l213.6 -18.0049
c2.35742 -0.199219 51.3672 -1.67188 62.6318 72.6055z" />
    <glyph glyph-name="afii57690" unicode="&#x5ea;" horiz-adv-x="763" 
d="M112.706 642l449.001 -25.666c79.9365 -4.56934 112.616 -47.8301 117.999 -125l33.2939 -477.333c-42.1035 -39.541 -98.6289 -53.7754 -162 -56l30.7061 467c2.53027 38.4766 -10.3838 73.7979 -45 72l-231 -12l30 -382c4.67383 -59.5088 -17.1133 -115.014 -77 -122
l-180 -21c-7.32129 57.4932 -3.52344 110.505 9 160l62.2939 -12c38.0049 -4.95703 50.8682 24.0605 51 64l7.70605 305l-107 -9c-11.0654 52.3037 -7.35059 124.361 11 173.999z" />
    <glyph glyph-name="endash" unicode="&#x2013;" horiz-adv-x="639" 
d="M143 329l436 16.999c4.33008 -61.4297 -11.6758 -119.9 -44 -175.999l-455 17c13.2676 53.3867 32.7285 101.924 63 142z" />
    <glyph glyph-name="emdash" unicode="&#x2014;" horiz-adv-x="789" 
d="M143 329l586 16.999c4.33008 -61.4297 -11.6758 -119.9 -44 -175.999l-605 17c13.2676 53.3867 32.7285 101.924 63 142z" />
    <glyph glyph-name="afii00208" unicode="&#x2015;" horiz-adv-x="939" 
d="M143 329l736 16.999c4.33008 -61.4297 -11.6758 -119.9 -44 -175.999l-755 17c13.2676 53.3867 32.7285 101.924 63 142z" />
    <glyph glyph-name="ellipsis" unicode="&#x2026;" horiz-adv-x="983" 
d="M741.048 -3.46289l3.85156 148.118c55.9971 19.5996 113.747 17.8496 168.348 -0.00195312l-0.704102 -150.848c-50.3965 -18.9004 -117.247 -16.8008 -171.495 2.73145zM400.048 -3.46289l3.85156 148.118c55.9971 19.5996 113.747 17.8496 168.348 -0.00195312
l-0.704102 -150.848c-50.3965 -18.9004 -117.247 -16.8008 -171.495 2.73145zM59.0479 -3.46289l3.85156 148.118c55.9971 19.5996 113.747 17.8496 168.348 -0.00195312l-0.704102 -150.848c-50.3965 -18.9004 -117.247 -16.8008 -171.495 2.73145z" />
  </font>
</defs>
</svg>
