<?xml version="1.0" standalone="no"?>
<!DOCTYPE svg PUBLIC "-//W3C//DTD SVG 1.1//EN" "http://www.w3.org/Graphics/SVG/1.1/DTD/svg11.dtd" >
<svg>
<metadata>
Created by FontForge 20090914 at Thu Oct 12 23:42:57 2017
 By www-data
Copyright 2011-2016 The Varela Round Project Authors (https://github.com/alefalefalef/Varela-Round-Hebrew/), with Reserved Font Names 'Varela' and &#226;&#128;&#152;Varela Round&#226;&#128;&#153;.
</metadata>
<defs>
<font id="VarelaRound-Regular" horiz-adv-x="0" >
  <font-face 
    font-family="Varela Round"
    font-weight="400"
    font-stretch="normal"
    units-per-em="1000"
    panose-1="0 0 5 0 0 0 0 0 0 0"
    ascent="800"
    descent="-200"
    x-height="510"
    cap-height="703.001"
    bbox="-385 -286 1313 1025"
    underline-thickness="50"
    underline-position="-50"
    unicode-range="U+000D-U+FB02"
  />
<missing-glyph horiz-adv-x="514" 
d="M35 15c-10 10 -15 22.333 -15 37v593c0 14.667 5 27.167 15 37.5s22.333 15.5 37 15.5h369c14.667 0 27.167 -5.16699 37.5 -15.5s15.5 -22.833 15.5 -37.5v-593c0 -14.667 -5.16699 -27 -15.5 -37s-22.833 -15 -37.5 -15h-369c-14.667 0 -27 5 -37 15zM257 397l156 251
h-313zM70 96l157 253l-157 253v-506zM444 96v506l-158 -253zM100 50h313l-156 252z" />
    <glyph glyph-name="fi" unicode="fi" horiz-adv-x="637" 
d="M130 8c-8.66699 8.66699 -12.998 19.3301 -12.998 31.9971v392h-59c-10.667 0 -19.834 3.83301 -27.501 11.5s-11.5 16.834 -11.5 27.501c0 11.333 3.83301 20.666 11.5 27.999s16.834 11 27.501 11h59v58c0 40 7.16699 72.833 21.5 98.5s33 44.334 56 56.001
s47.167 17.5 72.5 17.5c31.333 0 60.333 -6.66699 87 -20c6.66699 -3.33301 12.167 -8.16602 16.5 -14.499s6.5 -13.166 6.5 -20.499c0 -10 -3.66699 -18.833 -11 -26.5s-16 -11.5 -26 -11.5c-7.33301 0 -15 1 -23 3c-16 2 -25 3 -27 3
c-27.333 0 -47.833 -6.33301 -61.5 -19s-20.5 -35.667 -20.5 -69v-55h307c12.667 -1.33301 23 -6.16602 31 -14.499s12 -18.833 12 -31.5v-424c0 -12.667 -4.5 -23.334 -13.5 -32.001s-19.833 -13 -32.5 -13s-23.334 4.33301 -32.001 13s-13 19.334 -13 32.001v392h-259
v-392c0 -12.667 -4.5 -23.334 -13.5 -32.001s-19.833 -13 -32.5 -13s-23.334 4.33301 -32.001 13zM474.002 628.996c-10 10 -15 22 -15 36v4c0 14 5 26 15 36s22 15 36 15h6c14 0 26 -5 36 -15s15 -22 15 -36v-4c0 -14 -5 -26 -15 -36s-22 -15 -36 -15h-6
c-14 0 -26 5 -36 15z" />
    <glyph glyph-name="fl" unicode="fl" horiz-adv-x="636" 
d="M130 8c-8.66699 8.66699 -12.999 19.3311 -12.999 31.998v392h-59c-10.667 0 -19.834 3.83301 -27.501 11.5s-11.5 16.834 -11.5 27.501c0 11.333 3.83301 20.666 11.5 27.999s16.834 11 27.501 11h59v58c0 40 7.16699 72.833 21.5 98.5s33 44.334 56 56.001
s47.167 17.5 72.5 17.5c31.333 0 60.333 -6.66699 87 -20c6.66699 -3.33301 12.167 -8.16602 16.5 -14.499s6.5 -13.166 6.5 -20.499c0 -10 -3.66699 -18.833 -11 -26.5s-16 -11.5 -26 -11.5c-7.33301 0 -15 1 -23 3c-16 2 -25 3 -27 3
c-27.333 0 -47.833 -6.33301 -61.5 -19s-20.5 -35.667 -20.5 -69v-55h125c11.333 0 20.666 -3.66699 27.999 -11s11 -16.666 11 -27.999c0 -10.667 -3.66699 -19.834 -11 -27.501s-16.666 -11.5 -27.999 -11.5h-125v-392c0 -12.667 -4.5 -23.334 -13.5 -32.001
s-19.833 -13 -32.5 -13s-23.334 4.33301 -32.001 13zM479.001 7.99707c-8.66699 8.66699 -13 19.334 -13 32.001v649c0 12.667 4.33301 23.5 13 32.5s19.334 13.5 32.001 13.5c13.333 0 24.333 -4.33301 33 -13s13 -19.667 13 -33v-649
c0 -12.667 -4.5 -23.334 -13.5 -32.001s-19.833 -13 -32.5 -13s-23.334 4.33301 -32.001 13z" />
    <glyph glyph-name="f_f" unicode="ff" horiz-adv-x="774" 
d="M130 8c-8.66699 8.66699 -12.998 19.3281 -12.998 31.9951v392h-59c-10.667 0 -19.834 3.83301 -27.501 11.5s-11.5 16.834 -11.5 27.501c0 11.333 3.83301 20.666 11.5 27.999s16.834 11 27.501 11h59v58c0 40 7.16699 72.833 21.5 98.5s33 44.334 56 56.001
s47.167 17.5 72.5 17.5c31.333 0 60.333 -6.66699 87 -20c6.66699 -3.33301 12.167 -8.16602 16.5 -14.499s6.5 -13.166 6.5 -20.499c0 -10 -3.66699 -18.833 -11 -26.5s-16 -11.5 -26 -11.5c-7.33301 0 -15 1 -23 3c-16 2 -25 3 -27 3
c-27.333 0 -47.833 -6.33301 -61.5 -19s-20.5 -35.667 -20.5 -69v-55h303v58c0 40 7.16699 72.833 21.5 98.5s33 44.334 56 56.001s47.167 17.5 72.5 17.5c31.333 0 60.333 -6.66699 87 -20c6.66699 -3.33301 12.167 -8.16602 16.5 -14.499s6.5 -13.166 6.5 -20.499
c0 -10 -3.66699 -18.833 -11 -26.5s-16 -11.5 -26 -11.5c-7.33301 0 -15 1 -23 3c-16 2 -25 3 -27 3c-27.333 0 -47.833 -6.33301 -61.5 -19s-20.5 -35.667 -20.5 -69v-55h125c11.333 0 20.666 -3.66699 27.999 -11s11 -16.666 11 -27.999
c0 -10.667 -3.66699 -19.834 -11 -27.501s-16.666 -11.5 -27.999 -11.5h-125v-392c0 -12.667 -4.5 -23.334 -13.5 -32.001s-19.833 -13 -32.5 -13s-23.334 4.33301 -32.001 13s-13 19.334 -13 32.001v392h-303v-392c0 -12.667 -4.5 -23.334 -13.5 -32.001
s-19.833 -13 -32.5 -13s-23.334 4.33301 -32.001 13z" />
    <glyph glyph-name="f_f_i" unicode="ffi" horiz-adv-x="1031" 
d="M130 8c-8.66699 8.66699 -12.9971 19.3281 -12.9971 31.9951v392h-59c-10.667 0 -19.834 3.83301 -27.501 11.5s-11.5 16.834 -11.5 27.501c0 11.333 3.83301 20.666 11.5 27.999s16.834 11 27.501 11h59v58c0 40 7.16699 72.833 21.5 98.5s33 44.334 56 56.001
s47.167 17.5 72.5 17.5c31.333 0 60.333 -6.66699 87 -20c6.66699 -3.33301 12.167 -8.16602 16.5 -14.499s6.5 -13.166 6.5 -20.499c0 -10 -3.66699 -18.833 -11 -26.5s-16 -11.5 -26 -11.5c-7.33301 0 -15 1 -23 3c-16 2 -25 3 -27 3
c-27.333 0 -47.833 -6.33301 -61.5 -19s-20.5 -35.667 -20.5 -69v-55h303v58c0 40 7.16699 72.833 21.5 98.5s33 44.334 56 56.001s47.167 17.5 72.5 17.5c31.333 0 60.333 -6.66699 87 -20c6.66699 -3.33301 12.167 -8.16602 16.5 -14.499s6.5 -13.166 6.5 -20.499
c0 -10 -3.66699 -18.833 -11 -26.5s-16 -11.5 -26 -11.5c-7.33301 0 -15 1 -23 3c-16 2 -25 3 -27 3c-27.333 0 -47.833 -6.33301 -61.5 -19s-20.5 -35.667 -20.5 -69v-55h304c13.333 0 24.333 -4.33301 33 -13s13 -19.667 13 -33v-424
c0 -12.667 -4.5 -23.334 -13.5 -32.001s-19.833 -13 -32.5 -13s-23.334 4.33301 -32.001 13s-13 19.334 -13 32.001v392h-259v-392c0 -12.667 -4.5 -23.334 -13.5 -32.001s-19.833 -13 -32.5 -13s-23.334 4.33301 -32.001 13s-13 19.334 -13 32.001v392h-303v-392
c0 -12.667 -4.5 -23.334 -13.5 -32.001s-19.833 -13 -32.5 -13s-23.334 4.33301 -32.001 13zM868.003 628.994c-10 10 -15 22 -15 36v4c0 14 5 26 15 36s22 15 36 15h6c14 0 26 -5 36 -15s15 -22 15 -36v-4c0 -14 -5 -26 -15 -36s-22 -15 -36 -15h-6c-14 0 -26 5 -36 15z
" />
    <glyph glyph-name="f_f_l" unicode="ffl" horiz-adv-x="1030" 
d="M130 8c-8.66699 8.66699 -12.998 19.3281 -12.998 31.9951v392h-59c-10.667 0 -19.834 3.83301 -27.501 11.5s-11.5 16.834 -11.5 27.501c0 11.333 3.83301 20.666 11.5 27.999s16.834 11 27.501 11h59v58c0 40 7.16699 72.833 21.5 98.5s33 44.334 56 56.001
s47.167 17.5 72.5 17.5c31.333 0 60.333 -6.66699 87 -20c6.66699 -3.33301 12.167 -8.16602 16.5 -14.499s6.5 -13.166 6.5 -20.499c0 -10 -3.66699 -18.833 -11 -26.5s-16 -11.5 -26 -11.5c-7.33301 0 -15 1 -23 3c-16 2 -25 3 -27 3
c-27.333 0 -47.833 -6.33301 -61.5 -19s-20.5 -35.667 -20.5 -69v-55h303v58c0 40 7.16699 72.833 21.5 98.5s33 44.334 56 56.001s47.167 17.5 72.5 17.5c31.333 0 60.333 -6.66699 87 -20c6.66699 -3.33301 12.167 -8.16602 16.5 -14.499s6.5 -13.166 6.5 -20.499
c0 -10 -3.66699 -18.833 -11 -26.5s-16 -11.5 -26 -11.5c-7.33301 0 -15 1 -23 3c-16 2 -25 3 -27 3c-27.333 0 -47.833 -6.33301 -61.5 -19s-20.5 -35.667 -20.5 -69v-55h125c11.333 0 20.666 -3.66699 27.999 -11s11 -16.666 11 -27.999
c0 -10.667 -3.66699 -19.834 -11 -27.501s-16.666 -11.5 -27.999 -11.5h-125v-392c0 -12.667 -4.5 -23.334 -13.5 -32.001s-19.833 -13 -32.5 -13s-23.334 4.33301 -32.001 13s-13 19.334 -13 32.001v392h-303v-392c0 -12.667 -4.5 -23.334 -13.5 -32.001
s-19.833 -13 -32.5 -13s-23.334 4.33301 -32.001 13zM873.002 7.99414c-8.66699 8.66699 -13 19.334 -13 32.001v649c0 12.667 4.33301 23.5 13 32.5s19.334 13.5 32.001 13.5c13.333 0 24.333 -4.33301 33 -13s13 -19.667 13 -33v-649
c0 -12.667 -4.5 -23.334 -13.5 -32.001s-19.833 -13 -32.5 -13s-23.334 4.33301 -32.001 13z" />
    <glyph glyph-name="f_j" unicode="fj" horiz-adv-x="637" 
d="M364 -231c-8 2.66699 -14.332 7.16309 -18.999 13.4961s-7 13.833 -7 22.5c0 10 3.66699 18.833 11 26.5s16.333 11.5 27 11.5c4 0 9 -0.5 15 -1.5s11 -1.5 15 -1.5c20.667 0 36 3.66699 46 11s15 23.333 15 48v533h-259v-392c0 -12.667 -4.5 -23.334 -13.5 -32.001
s-19.833 -13 -32.5 -13s-23.334 4.33301 -32.001 13s-13 19.334 -13 32.001v392h-59c-10.667 0 -19.834 3.83301 -27.501 11.5s-11.5 16.834 -11.5 27.501c0 11.333 3.83301 20.666 11.5 27.999s16.834 11 27.501 11h59v58c0 40 7.16699 72.833 21.5 98.5
s33 44.334 56 56.001s47.167 17.5 72.5 17.5c31.333 0 60.333 -6.66699 87 -20c6.66699 -3.33301 12.167 -8.16602 16.5 -14.499s6.5 -13.166 6.5 -20.499c0 -10 -3.66699 -18.833 -11 -26.5s-16 -11.5 -26 -11.5c-7.33301 0 -15 1 -23 3c-16 2 -25 3 -27 3
c-27.333 0 -47.833 -6.33301 -61.5 -19s-20.5 -35.667 -20.5 -69v-55h307c12.667 -1.33301 23 -6.16602 31 -14.499s12 -18.833 12 -31.5v-567c0 -41.333 -10.5 -74.5 -31.5 -99.5s-54.167 -37.5 -99.5 -37.5c-24 0 -45 3 -63 9zM474.001 628.996c-10 10 -15 22 -15 36v4
c0 14 5 26 15 36s22 15 36 15h6c14 0 26 -5 36 -15s15 -22 15 -36v-4c0 -14 -5 -26 -15 -36s-22 -15 -36 -15h-6c-14 0 -26 5 -36 15z" />
    <glyph glyph-name=".notdef" horiz-adv-x="514" 
d="M35 15c-10 10 -15 22.333 -15 37v593c0 14.667 5 27.167 15 37.5s22.333 15.5 37 15.5h369c14.667 0 27.167 -5.16699 37.5 -15.5s15.5 -22.833 15.5 -37.5v-593c0 -14.667 -5.16699 -27 -15.5 -37s-22.833 -15 -37.5 -15h-369c-14.667 0 -27 5 -37 15zM257 397l156 251
h-313zM70 96l157 253l-157 253v-506zM444 96v506l-158 -253zM100 50h313l-156 252z" />
    <glyph glyph-name="NULL" 
 />
    <glyph glyph-name="NULL" 
 />
    <glyph glyph-name="nonmarkingreturn" unicode="&#xd;" horiz-adv-x="260" 
 />
    <glyph glyph-name="space" unicode=" " horiz-adv-x="260" 
 />
    <glyph glyph-name="exclam" unicode="!" horiz-adv-x="281" 
d="M117 201c-6 5.33301 -9.33301 12.333 -10 21l-18 330v99c0 14.667 5 27 15 37s22.333 15 37 15s26.834 -5 36.501 -15s14.5 -22.333 14.5 -37v-99l-18 -330c-0.666992 -8.66699 -3.83398 -15.667 -9.50098 -21s-13.5 -8 -23.5 -8s-18 2.66699 -24 8zM99.5 13.5
c-11.667 11.667 -17.5 25.834 -17.5 42.501c0 16 5.83301 29.833 17.5 41.5s25.5 17.5 41.5 17.5c16.667 0 30.834 -5.83301 42.501 -17.5s17.5 -25.5 17.5 -41.5c0 -16.667 -5.83301 -30.834 -17.5 -42.501s-25.834 -17.5 -42.501 -17.5c-16 0 -29.833 5.83301 -41.5 17.5z
" />
    <glyph glyph-name="quotedbl" unicode="&#x22;" horiz-adv-x="411" 
d="M92 499c-5.33301 4.66699 -8.66992 10.667 -10.0029 18c-5.33301 27.333 -10.333 57.833 -15 91.5s-7 63.167 -7 88.5c0 14 5 25.833 15 35.5s22 14.5 36 14.5s26 -4.83301 36 -14.5s15 -21.5 15 -35.5c0 -25.333 -2.33301 -54.833 -7 -88.5s-9.66699 -64.167 -15 -91.5
c-1.33301 -7.33301 -4.66602 -13.333 -9.99902 -18s-11.666 -7 -18.999 -7s-13.666 2.33301 -18.999 7zM280.996 499c-5.33301 4.66699 -8.66992 10.667 -10.0029 18c-16.667 81.333 -24 141.333 -22 180c0.666992 14 6 25.833 16 35.5s21.667 14.5 35 14.5
c14 0 26 -4.83301 36 -14.5s15 -21.5 15 -35.5c0 -25.333 -2.33301 -54.833 -7 -88.5s-9.66699 -64.167 -15 -91.5c-1.33301 -7.33301 -4.66602 -13.333 -9.99902 -18s-11.666 -7 -18.999 -7s-13.666 2.33301 -18.999 7z" />
    <glyph glyph-name="numbersign" unicode="#" horiz-adv-x="612" 
d="M134.5 5c-7 6.66699 -10.4941 14.998 -10.4941 24.998c0 2.66699 8 53.334 24 152.001h-77c-9.33301 0 -17.5 3.5 -24.5 10.5s-10.5 15.167 -10.5 24.5s3.5 17.5 10.5 24.5s15.167 10.5 24.5 10.5h88l24 152h-77c-9.33301 0 -17.5 3.5 -24.5 10.5
s-10.5 15.167 -10.5 24.5s3.5 17.5 10.5 24.5s15.167 10.5 24.5 10.5h88l25 158c1.33301 8 5.16602 14.667 11.499 20s14.166 8 23.499 8c10.667 0 19.167 -3.33301 25.5 -10s9.5 -15 9.5 -25c0 -4.66699 -8 -55 -24 -151h127l25 158c1.33301 8 5.16602 14.667 11.499 20
s14.166 8 23.499 8c10.667 0 19.167 -3.33301 25.5 -10s9.5 -15 9.5 -25c0 -4.66699 -8 -55 -24 -151h77c9.33301 0 17.5 -3.5 24.5 -10.5s10.5 -15.167 10.5 -24.5s-3.5 -17.5 -10.5 -24.5s-15.167 -10.5 -24.5 -10.5h-88l-24 -152h77c9.33301 0 17.5 -3.5 24.5 -10.5
s10.5 -15.167 10.5 -24.5s-3.5 -17.5 -10.5 -24.5s-15.167 -10.5 -24.5 -10.5h-88l-25 -158c-1.33301 -8 -5.33301 -14.833 -12 -20.5s-14.334 -8.5 -23.001 -8.5c-9.33301 0 -17.5 3.33301 -24.5 10s-10.5 15 -10.5 25c0 2.66699 8 53.334 24 152.001h-127l-25 -158
c-1.33301 -8 -5.33301 -14.833 -12 -20.5s-14.334 -8.5 -23.001 -8.5c-9.33301 0 -17.5 3.33301 -24.5 10zM230.006 251.998h127l24 152h-127z" />
    <glyph glyph-name="dollar" unicode="$" horiz-adv-x="616" 
d="M544.5 89c-19 -28.667 -46 -51.5 -81 -68.5s-75.5 -26.833 -121.5 -29.5v-71c0 -8.66699 -2.83301 -15.834 -8.5 -21.501s-13.167 -8.5 -22.5 -8.5c-8.66699 0 -15.834 2.66699 -21.501 8s-8.5 12.666 -8.5 21.999v71c-72 4.66699 -139.333 20.334 -202 47.001
c-8 3.33301 -14.667 8.83301 -20 16.5s-8 15.834 -8 24.501c0 11.333 3.83301 21.166 11.5 29.499s17.5 12.5 29.5 12.5c6.66699 0 13 -1.33301 19 -4c54 -24 110.667 -37.333 170 -40v230c-45.333 12 -83.5 25 -114.5 39s-56.833 33.833 -77.5 59.5s-31 58.167 -31 97.5
c0 34.667 8.5 66.667 25.5 96s42.333 53.666 76 72.999s74.167 31 121.5 35v70c0 8.66699 2.83301 16 8.5 22s12.834 9 21.501 9s16 -3 22 -9s9 -13.333 9 -22v-69c65.333 -2.66699 123.333 -13.667 174 -33c18.667 -6.66699 28 -20 28 -40
c0 -10.667 -3.66699 -20.334 -11 -29.001s-17 -13 -29 -13c-4 0 -9.33301 1.33301 -16 4c-45.333 16 -94 25 -146 27v-238c48 -11.333 87.833 -23.666 119.5 -36.999s58.167 -33.166 79.5 -59.499s32 -61.166 32 -104.499c0 -35.333 -9.5 -67.333 -28.5 -96zM182.5 442
c22.333 -16 55.167 -29.667 98.5 -41v220c-40 -5.33301 -72 -17.5 -96 -36.5s-36 -43.833 -36 -74.5c0 -29.333 11.167 -52 33.5 -68zM483.001 191c0 26 -11.832 46.167 -35.499 60.5s-58.834 27.833 -105.501 40.5v-215c94 6.66699 141 44.667 141 114z" />
    <glyph glyph-name="percent" unicode="%" horiz-adv-x="814" 
d="M85 407.5c-28 33.667 -42 76.5 -42 128.5s14 94.833 42 128.5s67.667 50.5 119 50.5s91 -16.833 119 -50.5s42 -76.5 42 -128.5s-14 -94.833 -42 -128.5s-67.667 -50.5 -119 -50.5s-91 16.833 -119 50.5zM181 -0.5c-6.66699 6.33301 -10 14.1641 -10 23.4971
c0 6 1.66699 11.667 5 17l407 651c6.66699 10.667 16 16 28 16c10 0 18.167 -2.66699 24.5 -8s9.5 -12.666 9.5 -21.999c0 -7.33301 -2.33301 -14.666 -7 -21.999l-404 -647c-3.33301 -5.33301 -7.66602 -9.66602 -12.999 -12.999s-11 -5 -17 -5
c-8.66699 0 -16.334 3.16699 -23.001 9.5zM271 453.998c16 21.333 24 48.666 24 81.999s-8 60.666 -24 81.999s-38.333 32 -67 32s-51 -10.667 -67 -32s-24 -48.666 -24 -81.999s8 -60.666 24 -81.999s38.333 -32 67 -32s51 10.667 67 32zM491 32.498
c-28 33.667 -42 76.5 -42 128.5s14 94.833 42 128.5s67.667 50.5 119 50.5s91 -16.833 119 -50.5s42 -76.5 42 -128.5s-14 -94.833 -42 -128.5s-67.667 -50.5 -119 -50.5s-91 16.833 -119 50.5zM677 78.998c16 21.333 24 48.666 24 81.999s-8 60.666 -24 81.999
s-38.333 32 -67 32s-51 -10.667 -67 -32s-24 -48.666 -24 -81.999s8 -60.666 24 -81.999s38.333 -32 67 -32s51 10.667 67 32z" />
    <glyph glyph-name="ampersand" unicode="&#x26;" horiz-adv-x="732" 
d="M177 19.5c-36.667 19.667 -63.5 45.1719 -80.5 76.5049s-25.5 64.666 -25.5 99.999c0 45.333 11.833 84.166 35.5 116.499s49.5 57.5 77.5 75.5c-20 24 -35.167 47 -45.5 69s-15.5 47.333 -15.5 76c0 32 7.5 61.333 22.5 88s36.667 47.834 65 63.501s61.5 23.5 99.5 23.5
c44.667 0 89 -14.667 133 -44c4.66699 -2.66699 8.83398 -6.83398 12.501 -12.501s5.5 -11.5 5.5 -17.5c0 -9.33301 -3.33301 -17.5 -10 -24.5s-15 -10.5 -25 -10.5c-5.33301 0 -11.333 1.66699 -18 5c-32 17.333 -63.333 26 -94 26c-33.333 0 -59.5 -9.16699 -78.5 -27.5
s-28.5 -39.833 -28.5 -64.5c0 -19.333 3.16699 -36.333 9.5 -51s15.833 -29 28.5 -43s33.334 -34.333 62.001 -61l209 -197c9.33301 13.333 20.333 33.666 33 60.999c3.33301 7.33301 8.5 13.333 15.5 18s14.833 7 23.5 7c12 0 22 -3.83301 30 -11.5s12 -17.5 12 -29.5
c0 -6.66699 -1.66699 -13.334 -5 -20.001c-13.333 -28.667 -29.333 -56 -48 -82l67 -64c5.33301 -4.66699 9.33301 -9.33398 12 -14.001s4 -10.667 4 -18c0 -11.333 -3.66699 -21 -11 -29s-17.333 -12 -30 -12c-12 0 -22.333 4 -31 12l-67 64
c-28.667 -24 -60.334 -43 -95.001 -57s-71.334 -21 -110.001 -21c-56 0 -102.333 9.83301 -139 29.5zM462 123.005l-223 209c-22.667 -14.667 -42 -33.667 -58 -57s-24 -50.666 -24 -81.999c0 -36.667 14.5 -66.834 43.5 -90.501s64.833 -35.5 107.5 -35.5
c56.667 0 108 18.667 154 56z" />
    <glyph glyph-name="quotesingle" unicode="'" horiz-adv-x="222" 
d="M92 499c-5.33301 4.66699 -8.66992 10.667 -10.0029 18c-5.33301 27.333 -10.333 57.833 -15 91.5s-7 63.167 -7 88.5c0 14 5 25.833 15 35.5s22 14.5 36 14.5s26 -4.83301 36 -14.5s15 -21.5 15 -35.5c0 -25.333 -2.33301 -54.833 -7 -88.5s-9.66699 -64.167 -15 -91.5
c-1.33301 -7.33301 -4.66602 -13.333 -9.99902 -18s-11.666 -7 -18.999 -7s-13.666 2.33301 -18.999 7z" />
    <glyph glyph-name="parenleft" unicode="(" horiz-adv-x="312" 
d="M206.5 -150c-4.33301 2.66699 -9.16602 7.33203 -14.499 13.999c-46.667 55.333 -81.834 121.5 -105.501 198.5s-35.5 158.5 -35.5 244.5s11.833 167.5 35.5 244.5s58.834 143.167 105.501 198.5c5.33301 6.66699 10.166 11.334 14.499 14.001s10.5 4 18.5 4
c10.667 0 20 -3.66699 28 -11s12 -16.666 12 -27.999c0 -7.33301 -2 -14.666 -6 -21.999c-36.667 -60.667 -65.334 -124.834 -86.001 -192.501s-31 -136.834 -31 -207.501s10.333 -139.834 31 -207.501s49.334 -131.834 86.001 -192.501c4 -7.33301 6 -14.666 6 -21.999
c0 -11.333 -4 -20.666 -12 -27.999s-17.333 -11 -28 -11c-8 0 -14.167 1.33301 -18.5 4z" />
    <glyph glyph-name="parenright" unicode=")" horiz-adv-x="312" 
d="M60 -143c-8 7.33301 -12 16.668 -12 28.001c0 7.33301 2 14.666 6 21.999c36.667 60.667 65.334 124.834 86.001 192.501s31 136.834 31 207.501s-10.333 139.834 -31 207.501s-49.334 131.834 -86.001 192.501c-4 7.33301 -6 14.666 -6 21.999
c0 11.333 4 20.666 12 27.999s17.333 11 28 11c8 0 14.167 -1.33301 18.5 -4s9.16602 -7.33398 14.499 -14.001c46.667 -55.333 81.834 -121.5 105.501 -198.5s35.5 -158.5 35.5 -244.5s-11.833 -167.5 -35.5 -244.5s-58.834 -143.167 -105.501 -198.5
c-5.33301 -6.66699 -10.166 -11.334 -14.499 -14.001s-10.5 -4 -18.5 -4c-10.667 0 -20 3.66699 -28 11z" />
    <glyph glyph-name="asterisk" unicode="*" horiz-adv-x="417" 
d="M187 392.5c-6 5.66699 -9.00293 12.5 -9.00293 20.5c0 2.66699 5.33301 38 16 106c-53.333 -43.333 -81.333 -65.666 -84 -66.999c-4 -2 -8.33301 -3 -13 -3c-11.333 0 -20.333 5 -27 15c-2.66699 4.66699 -4 10 -4 16c0 11.333 4.66699 19.333 14 24l100 39l-100 39
c-9.33301 5.33301 -14 13.666 -14 24.999c0 6 1.33301 11.333 4 16c6.66699 10 15.334 15 26.001 15c4.66699 0 9.33398 -1.33301 14.001 -4c2.66699 -1.33301 30.667 -23.666 84 -66.999c-10.667 68 -16 103.333 -16 106c0 8 3 14.833 9 20.5s13 8.5 21 8.5
s15 -2.83301 21 -8.5s9 -12.5 9 -20.5c0 -2.66699 -5.33301 -38 -16 -106c53.333 43.333 81.333 65.666 84 66.999c3.33301 2.66699 8 4 14 4c10.667 0 19.334 -5 26.001 -15c2.66699 -5.33301 4 -10.333 4 -15c0 -11.333 -4.66699 -20 -14 -26l-100 -39l100 -39
c9.33301 -5.33301 14 -13.666 14 -24.999c0 -4.66699 -1.33301 -9.66699 -4 -15c-6.66699 -10 -15.667 -15 -27 -15c-4.66699 0 -9 1 -13 3c-2.66699 1.33301 -30.667 23.666 -84 66.999c10.667 -68 16 -103.333 16 -106c0 -8 -3 -14.833 -9 -20.5s-13 -8.5 -21 -8.5
s-15 2.83301 -21 8.5z" />
    <glyph glyph-name="plus" unicode="+" horiz-adv-x="562" 
d="M253.5 115.5c-7.66699 7.66699 -11.5 16.834 -11.5 27.501v164h-164c-10.667 0 -19.667 3.66699 -27 11s-11 16.333 -11 27c0 11.333 3.66699 20.666 11 27.999s16.333 11 27 11h164v164c0 11.333 3.83301 20.666 11.5 27.999s16.834 11 27.501 11
c11.333 0 20.666 -3.66699 27.999 -11s11 -16.666 11 -27.999v-164h163c11.333 0 20.666 -3.66699 27.999 -11s11 -16.666 11 -27.999c0 -10.667 -3.66699 -19.667 -11 -27s-16.666 -11 -27.999 -11h-163v-164c0 -10.667 -3.66699 -19.834 -11 -27.501
s-16.666 -11.5 -27.999 -11.5c-10.667 0 -19.834 3.83301 -27.501 11.5z" />
    <glyph glyph-name="comma" unicode="," horiz-adv-x="260" 
d="M71.5 -142c-5.66699 6 -8.50098 13.001 -8.50098 21.001c0 10.667 5 19 15 25c16.667 10 29.334 21.667 38.001 35s13 32.666 13 57.999h-4c-15.333 0 -28.5 5.5 -39.5 16.5s-16.5 24.167 -16.5 39.5v6c0 15.333 5.5 28.5 16.5 39.5s24.167 16.5 39.5 16.5h10
c15.333 0 28.5 -5.5 39.5 -16.5s16.5 -24.167 16.5 -39.5v-59c0 -64 -27.333 -112.667 -82 -146c-5.33301 -3.33301 -11 -5 -17 -5c-8 0 -14.833 3 -20.5 9z" />
    <glyph glyph-name="hyphen" unicode="-" horiz-adv-x="408" 
d="M80.5 251.5c-7.66699 7.66699 -11.5 17.167 -11.5 28.5s3.83301 21 11.5 29s17.167 12 28.5 12h189c11.333 0 21 -4 29 -12s12 -17.667 12 -29s-4 -20.833 -12 -28.5s-17.667 -11.5 -29 -11.5h-189c-11.333 0 -20.833 3.83301 -28.5 11.5z" />
    <glyph glyph-name="period" unicode="." horiz-adv-x="260" 
d="M85.5 13.5c-11 11 -16.5 24.167 -16.5 39.5v6c0 15.333 5.5 28.5 16.5 39.5s24.167 16.5 39.5 16.5h10c15.333 0 28.5 -5.5 39.5 -16.5s16.5 -24.167 16.5 -39.5v-6c0 -15.333 -5.5 -28.5 -16.5 -39.5s-24.167 -16.5 -39.5 -16.5h-10c-15.333 0 -28.5 5.5 -39.5 16.5z
" />
    <glyph glyph-name="slash" unicode="/" horiz-adv-x="443" 
d="M59.5 -83c-7.66699 8 -11.5 17.667 -11.5 29c0 4 1 9 3 15l265 775c2.66699 8 7.33398 14.667 14.001 20s15 8 25 8c12 0 21.833 -4 29.5 -12s11.5 -17.667 11.5 -29c0 -4 -1 -9 -3 -15l-265 -775c-2.66699 -8 -7.33398 -14.667 -14.001 -20s-15 -8 -25 -8
c-12 0 -21.833 4 -29.5 12z" />
    <glyph glyph-name="zero" unicode="0" horiz-adv-x="628" 
d="M112.5 87c-46.333 64.667 -69.5 152 -69.5 262s23.167 197.333 69.5 262s113.5 97 201.5 97c87.333 0 154.333 -32.333 201 -97s70 -152 70 -262s-23.333 -197.333 -70 -262s-113.667 -97 -201 -97c-88 0 -155.167 32.333 -201.5 97zM447.5 147
c31 48.667 46.5 116 46.5 202c0 85.333 -15.5 152.333 -46.5 201s-75.5 73 -133.5 73s-102.5 -24.333 -133.5 -73s-46.5 -115.667 -46.5 -201c0 -86 15.5 -153.333 46.5 -202s75.5 -73 133.5 -73s102.5 24.333 133.5 73z" />
    <glyph glyph-name="one" unicode="1" horiz-adv-x="628" 
d="M147 12c-8 8 -11.998 17.998 -11.998 29.998s4 22.167 12 30.5s18 12.5 30 12.5h119v507l-102 -50c-9.33301 -4 -17 -6 -23 -6c-12.667 0 -23 4 -31 12s-12 18.333 -12 31c0 18.667 8.66699 32.334 26 41.001l136 71c9.33301 4.66699 18.666 7 27.999 7h21
c13.333 0 24.666 -4.66699 33.999 -14s14 -20.666 14 -33.999v-565h99c12 0 22.167 -4.16699 30.5 -12.5s12.5 -18.5 12.5 -30.5s-4.16699 -22 -12.5 -30s-18.5 -12 -30.5 -12h-309c-12 0 -22 4 -30 12z" />
    <glyph glyph-name="two" unicode="2" horiz-adv-x="628" 
d="M80 14.5c-10 9.66699 -14.999 22.168 -14.999 37.501c0 34.667 10.167 66.667 30.5 96s45 55.166 74 77.499s67.167 48.833 114.5 79.5c40.667 26 73 48 97 66s44 37.667 60 59s24 44 24 68c0 38 -12.5 68.167 -37.5 90.5s-65.167 33.5 -120.5 33.5
c-60 0 -117 -12 -171 -36c-6.66699 -3.33301 -13 -5 -19 -5c-10.667 0 -19.667 3.66699 -27 11s-11 16.666 -11 27.999c0 16.667 7.33301 29 22 37c68 34 142 51 222 51c42.667 0 81.5 -8.5 116.5 -25.5s62.667 -40.833 83 -71.5s30.5 -66 30.5 -106
c0 -39.333 -11.5 -75.833 -34.5 -109.5s-50.5 -63.167 -82.5 -88.5s-73.667 -54.666 -125 -87.999c-46.667 -31.333 -81.834 -56.5 -105.501 -75.5s-40.167 -38.5 -49.5 -58.5h348c12 0 22.167 -4.16699 30.5 -12.5s12.5 -18.5 12.5 -30.5s-4.16699 -22 -12.5 -30
s-18.5 -12 -30.5 -12h-386c-15.333 -0 -28 4.83301 -38 14.5z" />
    <glyph glyph-name="three" unicode="3" horiz-adv-x="628" 
d="M85 30c-8 3.33301 -14.333 8.17285 -19 14.5059s-7 14.166 -7 23.499c0 11.333 3.83301 21.166 11.5 29.499s17.167 12.5 28.5 12.5c6 0 12.333 -1.33301 19 -4c48 -19.333 101 -29 159 -29c52 0 95.833 8.5 131.5 25.5s53.5 45.5 53.5 85.5c0 84 -73.667 126 -221 126
h-16c-11.333 0 -21.166 4.16699 -29.499 12.5s-12.5 18.166 -12.5 29.499s4.16699 21.166 12.5 29.499s18.166 12.5 29.499 12.5h6c66.667 0 117.667 10.167 153 30.5s53 50.5 53 90.5c0 32 -13.333 57.333 -40 76s-66 28 -118 28c-56 0 -107.667 -11 -155 -33
c-6.66699 -2.66699 -12.667 -4 -18 -4c-10 0 -18.667 3.5 -26 10.5s-11 15.833 -11 26.5c0 15.333 6.66699 26.666 20 33.999c64 34 130 51 198 51c76.667 0 136 -15.667 178 -47s63 -75.666 63 -132.999c0 -46 -11.5 -82.167 -34.5 -108.5s-51.833 -45.833 -86.5 -58.5
c38 -8.66699 71.833 -26.834 101.5 -54.501s44.5 -68.834 44.5 -123.501c0 -61.333 -24.167 -108.833 -72.5 -142.5s-110.5 -50.5 -186.5 -50.5c-74 0 -143.667 13.333 -209 40z" />
    <glyph glyph-name="four" unicode="4" horiz-adv-x="628" 
d="M401 8c-8.66699 8.66699 -12.999 19.335 -12.999 32.002v136h-305c-16 0 -29.667 5.5 -41 16.5s-17 24.5 -17 40.5v9c0 14 4 26 12 36l314 401c5.33301 7.33301 12.5 13.166 21.5 17.499s18.5 6.5 28.5 6.5h20c17.333 0 31.333 -5.5 42 -16.5s16 -24.833 16 -41.5v-388
h76c11.333 0 21 -4 29 -12s12 -17.667 12 -29s-4 -20.833 -12 -28.5s-17.667 -11.5 -29 -11.5h-76v-136c0 -12.667 -4.5 -23.334 -13.5 -32.001s-19.833 -13 -32.5 -13s-23.334 4.33301 -32.001 13zM122.001 257.001h266v343z" />
    <glyph glyph-name="five" unicode="5" horiz-adv-x="628" 
d="M84 48c-6.66699 4.66699 -11.668 9.50195 -15.001 14.502s-5 12.167 -5 21.5c0 12 3.66699 22.167 11 30.5s17 12.5 29 12.5c7.33301 0 14.333 -1.66699 21 -5c52.667 -28 106 -42 160 -42c63.333 0 111.666 10.667 144.999 32s50 57.666 50 108.999
c0 41.333 -13.833 74 -41.5 98s-65.5 36 -113.5 36c-55.333 0 -106.666 -14.333 -153.999 -43c-1.33301 -0.666992 -5.16602 -2.83398 -11.499 -6.50098s-14.166 -5.5 -23.499 -5.5c-18.667 0 -34.334 5.33301 -47.001 16s-19 24.667 -19 42c0 8 0.666992 16 2 24l45 266
c2 15.333 7.83301 27.5 17.5 36.5s21.5 13.5 35.5 13.5h321c12 0 22.167 -4.16699 30.5 -12.5s12.5 -18.5 12.5 -30.5s-4.16699 -22 -12.5 -30s-18.5 -12 -30.5 -12h-290l-32 -212c50.667 27.333 107 41 169 41c49.333 0 91.5 -9.66699 126.5 -29s61.5 -46 79.5 -80
s27 -73 27 -117c0 -67.333 -23 -121.833 -69 -163.5s-114.333 -62.5 -205 -62.5c-81.333 0 -152.333 19.333 -213 58z" />
    <glyph glyph-name="six" unicode="6" horiz-adv-x="628" 
d="M59 348c0 58 9.50098 114.331 28.501 168.998s50.167 100.167 93.5 136.5s99.333 54.5 168 54.5c37.333 0 70 -4 98 -12s54.333 -18.333 79 -31c6 -3.33301 11 -8.33301 15 -15s6 -13.667 6 -21c0 -10.667 -3.83301 -20.167 -11.5 -28.5s-17.5 -12.5 -29.5 -12.5
c-6 0 -11.667 1 -17 3c-41.333 19.333 -85.666 29 -132.999 29c-75.333 0 -128.333 -26.333 -159 -79s-47.667 -111.667 -51 -177c20 25.333 46.667 46.333 80 63s75 25 125 25c45.333 0 85.166 -9.66699 119.499 -29s61.166 -46.666 80.499 -81.999s29 -76.666 29 -123.999
c0 -42 -10 -80.333 -30 -115s-48.667 -62 -86 -82s-81 -30 -131 -30c-182.667 0 -274 119.333 -274 358zM415.501 94.498c23.667 13 41.832 30.501 54.499 52.501s19 46 19 72c0 45.333 -12.667 81.666 -38 108.999s-62.333 41 -111 41
c-86.667 0 -149.667 -36.667 -189 -110c18 -122.667 79 -184 183 -184c30.667 0 57.834 6.5 81.501 19.5z" />
    <glyph glyph-name="seven" unicode="7" horiz-adv-x="628" 
d="M198 8c-8.66699 8.66699 -12.999 19.334 -12.999 32.001c0 8 2 16 6 24l275 547h-363c-12 0 -22.167 4.16699 -30.5 12.5s-12.5 18.5 -12.5 30.5s4.16699 22.333 12.5 31s18.5 13 30.5 13h408c16 0 29.333 -5 40 -15s16 -22.667 16 -38
c0 -14.667 -3.33301 -29.334 -10 -44.001l-284 -581c-4 -7.33301 -10 -13.333 -18 -18s-16.333 -7 -25 -7c-12.667 0 -23.334 4.33301 -32.001 13z" />
    <glyph glyph-name="eight" unicode="8" horiz-adv-x="628" 
d="M160.5 19c-39.667 19.333 -68.498 43.666 -86.498 72.999s-27 60.333 -27 93c0 92.667 49.667 155.667 149 189c-34 11.333 -61.833 29.833 -83.5 55.5s-32.5 57.834 -32.5 96.501c0 28.667 7.83301 57 23.5 85s41 51.167 76 69.5s79.833 27.5 134.5 27.5
s99.5 -9.16699 134.5 -27.5s60.333 -41.5 76 -69.5s23.5 -56.333 23.5 -85c0 -38.667 -10.833 -70.834 -32.5 -96.501s-49.5 -44.167 -83.5 -55.5c99.333 -33.333 149 -96.333 149 -189c0 -32.667 -9 -63.667 -27 -93s-46.833 -53.666 -86.5 -72.999
s-90.834 -29 -153.501 -29s-113.834 9.66699 -153.501 29zM422.502 445c23 22 34.5 47 34.5 75c0 31.333 -12.167 57.166 -36.5 77.499s-59.833 30.5 -106.5 30.5s-82.167 -10.167 -106.5 -30.5s-36.5 -46.166 -36.5 -77.499c0 -28 11.5 -53 34.5 -75s59.167 -33 108.5 -33
s85.5 11 108.5 33zM415.502 90.5c26.333 13.667 45.335 30.167 57.002 49.5s17.5 37.666 17.5 54.999c0 42.667 -17 75.834 -51 99.501s-75.667 35.5 -125 35.5s-91 -11.833 -125 -35.5s-51 -56.834 -51 -99.501c0 -17.333 5.83301 -35.666 17.5 -54.999
s30.667 -35.833 57 -49.5s60.166 -20.5 101.499 -20.5s75.166 6.83301 101.499 20.5z" />
    <glyph glyph-name="nine" unicode="9" horiz-adv-x="628" 
d="M181 2c-28 8 -54.334 18.335 -79.001 31.002c-6 3.33301 -11 8.33301 -15 15s-6 13.667 -6 21c0 10.667 3.83301 20.167 11.5 28.5s17.5 12.5 29.5 12.5c6 0 11.667 -1 17 -3c41.333 -19.333 85.666 -29 132.999 -29c75.333 0 128.333 26.333 159 79
s47.667 111.667 51 177c-20 -25.333 -46.667 -46.333 -80 -63s-75 -25 -125 -25c-45.333 0 -85.166 9.66699 -119.499 29s-61.166 46.666 -80.499 81.999s-29 76.666 -29 123.999c0 42 10 80.333 30 115s48.667 62 86 82s81 30 131 30c182.667 0 274 -119.333 274 -358
c0 -58 -9.5 -114.333 -28.5 -169s-50.167 -100.167 -93.5 -136.5s-99.333 -54.5 -168 -54.5c-37.333 0 -70 4 -98 12zM476.999 439.002c-18 122.667 -78.998 183.999 -182.998 183.999c-30.667 0 -57.834 -6.5 -81.501 -19.5s-41.834 -30.5 -54.501 -52.5s-19 -46 -19 -72
c0 -45.333 12.667 -81.666 38 -108.999s62.333 -41 111 -41c86.667 0 149.667 36.667 189 110z" />
    <glyph glyph-name="colon" unicode=":" horiz-adv-x="260" 
d="M85.5 411.5c-11 11 -16.5 24.167 -16.5 39.5v6c0 15.333 5.5 28.5 16.5 39.5s24.167 16.5 39.5 16.5h10c15.333 0 28.5 -5.5 39.5 -16.5s16.5 -24.167 16.5 -39.5v-6c0 -15.333 -5.5 -28.5 -16.5 -39.5s-24.167 -16.5 -39.5 -16.5h-10c-15.333 0 -28.5 5.5 -39.5 16.5z
M85.5 13.5c-11 11 -16.5 24.167 -16.5 39.5v6c0 15.333 5.5 28.5 16.5 39.5s24.167 16.5 39.5 16.5h10c15.333 0 28.5 -5.5 39.5 -16.5s16.5 -24.167 16.5 -39.5v-6c0 -15.333 -5.5 -28.5 -16.5 -39.5s-24.167 -16.5 -39.5 -16.5h-10c-15.333 0 -28.5 5.5 -39.5 16.5z" />
    <glyph glyph-name="semicolon" unicode=";" horiz-adv-x="260" 
d="M85.5 411.5c-11 11 -16.5 24.167 -16.5 39.5v6c0 15.333 5.5 28.5 16.5 39.5s24.167 16.5 39.5 16.5h10c15.333 0 28.5 -5.5 39.5 -16.5s16.5 -24.167 16.5 -39.5v-6c0 -15.333 -5.5 -28.5 -16.5 -39.5s-24.167 -16.5 -39.5 -16.5h-10c-15.333 0 -28.5 5.5 -39.5 16.5z
M71.5 -142c-5.66699 6 -8.50098 13.001 -8.50098 21.001c0 10.667 5 19 15 25c16.667 10 29.334 21.667 38.001 35s13 32.666 13 57.999h-4c-15.333 0 -28.5 5.5 -39.5 16.5s-16.5 24.167 -16.5 39.5v6c0 15.333 5.5 28.5 16.5 39.5s24.167 16.5 39.5 16.5h10
c15.333 0 28.5 -5.5 39.5 -16.5s16.5 -24.167 16.5 -39.5v-59c0 -64 -27.333 -112.667 -82 -146c-5.33301 -3.33301 -11 -5 -17 -5c-8 0 -14.833 3 -20.5 9z" />
    <glyph glyph-name="less" unicode="&#x3c;" horiz-adv-x="580" 
d="M470 61l-399 179c-11.333 5.33301 -20.166 12.5 -26.499 21.5s-9.5 19.167 -9.5 30.5v8c0 11.333 3.16699 21.5 9.5 30.5s15.166 16.167 26.499 21.5l399 179c5.33301 2 10.666 3 15.999 3c11.333 0 20.833 -3.83301 28.5 -11.5s11.5 -17.167 11.5 -28.5
c0 -8 -2.5 -15.5 -7.5 -22.5s-11.5 -12.167 -19.5 -15.5l-360 -160l360 -160c8 -3.33301 14.5 -8.5 19.5 -15.5s7.5 -14.5 7.5 -22.5c0 -11.333 -3.83301 -20.833 -11.5 -28.5s-17.167 -11.5 -28.5 -11.5c-5.33301 0 -10.666 1 -15.999 3z" />
    <glyph glyph-name="equal" unicode="=" horiz-adv-x="712" 
d="M84.5 415.5c-7.66699 7.66699 -11.5 16.834 -11.5 27.501c0 11.333 3.83301 20.666 11.5 27.999s16.834 11 27.501 11h488c11.333 0 20.666 -3.66699 27.999 -11s11 -16.666 11 -27.999c0 -10.667 -3.66699 -19.834 -11 -27.501s-16.666 -11.5 -27.999 -11.5h-488
c-10.667 0 -19.834 3.83301 -27.501 11.5zM84.5 191.5c-7.66699 7.66699 -11.5 16.834 -11.5 27.501c0 11.333 3.83301 20.666 11.5 27.999s16.834 11 27.501 11h488c11.333 0 20.666 -3.66699 27.999 -11s11 -16.666 11 -27.999c0 -10.667 -3.66699 -19.834 -11 -27.501
s-16.666 -11.5 -27.999 -11.5h-488c-10.667 0 -19.834 3.83301 -27.501 11.5z" />
    <glyph glyph-name="greater" unicode="&#x3e;" horiz-adv-x="580" 
d="M65.5 69.5c-7.66699 7.66699 -11.5 17.167 -11.5 28.5c0 8 2.5 15.5 7.5 22.5s11.5 12.167 19.5 15.5l360 160l-360 160c-8 3.33301 -14.5 8.5 -19.5 15.5s-7.5 14.5 -7.5 22.5c0 11.333 3.83301 20.833 11.5 28.5s17.167 11.5 28.5 11.5c6 0 11.333 -1 16 -3l399 -179
c11.333 -5.33301 20.166 -12.5 26.499 -21.5s9.5 -19.167 9.5 -30.5v-8c0 -11.333 -3.16699 -21.5 -9.5 -30.5s-15.166 -16.167 -26.499 -21.5l-399 -179c-4.66699 -2 -10 -3 -16 -3c-11.333 0 -20.833 3.83301 -28.5 11.5z" />
    <glyph glyph-name="question" unicode="?" horiz-adv-x="497" 
d="M189.5 197.5c-8.33301 7.66699 -12.5029 16.8359 -12.5029 27.5029c0 30 5.33301 56.333 16 79s23.167 41.5 37.5 56.5s33.5 32.167 57.5 51.5c25.333 20 44 37.333 56 52s18 31.334 18 50.001c0 72.667 -47.667 109 -143 109c-23.333 0 -46.166 -2.83301 -68.499 -8.5
s-42.166 -13.834 -59.499 -24.501c-8 -5.33301 -16.333 -8 -25 -8c-10.667 0 -20 4 -28 12s-12 17.333 -12 28c0 15.333 8.33301 28 25 38c27.333 17.333 55 29.666 83 36.999s59 11 93 11c68 0 122.5 -17 163.5 -51s61.5 -80 61.5 -138c0 -26 -4.66699 -48.833 -14 -68.5
s-20.666 -36.334 -33.999 -50.001s-31 -29.167 -53 -46.5c-28.667 -22.667 -50.167 -43.167 -64.5 -61.5s-21.5 -40.833 -21.5 -67.5c0 -10.667 -4.33301 -19.834 -13 -27.501s-19 -11.5 -31 -11.5c-12.667 0 -23.167 3.83301 -31.5 11.5zM177.497 13.502
c-11.667 11.667 -17.5 25.834 -17.5 42.501c0 16 5.83301 29.833 17.5 41.5s25.5 17.5 41.5 17.5c16.667 0 30.834 -5.83301 42.501 -17.5s17.5 -25.5 17.5 -41.5c0 -16.667 -5.83301 -30.834 -17.5 -42.501s-25.834 -17.5 -42.501 -17.5c-16 0 -29.833 5.83301 -41.5 17.5z
" />
    <glyph glyph-name="at" unicode="@" horiz-adv-x="898" 
d="M216 -35.5c-53.333 31.667 -94.4971 74.0029 -123.497 127.003s-43.5 109.833 -43.5 170.5c0 75.333 19.333 145.666 58 210.999s90.5 117.5 155.5 156.5s135.167 58.5 210.5 58.5c68.667 0 132.167 -14.833 190.5 -44.5s104.666 -70.667 138.999 -123
s51.5 -111.833 51.5 -178.5c0 -42 -6.5 -81.667 -19.5 -119s-33.333 -68 -61 -92s-62.834 -36 -105.501 -36c-33.333 0 -59.333 7.33301 -78 22s-30 32 -34 52c-20.667 -25.333 -45.334 -44.166 -74.001 -56.499s-59 -18.5 -91 -18.5c-53.333 0 -95 16.333 -125 49
s-45 75 -45 127c0 50 11.167 93.333 33.5 130s51.666 64.667 87.999 84s74.833 29 115.5 29c50 0 92.667 -17 128 -51l3 17c1.33301 8.66699 5.5 16 12.5 22s15.167 9 24.5 9c10 0 18.5 -3.5 25.5 -10.5s10.5 -15.833 10.5 -26.5l-1 -11l-33 -190
c-4.66699 -24.667 -7 -46.334 -7 -65.001s4.16699 -34.167 12.5 -46.5s20.833 -18.5 37.5 -18.5c41.333 0 73.166 18 95.499 54s33.5 84.667 33.5 146s-15.667 114.166 -47 158.499s-72.166 77.833 -122.499 100.5s-102.833 34 -157.5 34c-66 0 -127.5 -17 -184.5 -51
s-102.5 -79.667 -136.5 -137s-51 -119 -51 -185c0 -49.333 11.833 -96.5 35.5 -141.5s58 -81.5 103 -109.5s98.5 -42 160.5 -42c40.667 0 76 3.83301 106 11.5s64.333 19.167 103 34.5c4 1.33301 7.66699 2 11 2c7.33301 0 13.333 -2.33301 18 -7s7 -10.334 7 -17.001
c0 -4.66699 -1.33301 -9.16699 -4 -13.5s-6 -7.5 -10 -9.5c-70.667 -35.333 -147.667 -53 -231 -53c-69.333 0 -130.666 15.833 -183.999 47.5zM559.003 303.003l16 93.001c-29.333 30.667 -67 46 -113 46c-28.667 0 -55.5 -6.33301 -80.5 -19s-45.167 -31.167 -60.5 -55.5
s-23 -53.5 -23 -87.5c0 -38.667 10.667 -67.834 32 -87.501s49 -29.5 83 -29.5c81.333 0 130 46.667 146 140z" />
    <glyph glyph-name="A" unicode="A" horiz-adv-x="746" 
d="M62.5 8c-8.33301 8.66699 -12.502 19.334 -12.502 32.001c0 5.33301 1.66699 12 5 20l255 602c5.33301 12 12.833 21.833 22.5 29.5s21.5 11.5 35.5 11.5h10c14 0 25.833 -3.83301 35.5 -11.5s17.167 -17.5 22.5 -29.5l255 -602c3.33301 -8 5 -14.667 5 -20
c0 -12.667 -4.16699 -23.334 -12.5 -32.001s-19.166 -13 -32.499 -13c-9.33301 0 -17.833 2.5 -25.5 7.5s-13.5 11.833 -17.5 20.5l-65 156h-340l-65 -156c-4 -8.66699 -9.83301 -15.5 -17.5 -20.5s-16.167 -7.5 -25.5 -7.5c-13.333 0 -24.166 4.33301 -32.499 13z
M237.998 262h270l-135 325z" />
    <glyph glyph-name="B" unicode="B" horiz-adv-x="693" 
d="M110 13c-8.66699 8.66699 -13 19.335 -13 32.002v607c0 12.667 4.33301 23.5 13 32.5s19.334 13.5 32.001 13.5h236c71.333 0 126.5 -16.333 165.5 -49s58.5 -76.667 58.5 -132c0 -38.667 -9.16699 -70.834 -27.5 -96.501s-41.833 -44.834 -70.5 -57.501
c40 -12.667 72.833 -33 98.5 -61s38.5 -63.333 38.5 -106c0 -61.333 -20.667 -109.333 -62 -144s-106.333 -52 -195 -52h-242c-12.667 -0 -23.334 4.33301 -32.001 13zM354 396.001c59.333 0 101.001 10 125.001 30s36 48 36 84c0 31.333 -12.833 56.333 -38.5 75
s-60.834 28 -105.501 28h-183v-217h166zM375.001 85.001c64.667 0 110.5 10 137.5 30s40.5 48.333 40.5 85c0 76 -59 114 -177 114h-188v-229h187z" />
    <glyph glyph-name="C" unicode="C" horiz-adv-x="695" 
d="M225.5 33.5c-53 29 -94.667 70.667 -125 125s-45.5 117.833 -45.5 190.5s15.167 136.167 45.5 190.5s72 96 125 125s112.833 43.5 179.5 43.5c45.333 0 85.833 -5.33301 121.5 -16s71.167 -26 106.5 -46c14.667 -8 22 -20.667 22 -38c0 -10 -3.66699 -18.833 -11 -26.5
s-17 -11.5 -29 -11.5c-6.66699 0 -12.667 1.33301 -18 4c-29.333 15.333 -58 27 -86 35s-60.333 12 -97 12c-57.333 0 -106.166 -11.833 -146.499 -35.5s-70.666 -56 -90.999 -97s-30.5 -87.5 -30.5 -139.5s10.167 -98.5 30.5 -139.5s50.666 -73.333 90.999 -97
s89.166 -35.5 146.499 -35.5c36.667 0 69 4 97 12s56.667 19.667 86 35c5.33301 2.66699 11.333 4 18 4c12 0 21.667 -3.66699 29 -11s11 -16.333 11 -27c0 -17.333 -7.33301 -30 -22 -38c-35.333 -20 -70.833 -35.333 -106.5 -46s-76.167 -16 -121.5 -16
c-66.667 0 -126.5 14.5 -179.5 43.5z" />
    <glyph glyph-name="D" unicode="D" horiz-adv-x="751" 
d="M110 13c-8.66699 8.66699 -13 19.333 -13 32v607c0 12.667 4.33301 23.5 13 32.5s19.334 13.5 32.001 13.5h201c76 0 140.5 -16.833 193.5 -50.5s92.833 -77.167 119.5 -130.5s40 -109.333 40 -168s-13.333 -114.667 -40 -168s-66.5 -96.833 -119.5 -130.5
s-117.5 -50.5 -193.5 -50.5h-201c-12.667 -0 -23.334 4.33301 -32.001 13zM332 84.999c54.667 0 102.667 11.167 144 33.5s73.333 53.333 96 93s34 85.5 34 137.5s-11.333 97.833 -34 137.5s-54.667 70.667 -96 93s-89.333 33.5 -144 33.5h-144v-528h144z" />
    <glyph glyph-name="E" unicode="E" horiz-adv-x="638" 
d="M110 13c-8.66699 8.66699 -13 19.333 -13 32v607c0 12.667 4.33301 23.5 13 32.5s19.334 13.5 32.001 13.5h401c12 0 22.167 -4.16699 30.5 -12.5s12.5 -18.5 12.5 -30.5s-4.16699 -22 -12.5 -30s-18.5 -12 -30.5 -12h-355v-221h319c12 0 22.167 -4.16699 30.5 -12.5
s12.5 -18.5 12.5 -30.5s-4.16699 -22 -12.5 -30s-18.5 -12 -30.5 -12h-319v-222h355c12 0 22.167 -4.16699 30.5 -12.5s12.5 -18.5 12.5 -30.5s-4.16699 -22 -12.5 -30s-18.5 -12 -30.5 -12h-401c-12.667 -0 -23.334 4.33301 -32.001 13z" />
    <glyph glyph-name="F" unicode="F" horiz-adv-x="608" 
d="M110 8c-8.66699 8.66699 -13 19.334 -13 32.001v612c0 12.667 4.33301 23.5 13 32.5s19.334 13.5 32.001 13.5h389c12 0 22.167 -4.16699 30.5 -12.5s12.5 -18.5 12.5 -30.5s-4.16699 -22 -12.5 -30s-18.5 -12 -30.5 -12h-343v-221h308c12 0 22.167 -4.16699 30.5 -12.5
s12.5 -18.5 12.5 -30.5s-4.16699 -22 -12.5 -30s-18.5 -12 -30.5 -12h-308v-267c0 -12.667 -4.5 -23.334 -13.5 -32.001s-19.833 -13 -32.5 -13s-23.334 4.33301 -32.001 13z" />
    <glyph glyph-name="G" unicode="G" horiz-adv-x="757" 
d="M223 35.5c-53.333 30.333 -94.665 72.668 -123.998 127.001s-44 116.166 -44 185.499c0 70.667 15.333 133.334 46 188.001s72.5 97 125.5 127s111.833 45 176.5 45c52 0 97.5 -6.33301 136.5 -19s76.5 -30.334 112.5 -53.001c5.33301 -2.66699 10 -7.33398 14 -14.001
s6 -14 6 -22c0 -11.333 -3.83301 -21 -11.5 -29s-17.834 -12 -30.501 -12c-7.33301 0 -14.333 1.66699 -21 5c-31.333 18.667 -62.666 32.667 -93.999 42s-65.333 14 -102 14c-50.667 0 -96.334 -10.667 -137.001 -32s-72.5 -52.5 -95.5 -93.5s-34.5 -89.833 -34.5 -146.5
c0 -52 10.833 -98.5 32.5 -139.5s53 -73.333 94 -97s89.5 -35.5 145.5 -35.5c62.667 0 121 14.667 175 44v181h-165c-11.333 0 -21 4 -29 12s-12 17.667 -12 29s4 21 12 29s17.667 12 29 12h197c13.333 0 24.666 -4.66699 33.999 -14s14 -20.666 14 -33.999v-227
c0 -14 -3.5 -26.5 -10.5 -37.5s-16.167 -19.167 -27.5 -24.5c-74.667 -37.333 -151 -56 -229 -56c-68.667 0 -129.667 15.167 -183 45.5z" />
    <glyph glyph-name="H" unicode="H" horiz-adv-x="755" 
d="M110 8c-8.66699 8.66699 -13 19.334 -13 32.001v617c0 12.667 4.33301 23.5 13 32.5s19.334 13.5 32.001 13.5s23.5 -4.5 32.5 -13.5s13.5 -19.833 13.5 -32.5v-266h379v266c0 12.667 4.33301 23.5 13 32.5s19.334 13.5 32.001 13.5s23.5 -4.5 32.5 -13.5
s13.5 -19.833 13.5 -32.5v-617c0 -12.667 -4.5 -23.334 -13.5 -32.001s-19.833 -13 -32.5 -13s-23.334 4.33301 -32.001 13s-13 19.334 -13 32.001v266h-379v-266c0 -12.667 -4.5 -23.334 -13.5 -32.001s-19.833 -13 -32.5 -13s-23.334 4.33301 -32.001 13z" />
    <glyph glyph-name="I" unicode="I" horiz-adv-x="285" 
d="M110 8c-8.66699 8.66699 -13 19.334 -13 32.001v617c0 12.667 4.33301 23.5 13 32.5s19.334 13.5 32.001 13.5s23.5 -4.5 32.5 -13.5s13.5 -19.833 13.5 -32.5v-617c0 -12.667 -4.5 -23.334 -13.5 -32.001s-19.833 -13 -32.5 -13s-23.334 4.33301 -32.001 13z" />
    <glyph glyph-name="J" unicode="J" horiz-adv-x="466" 
d="M35 24c-14.667 8.66699 -22.001 20.999 -22.001 36.999c0 10.667 3.5 20.167 10.5 28.5s16.167 12.5 27.5 12.5c6.66699 0 12.667 -1.33301 18 -4c30.667 -14.667 61.667 -22 93 -22c36 0 65.167 10.333 87.5 31s33.5 59.667 33.5 117v433c0 12.667 4.33301 23.5 13 32.5
s19.334 13.5 32.001 13.5s23.5 -4.5 32.5 -13.5s13.5 -19.833 13.5 -32.5v-427c0 -87.333 -19.5 -149.166 -58.5 -185.499s-88.167 -54.5 -147.5 -54.5c-48.667 0 -93 11.333 -133 34z" />
    <glyph glyph-name="K" unicode="K" horiz-adv-x="670" 
d="M110 8c-8.66699 8.66699 -12.9971 19.333 -12.9971 32v617c0 12.667 4.33301 23.5 13 32.5s19.334 13.5 32.001 13.5s23.5 -4.5 32.5 -13.5s13.5 -19.833 13.5 -32.5v-318l342 348c9.33301 10.667 20.666 16 33.999 16c11.333 0 21.166 -3.83301 29.499 -11.5
s12.5 -17.167 12.5 -28.5c0 -13.333 -3.66699 -23.666 -11 -30.999l-231 -230l265 -334c7.33301 -9.33301 11 -19 11 -29c0.666992 -12 -3.33301 -22.333 -12 -31s-19.334 -13 -32.001 -13c-15.333 0 -27.333 6 -36 18l-258 329l-114 -115v-187
c0 -12.667 -4.5 -23.334 -13.5 -32.001s-19.833 -13 -32.5 -13s-23.334 4.33301 -32.001 13z" />
    <glyph glyph-name="L" unicode="L" horiz-adv-x="576" 
d="M115.5 18.5c-12.333 12.333 -18.502 27.168 -18.502 44.501v594c0 12.667 4.33301 23.5 13 32.5s19.334 13.5 32.001 13.5s23.5 -4.5 32.5 -13.5s13.5 -19.833 13.5 -32.5v-566h327c12.667 0 23.5 -4.5 32.5 -13.5s13.5 -19.833 13.5 -32.5s-4.5 -23.334 -13.5 -32.001
s-19.833 -13 -32.5 -13h-355c-17.333 0 -32.166 6.16699 -44.499 18.5z" />
    <glyph glyph-name="M" unicode="M" horiz-adv-x="966" 
d="M110 8c-8.66699 8.66699 -12.998 19.334 -12.998 32.001v597c0 18 6.33301 33.5 19 46.5s28 19.5 46 19.5h33c13.333 0 25.5 -4 36.5 -12s19.167 -18 24.5 -30l227 -566l227 566c5.33301 12 13.5 22 24.5 30s23.167 12 36.5 12h33c18 0 33.333 -6.5 46 -19.5
s19 -28.5 19 -46.5v-597c0 -12.667 -4.33301 -23.334 -13 -32.001s-19.334 -13 -32.001 -13s-23.5 4.33301 -32.5 13s-13.5 19.334 -13.5 32.001v568l-231 -571c-5.33301 -12.667 -13.833 -22.834 -25.5 -30.501s-24.5 -11.5 -38.5 -11.5s-26.833 3.83301 -38.5 11.5
s-20.167 17.834 -25.5 30.501l-231 571v-568c0 -12.667 -4.5 -23.334 -13.5 -32.001s-19.833 -13 -32.5 -13s-23.334 4.33301 -32.001 13z" />
    <glyph glyph-name="N" unicode="N" horiz-adv-x="803" 
d="M110 8c-8.66699 8.66699 -12.999 19.334 -12.999 32.001v597c0 18 6.33301 33.5 19 46.5s28 19.5 46 19.5h13c21.333 0 39.666 -10 54.999 -30l385 -556v540c0 12.667 4.33301 23.5 13 32.5s19.334 13.5 32.001 13.5s23.5 -4.5 32.5 -13.5s13.5 -19.833 13.5 -32.5v-597
c0 -18 -6.5 -33.333 -19.5 -46s-28.5 -19 -46.5 -19h-12c-10.667 0 -20.667 2.5 -30 7.5s-17 11.5 -23 19.5l-387 559v-541c0 -12.667 -4.5 -23.334 -13.5 -32.001s-19.833 -13 -32.5 -13s-23.334 4.33301 -32.001 13z" />
    <glyph glyph-name="O" unicode="O" horiz-adv-x="812" 
d="M222 36c-52.667 30.667 -93.334 72.998 -122.001 126.998s-43.667 116 -45 186c1.33301 70 16.333 132 45 186s69.334 96.333 122.001 127s114 46 184 46s131.167 -15.333 183.5 -46s93 -73.167 122 -127.5s44.167 -116.166 45.5 -185.499
c-1.33301 -69.333 -16.5 -131.166 -45.5 -185.499s-69.667 -96.833 -122 -127.5s-113.5 -46 -183.5 -46s-131.333 15.333 -184 46zM545 110.998c39.333 24 69.333 56.667 90 98s31 88 31 140s-10.333 98.667 -31 140s-50.667 74 -90 98s-85.666 36 -138.999 36
c-54 0 -100.5 -12 -139.5 -36s-68.833 -56.667 -89.5 -98s-31 -88 -31 -140s10.333 -98.667 31 -140s50.5 -74 89.5 -98s85.5 -36 139.5 -36c53.333 0 99.666 12 138.999 36z" />
    <glyph glyph-name="P" unicode="P" horiz-adv-x="672" 
d="M110 8c-8.66699 8.66699 -13 19.332 -13 31.999v612c0 12.667 4.33301 23.5 13 32.5s19.334 13.5 32.001 13.5h228c63.333 0 115 -10.667 155 -32s68.667 -48.666 86 -81.999s26 -69.333 26 -108s-8.66699 -74.667 -26 -108s-46 -60.666 -86 -81.999
s-91.667 -32 -155 -32h-182v-214c0 -12.667 -4.5 -23.334 -13.5 -32.001s-19.833 -13 -32.5 -13s-23.334 4.33301 -32.001 13zM361 339.998c68 0 115.833 13 143.5 39s41.5 58.333 41.5 97s-13.833 71 -41.5 97s-75.5 39 -143.5 39h-173v-272h173z" />
    <glyph glyph-name="Q" unicode="Q" horiz-adv-x="812" 
d="M575 -136l-109 129.999c-16.667 -2.66699 -36.667 -4 -60 -4c-70 0 -131.333 15.333 -184 46s-93.334 73 -122.001 127s-43.667 116 -45 186c1.33301 70 16.333 132 45 186s69.334 96.333 122.001 127s114 46 184 46s131.167 -15.333 183.5 -46s93 -73.167 122 -127.5
s44.167 -116.166 45.5 -185.499c-1.33301 -78 -20.166 -146.167 -56.499 -204.5s-86.5 -100.833 -150.5 -127.5l88 -97c8 -8 12 -17.667 12 -29c0.666992 -11.333 -3.33301 -21.333 -12 -30s-19 -13 -31 -13c-12.667 0 -23.334 5.33301 -32.001 16zM545 110.999
c39.333 24 69.333 56.667 90 98s31 88 31 140s-10.333 98.667 -31 140s-50.667 74 -90 98s-85.666 36 -138.999 36c-54 0 -100.5 -12 -139.5 -36s-68.833 -56.667 -89.5 -98s-31 -88 -31 -140s10.333 -98.667 31 -140s50.5 -74 89.5 -98s85.5 -36 139.5 -36
c53.333 0 99.666 12 138.999 36z" />
    <glyph glyph-name="R" unicode="R" horiz-adv-x="712" 
d="M110 8c-8.66699 8.66699 -12.999 19.3379 -12.999 32.0049v612c0 12.667 4.33301 23.5 13 32.5s19.334 13.5 32.001 13.5h233c90.667 0 158.667 -18.667 204 -56s68 -86.333 68 -147c0 -40 -11.167 -76.5 -33.5 -109.5s-54.833 -56.833 -97.5 -71.5
c48 -12.667 80.833 -42.5 98.5 -89.5s26.5 -93.167 26.5 -138.5v-46c0 -12.667 -4.33301 -23.334 -13 -32.001s-19.334 -13 -32.001 -13c-14 0 -25.167 4.16699 -33.5 12.5s-12.5 19.166 -12.5 32.499v30c0 33.333 -3 64.166 -9 92.499s-20.333 53.666 -43 75.999
s-57 33.5 -103 33.5h-207v-232c0 -12.667 -4.5 -23.334 -13.5 -32.001s-19.833 -13 -32.5 -13s-23.334 4.33301 -32.001 13zM369.001 358.004c57.333 0 102.833 11.333 136.5 34s50.5 54.667 50.5 96c0 40 -14.5 70.667 -43.5 92s-78.5 32 -148.5 32h-176v-254h181z" />
    <glyph glyph-name="S" unicode="S" horiz-adv-x="616" 
d="M79 38c-8 3.33301 -14.667 8.83496 -20 16.502s-8 15.834 -8 24.501c0 11.333 3.83301 21.166 11.5 29.499s17.5 12.5 29.5 12.5c6.66699 0 13 -1.33301 19 -4c61.333 -27.333 127 -41 197 -41c116.667 0 175 38.333 175 115c0 20 -7.5 36.667 -22.5 50
s-33.5 23.833 -55.5 31.5s-53.333 16.834 -94 27.501c-54 14 -97.667 27.5 -131 40.5s-62 32.5 -86 58.5s-36 60.667 -36 104c0 38 10 72.5 30 103.5s49.5 55.667 88.5 74s85.833 27.5 140.5 27.5c73.333 0 139.666 -11 198.999 -33c18.667 -6.66699 28 -20 28 -40
c0 -10.667 -3.66699 -20.334 -11 -29.001s-17 -13 -29 -13c-4 0 -9.33301 1.33301 -16 4c-52 18 -105.667 27 -161 27c-52.667 0 -95.5 -10 -128.5 -30s-49.5 -48 -49.5 -84c0 -24 7.83301 -43.5 23.5 -58.5s35.334 -26.667 59.001 -35s55.834 -17.166 96.501 -26.499
c52.667 -12.667 95.167 -25.334 127.5 -38.001s60 -32.334 83 -59.001s34.5 -62.667 34.5 -108c0 -37.333 -10.667 -70.833 -32 -100.5s-51.333 -52.834 -90 -69.501s-83.334 -25 -134.001 -25c-84.667 0 -164 16 -238 48z" />
    <glyph glyph-name="T" unicode="T" horiz-adv-x="609" 
d="M272 8c-8.66699 8.66699 -12.999 19.334 -12.999 32.001v573h-204c-12 0 -22 4 -30 12s-12 18 -12 30s4 22.167 12 30.5s18 12.5 30 12.5h498c12 0 22.167 -4.16699 30.5 -12.5s12.5 -18.5 12.5 -30.5s-4.16699 -22 -12.5 -30s-18.5 -12 -30.5 -12h-203v-573
c0 -12.667 -4.5 -23.334 -13.5 -32.001s-19.833 -13 -32.5 -13s-23.334 4.33301 -32.001 13z" />
    <glyph glyph-name="U" unicode="U" horiz-adv-x="758" 
d="M242 20c-44 20 -80.002 50.5 -108.002 91.5s-42 91.167 -42 150.5v395c0 12.667 4.33301 23.5 13 32.5s19.334 13.5 32.001 13.5s23.5 -4.5 32.5 -13.5s13.5 -19.833 13.5 -32.5v-398c0 -40 9.16699 -74 27.5 -102s42.5 -49 72.5 -63s62 -21 96 -21s66 7 96 21
s54.167 35 72.5 63s27.5 62 27.5 102v398c0 12.667 4.33301 23.5 13 32.5s19.334 13.5 32.001 13.5s23.5 -4.5 32.5 -13.5s13.5 -19.833 13.5 -32.5v-395c0 -59.333 -14 -109.5 -42 -150.5s-64 -71.5 -108 -91.5s-89.667 -30 -137 -30s-93 10 -137 30z" />
    <glyph glyph-name="V" unicode="V" horiz-adv-x="694" 
d="M274 41l-247 599c-2 5.33301 -3 11 -3 17c0 14 4 25.167 12 33.5s19 12.5 33 12.5c9.33301 0 17.833 -2.83301 25.5 -8.5s13.5 -13.167 17.5 -22.5l235 -586l235 586c4 9.33301 9.83301 16.833 17.5 22.5s16.167 8.5 25.5 8.5c14 0 25 -4.16699 33 -12.5
s12 -19.5 12 -33.5c0 -6 -1 -11.667 -3 -17l-247 -599c-14 -30.667 -34.667 -46 -62 -46h-22c-27.333 0 -48 15.333 -62 46z" />
    <glyph glyph-name="W" unicode="W" horiz-adv-x="1011" 
d="M250.5 6.5c-10.333 7.66699 -18.166 18.834 -23.499 33.501l-196 602c-2 7.33301 -3 13 -3 17c-0.666992 12.667 3.16602 23.167 11.499 31.5s19.166 12.5 32.499 12.5c10.667 0 20 -3.33301 28 -10s13.667 -15.334 17 -26.001l168 -552l169 550
c3.33301 11.333 9.83301 20.5 19.5 27.5s20.5 10.5 32.5 10.5s22.833 -3.5 32.5 -10.5s16.167 -16.167 19.5 -27.5l169 -550l168 552c3.33301 10.667 9 19.334 17 26.001s17.333 10 28 10c13.333 0 24.166 -4.16699 32.499 -12.5s12.166 -18.833 11.499 -31.5
c0 -4 -1 -9.66699 -3 -17l-196 -602c-5.33301 -14.667 -13.166 -25.834 -23.499 -33.501s-22.166 -11.5 -35.499 -11.5s-25.5 4.16699 -36.5 12.5s-18.5 19.166 -22.5 32.499l-161 510l-161 -510c-4 -13.333 -11.5 -24.166 -22.5 -32.499s-23.167 -12.5 -36.5 -12.5
s-25.166 3.83301 -35.499 11.5z" />
    <glyph glyph-name="X" unicode="X" horiz-adv-x="671" 
d="M56.5 7.5c-8.33301 8.33301 -12.502 18.167 -12.502 29.5c0 10.667 3 20 9 28l231 284l-229 282c-6 8 -9 17.333 -9 28c0 12.667 4.16699 23.167 12.5 31.5s18.833 12.5 31.5 12.5c7.33301 0 14.333 -1.66699 21 -5s12 -7.66602 16 -12.999l211 -268l211 270
c7.33301 10.667 18.333 16 33 16c12 0 22.333 -4.16699 31 -12.5s13 -18.5 13 -30.5c0 -9.33301 -2.66699 -17.666 -8 -24.999l-231 -285l231 -284c6 -6.66699 9 -15.334 9 -26.001c0 -12.667 -4.16699 -23.334 -12.5 -32.001s-19.166 -13 -32.499 -13
c-14.667 0 -26.667 6.33301 -36 19l-214 269l-211 -270c-10 -12 -21.667 -18 -35 -18c-11.333 0 -21.166 4.16699 -29.499 12.5z" />
    <glyph glyph-name="Y" unicode="Y" horiz-adv-x="639" 
d="M287.5 8c-9 8.66699 -13.5 19.334 -13.5 32.001v255l-239 335c-5.33301 8.66699 -8 17.667 -8 27c0 12.667 4.16699 23.5 12.5 32.5s18.833 13.5 31.5 13.5c16.667 0 30 -7.66699 40 -23l209 -304l209 304c10 15.333 23.333 23 40 23c12.667 0 23.334 -4.5 32.001 -13.5
s12.667 -19.833 12 -32.5c0 -9.33301 -2.66699 -18.333 -8 -27l-240 -335v-255c0 -12.667 -4.33301 -23.334 -13 -32.001s-19.334 -13 -32.001 -13s-23.5 4.33301 -32.5 13z" />
    <glyph glyph-name="Z" unicode="Z" horiz-adv-x="638" 
d="M64 17c-11.333 11.333 -17 24.999 -17 40.999c0 14.667 4 27 12 37l418 516h-385c-12 0 -22.167 4.16699 -30.5 12.5s-12.5 18.5 -12.5 30.5s4.16699 22.333 12.5 31s18.5 13 30.5 13h434c18.667 0 33.5 -6 44.5 -18s16.5 -26.667 16.5 -44
c0 -6.66699 -1.5 -13.667 -4.5 -21s-6.83301 -13.666 -11.5 -18.999l-413 -511h392c12 0 22.167 -4.16699 30.5 -12.5s12.5 -18.5 12.5 -30.5s-4.16699 -22 -12.5 -30s-18.5 -12 -30.5 -12h-445c-16 0 -29.667 5.66699 -41 17z" />
    <glyph glyph-name="bracketleft" unicode="[" horiz-adv-x="322" 
d="M100 -119c-8.66699 8.66699 -13 18.999 -13 30.999v776c0 12 4.33301 22.333 13 31s19 13 31 13h127c10 0 18.5 -3.5 25.5 -10.5s10.5 -15.5 10.5 -25.5s-3.5 -18.5 -10.5 -25.5s-15.5 -10.5 -25.5 -10.5h-92v-721h92c10 0 18.5 -3.5 25.5 -10.5s10.5 -15.167 10.5 -24.5
s-3.5 -17.666 -10.5 -24.999s-15.5 -11 -25.5 -11h-127c-12 0 -22.333 4.33301 -31 13z" />
    <glyph glyph-name="backslash" unicode="\" horiz-adv-x="443" 
d="M329 -87c-6.66699 5.33301 -11.334 12 -14.001 20l-265 775c-2 6 -3 11 -3 15c0 11.333 3.83301 21 11.5 29s17.5 12 29.5 12c10 0 18.333 -2.66699 25 -8s11.334 -12 14.001 -20l265 -775c2 -6 3 -11 3 -15c0 -11.333 -3.83301 -21 -11.5 -29s-17.5 -12 -29.5 -12
c-10 0 -18.333 2.66699 -25 8z" />
    <glyph glyph-name="bracketright" unicode="]" horiz-adv-x="322" 
d="M38.5 -121c-7 7.33301 -10.5 15.667 -10.5 25s3.5 17.5 10.5 24.5s15.5 10.5 25.5 10.5h92v721h-92c-10 0 -18.5 3.5 -25.5 10.5s-10.5 15.5 -10.5 25.5s3.5 18.5 10.5 25.5s15.5 10.5 25.5 10.5h127c12 0 22.333 -4.33301 31 -13s13 -19 13 -31v-776
c0 -12 -4.33301 -22.333 -13 -31s-19 -13 -31 -13h-127c-10 0 -18.5 3.66699 -25.5 11z" />
    <glyph glyph-name="asciicircum" unicode="^" horiz-adv-x="524" 
d="M92.5 425.5c-7 7 -10.5 15.5 -10.5 25.5c0 4 2 10 6 18l105 199c6 10.667 12.667 19 20 25s17 9 29 9h38c12 0 21.667 -3 29 -9s14 -14.333 20 -25l105 -199c4 -8 6 -14 6 -18c0 -10 -3.5 -18.5 -10.5 -25.5s-15.5 -10.5 -25.5 -10.5c-11.333 0 -20 3.66699 -26 11
c2 -2 -37 61.333 -117 190l-102 -166l-15 -24c-6 -7.33301 -14.667 -11 -26 -11c-10 0 -18.5 3.5 -25.5 10.5z" />
    <glyph glyph-name="underscore" unicode="_" horiz-adv-x="663" 
d="M62 -137.5c-6.66699 6.33301 -10 14.166 -10 23.499c0 8.66699 3.33301 16.334 10 23.001s14.334 10 23.001 10h493c9.33301 0 17.166 -3.33301 23.499 -10s9.5 -14.334 9.5 -23.001c0 -9.33301 -3.16699 -17.166 -9.5 -23.499s-14.166 -9.5 -23.499 -9.5h-493
c-8.66699 0 -16.334 3.16699 -23.001 9.5z" />
    <glyph glyph-name="grave" unicode="`" horiz-adv-x="246" 
d="M178 578l-69 82.001c-6.66699 7.33301 -10 15.666 -10 24.999c0 11.333 3.33301 20.333 10 27s15.667 10 27 10c15.333 0 26.333 -6.33301 33 -19l51 -90c4.66699 -6.66699 7 -13 7 -19c0 -8 -2.5 -14.5 -7.5 -19.5s-11.5 -7.5 -19.5 -7.5c-8.66699 0 -16 3.66699 -22 11
z" />
    <glyph glyph-name="a" unicode="a" horiz-adv-x="562" 
d="M127.5 8c-25 12 -44.834 29.5029 -59.501 52.5029s-22 49.5 -22 79.5c0 49.333 19.5 88.666 58.5 117.999s96.167 44 171.5 44h121v8c0 44 -10.833 75.667 -32.5 95s-55.5 29 -101.5 29c-25.333 0 -47.833 -2 -67.5 -6s-41.5 -10 -65.5 -18
c-5.33301 -1.33301 -9.66602 -2 -12.999 -2c-10 0 -18.667 3.66699 -26 11s-11 16.333 -11 27c0 18 8.66699 30.667 26 38c56.667 24 114.334 36 173.001 36c46 0 84.833 -9.33301 116.5 -28s55 -42.834 70 -72.501s22.5 -61.834 22.5 -96.501v-283
c0 -12.667 -4.5 -23.334 -13.5 -32.001s-19.833 -13 -32.5 -13s-23.334 4.33301 -32.001 13s-13 19.334 -13 32.001v26c-49.333 -50.667 -112 -76 -188 -76c-29.333 0 -56.5 6 -81.5 18zM327.999 91.5029c27.333 14.333 50.334 32.167 69.001 53.5v84h-109
c-100.667 0 -151 -26.333 -151 -79c0 -24 8.16699 -43.333 24.5 -58s43.5 -22 81.5 -22c29.333 0 57.666 7.16699 84.999 21.5z" />
    <glyph glyph-name="b" unicode="b" horiz-adv-x="631" 
d="M170 66v-26c0 -12.667 -4.5 -23.334 -13.5 -32.001s-19.833 -13 -32.5 -13s-23.334 4.33301 -32.001 13s-13 19.334 -13 32.001v649c0 12.667 4.33301 23.5 13 32.5s19.334 13.5 32.001 13.5c13.333 0 24.333 -4.33301 33 -13s13 -19.667 13 -33v-245
c48.667 50.667 105.667 76 171 76c41.333 0 80.5 -10.5 117.5 -31.5s67 -51.667 90 -92s34.5 -87.5 34.5 -141.5s-11.5 -101.167 -34.5 -141.5s-53 -71 -90 -92s-76.167 -31.5 -117.5 -31.5c-65.333 0 -122.333 25.333 -171 76zM447 122c30 31.333 45 75.6699 45 133.003
s-15 101.666 -45 132.999s-69.667 47 -119 47c-30.667 0 -59.5 -6.83301 -86.5 -20.5s-50.833 -31.834 -71.5 -54.501v-210c20.667 -22.667 44.5 -40.834 71.5 -54.501s55.833 -20.5 86.5 -20.5c49.333 0 89 15.667 119 47z" />
    <glyph glyph-name="c" unicode="c" horiz-adv-x="533" 
d="M182 22c-40.667 21.333 -73.167 52.002 -97.5 92.002s-36.5 87 -36.5 141s12.167 101 36.5 141s56.833 70.667 97.5 92s85 32 133 32c35.333 0 65.833 -4.5 91.5 -13.5s49.5 -20.5 71.5 -34.5c13.333 -8.66699 20 -20.334 20 -35.001c0 -10 -3.83301 -19.167 -11.5 -27.5
s-16.5 -12.5 -26.5 -12.5c-7.33301 0 -14.666 2 -21.999 6c-22 11.333 -40.833 19.5 -56.5 24.5s-35.167 7.5 -58.5 7.5c-57.333 0 -102.333 -16.5 -135 -49.5s-49 -76.5 -49 -130.5s16.333 -97.5 49 -130.5s77.667 -49.5 135 -49.5c23.333 0 42.833 2.5 58.5 7.5
s34.5 13.167 56.5 24.5c7.33301 4 14.666 6 21.999 6c10 0 18.833 -4.16699 26.5 -12.5s11.5 -17.5 11.5 -27.5c0 -14.667 -6.66699 -26.334 -20 -35.001c-22 -14 -45.833 -25.5 -71.5 -34.5s-56.167 -13.5 -91.5 -13.5c-48 0 -92.333 10.667 -133 32z" />
    <glyph glyph-name="d" unicode="d" horiz-adv-x="631" 
d="M172.5 21.5c-37 21 -67 51.667 -90 92s-34.5 87.5 -34.5 141.5s11.5 101.167 34.5 141.5s53 71 90 92s76.167 31.5 117.5 31.5c65.333 0 122.333 -25.333 171 -76v245c0 13.333 4.5 24.333 13.5 33s19.833 13 32.5 13s23.334 -4.5 32.001 -13.5s13 -19.833 13 -32.5v-649
c0 -12.667 -4.33301 -23.334 -13 -32.001s-19.334 -13 -32.001 -13s-23.5 4.33301 -32.5 13s-13.5 19.334 -13.5 32.001v26c-48.667 -50.667 -105.667 -76 -171 -76c-41.333 0 -80.5 10.5 -117.5 31.5zM389.5 95.5c27 13.667 50.833 31.8301 71.5 54.4971v210
c-20.667 22.667 -44.5 40.834 -71.5 54.501s-55.833 20.5 -86.5 20.5c-49.333 0 -89 -15.667 -119 -47s-45 -75.666 -45 -132.999s15 -101.666 45 -132.999s69.667 -47 119 -47c30.667 0 59.5 6.83301 86.5 20.5z" />
    <glyph glyph-name="e" unicode="e" horiz-adv-x="566" 
d="M116.5 59.5c-45.667 46.333 -68.499 111.499 -68.499 195.499c0 47.333 8.66699 91 26 131s44 72.333 80 97s80.333 37 133 37c49.333 0 92 -11.5 128 -34.5s63.333 -53.667 82 -92s28 -80.166 28 -125.499c0 -12.667 -4.16699 -23.334 -12.5 -32.001
s-19.5 -13 -33.5 -13h-339c5.33301 -46.667 22.666 -83 51.999 -109s70.333 -39 123 -39c28 0 52.5 2.66699 73.5 8s41.5 13 61.5 23c5.33301 2.66699 11.333 4 18 4c10.667 0 20 -3.66699 28 -11s12 -16.666 12 -27.999c0 -14.667 -8.66699 -27 -26 -37
c-26 -14.667 -51.667 -25.667 -77 -33s-58 -11 -98 -11c-81.333 0 -144.833 23.167 -190.5 69.5zM435.001 296.999c-2 32.667 -10.5 60 -25.5 82s-33.5 38.167 -55.5 48.5s-44.333 15.5 -67 15.5s-45 -5.16699 -67 -15.5s-40.333 -26.5 -55 -48.5s-23 -49.333 -25 -82h295z
" />
    <glyph glyph-name="f" unicode="f" horiz-adv-x="382" 
d="M130 8c-8.66699 8.66699 -12.999 19.3311 -12.999 31.998v392h-59c-10.667 0 -19.834 3.83301 -27.501 11.5s-11.5 16.834 -11.5 27.501c0 11.333 3.83301 20.666 11.5 27.999s16.834 11 27.501 11h59v58c0 40 7.16699 72.833 21.5 98.5s33 44.334 56 56.001
s47.167 17.5 72.5 17.5c31.333 0 60.333 -6.66699 87 -20c6.66699 -3.33301 12.167 -8.16602 16.5 -14.499s6.5 -13.166 6.5 -20.499c0 -10 -3.66699 -18.833 -11 -26.5s-16 -11.5 -26 -11.5c-7.33301 0 -15 1 -23 3c-16 2 -25 3 -27 3
c-27.333 0 -47.833 -6.33301 -61.5 -19s-20.5 -35.667 -20.5 -69v-55h125c11.333 0 20.666 -3.66699 27.999 -11s11 -16.666 11 -27.999c0 -10.667 -3.66699 -19.834 -11 -27.501s-16.666 -11.5 -27.999 -11.5h-125v-392c0 -12.667 -4.5 -23.334 -13.5 -32.001
s-19.833 -13 -32.5 -13s-23.334 4.33301 -32.001 13z" />
    <glyph glyph-name="g" unicode="g" horiz-adv-x="631" 
d="M200 -225c-39.333 10 -71.668 22.333 -97.001 37c-12 7.33301 -18 19 -18 35c0 10.667 3.83301 20.167 11.5 28.5s17.167 12.5 28.5 12.5c5.33301 0 11.333 -1.33301 18 -4c50.667 -25.333 105.667 -38 165 -38c102 0 153 54.333 153 163v67
c-47.333 -50.667 -104.333 -76 -171 -76c-39.333 -0 -77.5 9.83301 -114.5 29.5s-67.5 49 -91.5 88s-36 86.5 -36 142.5s12 103.5 36 142.5s54.5 68.333 91.5 88s75.167 29.5 114.5 29.5c66.667 0 123.667 -25.333 171 -76v25c0 12.667 4.33301 23.5 13 32.5
s19.334 13.5 32.001 13.5s23.5 -4.5 32.5 -13.5s13.5 -19.833 13.5 -32.5v-447c0 -84 -20.333 -148.667 -61 -194s-98.667 -68 -174 -68c-38.667 0 -77.667 5 -117 15zM391.998 103c24 13.333 47 31.3311 69 53.998v206c-22 22.667 -45 40.667 -69 54s-51.667 20 -83 20
c-50 0 -90.833 -15.167 -122.5 -45.5s-47.5 -74.166 -47.5 -131.499s15.833 -101.166 47.5 -131.499s72.5 -45.5 122.5 -45.5c31.333 0 59 6.66699 83 20z" />
    <glyph glyph-name="h" unicode="h" horiz-adv-x="609" 
d="M92 8c-8.66699 8.66699 -13 19.333 -13 32v649c0 12.667 4.33301 23.5 13 32.5s19.334 13.5 32.001 13.5s23.5 -4.5 32.5 -13.5s13.5 -19.833 13.5 -32.5v-261c25.333 28 52.666 50.333 81.999 67s64 25 104 25c36.667 0 68.5 -8.66699 95.5 -26s47.667 -41 62 -71
s21.5 -63 21.5 -99v-284c0 -12.667 -4.5 -23.334 -13.5 -32.001s-19.833 -13 -32.5 -13s-23.334 4.33301 -32.001 13s-13 19.334 -13 32.001v274c0 81.333 -36.667 122 -110 122c-33.333 0 -63.166 -8.66699 -89.499 -26s-51.166 -40.666 -74.499 -69.999v-300
c0 -12.667 -4.5 -23.334 -13.5 -32.001s-19.833 -13 -32.5 -13s-23.334 4.33301 -32.001 13z" />
    <glyph glyph-name="i" unicode="i" horiz-adv-x="249" 
d="M86 629c-10 10 -15 22 -15 36v4c0 14 5 26 15 36s22 15 36 15h6c14 0 26 -5 36 -15s15 -22 15 -36v-4c0 -14 -5 -26 -15 -36s-22 -15 -36 -15h-6c-14 0 -26 5 -36 15zM92 8c-8.66699 8.66699 -13 19.334 -13 32.001v429c0 12.667 4.33301 23.5 13 32.5
s19.334 13.5 32.001 13.5c13.333 0 24.333 -4.33301 33 -13s13 -19.667 13 -33v-429c0 -12.667 -4.5 -23.334 -13.5 -32.001s-19.833 -13 -32.5 -13s-23.334 4.33301 -32.001 13z" />
    <glyph glyph-name="j" unicode="j" horiz-adv-x="254" 
d="M91 629c-10 10 -15 22 -15 36v4c0 14 5 26 15 36s22 15 36 15h6c14 0 26 -5 36 -15s15 -22 15 -36v-4c0 -14 -5 -26 -15 -36s-22 -15 -36 -15h-6c-14 0 -26 5 -36 15zM-19 -231c-8 2.66699 -14.334 7.16699 -19.001 13.5s-7 13.833 -7 22.5c0 10 3.66699 18.833 11 26.5
s16.333 11.5 27 11.5c4 0 9 -0.5 15 -1.5s11 -1.5 15 -1.5c20.667 0 36 3.66699 46 11s15 23.333 15 48v569c0 12.667 4.33301 23.5 13 32.5s19.334 13.5 32.001 13.5c13.333 0 24.333 -4.33301 33 -13s13 -19.667 13 -33v-571c0 -41.333 -10.5 -74.5 -31.5 -99.5
s-54.167 -37.5 -99.5 -37.5c-24 0 -45 3 -63 9z" />
    <glyph glyph-name="k" unicode="k" horiz-adv-x="545" 
d="M92 8c-8.66699 8.66699 -12.998 19.333 -12.998 32v649c0 12.667 4.33301 23.5 13 32.5s19.334 13.5 32.001 13.5s23.5 -4.5 32.5 -13.5s13.5 -19.833 13.5 -32.5v-409l238 220c10 8.66699 20 13 30 13c15.333 0 26.5 -4.33301 33.5 -13s10.5 -19 10.5 -31
c0 -11.333 -5.66699 -22.666 -17 -33.999l-144 -129l181 -240c6.66699 -8.66699 10 -17.667 10 -27c0 -13.333 -4.33301 -24 -13 -32s-19.667 -12 -33 -12c-6.66699 0 -13.334 1.66699 -20.001 5s-12.334 8 -17.001 14l-172 234l-87 -79v-129
c0 -12.667 -4.5 -23.334 -13.5 -32.001s-19.833 -13 -32.5 -13s-23.334 4.33301 -32.001 13z" />
    <glyph glyph-name="l" unicode="l" horiz-adv-x="249" 
d="M92 8c-8.66699 8.66699 -13 19.334 -13 32.001v649c0 12.667 4.33301 23.5 13 32.5s19.334 13.5 32.001 13.5c13.333 0 24.333 -4.33301 33 -13s13 -19.667 13 -33v-649c0 -12.667 -4.5 -23.334 -13.5 -32.001s-19.833 -13 -32.5 -13s-23.334 4.33301 -32.001 13z" />
    <glyph glyph-name="m" unicode="m" horiz-adv-x="918" 
d="M92 8c-8.66699 8.66699 -13.001 19.3379 -13.001 32.0049v429c0 12.667 4.33301 23.5 13 32.5s19.334 13.5 32.001 13.5s23.5 -4.5 32.5 -13.5s13.5 -19.833 13.5 -32.5v-41c18.667 26.667 41.167 48.667 67.5 66s60.5 26 102.5 26c37.333 0 69.333 -10 96 -30
s45.667 -44.333 57 -73c41.333 68.667 102.666 103 183.999 103c37.333 0 68.5 -9.33301 93.5 -28s43.5 -42.667 55.5 -72s18 -60 18 -92v-288c0 -12.667 -4.5 -23.334 -13.5 -32.001s-19.833 -13 -32.5 -13s-23.334 4.33301 -32.001 13s-13 19.334 -13 32.001v270
c0 43.333 -7.66699 75.166 -23 95.499s-41.666 30.5 -78.999 30.5c-34 0 -62.167 -8.83301 -84.5 -26.5s-42.166 -40.834 -59.499 -69.501v-300c0 -12.667 -4.5 -23.334 -13.5 -32.001s-19.833 -13 -32.5 -13s-23.334 4.33301 -32.001 13s-13 19.334 -13 32.001v270
c0 43.333 -7.66699 75.166 -23 95.499s-41.666 30.5 -78.999 30.5c-34 0 -62.167 -8.83301 -84.5 -26.5s-42.166 -40.834 -59.499 -69.501v-300c0 -12.667 -4.5 -23.334 -13.5 -32.001s-19.833 -13 -32.5 -13s-23.334 4.33301 -32.001 13z" />
    <glyph glyph-name="n" unicode="n" horiz-adv-x="609" 
d="M92 8c-8.66699 8.66699 -13 19.333 -13 32v429c0 12.667 4.33301 23.5 13 32.5s19.334 13.5 32.001 13.5s23.5 -4.5 32.5 -13.5s13.5 -19.833 13.5 -32.5v-41c25.333 28 52.666 50.333 81.999 67s64 25 104 25c36.667 0 68.5 -8.66699 95.5 -26s47.667 -41 62 -71
s21.5 -63 21.5 -99v-284c0 -12.667 -4.5 -23.334 -13.5 -32.001s-19.833 -13 -32.5 -13s-23.334 4.33301 -32.001 13s-13 19.334 -13 32.001v274c0 81.333 -36.667 122 -110 122c-33.333 0 -63.166 -8.66699 -89.499 -26s-51.166 -40.666 -74.499 -69.999v-300
c0 -12.667 -4.5 -23.334 -13.5 -32.001s-19.833 -13 -32.5 -13s-23.334 4.33301 -32.001 13z" />
    <glyph glyph-name="o" unicode="o" horiz-adv-x="608" 
d="M169 23c-38.667 22 -68.5 53.167 -89.5 93.5s-31.5 86.5 -31.5 138.5s10.5 98.167 31.5 138.5s50.833 71.5 89.5 93.5s83.667 33 135 33c50.667 0 95.334 -11 134.001 -33s68.667 -53.167 90 -93.5s32 -86.5 32 -138.5s-10.667 -98.167 -32 -138.5
s-51.333 -71.5 -90 -93.5s-83.334 -33 -134.001 -33c-51.333 0 -96.333 11 -135 33zM382.5 92c25 12.667 45.667 32.667 62 60s24.5 62 24.5 104c0 41.333 -8.16699 75.666 -24.5 102.999s-37 47.166 -62 59.499s-51.167 18.5 -78.5 18.5c-28 0 -54.5 -6.16699 -79.5 -18.5
s-45.5 -32.166 -61.5 -59.499s-24 -61.666 -24 -102.999c0 -42 8 -76.667 24 -104s36.5 -47.333 61.5 -60s51.5 -19 79.5 -19c27.333 0 53.5 6.33301 78.5 19z" />
    <glyph glyph-name="p" unicode="p" horiz-adv-x="631" 
d="M92 -221.5c-8.66699 9 -13 19.833 -13 32.5v659c0 12.667 4.33301 23.334 13 32.001s19.334 13 32.001 13s23.5 -4.33301 32.5 -13s13.5 -19.334 13.5 -32.001v-26c48.667 50.667 105.667 76 171 76c41.333 0 80.5 -10.5 117.5 -31.5s67 -51.667 90 -92
s34.5 -87.5 34.5 -141.5s-11.5 -101.167 -34.5 -141.5s-53 -71 -90 -92s-76.167 -31.5 -117.5 -31.5c-65.333 0 -122.333 25.333 -171 76v-255c0 -13.333 -4.33301 -24.333 -13 -33s-19.667 -13 -33 -13c-12.667 0 -23.334 4.5 -32.001 13.5zM447 122
c30 31.333 45 75.6699 45 133.003s-15 101.666 -45 132.999s-69.667 47 -119 47c-30.667 0 -59.5 -6.83301 -86.5 -20.5s-50.833 -31.834 -71.5 -54.501v-210c20.667 -22.667 44.5 -40.834 71.5 -54.501s55.833 -20.5 86.5 -20.5c49.333 0 89 15.667 119 47z" />
    <glyph glyph-name="q" unicode="q" horiz-adv-x="631" 
d="M474.5 -222c-9 8.66699 -13.5 19.667 -13.5 33v255c-48.667 -50.667 -105.667 -76 -171 -76c-41.333 0 -80.5 10.5 -117.5 31.5s-67 51.667 -90 92s-34.5 87.5 -34.5 141.5s11.5 101.167 34.5 141.5s53 71 90 92s76.167 31.5 117.5 31.5
c65.333 0 122.333 -25.333 171 -76v26c0 12.667 4.5 23.334 13.5 32.001s19.833 13 32.5 13s23.334 -4.33301 32.001 -13s13 -19.334 13 -32.001v-659c0 -12.667 -4.33301 -23.5 -13 -32.5s-19.334 -13.5 -32.001 -13.5s-23.5 4.33301 -32.5 13zM389.5 95.5
c27 13.667 50.833 31.8301 71.5 54.4971v210c-20.667 22.667 -44.5 40.834 -71.5 54.501s-55.833 20.5 -86.5 20.5c-49.333 0 -89 -15.667 -119 -47s-45 -75.666 -45 -132.999s15 -101.666 45 -132.999s69.667 -47 119 -47c30.667 0 59.5 6.83301 86.5 20.5z" />
    <glyph glyph-name="r" unicode="r" horiz-adv-x="383" 
d="M92 8c-8.66699 8.66699 -13 19.335 -13 32.002v429c0 12.667 4.33301 23.5 13 32.5s19.334 13.5 32.001 13.5s23.5 -4.5 32.5 -13.5s13.5 -19.833 13.5 -32.5v-43c46.667 62.667 99 94 157 94h5c12.667 0 23.167 -4.33301 31.5 -13s12.5 -19.334 12.5 -32.001
s-4.33301 -23 -13 -31s-19.667 -12 -33 -12h-5c-32 0 -61.333 -7.83301 -88 -23.5s-49 -37.167 -67 -64.5v-304c0 -12.667 -4.5 -23.334 -13.5 -32.001s-19.833 -13 -32.5 -13s-23.334 4.33301 -32.001 13z" />
    <glyph glyph-name="s" unicode="s" horiz-adv-x="480" 
d="M62 35c-11.333 8 -16.999 19.002 -16.999 33.002c0 10.667 3.66699 20 11 28s16.666 12 27.999 12c6 0 12 -1.33301 18 -4c21.333 -9.33301 42.666 -16.666 63.999 -21.999s45.333 -8 72 -8c74 0 111 23.667 111 71c0 15.333 -8.5 27 -25.5 35s-44.833 17 -83.5 27
c-39.333 9.33301 -71.833 19 -97.5 29s-47.667 25.167 -66 45.5s-27.5 47.166 -27.5 80.499c0 46.667 16.833 84.667 50.5 114s81.834 44 144.501 44c51.333 0 99.666 -8.33301 144.999 -25c9.33301 -2.66699 16.5 -7.66699 21.5 -15s7.5 -15 7.5 -23
c0 -10.667 -3.83301 -20 -11.5 -28s-17.167 -12 -28.5 -12c-3.33301 0 -7.66602 0.666992 -12.999 2c-38.667 12 -76.667 18 -114 18c-36 0 -64.167 -6.5 -84.5 -19.5s-30.5 -29.833 -30.5 -50.5c0 -20 9.33301 -34.667 28 -44s47.667 -18.333 87 -27
c39.333 -10 71.333 -19.833 96 -29.5s45.834 -24.834 63.501 -45.501s26.5 -48.334 26.5 -83.001c0 -42.667 -16.833 -78 -50.5 -106s-81.167 -42 -142.5 -42c-66.667 0 -127.334 15 -182.001 45z" />
    <glyph glyph-name="t" unicode="t" horiz-adv-x="382" 
d="M109 122l0.00195312 309.998h-71c-5.33301 0 -9.83301 1.83301 -13.5 5.5s-5.5 8.16699 -5.5 13.5c0 6.66699 3 12.334 9 17.001l136 133c6 6 11.667 9 17 9s9.83301 -2 13.5 -6s5.5 -8.66699 5.5 -14v-80h113c11.333 0 20.666 -3.66699 27.999 -11
s11 -16.666 11 -27.999c0 -10.667 -3.66699 -19.834 -11 -27.501s-16.666 -11.5 -27.999 -11.5h-113v-302c0 -26 6.16699 -42.5 18.5 -49.5s27.833 -10.5 46.5 -10.5c13.333 0 26.666 2 39.999 6c2.66699 0.666992 5.5 1.33398 8.5 2.00098s6.83301 1 11.5 1
c9.33301 0 17.666 -3.5 24.999 -10.5s11 -15.5 11 -25.5c0 -15.333 -7.66699 -27 -23 -35c-26 -12 -53.667 -18 -83 -18c-97.333 0 -146 44 -146 132z" />
    <glyph glyph-name="u" unicode="u" horiz-adv-x="609" 
d="M157.5 16c-27 17.333 -47.667 41.001 -62 71.001s-21.5 63 -21.5 99v284c0 12.667 4.5 23.334 13.5 32.001s19.833 13 32.5 13s23.334 -4.33301 32.001 -13s13 -19.334 13 -32.001v-274c0 -81.333 36.667 -122 110 -122c33.333 0 63.166 8.66699 89.499 26
s51.166 40.666 74.499 69.999v300c0 12.667 4.5 23.334 13.5 32.001s19.833 13 32.5 13s23.334 -4.33301 32.001 -13s13 -19.334 13 -32.001v-429c0 -12.667 -4.33301 -23.5 -13 -32.5s-19.334 -13.5 -32.001 -13.5s-23.5 4.5 -32.5 13.5s-13.5 19.833 -13.5 32.5v41
c-25.333 -28 -52.666 -50.333 -81.999 -67s-64 -25 -104 -25c-36.667 0 -68.5 8.66699 -95.5 26z" />
    <glyph glyph-name="v" unicode="v" horiz-adv-x="530" 
d="M227 5.5c-10 7 -17.3369 15.833 -22.0039 26.5l-174 416c-3.33301 8 -5 15 -5 21c0 12.667 4.33301 23.5 13 32.5s19.334 13.5 32.001 13.5c8.66699 0 16.834 -2.5 24.501 -7.5s13.167 -11.167 16.5 -18.5l153 -388l153 388c3.33301 7.33301 8.83301 13.5 16.5 18.5
s15.834 7.5 24.501 7.5c12.667 0 23.334 -4.5 32.001 -13.5s13 -19.833 13 -32.5c0 -6 -1.66699 -13 -5 -21l-174 -416c-4.66699 -10.667 -12 -19.5 -22 -26.5s-21 -10.5 -33 -10.5h-10c-12 0 -23 3.5 -33 10.5z" />
    <glyph glyph-name="w" unicode="w" horiz-adv-x="792" 
d="M195 7c-10.667 8 -18.002 18 -22.002 30l-142 416c-2 6 -3 11.667 -3 17c0 12.667 4.33301 23.334 13 32.001s19.334 13 32.001 13c9.33301 0 17.833 -2.5 25.5 -7.5s12.834 -11.5 15.501 -19.5l117 -385l116 376c3.33301 10.667 9.5 19.334 18.5 26.001
s19.167 10 30.5 10s21.5 -3.33301 30.5 -10s15.167 -15.334 18.5 -26.001l116 -376l117 385c2.66699 8 7.83398 14.5 15.501 19.5s16.167 7.5 25.5 7.5c12.667 0 23.334 -4.33301 32.001 -13s13 -19.334 13 -32.001c0 -5.33301 -1 -11 -3 -17l-142 -416
c-4 -12 -11.333 -22 -22 -30s-22.667 -12 -36 -12s-25.333 4 -36 12s-18.334 18.333 -23.001 31l-106 331l-106 -331c-4.66699 -12.667 -12.334 -23 -23.001 -31s-22.667 -12 -36 -12s-25.333 4 -36 12z" />
    <glyph glyph-name="x" unicode="x" horiz-adv-x="541" 
d="M62.5 7.5c-7.66699 8.33301 -11.5 19.501 -11.5 33.501c0 10 3.33301 19.333 10 28l155 183l-155 189c-7.33301 9.33301 -11 19 -11 29c0 13.333 4.33301 24.166 13 32.499s19.334 12.5 32.001 12.5c16 0 28 -5.66699 36 -17l140 -173l139 173c8 11.333 19.667 17 35 17
c13.333 0 24.333 -4.16699 33 -12.5s13 -18.5 13 -30.5c0 -10 -3.33301 -19.333 -10 -28l-158 -186l156 -188c7.33301 -8 11 -17.667 11 -29c0 -12.667 -4 -23.5 -12 -32.5s-19.333 -13.5 -34 -13.5s-26.334 6 -35.001 18l-142 170l-134 -168c-10 -13.333 -23 -20 -39 -20
c-13.333 0 -23.833 4.16699 -31.5 12.5z" />
    <glyph glyph-name="y" unicode="y" horiz-adv-x="537" 
d="M162.5 -222c-8.33301 8.66699 -12.502 19.001 -12.502 31.001c0 5.33301 1 10.666 3 15.999l65 167l-188 458c-2.66699 6.66699 -4 13 -4 19c0 12.667 4.33301 23.5 13 32.5s19.334 13.5 32.001 13.5c9.33301 0 17.833 -2.66699 25.5 -8s13.167 -12 16.5 -20l154 -382
l157 380c8.66699 20 22.667 30 42 30c12.667 0 23.334 -4.5 32.001 -13.5s13 -19.833 13 -32.5c0 -6 -1 -11.667 -3 -17l-273 -656c-9.33301 -20.667 -23.333 -31 -42 -31c-12 0 -22.167 4.33301 -30.5 13z" />
    <glyph glyph-name="z" unicode="z" horiz-adv-x="498" 
d="M58 14c-12 9.33301 -18 22.333 -18 39c0 15.333 5.33301 29 16 41l288 331h-253c-12 0 -22 4 -30 12s-12 18 -12 30s4 22.167 12 30.5s18 12.5 30 12.5h303c17.333 0 31.333 -5.33301 42 -16s16 -24.334 16 -41.001c0 -15.333 -4.66699 -28.666 -14 -39.999l-280 -328
h257c12 0 22.167 -4.16699 30.5 -12.5s12.5 -18.5 12.5 -30.5s-4.16699 -22 -12.5 -30s-18.5 -12 -30.5 -12h-312c-18 0 -33 4.66699 -45 14z" />
    <glyph glyph-name="braceleft" unicode="{" horiz-adv-x="344" 
d="M165.5 -119c-24.333 17.333 -36.5 48.6699 -36.5 94.0029v211c0 14 -1.66699 25.667 -5 35s-11.666 18.166 -24.999 26.499s-34 14.833 -62 19.5c-11.333 2 -19.833 6.5 -25.5 13.5s-8.5 15.833 -8.5 26.5s2.83301 19.5 8.5 26.5s14.167 11.5 25.5 13.5
c28 4.66699 48.667 11.167 62 19.5s21.666 17.166 24.999 26.499s5 21 5 35v211c0 45.333 12.167 76.666 36.5 93.999s58.833 26 103.5 26h12c9.33301 0 17.5 -3.5 24.5 -10.5s10.5 -15.167 10.5 -24.5s-3.5 -17.5 -10.5 -24.5s-15.167 -10.5 -24.5 -10.5h-15
c-25.333 0 -41.5 -4 -48.5 -12s-10.5 -18 -10.5 -30v-222c0 -56.667 -30 -96 -90 -118c60 -22 90 -61.333 90 -118v-222c0 -12 3.5 -22 10.5 -30s23.167 -12 48.5 -12h15c9.33301 0 17.5 -3.5 24.5 -10.5s10.5 -15.167 10.5 -24.5s-3.5 -17.5 -10.5 -24.5
s-15.167 -10.5 -24.5 -10.5h-12c-44.667 0 -79.167 8.66699 -103.5 26z" />
    <glyph glyph-name="bar" unicode="|" horiz-adv-x="253" 
d="M97.5 -184.5c-7.66699 7.66699 -11.5 17.167 -11.5 28.5v856c0 11.333 3.83301 21 11.5 29s17.167 12 28.5 12s21 -4 29 -12s12 -17.667 12 -29v-856c0 -11.333 -4 -20.833 -12 -28.5s-17.667 -11.5 -29 -11.5s-20.833 3.83301 -28.5 11.5z" />
    <glyph glyph-name="braceright" unicode="}" horiz-adv-x="344" 
d="M38.5 -134.5c-7 7 -10.5 15.1631 -10.5 24.4961s3.5 17.5 10.5 24.5s15.167 10.5 24.5 10.5h15c25.333 0 41.5 4 48.5 12s10.5 18 10.5 30v222c0 56.667 30 96 90 118c-60 22 -90 61.333 -90 118v222c0 12 -3.5 22 -10.5 30s-23.167 12 -48.5 12h-15
c-9.33301 0 -17.5 3.5 -24.5 10.5s-10.5 15.167 -10.5 24.5s3.5 17.5 10.5 24.5s15.167 10.5 24.5 10.5h12c44.667 0 79.167 -8.66699 103.5 -26s36.5 -48.666 36.5 -93.999v-211c0 -14 1.66699 -25.667 5 -35s11.666 -18.166 24.999 -26.499s34 -14.833 62 -19.5
c11.333 -2 19.833 -6.5 25.5 -13.5s8.5 -15.833 8.5 -26.5s-2.83301 -19.5 -8.5 -26.5s-14.167 -11.5 -25.5 -13.5c-28 -4.66699 -48.667 -11.167 -62 -19.5s-21.666 -17.166 -24.999 -26.499s-5 -21 -5 -35v-211c0 -45.333 -12.167 -76.666 -36.5 -93.999
s-58.833 -26 -103.5 -26h-12c-9.33301 0 -17.5 3.5 -24.5 10.5z" />
    <glyph glyph-name="asciitilde" unicode="~" horiz-adv-x="638" 
d="M370.5 217c-21 7.33301 -46.501 18 -76.501 32c-23.333 11.333 -42.166 19.666 -56.499 24.999s-28.833 8 -43.5 8c-36.667 0 -60 -18 -70 -54c-1.33301 -5.33301 -4.16602 -9.83301 -8.49902 -13.5s-9.5 -5.5 -15.5 -5.5c-6.66699 0 -12.667 2.66699 -18 8
s-8 11.333 -8 18c0 20.667 5.83301 41.334 17.5 62.001s27.334 37.5 47.001 50.5s40.5 19.5 62.5 19.5c26 0 49.5 -3.66699 70.5 -11s46.5 -18 76.5 -32c23.333 -11.333 42.166 -19.666 56.499 -24.999s28.833 -8 43.5 -8c18.667 0 31.667 3 39 9s15 16.667 23 32
c2 5.33301 5 11.666 9 18.999c5.33301 10 13.333 15 24 15c7.33301 0 13.666 -2.66699 18.999 -8s7 -13 5 -23c-8 -42 -23.333 -74 -46 -96s-49.667 -33 -81 -33c-25.333 0 -48.5 3.66699 -69.5 11z" />
    <glyph glyph-name="uni00A0" unicode="&#xa0;" horiz-adv-x="260" 
 />
    <glyph glyph-name="exclamdown" unicode="&#xa1;" horiz-adv-x="259" 
d="M88.5 412.5c-11.667 11.667 -17.5 25.5 -17.5 41.5c0 16.667 5.83301 30.834 17.5 42.501s25.5 17.5 41.5 17.5c16.667 0 30.834 -5.83301 42.501 -17.5s17.5 -25.834 17.5 -42.501c0 -16 -5.83301 -29.833 -17.5 -41.5s-25.834 -17.5 -42.501 -17.5
c-16 0 -29.833 5.83301 -41.5 17.5zM93 -178c-10 10 -15 22.333 -15 37v99l18 330c0.666992 8.66699 4 15.667 10 21s14 8 24 8s17.833 -2.66699 23.5 -8s8.83398 -12.333 9.50098 -21l18 -330v-99c0 -14.667 -4.83301 -27 -14.5 -37s-21.834 -15 -36.501 -15s-27 5 -37 15z
" />
    <glyph glyph-name="cent" unicode="&#xa2;" horiz-adv-x="551" 
d="M163 -114.5c-5.33301 5.66699 -7.99902 12.1709 -7.99902 19.5039c0 4.66699 1 9 3 13l33 97c-44.667 20 -80.334 50.667 -107.001 92s-40 90.666 -40 147.999c0 54 12.167 101 36.5 141s56.833 70.667 97.5 92s85 32 133 32c13.333 0 30.666 -1.33301 51.999 -4l29 85
c2 5.33301 5.5 9.83301 10.5 13.5s10.5 5.5 16.5 5.5c8 0 14.667 -2.83301 20 -8.5s8 -12.5 8 -20.5c0 -2.66699 -0.666992 -6 -2 -10l-27 -80c18.667 -6.66699 37.334 -16.334 56.001 -29.001c13.333 -8.66699 20 -20.334 20 -35.001c0 -10 -3.83301 -19.167 -11.5 -27.5
s-16.5 -12.5 -26.5 -12.5c-7.33301 0 -14.666 2 -21.999 6l-43 20l-118 -344c12.667 -2.66699 28 -4 46 -4c23.333 0 42.833 2.5 58.5 7.5s34.5 13.167 56.5 24.5c7.33301 4 14.666 6 21.999 6c10 0 18.833 -4.16699 26.5 -12.5s11.5 -17.5 11.5 -27.5
c0 -14.667 -6.66699 -26.334 -20 -35.001c-22 -14 -45.833 -25.5 -71.5 -34.5s-56.167 -13.5 -91.5 -13.5c-21.333 0 -43.333 2.66699 -66 8l-35 -103c-2 -6 -5.5 -10.5 -10.5 -13.5s-10.5 -4.5 -16.5 -4.5c-8 0 -14.667 2.83301 -20 8.5zM335.001 434.004
c-3.33301 0.666992 -8.66699 1 -16 1c-57.333 0 -102.333 -16.5 -135 -49.5s-49 -76.5 -49 -130.5c0 -36 7.33301 -67.5 22 -94.5s35.667 -47.833 63 -62.5z" />
    <glyph glyph-name="sterling" unicode="&#xa3;" horiz-adv-x="604" 
d="M553 81.5c8 -7.66699 12.002 -17.168 12.002 -28.501c0 -15.333 -7.66699 -27.333 -23 -36c-32.667 -18 -68 -27 -106 -27c-18.667 0 -34.834 1.83301 -48.501 5.5s-30.5 9.16699 -50.5 16.5c-18.667 7.33301 -35.167 13 -49.5 17s-31.166 6 -50.499 6
c-38.667 0 -74.667 -11.333 -108 -34c-7.33301 -5.33301 -15 -8 -23 -8c-10 0 -18.667 3.5 -26 10.5s-11 15.167 -11 24.5c0 12.667 4.66699 23 14 31c25.333 24 47 53.333 65 88s27 70.667 27 108c0 12.667 -1 25 -3 37h-97c-10 0 -18.5 3.5 -25.5 10.5
s-10.5 15.5 -10.5 25.5s3.5 18.667 10.5 26s15.5 11 25.5 11h79c-10 30.667 -17.333 55.5 -22 74.5s-7 39.833 -7 62.5c0 64 22.167 114.333 66.5 151s103.166 55 176.499 55c49.333 0 97.333 -9.66699 144 -29c20 -8 30 -21.333 30 -40c0 -12 -4 -22 -12 -30
s-18 -12 -30 -12c-4.66699 0 -11 1.33301 -19 4c-39.333 12.667 -75.666 19 -108.999 19c-56.667 0 -96.834 -11 -120.501 -33s-35.5 -49 -35.5 -81c0 -16.667 2 -34 6 -52s10 -39.667 18 -65l7 -24h167c10 0 18.667 -3.66699 26 -11s11 -16 11 -26
c0 -10.667 -3.5 -19.334 -10.5 -26.001s-15.833 -10 -26.5 -10h-151c1.33301 -13.333 2 -23.666 2 -30.999c0 -51.333 -14 -99 -42 -143l25 1c17.333 0 32.833 -1.66699 46.5 -5s32.5 -8.66602 56.5 -15.999c18.667 -6.66699 35.167 -11.667 49.5 -15s29.166 -5 44.499 -5
c21.333 0 42.333 3.66699 63 11c8 2.66699 13.333 4 16 4c11.333 0 21 -3.83301 29 -11.5z" />
    <glyph glyph-name="currency" unicode="&#xa4;" horiz-adv-x="668" 
d="M76.5 92c-7 7.33301 -10.5 16 -10.5 26s3.66699 18.667 11 26l65 65c-30 42.667 -45 89.334 -45 140.001s15 97.334 45 140.001l-65 65c-7.33301 7.33301 -11 16 -11 26s3.5 18.667 10.5 26s15.833 11 26.5 11c8.66699 0 17.334 -3.66699 26.001 -11l66 -65
c42 30 88.333 45 139 45s97 -15 139 -45l66 65c8.66699 7.33301 17.334 11 26.001 11c10.667 0 19.5 -3.66699 26.5 -11s10.5 -16 10.5 -26s-3.66699 -18.667 -11 -26l-65 -65c30 -42.667 45 -89.334 45 -140.001s-15 -97.334 -45 -140.001l65 -65
c7.33301 -7.33301 11 -16 11 -26s-3.5 -18.667 -10.5 -26s-15.833 -11 -26.5 -11c-8.66699 0 -17.334 3.66699 -26.001 11l-66 65c-42 -30 -88.333 -45 -139 -45s-97 15 -139 45l-66 -65c-8.66699 -7.33301 -17.334 -11 -26.001 -11c-10.667 0 -19.5 3.66699 -26.5 11z
M412 214c24 14 43 33 57 57s21 50 21 78s-7 54 -21 78s-33 43 -57 57s-50 21 -78 21s-54 -7 -78 -21s-43 -33 -57 -57s-21 -50 -21 -78s7 -54 21 -78s33 -43 57 -57s50 -21 78 -21s54 7 78 21z" />
    <glyph glyph-name="yen" unicode="&#xa5;" horiz-adv-x="658" 
d="M297.5 7c-9 8.66699 -13.498 19.334 -13.498 32.001v112h-141c-10.667 0 -19.5 3.5 -26.5 10.5s-10.5 15.833 -10.5 26.5s3.5 19.667 10.5 27s15.833 11 26.5 11h141v64h-141c-10.667 0 -19.5 3.5 -26.5 10.5s-10.5 15.833 -10.5 26.5s3.5 19.667 10.5 27
s15.833 11 26.5 11h98l-168 274c-5.33301 8.66699 -8 17.334 -8 26.001c0 14 4.66699 25.333 14 34s20.666 13 33.999 13c18 0 32.333 -9.33301 43 -28l173 -303l173 303c10.667 18.667 25 28 43 28c13.333 0 24.666 -4.33301 33.999 -13s14 -20 14 -34
c0 -8.66699 -2.66699 -17.334 -8 -26.001l-168 -274h98c10.667 0 19.5 -3.66699 26.5 -11s10.5 -16.333 10.5 -27s-3.5 -19.5 -10.5 -26.5s-15.833 -10.5 -26.5 -10.5h-141v-64h141c10.667 0 19.5 -3.66699 26.5 -11s10.5 -16.333 10.5 -27s-3.5 -19.5 -10.5 -26.5
s-15.833 -10.5 -26.5 -10.5h-141v-112c0 -12.667 -4.5 -23.334 -13.5 -32.001s-19.5 -13 -31.5 -13s-22.5 4.33301 -31.5 13z" />
    <glyph glyph-name="brokenbar" unicode="&#xa6;" horiz-adv-x="253" 
d="M97.5 375.5c-7.66699 7.66699 -11.5 17.167 -11.5 28.5v296c0 11.333 3.83301 21 11.5 29s17.167 12 28.5 12s21 -4 29 -12s12 -17.667 12 -29v-296c0 -11.333 -4 -20.833 -12 -28.5s-17.667 -11.5 -29 -11.5s-20.833 3.83301 -28.5 11.5zM97.5 -184.5
c-7.66699 7.66699 -11.5 17.167 -11.5 28.5v296c0 11.333 3.83301 21 11.5 29s17.167 12 28.5 12s21 -4 29 -12s12 -17.667 12 -29v-296c0 -11.333 -4 -20.833 -12 -28.5s-17.667 -11.5 -29 -11.5s-20.833 3.83301 -28.5 11.5z" />
    <glyph glyph-name="section" unicode="&#xa7;" horiz-adv-x="529" 
d="M63 -58c-4.66699 2.66699 -8.50098 7.16602 -11.501 13.499s-4.5 12.833 -4.5 19.5c0 11.333 3.83301 20.833 11.5 28.5s16.834 11.5 27.501 11.5c6 0 13 -2 21 -6c37.333 -18.667 83.666 -28 138.999 -28c75.333 0 113 23.333 113 70
c0 18.667 -9.33301 33.834 -28 45.501s-48 25.167 -88 40.5c-38.667 14.667 -70.5 28.334 -95.5 41.001s-46.333 30.167 -64 52.5s-26.5 49.833 -26.5 82.5c0 62 32.667 104 98 126c-42.667 31.333 -64 71.666 -64 120.999c0 42.667 16.833 78 50.5 106s81.167 42 142.5 42
c56 0 106 -9 150 -27c8 -3.33301 14.5 -8.33301 19.5 -15s7.5 -14.667 7.5 -24c0 -10.667 -4.16699 -20 -12.5 -28s-17.833 -12 -28.5 -12c-4.66699 0 -9.66699 1 -15 3c-34 12.667 -72.333 19 -115 19c-75.333 0 -113 -23.333 -113 -70
c0 -18.667 9.33301 -33.834 28 -45.501s48 -25.167 88 -40.5c39.333 -15.333 71.333 -29.333 96 -42s45.834 -30 63.501 -52s26.5 -49.333 26.5 -82c0 -63.333 -33 -105.666 -99 -126.999c43.333 -29.333 65 -69.333 65 -120c0 -42.667 -16.833 -78 -50.5 -106
s-81.167 -42 -142.5 -42c-78.667 0 -141.667 15 -189 45zM394.999 285.999c0 16.667 -5.49902 30.834 -16.499 42.501s-24.833 21.334 -41.5 29.001s-39.667 17.167 -69 28.5l-23.5 9c-9 3.33301 -18.833 7.33301 -29.5 12c-49.333 -12 -74 -41.333 -74 -88
c0 -16.667 5.5 -30.834 16.5 -42.501s24.667 -21.334 41 -29.001s39.166 -17.167 68.499 -28.5l53 -21c50 12 75 41.333 75 88z" />
    <glyph glyph-name="dieresis" unicode="&#xa8;" horiz-adv-x="400" 
d="M80 590c-10 10 -15 22 -15 36s5 26 15 36s22 15 36 15s26 -5 36 -15s15 -22 15 -36s-5 -26 -15 -36s-22 -15 -36 -15s-26 5 -36 15zM248 590c-10 10 -15 22 -15 36s5 26 15 36s22 15 36 15s26 -5 36 -15s15 -22 15 -36s-5 -26 -15 -36s-22 -15 -36 -15s-26 5 -36 15z" />
    <glyph glyph-name="copyright" unicode="&#xa9;" horiz-adv-x="819" 
d="M230.5 39.5c-55 32.333 -98.667 75.833 -131 130.5s-48.5 114.334 -48.5 179.001s16.167 124.334 48.5 179.001s76 98.167 131 130.5s114.833 48.5 179.5 48.5s124.5 -16.167 179.5 -48.5s98.667 -75.833 131 -130.5s48.5 -114.334 48.5 -179.001
s-16.167 -124.334 -48.5 -179.001s-76 -98.167 -131 -130.5s-114.833 -48.5 -179.5 -48.5s-124.5 16.167 -179.5 48.5zM563.5 84.5c47 27.667 84.333 64.834 112 111.501s41.5 97.667 41.5 153s-13.833 106.333 -41.5 153s-65 83.834 -112 111.501s-98.5 41.5 -154.5 41.5
c-55.333 0 -106.333 -13.833 -153 -41.5s-83.834 -64.834 -111.501 -111.501s-41.5 -97.667 -41.5 -153s13.833 -106.333 41.5 -153s64.834 -83.834 111.501 -111.501s97.667 -41.5 153 -41.5c56 0 107.5 13.833 154.5 41.5zM315.5 171
c-29 16.667 -51.667 40.3281 -68 70.9951s-24.5 66.334 -24.5 107.001s8.16699 76.334 24.5 107.001s39 54.334 68 71.001s62.5 25 100.5 25c38.667 0 72.334 -9.16699 101.001 -27.5s51.334 -44.166 68.001 -77.499c2 -4 3 -8.33301 3 -13c0 -8.66699 -3 -16.167 -9 -22.5
s-13.667 -9.5 -23 -9.5c-12.667 0 -23 7.33301 -31 22c-25.333 44.667 -61.666 67 -108.999 67c-40 0 -71 -13.667 -93 -41s-33 -61 -33 -101s11 -73.667 33 -101s53 -41 93 -41c47.333 0 83.666 22.333 108.999 67c8 14.667 18.333 22 31 22c9.33301 0 17 -3 23 -9
s9 -13.667 9 -23c0 -4.66699 -1 -9 -3 -13c-16.667 -33.333 -39.334 -59.166 -68.001 -77.499s-62.334 -27.5 -101.001 -27.5c-38 0 -71.5 8.33301 -100.5 25z" />
    <glyph glyph-name="ordfeminine" unicode="&#xaa;" horiz-adv-x="485" 
d="M115 368c-22.667 19.333 -34.001 45.333 -34.001 78c0 34 13.5 60.333 40.5 79s67.167 28 120.5 28h76v2c0 30 -7 51.667 -21 65s-35.333 20 -64 20c-31.333 0 -61.666 -5.33301 -90.999 -16c-4 -1.33301 -7.33301 -2 -10 -2c-8.66699 0 -16.167 3.16699 -22.5 9.5
s-9.5 13.833 -9.5 22.5c0 6.66699 2.16699 12.667 6.5 18s9.83301 9.33301 16.5 12c42 16 82.333 24 121 24c48 0 84.333 -13.667 109 -41s37 -60 37 -98v-191c0 -10 -3.5 -18.5 -10.5 -25.5s-15.5 -10.5 -25.5 -10.5s-18.5 3.5 -25.5 10.5s-10.5 15.5 -10.5 25.5v9
c-12 -14 -28.167 -25.5 -48.5 -34.5s-44.5 -13.5 -72.5 -13.5c-32 0 -59.333 9.66699 -82 29zM273.499 417.5c17 9 31.833 20.167 44.5 33.5v48h-68c-31.333 0 -55.333 -3.66699 -72 -11s-25 -19.333 -25 -36c0 -32 22.333 -48 67 -48c18.667 0 36.5 4.5 53.5 13.5z
M74.499 237.5c-5.66699 5.66699 -8.5 12.167 -8.5 19.5s2.83301 13.833 8.5 19.5s12.167 8.5 19.5 8.5h283c7.33301 0 13.833 -2.83301 19.5 -8.5s8.5 -12.167 8.5 -19.5s-2.83301 -13.833 -8.5 -19.5s-12.167 -8.5 -19.5 -8.5h-283c-7.33301 0 -13.833 2.83301 -19.5 8.5z
" />
    <glyph glyph-name="guillemotleft" unicode="&#xab;" horiz-adv-x="585" 
d="M236 31l-164 181.001c-12 13.333 -18 27.666 -18 42.999s6 29.666 18 42.999l164 181c6 7.33301 15.333 11 28 11c11.333 0 20.666 -3.66699 27.999 -11s11 -16.666 11 -27.999c0 -10 -3 -18.667 -9 -26l-160 -170l160 -170c6 -6.66699 9 -15.334 9 -26.001
c0 -11.333 -3.66699 -20.666 -11 -27.999s-16.666 -11 -27.999 -11c-12.667 0 -22 3.66699 -28 11zM444 31.001l-164 181.001c-12 13.333 -18 27.666 -18 42.999s6 29.666 18 42.999l164 181c6 7.33301 15.333 11 28 11c11.333 0 20.666 -3.66699 27.999 -11
s11 -16.666 11 -27.999c0 -10 -3 -18.667 -9 -26l-160 -170l160 -170c6 -6.66699 9 -15.334 9 -26.001c0 -11.333 -3.66699 -20.666 -11 -27.999s-16.666 -11 -27.999 -11c-12.667 0 -22 3.66699 -28 11z" />
    <glyph glyph-name="logicalnot" unicode="&#xac;" horiz-adv-x="579" 
d="M431.5 178.5c-7 7 -10.499 15.832 -10.499 26.499v106h-312c-10 0 -18.5 3.5 -25.5 10.5s-10.5 15.5 -10.5 25.5s3.5 18.5 10.5 25.5s15.5 10.5 25.5 10.5h345c11.333 0 21.166 -4.16699 29.499 -12.5s12.5 -18.166 12.5 -29.499v-136
c0 -10.667 -3.66699 -19.5 -11 -26.5s-16.333 -10.5 -27 -10.5s-19.5 3.5 -26.5 10.5z" />
    <glyph glyph-name="uni00AD" unicode="&#xad;" horiz-adv-x="408" 
d="M80.5 251.5c-7.66699 7.66699 -11.5 17.167 -11.5 28.5s3.83301 21 11.5 29s17.167 12 28.5 12h189c11.333 0 21 -4 29 -12s12 -17.667 12 -29s-4 -20.833 -12 -28.5s-17.667 -11.5 -29 -11.5h-189c-11.333 0 -20.833 3.83301 -28.5 11.5z" />
    <glyph glyph-name="registered" unicode="&#xae;" horiz-adv-x="819" 
d="M230.5 38.5c-55 32.333 -98.667 76 -131 131s-48.5 114.833 -48.5 179.5s16.167 124.5 48.5 179.5s76 98.667 131 131s114.833 48.5 179.5 48.5s124.5 -16.167 179.5 -48.5s98.667 -76 131 -131s48.5 -114.833 48.5 -179.5s-16.167 -124.5 -48.5 -179.5
s-76 -98.667 -131 -131s-114.833 -48.5 -179.5 -48.5s-124.5 16.167 -179.5 48.5zM563.5 83.5c47 27.667 84.333 65 112 112s41.5 98.5 41.5 154.5c0 55.333 -13.833 106.333 -41.5 153s-65 83.834 -112 111.501s-98.5 41.5 -154.5 41.5
c-55.333 0 -106.333 -13.833 -153 -41.5s-83.834 -64.834 -111.501 -111.501s-41.5 -97.667 -41.5 -153c0 -56 13.833 -107.5 41.5 -154.5s64.834 -84.333 111.501 -112s97.667 -41.5 153 -41.5c56 0 107.5 13.833 154.5 41.5zM270.5 154.5
c-6.33301 6.33301 -9.50293 14.165 -9.50293 23.498v324c0 12.667 4.33301 23.5 13 32.5s19.334 13.5 32.001 13.5h120c52.667 0 92 -11 118 -33s39 -51 39 -87c0 -24 -7 -44.167 -21 -60.5s-31.667 -28.5 -53 -36.5c18.667 -6.66699 34.834 -20.167 48.501 -40.5
s20.5 -48.5 20.5 -84.5v-27c0 -9.33301 -3.33301 -17.333 -10 -24s-14.667 -10 -24 -10s-17.333 3.33301 -24 10s-10 14.667 -10 24v18c0 28.667 -4.16699 52.834 -12.5 72.501s-28.5 29.5 -60.5 29.5h-109v-121c0 -9.33301 -3.33301 -17.166 -10 -23.499
s-14.667 -9.5 -24 -9.5s-17.166 3.16699 -23.499 9.5zM422.997 357.999c28.667 0 51.501 5.83301 68.501 17.5s25.5 28.5 25.5 50.5c0 20.667 -7.33301 36.5 -22 47.5s-39.334 16.5 -74.001 16.5h-93v-132h95z" />
    <glyph glyph-name="macron" unicode="&#xaf;" horiz-adv-x="312" 
d="M61.5 596.5c-5.66699 5.66699 -8.5 12.834 -8.5 21.501s2.83301 15.834 8.5 21.501s12.834 8.5 21.501 8.5h234c8.66699 0 15.834 -2.83301 21.501 -8.5s8.5 -12.834 8.5 -21.501s-2.83301 -15.834 -8.5 -21.501s-12.834 -8.5 -21.501 -8.5h-234
c-8.66699 0 -15.834 2.83301 -21.501 8.5z" />
    <glyph glyph-name="degree" unicode="&#xb0;" horiz-adv-x="378" 
d="M120.5 452.5c-21 12.333 -37.667 29 -50 50s-18.5 43.833 -18.5 68.5s6.16699 47.5 18.5 68.5s29 37.667 50 50s43.833 18.5 68.5 18.5s47.5 -6.16699 68.5 -18.5s37.667 -29 50 -50s18.5 -43.833 18.5 -68.5s-6.16699 -47.5 -18.5 -68.5s-29 -37.667 -50 -50
s-43.833 -18.5 -68.5 -18.5s-47.5 6.16699 -68.5 18.5zM249 511c16.667 16.667 25 36.667 25 60s-8.33301 43.333 -25 60s-36.667 25 -60 25s-43.333 -8.33301 -60 -25s-25 -36.667 -25 -60s8.33301 -43.333 25 -60s36.667 -25 60 -25s43.333 8.33301 60 25z" />
    <glyph glyph-name="plusminus" unicode="&#xb1;" horiz-adv-x="606" 
d="M275.5 156.5c-7.66699 7.66699 -11.5 16.834 -11.5 27.501v158h-164c-10.667 0 -19.667 3.66699 -27 11s-11 16.333 -11 27c0 11.333 3.66699 20.666 11 27.999s16.333 11 27 11h164v158c0 11.333 3.83301 20.666 11.5 27.999s16.834 11 27.501 11
c11.333 0 20.666 -3.66699 27.999 -11s11 -16.666 11 -27.999v-158h163c11.333 0 20.666 -3.66699 27.999 -11s11 -16.666 11 -27.999c0 -10.667 -3.66699 -19.667 -11 -27s-16.666 -11 -27.999 -11h-163v-158c0 -10.667 -3.66699 -19.834 -11 -27.501
s-16.666 -11.5 -27.999 -11.5c-10.667 0 -19.834 3.83301 -27.501 11.5zM73 11c-7.33301 7.33301 -11 16.333 -11 27c0 11.333 3.66699 20.666 11 27.999s16.333 11 27 11h405c11.333 0 20.666 -3.66699 27.999 -11s11 -16.666 11 -27.999
c0 -10.667 -3.66699 -19.667 -11 -27s-16.666 -11 -27.999 -11h-405c-10.667 0 -19.667 3.66699 -27 11z" />
    <glyph glyph-name="uni00B2" unicode="&#xb2;" horiz-adv-x="370" 
d="M49 322c-7.33301 8 -10.9971 17.333 -10.9971 28c0 27.333 10.667 51 32 71s52.333 43 93 69c33.333 21.333 57.833 38.833 73.5 52.5s23.5 28.834 23.5 45.501c0 18 -6.33301 32.5 -19 43.5s-32.334 16.5 -59.001 16.5c-36.667 0 -68.334 -7.33301 -95.001 -22
c-4 -2 -8.33301 -3 -13 -3c-8 0 -14.667 2.5 -20 7.5s-8 11.833 -8 20.5c0 11.333 4.66699 19.666 14 24.999c36.667 22 80 33 130 33c38.667 0 70.5 -11.167 95.5 -33.5s37.5 -50.166 37.5 -83.499c0 -22.667 -6.83301 -43.834 -20.5 -63.501s-29.834 -36.667 -48.501 -51
s-42.667 -31.166 -72 -50.499c-20.667 -13.333 -36.834 -24.333 -48.501 -33s-20.5 -17 -26.5 -25h190c8.66699 0 15.834 -2.83301 21.501 -8.5s8.5 -12.834 8.5 -21.501s-2.83301 -15.667 -8.5 -21s-12.834 -8 -21.501 -8h-220c-11.333 0 -20.666 4 -27.999 12z" />
    <glyph glyph-name="uni00B3" unicode="&#xb3;" horiz-adv-x="370" 
d="M53 329c-4.66699 2.66699 -8.66504 6.33301 -11.998 11s-5 10 -5 16c0 8 3 14.833 9 20.5s12.667 8.5 20 8.5c2 0 5.66699 -0.666992 11 -2c18 -5.33301 33.5 -9.5 46.5 -12.5s27.833 -4.5 44.5 -4.5c28 0 50.333 4.33301 67 13s25 21.667 25 39
c0 41.333 -37.333 62 -112 62h-11c-8.66699 0 -15.834 2.83301 -21.501 8.5s-8.5 12.834 -8.5 21.501s2.83301 15.834 8.5 21.501s12.834 8.5 21.501 8.5h5c31.333 0 56.666 4.5 75.999 13.5s29 23.833 29 44.5c0 18 -7.66699 30.833 -23 38.5s-33.666 11.5 -54.999 11.5
c-30.667 0 -59.334 -6.33301 -86.001 -19c-4 -2 -8.33301 -3 -13 -3c-7.33301 0 -13.833 2.5 -19.5 7.5s-8.5 11.5 -8.5 19.5c0 10.667 6.33301 19.334 19 26.001c37.333 20 74.666 30 111.999 30c46 0 80.167 -9.83301 102.5 -29.5s33.5 -45.167 33.5 -76.5
c0 -24 -6 -43.333 -18 -58s-26.667 -25.334 -44 -32.001c21.333 -6.66699 39.333 -17.834 54 -33.501s22 -36.834 22 -63.501c0 -32 -11.833 -58.667 -35.5 -80s-60.5 -32 -110.5 -32c-52 0 -93 8.33301 -123 25z" />
    <glyph glyph-name="acute" unicode="&#xb4;" horiz-adv-x="240" 
d="M180.5 574.5c-5 5 -7.5 11.499 -7.5 19.499c0 6 2.33301 12.333 7 19l51 90c6.66699 12.667 17.667 19 33 19c10.667 0 19.5 -3.33301 26.5 -10s10.5 -15.667 10.5 -27c0 -9.33301 -3.33301 -17.666 -10 -24.999l-69 -82c-6 -7.33301 -13.333 -11 -22 -11
c-8 0 -14.5 2.5 -19.5 7.5z" />
    <glyph glyph-name="uni00B5" unicode="&#xb5;" horiz-adv-x="604" 
d="M97 -205c-8.66699 8.66699 -12.998 19.335 -12.998 32.002v643c0 12.667 4.5 23.334 13.5 32.001s19.833 13 32.5 13s23.334 -4.33301 32.001 -13s13 -19.334 13 -32.001v-274c0 -81.333 36.667 -122 110 -122c33.333 0 63.166 8.66699 89.499 26
s51.166 40.666 74.499 69.999v300c0 12.667 4.5 23.334 13.5 32.001s19.833 13 32.5 13s23.334 -4.33301 32.001 -13s13 -19.334 13 -32.001v-429c0 -12.667 -4.33301 -23.5 -13 -32.5s-19.334 -13.5 -32.001 -13.5s-23.5 4.5 -32.5 13.5s-13.5 19.833 -13.5 32.5v41
c-26.667 -28.667 -53.5 -51.167 -80.5 -67.5s-60.5 -24.5 -100.5 -24.5c-35.333 0 -66.333 9 -93 27v-190c0 -12.667 -4.5 -23.334 -13.5 -32.001s-19.833 -13 -32.5 -13s-23.334 4.33301 -32.001 13z" />
    <glyph glyph-name="paragraph" unicode="&#xb6;" horiz-adv-x="732" 
d="M343.5 -212.5c-7.66699 7.66699 -11.498 17.168 -11.498 28.501v368h-36c-46.667 0 -89.667 11.5 -129 34.5s-70.5 54.167 -93.5 93.5s-34.5 82.333 -34.5 129s11.5 89.667 34.5 129s54.167 70.5 93.5 93.5s82.333 34.5 129 34.5h352
c11.333 0 20.833 -3.83301 28.5 -11.5s11.5 -17.167 11.5 -28.5c0 -10.667 -3.83301 -19.834 -11.5 -27.501s-17.167 -11.5 -28.5 -11.5h-46v-803c0 -11.333 -3.83301 -20.833 -11.5 -28.5s-17.167 -11.5 -28.5 -11.5c-10.667 0 -19.834 3.83301 -27.501 11.5
s-11.5 17.167 -11.5 28.5v803h-112v-803c0 -11.333 -3.83301 -20.833 -11.5 -28.5s-17.167 -11.5 -28.5 -11.5c-10.667 0 -19.834 3.83301 -27.501 11.5z" />
    <glyph glyph-name="periodcentered" unicode="&#xb7;" horiz-adv-x="260" 
d="M85.5 242.5c-11 11 -16.5 24.167 -16.5 39.5v6c0 15.333 5.5 28.5 16.5 39.5s24.167 16.5 39.5 16.5h10c15.333 0 28.5 -5.5 39.5 -16.5s16.5 -24.167 16.5 -39.5v-6c0 -15.333 -5.5 -28.5 -16.5 -39.5s-24.167 -16.5 -39.5 -16.5h-10c-15.333 0 -28.5 5.5 -39.5 16.5z
" />
    <glyph glyph-name="cedilla" unicode="&#xb8;" horiz-adv-x="307" 
d="M97 -195c-2.66699 2 -5.16504 4.5 -7.49805 7.5s-3.5 6.16699 -3.5 9.5c0 5.33301 1.66699 10 5 14s8 6 14 6c2.66699 0 6 -1 10 -3c20.667 -11.333 40.334 -17 59.001 -17c38 0 57 15.333 57 46c0 10 -3.33301 17.667 -10 23s-15.334 8 -26.001 8
c-14.667 0 -29.334 -3.66699 -44.001 -11c-4 -2 -7.33301 -3 -10 -3c-4.66699 0 -8.83398 1.5 -12.501 4.5s-5.5 6.83301 -5.5 11.5c0 5.33301 1.33301 10 4 14l64 102h42l-46 -80c10.667 2.66699 22 4 34 4c22.667 0 41.167 -6.5 55.5 -19.5s21.5 -29.833 21.5 -50.5
c0 -30.667 -9.5 -53.667 -28.5 -69s-46.5 -23 -82.5 -23c-32 0 -62 8.66699 -90 26z" />
    <glyph glyph-name="uni00B9" unicode="&#xb9;" horiz-adv-x="370" 
d="M87 318c-5.33301 5.33301 -8.00098 12.333 -8.00098 21s2.66699 15.834 8 21.501s12.333 8.5 21 8.5h60v265l-45 -22c-6.66699 -2.66699 -11.667 -4 -15 -4c-8 0 -15 2.83301 -21 8.5s-9 12.834 -9 21.501c0 5.33301 1.66699 10.666 5 15.999s8 9.33301 14 12l72 37
c6.66699 3.33301 13.334 5 20.001 5c12.667 0 23 -4.16699 31 -12.5s12 -18.5 12 -30.5v-296h50c8.66699 0 15.834 -2.83301 21.501 -8.5s8.5 -12.834 8.5 -21.501s-2.83301 -15.667 -8.5 -21s-12.834 -8 -21.501 -8h-174c-8.66699 0 -15.667 2.66699 -21 8z" />
    <glyph glyph-name="ordmasculine" unicode="&#xba;" horiz-adv-x="514" 
d="M127.5 390c-32.333 34 -48.5 78.667 -48.5 134s16.167 99.833 48.5 133.5s75.5 50.5 129.5 50.5s97.167 -16.833 129.5 -50.5s48.5 -78.167 48.5 -133.5s-16.167 -100 -48.5 -134s-75.5 -51 -129.5 -51s-97.167 17 -129.5 51zM331 433.5c21.333 20.333 32 50.833 32 91.5
c0 40 -10.667 70 -32 90s-46 30 -74 30s-52.667 -10 -74 -30s-32 -50 -32 -90c0 -40.667 10.667 -71.167 32 -91.5s46 -30.5 74 -30.5s52.667 10.167 74 30.5zM78.5 237.5c-5.66699 5.66699 -8.5 12.167 -8.5 19.5s2.83301 13.833 8.5 19.5s12.167 8.5 19.5 8.5h318
c7.33301 0 13.833 -2.83301 19.5 -8.5s8.5 -12.167 8.5 -19.5s-2.83301 -13.833 -8.5 -19.5s-12.167 -8.5 -19.5 -8.5h-318c-7.33301 0 -13.833 2.83301 -19.5 8.5z" />
    <glyph glyph-name="guillemotright" unicode="&#xbb;" horiz-adv-x="585" 
d="M85 31c-7.33301 7.33301 -11 16.665 -11 27.998c0 10.667 3 19.334 9 26.001l160 170l-160 170c-6 7.33301 -9 16 -9 26c0 11.333 3.66699 20.666 11 27.999s16.666 11 27.999 11c12.667 0 22 -3.66699 28 -11l164 -181c12 -13.333 18 -27.666 18 -42.999
s-6 -29.666 -18 -42.999l-164 -181c-6 -7.33301 -15.333 -11 -28 -11c-11.333 0 -20.666 3.66699 -27.999 11zM293 30.999c-7.33301 7.33301 -11 16.665 -11 27.998c0 10.667 3 19.334 9 26.001l160 170l-160 170c-6 7.33301 -9 16 -9 26c0 11.333 3.66699 20.666 11 27.999
s16.666 11 27.999 11c12.667 0 22 -3.66699 28 -11l164 -181c12 -13.333 18 -27.666 18 -42.999s-6 -29.666 -18 -42.999l-164 -181c-6 -7.33301 -15.333 -11 -28 -11c-11.333 0 -20.666 3.66699 -27.999 11z" />
    <glyph glyph-name="onequarter" unicode="&#xbc;" horiz-adv-x="891" 
d="M87 318c-5.33301 5.33301 -8.00098 12.333 -8.00098 21s2.66699 15.834 8 21.501s12.333 8.5 21 8.5h60v265l-45 -22c-6.66699 -2.66699 -11.667 -4 -15 -4c-8 0 -15 2.83301 -21 8.5s-9 12.834 -9 21.501c0 5.33301 1.66699 10.666 5 15.999s8 9.33301 14 12l72 37
c6.66699 3.33301 13.334 5 20.001 5c12.667 0 23 -4.16699 31 -12.5s12 -18.5 12 -30.5v-296h50c8.66699 0 15.834 -2.83301 21.501 -8.5s8.5 -12.834 8.5 -21.501s-2.83301 -15.667 -8.5 -21s-12.834 -8 -21.501 -8h-174c-8.66699 0 -15.667 2.66699 -21 8zM234.999 -14.5
c-6.66699 6.33301 -10 14.5 -10 24.5c0 5.33301 1.66699 11.333 5 18l414 682c5.33301 9.33301 14.666 14 27.999 14c9.33301 0 17.333 -3.16699 24 -9.5s10 -14.5 10 -24.5c0 -5.33301 -1.66699 -11.333 -5 -18l-414 -682c-5.33301 -9.33301 -14.666 -14 -27.999 -14
c-9.33301 0 -17.333 3.16699 -24 9.5zM746.499 4.5c-6.33301 6.33301 -9.50098 13.834 -9.50098 22.501v69h-156c-11.333 0 -21.166 4.16699 -29.499 12.5s-12.5 18.166 -12.5 29.499c0 10 3.66699 19.667 11 29l165 211c11.333 14 23.333 21 36 21h8
c12 0 22 -4.16699 30 -12.5s12 -18.166 12 -29.499v-202h36c8.66699 0 15.834 -2.83301 21.501 -8.5s8.5 -12.834 8.5 -21.501s-2.83301 -15.667 -8.5 -21s-12.834 -8 -21.501 -8h-36v-69c0 -8.66699 -3 -16.167 -9 -22.5s-13.667 -9.5 -23 -9.5
c-8.66699 0 -16.167 3.16699 -22.5 9.5zM609.998 155.001h127v165z" />
    <glyph glyph-name="onehalf" unicode="&#xbd;" horiz-adv-x="931" 
d="M87 318c-5.33301 5.33301 -8.00098 12.333 -8.00098 21s2.66699 15.834 8 21.501s12.333 8.5 21 8.5h60v265l-45 -22c-6.66699 -2.66699 -11.667 -4 -15 -4c-8 0 -15 2.83301 -21 8.5s-9 12.834 -9 21.501c0 5.33301 1.66699 10.666 5 15.999s8 9.33301 14 12l72 37
c6.66699 3.33301 13.334 5 20.001 5c12.667 0 23 -4.16699 31 -12.5s12 -18.5 12 -30.5v-296h50c8.66699 0 15.834 -2.83301 21.501 -8.5s8.5 -12.834 8.5 -21.501s-2.83301 -15.667 -8.5 -21s-12.834 -8 -21.501 -8h-174c-8.66699 0 -15.667 2.66699 -21 8zM234.999 -14.5
c-6.66699 6.33301 -10 14.5 -10 24.5c0 5.33301 1.66699 11.333 5 18l414 682c5.33301 9.33301 14.666 14 27.999 14c9.33301 0 17.333 -3.16699 24 -9.5s10 -14.5 10 -24.5c0 -5.33301 -1.66699 -11.333 -5 -18l-414 -682c-5.33301 -9.33301 -14.666 -14 -27.999 -14
c-9.33301 0 -17.333 3.16699 -24 9.5zM609.999 12c-7.33301 8 -10.9971 17.333 -10.9971 28c0 27.333 10.667 51 32 71s52.333 43 93 69c33.333 21.333 57.833 38.833 73.5 52.5s23.5 28.834 23.5 45.501c0 18 -6.33301 32.5 -19 43.5s-32.334 16.5 -59.001 16.5
c-36.667 0 -68.334 -7.33301 -95.001 -22c-4 -2 -8.33301 -3 -13 -3c-8 0 -14.667 2.5 -20 7.5s-8 11.833 -8 20.5c0 11.333 4.66699 19.666 14 24.999c36.667 22 80 33 130 33c38.667 0 70.5 -11.167 95.5 -33.5s37.5 -50.166 37.5 -83.499
c0 -22.667 -6.83301 -43.834 -20.5 -63.501s-29.834 -36.667 -48.501 -51s-42.667 -31.166 -72 -50.499c-20.667 -13.333 -36.834 -24.333 -48.501 -33s-20.5 -17 -26.5 -25h190c8.66699 0 15.834 -2.83301 21.501 -8.5s8.5 -12.834 8.5 -21.501s-2.83301 -15.667 -8.5 -21
s-12.834 -8 -21.501 -8h-220c-11.333 0 -20.666 4 -27.999 12z" />
    <glyph glyph-name="threequarters" unicode="&#xbe;" horiz-adv-x="891" 
d="M53 329c-4.66699 2.66699 -8.66504 6.33301 -11.998 11s-5 10 -5 16c0 8 3 14.833 9 20.5s12.667 8.5 20 8.5c2 0 5.66699 -0.666992 11 -2c18 -5.33301 33.5 -9.5 46.5 -12.5s27.833 -4.5 44.5 -4.5c28 0 50.333 4.33301 67 13s25 21.667 25 39
c0 41.333 -37.333 62 -112 62h-11c-8.66699 0 -15.834 2.83301 -21.501 8.5s-8.5 12.834 -8.5 21.501s2.83301 15.834 8.5 21.501s12.834 8.5 21.501 8.5h5c31.333 0 56.666 4.5 75.999 13.5s29 23.833 29 44.5c0 18 -7.66699 30.833 -23 38.5s-33.666 11.5 -54.999 11.5
c-30.667 0 -59.334 -6.33301 -86.001 -19c-4 -2 -8.33301 -3 -13 -3c-7.33301 0 -13.833 2.5 -19.5 7.5s-8.5 11.5 -8.5 19.5c0 10.667 6.33301 19.334 19 26.001c37.333 20 74.666 30 111.999 30c46 0 80.167 -9.83301 102.5 -29.5s33.5 -45.167 33.5 -76.5
c0 -24 -6 -43.333 -18 -58s-26.667 -25.334 -44 -32.001c21.333 -6.66699 39.333 -17.834 54 -33.501s22 -36.834 22 -63.501c0 -32 -11.833 -58.667 -35.5 -80s-60.5 -32 -110.5 -32c-52 0 -93 8.33301 -123 25zM235.002 -14.501c-6.66699 6.33301 -10 14.5 -10 24.5
c0 5.33301 1.66699 11.333 5 18l414 682c5.33301 9.33301 14.666 14 27.999 14c9.33301 0 17.333 -3.16699 24 -9.5s10 -14.5 10 -24.5c0 -5.33301 -1.66699 -11.333 -5 -18l-414 -682c-5.33301 -9.33301 -14.666 -14 -27.999 -14c-9.33301 0 -17.333 3.16699 -24 9.5z
M746.502 4.49902c-6.33301 6.33301 -9.50098 13.834 -9.50098 22.501v69h-156c-11.333 0 -21.166 4.16699 -29.499 12.5s-12.5 18.166 -12.5 29.499c0 10 3.66699 19.667 11 29l165 211c11.333 14 23.333 21 36 21h8c12 0 22 -4.16699 30 -12.5s12 -18.166 12 -29.499v-202
h36c8.66699 0 15.834 -2.83301 21.501 -8.5s8.5 -12.834 8.5 -21.501s-2.83301 -15.667 -8.5 -21s-12.834 -8 -21.501 -8h-36v-69c0 -8.66699 -3 -16.167 -9 -22.5s-13.667 -9.5 -23 -9.5c-8.66699 0 -16.167 3.16699 -22.5 9.5zM610.001 155h127v165z" />
    <glyph glyph-name="questiondown" unicode="&#xbf;" horiz-adv-x="488" 
d="M230.5 412.5c-11.667 11.667 -17.5 25.5 -17.5 41.5c0 16.667 5.83301 30.834 17.5 42.501s25.834 17.5 42.501 17.5c16 0 29.833 -5.83301 41.5 -17.5s17.5 -25.834 17.5 -42.501c0 -16 -5.83301 -29.833 -17.5 -41.5s-25.5 -17.5 -41.5 -17.5
c-16.667 0 -30.834 5.83301 -42.501 17.5zM101.5 -147c-41 34 -61.4971 79.998 -61.4971 137.998c0 26 4.66699 48.833 14 68.5s20.666 36.334 33.999 50.001s31 29.167 53 46.5c28.667 22.667 50.167 43.167 64.5 61.5s21.5 40.833 21.5 67.5
c0 10.667 4.33301 19.834 13 27.501s19 11.5 31 11.5c12.667 0 23.167 -3.83301 31.5 -11.5s12.5 -16.834 12.5 -27.501c0 -30 -5.33301 -56.333 -16 -79s-23.167 -41.5 -37.5 -56.5s-33.5 -32.167 -57.5 -51.5c-25.333 -20 -44 -37.333 -56 -52s-18 -31.334 -18 -50.001
c0 -72.667 47.667 -109 143 -109c23.333 0 46.166 2.83301 68.499 8.5s42.166 13.834 59.499 24.501c8 5.33301 16.333 8 25 8c11.333 0 20.833 -4 28.5 -12s11.5 -17.333 11.5 -28c0 -15.333 -8.33301 -28 -25 -38c-27.333 -17.333 -55 -29.666 -83 -36.999
s-59 -11 -93 -11c-68 0 -122.5 17 -163.5 51z" />
    <glyph glyph-name="Agrave" unicode="&#xc0;" horiz-adv-x="746" 
d="M62.5 8c-8.33301 8.66699 -12.502 19.334 -12.502 32.001c0 5.33301 1.66699 12 5 20l255 602c5.33301 12 12.833 21.833 22.5 29.5s21.5 11.5 35.5 11.5h10c14 0 25.833 -3.83301 35.5 -11.5s17.167 -17.5 22.5 -29.5l255 -602c3.33301 -8 5 -14.667 5 -20
c0 -12.667 -4.16699 -23.334 -12.5 -32.001s-19.166 -13 -32.499 -13c-9.33301 0 -17.833 2.5 -25.5 7.5s-13.5 11.833 -17.5 20.5l-65 156h-340l-65 -156c-4 -8.66699 -9.83301 -15.5 -17.5 -20.5s-16.167 -7.5 -25.5 -7.5c-13.333 0 -24.166 4.33301 -32.499 13z
M237.998 262h270l-135 325zM350.998 750l-69 82.001c-6.66699 7.33301 -10 15.666 -10 24.999c0 11.333 3.33301 20.333 10 27s15.667 10 27 10c15.333 0 26.333 -6.33301 33 -19l51 -90c4.66699 -6.66699 7 -13 7 -19c0 -8 -2.5 -14.5 -7.5 -19.5s-11.5 -7.5 -19.5 -7.5
c-8.66699 0 -16 3.66699 -22 11z" />
    <glyph glyph-name="Aacute" unicode="&#xc1;" horiz-adv-x="746" 
d="M62.5 8c-8.33301 8.66699 -12.502 19.334 -12.502 32.001c0 5.33301 1.66699 12 5 20l255 602c5.33301 12 12.833 21.833 22.5 29.5s21.5 11.5 35.5 11.5h10c14 0 25.833 -3.83301 35.5 -11.5s17.167 -17.5 22.5 -29.5l255 -602c3.33301 -8 5 -14.667 5 -20
c0 -12.667 -4.16699 -23.334 -12.5 -32.001s-19.166 -13 -32.499 -13c-9.33301 0 -17.833 2.5 -25.5 7.5s-13.5 11.833 -17.5 20.5l-65 156h-340l-65 -156c-4 -8.66699 -9.83301 -15.5 -17.5 -20.5s-16.167 -7.5 -25.5 -7.5c-13.333 0 -24.166 4.33301 -32.499 13z
M237.998 262h270l-135 325zM353.498 746.5c-5 5 -7.5 11.499 -7.5 19.499c0 6 2.33301 12.333 7 19l51 90c6.66699 12.667 17.667 19 33 19c10.667 0 19.5 -3.33301 26.5 -10s10.5 -15.667 10.5 -27c0 -9.33301 -3.33301 -17.666 -10 -24.999l-69 -82
c-6 -7.33301 -13.333 -11 -22 -11c-8 0 -14.5 2.5 -19.5 7.5z" />
    <glyph glyph-name="Acircumflex" unicode="&#xc2;" horiz-adv-x="746" 
d="M62.5 8c-8.33301 8.66699 -12.502 19.334 -12.502 32.001c0 5.33301 1.66699 12 5 20l255 602c5.33301 12 12.833 21.833 22.5 29.5s21.5 11.5 35.5 11.5h10c14 0 25.833 -3.83301 35.5 -11.5s17.167 -17.5 22.5 -29.5l255 -602c3.33301 -8 5 -14.667 5 -20
c0 -12.667 -4.16699 -23.334 -12.5 -32.001s-19.166 -13 -32.499 -13c-9.33301 0 -17.833 2.5 -25.5 7.5s-13.5 11.833 -17.5 20.5l-65 156h-340l-65 -156c-4 -8.66699 -9.83301 -15.5 -17.5 -20.5s-16.167 -7.5 -25.5 -7.5c-13.333 0 -24.166 4.33301 -32.499 13z
M237.998 262h270l-135 325zM245.998 747.5c-6 6.33301 -8.66699 13.166 -8 20.499c0 7.33301 2.66699 13.666 8 18.999l68 70c6 6.66699 12 11.667 18 15s13.333 5 22 5h38c8.66699 0 16 -1.66699 22 -5s12 -8.33301 18 -15l68 -70c5.33301 -5.33301 8 -11.666 8 -18.999
c0.666992 -7.33301 -2 -14.166 -8 -20.499s-13.333 -9.5 -22 -9.5c-7.33301 0 -13.333 2.33301 -18 7l-87 74l-87 -74c-4.66699 -4.66699 -10.667 -7 -18 -7c-8.66699 0 -16 3.16699 -22 9.5z" />
    <glyph glyph-name="Atilde" unicode="&#xc3;" horiz-adv-x="746" 
d="M62.5 8c-8.33301 8.66699 -12.502 19.334 -12.502 32.001c0 5.33301 1.66699 12 5 20l255 602c5.33301 12 12.833 21.833 22.5 29.5s21.5 11.5 35.5 11.5h10c14 0 25.833 -3.83301 35.5 -11.5s17.167 -17.5 22.5 -29.5l255 -602c3.33301 -8 5 -14.667 5 -20
c0 -12.667 -4.16699 -23.334 -12.5 -32.001s-19.166 -13 -32.499 -13c-9.33301 0 -17.833 2.5 -25.5 7.5s-13.5 11.833 -17.5 20.5l-65 156h-340l-65 -156c-4 -8.66699 -9.83301 -15.5 -17.5 -20.5s-16.167 -7.5 -25.5 -7.5c-13.333 0 -24.166 4.33301 -32.499 13z
M237.998 262h270l-135 325zM218.998 749.5c-4.66699 4.33301 -7.00098 9.83203 -7.00098 16.499c0 14 3.5 28.333 10.5 43s16.833 27 29.5 37s27.334 15 44.001 15c13.333 0 25.833 -2 37.5 -6s25.834 -10 42.501 -18c15.333 -7.33301 28.5 -13 39.5 -17s22.5 -6 34.5 -6
c10 0 17.833 2.33301 23.5 7s10.167 11.334 13.5 20.001c5.33301 14 13.666 21 24.999 21c6.66699 0 12 -2.16699 16 -6.5s6.33301 -9.5 7 -15.5c0 -23.333 -8 -45 -24 -65s-36 -30 -60 -30c-13.333 0 -26 2.16699 -38 6.5s-26.667 10.5 -44 18.5
c-15.333 7.33301 -28.333 13 -39 17s-21.667 6 -33 6c-17.333 0 -30.333 -10.667 -39 -32c-4 -12 -11.667 -18 -23 -18c-6 0 -11.333 2.16699 -16 6.5z" />
    <glyph glyph-name="Adieresis" unicode="&#xc4;" horiz-adv-x="746" 
d="M62.5 8c-8.33301 8.66699 -12.502 19.334 -12.502 32.001c0 5.33301 1.66699 12 5 20l255 602c5.33301 12 12.833 21.833 22.5 29.5s21.5 11.5 35.5 11.5h10c14 0 25.833 -3.83301 35.5 -11.5s17.167 -17.5 22.5 -29.5l255 -602c3.33301 -8 5 -14.667 5 -20
c0 -12.667 -4.16699 -23.334 -12.5 -32.001s-19.166 -13 -32.499 -13c-9.33301 0 -17.833 2.5 -25.5 7.5s-13.5 11.833 -17.5 20.5l-65 156h-340l-65 -156c-4 -8.66699 -9.83301 -15.5 -17.5 -20.5s-16.167 -7.5 -25.5 -7.5c-13.333 0 -24.166 4.33301 -32.499 13z
M237.998 262h270l-135 325zM252.998 762c-10 10 -15 22 -15 36s5 26 15 36s22 15 36 15s26 -5 36 -15s15 -22 15 -36s-5 -26 -15 -36s-22 -15 -36 -15s-26 5 -36 15zM420.998 762c-10 10 -15 22 -15 36s5 26 15 36s22 15 36 15s26 -5 36 -15s15 -22 15 -36s-5 -26 -15 -36
s-22 -15 -36 -15s-26 5 -36 15z" />
    <glyph glyph-name="Aring" unicode="&#xc5;" horiz-adv-x="746" 
d="M62.5 8c-8.33301 8.66699 -12.502 19.334 -12.502 32.001c0 5.33301 1.66699 12 5 20l255 602c5.33301 12 12.833 21.833 22.5 29.5s21.5 11.5 35.5 11.5h10c14 0 25.833 -3.83301 35.5 -11.5s17.167 -17.5 22.5 -29.5l255 -602c3.33301 -8 5 -14.667 5 -20
c0 -12.667 -4.16699 -23.334 -12.5 -32.001s-19.166 -13 -32.499 -13c-9.33301 0 -17.833 2.5 -25.5 7.5s-13.5 11.833 -17.5 20.5l-65 156h-340l-65 -156c-4 -8.66699 -9.83301 -15.5 -17.5 -20.5s-16.167 -7.5 -25.5 -7.5c-13.333 0 -24.166 4.33301 -32.499 13z
M237.998 262h270l-135 325zM306.498 750.5c-18.333 18.333 -27.5 40.5 -27.5 66.5s9.16699 48.167 27.5 66.5s40.5 27.5 66.5 27.5s48.167 -9.16699 66.5 -27.5s27.5 -40.5 27.5 -66.5s-9.16699 -48.167 -27.5 -66.5s-40.5 -27.5 -66.5 -27.5s-48.167 9.16699 -66.5 27.5z
M407.498 782.5c9.66699 9.66699 14.5 21.167 14.5 34.5s-4.83301 24.833 -14.5 34.5s-21.167 14.5 -34.5 14.5s-24.833 -4.83301 -34.5 -14.5s-14.5 -21.167 -14.5 -34.5s4.83301 -24.833 14.5 -34.5s21.167 -14.5 34.5 -14.5s24.833 4.83301 34.5 14.5z" />
    <glyph glyph-name="AE" unicode="&#xc6;" horiz-adv-x="1040" 
d="M15.5 8c-9 8.66699 -13.499 19.332 -13.499 31.999c0 8.66699 3.33301 18 10 28l399 605c5.33301 7.33301 12 13.333 20 18s16.667 7 26 7h488c12 0 22.167 -4.16699 30.5 -12.5s12.5 -18.5 12.5 -30.5s-4.16699 -22 -12.5 -30s-18.5 -12 -30.5 -12h-355v-221h319
c12 0 22.167 -4.16699 30.5 -12.5s12.5 -18.5 12.5 -30.5s-4.16699 -22 -12.5 -30s-18.5 -12 -30.5 -12h-319v-222h355c12 0 22.167 -4.16699 30.5 -12.5s12.5 -18.5 12.5 -30.5s-4.16699 -22 -12.5 -30s-18.5 -12 -30.5 -12h-401c-12.667 0 -23.334 4.33301 -32.001 13
s-13 19.334 -13 32.001v134h-308l-102 -158c-11.333 -17.333 -25 -26 -41 -26c-12.667 0 -23.5 4.33301 -32.5 13zM245.001 261.998h254v351h-25z" />
    <glyph glyph-name="Ccedilla" unicode="&#xc7;" horiz-adv-x="695" 
d="M644 117c7.33301 -7.33301 11.0029 -16.3311 11.0029 -26.998c0 -17.333 -7.33301 -30 -22 -38c-34 -19.333 -68.333 -34.333 -103 -45s-73.667 -16.334 -117 -17.001l-31 -53c10.667 2.66699 22 4 34 4c22.667 0 41.167 -6.5 55.5 -19.5s21.5 -29.833 21.5 -50.5
c0 -30.667 -9.5 -53.667 -28.5 -69s-46.5 -23 -82.5 -23c-32 0 -62 8.66699 -90 26c-2.66699 2 -5.16699 4.5 -7.5 7.5s-3.5 6.16699 -3.5 9.5c0 5.33301 1.66699 10 5 14s8 6 14 6c2.66699 0 6 -1 10 -3c20.667 -11.333 40.334 -17 59.001 -17c38 0 57 15.333 57 46
c0 10 -3.33301 17.667 -10 23s-15.334 8 -26.001 8c-14.667 0 -29.334 -3.66699 -44.001 -11c-4 -2 -7.33301 -3 -10 -3c-4.66699 0 -8.83398 1.5 -12.501 4.5s-5.5 6.83301 -5.5 11.5c0 5.33301 1.33301 10 4 14l48 76c-60.667 5.33301 -114.834 23.166 -162.501 53.499
s-85 71.5 -112 123.5s-40.5 112.333 -40.5 181c0 72.667 15.167 136.167 45.5 190.5s72 96 125 125s112.833 43.5 179.5 43.5c45.333 0 85.833 -5.33301 121.5 -16s71.167 -26 106.5 -46c14.667 -8 22 -20.667 22 -38c0 -10 -3.66699 -18.833 -11 -26.5s-17 -11.5 -29 -11.5
c-6.66699 0 -12.667 1.33301 -18 4c-29.333 15.333 -58 27 -86 35s-60.333 12 -97 12c-57.333 0 -106.166 -11.833 -146.499 -35.5s-70.666 -56 -90.999 -97s-30.5 -87.5 -30.5 -139.5s10.167 -98.5 30.5 -139.5s50.666 -73.333 90.999 -97s89.166 -35.5 146.499 -35.5
c36.667 0 69 4 97 12s56.667 19.667 86 35c5.33301 2.66699 11.333 4 18 4c12 0 21.667 -3.66699 29 -11z" />
    <glyph glyph-name="Egrave" unicode="&#xc8;" horiz-adv-x="638" 
d="M110 13c-8.66699 8.66699 -13 19.333 -13 32v607c0 12.667 4.33301 23.5 13 32.5s19.334 13.5 32.001 13.5h401c12 0 22.167 -4.16699 30.5 -12.5s12.5 -18.5 12.5 -30.5s-4.16699 -22 -12.5 -30s-18.5 -12 -30.5 -12h-355v-221h319c12 0 22.167 -4.16699 30.5 -12.5
s12.5 -18.5 12.5 -30.5s-4.16699 -22 -12.5 -30s-18.5 -12 -30.5 -12h-319v-222h355c12 0 22.167 -4.16699 30.5 -12.5s12.5 -18.5 12.5 -30.5s-4.16699 -22 -12.5 -30s-18.5 -12 -30.5 -12h-401c-12.667 -0 -23.334 4.33301 -32.001 13zM320 749.999l-69 82.001
c-6.66699 7.33301 -10 15.666 -10 24.999c0 11.333 3.33301 20.333 10 27s15.667 10 27 10c15.333 0 26.333 -6.33301 33 -19l51 -90c4.66699 -6.66699 7 -13 7 -19c0 -8 -2.5 -14.5 -7.5 -19.5s-11.5 -7.5 -19.5 -7.5c-8.66699 0 -16 3.66699 -22 11z" />
    <glyph glyph-name="Eacute" unicode="&#xc9;" horiz-adv-x="638" 
d="M110 13c-8.66699 8.66699 -13 19.333 -13 32v607c0 12.667 4.33301 23.5 13 32.5s19.334 13.5 32.001 13.5h401c12 0 22.167 -4.16699 30.5 -12.5s12.5 -18.5 12.5 -30.5s-4.16699 -22 -12.5 -30s-18.5 -12 -30.5 -12h-355v-221h319c12 0 22.167 -4.16699 30.5 -12.5
s12.5 -18.5 12.5 -30.5s-4.16699 -22 -12.5 -30s-18.5 -12 -30.5 -12h-319v-222h355c12 0 22.167 -4.16699 30.5 -12.5s12.5 -18.5 12.5 -30.5s-4.16699 -22 -12.5 -30s-18.5 -12 -30.5 -12h-401c-12.667 -0 -23.334 4.33301 -32.001 13zM322.5 746.499
c-5 5 -7.5 11.499 -7.5 19.499c0 6 2.33301 12.333 7 19l51 90c6.66699 12.667 17.667 19 33 19c10.667 0 19.5 -3.33301 26.5 -10s10.5 -15.667 10.5 -27c0 -9.33301 -3.33301 -17.666 -10 -24.999l-69 -82c-6 -7.33301 -13.333 -11 -22 -11c-8 0 -14.5 2.5 -19.5 7.5z" />
    <glyph glyph-name="Ecircumflex" unicode="&#xca;" horiz-adv-x="638" 
d="M110 13c-8.66699 8.66699 -13 19.333 -13 32v607c0 12.667 4.33301 23.5 13 32.5s19.334 13.5 32.001 13.5h401c12 0 22.167 -4.16699 30.5 -12.5s12.5 -18.5 12.5 -30.5s-4.16699 -22 -12.5 -30s-18.5 -12 -30.5 -12h-355v-221h319c12 0 22.167 -4.16699 30.5 -12.5
s12.5 -18.5 12.5 -30.5s-4.16699 -22 -12.5 -30s-18.5 -12 -30.5 -12h-319v-222h355c12 0 22.167 -4.16699 30.5 -12.5s12.5 -18.5 12.5 -30.5s-4.16699 -22 -12.5 -30s-18.5 -12 -30.5 -12h-401c-12.667 -0 -23.334 4.33301 -32.001 13zM215 747.499
c-6 6.33301 -8.66699 13.166 -8 20.499c0 7.33301 2.66699 13.666 8 18.999l68 70c6 6.66699 12 11.667 18 15s13.333 5 22 5h38c8.66699 0 16 -1.66699 22 -5s12 -8.33301 18 -15l68 -70c5.33301 -5.33301 8 -11.666 8 -18.999c0.666992 -7.33301 -2 -14.166 -8 -20.499
s-13.333 -9.5 -22 -9.5c-7.33301 0 -13.333 2.33301 -18 7l-87 74l-87 -74c-4.66699 -4.66699 -10.667 -7 -18 -7c-8.66699 0 -16 3.16699 -22 9.5z" />
    <glyph glyph-name="Edieresis" unicode="&#xcb;" horiz-adv-x="638" 
d="M110 13c-8.66699 8.66699 -13 19.333 -13 32v607c0 12.667 4.33301 23.5 13 32.5s19.334 13.5 32.001 13.5h401c12 0 22.167 -4.16699 30.5 -12.5s12.5 -18.5 12.5 -30.5s-4.16699 -22 -12.5 -30s-18.5 -12 -30.5 -12h-355v-221h319c12 0 22.167 -4.16699 30.5 -12.5
s12.5 -18.5 12.5 -30.5s-4.16699 -22 -12.5 -30s-18.5 -12 -30.5 -12h-319v-222h355c12 0 22.167 -4.16699 30.5 -12.5s12.5 -18.5 12.5 -30.5s-4.16699 -22 -12.5 -30s-18.5 -12 -30.5 -12h-401c-12.667 -0 -23.334 4.33301 -32.001 13zM222 761.999c-10 10 -15 22 -15 36
s5 26 15 36s22 15 36 15s26 -5 36 -15s15 -22 15 -36s-5 -26 -15 -36s-22 -15 -36 -15s-26 5 -36 15zM390 761.999c-10 10 -15 22 -15 36s5 26 15 36s22 15 36 15s26 -5 36 -15s15 -22 15 -36s-5 -26 -15 -36s-22 -15 -36 -15s-26 5 -36 15z" />
    <glyph glyph-name="Igrave" unicode="&#xcc;" horiz-adv-x="285" 
d="M110 8c-8.66699 8.66699 -13 19.334 -13 32.001v617c0 12.667 4.33301 23.5 13 32.5s19.334 13.5 32.001 13.5s23.5 -4.5 32.5 -13.5s13.5 -19.833 13.5 -32.5v-617c0 -12.667 -4.5 -23.334 -13.5 -32.001s-19.833 -13 -32.5 -13s-23.334 4.33301 -32.001 13zM121 750
l-69 82.001c-6.66699 7.33301 -10 15.666 -10 24.999c0 11.333 3.33301 20.333 10 27s15.667 10 27 10c15.333 0 26.333 -6.33301 33 -19l51 -90c4.66699 -6.66699 7 -13 7 -19c0 -8 -2.5 -14.5 -7.5 -19.5s-11.5 -7.5 -19.5 -7.5c-8.66699 0 -16 3.66699 -22 11z" />
    <glyph glyph-name="Iacute" unicode="&#xcd;" horiz-adv-x="285" 
d="M110 8c-8.66699 8.66699 -13 19.334 -13 32.001v617c0 12.667 4.33301 23.5 13 32.5s19.334 13.5 32.001 13.5s23.5 -4.5 32.5 -13.5s13.5 -19.833 13.5 -32.5v-617c0 -12.667 -4.5 -23.334 -13.5 -32.001s-19.833 -13 -32.5 -13s-23.334 4.33301 -32.001 13z
M123.5 746.5c-5 5 -7.5 11.499 -7.5 19.499c0 6 2.33301 12.333 7 19l51 90c6.66699 12.667 17.667 19 33 19c10.667 0 19.5 -3.33301 26.5 -10s10.5 -15.667 10.5 -27c0 -9.33301 -3.33301 -17.666 -10 -24.999l-69 -82c-6 -7.33301 -13.333 -11 -22 -11
c-8 0 -14.5 2.5 -19.5 7.5z" />
    <glyph glyph-name="Icircumflex" unicode="&#xce;" horiz-adv-x="285" 
d="M110 8c-8.66699 8.66699 -13 19.334 -13 32.001v617c0 12.667 4.33301 23.5 13 32.5s19.334 13.5 32.001 13.5s23.5 -4.5 32.5 -13.5s13.5 -19.833 13.5 -32.5v-617c0 -12.667 -4.5 -23.334 -13.5 -32.001s-19.833 -13 -32.5 -13s-23.334 4.33301 -32.001 13zM16 747.5
c-6 6.33301 -8.66699 13.166 -8 20.499c0 7.33301 2.66699 13.666 8 18.999l68 70c6 6.66699 12 11.667 18 15s13.333 5 22 5h38c8.66699 0 16 -1.66699 22 -5s12 -8.33301 18 -15l68 -70c5.33301 -5.33301 8 -11.666 8 -18.999c0.666992 -7.33301 -2 -14.166 -8 -20.499
s-13.333 -9.5 -22 -9.5c-7.33301 0 -13.333 2.33301 -18 7l-87 74l-87 -74c-4.66699 -4.66699 -10.667 -7 -18 -7c-8.66699 0 -16 3.16699 -22 9.5z" />
    <glyph glyph-name="Idieresis" unicode="&#xcf;" horiz-adv-x="285" 
d="M110 8c-8.66699 8.66699 -13 19.334 -13 32.001v617c0 12.667 4.33301 23.5 13 32.5s19.334 13.5 32.001 13.5s23.5 -4.5 32.5 -13.5s13.5 -19.833 13.5 -32.5v-617c0 -12.667 -4.5 -23.334 -13.5 -32.001s-19.833 -13 -32.5 -13s-23.334 4.33301 -32.001 13zM23 762
c-10 10 -15 22 -15 36s5 26 15 36s22 15 36 15s26 -5 36 -15s15 -22 15 -36s-5 -26 -15 -36s-22 -15 -36 -15s-26 5 -36 15zM191 762c-10 10 -15 22 -15 36s5 26 15 36s22 15 36 15s26 -5 36 -15s15 -22 15 -36s-5 -26 -15 -36s-22 -15 -36 -15s-26 5 -36 15z" />
    <glyph glyph-name="Eth" unicode="&#xd0;" horiz-adv-x="756" 
d="M115 13c-8.66699 8.66699 -13 19.334 -13 32.001v270h-54c-9.33301 0 -17.166 3.16699 -23.499 9.5s-9.5 14.166 -9.5 23.499s3.16699 17.333 9.5 24s14.166 10 23.499 10h54v270c0 12.667 4.33301 23.5 13 32.5s19.334 13.5 32.001 13.5h201
c76 0 140.5 -16.833 193.5 -50.5s92.833 -77.167 119.5 -130.5s40 -109.333 40 -168s-13.333 -114.667 -40 -168s-66.5 -96.833 -119.5 -130.5s-117.5 -50.5 -193.5 -50.5h-201c-12.667 -0 -23.334 4.33301 -32.001 13zM337 85c54.667 0 102.667 11.166 144 33.499
s73.333 53.333 96 93s34 85.5 34 137.5s-11.333 97.833 -34 137.5s-54.667 70.667 -96 93s-89.333 33.5 -144 33.5h-144v-231h117c9.33301 0 17.333 -3.33301 24 -10s10 -14.667 10 -24s-3.33301 -17.166 -10 -23.499s-14.667 -9.5 -24 -9.5h-117v-230h144z" />
    <glyph glyph-name="Ntilde" unicode="&#xd1;" horiz-adv-x="803" 
d="M110 8c-8.66699 8.66699 -12.999 19.334 -12.999 32.001v597c0 18 6.33301 33.5 19 46.5s28 19.5 46 19.5h13c21.333 0 39.666 -10 54.999 -30l385 -556v540c0 12.667 4.33301 23.5 13 32.5s19.334 13.5 32.001 13.5s23.5 -4.5 32.5 -13.5s13.5 -19.833 13.5 -32.5v-597
c0 -18 -6.5 -33.333 -19.5 -46s-28.5 -19 -46.5 -19h-12c-10.667 0 -20.667 2.5 -30 7.5s-17 11.5 -23 19.5l-387 559v-541c0 -12.667 -4.5 -23.334 -13.5 -32.001s-19.833 -13 -32.5 -13s-23.334 4.33301 -32.001 13zM248.001 749.5
c-4.66699 4.33301 -7.00098 9.83203 -7.00098 16.499c0 14 3.5 28.333 10.5 43s16.833 27 29.5 37s27.334 15 44.001 15c13.333 0 25.833 -2 37.5 -6s25.834 -10 42.501 -18c15.333 -7.33301 28.5 -13 39.5 -17s22.5 -6 34.5 -6c10 0 17.833 2.33301 23.5 7
s10.167 11.334 13.5 20.001c5.33301 14 13.666 21 24.999 21c6.66699 0 12 -2.16699 16 -6.5s6.33301 -9.5 7 -15.5c0 -23.333 -8 -45 -24 -65s-36 -30 -60 -30c-13.333 0 -26 2.16699 -38 6.5s-26.667 10.5 -44 18.5c-15.333 7.33301 -28.333 13 -39 17s-21.667 6 -33 6
c-17.333 0 -30.333 -10.667 -39 -32c-4 -12 -11.667 -18 -23 -18c-6 0 -11.333 2.16699 -16 6.5z" />
    <glyph glyph-name="Ograve" unicode="&#xd2;" horiz-adv-x="812" 
d="M222 36c-52.667 30.667 -93.334 72.998 -122.001 126.998s-43.667 116 -45 186c1.33301 70 16.333 132 45 186s69.334 96.333 122.001 127s114 46 184 46s131.167 -15.333 183.5 -46s93 -73.167 122 -127.5s44.167 -116.166 45.5 -185.499
c-1.33301 -69.333 -16.5 -131.166 -45.5 -185.499s-69.667 -96.833 -122 -127.5s-113.5 -46 -183.5 -46s-131.333 15.333 -184 46zM545 110.998c39.333 24 69.333 56.667 90 98s31 88 31 140s-10.333 98.667 -31 140s-50.667 74 -90 98s-85.666 36 -138.999 36
c-54 0 -100.5 -12 -139.5 -36s-68.833 -56.667 -89.5 -98s-31 -88 -31 -140s10.333 -98.667 31 -140s50.5 -74 89.5 -98s85.5 -36 139.5 -36c53.333 0 99.666 12 138.999 36zM384 749.998l-69 82.001c-6.66699 7.33301 -10 15.666 -10 24.999c0 11.333 3.33301 20.333 10 27
s15.667 10 27 10c15.333 0 26.333 -6.33301 33 -19l51 -90c4.66699 -6.66699 7 -13 7 -19c0 -8 -2.5 -14.5 -7.5 -19.5s-11.5 -7.5 -19.5 -7.5c-8.66699 0 -16 3.66699 -22 11z" />
    <glyph glyph-name="Oacute" unicode="&#xd3;" horiz-adv-x="812" 
d="M222 36c-52.667 30.667 -93.334 72.998 -122.001 126.998s-43.667 116 -45 186c1.33301 70 16.333 132 45 186s69.334 96.333 122.001 127s114 46 184 46s131.167 -15.333 183.5 -46s93 -73.167 122 -127.5s44.167 -116.166 45.5 -185.499
c-1.33301 -69.333 -16.5 -131.166 -45.5 -185.499s-69.667 -96.833 -122 -127.5s-113.5 -46 -183.5 -46s-131.333 15.333 -184 46zM545 110.998c39.333 24 69.333 56.667 90 98s31 88 31 140s-10.333 98.667 -31 140s-50.667 74 -90 98s-85.666 36 -138.999 36
c-54 0 -100.5 -12 -139.5 -36s-68.833 -56.667 -89.5 -98s-31 -88 -31 -140s10.333 -98.667 31 -140s50.5 -74 89.5 -98s85.5 -36 139.5 -36c53.333 0 99.666 12 138.999 36zM386.5 746.498c-5 5 -7.5 11.499 -7.5 19.499c0 6 2.33301 12.333 7 19l51 90
c6.66699 12.667 17.667 19 33 19c10.667 0 19.5 -3.33301 26.5 -10s10.5 -15.667 10.5 -27c0 -9.33301 -3.33301 -17.666 -10 -24.999l-69 -82c-6 -7.33301 -13.333 -11 -22 -11c-8 0 -14.5 2.5 -19.5 7.5z" />
    <glyph glyph-name="Ocircumflex" unicode="&#xd4;" horiz-adv-x="812" 
d="M222 36c-52.667 30.667 -93.334 72.998 -122.001 126.998s-43.667 116 -45 186c1.33301 70 16.333 132 45 186s69.334 96.333 122.001 127s114 46 184 46s131.167 -15.333 183.5 -46s93 -73.167 122 -127.5s44.167 -116.166 45.5 -185.499
c-1.33301 -69.333 -16.5 -131.166 -45.5 -185.499s-69.667 -96.833 -122 -127.5s-113.5 -46 -183.5 -46s-131.333 15.333 -184 46zM545 110.998c39.333 24 69.333 56.667 90 98s31 88 31 140s-10.333 98.667 -31 140s-50.667 74 -90 98s-85.666 36 -138.999 36
c-54 0 -100.5 -12 -139.5 -36s-68.833 -56.667 -89.5 -98s-31 -88 -31 -140s10.333 -98.667 31 -140s50.5 -74 89.5 -98s85.5 -36 139.5 -36c53.333 0 99.666 12 138.999 36zM279 747.498c-6 6.33301 -8.66699 13.166 -8 20.499c0 7.33301 2.66699 13.666 8 18.999l68 70
c6 6.66699 12 11.667 18 15s13.333 5 22 5h38c8.66699 0 16 -1.66699 22 -5s12 -8.33301 18 -15l68 -70c5.33301 -5.33301 8 -11.666 8 -18.999c0.666992 -7.33301 -2 -14.166 -8 -20.499s-13.333 -9.5 -22 -9.5c-7.33301 0 -13.333 2.33301 -18 7l-87 74l-87 -74
c-4.66699 -4.66699 -10.667 -7 -18 -7c-8.66699 0 -16 3.16699 -22 9.5z" />
    <glyph glyph-name="Otilde" unicode="&#xd5;" horiz-adv-x="812" 
d="M222 36c-52.667 30.667 -93.334 72.998 -122.001 126.998s-43.667 116 -45 186c1.33301 70 16.333 132 45 186s69.334 96.333 122.001 127s114 46 184 46s131.167 -15.333 183.5 -46s93 -73.167 122 -127.5s44.167 -116.166 45.5 -185.499
c-1.33301 -69.333 -16.5 -131.166 -45.5 -185.499s-69.667 -96.833 -122 -127.5s-113.5 -46 -183.5 -46s-131.333 15.333 -184 46zM545 110.998c39.333 24 69.333 56.667 90 98s31 88 31 140s-10.333 98.667 -31 140s-50.667 74 -90 98s-85.666 36 -138.999 36
c-54 0 -100.5 -12 -139.5 -36s-68.833 -56.667 -89.5 -98s-31 -88 -31 -140s10.333 -98.667 31 -140s50.5 -74 89.5 -98s85.5 -36 139.5 -36c53.333 0 99.666 12 138.999 36zM252 749.498c-4.66699 4.33301 -7.00098 9.83203 -7.00098 16.499c0 14 3.5 28.333 10.5 43
s16.833 27 29.5 37s27.334 15 44.001 15c13.333 0 25.833 -2 37.5 -6s25.834 -10 42.501 -18c15.333 -7.33301 28.5 -13 39.5 -17s22.5 -6 34.5 -6c10 0 17.833 2.33301 23.5 7s10.167 11.334 13.5 20.001c5.33301 14 13.666 21 24.999 21c6.66699 0 12 -2.16699 16 -6.5
s6.33301 -9.5 7 -15.5c0 -23.333 -8 -45 -24 -65s-36 -30 -60 -30c-13.333 0 -26 2.16699 -38 6.5s-26.667 10.5 -44 18.5c-15.333 7.33301 -28.333 13 -39 17s-21.667 6 -33 6c-17.333 0 -30.333 -10.667 -39 -32c-4 -12 -11.667 -18 -23 -18c-6 0 -11.333 2.16699 -16 6.5
z" />
    <glyph glyph-name="Odieresis" unicode="&#xd6;" horiz-adv-x="812" 
d="M222 36c-52.667 30.667 -93.334 72.998 -122.001 126.998s-43.667 116 -45 186c1.33301 70 16.333 132 45 186s69.334 96.333 122.001 127s114 46 184 46s131.167 -15.333 183.5 -46s93 -73.167 122 -127.5s44.167 -116.166 45.5 -185.499
c-1.33301 -69.333 -16.5 -131.166 -45.5 -185.499s-69.667 -96.833 -122 -127.5s-113.5 -46 -183.5 -46s-131.333 15.333 -184 46zM545 110.998c39.333 24 69.333 56.667 90 98s31 88 31 140s-10.333 98.667 -31 140s-50.667 74 -90 98s-85.666 36 -138.999 36
c-54 0 -100.5 -12 -139.5 -36s-68.833 -56.667 -89.5 -98s-31 -88 -31 -140s10.333 -98.667 31 -140s50.5 -74 89.5 -98s85.5 -36 139.5 -36c53.333 0 99.666 12 138.999 36zM286 761.998c-10 10 -15 22 -15 36s5 26 15 36s22 15 36 15s26 -5 36 -15s15 -22 15 -36
s-5 -26 -15 -36s-22 -15 -36 -15s-26 5 -36 15zM454 761.998c-10 10 -15 22 -15 36s5 26 15 36s22 15 36 15s26 -5 36 -15s15 -22 15 -36s-5 -26 -15 -36s-22 -15 -36 -15s-26 5 -36 15z" />
    <glyph glyph-name="multiply" unicode="&#xd7;" horiz-adv-x="563" 
d="M70 47.5c-7.33301 7.66699 -11 16.5 -11 26.5s4 19 12 27l157 157l-157 157c-8 8 -12 17 -12 27s3.66699 18.833 11 26.5s16.333 11.5 27 11.5c10 0 19 -4 27 -12l157 -157l157 157c8 8 17 12 27 12c10.667 0 19.667 -3.83301 27 -11.5s11 -16.5 11 -26.5s-4 -19 -12 -27
l-157 -157l157 -157c8 -8 12 -17 12 -27s-3.66699 -18.833 -11 -26.5s-16.333 -11.5 -27 -11.5c-10 0 -19 4 -27 12l-157 157l-157 -157c-8 -8 -17 -12 -27 -12c-10.667 0 -19.667 3.83301 -27 11.5z" />
    <glyph glyph-name="Oslash" unicode="&#xd8;" horiz-adv-x="812" 
d="M140 -23c-4.66699 4.66699 -7.00195 10.333 -7.00195 17c0 5.33301 2 11 6 17l39 55c-38.667 32 -68.667 72.333 -90 121s-32.333 102.667 -33 162c1.33301 70 16.333 132 45 186s69.334 96.333 122.001 127s114 46 184 46c70.667 0 133.334 -16.333 188.001 -49l40 58
c4.66699 6.66699 11.667 10 21 10c7.33301 0 13.333 -2.33301 18 -7s7 -10.334 7 -17.001c0 -5.33301 -2 -11 -6 -17l-39 -56c38 -32 67.5 -72.167 88.5 -120.5s32.167 -101.833 33.5 -160.5c-1.33301 -69.333 -16.5 -131.166 -45.5 -185.499s-69.667 -96.833 -122 -127.5
s-113.5 -46 -183.5 -46c-70.667 0 -133 15.667 -187 47l-40 -57c-4.66699 -6.66699 -11.667 -10 -21 -10c-7.33301 0 -13.333 2.33301 -18 7zM542.998 587.999c-40 23.333 -85.667 35 -137 35c-54 0 -100.5 -12 -139.5 -36s-68.833 -56.667 -89.5 -98s-31 -88 -31 -140
c0 -43.333 7.16699 -83 21.5 -119s34.833 -66.333 61.5 -91zM544.998 110.999c39.333 24 69.334 56.667 90.001 98s31 88 31 140c0 42 -7 81.167 -21 117.5s-34.333 66.833 -61 91.5l-315 -449c39.333 -22.667 85 -34 137 -34c53.333 0 99.666 12 138.999 36z" />
    <glyph glyph-name="Ugrave" unicode="&#xd9;" horiz-adv-x="758" 
d="M242 20c-44 20 -80.002 50.5 -108.002 91.5s-42 91.167 -42 150.5v395c0 12.667 4.33301 23.5 13 32.5s19.334 13.5 32.001 13.5s23.5 -4.5 32.5 -13.5s13.5 -19.833 13.5 -32.5v-398c0 -40 9.16699 -74 27.5 -102s42.5 -49 72.5 -63s62 -21 96 -21s66 7 96 21
s54.167 35 72.5 63s27.5 62 27.5 102v398c0 12.667 4.33301 23.5 13 32.5s19.334 13.5 32.001 13.5s23.5 -4.5 32.5 -13.5s13.5 -19.833 13.5 -32.5v-395c0 -59.333 -14 -109.5 -42 -150.5s-64 -71.5 -108 -91.5s-89.667 -30 -137 -30s-93 10 -137 30zM356.998 750
l-69 82.001c-6.66699 7.33301 -10 15.666 -10 24.999c0 11.333 3.33301 20.333 10 27s15.667 10 27 10c15.333 0 26.333 -6.33301 33 -19l51 -90c4.66699 -6.66699 7 -13 7 -19c0 -8 -2.5 -14.5 -7.5 -19.5s-11.5 -7.5 -19.5 -7.5c-8.66699 0 -16 3.66699 -22 11z" />
    <glyph glyph-name="Uacute" unicode="&#xda;" horiz-adv-x="758" 
d="M242 20c-44 20 -80.002 50.5 -108.002 91.5s-42 91.167 -42 150.5v395c0 12.667 4.33301 23.5 13 32.5s19.334 13.5 32.001 13.5s23.5 -4.5 32.5 -13.5s13.5 -19.833 13.5 -32.5v-398c0 -40 9.16699 -74 27.5 -102s42.5 -49 72.5 -63s62 -21 96 -21s66 7 96 21
s54.167 35 72.5 63s27.5 62 27.5 102v398c0 12.667 4.33301 23.5 13 32.5s19.334 13.5 32.001 13.5s23.5 -4.5 32.5 -13.5s13.5 -19.833 13.5 -32.5v-395c0 -59.333 -14 -109.5 -42 -150.5s-64 -71.5 -108 -91.5s-89.667 -30 -137 -30s-93 10 -137 30zM359.498 746.5
c-5 5 -7.5 11.499 -7.5 19.499c0 6 2.33301 12.333 7 19l51 90c6.66699 12.667 17.667 19 33 19c10.667 0 19.5 -3.33301 26.5 -10s10.5 -15.667 10.5 -27c0 -9.33301 -3.33301 -17.666 -10 -24.999l-69 -82c-6 -7.33301 -13.333 -11 -22 -11c-8 0 -14.5 2.5 -19.5 7.5z" />
    <glyph glyph-name="Ucircumflex" unicode="&#xdb;" horiz-adv-x="758" 
d="M242 20c-44 20 -80.002 50.5 -108.002 91.5s-42 91.167 -42 150.5v395c0 12.667 4.33301 23.5 13 32.5s19.334 13.5 32.001 13.5s23.5 -4.5 32.5 -13.5s13.5 -19.833 13.5 -32.5v-398c0 -40 9.16699 -74 27.5 -102s42.5 -49 72.5 -63s62 -21 96 -21s66 7 96 21
s54.167 35 72.5 63s27.5 62 27.5 102v398c0 12.667 4.33301 23.5 13 32.5s19.334 13.5 32.001 13.5s23.5 -4.5 32.5 -13.5s13.5 -19.833 13.5 -32.5v-395c0 -59.333 -14 -109.5 -42 -150.5s-64 -71.5 -108 -91.5s-89.667 -30 -137 -30s-93 10 -137 30zM251.998 747.5
c-6 6.33301 -8.66699 13.166 -8 20.499c0 7.33301 2.66699 13.666 8 18.999l68 70c6 6.66699 12 11.667 18 15s13.333 5 22 5h38c8.66699 0 16 -1.66699 22 -5s12 -8.33301 18 -15l68 -70c5.33301 -5.33301 8 -11.666 8 -18.999c0.666992 -7.33301 -2 -14.166 -8 -20.499
s-13.333 -9.5 -22 -9.5c-7.33301 0 -13.333 2.33301 -18 7l-87 74l-87 -74c-4.66699 -4.66699 -10.667 -7 -18 -7c-8.66699 0 -16 3.16699 -22 9.5z" />
    <glyph glyph-name="Udieresis" unicode="&#xdc;" horiz-adv-x="758" 
d="M242 20c-44 20 -80.002 50.5 -108.002 91.5s-42 91.167 -42 150.5v395c0 12.667 4.33301 23.5 13 32.5s19.334 13.5 32.001 13.5s23.5 -4.5 32.5 -13.5s13.5 -19.833 13.5 -32.5v-398c0 -40 9.16699 -74 27.5 -102s42.5 -49 72.5 -63s62 -21 96 -21s66 7 96 21
s54.167 35 72.5 63s27.5 62 27.5 102v398c0 12.667 4.33301 23.5 13 32.5s19.334 13.5 32.001 13.5s23.5 -4.5 32.5 -13.5s13.5 -19.833 13.5 -32.5v-395c0 -59.333 -14 -109.5 -42 -150.5s-64 -71.5 -108 -91.5s-89.667 -30 -137 -30s-93 10 -137 30zM258.998 762
c-10 10 -15 22 -15 36s5 26 15 36s22 15 36 15s26 -5 36 -15s15 -22 15 -36s-5 -26 -15 -36s-22 -15 -36 -15s-26 5 -36 15zM426.998 762c-10 10 -15 22 -15 36s5 26 15 36s22 15 36 15s26 -5 36 -15s15 -22 15 -36s-5 -26 -15 -36s-22 -15 -36 -15s-26 5 -36 15z" />
    <glyph glyph-name="Yacute" unicode="&#xdd;" horiz-adv-x="639" 
d="M287.5 8c-9 8.66699 -13.5 19.334 -13.5 32.001v255l-239 335c-5.33301 8.66699 -8 17.667 -8 27c0 12.667 4.16699 23.5 12.5 32.5s18.833 13.5 31.5 13.5c16.667 0 30 -7.66699 40 -23l209 -304l209 304c10 15.333 23.333 23 40 23c12.667 0 23.334 -4.5 32.001 -13.5
s12.667 -19.833 12 -32.5c0 -9.33301 -2.66699 -18.333 -8 -27l-240 -335v-255c0 -12.667 -4.33301 -23.334 -13 -32.001s-19.334 -13 -32.001 -13s-23.5 4.33301 -32.5 13zM300.5 746.5c-5 5 -7.5 11.499 -7.5 19.499c0 6 2.33301 12.333 7 19l51 90
c6.66699 12.667 17.667 19 33 19c10.667 0 19.5 -3.33301 26.5 -10s10.5 -15.667 10.5 -27c0 -9.33301 -3.33301 -17.666 -10 -24.999l-69 -82c-6 -7.33301 -13.333 -11 -22 -11c-8 0 -14.5 2.5 -19.5 7.5z" />
    <glyph glyph-name="Thorn" unicode="&#xde;" horiz-adv-x="672" 
d="M110 8c-8.66699 8.66699 -13 19.332 -13 31.999v617c0 12.667 4.33301 23.5 13 32.5s19.334 13.5 32.001 13.5s23.5 -4.5 32.5 -13.5s13.5 -19.833 13.5 -32.5v-71h182c63.333 0 115 -10.667 155 -32s68.667 -48.666 86 -81.999s26 -69.333 26 -108
s-8.66699 -74.667 -26 -108s-46 -60.666 -86 -81.999s-91.667 -32 -155 -32h-182v-102c0 -12.667 -4.5 -23.334 -13.5 -32.001s-19.833 -13 -32.5 -13s-23.334 4.33301 -32.001 13zM361 227.998c68 0 115.833 13 143.5 39s41.5 58.333 41.5 97s-13.833 71 -41.5 97
s-75.5 39 -143.5 39h-173v-272h173z" />
    <glyph glyph-name="germandbls" unicode="&#xdf;" horiz-adv-x="608" 
d="M262 7c-21.333 7.33301 -31.999 20.002 -31.999 38.002c0 11.333 3.66699 20.666 11 27.999s16.666 11 27.999 11c5.33301 0 10.333 -1 15 -3c20 -6.66699 44.667 -10 74 -10c26.667 0 52.334 8.66699 77.001 26s37 46.666 37 87.999c0 38 -16.167 68.167 -48.5 90.5
s-73.5 33.5 -123.5 33.5c-12 0 -21.333 3.33301 -28 10s-10 15.667 -10 27c0 10 3.5 18.333 10.5 25s16.167 10.667 27.5 12c40.667 4.66699 73 17.667 97 39s36 48 36 80c0 37.333 -11.5 66.833 -34.5 88.5s-54.5 32.5 -94.5 32.5c-38.667 0 -70.667 -11.167 -96 -33.5
s-38 -60.5 -38 -114.5v-434c0 -12.667 -4.5 -23.334 -13.5 -32.001s-19.833 -13 -32.5 -13s-23.334 4.33301 -32.001 13s-13 19.334 -13 32.001v445c0 70 20.667 124.5 62 163.5s96 58.5 164 58.5c36 0 70.833 -7.16699 104.5 -21.5s61.167 -36.333 82.5 -66
s32 -65.834 32 -108.501c0 -83.333 -36.667 -136.666 -110 -159.999c40 -9.33301 74.833 -28.166 104.5 -56.499s44.5 -68.833 44.5 -121.5c0 -40 -9 -73.833 -27 -101.5s-41.333 -48.334 -70 -62.001s-59.667 -20.5 -93 -20.5c-41.333 0 -78.333 5.66699 -111 17z" />
    <glyph glyph-name="agrave" unicode="&#xe0;" horiz-adv-x="562" 
d="M127.5 8c-25 12 -44.834 29.5029 -59.501 52.5029s-22 49.5 -22 79.5c0 49.333 19.5 88.666 58.5 117.999s96.167 44 171.5 44h121v8c0 44 -10.833 75.667 -32.5 95s-55.5 29 -101.5 29c-25.333 0 -47.833 -2 -67.5 -6s-41.5 -10 -65.5 -18
c-5.33301 -1.33301 -9.66602 -2 -12.999 -2c-10 0 -18.667 3.66699 -26 11s-11 16.333 -11 27c0 18 8.66699 30.667 26 38c56.667 24 114.334 36 173.001 36c46 0 84.833 -9.33301 116.5 -28s55 -42.834 70 -72.501s22.5 -61.834 22.5 -96.501v-283
c0 -12.667 -4.5 -23.334 -13.5 -32.001s-19.833 -13 -32.5 -13s-23.334 4.33301 -32.001 13s-13 19.334 -13 32.001v26c-49.333 -50.667 -112 -76 -188 -76c-29.333 0 -56.5 6 -81.5 18zM327.999 91.5029c27.333 14.333 50.334 32.167 69.001 53.5v84h-109
c-100.667 0 -151 -26.333 -151 -79c0 -24 8.16699 -43.333 24.5 -58s43.5 -22 81.5 -22c29.333 0 57.666 7.16699 84.999 21.5zM257 578.004l-69 82.001c-6.66699 7.33301 -10 15.666 -10 24.999c0 11.333 3.33301 20.333 10 27s15.667 10 27 10
c15.333 0 26.333 -6.33301 33 -19l51 -90c4.66699 -6.66699 7 -13 7 -19c0 -8 -2.5 -14.5 -7.5 -19.5s-11.5 -7.5 -19.5 -7.5c-8.66699 0 -16 3.66699 -22 11z" />
    <glyph glyph-name="aacute" unicode="&#xe1;" horiz-adv-x="562" 
d="M127.5 8c-25 12 -44.834 29.5029 -59.501 52.5029s-22 49.5 -22 79.5c0 49.333 19.5 88.666 58.5 117.999s96.167 44 171.5 44h121v8c0 44 -10.833 75.667 -32.5 95s-55.5 29 -101.5 29c-25.333 0 -47.833 -2 -67.5 -6s-41.5 -10 -65.5 -18
c-5.33301 -1.33301 -9.66602 -2 -12.999 -2c-10 0 -18.667 3.66699 -26 11s-11 16.333 -11 27c0 18 8.66699 30.667 26 38c56.667 24 114.334 36 173.001 36c46 0 84.833 -9.33301 116.5 -28s55 -42.834 70 -72.501s22.5 -61.834 22.5 -96.501v-283
c0 -12.667 -4.5 -23.334 -13.5 -32.001s-19.833 -13 -32.5 -13s-23.334 4.33301 -32.001 13s-13 19.334 -13 32.001v26c-49.333 -50.667 -112 -76 -188 -76c-29.333 0 -56.5 6 -81.5 18zM327.999 91.5029c27.333 14.333 50.334 32.167 69.001 53.5v84h-109
c-100.667 0 -151 -26.333 -151 -79c0 -24 8.16699 -43.333 24.5 -58s43.5 -22 81.5 -22c29.333 0 57.666 7.16699 84.999 21.5zM259.5 574.504c-5 5 -7.5 11.499 -7.5 19.499c0 6 2.33301 12.333 7 19l51 90c6.66699 12.667 17.667 19 33 19
c10.667 0 19.5 -3.33301 26.5 -10s10.5 -15.667 10.5 -27c0 -9.33301 -3.33301 -17.666 -10 -24.999l-69 -82c-6 -7.33301 -13.333 -11 -22 -11c-8 0 -14.5 2.5 -19.5 7.5z" />
    <glyph glyph-name="acircumflex" unicode="&#xe2;" horiz-adv-x="562" 
d="M127.5 8c-25 12 -44.834 29.5029 -59.501 52.5029s-22 49.5 -22 79.5c0 49.333 19.5 88.666 58.5 117.999s96.167 44 171.5 44h121v8c0 44 -10.833 75.667 -32.5 95s-55.5 29 -101.5 29c-25.333 0 -47.833 -2 -67.5 -6s-41.5 -10 -65.5 -18
c-5.33301 -1.33301 -9.66602 -2 -12.999 -2c-10 0 -18.667 3.66699 -26 11s-11 16.333 -11 27c0 18 8.66699 30.667 26 38c56.667 24 114.334 36 173.001 36c46 0 84.833 -9.33301 116.5 -28s55 -42.834 70 -72.501s22.5 -61.834 22.5 -96.501v-283
c0 -12.667 -4.5 -23.334 -13.5 -32.001s-19.833 -13 -32.5 -13s-23.334 4.33301 -32.001 13s-13 19.334 -13 32.001v26c-49.333 -50.667 -112 -76 -188 -76c-29.333 0 -56.5 6 -81.5 18zM327.999 91.5029c27.333 14.333 50.334 32.167 69.001 53.5v84h-109
c-100.667 0 -151 -26.333 -151 -79c0 -24 8.16699 -43.333 24.5 -58s43.5 -22 81.5 -22c29.333 0 57.666 7.16699 84.999 21.5zM152 575.504c-6 6.33301 -8.66699 13.166 -8 20.499c0 7.33301 2.66699 13.666 8 18.999l68 70c6 6.66699 12 11.667 18 15s13.333 5 22 5h38
c8.66699 0 16 -1.66699 22 -5s12 -8.33301 18 -15l68 -70c5.33301 -5.33301 8 -11.666 8 -18.999c0.666992 -7.33301 -2 -14.166 -8 -20.499s-13.333 -9.5 -22 -9.5c-7.33301 0 -13.333 2.33301 -18 7l-87 74l-87 -74c-4.66699 -4.66699 -10.667 -7 -18 -7
c-8.66699 0 -16 3.16699 -22 9.5z" />
    <glyph glyph-name="atilde" unicode="&#xe3;" horiz-adv-x="562" 
d="M127.5 8c-25 12 -44.834 29.5029 -59.501 52.5029s-22 49.5 -22 79.5c0 49.333 19.5 88.666 58.5 117.999s96.167 44 171.5 44h121v8c0 44 -10.833 75.667 -32.5 95s-55.5 29 -101.5 29c-25.333 0 -47.833 -2 -67.5 -6s-41.5 -10 -65.5 -18
c-5.33301 -1.33301 -9.66602 -2 -12.999 -2c-10 0 -18.667 3.66699 -26 11s-11 16.333 -11 27c0 18 8.66699 30.667 26 38c56.667 24 114.334 36 173.001 36c46 0 84.833 -9.33301 116.5 -28s55 -42.834 70 -72.501s22.5 -61.834 22.5 -96.501v-283
c0 -12.667 -4.5 -23.334 -13.5 -32.001s-19.833 -13 -32.5 -13s-23.334 4.33301 -32.001 13s-13 19.334 -13 32.001v26c-49.333 -50.667 -112 -76 -188 -76c-29.333 0 -56.5 6 -81.5 18zM327.999 91.5029c27.333 14.333 50.334 32.167 69.001 53.5v84h-109
c-100.667 0 -151 -26.333 -151 -79c0 -24 8.16699 -43.333 24.5 -58s43.5 -22 81.5 -22c29.333 0 57.666 7.16699 84.999 21.5zM125 577.504c-4.66699 4.33301 -7.00098 9.83203 -7.00098 16.499c0 14 3.5 28.333 10.5 43s16.833 27 29.5 37s27.334 15 44.001 15
c13.333 0 25.833 -2 37.5 -6s25.834 -10 42.501 -18c15.333 -7.33301 28.5 -13 39.5 -17s22.5 -6 34.5 -6c10 0 17.833 2.33301 23.5 7s10.167 11.334 13.5 20.001c5.33301 14 13.666 21 24.999 21c6.66699 0 12 -2.16699 16 -6.5s6.33301 -9.5 7 -15.5
c0 -23.333 -8 -45 -24 -65s-36 -30 -60 -30c-13.333 0 -26 2.16699 -38 6.5s-26.667 10.5 -44 18.5c-15.333 7.33301 -28.333 13 -39 17s-21.667 6 -33 6c-17.333 0 -30.333 -10.667 -39 -32c-4 -12 -11.667 -18 -23 -18c-6 0 -11.333 2.16699 -16 6.5z" />
    <glyph glyph-name="adieresis" unicode="&#xe4;" horiz-adv-x="562" 
d="M127.5 8c-25 12 -44.834 29.5029 -59.501 52.5029s-22 49.5 -22 79.5c0 49.333 19.5 88.666 58.5 117.999s96.167 44 171.5 44h121v8c0 44 -10.833 75.667 -32.5 95s-55.5 29 -101.5 29c-25.333 0 -47.833 -2 -67.5 -6s-41.5 -10 -65.5 -18
c-5.33301 -1.33301 -9.66602 -2 -12.999 -2c-10 0 -18.667 3.66699 -26 11s-11 16.333 -11 27c0 18 8.66699 30.667 26 38c56.667 24 114.334 36 173.001 36c46 0 84.833 -9.33301 116.5 -28s55 -42.834 70 -72.501s22.5 -61.834 22.5 -96.501v-283
c0 -12.667 -4.5 -23.334 -13.5 -32.001s-19.833 -13 -32.5 -13s-23.334 4.33301 -32.001 13s-13 19.334 -13 32.001v26c-49.333 -50.667 -112 -76 -188 -76c-29.333 0 -56.5 6 -81.5 18zM327.999 91.5029c27.333 14.333 50.334 32.167 69.001 53.5v84h-109
c-100.667 0 -151 -26.333 -151 -79c0 -24 8.16699 -43.333 24.5 -58s43.5 -22 81.5 -22c29.333 0 57.666 7.16699 84.999 21.5zM159 590.004c-10 10 -15 22 -15 36s5 26 15 36s22 15 36 15s26 -5 36 -15s15 -22 15 -36s-5 -26 -15 -36s-22 -15 -36 -15s-26 5 -36 15z
M327 590.004c-10 10 -15 22 -15 36s5 26 15 36s22 15 36 15s26 -5 36 -15s15 -22 15 -36s-5 -26 -15 -36s-22 -15 -36 -15s-26 5 -36 15z" />
    <glyph glyph-name="aring" unicode="&#xe5;" horiz-adv-x="562" 
d="M127.5 8c-25 12 -44.834 29.5029 -59.501 52.5029s-22 49.5 -22 79.5c0 49.333 19.5 88.666 58.5 117.999s96.167 44 171.5 44h121v8c0 44 -10.833 75.667 -32.5 95s-55.5 29 -101.5 29c-25.333 0 -47.833 -2 -67.5 -6s-41.5 -10 -65.5 -18
c-5.33301 -1.33301 -9.66602 -2 -12.999 -2c-10 0 -18.667 3.66699 -26 11s-11 16.333 -11 27c0 18 8.66699 30.667 26 38c56.667 24 114.334 36 173.001 36c46 0 84.833 -9.33301 116.5 -28s55 -42.834 70 -72.501s22.5 -61.834 22.5 -96.501v-283
c0 -12.667 -4.5 -23.334 -13.5 -32.001s-19.833 -13 -32.5 -13s-23.334 4.33301 -32.001 13s-13 19.334 -13 32.001v26c-49.333 -50.667 -112 -76 -188 -76c-29.333 0 -56.5 6 -81.5 18zM327.999 91.5029c27.333 14.333 50.334 32.167 69.001 53.5v84h-109
c-100.667 0 -151 -26.333 -151 -79c0 -24 8.16699 -43.333 24.5 -58s43.5 -22 81.5 -22c29.333 0 57.666 7.16699 84.999 21.5zM212.5 578.504c-18.333 18.333 -27.5 40.5 -27.5 66.5s9.16699 48.167 27.5 66.5s40.5 27.5 66.5 27.5s48.167 -9.16699 66.5 -27.5
s27.5 -40.5 27.5 -66.5s-9.16699 -48.167 -27.5 -66.5s-40.5 -27.5 -66.5 -27.5s-48.167 9.16699 -66.5 27.5zM313.5 610.504c9.66699 9.66699 14.5 21.167 14.5 34.5s-4.83301 24.833 -14.5 34.5s-21.167 14.5 -34.5 14.5s-24.833 -4.83301 -34.5 -14.5
s-14.5 -21.167 -14.5 -34.5s4.83301 -24.833 14.5 -34.5s21.167 -14.5 34.5 -14.5s24.833 4.83301 34.5 14.5z" />
    <glyph glyph-name="ae" unicode="&#xe6;" horiz-adv-x="911" 
d="M143.5 8c-29.667 12 -53.334 29.3311 -71.001 51.998s-26.5 49.334 -26.5 80.001c0 48.667 19.5 87.334 58.5 116.001s96.167 43 171.5 43h121v11c0 44 -10.833 75.667 -32.5 95s-55.5 29 -101.5 29c-25.333 0 -47.833 -2 -67.5 -6s-41.5 -10 -65.5 -18
c-5.33301 -1.33301 -9.66602 -2 -12.999 -2c-10 0 -18.667 3.66699 -26 11s-11 16.333 -11 27c0 18 8.66699 30.667 26 38c56.667 24 114.334 36 173.001 36c41.333 0 76.166 -7.5 104.499 -22.5s50.5 -35.5 66.5 -61.5c42 56 102.333 84 181 84
c48.667 0 91 -10.833 127 -32.5s63.667 -51.5 83 -89.5s29 -81 29 -129c0 -11.333 -4 -21.333 -12 -30s-18.667 -13 -32 -13h-344c5.33301 -47.333 22.333 -84.333 51 -111s70.667 -40 126 -40c28 0 52.5 2.66699 73.5 8s41.5 13 61.5 23c5.33301 2.66699 11.333 4 18 4
c10.667 0 20 -3.66699 28 -11s12 -16.666 12 -27.999c0 -14.667 -8.66699 -27 -26 -37c-26 -14.667 -51.667 -25.667 -77 -33s-58 -11 -98 -11c-45.333 0 -85 7.5 -119 22.5s-62 36.5 -84 64.5c-21.333 -32.667 -50.5 -55.334 -87.5 -68.001s-76.5 -19 -118.5 -19
c-36 0 -68.833 6 -98.5 18zM780 298.998c-2 32.667 -10.5 59.834 -25.5 81.501s-33.5 37.5 -55.5 47.5s-44.667 15 -68 15s-46 -5 -68 -15s-40.5 -25.833 -55.5 -47.5s-23.5 -48.834 -25.5 -81.501h298zM357 91.998c26.667 14.667 39.999 40.333 39.999 77v57h-109
c-49.333 0 -86.833 -5.83301 -112.5 -17.5s-38.5 -31.167 -38.5 -58.5c0 -22.667 10.833 -41.667 32.5 -57s51.834 -23 90.501 -23c38 0 70.333 7.33301 97 22z" />
    <glyph glyph-name="ccedilla" unicode="&#xe7;" horiz-adv-x="533" 
d="M486.5 100.5c7.66699 -8.33301 11.502 -17.499 11.502 -27.499c0 -14.667 -6.66699 -26.334 -20 -35.001c-22 -14 -45.833 -25.5 -71.5 -34.5s-56.167 -13.5 -91.5 -13.5l-30 -53c10.667 2.66699 22 4 34 4c22.667 0 41.167 -6.5 55.5 -19.5s21.5 -29.833 21.5 -50.5
c0 -30.667 -9.5 -53.667 -28.5 -69s-46.5 -23 -82.5 -23c-32 0 -62 8.66699 -90 26c-2.66699 2 -5.16699 4.5 -7.5 7.5s-3.5 6.16699 -3.5 9.5c0 5.33301 1.66699 10 5 14s8 6 14 6c2.66699 0 6 -1 10 -3c20.667 -11.333 40.334 -17 59.001 -17c38 0 57 15.333 57 46
c0 10 -3.33301 17.667 -10 23s-15.334 8 -26.001 8c-14.667 0 -29.334 -3.66699 -44.001 -11c-4 -2 -7.33301 -3 -10 -3c-4.66699 0 -8.83398 1.5 -12.501 4.5s-5.5 6.83301 -5.5 11.5c0 5.33301 1.33301 10 4 14l49 78c-42 6 -80.167 20.167 -114.5 42.5
s-61.5 52.333 -81.5 90s-30 80.834 -30 129.501c0 54 12.167 101 36.5 141s56.833 70.667 97.5 92s85 32 133 32c35.333 0 65.833 -4.5 91.5 -13.5s49.5 -20.5 71.5 -34.5c13.333 -8.66699 20 -20.334 20 -35.001c0 -10 -3.83301 -19.167 -11.5 -27.5
s-16.5 -12.5 -26.5 -12.5c-7.33301 0 -14.666 2 -21.999 6c-22 11.333 -40.833 19.5 -56.5 24.5s-35.167 7.5 -58.5 7.5c-57.333 0 -102.333 -16.5 -135 -49.5s-49 -76.5 -49 -130.5s16.333 -97.5 49 -130.5s77.667 -49.5 135 -49.5c23.333 0 42.833 2.5 58.5 7.5
s34.5 13.167 56.5 24.5c7.33301 4 14.666 6 21.999 6c10 0 18.833 -4.16699 26.5 -12.5z" />
    <glyph glyph-name="egrave" unicode="&#xe8;" horiz-adv-x="566" 
d="M116.5 59.5c-45.667 46.333 -68.499 111.499 -68.499 195.499c0 47.333 8.66699 91 26 131s44 72.333 80 97s80.333 37 133 37c49.333 0 92 -11.5 128 -34.5s63.333 -53.667 82 -92s28 -80.166 28 -125.499c0 -12.667 -4.16699 -23.334 -12.5 -32.001
s-19.5 -13 -33.5 -13h-339c5.33301 -46.667 22.666 -83 51.999 -109s70.333 -39 123 -39c28 0 52.5 2.66699 73.5 8s41.5 13 61.5 23c5.33301 2.66699 11.333 4 18 4c10.667 0 20 -3.66699 28 -11s12 -16.666 12 -27.999c0 -14.667 -8.66699 -27 -26 -37
c-26 -14.667 -51.667 -25.667 -77 -33s-58 -11 -98 -11c-81.333 0 -144.833 23.167 -190.5 69.5zM435.001 296.999c-2 32.667 -10.5 60 -25.5 82s-33.5 38.167 -55.5 48.5s-44.333 15.5 -67 15.5s-45 -5.16699 -67 -15.5s-40.333 -26.5 -55 -48.5s-23 -49.333 -25 -82h295z
M263.001 577.999l-69 82.001c-6.66699 7.33301 -10 15.666 -10 24.999c0 11.333 3.33301 20.333 10 27s15.667 10 27 10c15.333 0 26.333 -6.33301 33 -19l51 -90c4.66699 -6.66699 7 -13 7 -19c0 -8 -2.5 -14.5 -7.5 -19.5s-11.5 -7.5 -19.5 -7.5
c-8.66699 0 -16 3.66699 -22 11z" />
    <glyph glyph-name="eacute" unicode="&#xe9;" horiz-adv-x="566" 
d="M116.5 59.5c-45.667 46.333 -68.499 111.499 -68.499 195.499c0 47.333 8.66699 91 26 131s44 72.333 80 97s80.333 37 133 37c49.333 0 92 -11.5 128 -34.5s63.333 -53.667 82 -92s28 -80.166 28 -125.499c0 -12.667 -4.16699 -23.334 -12.5 -32.001
s-19.5 -13 -33.5 -13h-339c5.33301 -46.667 22.666 -83 51.999 -109s70.333 -39 123 -39c28 0 52.5 2.66699 73.5 8s41.5 13 61.5 23c5.33301 2.66699 11.333 4 18 4c10.667 0 20 -3.66699 28 -11s12 -16.666 12 -27.999c0 -14.667 -8.66699 -27 -26 -37
c-26 -14.667 -51.667 -25.667 -77 -33s-58 -11 -98 -11c-81.333 0 -144.833 23.167 -190.5 69.5zM435.001 296.999c-2 32.667 -10.5 60 -25.5 82s-33.5 38.167 -55.5 48.5s-44.333 15.5 -67 15.5s-45 -5.16699 -67 -15.5s-40.333 -26.5 -55 -48.5s-23 -49.333 -25 -82h295z
M265.501 574.499c-5 5 -7.5 11.499 -7.5 19.499c0 6 2.33301 12.333 7 19l51 90c6.66699 12.667 17.667 19 33 19c10.667 0 19.5 -3.33301 26.5 -10s10.5 -15.667 10.5 -27c0 -9.33301 -3.33301 -17.666 -10 -24.999l-69 -82c-6 -7.33301 -13.333 -11 -22 -11
c-8 0 -14.5 2.5 -19.5 7.5z" />
    <glyph glyph-name="ecircumflex" unicode="&#xea;" horiz-adv-x="566" 
d="M116.5 59.5c-45.667 46.333 -68.499 111.499 -68.499 195.499c0 47.333 8.66699 91 26 131s44 72.333 80 97s80.333 37 133 37c49.333 0 92 -11.5 128 -34.5s63.333 -53.667 82 -92s28 -80.166 28 -125.499c0 -12.667 -4.16699 -23.334 -12.5 -32.001
s-19.5 -13 -33.5 -13h-339c5.33301 -46.667 22.666 -83 51.999 -109s70.333 -39 123 -39c28 0 52.5 2.66699 73.5 8s41.5 13 61.5 23c5.33301 2.66699 11.333 4 18 4c10.667 0 20 -3.66699 28 -11s12 -16.666 12 -27.999c0 -14.667 -8.66699 -27 -26 -37
c-26 -14.667 -51.667 -25.667 -77 -33s-58 -11 -98 -11c-81.333 0 -144.833 23.167 -190.5 69.5zM435.001 296.999c-2 32.667 -10.5 60 -25.5 82s-33.5 38.167 -55.5 48.5s-44.333 15.5 -67 15.5s-45 -5.16699 -67 -15.5s-40.333 -26.5 -55 -48.5s-23 -49.333 -25 -82h295z
M158.001 575.499c-6 6.33301 -8.66699 13.166 -8 20.499c0 7.33301 2.66699 13.666 8 18.999l68 70c6 6.66699 12 11.667 18 15s13.333 5 22 5h38c8.66699 0 16 -1.66699 22 -5s12 -8.33301 18 -15l68 -70c5.33301 -5.33301 8 -11.666 8 -18.999
c0.666992 -7.33301 -2 -14.166 -8 -20.499s-13.333 -9.5 -22 -9.5c-7.33301 0 -13.333 2.33301 -18 7l-87 74l-87 -74c-4.66699 -4.66699 -10.667 -7 -18 -7c-8.66699 0 -16 3.16699 -22 9.5z" />
    <glyph glyph-name="edieresis" unicode="&#xeb;" horiz-adv-x="566" 
d="M116.5 59.5c-45.667 46.333 -68.499 111.499 -68.499 195.499c0 47.333 8.66699 91 26 131s44 72.333 80 97s80.333 37 133 37c49.333 0 92 -11.5 128 -34.5s63.333 -53.667 82 -92s28 -80.166 28 -125.499c0 -12.667 -4.16699 -23.334 -12.5 -32.001
s-19.5 -13 -33.5 -13h-339c5.33301 -46.667 22.666 -83 51.999 -109s70.333 -39 123 -39c28 0 52.5 2.66699 73.5 8s41.5 13 61.5 23c5.33301 2.66699 11.333 4 18 4c10.667 0 20 -3.66699 28 -11s12 -16.666 12 -27.999c0 -14.667 -8.66699 -27 -26 -37
c-26 -14.667 -51.667 -25.667 -77 -33s-58 -11 -98 -11c-81.333 0 -144.833 23.167 -190.5 69.5zM435.001 296.999c-2 32.667 -10.5 60 -25.5 82s-33.5 38.167 -55.5 48.5s-44.333 15.5 -67 15.5s-45 -5.16699 -67 -15.5s-40.333 -26.5 -55 -48.5s-23 -49.333 -25 -82h295z
M165.001 589.999c-10 10 -15 22 -15 36s5 26 15 36s22 15 36 15s26 -5 36 -15s15 -22 15 -36s-5 -26 -15 -36s-22 -15 -36 -15s-26 5 -36 15zM333.001 589.999c-10 10 -15 22 -15 36s5 26 15 36s22 15 36 15s26 -5 36 -15s15 -22 15 -36s-5 -26 -15 -36s-22 -15 -36 -15
s-26 5 -36 15z" />
    <glyph glyph-name="igrave" unicode="&#xec;" horiz-adv-x="249" 
d="M92 8c-8.66699 8.66699 -13 19.334 -13 32.001v429c0 12.667 4.33301 23.5 13 32.5s19.334 13.5 32.001 13.5c13.333 0 24.333 -4.33301 33 -13s13 -19.667 13 -33v-429c0 -12.667 -4.5 -23.334 -13.5 -32.001s-19.833 -13 -32.5 -13s-23.334 4.33301 -32.001 13z
M103 578l-69 82.001c-6.66699 7.33301 -10 15.666 -10 24.999c0 11.333 3.33301 20.333 10 27s15.667 10 27 10c15.333 0 26.333 -6.33301 33 -19l51 -90c4.66699 -6.66699 7 -13 7 -19c0 -8 -2.5 -14.5 -7.5 -19.5s-11.5 -7.5 -19.5 -7.5c-8.66699 0 -16 3.66699 -22 11z
" />
    <glyph glyph-name="iacute" unicode="&#xed;" horiz-adv-x="249" 
d="M92 8c-8.66699 8.66699 -13 19.334 -13 32.001v429c0 12.667 4.33301 23.5 13 32.5s19.334 13.5 32.001 13.5c13.333 0 24.333 -4.33301 33 -13s13 -19.667 13 -33v-429c0 -12.667 -4.5 -23.334 -13.5 -32.001s-19.833 -13 -32.5 -13s-23.334 4.33301 -32.001 13z
M105.5 574.5c-5 5 -7.5 11.499 -7.5 19.499c0 6 2.33301 12.333 7 19l51 90c6.66699 12.667 17.667 19 33 19c10.667 0 19.5 -3.33301 26.5 -10s10.5 -15.667 10.5 -27c0 -9.33301 -3.33301 -17.666 -10 -24.999l-69 -82c-6 -7.33301 -13.333 -11 -22 -11
c-8 0 -14.5 2.5 -19.5 7.5z" />
    <glyph glyph-name="icircumflex" unicode="&#xee;" horiz-adv-x="249" 
d="M92 8c-8.66699 8.66699 -13 19.334 -13 32.001v429c0 12.667 4.33301 23.5 13 32.5s19.334 13.5 32.001 13.5c13.333 0 24.333 -4.33301 33 -13s13 -19.667 13 -33v-429c0 -12.667 -4.5 -23.334 -13.5 -32.001s-19.833 -13 -32.5 -13s-23.334 4.33301 -32.001 13z
M-2 575.5c-6 6.33301 -8.66699 13.166 -8 20.499c0 7.33301 2.66699 13.666 8 18.999l68 70c6 6.66699 12 11.667 18 15s13.333 5 22 5h38c8.66699 0 16 -1.66699 22 -5s12 -8.33301 18 -15l68 -70c5.33301 -5.33301 8 -11.666 8 -18.999
c0.666992 -7.33301 -2 -14.166 -8 -20.499s-13.333 -9.5 -22 -9.5c-7.33301 0 -13.333 2.33301 -18 7l-87 74l-87 -74c-4.66699 -4.66699 -10.667 -7 -18 -7c-8.66699 0 -16 3.16699 -22 9.5z" />
    <glyph glyph-name="idieresis" unicode="&#xef;" horiz-adv-x="249" 
d="M92 8c-8.66699 8.66699 -13 19.334 -13 32.001v429c0 12.667 4.33301 23.5 13 32.5s19.334 13.5 32.001 13.5c13.333 0 24.333 -4.33301 33 -13s13 -19.667 13 -33v-429c0 -12.667 -4.5 -23.334 -13.5 -32.001s-19.833 -13 -32.5 -13s-23.334 4.33301 -32.001 13zM5 590
c-10 10 -15 22 -15 36s5 26 15 36s22 15 36 15s26 -5 36 -15s15 -22 15 -36s-5 -26 -15 -36s-22 -15 -36 -15s-26 5 -36 15zM173 590c-10 10 -15 22 -15 36s5 26 15 36s22 15 36 15s26 -5 36 -15s15 -22 15 -36s-5 -26 -15 -36s-22 -15 -36 -15s-26 5 -36 15z" />
    <glyph glyph-name="eth" unicode="&#xf0;" horiz-adv-x="593" 
d="M165.5 22.5c-37.667 21.667 -66.6641 52 -86.9971 91s-30.5 83.833 -30.5 134.5c0 45.333 9.33301 87.666 28 126.999s45.667 70.833 81 94.5s77 35.5 125 35.5c39.333 0 77 -9.33301 113 -28c-27.333 40.667 -63 79.667 -107 117l-84 -49
c-6.66699 -4 -12.334 -6 -17.001 -6c-6.66699 0 -12.5 2.5 -17.5 7.5s-7.5 10.833 -7.5 17.5c0 10 5 17.667 15 23l68 40c-33.333 22.667 -58.666 38.667 -75.999 48c-6 2.66699 -10.833 7.33398 -14.5 14.001s-5.5 13.667 -5.5 21c0 12 4.16699 22 12.5 30
s18.166 12 29.499 12c7.33301 0 14.666 -2 21.999 -6c40 -24.667 76 -49.667 108 -75l68 41c5.33301 3.33301 10.333 5 15 5c7.33301 0 13.333 -2.33301 18 -7s7 -10.667 7 -18c0 -9.33301 -4 -16.666 -12 -21.999l-56 -33c54 -48.667 98.167 -103.334 132.5 -164.001
s51.5 -127 51.5 -199c0 -83.333 -20.333 -151.5 -61 -204.5s-103.334 -79.5 -188.001 -79.5c-49.333 0 -92.833 10.833 -130.5 32.5zM373.003 89c24.667 12.667 44.834 32.667 60.501 60s23.5 61.666 23.5 102.999c0 40.667 -7.83301 74.5 -23.5 101.5
s-35.834 46.667 -60.501 59s-50.334 18.5 -77.001 18.5s-52.167 -6.16699 -76.5 -18.5s-44.333 -32 -60 -59s-23.5 -60.833 -23.5 -101.5c0 -41.333 7.83301 -75.666 23.5 -102.999s35.667 -47.333 60 -60s49.833 -19 76.5 -19s52.334 6.33301 77.001 19z" />
    <glyph glyph-name="ntilde" unicode="&#xf1;" horiz-adv-x="609" 
d="M92 8c-8.66699 8.66699 -13 19.333 -13 32v429c0 12.667 4.33301 23.5 13 32.5s19.334 13.5 32.001 13.5s23.5 -4.5 32.5 -13.5s13.5 -19.833 13.5 -32.5v-41c25.333 28 52.666 50.333 81.999 67s64 25 104 25c36.667 0 68.5 -8.66699 95.5 -26s47.667 -41 62 -71
s21.5 -63 21.5 -99v-284c0 -12.667 -4.5 -23.334 -13.5 -32.001s-19.833 -13 -32.5 -13s-23.334 4.33301 -32.001 13s-13 19.334 -13 32.001v274c0 81.333 -36.667 122 -110 122c-33.333 0 -63.166 -8.66699 -89.499 -26s-51.166 -40.666 -74.499 -69.999v-300
c0 -12.667 -4.5 -23.334 -13.5 -32.001s-19.833 -13 -32.5 -13s-23.334 4.33301 -32.001 13zM151 577.499c-4.66699 4.33301 -7.00098 9.83203 -7.00098 16.499c0 14 3.5 28.333 10.5 43s16.833 27 29.5 37s27.334 15 44.001 15c13.333 0 25.833 -2 37.5 -6
s25.834 -10 42.501 -18c15.333 -7.33301 28.5 -13 39.5 -17s22.5 -6 34.5 -6c10 0 17.833 2.33301 23.5 7s10.167 11.334 13.5 20.001c5.33301 14 13.666 21 24.999 21c6.66699 0 12 -2.16699 16 -6.5s6.33301 -9.5 7 -15.5c0 -23.333 -8 -45 -24 -65s-36 -30 -60 -30
c-13.333 0 -26 2.16699 -38 6.5s-26.667 10.5 -44 18.5c-15.333 7.33301 -28.333 13 -39 17s-21.667 6 -33 6c-17.333 0 -30.333 -10.667 -39 -32c-4 -12 -11.667 -18 -23 -18c-6 0 -11.333 2.16699 -16 6.5z" />
    <glyph glyph-name="ograve" unicode="&#xf2;" horiz-adv-x="608" 
d="M169 23c-38.667 22 -68.5 53.167 -89.5 93.5s-31.5 86.5 -31.5 138.5s10.5 98.167 31.5 138.5s50.833 71.5 89.5 93.5s83.667 33 135 33c50.667 0 95.334 -11 134.001 -33s68.667 -53.167 90 -93.5s32 -86.5 32 -138.5s-10.667 -98.167 -32 -138.5
s-51.333 -71.5 -90 -93.5s-83.334 -33 -134.001 -33c-51.333 0 -96.333 11 -135 33zM382.5 92c25 12.667 45.667 32.667 62 60s24.5 62 24.5 104c0 41.333 -8.16699 75.666 -24.5 102.999s-37 47.166 -62 59.499s-51.167 18.5 -78.5 18.5c-28 0 -54.5 -6.16699 -79.5 -18.5
s-45.5 -32.166 -61.5 -59.499s-24 -61.666 -24 -102.999c0 -42 8 -76.667 24 -104s36.5 -47.333 61.5 -60s51.5 -19 79.5 -19c27.333 0 53.5 6.33301 78.5 19zM282 578l-69 82.001c-6.66699 7.33301 -10 15.666 -10 24.999c0 11.333 3.33301 20.333 10 27s15.667 10 27 10
c15.333 0 26.333 -6.33301 33 -19l51 -90c4.66699 -6.66699 7 -13 7 -19c0 -8 -2.5 -14.5 -7.5 -19.5s-11.5 -7.5 -19.5 -7.5c-8.66699 0 -16 3.66699 -22 11z" />
    <glyph glyph-name="oacute" unicode="&#xf3;" horiz-adv-x="608" 
d="M169 23c-38.667 22 -68.5 53.167 -89.5 93.5s-31.5 86.5 -31.5 138.5s10.5 98.167 31.5 138.5s50.833 71.5 89.5 93.5s83.667 33 135 33c50.667 0 95.334 -11 134.001 -33s68.667 -53.167 90 -93.5s32 -86.5 32 -138.5s-10.667 -98.167 -32 -138.5
s-51.333 -71.5 -90 -93.5s-83.334 -33 -134.001 -33c-51.333 0 -96.333 11 -135 33zM382.5 92c25 12.667 45.667 32.667 62 60s24.5 62 24.5 104c0 41.333 -8.16699 75.666 -24.5 102.999s-37 47.166 -62 59.499s-51.167 18.5 -78.5 18.5c-28 0 -54.5 -6.16699 -79.5 -18.5
s-45.5 -32.166 -61.5 -59.499s-24 -61.666 -24 -102.999c0 -42 8 -76.667 24 -104s36.5 -47.333 61.5 -60s51.5 -19 79.5 -19c27.333 0 53.5 6.33301 78.5 19zM284.5 574.5c-5 5 -7.5 11.499 -7.5 19.499c0 6 2.33301 12.333 7 19l51 90c6.66699 12.667 17.667 19 33 19
c10.667 0 19.5 -3.33301 26.5 -10s10.5 -15.667 10.5 -27c0 -9.33301 -3.33301 -17.666 -10 -24.999l-69 -82c-6 -7.33301 -13.333 -11 -22 -11c-8 0 -14.5 2.5 -19.5 7.5z" />
    <glyph glyph-name="ocircumflex" unicode="&#xf4;" horiz-adv-x="608" 
d="M169 23c-38.667 22 -68.5 53.167 -89.5 93.5s-31.5 86.5 -31.5 138.5s10.5 98.167 31.5 138.5s50.833 71.5 89.5 93.5s83.667 33 135 33c50.667 0 95.334 -11 134.001 -33s68.667 -53.167 90 -93.5s32 -86.5 32 -138.5s-10.667 -98.167 -32 -138.5
s-51.333 -71.5 -90 -93.5s-83.334 -33 -134.001 -33c-51.333 0 -96.333 11 -135 33zM382.5 92c25 12.667 45.667 32.667 62 60s24.5 62 24.5 104c0 41.333 -8.16699 75.666 -24.5 102.999s-37 47.166 -62 59.499s-51.167 18.5 -78.5 18.5c-28 0 -54.5 -6.16699 -79.5 -18.5
s-45.5 -32.166 -61.5 -59.499s-24 -61.666 -24 -102.999c0 -42 8 -76.667 24 -104s36.5 -47.333 61.5 -60s51.5 -19 79.5 -19c27.333 0 53.5 6.33301 78.5 19zM177 575.5c-6 6.33301 -8.66699 13.166 -8 20.499c0 7.33301 2.66699 13.666 8 18.999l68 70
c6 6.66699 12 11.667 18 15s13.333 5 22 5h38c8.66699 0 16 -1.66699 22 -5s12 -8.33301 18 -15l68 -70c5.33301 -5.33301 8 -11.666 8 -18.999c0.666992 -7.33301 -2 -14.166 -8 -20.499s-13.333 -9.5 -22 -9.5c-7.33301 0 -13.333 2.33301 -18 7l-87 74l-87 -74
c-4.66699 -4.66699 -10.667 -7 -18 -7c-8.66699 0 -16 3.16699 -22 9.5z" />
    <glyph glyph-name="otilde" unicode="&#xf5;" horiz-adv-x="608" 
d="M169 23c-38.667 22 -68.5 53.167 -89.5 93.5s-31.5 86.5 -31.5 138.5s10.5 98.167 31.5 138.5s50.833 71.5 89.5 93.5s83.667 33 135 33c50.667 0 95.334 -11 134.001 -33s68.667 -53.167 90 -93.5s32 -86.5 32 -138.5s-10.667 -98.167 -32 -138.5
s-51.333 -71.5 -90 -93.5s-83.334 -33 -134.001 -33c-51.333 0 -96.333 11 -135 33zM382.5 92c25 12.667 45.667 32.667 62 60s24.5 62 24.5 104c0 41.333 -8.16699 75.666 -24.5 102.999s-37 47.166 -62 59.499s-51.167 18.5 -78.5 18.5c-28 0 -54.5 -6.16699 -79.5 -18.5
s-45.5 -32.166 -61.5 -59.499s-24 -61.666 -24 -102.999c0 -42 8 -76.667 24 -104s36.5 -47.333 61.5 -60s51.5 -19 79.5 -19c27.333 0 53.5 6.33301 78.5 19zM150 577.5c-4.66699 4.33301 -7.00098 9.83203 -7.00098 16.499c0 14 3.5 28.333 10.5 43s16.833 27 29.5 37
s27.334 15 44.001 15c13.333 0 25.833 -2 37.5 -6s25.834 -10 42.501 -18c15.333 -7.33301 28.5 -13 39.5 -17s22.5 -6 34.5 -6c10 0 17.833 2.33301 23.5 7s10.167 11.334 13.5 20.001c5.33301 14 13.666 21 24.999 21c6.66699 0 12 -2.16699 16 -6.5s6.33301 -9.5 7 -15.5
c0 -23.333 -8 -45 -24 -65s-36 -30 -60 -30c-13.333 0 -26 2.16699 -38 6.5s-26.667 10.5 -44 18.5c-15.333 7.33301 -28.333 13 -39 17s-21.667 6 -33 6c-17.333 0 -30.333 -10.667 -39 -32c-4 -12 -11.667 -18 -23 -18c-6 0 -11.333 2.16699 -16 6.5z" />
    <glyph glyph-name="odieresis" unicode="&#xf6;" horiz-adv-x="608" 
d="M169 23c-38.667 22 -68.5 53.167 -89.5 93.5s-31.5 86.5 -31.5 138.5s10.5 98.167 31.5 138.5s50.833 71.5 89.5 93.5s83.667 33 135 33c50.667 0 95.334 -11 134.001 -33s68.667 -53.167 90 -93.5s32 -86.5 32 -138.5s-10.667 -98.167 -32 -138.5
s-51.333 -71.5 -90 -93.5s-83.334 -33 -134.001 -33c-51.333 0 -96.333 11 -135 33zM382.5 92c25 12.667 45.667 32.667 62 60s24.5 62 24.5 104c0 41.333 -8.16699 75.666 -24.5 102.999s-37 47.166 -62 59.499s-51.167 18.5 -78.5 18.5c-28 0 -54.5 -6.16699 -79.5 -18.5
s-45.5 -32.166 -61.5 -59.499s-24 -61.666 -24 -102.999c0 -42 8 -76.667 24 -104s36.5 -47.333 61.5 -60s51.5 -19 79.5 -19c27.333 0 53.5 6.33301 78.5 19zM184 590c-10 10 -15 22 -15 36s5 26 15 36s22 15 36 15s26 -5 36 -15s15 -22 15 -36s-5 -26 -15 -36
s-22 -15 -36 -15s-26 5 -36 15zM352 590c-10 10 -15 22 -15 36s5 26 15 36s22 15 36 15s26 -5 36 -15s15 -22 15 -36s-5 -26 -15 -36s-22 -15 -36 -15s-26 5 -36 15z" />
    <glyph glyph-name="divide" unicode="&#xf7;" horiz-adv-x="712" 
d="M320 480c-10 10 -15 22 -15 36s5 26 15 36s22 15 36 15s26 -5 36 -15s15 -22 15 -36s-5 -26 -15 -36s-22 -15 -36 -15s-26 5 -36 15zM84.5 302.5c-7.66699 7.66699 -11.5 17.167 -11.5 28.5s3.83301 21 11.5 29s17.167 12 28.5 12h485c11.333 0 21 -4 29 -12
s12 -17.667 12 -29s-4 -20.833 -12 -28.5s-17.667 -11.5 -29 -11.5h-485c-11.333 0 -20.833 3.83301 -28.5 11.5zM320 110c-10 10 -15 22 -15 36s5 26 15 36s22 15 36 15s26 -5 36 -15s15 -22 15 -36s-5 -26 -15 -36s-22 -15 -36 -15s-26 5 -36 15z" />
    <glyph glyph-name="oslash" unicode="&#xf8;" horiz-adv-x="608" 
d="M102 -24c-4.66699 4.66699 -6.99902 10.334 -6.99902 17.001c0 5.33301 2 11 6 17l29 41c-26 24 -46.167 53.333 -60.5 88s-21.5 73.334 -21.5 116.001c0 52 10.5 98.167 31.5 138.5s50.833 71.5 89.5 93.5s83.667 33 135 33c47.333 0 91.333 -10.667 132 -32l29 41
c4.66699 6.66699 11.667 10 21 10c7.33301 0 13.333 -2.33301 18 -7s7 -10.334 7 -17.001c0 -5.33301 -2 -11 -6 -17l-28 -40c26.667 -23.333 47.167 -52.333 61.5 -87s21.5 -73.334 21.5 -116.001c0 -52 -10.667 -98.167 -32 -138.5s-51.333 -71.5 -90 -93.5
s-83.334 -33 -134.001 -33c-50 0 -94.333 10.667 -133 32l-30 -43c-4.66699 -6.66699 -11.667 -10 -21 -10c-7.33301 0 -13.333 2.33301 -18 7zM386.001 416c-26 14 -53.333 20.998 -82 20.998c-28 0 -54.5 -6.16699 -79.5 -18.5s-45.5 -32.166 -61.5 -59.499
s-24 -61.666 -24 -102.999c0 -55.333 14.333 -99 43 -131zM382.501 91.998c25 12.667 45.667 32.667 62 60s24.5 62 24.5 104c0 52.667 -14.333 95.667 -43 129l-204 -291c24 -14 51.333 -21 82 -21c27.333 0 53.5 6.33301 78.5 19z" />
    <glyph glyph-name="ugrave" unicode="&#xf9;" horiz-adv-x="609" 
d="M157.5 16c-27 17.333 -47.667 41.001 -62 71.001s-21.5 63 -21.5 99v284c0 12.667 4.5 23.334 13.5 32.001s19.833 13 32.5 13s23.334 -4.33301 32.001 -13s13 -19.334 13 -32.001v-274c0 -81.333 36.667 -122 110 -122c33.333 0 63.166 8.66699 89.499 26
s51.166 40.666 74.499 69.999v300c0 12.667 4.5 23.334 13.5 32.001s19.833 13 32.5 13s23.334 -4.33301 32.001 -13s13 -19.334 13 -32.001v-429c0 -12.667 -4.33301 -23.5 -13 -32.5s-19.334 -13.5 -32.001 -13.5s-23.5 4.5 -32.5 13.5s-13.5 19.833 -13.5 32.5v41
c-25.333 -28 -52.666 -50.333 -81.999 -67s-64 -25 -104 -25c-36.667 0 -68.5 8.66699 -95.5 26zM283 578.001l-69 82.001c-6.66699 7.33301 -10 15.666 -10 24.999c0 11.333 3.33301 20.333 10 27s15.667 10 27 10c15.333 0 26.333 -6.33301 33 -19l51 -90
c4.66699 -6.66699 7 -13 7 -19c0 -8 -2.5 -14.5 -7.5 -19.5s-11.5 -7.5 -19.5 -7.5c-8.66699 0 -16 3.66699 -22 11z" />
    <glyph glyph-name="uacute" unicode="&#xfa;" horiz-adv-x="609" 
d="M157.5 16c-27 17.333 -47.667 41.001 -62 71.001s-21.5 63 -21.5 99v284c0 12.667 4.5 23.334 13.5 32.001s19.833 13 32.5 13s23.334 -4.33301 32.001 -13s13 -19.334 13 -32.001v-274c0 -81.333 36.667 -122 110 -122c33.333 0 63.166 8.66699 89.499 26
s51.166 40.666 74.499 69.999v300c0 12.667 4.5 23.334 13.5 32.001s19.833 13 32.5 13s23.334 -4.33301 32.001 -13s13 -19.334 13 -32.001v-429c0 -12.667 -4.33301 -23.5 -13 -32.5s-19.334 -13.5 -32.001 -13.5s-23.5 4.5 -32.5 13.5s-13.5 19.833 -13.5 32.5v41
c-25.333 -28 -52.666 -50.333 -81.999 -67s-64 -25 -104 -25c-36.667 0 -68.5 8.66699 -95.5 26zM285.5 574.501c-5 5 -7.5 11.499 -7.5 19.499c0 6 2.33301 12.333 7 19l51 90c6.66699 12.667 17.667 19 33 19c10.667 0 19.5 -3.33301 26.5 -10s10.5 -15.667 10.5 -27
c0 -9.33301 -3.33301 -17.666 -10 -24.999l-69 -82c-6 -7.33301 -13.333 -11 -22 -11c-8 0 -14.5 2.5 -19.5 7.5z" />
    <glyph glyph-name="ucircumflex" unicode="&#xfb;" horiz-adv-x="609" 
d="M157.5 16c-27 17.333 -47.667 41.001 -62 71.001s-21.5 63 -21.5 99v284c0 12.667 4.5 23.334 13.5 32.001s19.833 13 32.5 13s23.334 -4.33301 32.001 -13s13 -19.334 13 -32.001v-274c0 -81.333 36.667 -122 110 -122c33.333 0 63.166 8.66699 89.499 26
s51.166 40.666 74.499 69.999v300c0 12.667 4.5 23.334 13.5 32.001s19.833 13 32.5 13s23.334 -4.33301 32.001 -13s13 -19.334 13 -32.001v-429c0 -12.667 -4.33301 -23.5 -13 -32.5s-19.334 -13.5 -32.001 -13.5s-23.5 4.5 -32.5 13.5s-13.5 19.833 -13.5 32.5v41
c-25.333 -28 -52.666 -50.333 -81.999 -67s-64 -25 -104 -25c-36.667 0 -68.5 8.66699 -95.5 26zM178 575.501c-6 6.33301 -8.66699 13.166 -8 20.499c0 7.33301 2.66699 13.666 8 18.999l68 70c6 6.66699 12 11.667 18 15s13.333 5 22 5h38c8.66699 0 16 -1.66699 22 -5
s12 -8.33301 18 -15l68 -70c5.33301 -5.33301 8 -11.666 8 -18.999c0.666992 -7.33301 -2 -14.166 -8 -20.499s-13.333 -9.5 -22 -9.5c-7.33301 0 -13.333 2.33301 -18 7l-87 74l-87 -74c-4.66699 -4.66699 -10.667 -7 -18 -7c-8.66699 0 -16 3.16699 -22 9.5z" />
    <glyph glyph-name="udieresis" unicode="&#xfc;" horiz-adv-x="609" 
d="M157.5 16c-27 17.333 -47.667 41.001 -62 71.001s-21.5 63 -21.5 99v284c0 12.667 4.5 23.334 13.5 32.001s19.833 13 32.5 13s23.334 -4.33301 32.001 -13s13 -19.334 13 -32.001v-274c0 -81.333 36.667 -122 110 -122c33.333 0 63.166 8.66699 89.499 26
s51.166 40.666 74.499 69.999v300c0 12.667 4.5 23.334 13.5 32.001s19.833 13 32.5 13s23.334 -4.33301 32.001 -13s13 -19.334 13 -32.001v-429c0 -12.667 -4.33301 -23.5 -13 -32.5s-19.334 -13.5 -32.001 -13.5s-23.5 4.5 -32.5 13.5s-13.5 19.833 -13.5 32.5v41
c-25.333 -28 -52.666 -50.333 -81.999 -67s-64 -25 -104 -25c-36.667 0 -68.5 8.66699 -95.5 26zM185 590.001c-10 10 -15 22 -15 36s5 26 15 36s22 15 36 15s26 -5 36 -15s15 -22 15 -36s-5 -26 -15 -36s-22 -15 -36 -15s-26 5 -36 15zM353 590.001c-10 10 -15 22 -15 36
s5 26 15 36s22 15 36 15s26 -5 36 -15s15 -22 15 -36s-5 -26 -15 -36s-22 -15 -36 -15s-26 5 -36 15z" />
    <glyph glyph-name="yacute" unicode="&#xfd;" horiz-adv-x="537" 
d="M162.5 -222c-8.33301 8.66699 -12.502 19.001 -12.502 31.001c0 5.33301 1 10.666 3 15.999l65 167l-188 458c-2.66699 6.66699 -4 13 -4 19c0 12.667 4.33301 23.5 13 32.5s19.334 13.5 32.001 13.5c9.33301 0 17.833 -2.66699 25.5 -8s13.167 -12 16.5 -20l154 -382
l157 380c8.66699 20 22.667 30 42 30c12.667 0 23.334 -4.5 32.001 -13.5s13 -19.833 13 -32.5c0 -6 -1 -11.667 -3 -17l-273 -656c-9.33301 -20.667 -23.333 -31 -42 -31c-12 0 -22.167 4.33301 -30.5 13zM249.498 574.501c-5 5 -7.5 11.499 -7.5 19.499
c0 6 2.33301 12.333 7 19l51 90c6.66699 12.667 17.667 19 33 19c10.667 0 19.5 -3.33301 26.5 -10s10.5 -15.667 10.5 -27c0 -9.33301 -3.33301 -17.666 -10 -24.999l-69 -82c-6 -7.33301 -13.333 -11 -22 -11c-8 0 -14.5 2.5 -19.5 7.5z" />
    <glyph glyph-name="thorn" unicode="&#xfe;" horiz-adv-x="631" 
d="M92 -221.5c-8.66699 9 -13 19.833 -13 32.5v878c0 12.667 4.33301 23.5 13 32.5s19.334 13.5 32.001 13.5c13.333 0 24.333 -4.33301 33 -13s13 -19.667 13 -33v-245c48.667 50.667 105.667 76 171 76c41.333 0 80.5 -10.5 117.5 -31.5s67 -51.667 90 -92
s34.5 -87.5 34.5 -141.5s-11.5 -101.167 -34.5 -141.5s-53 -71 -90 -92s-76.167 -31.5 -117.5 -31.5c-65.333 0 -122.333 25.333 -171 76v-255c0 -13.333 -4.33301 -24.333 -13 -33s-19.667 -13 -33 -13c-12.667 0 -23.334 4.5 -32.001 13.5zM447 122
c30 31.333 45 75.6699 45 133.003s-15 101.666 -45 132.999s-69.667 47 -119 47c-30.667 0 -59.5 -6.83301 -86.5 -20.5s-50.833 -31.834 -71.5 -54.501v-210c20.667 -22.667 44.5 -40.834 71.5 -54.501s55.833 -20.5 86.5 -20.5c49.333 0 89 15.667 119 47z" />
    <glyph glyph-name="ydieresis" unicode="&#xff;" horiz-adv-x="537" 
d="M162.5 -222c-8.33301 8.66699 -12.502 19.001 -12.502 31.001c0 5.33301 1 10.666 3 15.999l65 167l-188 458c-2.66699 6.66699 -4 13 -4 19c0 12.667 4.33301 23.5 13 32.5s19.334 13.5 32.001 13.5c9.33301 0 17.833 -2.66699 25.5 -8s13.167 -12 16.5 -20l154 -382
l157 380c8.66699 20 22.667 30 42 30c12.667 0 23.334 -4.5 32.001 -13.5s13 -19.833 13 -32.5c0 -6 -1 -11.667 -3 -17l-273 -656c-9.33301 -20.667 -23.333 -31 -42 -31c-12 0 -22.167 4.33301 -30.5 13zM148.998 590.001c-10 10 -15 22 -15 36s5 26 15 36s22 15 36 15
s26 -5 36 -15s15 -22 15 -36s-5 -26 -15 -36s-22 -15 -36 -15s-26 5 -36 15zM316.998 590.001c-10 10 -15 22 -15 36s5 26 15 36s22 15 36 15s26 -5 36 -15s15 -22 15 -36s-5 -26 -15 -36s-22 -15 -36 -15s-26 5 -36 15z" />
    <glyph glyph-name="Amacron" unicode="&#x100;" horiz-adv-x="746" 
d="M62.5 8c-8.33301 8.66699 -12.502 19.334 -12.502 32.001c0 5.33301 1.66699 12 5 20l255 602c5.33301 12 12.833 21.833 22.5 29.5s21.5 11.5 35.5 11.5h10c14 0 25.833 -3.83301 35.5 -11.5s17.167 -17.5 22.5 -29.5l255 -602c3.33301 -8 5 -14.667 5 -20
c0 -12.667 -4.16699 -23.334 -12.5 -32.001s-19.166 -13 -32.499 -13c-9.33301 0 -17.833 2.5 -25.5 7.5s-13.5 11.833 -17.5 20.5l-65 156h-340l-65 -156c-4 -8.66699 -9.83301 -15.5 -17.5 -20.5s-16.167 -7.5 -25.5 -7.5c-13.333 0 -24.166 4.33301 -32.499 13z
M237.998 262h270l-135 325zM234.498 768.5c-5.66699 5.66699 -8.5 12.834 -8.5 21.501s2.83301 15.834 8.5 21.501s12.834 8.5 21.501 8.5h234c8.66699 0 15.834 -2.83301 21.501 -8.5s8.5 -12.834 8.5 -21.501s-2.83301 -15.834 -8.5 -21.501s-12.834 -8.5 -21.501 -8.5
h-234c-8.66699 0 -15.834 2.83301 -21.501 8.5z" />
    <glyph glyph-name="amacron" unicode="&#x101;" horiz-adv-x="562" 
d="M127.5 8c-25 12 -44.834 29.5029 -59.501 52.5029s-22 49.5 -22 79.5c0 49.333 19.5 88.666 58.5 117.999s96.167 44 171.5 44h121v8c0 44 -10.833 75.667 -32.5 95s-55.5 29 -101.5 29c-25.333 0 -47.833 -2 -67.5 -6s-41.5 -10 -65.5 -18
c-5.33301 -1.33301 -9.66602 -2 -12.999 -2c-10 0 -18.667 3.66699 -26 11s-11 16.333 -11 27c0 18 8.66699 30.667 26 38c56.667 24 114.334 36 173.001 36c46 0 84.833 -9.33301 116.5 -28s55 -42.834 70 -72.501s22.5 -61.834 22.5 -96.501v-283
c0 -12.667 -4.5 -23.334 -13.5 -32.001s-19.833 -13 -32.5 -13s-23.334 4.33301 -32.001 13s-13 19.334 -13 32.001v26c-49.333 -50.667 -112 -76 -188 -76c-29.333 0 -56.5 6 -81.5 18zM327.999 91.5029c27.333 14.333 50.334 32.167 69.001 53.5v84h-109
c-100.667 0 -151 -26.333 -151 -79c0 -24 8.16699 -43.333 24.5 -58s43.5 -22 81.5 -22c29.333 0 57.666 7.16699 84.999 21.5zM140.5 596.504c-5.66699 5.66699 -8.5 12.834 -8.5 21.501s2.83301 15.834 8.5 21.501s12.834 8.5 21.501 8.5h234
c8.66699 0 15.834 -2.83301 21.501 -8.5s8.5 -12.834 8.5 -21.501s-2.83301 -15.834 -8.5 -21.501s-12.834 -8.5 -21.501 -8.5h-234c-8.66699 0 -15.834 2.83301 -21.501 8.5z" />
    <glyph glyph-name="Abreve" unicode="&#x102;" horiz-adv-x="746" 
d="M62.5 8c-8.33301 8.66699 -12.502 19.334 -12.502 32.001c0 5.33301 1.66699 12 5 20l255 602c5.33301 12 12.833 21.833 22.5 29.5s21.5 11.5 35.5 11.5h10c14 0 25.833 -3.83301 35.5 -11.5s17.167 -17.5 22.5 -29.5l255 -602c3.33301 -8 5 -14.667 5 -20
c0 -12.667 -4.16699 -23.334 -12.5 -32.001s-19.166 -13 -32.499 -13c-9.33301 0 -17.833 2.5 -25.5 7.5s-13.5 11.833 -17.5 20.5l-65 156h-340l-65 -156c-4 -8.66699 -9.83301 -15.5 -17.5 -20.5s-16.167 -7.5 -25.5 -7.5c-13.333 0 -24.166 4.33301 -32.499 13z
M237.998 262h270l-135 325zM288.998 770c-24.667 14.667 -43.332 34.334 -55.999 59.001c-2 4 -3 8.66699 -3 14c0 8.66699 2.83301 16 8.5 22s13.167 9 22.5 9c12.667 0 22 -6.33301 28 -19c7.33301 -15.333 18.333 -27.333 33 -36s31.667 -13 51 -13s36.333 4.33301 51 13
s25.667 20.667 33 36c6 12.667 15.333 19 28 19c9.33301 0 16.833 -3 22.5 -9s8.5 -13.333 8.5 -22c0 -5.33301 -1 -10 -3 -14c-12.667 -24.667 -31.334 -44.334 -56.001 -59.001s-52.667 -22 -84 -22s-59.333 7.33301 -84 22z" />
    <glyph glyph-name="abreve" unicode="&#x103;" horiz-adv-x="562" 
d="M127.5 8c-25 12 -44.834 29.5029 -59.501 52.5029s-22 49.5 -22 79.5c0 49.333 19.5 88.666 58.5 117.999s96.167 44 171.5 44h121v8c0 44 -10.833 75.667 -32.5 95s-55.5 29 -101.5 29c-25.333 0 -47.833 -2 -67.5 -6s-41.5 -10 -65.5 -18
c-5.33301 -1.33301 -9.66602 -2 -12.999 -2c-10 0 -18.667 3.66699 -26 11s-11 16.333 -11 27c0 18 8.66699 30.667 26 38c56.667 24 114.334 36 173.001 36c46 0 84.833 -9.33301 116.5 -28s55 -42.834 70 -72.501s22.5 -61.834 22.5 -96.501v-283
c0 -12.667 -4.5 -23.334 -13.5 -32.001s-19.833 -13 -32.5 -13s-23.334 4.33301 -32.001 13s-13 19.334 -13 32.001v26c-49.333 -50.667 -112 -76 -188 -76c-29.333 0 -56.5 6 -81.5 18zM327.999 91.5029c27.333 14.333 50.334 32.167 69.001 53.5v84h-109
c-100.667 0 -151 -26.333 -151 -79c0 -24 8.16699 -43.333 24.5 -58s43.5 -22 81.5 -22c29.333 0 57.666 7.16699 84.999 21.5zM193.5 597.504c-25 14.333 -43.167 34.166 -54.5 59.499c-2 4 -3 8.66699 -3 14c0 8.66699 2.83301 16 8.5 22s13.167 9 22.5 9
c12.667 0 22 -6.33301 28 -19c7.33301 -15.333 18.333 -27.333 33 -36s31.667 -13 51 -13s36.333 4.33301 51 13s25.667 20.667 33 36c6 12.667 15.333 19 28 19c9.33301 0 16.833 -3 22.5 -9s8.5 -13.333 8.5 -22c0 -5.33301 -1 -10 -3 -14
c-11.333 -25.333 -29.5 -45.166 -54.5 -59.499s-53.5 -21.5 -85.5 -21.5s-60.5 7.16699 -85.5 21.5z" />
    <glyph glyph-name="Aogonek" unicode="&#x104;" horiz-adv-x="746" 
d="M527.5 -180c-18.333 15.333 -27.501 35.6621 -27.501 60.9951s9 49.833 27 73.5s46 44.167 84 61.5l-68 163h-340l-65 -156c-4 -8.66699 -9.83301 -15.5 -17.5 -20.5s-16.167 -7.5 -25.5 -7.5c-13.333 0 -24.166 4.33301 -32.499 13s-12.5 19.334 -12.5 32.001
c0 5.33301 1.66699 12 5 20l255 602c5.33301 12 12.833 21.833 22.5 29.5s21.5 11.5 35.5 11.5h10c14 0 25.833 -3.83301 35.5 -11.5s17.167 -17.5 22.5 -29.5l255 -602c3.33301 -8 5 -14.667 5 -20c0 -9.33301 -2.33301 -17.666 -7 -24.999s-10.667 -12.666 -18 -15.999
c-26 -11.333 -48.833 -25.166 -68.5 -41.499s-29.5 -35.166 -29.5 -56.499c0 -32 17 -48 51 -48c10 0 21.667 2 35 6c4 1.33301 7 2 9 2c6.66699 0 12 -2 16 -6s6 -9.33301 6 -16s-3.66699 -12.667 -11 -18c-22.667 -16 -51.334 -24 -86.001 -24
c-25.333 0 -47.166 7.66699 -65.499 23zM237.999 261.996h270l-135 325z" />
    <glyph glyph-name="aogonek" unicode="&#x105;" horiz-adv-x="554" 
d="M309.5 -180c-18.333 15.333 -27.502 35.6699 -27.502 61.0029c0 52 35.667 96.667 107 134v51c-49.333 -50.667 -112 -76 -188 -76c-29.333 0 -56.5 6 -81.5 18s-44.833 29.5 -59.5 52.5s-22 49.5 -22 79.5c0 49.333 19.5 88.666 58.5 117.999s96.167 44 171.5 44h121v8
c0 44 -10.833 75.667 -32.5 95s-55.5 29 -101.5 29c-25.333 0 -47.833 -2 -67.5 -6s-41.5 -10 -65.5 -18c-5.33301 -1.33301 -9.66602 -2 -12.999 -2c-10 0 -18.667 3.66699 -26 11s-11 16.333 -11 27c0 18 8.66699 30.667 26 38c56.667 24 114.334 36 173.001 36
c46 0 84.833 -9.33301 116.5 -28s55 -42.834 70 -72.501s22.5 -61.834 22.5 -96.501v-283c0 -10 -3 -18.833 -9 -26.5s-14.333 -13.5 -25 -17.5c-28.667 -11.333 -51 -25.833 -67 -43.5s-24 -35.167 -24 -52.5c0 -31.333 17 -47 51 -47c10 0 21.667 2 35 6
c4 1.33301 7 2 9 2c6.66699 0 12 -2 16 -6s6 -9.33301 6 -16s-3.66699 -12.667 -11 -18c-22.667 -16 -51.334 -24 -86.001 -24c-25.333 0 -47.166 7.66699 -65.499 23zM319.998 91.5039c27.333 14.333 50.334 32.167 69.001 53.5v84h-109c-100.667 0 -151 -26.333 -151 -79
c0 -24 8.16699 -43.333 24.5 -58s43.5 -22 81.5 -22c29.333 0 57.666 7.16699 84.999 21.5z" />
    <glyph glyph-name="Cacute" unicode="&#x106;" horiz-adv-x="695" 
d="M225.5 33.5c-53 29 -94.667 70.667 -125 125s-45.5 117.833 -45.5 190.5s15.167 136.167 45.5 190.5s72 96 125 125s112.833 43.5 179.5 43.5c45.333 0 85.833 -5.33301 121.5 -16s71.167 -26 106.5 -46c14.667 -8 22 -20.667 22 -38c0 -10 -3.66699 -18.833 -11 -26.5
s-17 -11.5 -29 -11.5c-6.66699 0 -12.667 1.33301 -18 4c-29.333 15.333 -58 27 -86 35s-60.333 12 -97 12c-57.333 0 -106.166 -11.833 -146.499 -35.5s-70.666 -56 -90.999 -97s-30.5 -87.5 -30.5 -139.5s10.167 -98.5 30.5 -139.5s50.666 -73.333 90.999 -97
s89.166 -35.5 146.499 -35.5c36.667 0 69 4 97 12s56.667 19.667 86 35c5.33301 2.66699 11.333 4 18 4c12 0 21.667 -3.66699 29 -11s11 -16.333 11 -27c0 -17.333 -7.33301 -30 -22 -38c-35.333 -20 -70.833 -35.333 -106.5 -46s-76.167 -16 -121.5 -16
c-66.667 0 -126.5 14.5 -179.5 43.5zM375.5 746.5c-5 5 -7.5 11.499 -7.5 19.499c0 6 2.33301 12.333 7 19l51 90c6.66699 12.667 17.667 19 33 19c10.667 0 19.5 -3.33301 26.5 -10s10.5 -15.667 10.5 -27c0 -9.33301 -3.33301 -17.666 -10 -24.999l-69 -82
c-6 -7.33301 -13.333 -11 -22 -11c-8 0 -14.5 2.5 -19.5 7.5z" />
    <glyph glyph-name="cacute" unicode="&#x107;" horiz-adv-x="533" 
d="M182 22c-40.667 21.333 -73.167 52.002 -97.5 92.002s-36.5 87 -36.5 141s12.167 101 36.5 141s56.833 70.667 97.5 92s85 32 133 32c35.333 0 65.833 -4.5 91.5 -13.5s49.5 -20.5 71.5 -34.5c13.333 -8.66699 20 -20.334 20 -35.001c0 -10 -3.83301 -19.167 -11.5 -27.5
s-16.5 -12.5 -26.5 -12.5c-7.33301 0 -14.666 2 -21.999 6c-22 11.333 -40.833 19.5 -56.5 24.5s-35.167 7.5 -58.5 7.5c-57.333 0 -102.333 -16.5 -135 -49.5s-49 -76.5 -49 -130.5s16.333 -97.5 49 -130.5s77.667 -49.5 135 -49.5c23.333 0 42.833 2.5 58.5 7.5
s34.5 13.167 56.5 24.5c7.33301 4 14.666 6 21.999 6c10 0 18.833 -4.16699 26.5 -12.5s11.5 -17.5 11.5 -27.5c0 -14.667 -6.66699 -26.334 -20 -35.001c-22 -14 -45.833 -25.5 -71.5 -34.5s-56.167 -13.5 -91.5 -13.5c-48 0 -92.333 10.667 -133 32zM278.5 574.502
c-5 5 -7.5 11.499 -7.5 19.499c0 6 2.33301 12.333 7 19l51 90c6.66699 12.667 17.667 19 33 19c10.667 0 19.5 -3.33301 26.5 -10s10.5 -15.667 10.5 -27c0 -9.33301 -3.33301 -17.666 -10 -24.999l-69 -82c-6 -7.33301 -13.333 -11 -22 -11c-8 0 -14.5 2.5 -19.5 7.5z" />
    <glyph glyph-name="Ccircumflex" unicode="&#x108;" horiz-adv-x="695" 
d="M225.5 33.5c-53 29 -94.667 70.667 -125 125s-45.5 117.833 -45.5 190.5s15.167 136.167 45.5 190.5s72 96 125 125s112.833 43.5 179.5 43.5c45.333 0 85.833 -5.33301 121.5 -16s71.167 -26 106.5 -46c14.667 -8 22 -20.667 22 -38c0 -10 -3.66699 -18.833 -11 -26.5
s-17 -11.5 -29 -11.5c-6.66699 0 -12.667 1.33301 -18 4c-29.333 15.333 -58 27 -86 35s-60.333 12 -97 12c-57.333 0 -106.166 -11.833 -146.499 -35.5s-70.666 -56 -90.999 -97s-30.5 -87.5 -30.5 -139.5s10.167 -98.5 30.5 -139.5s50.666 -73.333 90.999 -97
s89.166 -35.5 146.499 -35.5c36.667 0 69 4 97 12s56.667 19.667 86 35c5.33301 2.66699 11.333 4 18 4c12 0 21.667 -3.66699 29 -11s11 -16.333 11 -27c0 -17.333 -7.33301 -30 -22 -38c-35.333 -20 -70.833 -35.333 -106.5 -46s-76.167 -16 -121.5 -16
c-66.667 0 -126.5 14.5 -179.5 43.5zM268 747.5c-6 6.33301 -8.66699 13.166 -8 20.499c0 7.33301 2.66699 13.666 8 18.999l68 70c6 6.66699 12 11.667 18 15s13.333 5 22 5h38c8.66699 0 16 -1.66699 22 -5s12 -8.33301 18 -15l68 -70
c5.33301 -5.33301 8 -11.666 8 -18.999c0.666992 -7.33301 -2 -14.166 -8 -20.499s-13.333 -9.5 -22 -9.5c-7.33301 0 -13.333 2.33301 -18 7l-87 74l-87 -74c-4.66699 -4.66699 -10.667 -7 -18 -7c-8.66699 0 -16 3.16699 -22 9.5z" />
    <glyph glyph-name="ccircumflex" unicode="&#x109;" horiz-adv-x="533" 
d="M182 22c-40.667 21.333 -73.167 52.002 -97.5 92.002s-36.5 87 -36.5 141s12.167 101 36.5 141s56.833 70.667 97.5 92s85 32 133 32c35.333 0 65.833 -4.5 91.5 -13.5s49.5 -20.5 71.5 -34.5c13.333 -8.66699 20 -20.334 20 -35.001c0 -10 -3.83301 -19.167 -11.5 -27.5
s-16.5 -12.5 -26.5 -12.5c-7.33301 0 -14.666 2 -21.999 6c-22 11.333 -40.833 19.5 -56.5 24.5s-35.167 7.5 -58.5 7.5c-57.333 0 -102.333 -16.5 -135 -49.5s-49 -76.5 -49 -130.5s16.333 -97.5 49 -130.5s77.667 -49.5 135 -49.5c23.333 0 42.833 2.5 58.5 7.5
s34.5 13.167 56.5 24.5c7.33301 4 14.666 6 21.999 6c10 0 18.833 -4.16699 26.5 -12.5s11.5 -17.5 11.5 -27.5c0 -14.667 -6.66699 -26.334 -20 -35.001c-22 -14 -45.833 -25.5 -71.5 -34.5s-56.167 -13.5 -91.5 -13.5c-48 0 -92.333 10.667 -133 32zM171 575.502
c-6 6.33301 -8.66699 13.166 -8 20.499c0 7.33301 2.66699 13.666 8 18.999l68 70c6 6.66699 12 11.667 18 15s13.333 5 22 5h38c8.66699 0 16 -1.66699 22 -5s12 -8.33301 18 -15l68 -70c5.33301 -5.33301 8 -11.666 8 -18.999c0.666992 -7.33301 -2 -14.166 -8 -20.499
s-13.333 -9.5 -22 -9.5c-7.33301 0 -13.333 2.33301 -18 7l-87 74l-87 -74c-4.66699 -4.66699 -10.667 -7 -18 -7c-8.66699 0 -16 3.16699 -22 9.5z" />
    <glyph glyph-name="Cdotaccent" unicode="&#x10a;" horiz-adv-x="695" 
d="M225.5 33.5c-53 29 -94.667 70.667 -125 125s-45.5 117.833 -45.5 190.5s15.167 136.167 45.5 190.5s72 96 125 125s112.833 43.5 179.5 43.5c45.333 0 85.833 -5.33301 121.5 -16s71.167 -26 106.5 -46c14.667 -8 22 -20.667 22 -38c0 -10 -3.66699 -18.833 -11 -26.5
s-17 -11.5 -29 -11.5c-6.66699 0 -12.667 1.33301 -18 4c-29.333 15.333 -58 27 -86 35s-60.333 12 -97 12c-57.333 0 -106.166 -11.833 -146.499 -35.5s-70.666 -56 -90.999 -97s-30.5 -87.5 -30.5 -139.5s10.167 -98.5 30.5 -139.5s50.666 -73.333 90.999 -97
s89.166 -35.5 146.499 -35.5c36.667 0 69 4 97 12s56.667 19.667 86 35c5.33301 2.66699 11.333 4 18 4c12 0 21.667 -3.66699 29 -11s11 -16.333 11 -27c0 -17.333 -7.33301 -30 -22 -38c-35.333 -20 -70.833 -35.333 -106.5 -46s-76.167 -16 -121.5 -16
c-66.667 0 -126.5 14.5 -179.5 43.5zM359 762c-10 10 -15 22 -15 36s5 26 15 36s22 15 36 15s26 -5 36 -15s15 -22 15 -36s-5 -26 -15 -36s-22 -15 -36 -15s-26 5 -36 15z" />
    <glyph glyph-name="cdotaccent" unicode="&#x10b;" horiz-adv-x="533" 
d="M182 22c-40.667 21.333 -73.167 52.002 -97.5 92.002s-36.5 87 -36.5 141s12.167 101 36.5 141s56.833 70.667 97.5 92s85 32 133 32c35.333 0 65.833 -4.5 91.5 -13.5s49.5 -20.5 71.5 -34.5c13.333 -8.66699 20 -20.334 20 -35.001c0 -10 -3.83301 -19.167 -11.5 -27.5
s-16.5 -12.5 -26.5 -12.5c-7.33301 0 -14.666 2 -21.999 6c-22 11.333 -40.833 19.5 -56.5 24.5s-35.167 7.5 -58.5 7.5c-57.333 0 -102.333 -16.5 -135 -49.5s-49 -76.5 -49 -130.5s16.333 -97.5 49 -130.5s77.667 -49.5 135 -49.5c23.333 0 42.833 2.5 58.5 7.5
s34.5 13.167 56.5 24.5c7.33301 4 14.666 6 21.999 6c10 0 18.833 -4.16699 26.5 -12.5s11.5 -17.5 11.5 -27.5c0 -14.667 -6.66699 -26.334 -20 -35.001c-22 -14 -45.833 -25.5 -71.5 -34.5s-56.167 -13.5 -91.5 -13.5c-48 0 -92.333 10.667 -133 32zM262 590.002
c-10 10 -15 22 -15 36s5 26 15 36s22 15 36 15s26 -5 36 -15s15 -22 15 -36s-5 -26 -15 -36s-22 -15 -36 -15s-26 5 -36 15z" />
    <glyph glyph-name="Ccaron" unicode="&#x10c;" horiz-adv-x="695" 
d="M225.5 33.5c-53 29 -94.667 70.667 -125 125s-45.5 117.833 -45.5 190.5s15.167 136.167 45.5 190.5s72 96 125 125s112.833 43.5 179.5 43.5c45.333 0 85.833 -5.33301 121.5 -16s71.167 -26 106.5 -46c14.667 -8 22 -20.667 22 -38c0 -10 -3.66699 -18.833 -11 -26.5
s-17 -11.5 -29 -11.5c-6.66699 0 -12.667 1.33301 -18 4c-29.333 15.333 -58 27 -86 35s-60.333 12 -97 12c-57.333 0 -106.166 -11.833 -146.499 -35.5s-70.666 -56 -90.999 -97s-30.5 -87.5 -30.5 -139.5s10.167 -98.5 30.5 -139.5s50.666 -73.333 90.999 -97
s89.166 -35.5 146.499 -35.5c36.667 0 69 4 97 12s56.667 19.667 86 35c5.33301 2.66699 11.333 4 18 4c12 0 21.667 -3.66699 29 -11s11 -16.333 11 -27c0 -17.333 -7.33301 -30 -22 -38c-35.333 -20 -70.833 -35.333 -106.5 -46s-76.167 -16 -121.5 -16
c-66.667 0 -126.5 14.5 -179.5 43.5zM354 744c-6 3.33301 -12 8.33301 -18 15l-68 70c-5.33301 5.33301 -8 11.666 -8 18.999c-0.666992 7.33301 2 14.166 8 20.499s13.333 9.5 22 9.5c7.33301 0 13.333 -2.33301 18 -7l87 -74l87 74c4.66699 4.66699 10.667 7 18 7
c8.66699 0 16 -3.16699 22 -9.5s8.66699 -13.166 8 -20.499c0 -7.33301 -2.66699 -13.666 -8 -18.999l-68 -70c-6 -6.66699 -12 -11.667 -18 -15s-13.333 -5 -22 -5h-38c-8.66699 0 -16 1.66699 -22 5z" />
    <glyph glyph-name="ccaron" unicode="&#x10d;" horiz-adv-x="533" 
d="M182 22c-40.667 21.333 -73.167 52.002 -97.5 92.002s-36.5 87 -36.5 141s12.167 101 36.5 141s56.833 70.667 97.5 92s85 32 133 32c35.333 0 65.833 -4.5 91.5 -13.5s49.5 -20.5 71.5 -34.5c13.333 -8.66699 20 -20.334 20 -35.001c0 -10 -3.83301 -19.167 -11.5 -27.5
s-16.5 -12.5 -26.5 -12.5c-7.33301 0 -14.666 2 -21.999 6c-22 11.333 -40.833 19.5 -56.5 24.5s-35.167 7.5 -58.5 7.5c-57.333 0 -102.333 -16.5 -135 -49.5s-49 -76.5 -49 -130.5s16.333 -97.5 49 -130.5s77.667 -49.5 135 -49.5c23.333 0 42.833 2.5 58.5 7.5
s34.5 13.167 56.5 24.5c7.33301 4 14.666 6 21.999 6c10 0 18.833 -4.16699 26.5 -12.5s11.5 -17.5 11.5 -27.5c0 -14.667 -6.66699 -26.334 -20 -35.001c-22 -14 -45.833 -25.5 -71.5 -34.5s-56.167 -13.5 -91.5 -13.5c-48 0 -92.333 10.667 -133 32zM257 572.002
c-6 3.33301 -12 8.33301 -18 15l-68 70c-5.33301 5.33301 -8 11.666 -8 18.999c-0.666992 7.33301 2 14.166 8 20.499s13.333 9.5 22 9.5c7.33301 0 13.333 -2.33301 18 -7l87 -74l87 74c4.66699 4.66699 10.667 7 18 7c8.66699 0 16 -3.16699 22 -9.5
s8.66699 -13.166 8 -20.499c0 -7.33301 -2.66699 -13.666 -8 -18.999l-68 -70c-6 -6.66699 -12 -11.667 -18 -15s-13.333 -5 -22 -5h-38c-8.66699 0 -16 1.66699 -22 5z" />
    <glyph glyph-name="Dcaron" unicode="&#x10e;" horiz-adv-x="751" 
d="M110 13c-8.66699 8.66699 -13 19.333 -13 32v607c0 12.667 4.33301 23.5 13 32.5s19.334 13.5 32.001 13.5h201c76 0 140.5 -16.833 193.5 -50.5s92.833 -77.167 119.5 -130.5s40 -109.333 40 -168s-13.333 -114.667 -40 -168s-66.5 -96.833 -119.5 -130.5
s-117.5 -50.5 -193.5 -50.5h-201c-12.667 -0 -23.334 4.33301 -32.001 13zM332 84.999c54.667 0 102.667 11.167 144 33.5s73.333 53.333 96 93s34 85.5 34 137.5s-11.333 97.833 -34 137.5s-54.667 70.667 -96 93s-89.333 33.5 -144 33.5h-144v-528h144zM334 743.999
c-6 3.33301 -12 8.33301 -18 15l-68 70c-5.33301 5.33301 -8 11.666 -8 18.999c-0.666992 7.33301 2 14.166 8 20.499s13.333 9.5 22 9.5c7.33301 0 13.333 -2.33301 18 -7l87 -74l87 74c4.66699 4.66699 10.667 7 18 7c8.66699 0 16 -3.16699 22 -9.5
s8.66699 -13.166 8 -20.499c0 -7.33301 -2.66699 -13.666 -8 -18.999l-68 -70c-6 -6.66699 -12 -11.667 -18 -15s-13.333 -5 -22 -5h-38c-8.66699 0 -16 1.66699 -22 5z" />
    <glyph glyph-name="dcaron" unicode="&#x10f;" horiz-adv-x="631" 
d="M172.5 21.5c-37 21 -67 51.667 -90 92s-34.5 87.5 -34.5 141.5s11.5 101.167 34.5 141.5s53 71 90 92s76.167 31.5 117.5 31.5c65.333 0 122.333 -25.333 171 -76v245c0 13.333 4.5 24.333 13.5 33s19.833 13 32.5 13s23.334 -4.5 32.001 -13.5s13 -19.833 13 -32.5v-649
c0 -12.667 -4.33301 -23.334 -13 -32.001s-19.334 -13 -32.001 -13s-23.5 4.33301 -32.5 13s-13.5 19.334 -13.5 32.001v26c-48.667 -50.667 -105.667 -76 -171 -76c-41.333 0 -80.5 10.5 -117.5 31.5zM389.5 95.5c27 13.667 50.833 31.8301 71.5 54.4971v210
c-20.667 22.667 -44.5 40.834 -71.5 54.501s-55.833 20.5 -86.5 20.5c-49.333 0 -89 -15.667 -119 -47s-45 -75.666 -45 -132.999s15 -101.666 45 -132.999s69.667 -47 119 -47c30.667 0 59.5 6.83301 86.5 20.5zM588 559.996c-4 4 -6.00098 9.33301 -6.00098 16
s4.33301 13 13 19c10.667 8 18.834 15.333 24.501 22s8.5 15.334 8.5 26.001c-13.333 0 -24.333 4.16699 -33 12.5s-13 18.833 -13 31.5c0 13.333 4.5 24.666 13.5 33.999s20.167 14 33.5 14c14 0 25.167 -4.66699 33.5 -14s12.5 -21 12.5 -35v-31
c0 -20.667 -4.66699 -38 -14 -52s-24 -28.333 -44 -43c-4 -4 -9.33301 -6 -16 -6c-4.66699 0 -9 2 -13 6z" />
    <glyph glyph-name="Dcroat" unicode="&#x110;" horiz-adv-x="756" 
d="M115 13c-8.66699 8.66699 -13 19.334 -13 32.001v270h-54c-9.33301 0 -17.166 3.16699 -23.499 9.5s-9.5 14.166 -9.5 23.499s3.16699 17.333 9.5 24s14.166 10 23.499 10h54v270c0 12.667 4.33301 23.5 13 32.5s19.334 13.5 32.001 13.5h201
c76 0 140.5 -16.833 193.5 -50.5s92.833 -77.167 119.5 -130.5s40 -109.333 40 -168s-13.333 -114.667 -40 -168s-66.5 -96.833 -119.5 -130.5s-117.5 -50.5 -193.5 -50.5h-201c-12.667 -0 -23.334 4.33301 -32.001 13zM337 85c54.667 0 102.667 11.166 144 33.499
s73.333 53.333 96 93s34 85.5 34 137.5s-11.333 97.833 -34 137.5s-54.667 70.667 -96 93s-89.333 33.5 -144 33.5h-144v-231h117c9.33301 0 17.333 -3.33301 24 -10s10 -14.667 10 -24s-3.33301 -17.166 -10 -23.499s-14.667 -9.5 -24 -9.5h-117v-230h144z" />
    <glyph glyph-name="dcroat" unicode="&#x111;" horiz-adv-x="636" 
d="M172.5 21.5c-37 21 -67 51.667 -90 92s-34.5 87.5 -34.5 141.5s11.5 101.167 34.5 141.5s53 71 90 92s76.167 31.5 117.5 31.5c65.333 0 122.333 -25.333 171 -76v129h-116c-9.33301 0 -17.333 3.16699 -24 9.5s-10 14.166 -10 23.499s3.33301 17.333 10 24
s14.667 10 24 10h116v49c0 13.333 4.5 24.333 13.5 33s19.833 13 32.5 13s23.334 -4.5 32.001 -13.5s13 -19.833 13 -32.5v-49h47c9.33301 0 17.166 -3.33301 23.499 -10s9.5 -14.667 9.5 -24s-3.16699 -17.166 -9.5 -23.499s-14.166 -9.5 -23.499 -9.5h-47v-533
c0 -12.667 -4.33301 -23.334 -13 -32.001s-19.334 -13 -32.001 -13s-23.5 4.33301 -32.5 13s-13.5 19.334 -13.5 32.001v26c-48.667 -50.667 -105.667 -76 -171 -76c-41.333 0 -80.5 10.5 -117.5 31.5zM389.5 95.5c27 13.667 50.833 31.8301 71.5 54.4971v210
c-20.667 22.667 -44.5 40.834 -71.5 54.501s-55.833 20.5 -86.5 20.5c-49.333 0 -89 -15.667 -119 -47s-45 -75.666 -45 -132.999s15 -101.666 45 -132.999s69.667 -47 119 -47c30.667 0 59.5 6.83301 86.5 20.5z" />
    <glyph glyph-name="Emacron" unicode="&#x112;" horiz-adv-x="638" 
d="M110 13c-8.66699 8.66699 -13 19.333 -13 32v607c0 12.667 4.33301 23.5 13 32.5s19.334 13.5 32.001 13.5h401c12 0 22.167 -4.16699 30.5 -12.5s12.5 -18.5 12.5 -30.5s-4.16699 -22 -12.5 -30s-18.5 -12 -30.5 -12h-355v-221h319c12 0 22.167 -4.16699 30.5 -12.5
s12.5 -18.5 12.5 -30.5s-4.16699 -22 -12.5 -30s-18.5 -12 -30.5 -12h-319v-222h355c12 0 22.167 -4.16699 30.5 -12.5s12.5 -18.5 12.5 -30.5s-4.16699 -22 -12.5 -30s-18.5 -12 -30.5 -12h-401c-12.667 -0 -23.334 4.33301 -32.001 13zM203.5 768.499
c-5.66699 5.66699 -8.5 12.834 -8.5 21.501s2.83301 15.834 8.5 21.501s12.834 8.5 21.501 8.5h234c8.66699 0 15.834 -2.83301 21.501 -8.5s8.5 -12.834 8.5 -21.501s-2.83301 -15.834 -8.5 -21.501s-12.834 -8.5 -21.501 -8.5h-234
c-8.66699 0 -15.834 2.83301 -21.501 8.5z" />
    <glyph glyph-name="emacron" unicode="&#x113;" horiz-adv-x="566" 
d="M116.5 59.5c-45.667 46.333 -68.499 111.499 -68.499 195.499c0 47.333 8.66699 91 26 131s44 72.333 80 97s80.333 37 133 37c49.333 0 92 -11.5 128 -34.5s63.333 -53.667 82 -92s28 -80.166 28 -125.499c0 -12.667 -4.16699 -23.334 -12.5 -32.001
s-19.5 -13 -33.5 -13h-339c5.33301 -46.667 22.666 -83 51.999 -109s70.333 -39 123 -39c28 0 52.5 2.66699 73.5 8s41.5 13 61.5 23c5.33301 2.66699 11.333 4 18 4c10.667 0 20 -3.66699 28 -11s12 -16.666 12 -27.999c0 -14.667 -8.66699 -27 -26 -37
c-26 -14.667 -51.667 -25.667 -77 -33s-58 -11 -98 -11c-81.333 0 -144.833 23.167 -190.5 69.5zM435.001 296.999c-2 32.667 -10.5 60 -25.5 82s-33.5 38.167 -55.5 48.5s-44.333 15.5 -67 15.5s-45 -5.16699 -67 -15.5s-40.333 -26.5 -55 -48.5s-23 -49.333 -25 -82h295z
M146.501 596.499c-5.66699 5.66699 -8.5 12.834 -8.5 21.501s2.83301 15.834 8.5 21.501s12.834 8.5 21.501 8.5h234c8.66699 0 15.834 -2.83301 21.501 -8.5s8.5 -12.834 8.5 -21.501s-2.83301 -15.834 -8.5 -21.501s-12.834 -8.5 -21.501 -8.5h-234
c-8.66699 0 -15.834 2.83301 -21.501 8.5z" />
    <glyph glyph-name="Ebreve" unicode="&#x114;" horiz-adv-x="638" 
d="M110 13c-8.66699 8.66699 -13 19.333 -13 32v607c0 12.667 4.33301 23.5 13 32.5s19.334 13.5 32.001 13.5h401c12 0 22.167 -4.16699 30.5 -12.5s12.5 -18.5 12.5 -30.5s-4.16699 -22 -12.5 -30s-18.5 -12 -30.5 -12h-355v-221h319c12 0 22.167 -4.16699 30.5 -12.5
s12.5 -18.5 12.5 -30.5s-4.16699 -22 -12.5 -30s-18.5 -12 -30.5 -12h-319v-222h355c12 0 22.167 -4.16699 30.5 -12.5s12.5 -18.5 12.5 -30.5s-4.16699 -22 -12.5 -30s-18.5 -12 -30.5 -12h-401c-12.667 -0 -23.334 4.33301 -32.001 13zM258 769.999
c-24.667 14.667 -43.332 34.334 -55.999 59.001c-2 4 -3 8.66699 -3 14c0 8.66699 2.83301 16 8.5 22s13.167 9 22.5 9c12.667 0 22 -6.33301 28 -19c7.33301 -15.333 18.333 -27.333 33 -36s31.667 -13 51 -13s36.333 4.33301 51 13s25.667 20.667 33 36
c6 12.667 15.333 19 28 19c9.33301 0 16.833 -3 22.5 -9s8.5 -13.333 8.5 -22c0 -5.33301 -1 -10 -3 -14c-12.667 -24.667 -31.334 -44.334 -56.001 -59.001s-52.667 -22 -84 -22s-59.333 7.33301 -84 22z" />
    <glyph glyph-name="ebreve" unicode="&#x115;" horiz-adv-x="566" 
d="M116.5 59.5c-45.667 46.333 -68.499 111.499 -68.499 195.499c0 47.333 8.66699 91 26 131s44 72.333 80 97s80.333 37 133 37c49.333 0 92 -11.5 128 -34.5s63.333 -53.667 82 -92s28 -80.166 28 -125.499c0 -12.667 -4.16699 -23.334 -12.5 -32.001
s-19.5 -13 -33.5 -13h-339c5.33301 -46.667 22.666 -83 51.999 -109s70.333 -39 123 -39c28 0 52.5 2.66699 73.5 8s41.5 13 61.5 23c5.33301 2.66699 11.333 4 18 4c10.667 0 20 -3.66699 28 -11s12 -16.666 12 -27.999c0 -14.667 -8.66699 -27 -26 -37
c-26 -14.667 -51.667 -25.667 -77 -33s-58 -11 -98 -11c-81.333 0 -144.833 23.167 -190.5 69.5zM435.001 296.999c-2 32.667 -10.5 60 -25.5 82s-33.5 38.167 -55.5 48.5s-44.333 15.5 -67 15.5s-45 -5.16699 -67 -15.5s-40.333 -26.5 -55 -48.5s-23 -49.333 -25 -82h295z
M199.501 597.499c-25 14.333 -43.167 34.166 -54.5 59.499c-2 4 -3 8.66699 -3 14c0 8.66699 2.83301 16 8.5 22s13.167 9 22.5 9c12.667 0 22 -6.33301 28 -19c7.33301 -15.333 18.333 -27.333 33 -36s31.667 -13 51 -13s36.333 4.33301 51 13s25.667 20.667 33 36
c6 12.667 15.333 19 28 19c9.33301 0 16.833 -3 22.5 -9s8.5 -13.333 8.5 -22c0 -5.33301 -1 -10 -3 -14c-11.333 -25.333 -29.5 -45.166 -54.5 -59.499s-53.5 -21.5 -85.5 -21.5s-60.5 7.16699 -85.5 21.5z" />
    <glyph glyph-name="Edotaccent" unicode="&#x116;" horiz-adv-x="638" 
d="M110 13c-8.66699 8.66699 -13 19.333 -13 32v607c0 12.667 4.33301 23.5 13 32.5s19.334 13.5 32.001 13.5h401c12 0 22.167 -4.16699 30.5 -12.5s12.5 -18.5 12.5 -30.5s-4.16699 -22 -12.5 -30s-18.5 -12 -30.5 -12h-355v-221h319c12 0 22.167 -4.16699 30.5 -12.5
s12.5 -18.5 12.5 -30.5s-4.16699 -22 -12.5 -30s-18.5 -12 -30.5 -12h-319v-222h355c12 0 22.167 -4.16699 30.5 -12.5s12.5 -18.5 12.5 -30.5s-4.16699 -22 -12.5 -30s-18.5 -12 -30.5 -12h-401c-12.667 -0 -23.334 4.33301 -32.001 13zM306 761.999c-10 10 -15 22 -15 36
s5 26 15 36s22 15 36 15s26 -5 36 -15s15 -22 15 -36s-5 -26 -15 -36s-22 -15 -36 -15s-26 5 -36 15z" />
    <glyph glyph-name="edotaccent" unicode="&#x117;" horiz-adv-x="566" 
d="M116.5 59.5c-45.667 46.333 -68.499 111.499 -68.499 195.499c0 47.333 8.66699 91 26 131s44 72.333 80 97s80.333 37 133 37c49.333 0 92 -11.5 128 -34.5s63.333 -53.667 82 -92s28 -80.166 28 -125.499c0 -12.667 -4.16699 -23.334 -12.5 -32.001
s-19.5 -13 -33.5 -13h-339c5.33301 -46.667 22.666 -83 51.999 -109s70.333 -39 123 -39c28 0 52.5 2.66699 73.5 8s41.5 13 61.5 23c5.33301 2.66699 11.333 4 18 4c10.667 0 20 -3.66699 28 -11s12 -16.666 12 -27.999c0 -14.667 -8.66699 -27 -26 -37
c-26 -14.667 -51.667 -25.667 -77 -33s-58 -11 -98 -11c-81.333 0 -144.833 23.167 -190.5 69.5zM435.001 296.999c-2 32.667 -10.5 60 -25.5 82s-33.5 38.167 -55.5 48.5s-44.333 15.5 -67 15.5s-45 -5.16699 -67 -15.5s-40.333 -26.5 -55 -48.5s-23 -49.333 -25 -82h295z
M249.001 589.999c-10 10 -15 22 -15 36s5 26 15 36s22 15 36 15s26 -5 36 -15s15 -22 15 -36s-5 -26 -15 -36s-22 -15 -36 -15s-26 5 -36 15z" />
    <glyph glyph-name="Eogonek" unicode="&#x118;" horiz-adv-x="638" 
d="M413.5 -180c-18.333 15.333 -27.501 35.665 -27.501 60.998c0 46.667 28.333 86.334 85 119.001h-329c-12.667 0 -23.334 4.33301 -32.001 13s-13 19.334 -13 32.001v607c0 12.667 4.33301 23.5 13 32.5s19.334 13.5 32.001 13.5h401c12 0 22.167 -4.16699 30.5 -12.5
s12.5 -18.5 12.5 -30.5s-4.16699 -22 -12.5 -30s-18.5 -12 -30.5 -12h-355v-221h319c12 0 22.167 -4.16699 30.5 -12.5s12.5 -18.5 12.5 -30.5s-4.16699 -22 -12.5 -30s-18.5 -12 -30.5 -12h-319v-222h355c12 0 22.167 -4.16699 30.5 -12.5s12.5 -18.5 12.5 -30.5
c0 -18.667 -9.33301 -32 -28 -40c-23.333 -9.33301 -45.666 -23 -66.999 -41s-32 -38 -32 -60c0 -32 17 -48 51 -48c10 0 21.667 2 35 6c4 1.33301 7 2 9 2c6.66699 0 12 -2 16 -6s6 -9.33301 6 -16s-3.66699 -12.667 -11 -18c-22.667 -16 -51.334 -24 -86.001 -24
c-25.333 0 -47.166 7.66699 -65.499 23z" />
    <glyph glyph-name="eogonek" unicode="&#x119;" horiz-adv-x="566" 
d="M309.5 -180c-18.333 15.333 -27.498 35.667 -27.498 61c0 42.667 23 79 69 109h-44c-81.333 0 -144.833 23.167 -190.5 69.5s-68.5 111.5 -68.5 195.5c0 47.333 8.66699 91 26 131s44 72.333 80 97s80.333 37 133 37c49.333 0 92 -11.5 128 -34.5s63.333 -53.667 82 -92
s28 -80.166 28 -125.499c0 -12.667 -4.16699 -23.334 -12.5 -32.001s-19.5 -13 -33.5 -13h-339c5.33301 -46.667 22.666 -83 51.999 -109s70.333 -39 123 -39c28 0 52.5 2.66699 73.5 8s41.5 13 61.5 23c5.33301 2.66699 11.333 4 18 4c10.667 0 20 -3.66699 28 -11
s12 -16.666 12 -27.999c0 -14 -10 -27.333 -30 -40c-40.667 -26.667 -71.334 -49.834 -92.001 -69.501s-31 -40.167 -31 -61.5c0 -31.333 17 -47 51 -47c10 0 21.667 2 35 6c4 1.33301 7 2 9 2c6.66699 0 12 -2 16 -6s6 -9.33301 6 -16s-3.66699 -12.667 -11 -18
c-22.667 -16 -51.334 -24 -86.001 -24c-25.333 0 -47.166 7.66699 -65.499 23zM435.002 297.001c-2 32.667 -10.5 60 -25.5 82s-33.5 38.167 -55.5 48.5s-44.333 15.5 -67 15.5s-45 -5.16699 -67 -15.5s-40.333 -26.5 -55 -48.5s-23 -49.333 -25 -82h295z" />
    <glyph glyph-name="Ecaron" unicode="&#x11a;" horiz-adv-x="638" 
d="M110 13c-8.66699 8.66699 -13 19.333 -13 32v607c0 12.667 4.33301 23.5 13 32.5s19.334 13.5 32.001 13.5h401c12 0 22.167 -4.16699 30.5 -12.5s12.5 -18.5 12.5 -30.5s-4.16699 -22 -12.5 -30s-18.5 -12 -30.5 -12h-355v-221h319c12 0 22.167 -4.16699 30.5 -12.5
s12.5 -18.5 12.5 -30.5s-4.16699 -22 -12.5 -30s-18.5 -12 -30.5 -12h-319v-222h355c12 0 22.167 -4.16699 30.5 -12.5s12.5 -18.5 12.5 -30.5s-4.16699 -22 -12.5 -30s-18.5 -12 -30.5 -12h-401c-12.667 -0 -23.334 4.33301 -32.001 13zM301 743.999
c-6 3.33301 -12 8.33301 -18 15l-68 70c-5.33301 5.33301 -8 11.666 -8 18.999c-0.666992 7.33301 2 14.166 8 20.499s13.333 9.5 22 9.5c7.33301 0 13.333 -2.33301 18 -7l87 -74l87 74c4.66699 4.66699 10.667 7 18 7c8.66699 0 16 -3.16699 22 -9.5
s8.66699 -13.166 8 -20.499c0 -7.33301 -2.66699 -13.666 -8 -18.999l-68 -70c-6 -6.66699 -12 -11.667 -18 -15s-13.333 -5 -22 -5h-38c-8.66699 0 -16 1.66699 -22 5z" />
    <glyph glyph-name="ecaron" unicode="&#x11b;" horiz-adv-x="566" 
d="M116.5 59.5c-45.667 46.333 -68.499 111.499 -68.499 195.499c0 47.333 8.66699 91 26 131s44 72.333 80 97s80.333 37 133 37c49.333 0 92 -11.5 128 -34.5s63.333 -53.667 82 -92s28 -80.166 28 -125.499c0 -12.667 -4.16699 -23.334 -12.5 -32.001
s-19.5 -13 -33.5 -13h-339c5.33301 -46.667 22.666 -83 51.999 -109s70.333 -39 123 -39c28 0 52.5 2.66699 73.5 8s41.5 13 61.5 23c5.33301 2.66699 11.333 4 18 4c10.667 0 20 -3.66699 28 -11s12 -16.666 12 -27.999c0 -14.667 -8.66699 -27 -26 -37
c-26 -14.667 -51.667 -25.667 -77 -33s-58 -11 -98 -11c-81.333 0 -144.833 23.167 -190.5 69.5zM435.001 296.999c-2 32.667 -10.5 60 -25.5 82s-33.5 38.167 -55.5 48.5s-44.333 15.5 -67 15.5s-45 -5.16699 -67 -15.5s-40.333 -26.5 -55 -48.5s-23 -49.333 -25 -82h295z
M244.001 571.999c-6 3.33301 -12 8.33301 -18 15l-68 70c-5.33301 5.33301 -8 11.666 -8 18.999c-0.666992 7.33301 2 14.166 8 20.499s13.333 9.5 22 9.5c7.33301 0 13.333 -2.33301 18 -7l87 -74l87 74c4.66699 4.66699 10.667 7 18 7c8.66699 0 16 -3.16699 22 -9.5
s8.66699 -13.166 8 -20.499c0 -7.33301 -2.66699 -13.666 -8 -18.999l-68 -70c-6 -6.66699 -12 -11.667 -18 -15s-13.333 -5 -22 -5h-38c-8.66699 0 -16 1.66699 -22 5z" />
    <glyph glyph-name="Gcircumflex" unicode="&#x11c;" horiz-adv-x="757" 
d="M223 35.5c-53.333 30.333 -94.665 72.668 -123.998 127.001s-44 116.166 -44 185.499c0 70.667 15.333 133.334 46 188.001s72.5 97 125.5 127s111.833 45 176.5 45c52 0 97.5 -6.33301 136.5 -19s76.5 -30.334 112.5 -53.001c5.33301 -2.66699 10 -7.33398 14 -14.001
s6 -14 6 -22c0 -11.333 -3.83301 -21 -11.5 -29s-17.834 -12 -30.501 -12c-7.33301 0 -14.333 1.66699 -21 5c-31.333 18.667 -62.666 32.667 -93.999 42s-65.333 14 -102 14c-50.667 0 -96.334 -10.667 -137.001 -32s-72.5 -52.5 -95.5 -93.5s-34.5 -89.833 -34.5 -146.5
c0 -52 10.833 -98.5 32.5 -139.5s53 -73.333 94 -97s89.5 -35.5 145.5 -35.5c62.667 0 121 14.667 175 44v181h-165c-11.333 0 -21 4 -29 12s-12 17.667 -12 29s4 21 12 29s17.667 12 29 12h197c13.333 0 24.666 -4.66699 33.999 -14s14 -20.666 14 -33.999v-227
c0 -14 -3.5 -26.5 -10.5 -37.5s-16.167 -19.167 -27.5 -24.5c-74.667 -37.333 -151 -56 -229 -56c-68.667 0 -129.667 15.167 -183 45.5zM279.001 747.502c-6 6.33301 -8.66699 13.166 -8 20.499c0 7.33301 2.66699 13.666 8 18.999l68 70c6 6.66699 12 11.667 18 15
s13.333 5 22 5h38c8.66699 0 16 -1.66699 22 -5s12 -8.33301 18 -15l68 -70c5.33301 -5.33301 8 -11.666 8 -18.999c0.666992 -7.33301 -2 -14.166 -8 -20.499s-13.333 -9.5 -22 -9.5c-7.33301 0 -13.333 2.33301 -18 7l-87 74l-87 -74c-4.66699 -4.66699 -10.667 -7 -18 -7
c-8.66699 0 -16 3.16699 -22 9.5z" />
    <glyph glyph-name="gcircumflex" unicode="&#x11d;" horiz-adv-x="631" 
d="M200 -225c-39.333 10 -71.668 22.333 -97.001 37c-12 7.33301 -18 19 -18 35c0 10.667 3.83301 20.167 11.5 28.5s17.167 12.5 28.5 12.5c5.33301 0 11.333 -1.33301 18 -4c50.667 -25.333 105.667 -38 165 -38c102 0 153 54.333 153 163v67
c-47.333 -50.667 -104.333 -76 -171 -76c-39.333 -0 -77.5 9.83301 -114.5 29.5s-67.5 49 -91.5 88s-36 86.5 -36 142.5s12 103.5 36 142.5s54.5 68.333 91.5 88s75.167 29.5 114.5 29.5c66.667 0 123.667 -25.333 171 -76v25c0 12.667 4.33301 23.5 13 32.5
s19.334 13.5 32.001 13.5s23.5 -4.5 32.5 -13.5s13.5 -19.833 13.5 -32.5v-447c0 -84 -20.333 -148.667 -61 -194s-98.667 -68 -174 -68c-38.667 0 -77.667 5 -117 15zM391.998 103c24 13.333 47 31.3311 69 53.998v206c-22 22.667 -45 40.667 -69 54s-51.667 20 -83 20
c-50 0 -90.833 -15.167 -122.5 -45.5s-47.5 -74.166 -47.5 -131.499s15.833 -101.166 47.5 -131.499s72.5 -45.5 122.5 -45.5c31.333 0 59 6.66699 83 20zM188.998 575.498c-6 6.33301 -8.66699 13.166 -8 20.499c0 7.33301 2.66699 13.666 8 18.999l68 70
c6 6.66699 12 11.667 18 15s13.333 5 22 5h38c8.66699 0 16 -1.66699 22 -5s12 -8.33301 18 -15l68 -70c5.33301 -5.33301 8 -11.666 8 -18.999c0.666992 -7.33301 -2 -14.166 -8 -20.499s-13.333 -9.5 -22 -9.5c-7.33301 0 -13.333 2.33301 -18 7l-87 74l-87 -74
c-4.66699 -4.66699 -10.667 -7 -18 -7c-8.66699 0 -16 3.16699 -22 9.5z" />
    <glyph glyph-name="Gbreve" unicode="&#x11e;" horiz-adv-x="757" 
d="M223 35.5c-53.333 30.333 -94.665 72.668 -123.998 127.001s-44 116.166 -44 185.499c0 70.667 15.333 133.334 46 188.001s72.5 97 125.5 127s111.833 45 176.5 45c52 0 97.5 -6.33301 136.5 -19s76.5 -30.334 112.5 -53.001c5.33301 -2.66699 10 -7.33398 14 -14.001
s6 -14 6 -22c0 -11.333 -3.83301 -21 -11.5 -29s-17.834 -12 -30.501 -12c-7.33301 0 -14.333 1.66699 -21 5c-31.333 18.667 -62.666 32.667 -93.999 42s-65.333 14 -102 14c-50.667 0 -96.334 -10.667 -137.001 -32s-72.5 -52.5 -95.5 -93.5s-34.5 -89.833 -34.5 -146.5
c0 -52 10.833 -98.5 32.5 -139.5s53 -73.333 94 -97s89.5 -35.5 145.5 -35.5c62.667 0 121 14.667 175 44v181h-165c-11.333 0 -21 4 -29 12s-12 17.667 -12 29s4 21 12 29s17.667 12 29 12h197c13.333 0 24.666 -4.66699 33.999 -14s14 -20.666 14 -33.999v-227
c0 -14 -3.5 -26.5 -10.5 -37.5s-16.167 -19.167 -27.5 -24.5c-74.667 -37.333 -151 -56 -229 -56c-68.667 0 -129.667 15.167 -183 45.5zM322.001 770.002c-24.667 14.667 -43.332 34.334 -55.999 59.001c-2 4 -3 8.66699 -3 14c0 8.66699 2.83301 16 8.5 22
s13.167 9 22.5 9c12.667 0 22 -6.33301 28 -19c7.33301 -15.333 18.333 -27.333 33 -36s31.667 -13 51 -13s36.333 4.33301 51 13s25.667 20.667 33 36c6 12.667 15.333 19 28 19c9.33301 0 16.833 -3 22.5 -9s8.5 -13.333 8.5 -22c0 -5.33301 -1 -10 -3 -14
c-12.667 -24.667 -31.334 -44.334 -56.001 -59.001s-52.667 -22 -84 -22s-59.333 7.33301 -84 22z" />
    <glyph glyph-name="gbreve" unicode="&#x11f;" horiz-adv-x="631" 
d="M200 -225c-39.333 10 -71.668 22.333 -97.001 37c-12 7.33301 -18 19 -18 35c0 10.667 3.83301 20.167 11.5 28.5s17.167 12.5 28.5 12.5c5.33301 0 11.333 -1.33301 18 -4c50.667 -25.333 105.667 -38 165 -38c102 0 153 54.333 153 163v67
c-47.333 -50.667 -104.333 -76 -171 -76c-39.333 -0 -77.5 9.83301 -114.5 29.5s-67.5 49 -91.5 88s-36 86.5 -36 142.5s12 103.5 36 142.5s54.5 68.333 91.5 88s75.167 29.5 114.5 29.5c66.667 0 123.667 -25.333 171 -76v25c0 12.667 4.33301 23.5 13 32.5
s19.334 13.5 32.001 13.5s23.5 -4.5 32.5 -13.5s13.5 -19.833 13.5 -32.5v-447c0 -84 -20.333 -148.667 -61 -194s-98.667 -68 -174 -68c-38.667 0 -77.667 5 -117 15zM391.998 103c24 13.333 47 31.3311 69 53.998v206c-22 22.667 -45 40.667 -69 54s-51.667 20 -83 20
c-50 0 -90.833 -15.167 -122.5 -45.5s-47.5 -74.166 -47.5 -131.499s15.833 -101.166 47.5 -131.499s72.5 -45.5 122.5 -45.5c31.333 0 59 6.66699 83 20zM230.498 597.498c-25 14.333 -43.167 34.166 -54.5 59.499c-2 4 -3 8.66699 -3 14c0 8.66699 2.83301 16 8.5 22
s13.167 9 22.5 9c12.667 0 22 -6.33301 28 -19c7.33301 -15.333 18.333 -27.333 33 -36s31.667 -13 51 -13s36.333 4.33301 51 13s25.667 20.667 33 36c6 12.667 15.333 19 28 19c9.33301 0 16.833 -3 22.5 -9s8.5 -13.333 8.5 -22c0 -5.33301 -1 -10 -3 -14
c-11.333 -25.333 -29.5 -45.166 -54.5 -59.499s-53.5 -21.5 -85.5 -21.5s-60.5 7.16699 -85.5 21.5z" />
    <glyph glyph-name="Gdotaccent" unicode="&#x120;" horiz-adv-x="757" 
d="M223 35.5c-53.333 30.333 -94.665 72.668 -123.998 127.001s-44 116.166 -44 185.499c0 70.667 15.333 133.334 46 188.001s72.5 97 125.5 127s111.833 45 176.5 45c52 0 97.5 -6.33301 136.5 -19s76.5 -30.334 112.5 -53.001c5.33301 -2.66699 10 -7.33398 14 -14.001
s6 -14 6 -22c0 -11.333 -3.83301 -21 -11.5 -29s-17.834 -12 -30.501 -12c-7.33301 0 -14.333 1.66699 -21 5c-31.333 18.667 -62.666 32.667 -93.999 42s-65.333 14 -102 14c-50.667 0 -96.334 -10.667 -137.001 -32s-72.5 -52.5 -95.5 -93.5s-34.5 -89.833 -34.5 -146.5
c0 -52 10.833 -98.5 32.5 -139.5s53 -73.333 94 -97s89.5 -35.5 145.5 -35.5c62.667 0 121 14.667 175 44v181h-165c-11.333 0 -21 4 -29 12s-12 17.667 -12 29s4 21 12 29s17.667 12 29 12h197c13.333 0 24.666 -4.66699 33.999 -14s14 -20.666 14 -33.999v-227
c0 -14 -3.5 -26.5 -10.5 -37.5s-16.167 -19.167 -27.5 -24.5c-74.667 -37.333 -151 -56 -229 -56c-68.667 0 -129.667 15.167 -183 45.5zM370.001 762.002c-10 10 -15 22 -15 36s5 26 15 36s22 15 36 15s26 -5 36 -15s15 -22 15 -36s-5 -26 -15 -36s-22 -15 -36 -15
s-26 5 -36 15z" />
    <glyph glyph-name="gdotaccent" unicode="&#x121;" horiz-adv-x="631" 
d="M200 -225c-39.333 10 -71.668 22.333 -97.001 37c-12 7.33301 -18 19 -18 35c0 10.667 3.83301 20.167 11.5 28.5s17.167 12.5 28.5 12.5c5.33301 0 11.333 -1.33301 18 -4c50.667 -25.333 105.667 -38 165 -38c102 0 153 54.333 153 163v67
c-47.333 -50.667 -104.333 -76 -171 -76c-39.333 -0 -77.5 9.83301 -114.5 29.5s-67.5 49 -91.5 88s-36 86.5 -36 142.5s12 103.5 36 142.5s54.5 68.333 91.5 88s75.167 29.5 114.5 29.5c66.667 0 123.667 -25.333 171 -76v25c0 12.667 4.33301 23.5 13 32.5
s19.334 13.5 32.001 13.5s23.5 -4.5 32.5 -13.5s13.5 -19.833 13.5 -32.5v-447c0 -84 -20.333 -148.667 -61 -194s-98.667 -68 -174 -68c-38.667 0 -77.667 5 -117 15zM391.998 103c24 13.333 47 31.3311 69 53.998v206c-22 22.667 -45 40.667 -69 54s-51.667 20 -83 20
c-50 0 -90.833 -15.167 -122.5 -45.5s-47.5 -74.166 -47.5 -131.499s15.833 -101.166 47.5 -131.499s72.5 -45.5 122.5 -45.5c31.333 0 59 6.66699 83 20zM279.998 589.998c-10 10 -15 22 -15 36s5 26 15 36s22 15 36 15s26 -5 36 -15s15 -22 15 -36s-5 -26 -15 -36
s-22 -15 -36 -15s-26 5 -36 15z" />
    <glyph glyph-name="Gcommaaccent" unicode="&#x122;" horiz-adv-x="757" 
d="M223 35.5c-53.333 30.333 -94.665 72.668 -123.998 127.001s-44 116.166 -44 185.499c0 70.667 15.333 133.334 46 188.001s72.5 97 125.5 127s111.833 45 176.5 45c52 0 97.5 -6.33301 136.5 -19s76.5 -30.334 112.5 -53.001c5.33301 -2.66699 10 -7.33398 14 -14.001
s6 -14 6 -22c0 -11.333 -3.83301 -21 -11.5 -29s-17.834 -12 -30.501 -12c-7.33301 0 -14.333 1.66699 -21 5c-31.333 18.667 -62.666 32.667 -93.999 42s-65.333 14 -102 14c-50.667 0 -96.334 -10.667 -137.001 -32s-72.5 -52.5 -95.5 -93.5s-34.5 -89.833 -34.5 -146.5
c0 -52 10.833 -98.5 32.5 -139.5s53 -73.333 94 -97s89.5 -35.5 145.5 -35.5c62.667 0 121 14.667 175 44v181h-165c-11.333 0 -21 4 -29 12s-12 17.667 -12 29s4 21 12 29s17.667 12 29 12h197c13.333 0 24.666 -4.66699 33.999 -14s14 -20.666 14 -33.999v-227
c0 -14 -3.5 -26.5 -10.5 -37.5s-16.167 -19.167 -27.5 -24.5c-74.667 -37.333 -151 -56 -229 -56c-68.667 0 -129.667 15.167 -183 45.5zM360.501 -256.498c-4.33301 4.33301 -6.50098 9.83301 -6.50098 16.5c0 8.66699 4 15.667 12 21c14 8.66699 24.667 17.167 32 25.5
s11 18.5 11 30.5c-14.667 0 -26.5 4.5 -35.5 13.5s-13.5 20.5 -13.5 34.5s4.83301 26 14.5 36s21.5 15 35.5 15c14.667 0 26.667 -5 36 -15s14 -22.667 14 -38v-33c0 -26 -6.33301 -47.5 -19 -64.5s-29 -31.5 -49 -43.5c-5.33301 -3.33301 -10.666 -5 -15.999 -5
c-6 0 -11.167 2.16699 -15.5 6.5z" />
    <glyph glyph-name="gcommaaccent" unicode="&#x123;" horiz-adv-x="631" 
d="M200 -225c-39.333 10 -71.668 22.333 -97.001 37c-12 7.33301 -18 19 -18 35c0 10.667 3.83301 20.167 11.5 28.5s17.167 12.5 28.5 12.5c5.33301 0 11.333 -1.33301 18 -4c50.667 -25.333 105.667 -38 165 -38c102 0 153 54.333 153 163v67
c-47.333 -50.667 -104.333 -76 -171 -76c-39.333 -0 -77.5 9.83301 -114.5 29.5s-67.5 49 -91.5 88s-36 86.5 -36 142.5s12 103.5 36 142.5s54.5 68.333 91.5 88s75.167 29.5 114.5 29.5c66.667 0 123.667 -25.333 171 -76v25c0 12.667 4.33301 23.5 13 32.5
s19.334 13.5 32.001 13.5s23.5 -4.5 32.5 -13.5s13.5 -19.833 13.5 -32.5v-447c0 -84 -20.333 -148.667 -61 -194s-98.667 -68 -174 -68c-38.667 0 -77.667 5 -117 15zM391.998 103c24 13.333 47 31.3311 69 53.998v206c-22 22.667 -45 40.667 -69 54s-51.667 20 -83 20
c-50 0 -90.833 -15.167 -122.5 -45.5s-47.5 -74.166 -47.5 -131.499s15.833 -101.166 47.5 -131.499s72.5 -45.5 122.5 -45.5c31.333 0 59 6.66699 83 20zM277.998 589.998c-9.33301 10 -13.999 22.667 -13.999 38v33c0 26 6.33301 47.5 19 64.5s29 31.5 49 43.5
c5.33301 3.33301 10.666 5 15.999 5c6 0 11.167 -2.16699 15.5 -6.5s6.5 -9.83301 6.5 -16.5c0 -8.66699 -4 -15.667 -12 -21c-14 -8.66699 -24.667 -17.167 -32 -25.5s-11 -18.5 -11 -30.5c14.667 0 26.5 -4.5 35.5 -13.5s13.5 -20.5 13.5 -34.5s-4.83301 -26 -14.5 -36
s-21.5 -15 -35.5 -15c-14.667 0 -26.667 5 -36 15z" />
    </font>
</defs>
</svg>
