<?xml version="1.0" standalone="no"?>
<!DOCTYPE svg PUBLIC "-//W3C//DTD SVG 1.1//EN" "http://www.w3.org/Graphics/SVG/1.1/DTD/svg11.dtd" >
<svg xmlns="http://www.w3.org/2000/svg" xmlns:xlink="http://www.w3.org/1999/xlink" version="1.1">
<metadata>
Created by FontForge 20170910 at Mon Sep 17 22:12:44 2012
 By Jimmy Wärting
Copyright (c) 2012 by Nir Yenni &#38; Amos Jerbi. All rights reserved.
</metadata>
<defs>
<font id="CarmelitRegular" horiz-adv-x="922" >
  <font-face 
    font-family="Carmelit Regular"
    font-weight="400"
    font-stretch="normal"
    units-per-em="2048"
    panose-1="0 0 0 0 0 0 0 0 0 0"
    ascent="1638"
    descent="-410"
    bbox="-464 -740 1775 1601"
    underline-thickness="49"
    underline-position="-225"
    unicode-range="U+000D-FB4B"
  />
<missing-glyph horiz-adv-x="748" 
d="M68 0v1365h544v-1365h-544zM136 68h408v1229h-408v-1229z" />
    <glyph glyph-name=".notdef" horiz-adv-x="748" 
d="M68 0v1365h544v-1365h-544zM136 68h408v1229h-408v-1229z" />
    <glyph glyph-name="glyph1" horiz-adv-x="2048" 
 />
    <glyph glyph-name="glyph1" horiz-adv-x="2048" 
 />
    <glyph glyph-name="uni000D" unicode="&#xd;" horiz-adv-x="2048" 
 />
    <glyph glyph-name="space" unicode=" " horiz-adv-x="430" 
 />
    <glyph glyph-name="exclam" unicode="!" horiz-adv-x="466" 
d="M115 83q0 49 34.5 84t84.5 35t84.5 -35t34.5 -84t-34.5 -84t-84.5 -35t-84.5 35t-34.5 84zM150 351v743h166v-743h-166z" />
    <glyph glyph-name="quotedbl" unicode="&#x22;" horiz-adv-x="618" 
d="M95 932v493h150v-493h-150zM373 932v493h150v-493h-150z" />
    <glyph glyph-name="numbersign" unicode="#" horiz-adv-x="1306" 
d="M124 286v150h213l57 254h-270v150h304l57 254h154l-57 -254h259l57 254h154l-57 -254h181v-150h-215l-57 -254h272v-150h-306l-64 -286h-154l64 286h-259l-64 -286h-154l64 286h-179zM491 436h259l57 254h-259z" />
    <glyph glyph-name="dollar" unicode="$" horiz-adv-x="1146" 
d="M71 104l74 124q52 -52 136.5 -74.5t159.5 -22.5q85 0 155.5 52t70.5 135q0 27 -17 51t-39.5 39.5t-58 30.5t-57.5 22t-54 16q-38 11 -66 20.5t-74 27.5t-78.5 41t-64.5 53.5t-49 72.5t-17 90q0 129 79 213t195 106v219h150v-219q126 -9 277 -97l-74 -124q-138 83 -278 83
q-84 0 -144 -48.5t-60 -132.5q0 -104 204 -160q37 -10 57.5 -16.5t65 -22.5t72.5 -30.5t65 -40t58.5 -52t37 -63.5t15.5 -79q0 -129 -88 -217t-210 -110v-219h-150v219q-76 9 -157 38t-136 75z" />
    <glyph glyph-name="percent" unicode="%" horiz-adv-x="1431" 
d="M140 814q0 53 10.5 102t33 93.5t64 71.5t97.5 27q77 0 213 -38.5t198 -38.5q59 0 121 16.5t88 60.5l126 -80l-659 -1042l-126 80l545 862q-38 -19 -96 -19q-57 0 -132.5 23t-91.5 25q19 -57 19 -143q0 -52 -11 -101t-33.5 -93t-64.5 -71t-98 -27q-55 0 -96.5 26.5
t-63.5 71t-32.5 93.5t-10.5 101zM275 814q0 -62 16.5 -109.5t51.5 -47.5q37 0 54.5 47.5t17.5 109.5q0 28 -4 54.5t-11.5 50.5t-21.5 39t-33 15q-36 0 -53 -48.5t-17 -110.5zM852 278q0 53 10.5 102t33 93.5t64 71.5t97.5 27t97.5 -27t64 -71.5t33 -93.5t10.5 -102
q0 -52 -11 -101t-33.5 -93t-64.5 -71t-98 -27q-55 0 -96.5 26.5t-63.5 71t-32.5 93.5t-10.5 101zM987 278q0 -62 16.5 -109.5t51.5 -47.5q37 0 54.5 47.5t17.5 109.5q0 28 -4 54.5t-11.5 50.5t-21.5 39t-33 15q-36 0 -53 -48.5t-17 -110.5z" />
    <glyph glyph-name="ampersand" unicode="&#x26;" horiz-adv-x="1373" 
d="M79 301q0 64 40.5 143.5t81 129.5t77.5 86q-87 65 -87 161q0 92 76.5 162t193.5 70t193.5 -70t76.5 -162q0 -95 -82 -193q93 -65 174 -167l135 145l102 -90l-136 -172l7.5 -10t22 -22.5t37 -30.5t50.5 -28.5t65 -21t79 -3.5t92 19l-57 -95q-75 -16 -134 -13t-103 19.5
t-72.5 35.5t-42.5 34l-15 15q-60 -91 -82 -117q-95 -111 -256 -127q-30 -3 -64 -3q-86 0 -152.5 18t-107 47t-66.5 69.5t-36 82t-10 88.5zM223 301q0 -32 11.5 -60.5t37.5 -54.5t74.5 -41t114.5 -15q128 0 203 61t75 130q0 33 -16 65t-38 56t-58.5 49t-65.5 40.5t-71 33.5
t-62.5 25.5t-52.5 18.5q-40 -31 -96 -129.5t-56 -178.5zM307 821q0 -82 234 -152q26 20 50 63t24 89q0 47 -44 81.5t-110 34.5t-110 -34.5t-44 -81.5z" />
    <glyph glyph-name="quotesingle" unicode="'" horiz-adv-x="310" 
d="M80 929v496h150v-496h-150z" />
    <glyph glyph-name="parenleft" unicode="(" horiz-adv-x="598" 
d="M120 551q0 326 121 631q55 137 121 239l116 -84q-58 -90 -107 -214q-107 -277 -107 -572t107 -572q49 -123 107 -215l-116 -84q-66 103 -121 240q-121 305 -121 631z" />
    <glyph glyph-name="parenright" unicode=")" horiz-adv-x="598" 
d="M120 -236q61 98 107 215q107 275 107 572t-107 572q-47 118 -107 214l116 84q70 -108 121 -239q121 -309 121 -631t-121 -631q-51 -131 -121 -240z" />
    <glyph glyph-name="asterisk" unicode="*" horiz-adv-x="874" 
d="M61 1121l42 134l231 -76v242h140v-241l227 75l44 -134l-228 -75l142 -194l-114 -82l-142 194l-141 -194l-114 82l141 194zM360 1084q0 -18 12.5 -30.5t30.5 -12.5t30.5 12.5t12.5 30.5q0 17 -12.5 30t-30.5 13t-30.5 -13t-12.5 -30z" />
    <glyph glyph-name="plus" unicode="+" 
d="M114 500v150h272v272h150v-272h272v-150h-272v-272h-150v272h-272z" />
    <glyph glyph-name="comma" unicode="," horiz-adv-x="394" 
d="M40 -320q31 81 68.5 238t37.5 248h166q0 -95 -52.5 -254t-97.5 -232h-122z" />
    <glyph glyph-name="hyphen" unicode="-" horiz-adv-x="923" 
d="M174 500v150h575v-150h-575z" />
    <glyph glyph-name="period" unicode="." horiz-adv-x="458" 
d="M110 83q0 49 35 84t84 35t84 -35t35 -84t-35 -84t-84 -35t-84 35t-35 84z" />
    <glyph glyph-name="slash" unicode="/" horiz-adv-x="843" 
d="M154 -286l396 1707l146 -34l-396 -1707z" />
    <glyph glyph-name="zero" unicode="0" 
d="M69 547q0 79 11.5 154.5t40.5 150.5t72.5 131t112.5 90.5t155 34.5t155 -34.5t112.5 -90.5t72.5 -131t40.5 -150.5t11.5 -154.5t-12 -154.5t-41 -150.5t-73 -131t-113 -90.5t-155 -34.5t-154.5 34.5t-111.5 90.5t-72 131t-40.5 150.5t-11.5 154.5zM214 547
q0 -76 12 -144.5t38 -132t76 -101.5t119 -38t119.5 38t77.5 101.5t39.5 132.5t12.5 144t-12 144t-38.5 132.5t-77 101.5t-119.5 38t-119.5 -38t-77 -101.5t-38.5 -132.5t-12 -144z" />
    <glyph glyph-name="one" unicode="1" 
d="M217 897l295 197h132v-1094h-150v908l-197 -131z" />
    <glyph glyph-name="two" unicode="2" 
d="M111 992q51 35 102 58q128 58 244 58q152 0 251.5 -87.5t99.5 -240.5q0 -202 -302 -355q-54 -28 -88 -48t-73.5 -49t-59 -60t-19.5 -65q0 -31 7 -53h537v-150h-663q-33 113 -33 203q0 56 24.5 106t72 93t102 78t129.5 73q222 114 222 227q0 86 -59 135t-148 49
q-93 0 -183 -44q-46 -22 -77 -44z" />
    <glyph glyph-name="three" unicode="3" 
d="M76 103l82 118q36 -27 79 -46q100 -45 209 -45q103 0 169 46.5t66 136.5q0 45 -18 85.5t-46 68t-53 45t-46 25.5q-69 -21 -141 -30l-22 132q4 1 37.5 7.5t51 11.5t52 15t55 22t43 28t33.5 38.5t11 48.5q0 63 -55 108.5t-146 45.5q-92 0 -178 -35q-37 -14 -69 -35l-68 128
q40 24 89 43q115 43 226 43q157 0 251 -87.5t94 -210.5q0 -134 -129 -215q172 -103 172 -282q0 -161 -106.5 -244t-272.5 -83q-136 0 -266 58q-56 25 -104 59z" />
    <glyph glyph-name="four" unicode="4" 
d="M104 414q0 38 11 77t24 67.5t40 66.5t44 58t52 59t47 54l256 298h150v-716h144v-150h-144v-228h-150v228h-437q-37 92 -37 186zM245 414q0 -20 6 -36h327v498l-160 -182q-103 -118 -136 -174q-37 -62 -37 -106z" />
    <glyph glyph-name="five" unicode="5" 
d="M84 66l66 128q40 -19 84 -32q106 -32 216 -32q114 0 178 61t64 157q0 31 -11 63t-35 63.5t-71 51.5t-110 20h-334l50 548h615v-150h-482q-15 -169 -24 -253h175q84 0 151 -23.5t107 -60t67 -84t37 -90.5t10 -85q0 -159 -102 -260.5t-285 -101.5q-133 0 -263 40
q-59 18 -103 40z" />
    <glyph glyph-name="six" unicode="6" 
d="M75 366q0 50 2 92.5t10 103t21.5 110.5t39 107.5t59.5 103t86 89t116.5 72.5t152 46.5t191.5 17.5v-144q-400 0 -499 -325q94 107 239 107q151 0 252.5 -111.5t101.5 -268.5q0 -160 -107 -270t-279 -110t-279 110t-107 270zM219 366q0 -100 67 -168t175 -68t175 68
t67 168t-67 168t-175 68t-175 -68t-67 -168z" />
    <glyph glyph-name="seven" unicode="7" 
d="M123 944v150h684q8 -22 15 -52q16 -70 16 -157q0 -94 -55 -199t-158 -251q-156 -222 -160 -435h-150q4 141 53 265t139 254q60 86 93 136.5t63 117t30 112.5q0 32 -6 59h-564z" />
    <glyph glyph-name="eight" unicode="8" 
d="M79 301q0 170 153 316q-108 81 -108 201q0 116 95 203t242 87t242 -87t95 -203q0 -126 -108 -247q153 -99 153 -270q0 -47 -11 -89.5t-38.5 -84.5t-69.5 -72.5t-109.5 -49.5t-153.5 -19t-153.5 19t-109.5 49.5t-69.5 72.5t-38.5 84.5t-11 89.5zM223 301q0 -32 11.5 -60.5
t37.5 -54.5t74.5 -41t114.5 -15t114.5 15t74.5 41t37.5 54.5t11.5 60.5q0 33 -11.5 62t-36 51.5t-48.5 39.5t-62.5 33t-63 25.5t-66 22.5t-57.5 19q-48 -37 -89.5 -104.5t-41.5 -148.5zM268 818q0 -103 293 -189q32 25 62.5 78.5t30.5 110.5q0 59 -55.5 102.5t-137.5 43.5
t-137.5 -43.5t-55.5 -102.5z" />
    <glyph glyph-name="nine" unicode="9" 
d="M75 728q0 160 107 270t279 110t279 -110t107 -270q0 -50 -2 -92.5t-10 -103t-21.5 -110.5t-39 -107.5t-59.5 -103t-86 -89t-116.5 -72.5t-152 -46.5t-191.5 -17.5v144q397 0 499 324q-94 -106 -239 -106q-151 0 -252.5 111.5t-101.5 268.5zM219 728q0 -100 67 -168
t175 -68t175 68t67 168t-67 168t-175 68t-175 -68t-67 -168z" />
    <glyph glyph-name="colon" unicode=":" horiz-adv-x="458" 
d="M110 263q0 49 35 84t84 35t84 -35t35 -84t-35 -84t-84 -35t-84 35t-35 84zM110 878q0 50 35 84.5t84 34.5t84 -34.5t35 -84.5t-35 -84.5t-84 -34.5t-84 34.5t-35 84.5z" />
    <glyph glyph-name="semicolon" unicode=";" horiz-adv-x="386" 
d="M34 -140q31 81 68.5 238t37.5 248h166q0 -95 -52.5 -254t-97.5 -232h-122zM104 878q0 50 35 84.5t84 34.5t84 -34.5t35 -84.5t-35 -84.5t-84 -34.5t-84 34.5t-35 84.5z" />
    <glyph glyph-name="less" unicode="&#x3c;" 
d="M93 572l616 532l94 -110l-490 -422l490 -422l-94 -108z" />
    <glyph glyph-name="equal" unicode="=" 
d="M174 334v150h574v-150h-574zM174 666v150h574v-150h-574z" />
    <glyph glyph-name="greater" unicode="&#x3e;" 
d="M119 150l490 422l-490 422l94 110l616 -532l-616 -530z" />
    <glyph glyph-name="question" unicode="?" horiz-adv-x="945" 
d="M106 1007q80 53 177 82t174 29q71 0 133.5 -15.5t115 -48.5t83.5 -90.5t31 -133.5q0 -91 -39.5 -154.5t-114.5 -131.5q-62 -57 -95 -111.5t-33 -82.5h-166q0 26 10 70q11 49 32 84q32 56 138 154q52 47 79 86.5t27 85.5q0 39 -16.5 65.5t-47.5 39t-62.5 17t-74.5 4.5
q-57 0 -129.5 -22.5t-133.5 -62.5zM337 83q0 49 34.5 84t84.5 35t84.5 -35t34.5 -84t-34.5 -84t-84.5 -35t-84.5 35t-34.5 84z" />
    <glyph glyph-name="at" unicode="@" horiz-adv-x="1402" 
d="M170 558q0 99 13 198t39 196.5t69 181.5t97.5 148.5t130.5 101.5t163 37q104 0 185.5 -38.5t130 -97.5t80.5 -138t44 -152t12 -147v-405h98v-150h-243v141q-118 -142 -262 -142q-104 0 -175.5 69t-71.5 202q0 122 90.5 203t252.5 81h166q0 57 -7.5 111.5t-28.5 114
t-54 103t-89 72t-128 28.5q-73 0 -134.5 -44t-103.5 -116.5t-72 -166.5t-43.5 -193t-13.5 -198q0 -100 13.5 -200.5t43.5 -197t72 -170.5t103.5 -119.5t134.5 -45.5q190 0 264 170l124 -62q-115 -253 -388 -253q-87 0 -163 38t-130.5 104t-97.5 151.5t-69 185t-39 200
t-13 199.5zM624 531q15 -95 103 -95q76 0 139.5 54.5t122.5 139.5v67h-163q-101 0 -151.5 -46t-50.5 -120z" />
    <glyph glyph-name="bracketleft" unicode="[" horiz-adv-x="659" 
d="M120 -320v1741h419v-150h-269v-1441h269v-150h-419z" />
    <glyph glyph-name="backslash" unicode="\" horiz-adv-x="843" 
d="M154 1387l146 34l396 -1707l-146 -34z" />
    <glyph glyph-name="bracketright" unicode="]" horiz-adv-x="659" 
d="M120 -170h269v1441h-269v150h419v-1741h-419v150z" />
    <glyph glyph-name="asciicircum" unicode="^" 
d="M118 805l343 616l343 -616l-131 -73l-212 385l-212 -385z" />
    <glyph glyph-name="underscore" unicode="_" horiz-adv-x="924" 
d="M46 -170h832v-150h-832v150z" />
    <glyph glyph-name="grave" unicode="`" horiz-adv-x="310" 
d="M80 929v496h150v-496h-150z" />
    <glyph glyph-name="braceleft" unicode="{" horiz-adv-x="795" 
d="M120 476v150h199q13 290 128 577q48 119 112 218l116 -84q-58 -92 -107 -215q-107 -277 -107 -572t107 -572q49 -124 107 -214l-116 -84q-64 99 -112 218q-115 284 -128 578h-199z" />
    <glyph glyph-name="bar" unicode="|" horiz-adv-x="370" 
d="M110 -320v1741h150v-1741h-150z" />
    <glyph glyph-name="braceright" unicode="}" horiz-adv-x="795" 
d="M120 -236q60 96 107 214q107 275 107 572t-107 572q-46 117 -107 215l116 84q64 -99 112 -218q115 -287 128 -577h199v-150h-199q-13 -294 -128 -578q-48 -119 -112 -218z" />
    <glyph glyph-name="asciitilde" unicode="~" horiz-adv-x="1192" 
d="M50 450q53 97 141 166t188 69q78 0 237 -71q144 -63 197 -63q58 0 113 46.5t90 112.5l126 -68q-53 -97 -141 -166t-188 -69q-37 0 -84.5 12t-80.5 25.5t-89 37.5q-136 59 -180 59q-58 0 -113 -46.5t-90 -112.5z" />
    <glyph glyph-name="uni00A0" unicode="&#xa0;" horiz-adv-x="430" 
 />
    <glyph glyph-name="copyright" unicode="&#xa9;" horiz-adv-x="1716" 
d="M150 545q0 169 40 309.5t108 236.5t159 162.5t192 97t209 30.5t209 -30.5t192 -97t159 -162.5t108 -236.5t40 -309.5t-40 -309.5t-108 -236.5t-159 -162.5t-192 -97t-209 -30.5t-209 30.5t-192 97t-159 162.5t-108 236.5t-40 309.5zM295 545q0 -173 48 -309t129 -217.5
t179.5 -123t206.5 -41.5t206.5 41.5t179.5 123t129 217.5t48 309t-48 309t-129 217.5t-179.5 123t-206.5 41.5t-206.5 -41.5t-179.5 -123t-129 -217.5t-48 -309zM486 545q0 117 31 208.5t82.5 146.5t115 83t133.5 28q123 0 199 -44.5t150 -161.5l-122 -78q-50 78 -100 109
t-127 31q-89 0 -153.5 -82.5t-64.5 -239.5t64.5 -239.5t153.5 -82.5q78 0 127.5 30.5t99.5 109.5l122 -78q-74 -117 -150 -161.5t-199 -44.5q-70 0 -133.5 28t-115.5 82.5t-82.5 146.5t-30.5 209z" />
    <glyph glyph-name="guillemotleft" unicode="&#xab;" horiz-adv-x="1315" 
d="M150 548l420 546h187l-418 -546l422 -548h-189zM554 548l420 546h187l-418 -546l422 -548h-189z" />
    <glyph glyph-name="uni00AD" unicode="&#xad;" horiz-adv-x="923" 
d="M174 500v150h575v-150h-575z" />
    <glyph glyph-name="registered" unicode="&#xae;" horiz-adv-x="1716" 
d="M150 545q0 169 40 309.5t108 236.5t159 162.5t192 97t209 30.5t209 -30.5t192 -97t159 -162.5t108 -236.5t40 -309.5t-40 -309.5t-108 -236.5t-159 -162.5t-192 -97t-209 -30.5t-209 30.5t-192 97t-159 162.5t-108 236.5t-40 309.5zM295 545q0 -173 48 -309t129 -217.5
t179.5 -123t206.5 -41.5t206.5 41.5t179.5 123t129 217.5t48 309t-48 309t-129 217.5t-179.5 123t-206.5 41.5t-206.5 -41.5t-179.5 -123t-129 -217.5t-48 -309zM567 166v834h263q110 0 188.5 -62t78.5 -187q0 -85 -28.5 -130t-102.5 -77q57 -34 94.5 -84.5t52.5 -96
t41.5 -102t61.5 -95.5h-165q-17 28 -42.5 82t-47 93t-52 80.5t-71.5 63.5t-92 22q-17 0 -35 -3v-338h-144zM711 646q54 0 88 2t66.5 8t50 17t27.5 30.5t10 47.5q0 105 -123 105h-119v-210z" />
    <glyph glyph-name="guillemotright" unicode="&#xbb;" horiz-adv-x="1315" 
d="M150 0l422 548l-418 546h187l420 -546l-422 -548h-189zM554 0l422 548l-418 546h187l420 -546l-422 -548h-189z" />
    <glyph glyph-name="circumflex" unicode="&#x2c6;" horiz-adv-x="661" 
d="M95 1001l236 420l235 -420l-131 -73l-104 189l-105 -189z" />
    <glyph glyph-name="tilde" unicode="&#x2dc;" horiz-adv-x="925" 
d="M46 1161q20 36 28 50.5t28 46t32.5 45.5t34.5 36t42 31.5t47 17.5t57 8q43 0 89.5 -21t80.5 -46t73.5 -46t70.5 -21q22 0 39.5 7.5t28.5 15t24 28t17.5 30.5t17 39.5t16.5 38.5l126 -68q-101 -235 -269 -235q-43 0 -89.5 21t-80 46t-73.5 46t-71 21q-38 0 -70.5 -41
t-72.5 -117z" />
    <glyph glyph-name="afii57799" unicode="&#x5b0;" horiz-adv-x="0" 
d="M-88 -154h166v-166h-166v166zM-88 -458h166v-166h-166v166z" />
    <glyph glyph-name="afii57801" unicode="&#x5b1;" horiz-adv-x="0" 
d="M-424 -154h166v-166h-166v166zM-255 -458h166v-166h-166v166zM-86 -154h166v-166h-166v166zM242 -154h166v-166h-166v166zM242 -458h166v-166h-166v166z" />
    <glyph glyph-name="afii57800" unicode="&#x5b2;" horiz-adv-x="0" 
d="M-434 -154h504v-166h-504v166zM232 -154h166v-166h-166v166zM232 -458h166v-166h-166v166z" />
    <glyph glyph-name="afii57802" unicode="&#x5b3;" horiz-adv-x="0" 
d="M-464 -154v-166h169v-304h166v304h169v166h-504zM202 -154h166v-166h-166v166zM202 -458h166v-166h-166v166z" />
    <glyph glyph-name="afii57793" unicode="&#x5b4;" horiz-adv-x="0" 
d="M-88 -404h166v-166h-166v166z" />
    <glyph glyph-name="afii57794" unicode="&#x5b5;" horiz-adv-x="0" 
d="M-255 -404h166v-166h-166v166zM83 -404h166v-166h-166v166z" />
    <glyph glyph-name="afii57795" unicode="&#x5b6;" horiz-adv-x="0" 
d="M-245 -154h166v-166h-166v166zM-76 -458h166v-166h-166v166zM93 -154h166v-166h-166v166z" />
    <glyph glyph-name="afii57798" unicode="&#x5b7;" horiz-adv-x="0" 
d="M-226 -384h504v-166h-504v166z" />
    <glyph glyph-name="afii57797" unicode="&#x5b8;" horiz-adv-x="0" 
d="M-264 -234h504v-166h-169v-304h-166v304h-169v166z" />
    <glyph glyph-name="afii57806" unicode="&#x5b9;" horiz-adv-x="0" 
d="M-78 1435v166h166v-166h-166z" />
    <glyph glyph-name="afii57796" unicode="&#x5bb;" horiz-adv-x="0" 
d="M-284 -154h166v-166h-166v166zM-85 -362h166v-166h-166v166zM124 -574h166v-166h-166v166z" />
    <glyph glyph-name="afii57807" unicode="&#x5bc;" horiz-adv-x="0" 
d="M-87 454v166h166v-166h-166z" />
    <glyph glyph-name="afii57645" unicode="&#x5be;" horiz-adv-x="700" 
d="M74 1080v150h546v-150h-546z" />
    <glyph glyph-name="afii57841" unicode="&#x5bf;" horiz-adv-x="718" 
d="M110 1128v166h498v-166h-498z" />
    <glyph glyph-name="afii57842" unicode="&#x5c0;" horiz-adv-x="540" 
d="M-75 182v1138h150v-1138h-150z" />
    <glyph glyph-name="afii57664" unicode="&#x5d0;" horiz-adv-x="1134" 
d="M107 0v67q0 433 178 649q-51 62 -90 132q-30 53 -55 123t-28 123h167q1 -10 6 -33q12 -46 31 -89.5t38.5 -76.5t51.5 -69t55.5 -59t64.5 -55t64 -48.5t70 -49.5t67 -47q20 25 35.5 50.5t26 45.5t17.5 51t10.5 47t5 55.5t2 55.5t0 67t-0.5 71v84h166v-84q0 -203 -10 -275
q-21 -145 -115 -262q-3 -4 -7 -9q95 -87 144.5 -195t44.5 -262v-7h-166v13q0 16 -2 42q-7 90 -36.5 159t-81.5 120t-102 86.5t-126.5 86t-127.5 92.5q-142 -178 -131 -527l2 -72h-168z" />
    <glyph glyph-name="afii57665" unicode="&#x5d1;" horiz-adv-x="1014" 
d="M97 0v166h544v596q0 69 -48.5 117.5t-117.5 48.5h-378v166h378q138 0 235 -97t97 -235v-596h143v-166h-853z" />
    <glyph glyph-name="afii57666" unicode="&#x5d2;" horiz-adv-x="712" 
d="M43 0q8 103 31.5 185t69 155.5t122 127.5t182.5 84l16 4v206q0 69 -48.5 117.5t-117.5 48.5h-209v166h209q138 0 235 -97t97 -235v-762h-166v383q-68 -24 -116 -62t-76.5 -89.5t-42.5 -107t-20 -124.5h-166z" />
    <glyph glyph-name="afii57667" unicode="&#x5d3;" horiz-adv-x="983" 
d="M67 928v166h833v-166h-144v-928h-166v928h-523z" />
    <glyph glyph-name="afii57668" unicode="&#x5d4;" horiz-adv-x="1096" 
d="M123 0v619h166v-619h-166zM123 928v166h489q138 0 235 -97t97 -235v-762h-166v762q0 69 -48.5 117.5t-117.5 48.5h-489z" />
    <glyph glyph-name="afii57669" unicode="&#x5d5;" horiz-adv-x="591" 
d="M131 928v166h332v-1094h-166v928h-166z" />
    <glyph glyph-name="afii57670" unicode="&#x5d6;" horiz-adv-x="669" 
d="M66 928v166h529v-166q-99 0 -163 -86.5t-64 -223.5v-618h-166v618q0 188 113 310h-249z" />
    <glyph glyph-name="afii57671" unicode="&#x5d7;" horiz-adv-x="1082" 
d="M144 0v1094h525q138 0 235 -97t97 -235v-762h-166v762q0 69 -48.5 117.5t-117.5 48.5h-359v-928h-166z" />
    <glyph glyph-name="afii57672" unicode="&#x5d8;" horiz-adv-x="1160" 
d="M87 0v1094h166v-928h605v497q0 62 -6 109.5t-18 75.5t-24.5 46t-30 25.5t-30 10t-28.5 2.5q-24 0 -45 -10t-33.5 -20t-30.5 -38t-24.5 -40.5t-25.5 -50.5l-140 72q25 59 50 99.5t60 77t82 54.5t107 18q20 0 40.5 -2.5t52 -13t58.5 -27.5t56 -50t49.5 -77t33.5 -112
t13 -151v-661h-937z" />
    <glyph glyph-name="afii57673" unicode="&#x5d9;" horiz-adv-x="520" 
d="M86 928v166h332v-527h-166v361h-166z" />
    <glyph glyph-name="afii57674" unicode="&#x5da;" horiz-adv-x="893" 
d="M58 928v166h415q128 0 218 -90t90 -218v-1106h-166v1106q0 58 -41.5 100t-100.5 42h-415z" />
    <glyph glyph-name="afii57675" unicode="&#x5db;" horiz-adv-x="961" 
d="M94 0v166h609v620q0 58 -41.5 100t-100.5 42h-467v166h467q128 0 218 -90t90 -218v-786h-775z" />
    <glyph glyph-name="afii57676" unicode="&#x5dc;" horiz-adv-x="918" 
d="M80 928v493h166v-327h544q92 -107 92 -275q0 -51 -15 -103t-35 -91t-54.5 -85t-59 -73t-64 -69t-54.5 -59q-73 -84 -108 -159.5t-35 -179.5h-166q0 147 46.5 244t147.5 198q44 44 75.5 79t73 89t64 107.5t22.5 101.5q0 69 -33 109h-607z" />
    <glyph glyph-name="afii57677" unicode="&#x5dd;" horiz-adv-x="1109" 
d="M125 0v1094h535q138 0 235 -97t97 -235v-762h-867zM291 166h535v596q0 69 -48.5 117.5t-117.5 48.5h-369v-762z" />
    <glyph glyph-name="afii57678" unicode="&#x5de;" horiz-adv-x="1142" 
d="M75 928v166h640q128 0 218 -90t90 -218v-786h-448v166h282v620q0 58 -41.5 100t-100.5 42h-347v-63v-784v-81h-166v81v784v63h-127z" />
    <glyph glyph-name="afii57679" unicode="&#x5df;" horiz-adv-x="582" 
d="M134 928v166h324v-1414h-166v1248h-158z" />
    <glyph glyph-name="afii57680" unicode="&#x5e0;" horiz-adv-x="694" 
d="M74 0v166h83h238v762h-212v166h378v-1094h-487z" />
    <glyph glyph-name="afii57681" unicode="&#x5e1;" horiz-adv-x="1098" 
d="M103 555v539h570q332 0 332 -479q0 -104 -13.5 -192.5t-47 -170.5t-86 -139.5t-136.5 -92t-192 -34.5q-427 0 -427 569zM269 555q0 -407 261 -407q169 0 241 118t72 349q0 41 -1.5 70.5t-6.5 69.5t-16.5 67.5t-29.5 53.5t-47.5 39t-68.5 13h-404v-373z" />
    <glyph glyph-name="afii57682" unicode="&#x5e2;" horiz-adv-x="1038" 
d="M100 0v166h313l-302 928h172l288 -908q99 37 142.5 143.5t43.5 285.5v479h161v-479q0 -615 -475 -615h-343z" />
    <glyph glyph-name="afii57683" unicode="&#x5e3;" horiz-adv-x="1108" 
d="M125 684v410h544q128 0 218 -90t90 -218v-1106h-166v1106q0 58 -41.5 100t-100.5 42h-378v-244q0 -9 8.5 -17.5t17.5 -8.5h193v-166h-193q-78 0 -135 57t-57 135z" />
    <glyph glyph-name="afii57684" unicode="&#x5e4;" horiz-adv-x="1100" 
d="M133 0v166h686v620q0 58 -41.5 100t-100.5 42h-378v-244q0 -9 8.5 -17.5t17.5 -8.5h193v-166h-193q-78 0 -135 57t-57 135v410h544q128 0 218 -90t90 -218v-786h-852z" />
    <glyph glyph-name="afii57685" unicode="&#x5e5;" horiz-adv-x="939" 
d="M94 -320v1414h166v-614q198 69 292 158q74 70 100.5 169t26.5 287h166q0 -229 -37.5 -350.5t-143.5 -222.5q-56 -53 -138.5 -97.5t-136.5 -64t-129 -41.5v-638h-166z" />
    <glyph glyph-name="afii57686" unicode="&#x5e6;" horiz-adv-x="1088" 
d="M139 0v166h656v28q0 71 -41.5 131.5t-161.5 126.5q-34 18 -147.5 74t-170.5 88q-69 40 -102 104.5t-33 167.5v208h166v-208q0 -30 5.5 -53.5t23.5 -45.5t34.5 -37t56.5 -37.5t70 -38t95 -47.5t113 -57q20 25 34.5 50.5t24.5 44.5t17 50.5t10.5 47t5 55.5t2 54.5t0 66.5
t-0.5 70v85h163v-85v-35q0 -192 -14 -271q-25 -125 -108 -230q122 -118 122 -279v-194h-820z" />
    <glyph glyph-name="afii57687" unicode="&#x5e7;" horiz-adv-x="1068" 
d="M106 928v166h487q137 0 233 -95t99 -231v-19v-63q1 -69 0 -129t-5.5 -112t-17.5 -100.5t-36 -94.5t-60 -94t-90 -99l-60 -57l-115 119l60 58q92 88 125 162t33 173v149v101q0 69 -48 117.5t-118 48.5h-487zM140 -320h166v997h-166v-997z" />
    <glyph glyph-name="afii57688" unicode="&#x5e8;" horiz-adv-x="961" 
d="M93 928v166h413q138 0 235 -97t97 -235v-762h-166v762q0 69 -48.5 117.5t-117.5 48.5h-413z" />
    <glyph glyph-name="afii57689" unicode="&#x5e9;" horiz-adv-x="1291" 
d="M114 0v1094h166v-928h534q69 0 117.5 48.5t48.5 117.5v762h166v-762q0 -138 -97 -235t-235 -97h-700zM547 433v661h166v-661h-166z" />
    <glyph glyph-name="afii57690" unicode="&#x5ea;" horiz-adv-x="1167" 
d="M80 0v166h189v928h461q138 0 235 -97t97 -235v-762h-166v762q0 69 -48.5 117.5t-117.5 48.5h-295v-928h-355z" />
    <glyph glyph-name="afii57716" unicode="&#x5f0;" horiz-adv-x="1147" 
d="M47 -123q-6 213 47 395t171 299l121 -116q-184 -171 -173 -573l2 -72h-166zM112 1094h167q1 -10 6 -33q20 -80 59.5 -148t89 -118t108 -95.5t118 -86t117.5 -83.5t107.5 -93.5t87 -110.5t57.5 -141t17 -178v-7h-166v13q0 16 -2 42q-7 87 -36 155t-73.5 115t-99 87
t-118 81.5t-123.5 86.5t-123 114t-110 154q-30 53 -55 123t-28 123zM758 731q24 25 42 48t31.5 49.5t23 44.5t15.5 49t9.5 46t4.5 53.5t1.5 54.5t0 64.5t-0.5 68.5v83h166v-83v-21q0 -80 -1 -118t-5.5 -98t-15 -95.5t-29 -83t-49 -89t-72.5 -86.5z" />
    <glyph glyph-name="afii57717" unicode="&#x5f1;" horiz-adv-x="1087" 
d="M118 886q0 -103 33 -167.5t102 -104.5q57 -32 170.5 -88t147.5 -74q120 -66 161.5 -126.5t41.5 -131.5v-28h-634v-166h798v194q0 33 -3.5 61.5t-17.5 68.5t-38 75.5t-68 77.5t-104 80q-54 28 -120.5 61.5t-100.5 50t-75 39.5t-59.5 39t-37 38t-24.5 46t-6 55v208h-166
v-208zM728 731q24 25 42 48t31.5 49.5t23 44.5t15.5 49t9.5 46t4.5 53.5t1.5 54.5t0 64.5t-0.5 68.5v83h166v-83v-21q0 -80 -1 -118t-5.5 -98t-15 -95.5t-29 -83t-49 -89t-72.5 -86.5z" />
    <glyph glyph-name="afii57718" unicode="&#x5f2;" horiz-adv-x="1151" 
d="M106 1128v166h487q138 0 234.5 -97t97.5 -235h-166q0 69 -48 117.5t-118 48.5h-487zM140 -320h166v997h-166v-997zM549 165l115 -119l60 57q39 38 69 72t52 71.5t37 66t25 71t15 70t7.5 79.5t3 82t0.5 95v7.5v7v7.5v82h-166v-256q0 -99 -33 -173t-125 -162z" />
    <glyph glyph-name="uni05F3" unicode="&#x5f3;" horiz-adv-x="310" 
d="M80 929v496h150v-496h-150z" />
    <glyph glyph-name="uni05F4" unicode="&#x5f4;" horiz-adv-x="618" 
d="M95 932v493h150v-493h-150zM373 932v493h150v-493h-150z" />
    <glyph glyph-name="uni2000" unicode="&#x2000;" horiz-adv-x="800" 
 />
    <glyph glyph-name="uni2001" unicode="&#x2001;" horiz-adv-x="1601" 
 />
    <glyph glyph-name="uni2002" unicode="&#x2002;" horiz-adv-x="800" 
 />
    <glyph glyph-name="uni2003" unicode="&#x2003;" horiz-adv-x="1601" 
 />
    <glyph glyph-name="uni2004" unicode="&#x2004;" horiz-adv-x="533" 
 />
    <glyph glyph-name="uni2005" unicode="&#x2005;" horiz-adv-x="400" 
 />
    <glyph glyph-name="uni2006" unicode="&#x2006;" horiz-adv-x="266" 
 />
    <glyph glyph-name="uni2007" unicode="&#x2007;" horiz-adv-x="266" 
 />
    <glyph glyph-name="uni2008" unicode="&#x2008;" horiz-adv-x="200" 
 />
    <glyph glyph-name="uni2009" unicode="&#x2009;" horiz-adv-x="320" 
 />
    <glyph glyph-name="uni200A" unicode="&#x200a;" horiz-adv-x="88" 
 />
    <glyph glyph-name="afii61664" unicode="&#x200c;" horiz-adv-x="540" 
d="M195 -228v1455h150v-1455h-150z" />
    <glyph glyph-name="uni2010" unicode="&#x2010;" horiz-adv-x="923" 
d="M174 500v150h575v-150h-575z" />
    <glyph glyph-name="uni2011" unicode="&#x2011;" horiz-adv-x="923" 
d="M174 500v150h575v-150h-575z" />
    <glyph glyph-name="figuredash" unicode="&#x2012;" horiz-adv-x="923" 
d="M174 500v150h575v-150h-575z" />
    <glyph glyph-name="endash" unicode="&#x2013;" horiz-adv-x="718" 
d="M110 928v166h498v-166h-498z" />
    <glyph glyph-name="emdash" unicode="&#x2014;" horiz-adv-x="1103" 
d="M110 518v166h883v-166h-883z" />
    <glyph glyph-name="quoteleft" unicode="&#x2018;" horiz-adv-x="310" 
d="M80 929v496h150v-496h-150z" />
    <glyph glyph-name="quoteright" unicode="&#x2019;" horiz-adv-x="310" 
d="M80 929v496h150v-496h-150z" />
    <glyph glyph-name="quotesinglbase" unicode="&#x201a;" horiz-adv-x="394" 
d="M40 -320q31 81 68.5 238t37.5 248h166q0 -95 -52.5 -254t-97.5 -232h-122z" />
    <glyph glyph-name="quotedblleft" unicode="&#x201c;" horiz-adv-x="618" 
d="M95 932v493h150v-493h-150zM373 932v493h150v-493h-150z" />
    <glyph glyph-name="quotedblright" unicode="&#x201d;" horiz-adv-x="618" 
d="M95 932v493h150v-493h-150zM373 932v493h150v-493h-150z" />
    <glyph glyph-name="quotedblbase" unicode="&#x201e;" horiz-adv-x="618" 
d="M95 932v493h150v-493h-150zM373 932v493h150v-493h-150z" />
    <glyph glyph-name="bullet" unicode="&#x2022;" horiz-adv-x="561" 
d="M130 598q0 62 43.5 106t105.5 44q61 0 106.5 -43.5t45.5 -106.5t-44 -107.5t-108 -44.5q-63 0 -106 44.5t-43 107.5z" />
    <glyph glyph-name="uni202F" unicode="&#x202f;" horiz-adv-x="320" 
 />
    <glyph glyph-name="perthousand" unicode="&#x2030;" horiz-adv-x="1944" 
d="M140 814q0 53 10.5 102t33 93.5t64 71.5t97.5 27q77 0 213 -38.5t198 -38.5q59 0 121 16.5t88 60.5l126 -80l-659 -1042l-126 80l545 862q-38 -19 -96 -19q-57 0 -132.5 23t-91.5 25q19 -57 19 -143q0 -52 -11 -101t-33.5 -93t-64.5 -71t-98 -27q-55 0 -96.5 26.5
t-63.5 71t-32.5 93.5t-10.5 101zM275 814q0 -62 16.5 -109.5t51.5 -47.5q37 0 54.5 47.5t17.5 109.5q0 28 -4 54.5t-11.5 50.5t-21.5 39t-33 15q-36 0 -53 -48.5t-17 -110.5zM852 278q0 53 10.5 102t33 93.5t64 71.5t97.5 27t97.5 -27t64 -71.5t33 -93.5t10.5 -102
q0 -52 -11 -101t-33.5 -93t-64.5 -71t-98 -27q-55 0 -96.5 26.5t-63.5 71t-32.5 93.5t-10.5 101zM987 278q0 -62 16.5 -109.5t51.5 -47.5q37 0 54.5 47.5t17.5 109.5q0 28 -4 54.5t-11.5 50.5t-21.5 39t-33 15q-36 0 -53 -48.5t-17 -110.5zM1365 278q0 53 10.5 102t33 93.5
t64 71.5t97.5 27t97.5 -27t64 -71.5t33 -93.5t10.5 -102q0 -52 -11 -101t-33.5 -93t-64.5 -71t-98 -27q-55 0 -96.5 26.5t-63.5 71t-32.5 93.5t-10.5 101zM1500 278q0 -62 16.5 -109.5t51.5 -47.5q37 0 54.5 47.5t17.5 109.5q0 28 -4 54.5t-11.5 50.5t-21.5 39t-33 15
q-36 0 -53 -48.5t-17 -110.5z" />
    <glyph glyph-name="fraction" unicode="&#x2044;" horiz-adv-x="1304" 
d="M221 -27l698 1504l164 -78l-701 -1503z" />
    <glyph glyph-name="uni205F" unicode="&#x205f;" horiz-adv-x="400" 
 />
    <glyph glyph-name="Euro" unicode="&#x20ac;" horiz-adv-x="1266" 
d="M130 339v150h107q-2 40 -2 58q0 20 2 68h-107v150h132q15 56 38 104t60 93t84.5 76.5t114 50.5t145.5 19q104 0 182.5 -34t132.5 -90.5t117 -153.5l-122 -78q-72 111 -139 161t-171 50q-208 0 -288 -198h326v-150h-359q-3 -36 -3 -68q0 -18 2 -58h360v-150h-330
q74 -208 292 -208q104 0 171 50t139 161l122 -78q-63 -97 -117 -153.5t-132.5 -90.5t-182.5 -34q-81 0 -148.5 19.5t-115 52t-84.5 79t-59 95.5t-37 107h-130z" />
    <glyph glyph-name="trademark" unicode="&#x2122;" horiz-adv-x="1851" 
d="M150 1277v144h653v-144h-255v-631h-144v631h-254zM903 646v775h174l225 -225l226 225h173v-775h-144v601l-255 -255l-255 255v-601h-144z" />
    <glyph glyph-name="uniE000" unicode="&#xe000;" horiz-adv-x="500" 
d="M0 0z" />
    <glyph glyph-name="uniFB2A" unicode="&#xfb2a;" horiz-adv-x="1291" 
d="M114 0h700q138 0 235 97t97 235v762h-166v-762q0 -69 -48.5 -117.5t-117.5 -48.5h-534v928h-166v-1094zM547 433h166v661h-166v-661zM980 1259v166h166v-166h-166z" />
    <glyph glyph-name="uniFB2B" unicode="&#xfb2b;" horiz-adv-x="1291" 
d="M114 0h700q138 0 235 97t97 235v762h-166v-762q0 -69 -48.5 -117.5t-117.5 -48.5h-534v928h-166v-1094zM114 1259v166h166v-166h-166zM547 433h166v661h-166v-661z" />
    <glyph glyph-name="uniFB2E" unicode="&#xfb2e;" horiz-adv-x="1134" 
d="M107 0v67q0 433 178 649q-51 62 -90 132q-30 53 -55 123t-28 123h167q1 -10 6 -33q12 -46 31 -89.5t38.5 -76.5t51.5 -69t55.5 -59t64.5 -55t64 -48.5t70 -49.5t67 -47q20 25 35.5 50.5t26 45.5t17.5 51t10.5 47t5 55.5t2 55.5t0 67t-0.5 71v84h166v-84q0 -203 -10 -275
q-21 -145 -115 -262q-3 -4 -7 -9q95 -87 144.5 -195t44.5 -262v-7h-166v13q0 16 -2 42q-7 90 -36.5 159t-81.5 120t-102 86.5t-126.5 86t-127.5 92.5q-142 -178 -131 -527l2 -72h-168zM334 -154v-166h504v166h-504z" />
    <glyph glyph-name="uniFB31" unicode="&#xfb31;" horiz-adv-x="1014" 
d="M97 0v166h544v596q0 69 -48.5 117.5t-117.5 48.5h-378v166h378q138 0 235 -97t97 -235v-596h143v-166h-853zM300 445h166v166h-166v-166z" />
    <glyph glyph-name="uniFB32" unicode="&#xfb32;" horiz-adv-x="712" 
d="M43 0q8 103 31.5 185t69 155.5t122 127.5t182.5 84l16 4v206q0 69 -48.5 117.5t-117.5 48.5h-209v166h209q138 0 235 -97t97 -235v-762h-166v383q-68 -24 -116 -62t-76.5 -89.5t-42.5 -107t-20 -124.5h-166zM180 612h166v166h-166v-166z" />
    <glyph glyph-name="uniFB33" unicode="&#xfb33;" horiz-adv-x="983" 
d="M67 928v166h833v-166h-144v-928h-166v928h-523zM261 445v166h166v-166h-166z" />
    <glyph glyph-name="uniFB35" unicode="&#xfb35;" horiz-adv-x="591" 
d="M-1 445v166h166v-166h-166zM131 928v166h332v-1094h-166v928h-166z" />
    <glyph glyph-name="uniFB3B" unicode="&#xfb3b;" horiz-adv-x="961" 
d="M94 0v166h609v620q0 58 -41.5 100t-100.5 42h-467v166h467q128 0 218 -90t90 -218v-786h-775zM269 445h166v166h-166v-166z" />
    <glyph glyph-name="uniFB44" unicode="&#xfb44;" horiz-adv-x="1100" 
d="M133 0v166h686v620q0 58 -41.5 100t-100.5 42h-378v-244q0 -9 8.5 -17.5t17.5 -8.5h193v-166h-193q-78 0 -135 57t-57 135v410h544q128 0 218 -90t90 -218v-786h-852zM589 445h166v166h-166v-166z" />
    <glyph glyph-name="uniFB4A" unicode="&#xfb4a;" horiz-adv-x="1167" 
d="M80 0v166h189v928h461q138 0 235 -97t97 -235v-762h-166v762q0 69 -48.5 117.5t-117.5 48.5h-295v-928h-355zM569 445v166h166v-166h-166z" />
    <glyph glyph-name="uniFB4B" unicode="&#xfb4b;" horiz-adv-x="591" 
d="M131 928v166h332v-1094h-166v928h-166zM220 1255v166h166v-166h-166z" />
  </font>
</defs>
</svg>
