<?xml version="1.0" standalone="no"?>
<!DOCTYPE svg PUBLIC "-//W3C//DTD SVG 1.1//EN" "http://www.w3.org/Graphics/SVG/1.1/DTD/svg11.dtd" >
<svg xmlns="http://www.w3.org/2000/svg" xmlns:xlink="http://www.w3.org/1999/xlink" version="1.1">
<metadata>
Created by FontForge 20170910 at Thu Sep 16 01:00:57 2010
 By Jimmy Wärting
Copyleft 2002, 2003, 2005, 2008, 2009, 2010 Free Software Foundation.
</metadata>
<defs>
<font id="FreeMono" horiz-adv-x="600" >
  <font-face 
    font-family="FreeMono"
    font-weight="400"
    font-stretch="normal"
    units-per-em="1000"
    panose-1="2 7 4 9 2 2 5 2 4 4"
    ascent="800"
    descent="-200"
    x-height="417"
    cap-height="563"
    bbox="-793 -200 699 800"
    underline-thickness="50"
    underline-position="-100"
    stemh="41"
    stemv="41"
    unicode-range="U+0020-FFFD"
  />
<missing-glyph 
d="M100 0v563h400v-563h-400zM133 33h334v497h-334v-497z" />
    <glyph glyph-name="yodyodpatahhebrew" unicode="&#x5f2;&#x5b7;" 
d="M251 154h135c11 0 20 -9 20 -20c0 -12 -9 -21 -20 -21h-135c-11 0 -21 9 -21 21c0 11 10 20 21 20zM450 480v-240c0 -11 -9 -21 -20 -21s-21 10 -21 21v199h-89c-11 0 -20 9 -20 21c0 11 9 20 20 20h130zM240 480v-240c0 -11 -9 -21 -20 -21s-21 10 -21 21v199h-89
c-11 0 -20 9 -20 21c0 11 9 20 20 20h130z" />
    <glyph glyph-name=".notdef" 
d="M100 0v563h400v-563h-400zM133 33h334v497h-334v-497z" />
    <glyph glyph-name=".null" horiz-adv-x="0" 
 />
    <glyph glyph-name="nonmarkingreturn" 
 />
    <glyph glyph-name="space" unicode=" " 
 />
    <glyph glyph-name="exclam" unicode="!" 
d="M338 563l-18 -326c-1.10254 -19.9805 -7 -28 -21 -28c-13 0 -18.9512 9.00293 -20 28l-18 326c-0.370117 6.69238 -1 12 -1 16c0 22 17 39 40 39c22 0 39 -17 39 -39c0 -2 -0.548828 -7.83301 -1 -16zM293 85h13c30 0 54 -22 54 -50s-24 -50 -54 -50h-13
c-30 0 -53 22 -53 50s23 50 53 50z" />
    <glyph glyph-name="quotedbl" unicode="&#x22;" 
d="M146 604h128l-34 -253c-3 -25 -12 -36 -30 -36s-27 11 -30 36zM326 604h128l-34 -253c-3 -25 -12 -36 -30 -36s-27 11 -30 36z" />
    <glyph glyph-name="numbersign" unicode="#" 
d="M321.363 -36.1816l15.6377 225.183h-91l-15 -225c-2 -18 -8 -26 -21 -26c-11 0 -20.3633 9 -20.3633 21c0 0 0.137695 4.88477 0.362305 8l16 222h-87c-18 0 -27 7 -27 21c0 13 9 20 27 20h89l9 126h-78c-18 0 -27 7 -27 21c0 13 9 20 27 20h81l16 225
c1.16211 16.3447 8 25 21 25s19.1113 -10.0674 19.1113 -25.0674c0 -1.57422 -0.0615234 -2.20508 -0.110352 -2.93359l-15 -222h91l16 225c1 17 7 25 20 25s20.0996 -10.043 20.0996 -25.043c0 -1.37891 -0.0302734 -1.97852 -0.100586 -2.95605l-16 -222h89
c18 0 27 -7 27 -20c0 -14 -9 -21 -27 -21h-91l-9 -126h80c18 0 27 -7 27 -20c0 -14 -9 -21 -27 -21h-83l-16 -225c-1 -18 -8 -26 -21 -26c-9.5 0 -19.9258 9.27246 -19.9258 18.5c0 1.77246 0.125 4.95898 0.289062 7.31738zM349.001 356.001h-91l-9 -126h91z" />
    <glyph glyph-name="dollar" unicode="$" 
d="M446 201c0 154 -310 47 -310 234c0 72 60 131 144 141v52c0 18 7 27 21 27c13 0 20 -9 20 -27v-52c45 -4 68 -14 104 -42c1 19 8 29 21 29c14 0 20 -9 20 -27v-60c0 -18 -7 -27 -20 -27s-19 6 -21 22c-5 36 -62 67 -123 67c-69 0 -125 -47 -125 -104
c0 -144 310 -35 310 -233c0 -79 -64 -136 -166 -147v-119c0 -18 -7 -27 -20 -27c-14 0 -21 9 -21 27v119c-46 2 -100 25 -126 54v-16c0 -18 -7 -27 -20 -27c-14 0 -21 9 -21 27v79c0 18 7 27 21 27c13 0 18 -7 20 -25c4 -43 71 -80 145 -80c85 0 147 45 147 108z" />
    <glyph glyph-name="percent" unicode="%" 
d="M361 236c69 0 123 -55 123 -126c0 -66 -56 -122 -122 -122c-68 0 -123 56 -123 124s55 124 122 124zM361 198c-46 0 -84 -38 -84 -86c0 -47 38 -86 85 -86c46 0 84 39 84 85c0 49 -37 87 -85 87zM237 611c69 0 123 -55 123 -125c0 -67 -56 -123 -122 -123
c-68 0 -123 56 -123 124s55 124 122 124zM237 573c-46 0 -84 -39 -84 -86s38 -86 85 -86c45 0 84 39 84 85c0 49 -37 87 -85 87zM495 344l-379 -122c-5 -2 -10 -3 -12 -3c-8 0 -17 9 -17 19s5 16 18 20l379 122c4 1 8 2 12 2c9 0 17 -9 17 -19c0 -9 -5 -15 -18 -19z" />
    <glyph glyph-name="ampersand" unicode="&#x26;" 
d="M393 0l-31 48c-30 -43 -66 -64 -112 -64c-78 0 -145 73 -145 158c0 69 42 124 111 145c-45 73 -50 84 -50 113c0 65 56 119 123 119c23 0 43 -6 66 -20c7 4 18 11 26 11c10 0 19 -10 19 -21c0 -9 -4 -14 -16 -21l-32 -16c-21 18 -40 26 -63 26c-43 0 -82 -38 -82 -80
c0 -23 11 -48 44 -100l111 -177c20 37 36 80 46 128h43c18 0 27 -7 27 -20c0 -14 -9 -21 -27 -21h-12c-14 -52 -33 -98 -53 -126l27 -41h38c18 0 27 -7 27 -20c0 -14 -9 -21 -27 -21h-58zM338 86l-105 165c-53 -12 -87 -54 -87 -109c0 -63 48 -117 103 -117
c35 0 67 22 89 61z" />
    <glyph glyph-name="quotesingle" unicode="'" 
d="M236 604h128l-34 -253c-2.54395 -18.9268 -12 -36 -30 -36s-26.9277 13.1436 -30 36z" />
    <glyph glyph-name="parenleft" unicode="(" 
d="M294 243c0 161 116 361 144 361c11 0 20 -9 20 -20c0 -39 -103 -130 -103 -344c0 -107 31 -209 100 -333c2 -5 3 -7 3 -11c0 -11 -10 -20 -21 -20c-29 0 -143 197 -143 367z" />
    <glyph glyph-name="parenright" unicode=")" 
d="M147 -104c0 39 103 130 103 344c0 108 -30 208 -100 333c-2 5 -3 7 -3 11c0 11 10 20 21 20c29 0 143 -197 143 -367c0 -161 -116 -361 -144 -361c-11 0 -20 9 -20 20z" />
    <glyph glyph-name="asterisk" unicode="*" 
d="M279 438v139c0 18 7 27 21 27c13 0 20 -9 20 -27v-139l133 43c5 2 12 3 15 3c10 0 19 -10 19 -20c0 -11 -6 -17 -21 -22l-133 -42l81 -112c4 -7 7 -13 7 -18c0 -11 -9 -20 -20 -20c-8 0 -12 3 -20 14l-82 112l-81 -112c-8 -10 -13 -14 -21 -14c-11 0 -20 9 -20 21
c0 5 1 7 8 17l81 112l-133 42c-11 3 -20 8 -20 21c0 11 9 20 20 20c4 0 6 -1 13 -3z" />
    <glyph glyph-name="plus" unicode="+" 
d="M320 261v-202c0 -18 -7 -27 -20 -27c-14 0 -21 9 -21 27v202h-180c-18 0 -27 7 -27 21c0 13 9 20 27 20h180v201c0 18 7 27 21 27c13 0 20 -9 20 -27v-201h180c19 0 28 -7 28 -20c0 -14 -9 -21 -28 -21h-180z" />
    <glyph glyph-name="comma" unicode="," 
d="M207 145h133l-145 -265c-10 -19 -18 -25 -31 -25c-16 0 -29 13 -29 29c0 4 1 7 2 11z" />
    <glyph glyph-name="hyphen" unicode="-" 
d="M501 258h-402c-18 0 -27 7 -27 21c0 13 9 20 27 20h402c18 0 27 -7 27 -20c0 -14 -9 -21 -27 -21z" />
    <glyph glyph-name="period" unicode="." 
d="M295 116h10c39 0 69 -28 69 -65c0 -38 -30 -66 -69 -66h-10c-39 0 -69 29 -69 66s30 65 69 65z" />
    <glyph glyph-name="slash" unicode="/" 
d="M482 633l-327 -696c-7 -14 -12 -18 -22 -18s-20 9 -20 19c0 4 1.8623 9.32031 5 16l327 696c6.51758 13.874 12 18 22 18s20 -9 20 -19c0 -4 -1 -8 -5 -16z" />
    <glyph glyph-name="zero" unicode="0" 
d="M487 351v-100c0 -158 -76 -266 -187 -266s-187 108 -187 266v100c0 159 76 267 187 267s187 -108 187 -267zM300 577c-96 0 -146 -115 -146 -231v-89c0 -128 57 -231 146 -231c96 0 146 115 146 231v89c0 128 -57 231 -146 231z" />
    <glyph glyph-name="one" unicode="1" 
d="M321 612v-571h139c18 0 27 -7 27 -20c0 -14 -9 -21 -27 -21h-319c-18 0 -28 7 -28 21c0 13 9 20 28 20h139v517l-113 -113c-5.25 -5.25 -13 -8 -21 -8c-11 0 -19 10 -19 23c0 6 3 12 11 20l132 132h51z" />
    <glyph glyph-name="two" unicode="2" 
d="M104 470c0 51 74 148 186 148c98 0 184 -81 184 -172c0 -59 -19.9521 -93.3418 -144 -209l-207 -193v-3h314v36c0 18 7 27 21 27c13 0 20 -9 20 -27v-77h-394v60l236 222c94 92 113 120 113 165c0 69 -67 130 -143 130c-68 0 -130 -45 -146 -105c-4 -14 -10 -20 -21 -20
c-10 0 -19 9 -19 18z" />
    <glyph glyph-name="three" unicode="3" 
d="M125 528c0 18 64 90 176 90c100 0 176 -67 176 -154c0 -86.8584 -63 -126 -103 -136c78 -32 125 -92 125 -160c0 -101 -94 -183 -209 -183c-78 0 -194 50 -194 84c0 10 9 19 19 19c22 0 64 -62 176 -62c91 0 167 65 167 142c0 78 -82 144 -179 144c-18 0 -27 7 -27 21
c0 13 10 20 27 20c86.7656 0 157 22 157 110c0 65 -59 114 -136 114c-122 0 -126 -68 -155 -68c-11 0 -20 9 -20 19z" />
    <glyph glyph-name="four" unicode="4" 
d="M376 169h-271v47l228 388h84v-394h34c18 0 27 -7 27 -21c0 -13 -9 -20 -27 -20h-34v-128h34c18 0 27 -7 27 -20c0 -14 -9 -21 -27 -21h-151c-18 0 -27 7 -27 21c0 13 9 20 27 20h76v128zM376 210v353h-24l-208 -353h232z" />
    <glyph glyph-name="five" unicode="5" 
d="M316 354c-89 0 -122 -41 -148 -41c-11 0 -19 9 -19 22v269h282c19 0 28 -7 28 -20c0 -14 -9 -21 -28 -21h-241v-198c51 21 88 30 132 30c102 0 177 -82 177 -194c0 -126 -85 -216 -204 -216c-110 0 -199 76 -199 97c0 11 9 20 20 20c22 0 63 -76 177 -76
c98 0 165 72 165 177c0 89 -58 151 -142 151z" />
    <glyph glyph-name="six" unicode="6" 
d="M488 563c-15 0 -16 14 -64 14c-102.041 0 -249 -93.124 -249 -292c0 -9 1 -24 2 -43c41 82 95 122 166 122c91 0 167 -84 167 -186c0 -108 -76 -193 -173 -193c-118 0 -201 122 -201 297c0 203 132 336 292 336c43 0 79 -16 79 -35c0 -11 -8 -20 -19 -20zM183 188
c27 -104 73 -162 155 -162c74 0 131 66 131 152c0 79 -57 145 -127 145c-90 0 -140 -100 -159 -135z" />
    <glyph glyph-name="seven" unicode="7" 
d="M437 545v18h-291v-35c0 -19 -7 -28 -20 -28c-14 0 -21 9 -21 28v76h373v-65l-163 -519c-5 -16 -10 -21 -20 -21c-11 0 -20 9 -20 20c0 3 1 9 2 13z" />
    <glyph glyph-name="eight" unicode="8" 
d="M375 313c73 -33 112 -86 112 -152c0 -97 -84 -176 -187 -176s-187 79 -187 176c0 66 39 118 112 152c-70 36 -102 79 -102 140c0 90 81 165 177 165s177 -75 177 -165c0 -61 -31 -104 -102 -140zM300 577c-76 0 -136 -56 -136 -126c0 -66 60 -118 136 -118
c75 0 136 52 136 117c0 71 -60 127 -136 127zM300 293c-82 0 -146 -58 -146 -132c0 -75 65 -135 146 -135c80 0 146 60 146 134c0 76 -63 133 -146 133z" />
    <glyph glyph-name="nine" unicode="9" 
d="M158 40c15 0 16 -14 64 -14c102.041 0 249 93.124 249 292c0 9 -1 24 -2 43c-41 -82 -95 -122 -166 -122c-91 0 -167 84 -167 186c0 108 76 193 173 193c118 0 201 -122 201 -297c0 -203 -132 -336 -292 -336c-43 0 -79 16 -79 35c0 11 8 20 19 20zM463 415
c-27 104 -73 162 -155 162c-74 0 -131 -66 -131 -152c0 -79 57 -145 127 -145c90 0 140 100 159 135z" />
    <glyph glyph-name="colon" unicode=":" 
d="M295 116h10c39 0 69 -28 69 -65c0 -38 -30 -66 -69 -66h-10c-39 0 -69 29 -69 66s30 65 69 65zM295 417h10c39 0 69 -29 69 -66s-30 -66 -69 -66h-10c-39 0 -69 29 -69 66s30 66 69 66z" />
    <glyph glyph-name="semicolon" unicode=";" 
d="M211 145h133l-145 -265c-10 -19 -18 -25 -31 -25c-16 0 -29 13 -29 29c0 4 1 7 2 11zM271 417h10c39 0 69 -29 69 -66s-30 -66 -69 -66h-10c-39 0 -69 29 -69 66s30 66 69 66z" />
    <glyph glyph-name="less" unicode="&#x3c;" 
d="M522 67c0 -8 -8 -23 -20 -23c-3 0 -8 2 -13 5l-417 232l418 232c5 3 9 5 12 5c10 0 20 -12 20 -22c0 -8 -4 -13 -13 -18l-355 -197l355 -197c9 -5 13 -11 13 -17z" />
    <glyph glyph-name="equal" unicode="=" 
d="M522 334h-444c-18 0 -27 7 -27 21c0 13 9 20 27 20h444c18 0 27 -7 27 -20c0 -14 -9 -21 -27 -21zM522 190h-444c-18 0 -27 7 -27 21c0 13 9 20 27 20h444c18 0 27 -7 27 -20c0 -14 -9 -21 -27 -21z" />
    <glyph glyph-name="greater" unicode="&#x3e;" 
d="M78 496c0 5 7 22 20 22c3 0 8 -2 13 -5l417 -232l-418 -232c-5 -3 -9 -5 -12 -5c-11 0 -20 12 -20 23c0 7 4 12 13 17l355 197l-355 197c-9 5 -13 11 -13 18z" />
    <glyph glyph-name="question" unicode="?" 
d="M134 529c43 14 86 48 175 48c106 0 178 -62 178 -154c0 -74 -40 -117 -165 -176v-41c0 -18 -7 -27 -20 -27c-14 0 -21 9 -21 27v68c116 49 165 92 165 149c0 66 -59 113 -142 113c-45 0 -77 -8 -129 -34v-41c0 -18 -7 -27 -20 -27c-14 0 -21 9 -21 27v68zM287 85h27
c34 0 57 -20 57 -50c0 -29 -23 -50 -57 -50h-27c-34 0 -57 20 -57 50s23 50 57 50z" />
    <glyph glyph-name="at" unicode="@" 
d="M299 -62c-118 0 -194 116 -194 260v163c0 152 82 263 195 263c91 0 159 -69 159 -161v-277c12 -2 19 -9 19 -20c0 -14 -9 -21 -27 -21h-33v5c-20 -2 -30 -3 -40 -3c-78 0 -136 54 -136 125c0 79.543 67.7549 144 176 144v47c0 70 -49 120 -117 120
c-91 0 -155 -93 -155 -225v-160c0 -119 58 -219 159 -219c95 0 105 41 124 41c11 0 20 -9 20 -19c0 -31 -76 -63 -150 -63zM418 192v184c-78 0 -135 -43 -135 -103c0 -50 40 -85 98 -85c11 0 25 1 37 4z" />
    <glyph glyph-name="A" unicode="A" 
d="M428 188h-266l-54 -147h79c18 0 27 -7 27 -20c0 -14 -9 -21 -27 -21h-151c-18 0 -27 7 -27 21c0 13 9 20 27 20h31l179 481h-120c-18 0 -27 7 -27 21c0 13 8.90918 20 27 20h204l197 -522h37c18 0 27 -7 27 -20c0 -14 -9 -21 -27 -21h-156c-18 0 -27 7 -27 21
c0 13 9 20 27 20h76zM413 229l-112 293h-15l-108 -293h235z" />
    <glyph glyph-name="B" unicode="B" 
d="M124 41v481h-54c-18 0 -27 7 -27 21c0 13 9 20 27 20h258c97 0 171 -63 171 -145c0 -51 -26 -88 -85 -120c84 -30 127 -78 127 -145c0 -84 -74 -153 -165 -153h-306c-18 0 -27 7 -27 21c0 13 9 20 27 20h54zM165 313h147c85 0 146 44 146 106c0 58 -56 103 -129 103h-164
v-209zM500 153c0 49 -35 119 -186 119h-149v-231h208c71 0 127 50 127 112z" />
    <glyph glyph-name="C" unicode="C" 
d="M63 325c0 53 42 251 242 251c66 0 126 -24 173 -69v29c0 18 7 27 21 27c13 0 20 -9 20 -27v-112c0 -18 -7 -27 -21 -27c-12 0 -19 8 -20 24c-4 61 -84 114 -173 114c-111 0 -201 -97 -201 -216v-71c0 -120 100 -223 218 -223c69 0 120 26 174 90c7 8 11 10 18 10
c12 0 20 -8 20 -19c0 -20 -85 -122 -212 -122c-136 0 -259 123 -259 258v83z" />
    <glyph glyph-name="D" unicode="D" 
d="M104 41v481h-34c-18 0 -27 7 -27 21c0 13 9 20 27 20h220c129 0 230 -112 230 -253v-56c0 -142 -101 -254 -230 -254h-220c-18 0 -27 7 -27 21c0 13 9 20 27 20h34zM479 318c0 41 -38 204 -191 204h-143v-481h150c96 0 184 98 184 204v73z" />
    <glyph glyph-name="E" unicode="E" 
d="M165 272v-231h314v119c0 18 7 27 21 27c13 0 20 -9 20 -27v-160h-450c-18 0 -27 7 -27 21c0 13 9 20 27 20h54v481h-54c-18 0 -27 7 -27 21c0 13 9 20 27 20h429v-139c0 -18 -7 -27 -21 -27c-13 0 -20 9 -20 27v98h-293v-209h145v45c0 18 7 27 21 27c13 0 20 -9 20 -27
v-131c0 -18 -7 -27 -20 -27c-14 0 -21 9 -21 27v45h-145z" />
    <glyph glyph-name="F" unicode="F" 
d="M165 272v-231h138c19 0 28 -7 28 -20c0 -14 -10 -21 -28 -21h-233c-18 0 -27 7 -27 21c0 13 9 20 27 20h54v481h-54c-18 0 -27 7 -27 21c0 13 9 20 27 20h450v-139c0 -18 -7 -27 -21 -27c-13 0 -20 9 -20 27v98h-314v-209h145v45c0 18 7 27 20 27c14 0 21 -9 21 -27v-131
c0 -18 -7 -27 -21 -27c-13 0 -20 9 -20 27v45h-145z" />
    <glyph glyph-name="G" unicode="G" 
d="M315 535c-177 0 -211 -173 -211 -218v-73c0 -136 88 -219 232 -219c52 0 87 8 143 34v150h-139c-18 0 -27 7 -27 21c0 13 9 20 27 20h194c19 0 28 -7 28 -20c0 -14 -9 -21 -28 -21h-14v-173c-59 -34 -125 -52 -187 -52c-164 0 -270 102 -270 260v74
c0 135 100 258 250 258c66 0 121 -18 166 -54v14c0 18 7 27 21 27s20 -8 20 -27v-91c0 -18 -7 -27 -20 -27s-19 8 -20 25c-4 51 -76 92 -165 92z" />
    <glyph glyph-name="H" unicode="H" 
d="M437 272h-270v-231h54c18 0 27 -7 27 -20c0 -14 -9 -21 -27 -21h-140c-18 0 -28 7 -28 21c0 13 9 20 28 20h45v481h-25c-18 0 -27 7 -27 21c0 13 9 20 27 20h120c18 0 27 -7 27 -20c0 -14 -9 -21 -27 -21h-54v-209h270v209h-54c-18 0 -27 7 -27 21c0 13 9 20 27 20h120
c18 0 27 -7 27 -20c0 -14 -9 -21 -27 -21h-25v-481h46c18 0 27 -7 27 -20c0 -14 -10 -21 -27 -21h-141c-18 0 -27 7 -27 21c0 13 9 20 27 20h54v231z" />
    <glyph glyph-name="I" unicode="I" 
d="M320 522v-481h139c19 0 28 -7 28 -20c0 -14 -10 -21 -28 -21h-319c-18 0 -27 7 -27 21c0 13 9 20 27 20h139v481h-139c-18 0 -27 7 -27 21c0 13 9 20 27 20h319c19 0 28 -7 28 -20c0 -14 -9 -21 -28 -21h-139z" />
    <glyph glyph-name="J" unicode="J" 
d="M460 522v-357c0 -99 -85 -181 -188 -181c-64 0 -116 25 -188 90v149c0 18 7 27 21 27c13 0 20 -9 20 -27v-130c51 -46 98 -68 148 -68c81 0 146 62 146 140v357h-159c-18 0 -27 7 -27 21c0 13 9 20 27 20h296c18 0 27 -7 27 -20c0 -14 -9 -21 -27 -21h-96z" />
    <glyph glyph-name="K" unicode="K" 
d="M165 221v-180h75c18 0 27 -7 27 -20c0 -14 -9 -21 -27 -21h-170c-18 0 -27 7 -27 21c0 13 9 20 27 20h54v481h-54c-18 0 -27 7 -27 21c0 13 9 20 27 20h170c18 0 27 -7 27 -20c0 -14 -9 -21 -27 -21h-75v-249l280 249h-45c-19 0 -28 7 -28 21c0 13 9 20 28 20h118
c19 0 28 -7 28 -20c0 -14 -9 -21 -28 -21h-16l-222 -198c97 -40 134 -91 209 -283h56c18 0 27 -7 27 -20c0 -14 -9 -21 -27 -21h-87c-73 203 -117 263 -212 294z" />
    <glyph glyph-name="L" unicode="L" 
d="M227 522v-481h273v160c0 18 7 27 21 27c13 0 20 -9 20 -27v-201h-451c-18 0 -27 7 -27 21c0 13 9 20 27 20h96v481h-96c-18 0 -27 7 -27 21c0 13 9 20 27 20h233c18 0 27 -7 27 -20c0 -14 -9 -21 -27 -21h-96z" />
    <glyph glyph-name="M" unicode="M" 
d="M326 169h-46l-159 353h-8v-481h74c19 0 28 -7 28 -20c0 -14 -10 -21 -28 -21h-149c-18 0 -27 7 -27 21c0 13 9 20 27 20h34v481h-25c-18 0 -27 7 -27 21c0 13 9 20 27 20h99l157 -348l154 348h100c18 0 27 -7 27 -20c0 -14 -9 -21 -27 -21h-25v-481h34c18 0 27 -7 27 -20
c0 -14 -9 -21 -27 -21h-149c-18 0 -27 7 -27 21c0 13 9 20 27 20h74v481h-8z" />
    <glyph glyph-name="N" unicode="N" 
d="M501 0h-52l-305 504v-463h75c18 0 27 -7 27 -20c0 -14 -10 -21 -27 -21h-150c-18 0 -27 7 -27 21c0 13 9 20 27 20h34v481h-54c-18 0 -27 7 -27 21c0 13 9 20 27 20h106l305 -504v463h-74c-19 0 -28 7 -28 21c0 13 9 20 28 20h149c18 0 27 -7 27 -20
c0 -14 -9 -21 -27 -21h-34v-522z" />
    <glyph glyph-name="O" unicode="O" 
d="M300 576c141 0 249 -130 249 -300c0 -161 -112 -292 -249 -292c-139 0 -249 131 -249 296s110 296 249 296zM300 535c-115 0 -208 -115 -208 -255s94 -255 208 -255c113 0 208 115 208 252c0 144 -92 258 -208 258z" />
    <glyph glyph-name="P" unicode="P" 
d="M165 231v-190h138c19 0 28 -7 28 -20c0 -14 -10 -21 -28 -21h-233c-18 0 -27 7 -27 21c0 13 9 20 27 20h54v481h-54c-18 0 -27 7 -27 21c0 13 9 20 27 20h240c106 0 189 -72 189 -165s-89 -167 -203 -167h-131zM165 272h134c87 0 159 57 159 126c0 68 -65 124 -144 124
h-149v-250z" />
    <glyph glyph-name="Q" unicode="Q" 
d="M318 -89c-82 0 -123 -25 -150 -25c-11 0 -20 9 -20 21c0 7 4 13 11 18l90 65c-114 25 -198 149 -198 290c0 165 110 296 249 296s249 -131 249 -296c0 -164 -106 -292 -244 -296l-54 -40c30 6 46 8 67 8c75 0 89 -26 127 -26c41 0 66 31 81 31c11 0 20 -9 20 -21
c0 -20 -62 -51 -104 -51c-46 0 -61 26 -124 26zM300 535c-115 0 -208 -115 -208 -255s94 -255 208 -255c113 0 208 115 208 252c0 144 -92 258 -208 258z" />
    <glyph glyph-name="R" unicode="R" 
d="M165 251v-210h75c18 0 27 -7 27 -20c0 -14 -9 -21 -27 -21h-170c-18 0 -27 7 -27 21c0 13 9 20 27 20h54v481h-54c-18 0 -27 7 -27 21c0 13 9 20 27 20h248c97 0 180 -72 180 -156c0 -65 -46 -113 -139 -145c63 -43 91 -80 172 -221h31c18 0 27 -7 27 -20
c0 -14 -9 -21 -27 -21h-57c-88 162 -132 216 -208 251h-132zM165 292h114c98 0 178 52 178 116c0 60 -67 114 -139 114h-153v-230z" />
    <glyph glyph-name="S" unicode="S" 
d="M464 153c0 181 -349 54 -349 268c0 88 79 155 184 155c59 0 104 -18 146 -59v19c0 18 7 27 21 27c13 0 20 -9 20 -27v-103c0 -18 -7 -27 -20 -27s-20 8 -21 24c-4 60 -65 105 -143 105c-82 0 -143 -49 -143 -115c0 -169 349 -49 349 -269c0 -97 -86 -167 -206 -167
c-69 0 -128 25 -169 72v-29c0 -18 -7 -27 -21 -27c-13 0 -20 9 -20 27v112c0 18 7 27 21 27c13 0 19 -8 20 -24c3 -66 77 -117 168 -117c93 0 163 54 163 128z" />
    <glyph glyph-name="T" unicode="T" 
d="M321 41h105c18 0 27 -7 27 -20c0 -14 -9 -21 -27 -21h-251c-18 0 -27 7 -27 21c0 13 9 20 27 20h105v481h-167v-73c0 -18 -7 -27 -21 -27c-13 0 -20 9 -20 27v114h456v-114c0 -19 -6 -27 -20 -27c-12 0 -21 11 -21 27v73h-166v-481z" />
    <glyph glyph-name="U" unicode="U" 
d="M499 522v-337c0 -114 -87 -201 -199 -201c-113 0 -199 87 -199 201v337h-34c-18 0 -27 7 -27 21s9 20 27 20h149c18 0 27 -7 27 -20c0 -14 -9 -21 -27 -21h-74v-337c0 -90 69 -160 158 -160c88 0 158 70 158 160v337h-74c-18 0 -27 7 -27 21s8 20 27 20h149
c19 0 27 -6 27 -20s-9 -21 -27 -21h-34z" />
    <glyph glyph-name="V" unicode="V" 
d="M267 0l-200 522h-31c-18 0 -27 7 -27 21s9 20 27 20h151c18 0 27 -6 27 -20s-9 -21 -27 -21h-77l186 -481h3l193 481h-78c-18 0 -27 7 -27 21c0 13 8 20 27 20h150c18 0 27 -6 27 -20s-9 -21 -27 -21h-31l-209 -522h-57z" />
    <glyph glyph-name="W" unicode="W" 
d="M122 0l-60 522h-15c-18 0 -27 7 -27 21c0 13 9 20 27 20h149c19 0 28 -7 28 -20c0 -14 -9 -21 -28 -21h-93l56 -476l112 392h62l109 -392l57 476h-96c-18 0 -27 7 -27 21c0 13 9 20 27 20h150c18 0 27 -7 27 -20c0 -14 -9 -21 -27 -21h-15l-62 -522h-64l-112 400
l-115 -400h-63z" />
    <glyph glyph-name="X" unicode="X" 
d="M325 288l191 -247h17c18 0 27 -7 27 -20c0 -14 -9 -21 -27 -21h-132c-18 0 -27 7 -27 21c0 13 9 20 27 20h62l-165 214l-164 -214h64c18 0 27 -7 27 -20c0 -14 -9 -21 -27 -21h-131c-18 0 -27 7 -27 21c0 13 9 20 27 20h17l188 247l-179 234h-15c-18 0 -27 7 -27 21
c0 13 9 20 27 20h110c18 0 27 -7 27 -20c0 -14 -9 -21 -27 -21h-43l155 -201l153 201h-45c-18 0 -27 7 -27 21c0 13 9 20 27 20h111c18 0 27 -6 27 -20s-9 -21 -27 -21h-15z" />
    <glyph glyph-name="Y" unicode="Y" 
d="M322 254v-213h105c18 0 27 -7 27 -20c0 -14 -9 -21 -27 -21h-251c-18 0 -27 7 -27 21c0 13 9 20 27 20h105v213l-179 268h-24c-18 0 -27 7 -27 21c0 13 9 20 27 20h111c18 0 27 -7 27 -20c0 -14 -9 -21 -27 -21h-38l152 -227l149 227h-40c-19 0 -28 7 -28 21
c0 13 9 20 28 20h110c17 0 27 -8 27 -20c0 -13 -11 -21 -27 -21h-24z" />
    <glyph glyph-name="Z" unicode="Z" 
d="M497 0h-394v59l328 460v3h-269v-118c0 -19 -7 -28 -20 -28c-14 0 -21 9 -21 28v159h349v-58l-328 -460v-4h314v141c0 18 6 27 20 27s21 -9 21 -27v-182z" />
    <glyph glyph-name="bracketleft" unicode="[" 
d="M321 563v-646h97c18 0 27 -7 27 -20c0 -14 -9 -21 -27 -21h-138v728h138c18 0 27 -7 27 -20c0 -14 -9 -21 -27 -21h-97z" />
    <glyph glyph-name="backslash" unicode="\" 
d="M155 650l327 -696c4 -7 5 -12 5 -16c0 -10 -10 -19 -20 -19s-15 4 -22 18l-327 696c-4 8 -5 12 -5 16c0 10 10 19 21 19c9 0 14 -4 21 -18z" />
    <glyph glyph-name="bracketright" unicode="]" 
d="M279 -83v646h-97c-18 0 -27 7 -27 20c0 14 9 21 27 21h138v-728h-138c-18 0 -27 7 -27 20c0 14 9 21 27 21h97z" />
    <glyph glyph-name="asciicircum" unicode="^" 
d="M300 615l178 -223c6 -7 9 -13 9 -18c0 -11 -9 -20 -20 -20c-8 0 -12 3 -20 13l-147 185l-147 -185c-7 -10 -12 -13 -20 -13c-11 0 -20 9 -20 20c0 6 2 10 9 18z" />
    <glyph glyph-name="underscore" unicode="_" 
d="M600 -75v-50h-600v50h600z" />
    <glyph glyph-name="grave" unicode="`" 
d="M194 630l114 -100.001c8.84082 -7.75488 12 -11.3994 12 -18.999c0 -12 -9 -21 -21 -21c-5 0 -11 3 -18 9l-114 100c-9 8 -12 12 -12 20c0 11 9 20 20 20c6 0 11 -3 19 -9z" />
    <glyph glyph-name="a" unicode="a" 
d="M125 378c0 33 141 53 174 53c93 0 161 -52 161 -123v-267h54c18 0 27 -7 27 -20c0 -14 -9 -21 -27 -21h-95v67c-61 -57 -121 -83 -191 -83c-93 0 -156 52 -156 128c0 87 86 146 211 146c46 0 77 -5 136 -21v71c0 49 -50 82 -123 82c-80 0 -123 -32 -152 -32
c-10 0 -19 9 -19 20zM419 112v90c-36 9 -84 15 -128 15c-106 0 -178 -43 -178 -106c0 -52 45 -86 114 -86c71 0 125 24 192 87z" />
    <glyph glyph-name="b" unicode="b" 
d="M144 604v-276c50 71 106 103 180 103c122 0 217 -97 217 -221c0 -125 -97 -226 -217 -226c-73 0 -133 34 -180 104v-88h-95c-18 0 -27 7 -27 21c0 13 9 20 27 20h54v522h-54c-18 0 -27 7 -27 21c0 13 9 20 27 20h95zM322 390c-99 0 -178 -81 -178 -182s79 -183 178 -183
c97 0 178 82 178 180c0 104 -78 185 -178 185z" />
    <glyph glyph-name="c" unicode="c" 
d="M535 88c0 -21 -90 -104 -226 -104c-131 0 -225 92 -225 220c0 132 96 227 230 227c61 0 115 -19 156 -55v13c0 19 7 28 21 28c13 0 20 -9 20 -28v-91c0 -18 -7 -27 -20 -27s-19 7 -21 24c-4 53 -75 95 -159 95c-110 0 -186 -75 -186 -185c0 -105 77 -180 186 -180
c73 0 135 24 187 72c8 8 11 10 18 10c10 0 19 -9 19 -19z" />
    <glyph glyph-name="d" unicode="d" 
d="M502 604v-563h54c18 0 27 -7 27 -20c0 -14 -9 -21 -27 -21h-95v89c-47 -70 -107 -105 -182 -105c-119 0 -216 101 -216 224s97 223 216 223c75 0 133 -33 182 -104v236h-54c-18 0 -27 7 -27 21c0 13 9 20 27 20h95zM282 390c-99 0 -178 -81 -178 -182
c0 -102 79 -183 179 -183c98 0 178 81 178 181c0 104 -78 184 -179 184z" />
    <glyph glyph-name="e" unicode="e" 
d="M520 199h-416c14 -105 94 -174 202 -174c62 0 135 22 175 54c7 5 11 7 16 7c10 0 19 -9 19 -20c0 -35 -120 -82 -211 -82c-135 0 -242 103 -242 233c0 121 100 214 228 214c133 0 229 -91 229 -232zM104 240h374c-16 91 -90 150 -187 150s-169 -58 -187 -150z" />
    <glyph glyph-name="f" unicode="f" 
d="M520 551c-9 0 -81 12 -138 12c-66 0 -111 -35 -111 -85v-61h189c18 0 27 -7 27 -20c0 -14 -9 -21 -27 -21h-189v-335h178c18 0 27 -7 27 -20c0 -14 -10 -21 -27 -21h-317c-18 0 -27 7 -27 21c0 13 9 20 27 20h98v335h-88c-18 0 -27 7 -27 21c0 13 9 20 27 20h88v61
c0 73 64 126 154 126c38 0 107 -7 139 -13c12 -3 18 -10 18 -20c0 -12 -9 -20 -21 -20z" />
    <glyph glyph-name="g" unicode="g" 
d="M440 334v83h95c18 0 27 -7 27 -20c0 -14 -9 -21 -27 -21h-54v-404c0 -83.7959 -72.1953 -158 -165 -158h-114c-18 0 -27 7 -27 21c0 13 9 20 27 20h116c68 0 122 55 122 123v129c-45 -66 -99 -97 -171 -97c-113 0 -206 95 -206 211s93 210 206 210c73 0 126 -30 171 -97z
M272 390c-94 0 -168 -75 -168 -169c0 -95 75 -170 168 -170s168 75 168 168c0 97 -73 171 -168 171z" />
    <glyph glyph-name="h" unicode="h" 
d="M437 288c0 60 -49 102 -123 102c-56 0 -84 -17 -138 -81l-11 -13v-255h45c19 0 28 -7 28 -20c0 -14 -10 -21 -28 -21h-132c-17 0 -27 7 -27 21c0 13 9 20 27 20h46v522h-54c-18 0 -27 7 -27 21c0 13 9 20 27 20h95v-257c51 61 93 84 154 84c93 0 159 -59 159 -140v-250
h45c19 0 28 -7 28 -20c0 -14 -9 -21 -28 -21h-131c-18 0 -27 7 -27 21c0 13 9 20 27 20h45v247z" />
    <glyph glyph-name="i" unicode="i" 
d="M320 417v-376h160c19 0 28 -7 28 -20c0 -14 -10 -21 -28 -21h-361c-18 0 -27 7 -27 21c0 13 9 20 27 20h160v335h-118c-18 0 -27 7 -27 21c0 13 9 20 27 20h159zM318 624v-104h-59v104h59z" />
    <glyph glyph-name="j" unicode="j" 
d="M417 376h-241c-18 0 -27 7 -27 21c0 13 9 20 27 20h282v-445c0 -93 -64 -158 -155 -158h-129c-18 0 -27 7 -27 21c0 13 9 20 27 20h128c66 0 115 49 115 117v404zM414 624v-104h-59v104h59z" />
    <glyph glyph-name="k" unicode="k" 
d="M185 180v-180h-95c-18 0 -27 7 -27 21c0 13 9 20 27 20h54v522h-54c-18 0 -27 7 -27 21c0 13 9 20 27 20h95v-375l173 147h-22c-18 0 -27 7 -27 21c0 13 9 20 27 20h130c18 0 27 -7 27 -20c0 -14 -9 -21 -27 -21h-47l-157 -131l207 -204h45c18 0 27 -7 27 -20
c0 -14 -9 -21 -27 -21h-131c-18 0 -27 7 -27 21c0 13 9 20 27 20h28l-180 178z" />
    <glyph glyph-name="l" unicode="l" 
d="M320 604v-563h160c19 0 28 -7 28 -20c0 -14 -10 -21 -28 -21h-361c-18 0 -27 7 -27 21c0 13 9 20 27 20h160v522h-117c-18 0 -27 7 -27 21c0 13 9 20 27 20h158z" />
    <glyph glyph-name="m" unicode="m" 
d="M112 417v-52c34 48 63 66 105 66c43 0 75 -23 97 -71c39 50 72 71 113 71c58 0 105 -49 105 -108v-282h34c18 0 27 -7 27 -20c0 -14 -9 -21 -27 -21h-74v319c0 38 -31 71 -66 71c-36 0 -66 -24 -104 -82v-267h34c18 0 27 -7 27 -20c0 -14 -9 -21 -27 -21h-74v316
c0 39 -31 74 -65 74c-35 0 -67 -25 -105 -82v-267h34c18 0 27 -7 27 -20c0 -14 -10 -21 -27 -21h-109c-17 0 -26 7 -26 21c0 13 9 20 27 20h34v335h-34c-18 0 -27 7 -27 21c0 13 9 20 27 20h74z" />
    <glyph glyph-name="n" unicode="n" 
d="M319 390c-89 0 -130 -68 -152 -96v-253h45c18 0 27 -7 27 -20c0 -14 -9 -21 -27 -21h-131c-19 0 -28 7 -28 21c0 13 9 20 28 20h45v335h-34c-18 0 -27 7 -27 21c0 13 9 20 27 20h75v-69c58 64 94 83 156 83c89 0 157 -59 157 -136v-254h34c18 0 27 -7 27 -20
c0 -14 -9 -21 -27 -21h-109c-18 0 -27 7 -27 21c0 13 9 20 27 20h34v247c0 56 -45 102 -120 102z" />
    <glyph glyph-name="o" unicode="o" 
d="M300 431c128 0 228 -99 228 -226c0 -122 -102 -221 -228 -221c-127 0 -228 99 -228 224c0 123 101 223 228 223zM300 390c-104 0 -187 -81 -187 -182c0 -102 83 -183 187 -183c103 0 187 81 187 180c0 105 -82 185 -187 185z" />
    <glyph glyph-name="p" unicode="p" 
d="M144 417v-82c53 69 103 96 179 96c124 0 218 -91 218 -210s-95 -211 -218 -211c-77 0 -133 30 -179 96v-251h98c18 0 27 -7 27 -20c0 -14 -9 -21 -27 -21h-193c-18 0 -27 7 -27 21c0 13 9 20 27 20h54v521h-54c-18 0 -27 7 -27 21c0 13 9 20 27 20h95zM322 390
c-99 0 -178 -75 -178 -169c0 -95 79 -170 178 -170c98 0 178 75 178 168c0 97 -77 171 -178 171z" />
    <glyph glyph-name="q" unicode="q" 
d="M461 335v82h95c18 0 27 -7 27 -20c0 -14 -9 -21 -27 -21h-54v-521h54c18 0 27 -7 27 -20c0 -14 -9 -21 -27 -21h-193c-18 0 -27 7 -27 21c0 13 9 20 27 20h98v251c-46 -66 -102 -96 -180 -96c-123 0 -218 92 -218 211s95 210 219 210c77 0 132 -30 179 -96zM282 390
c-100 0 -178 -74 -178 -169s78 -170 178 -170c99 0 179 75 179 168c0 97 -78 171 -179 171z" />
    <glyph glyph-name="r" unicode="r" 
d="M520 344c-17 0 -39 42 -82 42c-45 0 -80 -23 -190 -124v-221h179c17 0 27 -8 27 -21c0 -12 -10 -20 -27 -20h-316c-17 0 -27 8 -27 21c0 12 10 20 27 20h96v335h-75c-17 0 -27 8 -27 21c0 12 10 20 27 20h116v-102c93 84 142 112 193 112c60 0 100 -49 100 -62
c0 -12 -9 -21 -21 -21z" />
    <glyph glyph-name="s" unicode="s" 
d="M452 117c0 136 -328 40 -328 201c0 65 73 113 171 113c57 0 102 -15 137 -46v4c0 17 8 28 21 28s20 -9 20 -28v-69c0 -18 -7 -27 -20 -27c-12 0 -19 7 -21 23c-5 45 -57 74 -133 74c-74 0 -130 -32 -130 -75c0 -111.371 328 -24 328 -199c0 -76 -83 -132 -196 -132
c-65 0 -115 17 -157 54v-11c0 -18 -7 -27 -20 -27c-14 0 -21 9 -21 27v83c0 18 7 27 21 27c12 0 20 -9 20 -22v-7c0 -46 69 -83 154 -83c88 0 154 39 154 92z" />
    <glyph glyph-name="t" unicode="t" 
d="M186 417h220c18 0 27 -7 27 -20c0 -14 -9 -21 -27 -21h-220v-267c0 -51 43 -84 112 -84c56 0 127 17 166 40c8 5 11 6 16 6c10 0 19 -10 19 -20c0 -29 -114 -67 -199 -67c-94 0 -155 48 -155 123v269h-74c-19 0 -28 7 -28 21c0 13 9 20 28 20h74v119c0 18 7 27 21 27
s20 -8 20 -27v-119z" />
    <glyph glyph-name="u" unicode="u" 
d="M439 0v66c-55 -54 -116 -82 -182 -82c-80 0 -133 52 -133 131v261h-54c-18 0 -27 7 -27 21c0 13 9 20 27 20h95v-302c0 -50 40 -90 91 -90c67 0 128 30 183 90v261h-74c-19 0 -28 7 -28 21c0 13 9 20 28 20h115v-376h34c18 0 27 -7 27 -20c0 -14 -9 -21 -27 -21h-75z" />
    <glyph glyph-name="v" unicode="v" 
d="M336 0h-70l-168 376h-41c-18 0 -27 7 -27 21c0 13 9 20 27 20h151c19 0 28 -7 28 -20c0 -14 -9 -21 -28 -21h-65l150 -335h19l147 335h-68c-18 0 -27 7 -27 21c0 13 9 20 27 20h152c18 0 27 -7 27 -20c0 -14 -9 -21 -27 -21h-41z" />
    <glyph glyph-name="w" unicode="w" 
d="M441 0h-50l-91 259l-89 -259h-51l-84 376h-19c-18 0 -27 7 -27 21c0 13 9 20 27 20h111c18 0 27 -7 27 -20c0 -14 -9 -21 -27 -21h-53l72 -320l86 255h51l89 -255l69 320h-50c-18 0 -27 7 -27 21c0 13 9 20 27 20h111c18 0 27 -7 27 -20c0 -14 -9 -21 -27 -21h-19z" />
    <glyph glyph-name="x" unicode="x" 
d="M329 219l184 -178h9c18 0 27 -7 27 -20c0 -14 -9 -21 -27 -21h-132c-18 0 -27 7 -27 21c0 13 9 20 27 20h65l-155 149l-157 -149h68c18 0 27 -7 27 -20c0 -14 -9 -21 -27 -21h-133c-18 0 -27 7 -27 21c0 13 9 20 27 20h9l184 178l-163 157h-7c-18 0 -27 7 -27 21
c0 13 9 20 27 20h111c18 0 27 -6 27 -20s-9 -21 -27 -21h-46l134 -130l137 130h-48c-18 0 -27 7 -27 21c0 13 9 20 27 20h110c18 0 27 -7 27 -20c0 -14 -9 -21 -27 -21h-7z" />
    <glyph glyph-name="y" unicode="y" 
d="M282 0l-188 376h-16c-18 0 -27 7 -27 21c0 13 9 20 27 20h115c18 0 27 -7 27 -20c0 -14 -9 -21 -27 -21h-52l164 -331l161 331h-54c-18 0 -27 7 -27 21c0 13 9 20 27 20h110c18 0 27 -7 27 -20c0 -14 -9 -21 -27 -21h-14l-256 -521h65c18 0 27 -7 27 -20
c0 -14 -9 -21 -27 -21h-233c-18 0 -27 7 -27 21c0 13 9 20 27 20h127z" />
    <glyph glyph-name="z" unicode="z" 
d="M474 417v-36l-303 -340h277v56c0 18 7 27 21 27c13 0 20 -9 20 -27v-97h-374v36l301 340h-251v-55c0 -18 -7 -27 -20 -27c-14 0 -21 9 -21 27v96h350z" />
    <glyph glyph-name="braceleft" unicode="{" 
d="M410 -104c0 -12 -9 -20 -21 -20c-71 0 -108 43 -108 110v148c0 63.6631 -65 87 -103 87c-14.333 0 -21 7 -21 19c0 13 8.66699 21 21 21c38 0 103 22.4854 103 85v147c0 68 37 111 108 111c11.5 0 21 -8 21 -20c0 -10.6836 -9.44043 -20 -21.5918 -20
c-25.9092 0 -66.4092 -14.7236 -66.4092 -71v-147c0 -66 -47 -94 -78 -106c32 -10 78 -36 78 -106v-148c0 -54.6582 39.667 -70 67.1045 -70c11.5635 0 20.8965 -9.22949 20.8965 -20z" />
    <glyph glyph-name="bar" unicode="|" 
d="M320 577v-674c0 -18 -7 -27 -20 -27s-20 9 -20 27v674c0 18 7 27 20 27s20 -9 20 -27z" />
    <glyph glyph-name="braceright" unicode="}" 
d="M190 -104c0 10.7705 9.33398 20 20.8975 20c27.4365 0 67.1035 15.3418 67.1035 70v148c0 70 46 96 78 106c-31 12 -78 40 -78 106v147c0 56.2764 -40.5 71 -66.4092 71c-12.1514 0 -21.5918 9.31738 -21.5918 20c0 12 9.5 20 21 20c71 0 108 -43 108 -111v-147
c0 -62.5146 65 -85 103 -85c12.333 0 21 -8 21 -21c0 -12 -6.66699 -19 -21 -19c-38 0 -103 -23.3369 -103 -87v-148c0 -67 -37 -110 -108 -110c-12 0 -21 8 -21 20z" />
    <glyph glyph-name="asciitilde" unicode="~" 
d="M386 253c52 0 80 77 102 77c11 0 20 -9 20 -19c0 -19 -64 -99 -119 -99c-71 0 -123 95 -177 95c-57 0 -69 -77 -101 -77c-10 0 -19 9 -19 19c0 12 52 99 120 99c70 0 133 -95 174 -95z" />
    <glyph glyph-name="nonbreakingspace" unicode="&#xa0;" 
 />
    <glyph glyph-name="exclamdown" unicode="&#xa1;" 
d="M262 -110l18 326c1 20 7 28 21 28c13 0 19 -9 20 -28l18 -326c1 -7 1 -12 1 -16c0 -22 -17 -39 -40 -39c-22 0 -39 17 -39 39c0 2 1 8 1 16zM307 368h-13c-30 0 -54 22 -54 50s24 50 54 50h13c30 0 53 -22 53 -50s-23 -50 -53 -50z" />
    <glyph glyph-name="cent" unicode="&#xa2;" 
d="M113 311c0 37 19 153 167 185v107c0 18 7 27 21 27c13 0 20 -9 20 -27v-106c38 0 79 -14 104 -36c3 11 10 17 20 17c13 0 21 -9 21 -25v-61c0 -19 -7 -28 -20 -28c-12 0 -18 7 -20 23c-6 43 -51 71 -115 71c-91 0 -157 -61 -157 -147c0 -84 65 -146 153 -146
c100 0 116 50 143 50c11 0 19 -8 19 -20c0 -27 -81 -65 -148 -68v-113c0 -18 -7 -27 -20 -27c-14 0 -21 9 -21 27v113c-97 11 -167 89 -167 184z" />
    <glyph glyph-name="sterling" unicode="&#xa3;" 
d="M198 435c0 -24 2 -32 27 -121h99c18 0 27 -7 27 -21c0 -13 -9 -20 -27 -20h-90c3 -21 5 -39 5 -57c0 -68 -20 -129 -57 -175h252c55 0 35 74 66 74c12 0 20 -9 20 -22c0 -51 -38 -93 -84 -93h-323c-18 0 -27 7 -27 21c0 11 8 19 22 19c47 2 90 88 90 180
c0 17 -2 40 -4 53h-104c-18 0 -27 7 -27 21c0 13 9 20 27 20h94c-21 66 -27 95 -27 121c0 79 63 143 141 143c77 0 129 -65 129 -83c0 -9 -11 -19 -20 -19c-20 0 -39 61 -108 61c-54 0 -101 -47 -101 -102z" />
    <glyph glyph-name="currency" unicode="&#xa4;" 
d="M199 162l-57 -56c-8 -9 -12 -11 -18 -11c-12 0 -21 9 -21 20c0 7 3 12 11 20l56 56c-24 32 -35 65 -35 101c0 37 12 74 34 102l-55 56c-9 8 -11 12 -11 19c0 11 9 20 20 20c7 0 11 -3 19 -11l56 -55c29 23 65 35 102 35s74 -13 102 -35l55 55c9 9 13 11 20 11
c11 0 20 -9 20 -21c0 -7 -1 -9 -10 -18l-55 -56c23 -32 34 -65 34 -101c0 -37 -12 -73 -35 -102l55 -56c6 -6 10 -14 10 -20c0 -11 -9 -20 -20 -20c-6 0 -12 3 -19 11l-56 56c-32 -24 -64 -35 -101 -35s-71 12 -101 35zM300 417c-68 0 -124 -56 -124 -124
c0 -69 56 -125 124 -125c67 0 124 56 124 123c0 70 -55 126 -124 126z" />
    <glyph glyph-name="yen" unicode="&#xa5;" 
d="M321 238v-60h131c15 0 21 -5 21 -18c0 -14 -6 -19 -21 -19h-131v-100h86c18 0 27 -7 27 -20c0 -14 -9 -21 -27 -21h-213c-18 0 -27 7 -27 21c0 13 9 20 27 20h86v100h-130c-16 0 -22 5 -22 19c0 13 6 18 22 18h130v60h-130c-16 0 -22 5 -22 19c0 13 5 18 22 18h116
l-164 247h-24c-18 0 -27 7 -27 21c0 13 9 20 27 20h110c18 0 27 -7 27 -20c0 -14 -9 -21 -27 -21h-39l151 -227l151 227h-39c-18 0 -27 7 -27 21c0 13 9 20 27 20h110c18 0 27 -7 27 -20c0 -14 -9 -21 -27 -21h-24l-164 -247h118c16 0 21 -5 21 -18c0 -14 -5 -19 -21 -19
h-131z" />
    <glyph glyph-name="brokenbar" unicode="&#xa6;" 
d="M320 577v-267c0 -18 -7 -27 -20 -27s-20 9 -20 27v267c0 18 7 27 20 27s20 -9 20 -27zM320 170v-267c0 -18 -7 -27 -20 -27s-20 9 -20 27v267c0 18 7 27 20 27s20 -9 20 -27z" />
    <glyph glyph-name="section" unicode="&#xa7;" 
d="M534 185c0 -47 -36 -76 -102 -84c9 -15 13 -30 13 -49c0 -65 -57 -114 -133 -114h-207v111c0 15 7 24 21 24c13 0 20 -9 20 -24v-71h165c53 0 93 33 93 75c0 35 -35 68 -131 122l-65 36c-98 55 -142 101 -142 147c0 45 41 78 103 83c-9 15 -13 28 -13 46
c0 63 59 116 128 116h212v-109c0 -15 -7 -24 -20 -24s-21 9 -21 24v69h-168c-49 0 -91 -35 -91 -76c0 -37 30 -63 149 -129l56 -31c94 -51 133 -93 133 -142zM400 139c17 9 91 3 91 45c0 29 -42 71 -107 106l-64 36c-64 35 -92 53 -119 77c-6 -1 -6 -1 -18 -1
c-42 0 -74 -19 -74 -45c0 -29 42 -67 125 -114l62 -35c55 -31 86 -51 104 -69z" />
    <glyph glyph-name="dieresis" unicode="&#xa8;" 
d="M190 611c28 0 50 -23 50 -51c0 -26 -23 -49 -50 -49s-50 23 -50 50s23 50 50 50zM411 611c28 0 50 -23 50 -51c0 -26 -23 -49 -50 -49s-50 23 -50 50s23 50 50 50z" />
    <glyph glyph-name="copyright" unicode="&#xa9;" 
d="M425 185c0 -15 -49 -74 -123 -74c-79 0 -149 70 -149 149v45c0 80 63 145 139 145c32 0 54 -7 89 -29c0 14 7 22 18 22s18 -8 18 -20v-65c0 -12 -7 -20 -18 -20c-10 0 -16 7 -18 19c-3 31 -43 57 -88 57c-58 0 -104 -50 -104 -112v-39c0 -63 51 -116 113 -116
c72 0 83 55 106 55c9 0 17 -8 17 -17zM300 578c163 0 296 -133 296 -296c0 -166 -132 -297 -300 -297c-160 0 -293 135 -293 297c0 163 133 296 297 296zM300 537c-141 0 -256 -114 -256 -255c0 -140 115 -256 252 -256c145 0 259 113 259 256c0 140 -115 255 -255 255z" />
    <glyph glyph-name="ordfeminine" unicode="&#xaa;" 
d="M189 533c0 28 91 41 109 41c58 0 100 -35 100 -84v-171h26c15 0 23 -7 23 -19c0 -11 -9 -18 -23 -18h-63v26c-41 -22 -68 -29 -107 -29c-59 0 -99 32 -99 79c0 57 56 97 133 97c23 0 43 -3 73 -9v44c0 28 -26 47 -65 47c-36 0 -80 -23 -90 -23c-9 0 -17 9 -17 19z
M361 350v59c-16 6 -48 11 -71 11c-57 0 -98 -27 -98 -64c0 -24 25 -40 62 -40c38 0 72 11 107 34z" />
    <glyph glyph-name="guillemotleft" unicode="&#xab;" 
d="M63 209l208 197c8 8 14 11 21 11c11 0 20 -9 20 -20c0 -7 -1 -9 -11 -20l-143 -168l143 -169c10 -11 11 -13 11 -20c0 -11 -9 -20 -20 -20c-6 0 -13 4 -21 11zM292 209l208 197c8 8 14 11 21 11c11 0 20 -9 20 -20c0 -7 -1 -9 -11 -20l-143 -168l143 -169
c10 -11 11 -13 11 -20c0 -11 -9 -20 -20 -20c-6 0 -13 4 -21 11z" />
    <glyph glyph-name="logicalnot" unicode="&#xac;" 
d="M487 397h-388c-18 0 -27 7 -27 21c0 13 9 20 27 20h429v-243c0 -18 -7 -27 -21 -27c-13 0 -20 9 -20 27v202z" />
    <glyph glyph-name="softhyphen" unicode="&#xad;" 
d="M501 258h-402c-18 0 -27 7 -27 21c0 13 9 20 27 20h402c18 0 27 -7 27 -20c0 -14 -9 -21 -27 -21z" />
    <glyph glyph-name="registered" unicode="&#xae;" 
d="M233 258v-102h36c12 0 20 -7 20 -18s-8 -18 -20 -18h-96c-13 0 -21 7 -21 18s8 18 21 18h24v251h-24c-13 0 -21 7 -21 18s8 18 21 18h138c61 0 105 -39 105 -93c0 -38 -27 -69 -70 -81c33 -26 44 -41 85 -113h15c12 0 20 -7 20 -18s-8 -18 -20 -18h-39
c-37 78 -76 126 -111 138h-63zM233 294h56c56 0 91 22 91 58c0 32 -29 55 -70 55h-77v-113zM300 578c163 0 296 -133 296 -296c0 -166 -132 -297 -300 -297c-160 0 -293 135 -293 297c0 163 133 296 297 296zM300 537c-141 0 -256 -114 -256 -255c0 -140 115 -256 252 -256
c145 0 259 113 259 256c0 140 -115 255 -255 255z" />
    <glyph glyph-name="macron" unicode="&#xaf;" 
d="M418 536h-236c-18 0 -27 7 -27 20s9 20 27 20h236c18 0 27 -7 27 -20s-9 -20 -27 -20z" />
    <glyph glyph-name="degree" unicode="&#xb0;" 
d="M300 636c80 0 145 -65 145 -145s-65 -145 -145 -145c-81 0 -145 65 -145 147c0 78 66 143 145 143zM300 595c-57 0 -104 -47 -104 -103c0 -58 46 -105 104 -105c57 0 104 47 104 104s-47 104 -104 104z" />
    <glyph glyph-name="plusminus" unicode="&#xb1;" 
d="M320 301v-162c0 -18 -7 -27 -20 -27c-14 0 -21 9 -21 27v162h-180c-18 0 -27 7 -27 20s9 20 27 20h180v161c0 18 7 27 21 27c13 0 20 -9 20 -27v-161h180c19 0 28 -6 28 -20c0 -13 -9 -20 -28 -20h-180zM99 40h402c18 0 27 -7 27 -20s-9 -20 -27 -20h-402
c-18 0 -27 7 -27 20s9 20 27 20z" />
    <glyph glyph-name="twosuperior" unicode="&#xb2;" 
d="M186 525c0 30 44 87 109 87c58 0 108 -47 108 -101c0 -43 -17 -63 -184 -216h150v3c0 12 7 20 18 20s18 -8 18 -20v-39h-230v43l132 123c50 50 60 64 60 86c0 35 -34 65 -72 65c-34 0 -65 -21 -74 -52c-3 -11 -9 -16 -18 -16s-17 8 -17 17z" />
    <glyph glyph-name="threesuperior" unicode="&#xb3;" 
d="M300 576c-63 0 -67 -37 -85 -37c-10 0 -18 8 -18 17c0 25 57 56 103 56c59 0 104 -40 104 -92c0 -30 -13 -52 -46 -74c39 -24 58 -52 58 -88c0 -59 -55 -107 -121 -107c-50 0 -114 30 -114 53c0 9 8 17 17 17c17 0 36 -34 97 -34c46 0 85 33 85 71c0 40 -39 72 -92 73
c-13 1 -21 7 -21 18c0 15 10 18 37 18c37 0 64 23 64 53c0 32 -29 56 -68 56z" />
    <glyph glyph-name="acute" unicode="&#xb4;" 
d="M433 599l-114 -100c-9 -7 -13 -9 -19 -9c-11 0 -20 9 -20 21c0 7 2 10 12 19l114 100c9 7 13 9 19 9c11 0 20 -9 20 -21c0 -7 -3 -11 -12 -19z" />
    <glyph glyph-name="micro" unicode="&#xb5;" 
d="M165 16v-189c0 -18 -7 -27 -21 -27c-13 0 -20 9 -20 27v550h-54c-18 0 -27 7 -27 20c0 14 9 20 27 20h95v-302c0 -54 37 -91 91 -91c68 0 128 30 183 91v262h-74c-19 0 -28 7 -28 20c0 14 9 20 28 20h115v-377h34c18 0 27 -6 27 -20c0 -13 -9 -20 -27 -20h-75v59
c-52 -49 -116 -75 -181 -75c-41 0 -66 8 -93 32z" />
    <glyph glyph-name="paragraph" unicode="&#xb6;" 
d="M284 260c-122 8 -205 65 -205 146v47c0 90 89 151 219 151h200c16 0 25 -8 25 -20c0 -13 -9 -21 -25 -21h-61v-584h62c17 0 26 -7 26 -20c0 -14 -9 -21 -26 -21h-98c-15 0 -25 8 -25 21c0 11 8 19 21 20v584h-72v-584c13 -1 21 -9 21 -20c0 -14 -9 -21 -25 -21h-134
c-16 0 -26 8 -26 21s9 20 26 20h97v281zM284 307v251c-77 -8 -135 -54 -135 -107v-37c0 -53 58 -99 135 -107z" />
    <glyph glyph-name="middot" unicode="&#xb7;" 
d="M300 280c28 0 50 -23 50 -51c0 -26 -23 -49 -50 -49s-50 23 -50 50s23 50 50 50z" />
    <glyph glyph-name="cedilla" unicode="&#xb8;" 
d="M230 -114c12 0 35 -21 66 -21c26 0 44 12 44 29s-15 25 -46 25h-20v81h38v-47c41 -1 65 -23 65 -61c0 -39 -32 -65 -79 -65c-28 0 -88 15 -88 40c0 11 9 19 20 19z" />
    <glyph glyph-name="onesuperior" unicode="&#xb9;" 
d="M319 608v-317h71c12 0 20 -7 20 -18s-8 -18 -20 -18h-178c-13 0 -21 7 -21 18c0 13 10 19 31 19c8 0 39 0 61 -1v268l-65 -21c-4 -1 -7 -2 -9 -2c-8 0 -17 9 -17 18c0 15 0 15 127 54z" />
    <glyph glyph-name="ordmasculine" unicode="&#xba;" 
d="M301 577c82 0 147 -65 147 -148c0 -79 -67 -145 -147 -145c-81 0 -147 66 -147 147c0 80 66 146 147 146zM301 540c-61 0 -110 -49 -110 -109c0 -61 50 -110 110 -110s110 49 110 108c0 62 -48 111 -110 111z" />
    <glyph glyph-name="guillemotright" unicode="&#xbb;" 
d="M311 208l-207 -197c-8 -8 -14 -11 -21 -11c-11 0 -20 9 -20 20c0 7 1 9 11 20l142 168l-142 169c-10 11 -11 13 -11 20c0 11 9 20 20 20c6 0 13 -4 21 -11zM541 208l-207 -197c-8 -8 -14 -11 -21 -11c-11 0 -20 9 -20 20c0 7 1 9 11 20l142 168l-142 169
c-10 11 -11 13 -11 20c0 11 9 20 20 20c6 0 13 -4 21 -11z" />
    <glyph glyph-name="onequarter" unicode="&#xbc;" 
d="M144 612v-317h71c13 0 21 -7 21 -18s-9 -18 -21 -18h-178c-13 0 -21 7 -21 18c0 13 10 19 31 19c8 0 39 0 61 -1v268l-65 -21c-4 -1 -7 -2 -9 -2c-8 0 -17 9 -17 18c0 15 0 15 127 54zM492 477l-351 -414c-8 -10 -12 -12 -18 -12c-11 0 -20 9 -20 20c0 4 3 10 9 17
l350 414c9 10 12 12 18 12c11 0 20 -9 20 -20c0 -4 -3 -11 -8 -17zM453 18c0 17 12 18 46 18h11v57h-149v34l128 218h57v-216h13c13 0 21 -7 21 -18c0 -12 -9 -18 -25 -18h-9v-57h13c13 0 21 -7 21 -18s-8 -18 -21 -18h-85c-13 0 -21 7 -21 18zM510 129v180h-2l-107 -180
h109z" />
    <glyph glyph-name="onehalf" unicode="&#xbd;" 
d="M485 477l-351 -414c-8 -10 -12 -12 -18 -12c-11 0 -20 9 -20 20c0 4 3 10 9 17l350 414c9 10 12 12 18 12c11 0 20 -9 20 -20c0 -4 -3 -11 -8 -17zM151 612v-317h71c12 0 20 -7 20 -18s-8 -18 -20 -18h-178c-13 0 -21 7 -21 18c0 13 10 19 31 19c8 0 39 0 61 -1v268
l-65 -21c-4 -1 -7 -2 -9 -2c-8 0 -17 9 -17 18c0 15 0 15 127 54zM354 266c0 30 44 87 109 87c58 0 108 -47 108 -101c0 -43 -17 -63 -184 -216h150v3c0 12 7 20 18 20s18 -8 18 -20v-39h-230v43l132 123c50 50 60 64 60 86c0 35 -34 65 -72 65c-34 0 -65 -21 -74 -52
c-3 -11 -9 -16 -18 -16s-17 8 -17 17z" />
    <glyph glyph-name="threequarters" unicode="&#xbe;" 
d="M125 576c-63 0 -67 -37 -85 -37c-10 0 -18 8 -18 17c0 25 57 56 103 56c59 0 104 -40 104 -92c0 -30 -13 -52 -46 -74c39 -24 58 -52 58 -88c0 -59 -55 -107 -121 -107c-50 0 -114 30 -114 53c0 9 8 17 17 17c17 0 36 -34 97 -34c46 0 85 33 85 71c0 40 -39 72 -92 73
c-13 1 -21 7 -21 18c0 15 10 18 37 18c37 0 64 23 64 53c0 32 -29 56 -68 56zM491 477l-351 -414c-8 -10 -12 -12 -18 -12c-11 0 -20 9 -20 20c0 5 2 9 9 17l350 414c9 10 12 12 18 12c11 0 20 -9 20 -20c0 -4 -3 -11 -8 -17zM453 18c0 17 12 18 46 18h11v57h-149v34
l128 218h57v-216h13c13 0 21 -7 21 -18c0 -12 -9 -18 -25 -18h-9v-57h13c13 0 21 -7 21 -18s-8 -18 -21 -18h-85c-13 0 -21 7 -21 18zM510 129v180h-2l-107 -180h109z" />
    <glyph glyph-name="questiondown" unicode="&#xbf;" 
d="M466 -126c-97 -48 -145 -49 -175 -49c-106 0 -178 62 -178 154c0 74 40 117 165 176v41c0 18 7 27 20 27c14 0 21 -9 21 -27v-68c-116 -48 -165 -92 -165 -149c0 -66 59 -113 142 -113c45 0 76 8 129 34v41c0 18 7 27 20 27c14 0 21 -9 21 -27v-67zM313 317h-27
c-34 0 -57 21 -57 50s23 50 57 50h27c34 0 57 -20 57 -50s-23 -50 -57 -50z" />
    <glyph glyph-name="Agrave" unicode="&#xc0;" 
d="M207 766l114 -100c8.84082 -7.75488 12 -11.4004 12 -19c0 -12 -9 -21 -21 -21c-5 0 -11 3 -18 9l-114 100c-9 8 -12 12 -12 20c0 11 9 20 20 20c6 0 11 -3 19 -9zM428 188h-266l-54 -147h79c18 0 27 -7 27 -20c0 -14 -9 -21 -27 -21h-151c-18 0 -27 7 -27 21
c0 13 9 20 27 20h31l179 481h-120c-18 0 -27 7 -27 21c0 13 8.90918 20 27 20h204l197 -522h37c18 0 27 -7 27 -20c0 -14 -9 -21 -27 -21h-156c-18 0 -27 7 -27 21c0 13 9 20 27 20h76zM413 229l-112 293h-15l-108 -293h235z" />
    <glyph glyph-name="Aacute" unicode="&#xc1;" 
d="M395 732l-114 -100c-9 -7 -13 -9 -19 -9c-11 0 -20 9 -20 21c0 7 2 10 12 19l114 100c9 7 13 9 19 9c11 0 20 -9 20 -21c0 -7 -3 -11 -12 -19zM428 188h-266l-54 -147h79c18 0 27 -7 27 -20c0 -14 -9 -21 -27 -21h-151c-18 0 -27 7 -27 21c0 13 9 20 27 20h31l179 481
h-120c-18 0 -27 7 -27 21c0 13 8.90918 20 27 20h204l197 -522h37c18 0 27 -7 27 -20c0 -14 -9 -21 -27 -21h-156c-18 0 -27 7 -27 21c0 13 9 20 27 20h76zM413 229l-112 293h-15l-108 -293h235z" />
    <glyph glyph-name="Acircumflex" unicode="&#xc2;" 
d="M298 759l132 -108c11 -9 13 -13 13 -21c0 -11 -9 -20 -20 -20c-5 0 -11 3 -18 8l-107 88l-107 -88c-7 -5 -13 -8 -18 -8c-11 0 -20 9 -20 20c0 8 4 12 13 20zM428 188h-266l-54 -147h79c18 0 27 -7 27 -20c0 -14 -9 -21 -27 -21h-151c-18 0 -27 7 -27 21c0 13 9 20 27 20
h31l179 481h-120c-18 0 -27 7 -27 21c0 13 8.90918 20 27 20h204l197 -522h37c18 0 27 -7 27 -20c0 -14 -9 -21 -27 -21h-156c-18 0 -27 7 -27 21c0 13 9 20 27 20h76zM413 229l-112 293h-15l-108 -293h235z" />
    <glyph glyph-name="Atilde" unicode="&#xc3;" 
d="M364 655c33 0 56 46 73 46c10 0 20 -9 20 -20c0 -18 -51 -67 -91 -67c-47 0 -95 48 -124 48c-45 0 -47 -45 -75 -45c-11 0 -20 8 -20 19c0 23 54 67 94 67c43 0 94 -48 123 -48zM428 188h-266l-54 -147h79c18 0 27 -7 27 -20c0 -14 -9 -21 -27 -21h-151
c-18 0 -27 7 -27 21c0 13 9 20 27 20h31l179 481h-120c-18 0 -27 7 -27 21c0 13 8.90918 20 27 20h204l197 -522h37c18 0 27 -7 27 -20c0 -14 -9 -21 -27 -21h-156c-18 0 -27 7 -27 21c0 13 9 20 27 20h76zM413 229l-112 293h-15l-108 -293h235z" />
    <glyph glyph-name="Adieresis" unicode="&#xc4;" 
d="M187 709c28 0 50 -23 50 -51c0 -26 -23 -49 -50 -49s-50 23 -50 50s23 50 50 50zM408 709c28 0 50 -23 50 -51c0 -26 -23 -49 -50 -49s-50 23 -50 50s23 50 50 50zM428 188h-266l-54 -147h79c18 0 27 -7 27 -20c0 -14 -9 -21 -27 -21h-151c-18 0 -27 7 -27 21
c0 13 9 20 27 20h31l179 481h-120c-18 0 -27 7 -27 21c0 13 8.90918 20 27 20h204l197 -522h37c18 0 27 -7 27 -20c0 -14 -9 -21 -27 -21h-156c-18 0 -27 7 -27 21c0 13 9 20 27 20h76zM413 229l-112 293h-15l-108 -293h235z" />
    <glyph glyph-name="Aring" unicode="&#xc5;" 
d="M296 794c52 0 93 -40 93 -92c0 -48 -42 -89 -93 -89s-93 41 -93 91c0 49 42 90 93 90zM296 761c-33 0 -60 -26 -60 -57c0 -32 27 -58 60 -58s60 26 60 57c0 32 -27 58 -60 58zM428 188h-266l-54 -147h79c18 0 27 -7 27 -20c0 -14 -9 -21 -27 -21h-151c-18 0 -27 7 -27 21
c0 13 9 20 27 20h31l179 481h-120c-18 0 -27 7 -27 21c0 13 8.90918 20 27 20h204l197 -522h37c18 0 27 -7 27 -20c0 -14 -9 -21 -27 -21h-156c-18 0 -27 7 -27 21c0 13 9 20 27 20h76zM413 229l-112 293h-15l-108 -293h235z" />
    <glyph glyph-name="AE" unicode="&#xc6;" 
d="M297 189h-141l-41 -148h26c18 0 27 -7 27 -20c0 -14 -9 -21 -27 -21h-104c-18 0 -27 7 -27 21c0 13 9 20 27 20h37l133 481h-63c-18 0 -27 7 -27 21c0 13 9 20 27 20h426v-152c0 -18 -7 -27 -21 -27c-13 0 -20 9 -20 27v111h-191v-208h78v28c0 18 7 27 20 27
c14 0 20 -9 20 -27v-96c0 -18 -7 -27 -20 -27s-20 10 -20 27v27h-78v-232h211v93c0 19 6 26 20 26c13 0 21 -11 21 -26v-134h-345c-18 0 -27 7 -27 21c0 13 9 20 27 20h52v148zM297 230v292h-50l-80 -292h130z" />
    <glyph glyph-name="Ccedilla" unicode="&#xc7;" 
d="M63 325c0 53 42 251 242 251c66 0 126 -24 173 -69v29c0 18 7 27 21 27c13 0 20 -9 20 -27v-112c0 -18 -7 -27 -21 -27c-12 0 -19 8 -20 24c-4 61 -84 114 -173 114c-111 0 -201 -97 -201 -216v-71c0 -120 100 -223 218 -223c69 0 120 26 174 90c7 8 11 10 18 10
c12 0 20 -8 20 -19c0 -10 -12 -27 -38 -51c-46 -43 -111 -71 -166 -71h-13v-31c41 -1 65 -23 65 -61c0 -39 -32 -65 -79 -65c-28 0 -88 15 -88 40c0 11 9 19 20 19c12 0 35 -21 66 -21c26 0 44 12 44 29s-15 25 -46 25h-20v69c-158 39 -216 167 -216 254v83z" />
    <glyph glyph-name="Egrave" unicode="&#xc8;" 
d="M218 768l114 -100c8.84082 -7.75488 12 -11.4004 12 -19c0 -12 -9 -21 -21 -21c-5 0 -11 3 -18 9l-114 100c-9 8 -12 12 -12 20c0 11 9 20 20 20c6 0 11 -3 19 -9zM165 272v-231h314v119c0 18 7 27 21 27c13 0 20 -9 20 -27v-160h-450c-18 0 -27 7 -27 21
c0 13 9 20 27 20h54v481h-54c-18 0 -27 7 -27 21c0 13 9 20 27 20h429v-139c0 -18 -7 -27 -21 -27c-13 0 -20 9 -20 27v98h-293v-209h145v45c0 18 7 27 21 27c13 0 20 -9 20 -27v-131c0 -18 -7 -27 -20 -27c-14 0 -21 9 -21 27v45h-145z" />
    <glyph glyph-name="Eacute" unicode="&#xc9;" 
d="M377 735l-114 -100c-9 -7 -13 -9 -19 -9c-11 0 -20 9 -20 21c0 7 2 10 12 19l114 100c9 7 13 9 19 9c11 0 20 -9 20 -21c0 -7 -3 -11 -12 -19zM165 272v-231h314v119c0 18 7 27 21 27c13 0 20 -9 20 -27v-160h-450c-18 0 -27 7 -27 21c0 13 9 20 27 20h54v481h-54
c-18 0 -27 7 -27 21c0 13 9 20 27 20h429v-139c0 -18 -7 -27 -21 -27c-13 0 -20 9 -20 27v98h-293v-209h145v45c0 18 7 27 21 27c13 0 20 -9 20 -27v-131c0 -18 -7 -27 -20 -27c-14 0 -21 9 -21 27v45h-145z" />
    <glyph glyph-name="Ecircumflex" unicode="&#xca;" 
d="M288 755l132 -108c11 -9 13 -13 13 -21c0 -11 -9 -20 -20 -20c-5 0 -11 3 -18 8l-107 88l-107 -88c-7 -5 -13 -8 -18 -8c-11 0 -20 9 -20 20c0 8 4 12 13 20zM165 272v-231h314v119c0 18 7 27 21 27c13 0 20 -9 20 -27v-160h-450c-18 0 -27 7 -27 21c0 13 9 20 27 20h54
v481h-54c-18 0 -27 7 -27 21c0 13 9 20 27 20h429v-139c0 -18 -7 -27 -21 -27c-13 0 -20 9 -20 27v98h-293v-209h145v45c0 18 7 27 21 27c13 0 20 -9 20 -27v-131c0 -18 -7 -27 -20 -27c-14 0 -21 9 -21 27v45h-145z" />
    <glyph glyph-name="Edieresis" unicode="&#xcb;" 
d="M180 706c28 0 50 -23 50 -51c0 -26 -23 -49 -50 -49s-50 23 -50 50s23 50 50 50zM401 706c28 0 50 -23 50 -51c0 -26 -23 -49 -50 -49s-50 23 -50 50s23 50 50 50zM165 272v-231h314v119c0 18 7 27 21 27c13 0 20 -9 20 -27v-160h-450c-18 0 -27 7 -27 21
c0 13 9 20 27 20h54v481h-54c-18 0 -27 7 -27 21c0 13 9 20 27 20h429v-139c0 -18 -7 -27 -21 -27c-13 0 -20 9 -20 27v98h-293v-209h145v45c0 18 7 27 21 27c13 0 20 -9 20 -27v-131c0 -18 -7 -27 -20 -27c-14 0 -21 9 -21 27v45h-145z" />
    <glyph glyph-name="Igrave" unicode="&#xcc;" 
d="M234 768l114 -100c8.84082 -7.75488 12 -11.4004 12 -19c0 -12 -9 -21 -21 -21c-5 0 -11 3 -18 9l-114 100c-9 8 -12 12 -12 20c0 11 9 20 20 20c6 0 11 -3 19 -9zM320 522v-481h139c19 0 28 -7 28 -20c0 -14 -10 -21 -28 -21h-319c-18 0 -27 7 -27 21c0 13 9 20 27 20
h139v481h-139c-18 0 -27 7 -27 21c0 13 9 20 27 20h319c19 0 28 -7 28 -20c0 -14 -9 -21 -28 -21h-139z" />
    <glyph glyph-name="Iacute" unicode="&#xcd;" 
d="M423 734l-114 -100c-9 -7 -13 -9 -19 -9c-11 0 -20 9 -20 21c0 7 2 10 12 19l114 100c9 7 13 9 19 9c11 0 20 -9 20 -21c0 -7 -3 -11 -12 -19zM320 522v-481h139c19 0 28 -7 28 -20c0 -14 -10 -21 -28 -21h-319c-18 0 -27 7 -27 21c0 13 9 20 27 20h139v481h-139
c-18 0 -27 7 -27 21c0 13 9 20 27 20h319c19 0 28 -7 28 -20c0 -14 -9 -21 -28 -21h-139z" />
    <glyph glyph-name="Icircumflex" unicode="&#xce;" 
d="M300 760l132 -108c11 -9 13 -13 13 -21c0 -11 -9 -20 -20 -20c-5 0 -11 3 -18 8l-107 88l-107 -88c-7 -5 -13 -8 -18 -8c-11 0 -20 9 -20 20c0 8 4 12 13 20zM320 522v-481h139c19 0 28 -7 28 -20c0 -14 -10 -21 -28 -21h-319c-18 0 -27 7 -27 21c0 13 9 20 27 20h139
v481h-139c-18 0 -27 7 -27 21c0 13 9 20 27 20h319c19 0 28 -7 28 -20c0 -14 -9 -21 -28 -21h-139z" />
    <glyph glyph-name="Idieresis" unicode="&#xcf;" 
d="M189 708c28 0 50 -23 50 -51c0 -26 -23 -49 -50 -49s-50 23 -50 50s23 50 50 50zM410 708c28 0 50 -23 50 -51c0 -26 -23 -49 -50 -49s-50 23 -50 50s23 50 50 50zM320 522v-481h139c19 0 28 -7 28 -20c0 -14 -10 -21 -28 -21h-319c-18 0 -27 7 -27 21c0 13 9 20 27 20
h139v481h-139c-18 0 -27 7 -27 21c0 13 9 20 27 20h319c19 0 28 -7 28 -20c0 -14 -9 -21 -28 -21h-139z" />
    <glyph glyph-name="Eth" unicode="&#xd0;" 
d="M104 272h-77c-18 0 -27 7 -27 21c0 13 9 20 27 20h77v209h-34c-18 0 -27 7 -27 21c0 13 9 20 27 20h220c126 0 230 -115 230 -253v-56c0 -139 -104 -254 -230 -254h-220c-18 0 -27 7 -27 21c0 13 9 20 27 20h34v231zM479 319c0 41 -38 203 -191 203h-143v-209h162
c18 0 27 -7 27 -20c0 -14 -9 -21 -27 -21h-162v-231h150c94 0 184 99 184 204v74z" />
    <glyph glyph-name="Ntilde" unicode="&#xd1;" 
d="M354 657c33 0 56 46 73 46c10 0 20 -9 20 -20c0 -18 -51 -67 -91 -67c-47 0 -95 48 -124 48c-45 0 -47 -45 -75 -45c-11 0 -20 8 -20 19c0 23 54 67 94 67c43 0 94 -48 123 -48zM501 0h-52l-305 504v-463h75c18 0 27 -7 27 -20c0 -14 -10 -21 -27 -21h-150
c-18 0 -27 7 -27 21c0 13 9 20 27 20h34v481h-54c-18 0 -27 7 -27 21c0 13 9 20 27 20h106l305 -504v463h-74c-19 0 -28 7 -28 21c0 13 9 20 28 20h149c18 0 27 -7 27 -20c0 -14 -9 -21 -27 -21h-34v-522z" />
    <glyph glyph-name="Ograve" unicode="&#xd2;" 
d="M225 768l114 -100c8.84082 -7.75488 12 -11.4004 12 -19c0 -12 -9 -21 -21 -21c-5 0 -11 3 -18 9l-114 100c-9 8 -12 12 -12 20c0 11 9 20 20 20c6 0 11 -3 19 -9zM300 576c141 0 249 -130 249 -300c0 -161 -112 -292 -249 -292c-139 0 -249 131 -249 296
s110 296 249 296zM300 535c-115 0 -208 -115 -208 -255s94 -255 208 -255c113 0 208 115 208 252c0 144 -92 258 -208 258z" />
    <glyph glyph-name="Oacute" unicode="&#xd3;" 
d="M393 738l-114 -100c-9 -7 -13 -9 -19 -9c-11 0 -20 9 -20 21c0 7 2 10 12 19l114 100c9 7 13 9 19 9c11 0 20 -9 20 -21c0 -7 -3 -11 -12 -19zM300 576c141 0 249 -130 249 -300c0 -161 -112 -292 -249 -292c-139 0 -249 131 -249 296s110 296 249 296zM300 535
c-115 0 -208 -115 -208 -255s94 -255 208 -255c113 0 208 115 208 252c0 144 -92 258 -208 258z" />
    <glyph glyph-name="Ocircumflex" unicode="&#xd4;" 
d="M300 759l132 -108c11 -9 13 -13 13 -21c0 -11 -9 -20 -20 -20c-5 0 -11 3 -18 8l-107 88l-107 -88c-7 -5 -13 -8 -18 -8c-11 0 -20 9 -20 20c0 8 4 12 13 20zM300 576c141 0 249 -130 249 -300c0 -161 -112 -292 -249 -292c-139 0 -249 131 -249 296s110 296 249 296z
M300 535c-115 0 -208 -115 -208 -255s94 -255 208 -255c113 0 208 115 208 252c0 144 -92 258 -208 258z" />
    <glyph glyph-name="Otilde" unicode="&#xd5;" 
d="M362 655c33 0 56 46 73 46c10 0 20 -9 20 -20c0 -18 -51 -67 -91 -67c-47 0 -95 48 -124 48c-45 0 -47 -45 -75 -45c-11 0 -20 8 -20 19c0 23 54 67 94 67c43 0 94 -48 123 -48zM300 576c141 0 249 -130 249 -300c0 -161 -112 -292 -249 -292c-139 0 -249 131 -249 296
s110 296 249 296zM300 535c-115 0 -208 -115 -208 -255s94 -255 208 -255c113 0 208 115 208 252c0 144 -92 258 -208 258z" />
    <glyph glyph-name="Odieresis" unicode="&#xd6;" 
d="M190 707c28 0 50 -23 50 -51c0 -26 -23 -49 -50 -49s-50 23 -50 50s23 50 50 50zM411 707c28 0 50 -23 50 -51c0 -26 -23 -49 -50 -49s-50 23 -50 50s23 50 50 50zM300 576c141 0 249 -130 249 -300c0 -161 -112 -292 -249 -292c-139 0 -249 131 -249 296
s110 296 249 296zM300 535c-115 0 -208 -115 -208 -255s94 -255 208 -255c113 0 208 115 208 252c0 144 -92 258 -208 258z" />
    <glyph glyph-name="multiply" unicode="&#xd7;" 
d="M300 311l142 142c9 9 13 11 19 11c11 0 21 -9 21 -21c0 -6 -3 -11 -11 -19l-142 -142l142 -143c9 -8 11 -12 11 -19c0 -11 -9 -20 -21 -20c-6 0 -11 2 -19 10l-142 143l-142 -143c-8 -7 -13 -10 -19 -10c-12 0 -21 9 -21 20c0 7 3 12 10 19l143 143l-143 142
c-7 8 -10 13 -10 19c0 12 9 21 21 21c6 0 10 -3 18 -11z" />
    <glyph glyph-name="Oslash" unicode="&#xd8;" 
d="M141 51l-65 -82c-7 -9 -12 -12 -18 -12c-10 0 -18 8 -18 18c0 4 1 7 8 16l69 87c-45 60 -66 126 -66 202c0 166 110 296 249 296c60 0 109 -21 158 -66l66 83c7 9 11 12 18 12c10 0 18 -8 18 -18c0 -5 -2 -8 -8 -16l-70 -88c43 -53 67 -127 67 -203
c0 -165 -110 -296 -249 -296c-60 0 -114 23 -159 67zM144 112l288 364c-40 40 -83 59 -132 59c-115 0 -208 -115 -208 -255c0 -62 17 -116 52 -168zM456 449l-289 -365c39 -39 84 -59 133 -59c114 0 208 115 208 255c0 63 -18 120 -52 169z" />
    <glyph glyph-name="Ugrave" unicode="&#xd9;" 
d="M225 768l114 -100c8.84082 -7.75488 12 -11.4004 12 -19c0 -12 -9 -21 -21 -21c-5 0 -11 3 -18 9l-114 100c-9 8 -12 12 -12 20c0 11 9 20 20 20c6 0 11 -3 19 -9zM499 522v-337c0 -114 -87 -201 -199 -201c-113 0 -199 87 -199 201v337h-34c-18 0 -27 7 -27 21
s9 20 27 20h149c18 0 27 -7 27 -20c0 -14 -9 -21 -27 -21h-74v-337c0 -90 69 -160 158 -160c88 0 158 70 158 160v337h-74c-18 0 -27 7 -27 21s8 20 27 20h149c19 0 27 -6 27 -20s-9 -21 -27 -21h-34z" />
    <glyph glyph-name="Uacute" unicode="&#xda;" 
d="M393 735l-114 -100c-9 -7 -13 -9 -19 -9c-11 0 -20 9 -20 21c0 7 2 10 12 19l114 100c9 7 13 9 19 9c11 0 20 -9 20 -21c0 -7 -3 -11 -12 -19zM499 522v-337c0 -114 -87 -201 -199 -201c-113 0 -199 87 -199 201v337h-34c-18 0 -27 7 -27 21s9 20 27 20h149
c18 0 27 -7 27 -20c0 -14 -9 -21 -27 -21h-74v-337c0 -90 69 -160 158 -160c88 0 158 70 158 160v337h-74c-18 0 -27 7 -27 21s8 20 27 20h149c19 0 27 -6 27 -20s-9 -21 -27 -21h-34z" />
    <glyph glyph-name="Ucircumflex" unicode="&#xdb;" 
d="M300 759l132 -108c11 -9 13 -13 13 -21c0 -11 -9 -20 -20 -20c-5 0 -11 3 -18 8l-107 88l-107 -88c-7 -5 -13 -8 -18 -8c-11 0 -20 9 -20 20c0 8 4 12 13 20zM499 522v-337c0 -114 -87 -201 -199 -201c-113 0 -199 87 -199 201v337h-34c-18 0 -27 7 -27 21s9 20 27 20
h149c18 0 27 -7 27 -20c0 -14 -9 -21 -27 -21h-74v-337c0 -90 69 -160 158 -160c88 0 158 70 158 160v337h-74c-18 0 -27 7 -27 21s8 20 27 20h149c19 0 27 -6 27 -20s-9 -21 -27 -21h-34z" />
    <glyph glyph-name="Udieresis" unicode="&#xdc;" 
d="M190 707c28 0 50 -23 50 -51c0 -26 -23 -49 -50 -49s-50 23 -50 50s23 50 50 50zM411 707c28 0 50 -23 50 -51c0 -26 -23 -49 -50 -49s-50 23 -50 50s23 50 50 50zM499 522v-337c0 -114 -87 -201 -199 -201c-113 0 -199 87 -199 201v337h-34c-18 0 -27 7 -27 21
s9 20 27 20h149c18 0 27 -7 27 -20c0 -14 -9 -21 -27 -21h-74v-337c0 -90 69 -160 158 -160c88 0 158 70 158 160v337h-74c-18 0 -27 7 -27 21s8 20 27 20h149c19 0 27 -6 27 -20s-9 -21 -27 -21h-34z" />
    <glyph glyph-name="Yacute" unicode="&#xdd;" 
d="M393 738l-114 -100c-9 -7 -13 -9 -19 -9c-11 0 -20 9 -20 21c0 7 2 10 12 19l114 100c9 7 13 9 19 9c11 0 20 -9 20 -21c0 -7 -3 -11 -12 -19zM322 254v-213h105c18 0 27 -7 27 -20c0 -14 -9 -21 -27 -21h-251c-18 0 -27 7 -27 21c0 13 9 20 27 20h105v213l-179 268h-24
c-18 0 -27 7 -27 21c0 13 9 20 27 20h111c18 0 27 -7 27 -20c0 -14 -9 -21 -27 -21h-38l152 -227l149 227h-40c-19 0 -28 7 -28 21c0 13 9 20 28 20h110c17 0 27 -8 27 -20c0 -13 -11 -21 -27 -21h-24z" />
    <glyph glyph-name="Thorn" unicode="&#xde;" 
d="M165 111v-70h138c19 0 28 -7 28 -20c0 -14 -10 -21 -28 -21h-233c-18 0 -27 7 -27 21c0 13 9 20 27 20h54v481h-54c-18 0 -27 7 -27 21c0 13 9 20 27 20h233c19 0 28 -7 28 -20c0 -14 -9 -21 -28 -21h-138v-79h145c106 0 189 -72 189 -165s-89 -167 -203 -167h-131z
M165 152h134c87 0 159 57 159 126c0 68 -65 124 -144 124h-149v-250z" />
    <glyph glyph-name="germandbls" unicode="&#xdf;" 
d="M456 162c0 137 -140 172 -187 172h-5c-18 0 -27 7 -27 21c0 12 9 20 23 20h5c51 0 96 40 96 84c0 57 -52 104 -110 104c-56 0 -106 -44 -106 -93v-429h15c18 0 27 -7 27 -20c0 -14 -9 -21 -27 -21h-110c-18 0 -27 7 -27 21c0 13 9 20 27 20h54v429c0 71 69 134 147 134
c85 0 151 -62 151 -146c0 -41 -18 -72 -58 -99c90 -27 153 -89 153 -198c0 -111 -50 -177 -137 -177c-68 0 -121 51 -121 117c0 14 8 23 20 23c35 0 15 -99 101 -99c61 0 96 47 96 137z" />
    <glyph glyph-name="agrave" unicode="&#xe0;" 
d="M214 631l114 -100c8.84082 -7.75488 12 -11.4004 12 -19c0 -12 -9 -21 -21 -21c-5 0 -11 3 -18 9l-114 100c-9 8 -12 12 -12 20c0 11 9 20 20 20c6 0 11 -3 19 -9zM125 378c0 33 141 53 174 53c93 0 161 -52 161 -123v-267h54c18 0 27 -7 27 -20c0 -14 -9 -21 -27 -21
h-95v67c-61 -57 -121 -83 -191 -83c-93 0 -156 52 -156 128c0 87 86 146 211 146c46 0 77 -5 136 -21v71c0 49 -50 82 -123 82c-80 0 -123 -32 -152 -32c-10 0 -19 9 -19 20zM419 112v90c-36 9 -84 15 -128 15c-106 0 -178 -43 -178 -106c0 -52 45 -86 114 -86
c71 0 125 24 192 87z" />
    <glyph glyph-name="aacute" unicode="&#xe1;" 
d="M382 600l-114 -100c-9 -7 -13 -9 -19 -9c-11 0 -20 9 -20 21c0 7 2 10 12 19l114 100c9 7 13 9 19 9c11 0 20 -9 20 -21c0 -7 -3 -11 -12 -19zM125 378c0 33 141 53 174 53c93 0 161 -52 161 -123v-267h54c18 0 27 -7 27 -20c0 -14 -9 -21 -27 -21h-95v67
c-61 -57 -121 -83 -191 -83c-93 0 -156 52 -156 128c0 87 86 146 211 146c46 0 77 -5 136 -21v71c0 49 -50 82 -123 82c-80 0 -123 -32 -152 -32c-10 0 -19 9 -19 20zM419 112v90c-36 9 -84 15 -128 15c-106 0 -178 -43 -178 -106c0 -52 45 -86 114 -86c71 0 125 24 192 87z
" />
    <glyph glyph-name="acircumflex" unicode="&#xe2;" 
d="M289 626l132 -108c11 -9 13 -13 13 -21c0 -11 -9 -20 -20 -20c-5 0 -11 3 -18 8l-107 88l-107 -88c-7 -5 -13 -8 -18 -8c-11 0 -20 9 -20 20c0 8 4 12 13 20zM125 378c0 33 141 53 174 53c93 0 161 -52 161 -123v-267h54c18 0 27 -7 27 -20c0 -14 -9 -21 -27 -21h-95v67
c-61 -57 -121 -83 -191 -83c-93 0 -156 52 -156 128c0 87 86 146 211 146c46 0 77 -5 136 -21v71c0 49 -50 82 -123 82c-80 0 -123 -32 -152 -32c-10 0 -19 9 -19 20zM419 112v90c-36 9 -84 15 -128 15c-106 0 -178 -43 -178 -106c0 -52 45 -86 114 -86c71 0 125 24 192 87z
" />
    <glyph glyph-name="atilde" unicode="&#xe3;" 
d="M361 532c33 0 56 46 73 46c10 0 20 -9 20 -20c0 -18 -51 -67 -91 -67c-47 0 -95 48 -124 48c-45 0 -47 -45 -75 -45c-11 0 -20 8 -20 19c0 23 54 67 94 67c43 0 94 -48 123 -48zM125 378c0 33 141 53 174 53c93 0 161 -52 161 -123v-267h54c18 0 27 -7 27 -20
c0 -14 -9 -21 -27 -21h-95v67c-61 -57 -121 -83 -191 -83c-93 0 -156 52 -156 128c0 87 86 146 211 146c46 0 77 -5 136 -21v71c0 49 -50 82 -123 82c-80 0 -123 -32 -152 -32c-10 0 -19 9 -19 20zM419 112v90c-36 9 -84 15 -128 15c-106 0 -178 -43 -178 -106
c0 -52 45 -86 114 -86c71 0 125 24 192 87z" />
    <glyph glyph-name="adieresis" unicode="&#xe4;" 
d="M178 591c28 0 50 -23 50 -51c0 -26 -23 -49 -50 -49s-50 23 -50 50s23 50 50 50zM399 591c28 0 50 -23 50 -51c0 -26 -23 -49 -50 -49s-50 23 -50 50s23 50 50 50zM125 378c0 33 141 53 174 53c93 0 161 -52 161 -123v-267h54c18 0 27 -7 27 -20c0 -14 -9 -21 -27 -21
h-95v67c-61 -57 -121 -83 -191 -83c-93 0 -156 52 -156 128c0 87 86 146 211 146c46 0 77 -5 136 -21v71c0 49 -50 82 -123 82c-80 0 -123 -32 -152 -32c-10 0 -19 9 -19 20zM419 112v90c-36 9 -84 15 -128 15c-106 0 -178 -43 -178 -106c0 -52 45 -86 114 -86
c71 0 125 24 192 87z" />
    <glyph glyph-name="aring" unicode="&#xe5;" 
d="M299 672c52 0 93 -40 93 -92c0 -48 -42 -89 -93 -89s-93 41 -93 91c0 49 42 90 93 90zM299 639c-33 0 -60 -26 -60 -57c0 -32 27 -58 60 -58s60 26 60 57c0 32 -27 58 -60 58zM125 378c0 33 141 53 174 53c93 0 161 -52 161 -123v-267h54c18 0 27 -7 27 -20
c0 -14 -9 -21 -27 -21h-95v67c-61 -57 -121 -83 -191 -83c-93 0 -156 52 -156 128c0 87 86 146 211 146c46 0 77 -5 136 -21v71c0 49 -50 82 -123 82c-80 0 -123 -32 -152 -32c-10 0 -19 9 -19 20zM419 112v90c-36 9 -84 15 -128 15c-106 0 -178 -43 -178 -106
c0 -52 45 -86 114 -86c71 0 125 24 192 87z" />
    <glyph glyph-name="ae" unicode="&#xe6;" 
d="M71 378c0 32 99 53 128 53c49 0 94 -33 113 -84c24 52 70 84 118 84c103 0 144 -99 147 -232h-258c7 -102 60 -174 127 -174c57 0 90 62 112 62c11 0 20 -10 20 -20c0 -19 -74 -83 -134 -83c-46 0 -92 28 -124 77v-34c0 -18 -7 -27 -20 -27s-20 9 -20 27v25
c-39 -47 -76 -68 -120 -68c-85 0 -148 63 -148 148c0 73 83 125 183 125c28 0 56 -4 85 -12v60c0 47 -39 85 -88 85c-61 0 -83 -32 -102 -32c-9 0 -19 11 -19 20zM280 110v93c-27 8 -56 13 -79 13c-43 0 -101 -19 -123 -40c-14 -14 -21 -31 -21 -55c0 -56 44 -96 105 -96
c37 0 71 25 118 85zM535 240c-7 56 -21 150 -106 150c-60 0 -96 -50 -109 -150h215z" />
    <glyph glyph-name="ccedilla" unicode="&#xe7;" 
d="M535 88c0 -21 -70 -96 -220 -104v-31c41 -1 65 -23 65 -61c0 -39 -32 -65 -79 -65c-30 0 -88 17 -88 39c0 11 9 20 20 20c13 0 35 -21 66 -21c26 0 44 12 44 29s-15 25 -45 25h-21v67c-176 25 -193 172 -193 218c0 132 96 227 230 227c62 0 115 -19 156 -55v13
c0 19 7 28 21 28c13 0 20 -9 20 -28v-91c0 -18 -7 -27 -20 -27s-20 7 -21 24c-5 53 -75 95 -159 95c-110 0 -186 -75 -186 -185c0 -105 77 -180 186 -180c73 0 135 24 187 72c8 8 11 10 18 10c10 0 19 -9 19 -19z" />
    <glyph glyph-name="egrave" unicode="&#xe8;" 
d="M226 631l114 -100c8.84082 -7.75488 12 -11.4004 12 -19c0 -12 -9 -21 -21 -21c-5 0 -11 3 -18 9l-114 100c-9 8 -12 12 -12 20c0 11 9 20 20 20c6 0 11 -3 19 -9zM520 199h-416c14 -105 94 -174 202 -174c62 0 135 22 175 54c7 5 11 7 16 7c10 0 19 -9 19 -20
c0 -35 -120 -82 -211 -82c-135 0 -242 103 -242 233c0 121 100 214 228 214c133 0 229 -91 229 -232zM104 240h374c-16 91 -90 150 -187 150s-169 -58 -187 -150z" />
    <glyph glyph-name="eacute" unicode="&#xe9;" 
d="M394 600l-114 -100c-9 -7 -13 -9 -19 -9c-11 0 -20 9 -20 21c0 7 2 10 12 19l114 100c9 7 13 9 19 9c11 0 20 -9 20 -21c0 -7 -3 -11 -12 -19zM520 199h-416c14 -105 94 -174 202 -174c62 0 135 22 175 54c7 5 11 7 16 7c10 0 19 -9 19 -20c0 -35 -120 -82 -211 -82
c-135 0 -242 103 -242 233c0 121 100 214 228 214c133 0 229 -91 229 -232zM104 240h374c-16 91 -90 150 -187 150s-169 -58 -187 -150z" />
    <glyph glyph-name="ecircumflex" unicode="&#xea;" 
d="M303 624l132 -108c11 -9 13 -13 13 -21c0 -11 -9 -20 -20 -20c-5 0 -11 3 -18 8l-107 88l-107 -88c-7 -5 -13 -8 -18 -8c-11 0 -20 9 -20 20c0 8 4 12 13 20zM520 199h-416c14 -105 94 -174 202 -174c62 0 135 22 175 54c7 5 11 7 16 7c10 0 19 -9 19 -20
c0 -35 -120 -82 -211 -82c-135 0 -242 103 -242 233c0 121 100 214 228 214c133 0 229 -91 229 -232zM104 240h374c-16 91 -90 150 -187 150s-169 -58 -187 -150z" />
    <glyph glyph-name="edieresis" unicode="&#xeb;" 
d="M194 591c28 0 50 -23 50 -51c0 -26 -23 -49 -50 -49s-50 23 -50 50s23 50 50 50zM415 591c28 0 50 -23 50 -51c0 -26 -23 -49 -50 -49s-50 23 -50 50s23 50 50 50zM520 199h-416c14 -105 94 -174 202 -174c62 0 135 22 175 54c7 5 11 7 16 7c10 0 19 -9 19 -20
c0 -35 -120 -82 -211 -82c-135 0 -242 103 -242 233c0 121 100 214 228 214c133 0 229 -91 229 -232zM104 240h374c-16 91 -90 150 -187 150s-169 -58 -187 -150z" />
    <glyph glyph-name="igrave" unicode="&#xec;" 
d="M215 631l114 -100c8.84082 -7.75488 12 -11.4004 12 -19c0 -12 -9 -21 -21 -21c-5 0 -11 3 -18 9l-114 100c-9 8 -12 12 -12 20c0 11 9 20 20 20c6 0 11 -3 19 -9zM320 417v-376h160c19 0 28 -7 28 -20c0 -14 -10 -21 -28 -21h-361c-18 0 -27 7 -27 21c0 13 9 20 27 20
h160v335h-118c-18 0 -27 7 -27 21c0 13 9 20 27 20h159z" />
    <glyph glyph-name="iacute" unicode="&#xed;" 
d="M382 600l-114 -100c-9 -7 -13 -9 -19 -9c-11 0 -20 9 -20 21c0 7 2 10 12 19l114 100c9 7 13 9 19 9c11 0 20 -9 20 -21c0 -7 -3 -11 -12 -19zM320 417v-376h160c19 0 28 -7 28 -20c0 -14 -10 -21 -28 -21h-361c-18 0 -27 7 -27 21c0 13 9 20 27 20h160v335h-118
c-18 0 -27 7 -27 21c0 13 9 20 27 20h159z" />
    <glyph glyph-name="icircumflex" unicode="&#xee;" 
d="M281 628l132 -108c11 -9 13 -13 13 -21c0 -11 -9 -20 -20 -20c-5 0 -11 3 -18 8l-107 88l-107 -88c-7 -5 -13 -8 -18 -8c-11 0 -20 9 -20 20c0 8 4 12 13 20zM320 417v-376h160c19 0 28 -7 28 -20c0 -14 -10 -21 -28 -21h-361c-18 0 -27 7 -27 21c0 13 9 20 27 20h160
v335h-118c-18 0 -27 7 -27 21c0 13 9 20 27 20h159z" />
    <glyph glyph-name="idieresis" unicode="&#xef;" 
d="M176 591c28 0 50 -23 50 -51c0 -26 -23 -49 -50 -49s-50 23 -50 50s23 50 50 50zM397 591c28 0 50 -23 50 -51c0 -26 -23 -49 -50 -49s-50 23 -50 50s23 50 50 50zM320 417v-376h160c19 0 28 -7 28 -20c0 -14 -10 -21 -28 -21h-361c-18 0 -27 7 -27 21c0 13 9 20 27 20
h160v335h-118c-18 0 -27 7 -27 21c0 13 9 20 27 20h159z" />
    <glyph glyph-name="eth" unicode="&#xf0;" 
d="M277 549c-94 40 -118 26 -118 49c0 13 9 22 21 22c27 0 89 -20 148 -48l95 42l7 1c10 0 19 -9 19 -21c0 -8 -4 -15 -9 -17l-75 -34c100 -86 163 -212 163 -322c0 -149 -104 -238 -228 -238c-127 0 -228 99 -228 224c0 123 101 223 226 223c55 0 92 -14 146 -53
c-34 64 -79 118 -121 148l-91 -42c-2 -1 -4 -1 -7 -1c-10 0 -20 11 -20 23c0 7 3 14 9 16zM301 390c-104 0 -187 -81 -187 -182c0 -102 83 -183 187 -183c103 0 187 81 187 180c0 105 -82 185 -187 185z" />
    <glyph glyph-name="ntilde" unicode="&#xf1;" 
d="M352 532c33 0 56 46 73 46c10 0 20 -9 20 -20c0 -18 -51 -67 -91 -67c-47 0 -95 48 -124 48c-45 0 -47 -45 -75 -45c-11 0 -20 8 -20 19c0 23 54 67 94 67c43 0 94 -48 123 -48zM319 390c-89 0 -130 -68 -152 -96v-253h45c18 0 27 -7 27 -20c0 -14 -9 -21 -27 -21h-131
c-19 0 -28 7 -28 21c0 13 9 20 28 20h45v335h-34c-18 0 -27 7 -27 21c0 13 9 20 27 20h75v-69c58 64 94 83 156 83c89 0 157 -59 157 -136v-254h34c18 0 27 -7 27 -20c0 -14 -9 -21 -27 -21h-109c-18 0 -27 7 -27 21c0 13 9 20 27 20h34v247c0 56 -45 102 -120 102z" />
    <glyph glyph-name="ograve" unicode="&#xf2;" 
d="M228 631l114 -100c8.84082 -7.75488 12 -11.4004 12 -19c0 -12 -9 -21 -21 -21c-5 0 -11 3 -18 9l-114 100c-9 8 -12 12 -12 20c0 11 9 20 20 20c6 0 11 -3 19 -9zM300 431c128 0 228 -99 228 -226c0 -122 -102 -221 -228 -221c-127 0 -228 99 -228 224
c0 123 101 223 228 223zM300 390c-104 0 -187 -81 -187 -182c0 -102 83 -183 187 -183c103 0 187 81 187 180c0 105 -82 185 -187 185z" />
    <glyph glyph-name="oacute" unicode="&#xf3;" 
d="M388 600l-114 -100c-9 -7 -13 -9 -19 -9c-11 0 -20 9 -20 21c0 7 2 10 12 19l114 100c9 7 13 9 19 9c11 0 20 -9 20 -21c0 -7 -3 -11 -12 -19zM300 431c128 0 228 -99 228 -226c0 -122 -102 -221 -228 -221c-127 0 -228 99 -228 224c0 123 101 223 228 223zM300 390
c-104 0 -187 -81 -187 -182c0 -102 83 -183 187 -183c103 0 187 81 187 180c0 105 -82 185 -187 185z" />
    <glyph glyph-name="ocircumflex" unicode="&#xf4;" 
d="M300 630l132 -108c11 -9 13 -13 13 -21c0 -11 -9 -20 -20 -20c-5 0 -11 3 -18 8l-107 88l-107 -88c-7 -5 -13 -8 -18 -8c-11 0 -20 9 -20 20c0 8 4 12 13 20zM300 431c128 0 228 -99 228 -226c0 -122 -102 -221 -228 -221c-127 0 -228 99 -228 224c0 123 101 223 228 223
zM300 390c-104 0 -187 -81 -187 -182c0 -102 83 -183 187 -183c103 0 187 81 187 180c0 105 -82 185 -187 185z" />
    <glyph glyph-name="otilde" unicode="&#xf5;" 
d="M362 532c33 0 56 46 73 46c10 0 20 -9 20 -20c0 -18 -51 -67 -91 -67c-47 0 -95 48 -124 48c-45 0 -47 -45 -75 -45c-11 0 -20 8 -20 19c0 23 54 67 94 67c43 0 94 -48 123 -48zM300 431c128 0 228 -99 228 -226c0 -122 -102 -221 -228 -221c-127 0 -228 99 -228 224
c0 123 101 223 228 223zM300 390c-104 0 -187 -81 -187 -182c0 -102 83 -183 187 -183c103 0 187 81 187 180c0 105 -82 185 -187 185z" />
    <glyph glyph-name="odieresis" unicode="&#xf6;" 
d="M190 591c28 0 50 -23 50 -51c0 -26 -23 -49 -50 -49s-50 23 -50 50s23 50 50 50zM411 591c28 0 50 -23 50 -51c0 -26 -23 -49 -50 -49s-50 23 -50 50s23 50 50 50zM300 431c128 0 228 -99 228 -226c0 -122 -102 -221 -228 -221c-127 0 -228 99 -228 224
c0 123 101 223 228 223zM300 390c-104 0 -187 -81 -187 -182c0 -102 83 -183 187 -183c103 0 187 81 187 180c0 105 -82 185 -187 185z" />
    <glyph glyph-name="divide" unicode="&#xf7;" 
d="M501 262h-402c-18 0 -27 7 -27 20s9 20 27 20h402c18 0 27 -7 27 -20s-9 -20 -27 -20zM300 124c28 0 50 -22 50 -50c0 -27 -23 -49 -50 -49s-49 22 -49 50c0 26 22 49 49 49zM300 540c28 0 50 -22 50 -50c0 -27 -23 -49 -50 -49s-49 22 -49 50c0 26 22 49 49 49z" />
    <glyph glyph-name="oslash" unicode="&#xf8;" 
d="M154 35l-66 -68c-8 -8 -12 -10 -17 -10c-10 0 -18 8 -18 18c0 5 2 9 10 17l66 67c-37 43 -57 94 -57 149c0 124 101 223 228 223c54 0 102 -16 144 -49l64 66c9 8 12 10 18 10c9 0 17 -8 17 -18c0 -5 -2 -9 -10 -17l-64 -65c39 -43 59 -94 59 -151
c0 -124 -101 -223 -228 -223c-55 0 -102 17 -146 51zM441 329l-258 -264c33 -26 73 -40 117 -40c104 0 187 81 187 182c0 46 -16 87 -46 122zM158 89l257 263c-33 25 -72 38 -115 38c-104 0 -187 -81 -187 -182c0 -44 16 -86 45 -119z" />
    <glyph glyph-name="ugrave" unicode="&#xf9;" 
d="M220 631l114 -100c8.84082 -7.75488 12 -11.4004 12 -19c0 -12 -9 -21 -21 -21c-5 0 -11 3 -18 9l-114 100c-9 8 -12 12 -12 20c0 11 9 20 20 20c6 0 11 -3 19 -9zM439 0v66c-55 -54 -116 -82 -182 -82c-80 0 -133 52 -133 131v261h-54c-18 0 -27 7 -27 21
c0 13 9 20 27 20h95v-302c0 -50 40 -90 91 -90c67 0 128 30 183 90v261h-74c-19 0 -28 7 -28 21c0 13 9 20 28 20h115v-376h34c18 0 27 -7 27 -20c0 -14 -9 -21 -27 -21h-75z" />
    <glyph glyph-name="uacute" unicode="&#xfa;" 
d="M373 600l-114 -100c-9 -7 -13 -9 -19 -9c-11 0 -20 9 -20 21c0 7 2 10 12 19l114 100c9 7 13 9 19 9c11 0 20 -9 20 -21c0 -7 -3 -11 -12 -19zM439 0v66c-55 -54 -116 -82 -182 -82c-80 0 -133 52 -133 131v261h-54c-18 0 -27 7 -27 21c0 13 9 20 27 20h95v-302
c0 -50 40 -90 91 -90c67 0 128 30 183 90v261h-74c-19 0 -28 7 -28 21c0 13 9 20 28 20h115v-376h34c18 0 27 -7 27 -20c0 -14 -9 -21 -27 -21h-75z" />
    <glyph glyph-name="ucircumflex" unicode="&#xfb;" 
d="M294 626l132 -108c11 -9 13 -13 13 -21c0 -11 -9 -20 -20 -20c-5 0 -11 3 -18 8l-107 88l-107 -88c-7 -5 -13 -8 -18 -8c-11 0 -20 9 -20 20c0 8 4 12 13 20zM439 0v66c-55 -54 -116 -82 -182 -82c-80 0 -133 52 -133 131v261h-54c-18 0 -27 7 -27 21c0 13 9 20 27 20h95
v-302c0 -50 40 -90 91 -90c67 0 128 30 183 90v261h-74c-19 0 -28 7 -28 21c0 13 9 20 28 20h115v-376h34c18 0 27 -7 27 -20c0 -14 -9 -21 -27 -21h-75z" />
    <glyph glyph-name="udieresis" unicode="&#xfc;" 
d="M182 591c28 0 50 -23 50 -51c0 -26 -23 -49 -50 -49s-50 23 -50 50s23 50 50 50zM403 591c28 0 50 -23 50 -51c0 -26 -23 -49 -50 -49s-50 23 -50 50s23 50 50 50zM439 0v66c-55 -54 -116 -82 -182 -82c-80 0 -133 52 -133 131v261h-54c-18 0 -27 7 -27 21
c0 13 9 20 27 20h95v-302c0 -50 40 -90 91 -90c67 0 128 30 183 90v261h-74c-19 0 -28 7 -28 21c0 13 9 20 28 20h115v-376h34c18 0 27 -7 27 -20c0 -14 -9 -21 -27 -21h-75z" />
    <glyph glyph-name="yacute" unicode="&#xfd;" 
d="M423 600l-114 -100c-9 -7 -13 -9 -19 -9c-11 0 -20 9 -20 21c0 7 2 10 12 19l114 100c9 7 13 9 19 9c11 0 20 -9 20 -21c0 -7 -3 -11 -12 -19zM282 0l-188 376h-16c-18 0 -27 7 -27 21c0 13 9 20 27 20h115c18 0 27 -7 27 -20c0 -14 -9 -21 -27 -21h-52l164 -331l161 331
h-54c-18 0 -27 7 -27 21c0 13 9 20 27 20h110c18 0 27 -7 27 -20c0 -14 -9 -21 -27 -21h-14l-256 -521h65c18 0 27 -7 27 -20c0 -14 -9 -21 -27 -21h-233c-18 0 -27 7 -27 21c0 13 9 20 27 20h127z" />
    <glyph glyph-name="thorn" unicode="&#xfe;" 
d="M144 590v-255c53 69 103 96 179 96c124 0 218 -91 218 -210s-95 -211 -218 -211c-77 0 -133 30 -179 96v-251h98c18 0 27 -7 27 -20c0 -14 -9 -21 -27 -21h-193c-18 0 -27 7 -27 21c0 13 9 20 27 20h54v694h-54c-18 0 -27 7 -27 21c0 13 9 20 27 20h95zM322 390
c-99 0 -178 -75 -178 -169c0 -95 79 -170 178 -170c98 0 178 75 178 168c0 97 -77 171 -178 171z" />
    <glyph glyph-name="ydieresis" unicode="&#xff;" 
d="M190 591c28 0 50 -23 50 -51c0 -26 -23 -49 -50 -49s-50 23 -50 50s23 50 50 50zM411 591c28 0 50 -23 50 -51c0 -26 -23 -49 -50 -49s-50 23 -50 50s23 50 50 50zM282 0l-188 376h-16c-18 0 -27 7 -27 21c0 13 9 20 27 20h115c18 0 27 -7 27 -20c0 -14 -9 -21 -27 -21
h-52l164 -331l161 331h-54c-18 0 -27 7 -27 21c0 13 9 20 27 20h110c18 0 27 -7 27 -20c0 -14 -9 -21 -27 -21h-14l-256 -521h65c18 0 27 -7 27 -20c0 -14 -9 -21 -27 -21h-233c-18 0 -27 7 -27 21c0 13 9 20 27 20h127z" />
    <glyph glyph-name="Amacron" unicode="&#x100;" 
d="M346 628h-236c-18 0 -27 7 -27 20s9 20 27 20h236c18 0 27 -7 27 -20s-9 -20 -27 -20zM428 188h-266l-54 -147h79c18 0 27 -7 27 -20c0 -14 -9 -21 -27 -21h-151c-18 0 -27 7 -27 21c0 13 9 20 27 20h31l179 481h-120c-18 0 -27 7 -27 21c0 13 8.90918 20 27 20h204
l197 -522h37c18 0 27 -7 27 -20c0 -14 -9 -21 -27 -21h-156c-18 0 -27 7 -27 21c0 13 9 20 27 20h76zM413 229l-112 293h-15l-108 -293h235z" />
    <glyph glyph-name="amacron" unicode="&#x101;" 
d="M417 491h-236c-18 0 -27 7 -27 20s9 20 27 20h236c18 0 27 -7 27 -20s-9 -20 -27 -20zM125 378c0 33 141 53 174 53c93 0 161 -52 161 -123v-267h54c18 0 27 -7 27 -20c0 -14 -9 -21 -27 -21h-95v67c-61 -57 -121 -83 -191 -83c-93 0 -156 52 -156 128
c0 87 86 146 211 146c46 0 77 -5 136 -21v71c0 49 -50 82 -123 82c-80 0 -123 -32 -152 -32c-10 0 -19 9 -19 20zM419 112v90c-36 9 -84 15 -128 15c-106 0 -178 -43 -178 -106c0 -52 45 -86 114 -86c71 0 125 24 192 87z" />
    <glyph glyph-name="Abreve" unicode="&#x102;" 
d="M174 743c12 0 18 -7 20 -22c3 -38 48 -67 104 -67s100 29 104 67c2 15 8 22 21 22c11 0 20 -9 20 -23c0 -60 -63 -107 -145 -107s-145 47 -145 107c0 14 8 23 21 23zM428 188h-266l-54 -147h79c18 0 27 -7 27 -20c0 -14 -9 -21 -27 -21h-151c-18 0 -27 7 -27 21
c0 13 9 20 27 20h31l179 481h-120c-18 0 -27 7 -27 21c0 13 8.90918 20 27 20h204l197 -522h37c18 0 27 -7 27 -20c0 -14 -9 -21 -27 -21h-156c-18 0 -27 7 -27 21c0 13 9 20 27 20h76zM413 229l-112 293h-15l-108 -293h235z" />
    <glyph glyph-name="abreve" unicode="&#x103;" 
d="M175 623c12 0 18 -7 20 -22c3 -38 48 -67 104 -67s100 29 104 67c2 15 8 22 21 22c11 0 20 -9 20 -23c0 -60 -63 -107 -145 -107s-145 47 -145 107c0 14 8 23 21 23zM125 378c0 33 141 53 174 53c93 0 161 -52 161 -123v-267h54c18 0 27 -7 27 -20c0 -14 -9 -21 -27 -21
h-95v67c-61 -57 -121 -83 -191 -83c-93 0 -156 52 -156 128c0 87 86 146 211 146c46 0 77 -5 136 -21v71c0 49 -50 82 -123 82c-80 0 -123 -32 -152 -32c-10 0 -19 9 -19 20zM419 112v90c-36 9 -84 15 -128 15c-106 0 -178 -43 -178 -106c0 -52 45 -86 114 -86
c71 0 125 24 192 87z" />
    <glyph glyph-name="Aogonek" unicode="&#x104;" 
d="M530 -123c37 0 45 19 57 19c7 0 14 -7 14 -15c0 -17 -39 -36 -77 -36c-48 0 -76 23 -76 61c0 41 22 68 77 94h-117c-18 0 -27 7 -27 21c0 13 9 20 27 20h76l-56 147h-266l-54 -147h79c18 0 27 -7 27 -20c0 -14 -9 -21 -27 -21h-151c-18 0 -27 7 -27 21c0 13 9 20 27 20
h31l179 481h-120c-18 0 -27 7 -27 21c0 13 9 20 27 20h204l197 -522h37c18 0 27 -7 27 -20c0 -14 -9 -21 -27 -21h8l-27 -15c-37 -21 -58 -47 -58 -74c0 -23 14 -34 43 -34zM413 229l-112 293h-15l-108 -293h235z" />
    <glyph glyph-name="aogonek" unicode="&#x105;" 
d="M125 378c0 33 141 53 174 53c93 0 161 -52 161 -123v-267h54c18 0 27 -7 27 -20c0 -27 -99 -48 -99 -110c0 -23 15 -34 43 -34c37 0 45 19 57 19c7 0 14 -7 14 -15c0 -17 -39 -36 -77 -36c-48 0 -76 23 -76 61c0 42 21 67 77 94h-61v67c-61 -57 -121 -83 -191 -83
c-93 0 -156 52 -156 128c0 87 86 146 211 146c46 0 77 -5 136 -21v71c0 49 -50 82 -123 82c-80 0 -123 -32 -152 -32c-10 0 -19 9 -19 20zM419 112v90c-36 9 -84 15 -128 15c-106 0 -178 -43 -178 -106c0 -52 45 -86 114 -86c71 0 125 24 192 87z" />
    <glyph glyph-name="Cacute" unicode="&#x106;" 
d="M419 737l-114 -100c-9 -7 -13 -9 -19 -9c-11 0 -20 9 -20 21c0 7 2 10 12 19l114 100c9 7 13 9 19 9c11 0 20 -9 20 -21c0 -7 -3 -11 -12 -19zM63 325c0 53 42 251 242 251c66 0 126 -24 173 -69v29c0 18 7 27 21 27c13 0 20 -9 20 -27v-112c0 -18 -7 -27 -21 -27
c-12 0 -19 8 -20 24c-4 61 -84 114 -173 114c-111 0 -201 -97 -201 -216v-71c0 -120 100 -223 218 -223c69 0 120 26 174 90c7 8 11 10 18 10c12 0 20 -8 20 -19c0 -20 -85 -122 -212 -122c-136 0 -259 123 -259 258v83z" />
    <glyph glyph-name="cacute" unicode="&#x107;" 
d="M423 600l-114 -100c-9 -7 -13 -9 -19 -9c-11 0 -20 9 -20 21c0 7 2 10 12 19l114 100c9 7 13 9 19 9c11 0 20 -9 20 -21c0 -7 -3 -11 -12 -19zM535 88c0 -21 -90 -104 -226 -104c-131 0 -225 92 -225 220c0 132 96 227 230 227c61 0 115 -19 156 -55v13c0 19 7 28 21 28
c13 0 20 -9 20 -28v-91c0 -18 -7 -27 -20 -27s-19 7 -21 24c-4 53 -75 95 -159 95c-110 0 -186 -75 -186 -185c0 -105 77 -180 186 -180c73 0 135 24 187 72c8 8 11 10 18 10c10 0 19 -9 19 -19z" />
    <glyph glyph-name="Ccircumflex" unicode="&#x108;" 
d="M305 760l132 -108c11 -9 13 -13 13 -21c0 -11 -9 -20 -20 -20c-5 0 -11 3 -18 8l-107 88l-107 -88c-7 -5 -13 -8 -18 -8c-11 0 -20 9 -20 20c0 8 4 12 13 20zM63 325c0 53 42 251 242 251c66 0 126 -24 173 -69v29c0 18 7 27 21 27c13 0 20 -9 20 -27v-112
c0 -18 -7 -27 -21 -27c-12 0 -19 8 -20 24c-4 61 -84 114 -173 114c-111 0 -201 -97 -201 -216v-71c0 -120 100 -223 218 -223c69 0 120 26 174 90c7 8 11 10 18 10c12 0 20 -8 20 -19c0 -20 -85 -122 -212 -122c-136 0 -259 123 -259 258v83z" />
    <glyph glyph-name="ccircumflex" unicode="&#x109;" 
d="M314 623l132 -108c11 -9 13 -13 13 -21c0 -11 -9 -20 -20 -20c-5 0 -11 3 -18 8l-107 88l-107 -88c-7 -5 -13 -8 -18 -8c-11 0 -20 9 -20 20c0 8 4 12 13 20zM535 88c0 -21 -90 -104 -226 -104c-131 0 -225 92 -225 220c0 132 96 227 230 227c61 0 115 -19 156 -55v13
c0 19 7 28 21 28c13 0 20 -9 20 -28v-91c0 -18 -7 -27 -20 -27s-19 7 -21 24c-4 53 -75 95 -159 95c-110 0 -186 -75 -186 -185c0 -105 77 -180 186 -180c73 0 135 24 187 72c8 8 11 10 18 10c10 0 19 -9 19 -19z" />
    <glyph glyph-name="Cdotaccent" unicode="&#x10a;" 
d="M305 712c28 0 50 -23 50 -51c0 -26 -23 -49 -50 -49s-50 23 -50 50s23 50 50 50zM63 325c0 53 42 251 242 251c66 0 126 -24 173 -69v29c0 18 7 27 21 27c13 0 20 -9 20 -27v-112c0 -18 -7 -27 -21 -27c-12 0 -19 8 -20 24c-4 61 -84 114 -173 114
c-111 0 -201 -97 -201 -216v-71c0 -120 100 -223 218 -223c69 0 120 26 174 90c7 8 11 10 18 10c12 0 20 -8 20 -19c0 -20 -85 -122 -212 -122c-136 0 -259 123 -259 258v83z" />
    <glyph glyph-name="cdotaccent" unicode="&#x10b;" 
d="M314 591c28 0 50 -23 50 -51c0 -26 -23 -49 -50 -49s-50 23 -50 50s23 50 50 50zM535 88c0 -21 -90 -104 -226 -104c-131 0 -225 92 -225 220c0 132 96 227 230 227c61 0 115 -19 156 -55v13c0 19 7 28 21 28c13 0 20 -9 20 -28v-91c0 -18 -7 -27 -20 -27s-19 7 -21 24
c-4 53 -75 95 -159 95c-110 0 -186 -75 -186 -185c0 -105 77 -180 186 -180c73 0 135 24 187 72c8 8 11 10 18 10c10 0 19 -9 19 -19z" />
    <glyph glyph-name="Ccaron" unicode="&#x10c;" 
d="M305 604l-132 109c-10 7 -13 11 -13 20c0 11 9 20 20 20c5 0 11 -3 18 -8l107 -88l107 88c7 5 13 8 18 8c10 0 20 -10 20 -20c0 -8 -2 -12 -13 -21zM63 325c0 53 42 251 242 251c66 0 126 -24 173 -69v29c0 18 7 27 21 27c13 0 20 -9 20 -27v-112c0 -18 -7 -27 -21 -27
c-12 0 -19 8 -20 24c-4 61 -84 114 -173 114c-111 0 -201 -97 -201 -216v-71c0 -120 100 -223 218 -223c69 0 120 26 174 90c7 8 11 10 18 10c12 0 20 -8 20 -19c0 -20 -85 -122 -212 -122c-136 0 -259 123 -259 258v83z" />
    <glyph glyph-name="ccaron" unicode="&#x10d;" 
d="M330 491l-132 109c-10 7 -13 11 -13 20c0 11 9 20 20 20c5 0 11 -3 18 -8l107 -88l107 88c7 5 13 8 18 8c10 0 20 -10 20 -20c0 -8 -2 -12 -13 -21zM535 88c0 -21 -90 -104 -226 -104c-131 0 -225 92 -225 220c0 132 96 227 230 227c61 0 115 -19 156 -55v13
c0 19 7 28 21 28c13 0 20 -9 20 -28v-91c0 -18 -7 -27 -20 -27s-19 7 -21 24c-4 53 -75 95 -159 95c-110 0 -186 -75 -186 -185c0 -105 77 -180 186 -180c73 0 135 24 187 72c8 8 11 10 18 10c10 0 19 -9 19 -19z" />
    <glyph glyph-name="Dcaron" unicode="&#x10e;" 
d="M282 602l-132 109c-10 7 -13 11 -13 20c0 11 9 20 20 20c5 0 11 -3 18 -8l107 -88l107 88c7 5 13 8 18 8c10 0 20 -10 20 -20c0 -8 -2 -12 -13 -21zM104 41v481h-34c-18 0 -27 7 -27 21c0 13 9 20 27 20h220c129 0 230 -112 230 -253v-56c0 -142 -101 -254 -230 -254
h-220c-18 0 -27 7 -27 21c0 13 9 20 27 20h34zM479 318c0 41 -38 204 -191 204h-143v-481h150c96 0 184 98 184 204v73z" />
    <glyph glyph-name="dcaron" unicode="&#x10f;" 
d="M606 604h80l-87 -159c-6 -11 -11 -15 -19 -15c-9 0 -17 8 -17 17c0 3 1 5 1 7zM502 604v-563h54c18 0 27 -7 27 -20c0 -14 -9 -21 -27 -21h-95v89c-47 -70 -107 -105 -182 -105c-119 0 -216 101 -216 224s97 223 216 223c75 0 133 -33 182 -104v236h-54
c-18 0 -27 7 -27 21c0 13 9 20 27 20h95zM282 390c-99 0 -178 -81 -178 -182c0 -102 79 -183 179 -183c98 0 178 81 178 181c0 104 -78 184 -179 184z" />
    <glyph glyph-name="Dcroat" unicode="&#x110;" 
d="M104 272h-77c-18 0 -27 7 -27 21c0 13 9 20 27 20h77v209h-34c-18 0 -27 7 -27 21c0 13 9 20 27 20h220c126 0 230 -115 230 -253v-56c0 -139 -104 -254 -230 -254h-220c-18 0 -27 7 -27 21c0 13 9 20 27 20h34v231zM479 319c0 41 -38 203 -191 203h-143v-209h162
c18 0 27 -7 27 -20c0 -14 -9 -21 -27 -21h-162v-231h150c94 0 184 99 184 204v74z" />
    <glyph glyph-name="dcroat" unicode="&#x111;" 
d="M502 520h54c18 0 27 -7 27 -20c0 -14 -9 -21 -27 -21h-54v-438h54c18 0 27 -7 27 -20c0 -14 -9 -21 -27 -21h-95v81c-47 -65 -107 -97 -181 -97c-120 0 -217 100 -217 224c0 123 97 223 217 223c74 0 132 -31 181 -96v144h-138c-18 0 -27 7 -27 21c0 13 9 20 27 20h138
v43h-54c-18 0 -27 7 -27 21c0 13 9 20 27 20h95v-84zM282 390c-99 0 -178 -81 -178 -182c0 -102 79 -183 179 -183c98 0 178 81 178 180c0 105 -78 185 -179 185z" />
    <glyph glyph-name="Emacron" unicode="&#x112;" 
d="M402 628h-236c-18 0 -27 7 -27 20s9 20 27 20h236c18 0 27 -7 27 -20s-9 -20 -27 -20zM165 272v-231h314v119c0 18 7 27 21 27c13 0 20 -9 20 -27v-160h-450c-18 0 -27 7 -27 21c0 13 9 20 27 20h54v481h-54c-18 0 -27 7 -27 21c0 13 9 20 27 20h429v-139
c0 -18 -7 -27 -21 -27c-13 0 -20 9 -20 27v98h-293v-209h145v45c0 18 7 27 21 27c13 0 20 -9 20 -27v-131c0 -18 -7 -27 -20 -27c-14 0 -21 9 -21 27v45h-145z" />
    <glyph glyph-name="emacron" unicode="&#x113;" 
d="M409 491h-236c-18 0 -27 7 -27 20s9 20 27 20h236c18 0 27 -7 27 -20s-9 -20 -27 -20zM520 199h-416c14 -105 94 -174 202 -174c62 0 135 22 175 54c7 5 11 7 16 7c10 0 19 -9 19 -20c0 -35 -120 -82 -211 -82c-135 0 -242 103 -242 233c0 121 100 214 228 214
c133 0 229 -91 229 -232zM104 240h374c-16 91 -90 150 -187 150s-169 -58 -187 -150z" />
    <glyph glyph-name="Ebreve" unicode="&#x114;" 
d="M160 744c12 0 18 -7 20 -22c3 -38 48 -67 104 -67s100 29 104 67c2 15 8 22 21 22c11 0 20 -9 20 -23c0 -60 -63 -107 -145 -107s-145 47 -145 107c0 14 8 23 21 23zM165 272v-231h314v119c0 18 7 27 21 27c13 0 20 -9 20 -27v-160h-450c-18 0 -27 7 -27 21
c0 13 9 20 27 20h54v481h-54c-18 0 -27 7 -27 21c0 13 9 20 27 20h429v-139c0 -18 -7 -27 -21 -27c-13 0 -20 9 -20 27v98h-293v-209h145v45c0 18 7 27 21 27c13 0 20 -9 20 -27v-131c0 -18 -7 -27 -20 -27c-14 0 -21 9 -21 27v45h-145z" />
    <glyph glyph-name="ebreve" unicode="&#x115;" 
d="M167 624c12 0 18 -7 20 -22c3 -38 48 -67 104 -67s100 29 104 67c2 15 8 22 21 22c11 0 20 -9 20 -23c0 -60 -63 -107 -145 -107s-145 47 -145 107c0 14 8 23 21 23zM520 199h-416c14 -105 94 -174 202 -174c62 0 135 22 175 54c7 5 11 7 16 7c10 0 19 -9 19 -20
c0 -35 -120 -82 -211 -82c-135 0 -242 103 -242 233c0 121 100 214 228 214c133 0 229 -91 229 -232zM104 240h374c-16 91 -90 150 -187 150s-169 -58 -187 -150z" />
    <glyph glyph-name="Edotaccent" unicode="&#x116;" 
d="M284 708c28 0 50 -23 50 -51c0 -26 -23 -49 -50 -49s-50 23 -50 50s23 50 50 50zM165 272v-231h314v119c0 18 7 27 21 27c13 0 20 -9 20 -27v-160h-450c-18 0 -27 7 -27 21c0 13 9 20 27 20h54v481h-54c-18 0 -27 7 -27 21c0 13 9 20 27 20h429v-139
c0 -18 -7 -27 -21 -27c-13 0 -20 9 -20 27v98h-293v-209h145v45c0 18 7 27 21 27c13 0 20 -9 20 -27v-131c0 -18 -7 -27 -20 -27c-14 0 -21 9 -21 27v45h-145z" />
    <glyph glyph-name="edotaccent" unicode="&#x117;" 
d="M291 604c28 0 50 -23 50 -51c0 -26 -23 -49 -50 -49s-50 23 -50 50s23 50 50 50zM520 199h-416c14 -105 94 -174 202 -174c62 0 135 22 175 54c7 5 11 7 16 7c10 0 19 -9 19 -20c0 -35 -120 -82 -211 -82c-135 0 -242 103 -242 233c0 121 100 214 228 214
c133 0 229 -91 229 -232zM104 240h374c-16 91 -90 150 -187 150s-169 -58 -187 -150z" />
    <glyph glyph-name="Eogonek" unicode="&#x118;" 
d="M477 -123c37 0 45 19 57 19c7 0 14 -7 14 -15c0 -17 -39 -36 -77 -36c-48 0 -76 23 -76 61c0 41 22 68 77 94h-402c-18 0 -27 7 -27 21c0 13 9 20 27 20h54v481h-54c-18 0 -27 7 -27 21c0 13 9 20 27 20h429v-139c0 -18 -7 -27 -21 -27c-13 0 -20 9 -20 27v98h-293v-209
h145v45c0 18 7 27 21 27c13 0 20 -9 20 -27v-131c0 -18 -7 -27 -20 -27c-14 0 -21 9 -21 27v45h-145v-231h314v119c0 18 7 27 21 27c13 0 20 -9 20 -27v-160l-28 -15c-37.501 -20.0898 -58 -47 -58 -74c0 -23 14 -34 43 -34z" />
    <glyph glyph-name="eogonek" unicode="&#x119;" 
d="M389 -123c37 0 45 19 57 19c7 0 14 -7 14 -15c0 -17 -39 -36 -77 -36c-48 0 -76 23 -76 61c0 34 18 61 54 83c-24 -4 -38 -5 -55 -5c-136 0 -243 102 -243 233c0 121 100 214 228 214c133 0 229 -91 229 -232h-416c14 -105 94 -174 202 -174c62 0 135 22 175 54
c7 5 11 7 16 7c10 0 19 -9 19 -20c0 -36 -170 -86 -170 -155c0 -23 14 -34 43 -34zM104 240h374c-16 91 -90 150 -187 150s-169 -58 -187 -150z" />
    <glyph glyph-name="Ecaron" unicode="&#x11a;" 
d="M284 602l-132 109c-10 7 -13 11 -13 20c0 11 9 20 20 20c5 0 11 -3 18 -8l107 -88l107 88c7 5 13 8 18 8c10 0 20 -10 20 -20c0 -8 -2 -12 -13 -21zM165 272v-231h314v119c0 18 7 27 21 27c13 0 20 -9 20 -27v-160h-450c-18 0 -27 7 -27 21c0 13 9 20 27 20h54v481h-54
c-18 0 -27 7 -27 21c0 13 9 20 27 20h429v-139c0 -18 -7 -27 -21 -27c-13 0 -20 9 -20 27v98h-293v-209h145v45c0 18 7 27 21 27c13 0 20 -9 20 -27v-131c0 -18 -7 -27 -20 -27c-14 0 -21 9 -21 27v45h-145z" />
    <glyph glyph-name="ecaron" unicode="&#x11b;" 
d="M291 491l-132 109c-10 7 -13 11 -13 20c0 11 9 20 20 20c5 0 11 -3 18 -8l107 -88l107 88c7 5 13 8 18 8c10 0 20 -10 20 -20c0 -8 -2 -12 -13 -21zM520 199h-416c14 -105 94 -174 202 -174c62 0 135 22 175 54c7 5 11 7 16 7c10 0 19 -9 19 -20c0 -35 -120 -82 -211 -82
c-135 0 -242 103 -242 233c0 121 100 214 228 214c133 0 229 -91 229 -232zM104 240h374c-16 91 -90 150 -187 150s-169 -58 -187 -150z" />
    <glyph glyph-name="Gcircumflex" unicode="&#x11c;" 
d="M313 756l132 -108c11 -9 13 -13 13 -21c0 -11 -9 -20 -20 -20c-5 0 -11 3 -18 8l-107 88l-107 -88c-7 -5 -13 -8 -18 -8c-11 0 -20 9 -20 20c0 8 4 12 13 20zM315 535c-177 0 -211 -173 -211 -218v-73c0 -136 88 -219 232 -219c52 0 87 8 143 34v150h-139
c-18 0 -27 7 -27 21c0 13 9 20 27 20h194c19 0 28 -7 28 -20c0 -14 -9 -21 -28 -21h-14v-173c-59 -34 -125 -52 -187 -52c-164 0 -270 102 -270 260v74c0 135 100 258 250 258c66 0 121 -18 166 -54v14c0 18 7 27 21 27s20 -8 20 -27v-91c0 -18 -7 -27 -20 -27s-19 8 -20 25
c-4 51 -76 92 -165 92z" />
    <glyph glyph-name="gcircumflex" unicode="&#x11d;" 
d="M269 640l132 -108c11 -9 13 -13 13 -21c0 -11 -9 -20 -20 -20c-5 0 -11 3 -18 8l-107 88l-107 -88c-7 -5 -13 -8 -18 -8c-11 0 -20 9 -20 20c0 8 4 12 13 20zM440 334v83h95c18 0 27 -7 27 -20c0 -14 -9 -21 -27 -21h-54v-404c0 -83.7959 -72.1953 -158 -165 -158h-114
c-18 0 -27 7 -27 21c0 13 9 20 27 20h116c68 0 122 55 122 123v129c-45 -66 -99 -97 -171 -97c-113 0 -206 95 -206 211s93 210 206 210c73 0 126 -30 171 -97zM272 390c-94 0 -168 -75 -168 -169c0 -95 75 -170 168 -170s168 75 168 168c0 97 -73 171 -168 171z" />
    <glyph glyph-name="Gbreve" unicode="&#x11e;" 
d="M189 744c12 0 18 -7 20 -22c3 -38 48 -67 104 -67s100 29 104 67c2 15 8 22 21 22c11 0 20 -9 20 -23c0 -60 -63 -107 -145 -107s-145 47 -145 107c0 14 8 23 21 23zM315 535c-177 0 -211 -173 -211 -218v-73c0 -136 88 -219 232 -219c52 0 87 8 143 34v150h-139
c-18 0 -27 7 -27 21c0 13 9 20 27 20h194c19 0 28 -7 28 -20c0 -14 -9 -21 -28 -21h-14v-173c-59 -34 -125 -52 -187 -52c-164 0 -270 102 -270 260v74c0 135 100 258 250 258c66 0 121 -18 166 -54v14c0 18 7 27 21 27s20 -8 20 -27v-91c0 -18 -7 -27 -20 -27s-19 8 -20 25
c-4 51 -76 92 -165 92z" />
    <glyph glyph-name="gbreve" unicode="&#x11f;" 
d="M175 621c12 0 18 -7 20 -22c3 -38 48 -67 104 -67s100 29 104 67c2 15 8 22 21 22c11 0 20 -9 20 -23c0 -60 -63 -107 -145 -107s-145 47 -145 107c0 14 8 23 21 23zM440 334v83h95c18 0 27 -7 27 -20c0 -14 -9 -21 -27 -21h-54v-404c0 -83.7959 -72.1953 -158 -165 -158
h-114c-18 0 -27 7 -27 21c0 13 9 20 27 20h116c68 0 122 55 122 123v129c-45 -66 -99 -97 -171 -97c-113 0 -206 95 -206 211s93 210 206 210c73 0 126 -30 171 -97zM272 390c-94 0 -168 -75 -168 -169c0 -95 75 -170 168 -170s168 75 168 168c0 97 -73 171 -168 171z" />
    <glyph glyph-name="Gdotaccent" unicode="&#x120;" 
d="M313 714c28 0 50 -23 50 -51c0 -26 -23 -49 -50 -49s-50 23 -50 50s23 50 50 50zM315 535c-177 0 -211 -173 -211 -218v-73c0 -136 88 -219 232 -219c52 0 87 8 143 34v150h-139c-18 0 -27 7 -27 21c0 13 9 20 27 20h194c19 0 28 -7 28 -20c0 -14 -9 -21 -28 -21h-14
v-173c-59 -34 -125 -52 -187 -52c-164 0 -270 102 -270 260v74c0 135 100 258 250 258c66 0 121 -18 166 -54v14c0 18 7 27 21 27s20 -8 20 -27v-91c0 -18 -7 -27 -20 -27s-19 8 -20 25c-4 51 -76 92 -165 92z" />
    <glyph glyph-name="gdotaccent" unicode="&#x121;" 
d="M269 606c28 0 50 -23 50 -51c0 -26 -23 -49 -50 -49s-50 23 -50 50s23 50 50 50zM440 334v83h95c18 0 27 -7 27 -20c0 -14 -9 -21 -27 -21h-54v-404c0 -83.7959 -72.1953 -158 -165 -158h-114c-18 0 -27 7 -27 21c0 13 9 20 27 20h116c68 0 122 55 122 123v129
c-45 -66 -99 -97 -171 -97c-113 0 -206 95 -206 211s93 210 206 210c73 0 126 -30 171 -97zM272 390c-94 0 -168 -75 -168 -169c0 -95 75 -170 168 -170s168 75 168 168c0 97 -73 171 -168 171z" />
    <glyph glyph-name="Gcedilla" unicode="&#x122;" 
d="M284.945 -52.0498h67.8301l-73.9502 -135.15c-5.10059 -9.68945 -9.18066 -12.75 -15.8105 -12.75c-8.15918 0 -14.79 6.62988 -14.79 14.79c0 2.04004 0.510742 3.57031 1.02051 5.61035zM315 535c-177 0 -211 -173 -211 -218v-73c0 -136 88 -219 232 -219
c52 0 87 8 143 34v150h-139c-18 0 -27 7 -27 21c0 13 9 20 27 20h194c19 0 28 -7 28 -20c0 -14 -9 -21 -28 -21h-14v-173c-59 -34 -125 -52 -187 -52c-164 0 -270 102 -270 260v74c0 135 100 258 250 258c66 0 121 -18 166 -54v14c0 18 7 27 21 27s20 -8 20 -27v-91
c0 -18 -7 -27 -20 -27s-19 8 -20 25c-4 51 -76 92 -165 92z" />
    <glyph glyph-name="gcommaaccent" unicode="&#x123;" 
d="M287 491h-80l87 159c6 11 11 15 19 15c9 0 17 -8 17 -17c0 -3 -1 -5 -1 -7zM440 334v83h95c18 0 27 -7 27 -20c0 -14 -9 -21 -27 -21h-54v-404c0 -83.7959 -72.1953 -158 -165 -158h-114c-18 0 -27 7 -27 21c0 13 9 20 27 20h116c68 0 122 55 122 123v129
c-45 -66 -99 -97 -171 -97c-113 0 -206 95 -206 211s93 210 206 210c73 0 126 -30 171 -97zM272 390c-94 0 -168 -75 -168 -169c0 -95 75 -170 168 -170s168 75 168 168c0 97 -73 171 -168 171z" />
    <glyph glyph-name="Hcircumflex" unicode="&#x124;" 
d="M302 759l132 -108c11 -9 13 -13 13 -21c0 -11 -9 -20 -20 -20c-5 0 -11 3 -18 8l-107 88l-107 -88c-7 -5 -13 -8 -18 -8c-11 0 -20 9 -20 20c0 8 4 12 13 20zM437 272h-270v-231h54c18 0 27 -7 27 -20c0 -14 -9 -21 -27 -21h-140c-18 0 -28 7 -28 21c0 13 9 20 28 20h45
v481h-25c-18 0 -27 7 -27 21c0 13 9 20 27 20h120c18 0 27 -7 27 -20c0 -14 -9 -21 -27 -21h-54v-209h270v209h-54c-18 0 -27 7 -27 21c0 13 9 20 27 20h120c18 0 27 -7 27 -20c0 -14 -9 -21 -27 -21h-25v-481h46c18 0 27 -7 27 -20c0 -14 -10 -21 -27 -21h-141
c-18 0 -27 7 -27 21c0 13 9 20 27 20h54v231z" />
    <glyph glyph-name="hcircumflex" unicode="&#x125;" 
d="M297 786l132 -108c11 -9 13 -13 13 -21c0 -11 -9 -20 -20 -20c-5 0 -11 3 -18 8l-107 88l-107 -88c-7 -5 -13 -8 -18 -8c-11 0 -20 9 -20 20c0 8 4 12 13 20zM437 288c0 60 -49 102 -123 102c-56 0 -84 -17 -138 -81l-11 -13v-255h45c19 0 28 -7 28 -20
c0 -14 -10 -21 -28 -21h-132c-17 0 -27 7 -27 21c0 13 9 20 27 20h46v522h-54c-18 0 -27 7 -27 21c0 13 9 20 27 20h95v-257c51 61 93 84 154 84c93 0 159 -59 159 -140v-250h45c19 0 28 -7 28 -20c0 -14 -9 -21 -28 -21h-131c-18 0 -27 7 -27 21c0 13 9 20 27 20h45v247z
" />
    <glyph glyph-name="Hbar" unicode="&#x126;" 
d="M478 421h25c18 0 27 -7 27 -20s-9 -20 -27 -20h-25v-340h46c18 0 27 -7 27 -20c0 -14 -10 -21 -27 -21h-141c-18 0 -27 7 -27 21c0 13 9 20 27 20h54v231h-270v-231h54c18 0 27 -7 27 -20c0 -14 -9 -21 -27 -21h-140c-18 0 -28 7 -28 21c0 13 9 20 28 20h45v340h-25
c-18 0 -27 7 -27 20s9 20 27 20h25v101h-25c-18 0 -27 7 -27 21c0 13 9 20 27 20h120c18 0 27 -7 27 -20c0 -14 -9 -21 -27 -21h-54v-101h270v101h-54c-18 0 -27 7 -27 21c0 13 9 20 27 20h120c18 0 27 -7 27 -20c0 -14 -9 -21 -27 -21h-25v-101zM437 381h-270v-68h270v68z
" />
    <glyph glyph-name="hbar" unicode="&#x127;" 
d="M437 288c0 60 -49 102 -123 102c-56 0 -84 -17 -138 -81l-11 -13v-255h45c19 0 28 -7 28 -20c0 -14 -10 -21 -28 -21h-132c-17 0 -27 7 -27 21c0 13 9 20 27 20h46v428h-54c-18 0 -27 7 -27 20s9 20 27 20h54v54h-54c-18 0 -27 7 -27 21c0 13 9 20 27 20h95v-95h141
c18 0 27 -7 27 -20s-9 -20 -27 -20h-141v-122c51 61 93 84 154 84c93 0 159 -59 159 -140v-250h45c19 0 28 -7 28 -20c0 -14 -9 -21 -28 -21h-131c-18 0 -27 7 -27 21c0 13 9 20 27 20h45v247z" />
    <glyph glyph-name="Itilde" unicode="&#x128;" 
d="M362 656c33 0 56 46 73 46c10 0 20 -9 20 -20c0 -18 -51 -67 -91 -67c-47 0 -95 48 -124 48c-45 0 -47 -45 -75 -45c-11 0 -20 8 -20 19c0 23 54 67 94 67c43 0 94 -48 123 -48zM320 522v-481h139c19 0 28 -7 28 -20c0 -14 -10 -21 -28 -21h-319c-18 0 -27 7 -27 21
c0 13 9 20 27 20h139v481h-139c-18 0 -27 7 -27 21c0 13 9 20 27 20h319c19 0 28 -7 28 -20c0 -14 -9 -21 -28 -21h-139z" />
    <glyph glyph-name="itilde" unicode="&#x129;" 
d="M361 532c33 0 56 46 73 46c10 0 20 -9 20 -20c0 -18 -51 -67 -91 -67c-47 0 -95 48 -124 48c-45 0 -47 -45 -75 -45c-11 0 -20 8 -20 19c0 23 54 67 94 67c43 0 94 -48 123 -48zM320 417v-376h160c19 0 28 -7 28 -20c0 -14 -10 -21 -28 -21h-361c-18 0 -27 7 -27 21
c0 13 9 20 27 20h160v335h-118c-18 0 -27 7 -27 21c0 13 9 20 27 20h159z" />
    <glyph glyph-name="Imacron" unicode="&#x12a;" 
d="M418 627h-236c-18 0 -27 7 -27 20s9 20 27 20h236c18 0 27 -7 27 -20s-9 -20 -27 -20zM320 522v-481h139c19 0 28 -7 28 -20c0 -14 -10 -21 -28 -21h-319c-18 0 -27 7 -27 21c0 13 9 20 27 20h139v481h-139c-18 0 -27 7 -27 21c0 13 9 20 27 20h319c19 0 28 -7 28 -20
c0 -14 -9 -21 -28 -21h-139z" />
    <glyph glyph-name="imacron" unicode="&#x12b;" 
d="M417 491h-236c-18 0 -27 7 -27 20s9 20 27 20h236c18 0 27 -7 27 -20s-9 -20 -27 -20zM320 417v-376h160c19 0 28 -7 28 -20c0 -14 -10 -21 -28 -21h-361c-18 0 -27 7 -27 21c0 13 9 20 27 20h160v335h-118c-18 0 -27 7 -27 21c0 13 9 20 27 20h159z" />
    <glyph glyph-name="Ibreve" unicode="&#x12c;" 
d="M176 744c12 0 18 -7 20 -22c3 -38 48 -67 104 -67s100 29 104 67c2 15 8 22 21 22c11 0 20 -9 20 -23c0 -60 -63 -107 -145 -107s-145 47 -145 107c0 14 8 23 21 23zM320 522v-481h139c19 0 28 -7 28 -20c0 -14 -10 -21 -28 -21h-319c-18 0 -27 7 -27 21c0 13 9 20 27 20
h139v481h-139c-18 0 -27 7 -27 21c0 13 9 20 27 20h319c19 0 28 -7 28 -20c0 -14 -9 -21 -28 -21h-139z" />
    <glyph glyph-name="ibreve" unicode="&#x12d;" 
d="M175 622c12 0 18 -7 20 -22c3 -38 48 -67 104 -67s100 29 104 67c2 15 8 22 21 22c11 0 20 -9 20 -23c0 -60 -63 -107 -145 -107s-145 47 -145 107c0 14 8 23 21 23zM320 417v-376h160c19 0 28 -7 28 -20c0 -14 -10 -21 -28 -21h-361c-18 0 -27 7 -27 21c0 13 9 20 27 20
h160v335h-118c-18 0 -27 7 -27 21c0 13 9 20 27 20h159z" />
    <glyph glyph-name="Iogonek" unicode="&#x12e;" 
d="M429 -123c37 0 45 19 57 19c7 0 14 -7 14 -15c0 -17 -39 -36 -77 -36c-48 0 -76 23 -76 61c0 42 21 67 77 94h-284c-18 0 -27 7 -27 21c0 13 9 20 27 20h139v481h-139c-18 0 -27 7 -27 21c0 13 9 20 27 20h319c19 0 28 -7 28 -20c0 -14 -9 -21 -28 -21h-139v-481h139
c19 0 28 -7 28 -20c0 -27 -101 -46 -101 -110c0 -23 14 -34 43 -34z" />
    <glyph glyph-name="iogonek" unicode="&#x12f;" 
d="M449 -123c37 0 45 19 57 19c7 0 14 -7 14 -15c0 -17 -39 -36 -77 -36c-48 0 -76 23 -76 61c0 42 21 67 77 94h-325c-18 0 -27 7 -27 21c0 13 9 20 27 20h160v335h-118c-18 0 -27 7 -27 21c0 13 9 20 27 20h159v-376h160c19 0 28 -7 28 -20c0 -30 -102 -43 -102 -110
c0 -23 14 -34 43 -34zM318 624v-104h-59v104h59z" />
    <glyph glyph-name="Idotaccent" unicode="&#x130;" 
d="M300 710c28 0 50 -23 50 -51c0 -26 -23 -49 -50 -49s-50 23 -50 50s23 50 50 50zM320 522v-481h139c19 0 28 -7 28 -20c0 -14 -10 -21 -28 -21h-319c-18 0 -27 7 -27 21c0 13 9 20 27 20h139v481h-139c-18 0 -27 7 -27 21c0 13 9 20 27 20h319c19 0 28 -7 28 -20
c0 -14 -9 -21 -28 -21h-139z" />
    <glyph glyph-name="dotlessi" unicode="&#x131;" 
d="M320 417v-376h160c19 0 28 -7 28 -20c0 -14 -10 -21 -28 -21h-361c-18 0 -27 7 -27 21c0 13 9 20 27 20h160v335h-118c-18 0 -27 7 -27 21c0 13 9 20 27 20h159z" />
    <glyph glyph-name="IJ" unicode="&#x132;" 
d="M494 522v-357c0 -99 -40 -181 -143 -181c-64 0 -100 28 -141 90v149c0 18 7 27 21 27c13 0 20 -9 20 -27v-130c32 -55 51 -68 101 -68c81 0 101 62 101 140v357h-95c-18 0 -27 7 -27 21c0 13 9 20 27 20h186c18 0 27 -7 27 -20c0 -14 -9 -21 -27 -21h-50zM141 522v-481
h44c19 0 28 -7 28 -20c0 -14 -10 -21 -28 -21h-129c-18 0 -27 7 -27 21c0 13 9 20 27 20h44v481h-44c-18 0 -27 7 -27 21c0 13 9 20 27 20h129c19 0 28 -7 28 -20c0 -14 -9 -21 -28 -21h-44z" />
    <glyph glyph-name="ij" unicode="&#x133;" 
d="M435 376h-81c-18 0 -27 7 -27 21c0 13 9 20 27 20h122v-445c0 -93 -64 -158 -155 -158h-129c-18 0 -27 7 -27 21c0 13 9 20 27 20h128c66 0 115 49 115 117v404zM483 624v-104h-59v104h59zM258 417v-376h64c19 0 28 -7 28 -20c0 -14 -10 -21 -28 -21h-171
c-18 0 -27 7 -27 21c0 13 9 20 27 20h66v335h-56c-18 0 -27 7 -27 21c0 13 9 20 27 20h97zM269 624v-104h-59v104h59z" />
    <glyph glyph-name="Jcircumflex" unicode="&#x134;" 
d="M408 749l132 -108c11 -9 13 -13 13 -21c0 -11 -9 -20 -20 -20c-5 0 -11 3 -18 8l-107 88l-107 -88c-7 -5 -13 -8 -18 -8c-11 0 -20 9 -20 20c0 8 4 12 13 20zM460 522v-357c0 -99 -85 -181 -188 -181c-64 0 -116 25 -188 90v149c0 18 7 27 21 27c13 0 20 -9 20 -27v-130
c51 -46 98 -68 148 -68c81 0 146 62 146 140v357h-159c-18 0 -27 7 -27 21c0 13 9 20 27 20h296c18 0 27 -7 27 -20c0 -14 -9 -21 -27 -21h-96z" />
    <glyph glyph-name="jcircumflex" unicode="&#x135;" 
d="M417 376h-241c-18 0 -27 7 -27 21c0 13 9 20 27 20h282v-445c0 -93 -64 -158 -155 -158h-129c-18 0 -27 7 -27 21c0 13 9 20 27 20h128c66 0 115 49 115 117v404zM317 666l132 -108c11 -9 13 -13 13 -21c0 -11 -9 -20 -20 -20c-5 0 -11 3 -18 8l-107 88l-107 -88
c-7 -5 -13 -8 -18 -8c-11 0 -20 9 -20 20c0 8 4 12 13 20z" />
    <glyph glyph-name="Kcedilla" unicode="&#x136;" 
d="M262.945 -52.0498h67.8301l-73.9502 -135.15c-5.10059 -9.68945 -9.18066 -12.75 -15.8105 -12.75c-8.15918 0 -14.79 6.62988 -14.79 14.79c0 2.04004 0.510742 3.57031 1.02051 5.61035zM165 221v-180h75c18 0 27 -7 27 -20c0 -14 -9 -21 -27 -21h-170
c-18 0 -27 7 -27 21c0 13 9 20 27 20h54v481h-54c-18 0 -27 7 -27 21c0 13 9 20 27 20h170c18 0 27 -7 27 -20c0 -14 -9 -21 -27 -21h-75v-249l280 249h-45c-19 0 -28 7 -28 21c0 13 9 20 28 20h118c19 0 28 -7 28 -20c0 -14 -9 -21 -28 -21h-16l-222 -198
c97 -40 134 -91 209 -283h56c18 0 27 -7 27 -20c0 -14 -9 -21 -27 -21h-87c-73 203 -117 263 -212 294z" />
    <glyph glyph-name="kcedilla" unicode="&#x137;" 
d="M262.945 -52.0498h67.8301l-73.9502 -135.15c-5.10059 -9.68945 -9.18066 -12.75 -15.8105 -12.75c-8.15918 0 -14.79 6.62988 -14.79 14.79c0 2.04004 0.510742 3.57031 1.02051 5.61035zM185 180v-180h-95c-18 0 -27 7 -27 21c0 13 9 20 27 20h54v522h-54
c-18 0 -27 7 -27 21c0 13 9 20 27 20h95v-375l173 147h-22c-18 0 -27 7 -27 21c0 13 9 20 27 20h130c18 0 27 -7 27 -20c0 -14 -9 -21 -27 -21h-47l-157 -131l207 -204h45c18 0 27 -7 27 -20c0 -14 -9 -21 -27 -21h-131c-18 0 -27 7 -27 21c0 13 9 20 27 20h28l-180 178z
" />
    <glyph glyph-name="kgreenlandic" unicode="&#x138;" 
d="M192 0h-95c-18 0 -27 7 -27 21c0 13 9 20 27 20h54v335h-54c-18 0 -27 7 -27 21c0 13 9 20 27 20h95v-177l173 136h-22c-18 0 -27 7 -27 21c0 13 9 20 27 20h130c18 0 27 -7 27 -20c0 -14 -9 -21 -27 -21h-47l-203 -159l235 -176h45c18 0 27 -7 27 -20
c0 -14 -9 -21 -27 -21h-131c-18 0 -27 7 -27 21c0 13 9 20 27 20h28l-208 150v-191z" />
    <glyph glyph-name="Lacute" unicode="&#x139;" 
d="M329 720l-114 -100c-9 -7 -13 -9 -19 -9c-11 0 -20 9 -20 21c0 7 2 10 12 19l114 100c9 7 13 9 19 9c11 0 20 -9 20 -21c0 -7 -3 -11 -12 -19zM227 522v-481h273v160c0 18 7 27 21 27c13 0 20 -9 20 -27v-201h-451c-18 0 -27 7 -27 21c0 13 9 20 27 20h96v481h-96
c-18 0 -27 7 -27 21c0 13 9 20 27 20h233c18 0 27 -7 27 -20c0 -14 -9 -21 -27 -21h-96z" />
    <glyph glyph-name="lacute" unicode="&#x13a;" 
d="M422 758l-114 -100c-9 -7 -13 -9 -19 -9c-11 0 -20 9 -20 21c0 7 2 10 12 19l114 100c9 7 13 9 19 9c11 0 20 -9 20 -21c0 -7 -3 -11 -12 -19zM320 604v-563h160c19 0 28 -7 28 -20c0 -14 -10 -21 -28 -21h-361c-18 0 -27 7 -27 21c0 13 9 20 27 20h160v522h-117
c-18 0 -27 7 -27 21c0 13 9 20 27 20h158z" />
    <glyph glyph-name="Lcedilla" unicode="&#x13b;" 
d="M262.945 -52.0498h67.8301l-73.9502 -135.15c-5.10059 -9.68945 -9.18066 -12.75 -15.8105 -12.75c-8.15918 0 -14.79 6.62988 -14.79 14.79c0 2.04004 0.510742 3.57031 1.02051 5.61035zM227 522v-481h273v160c0 18 7 27 21 27c13 0 20 -9 20 -27v-201h-451
c-18 0 -27 7 -27 21c0 13 9 20 27 20h96v481h-96c-18 0 -27 7 -27 21c0 13 9 20 27 20h233c18 0 27 -7 27 -20c0 -14 -9 -21 -27 -21h-96z" />
    <glyph glyph-name="lcedilla" unicode="&#x13c;" 
d="M262.945 -52.0498h67.8301l-73.9502 -135.15c-5.10059 -9.68945 -9.18066 -12.75 -15.8105 -12.75c-8.15918 0 -14.79 6.62988 -14.79 14.79c0 2.04004 0.510742 3.57031 1.02051 5.61035zM320 604v-563h160c19 0 28 -7 28 -20c0 -14 -10 -21 -28 -21h-361
c-18 0 -27 7 -27 21c0 13 9 20 27 20h160v522h-117c-18 0 -27 7 -27 21c0 13 9 20 27 20h158z" />
    <glyph glyph-name="Lcaron" unicode="&#x13d;" 
d="M464 576h80l-87 -159c-6 -11 -11 -15 -19 -15c-9 0 -17 8 -17 17c0 3 1 5 1 7zM227 522v-481h273v160c0 18 7 27 21 27c13 0 20 -9 20 -27v-201h-451c-18 0 -27 7 -27 21c0 13 9 20 27 20h96v481h-96c-18 0 -27 7 -27 21c0 13 9 20 27 20h233c18 0 27 -7 27 -20
c0 -14 -9 -21 -27 -21h-96z" />
    <glyph glyph-name="lcaron" unicode="&#x13e;" 
d="M432 604h80l-87 -159c-6 -11 -11 -15 -19 -15c-9 0 -17 8 -17 17c0 3 1 5 1 7zM320 604v-563h160c19 0 28 -7 28 -20c0 -14 -10 -21 -28 -21h-361c-18 0 -27 7 -27 21c0 13 9 20 27 20h160v522h-117c-18 0 -27 7 -27 21c0 13 9 20 27 20h158z" />
    <glyph glyph-name="Ldot" unicode="&#x13f;" 
d="M432 418c28 0 50 -23 50 -51c0 -26 -23 -49 -50 -49s-50 23 -50 50s23 50 50 50zM227 522v-481h273v160c0 18 7 27 21 27c13 0 20 -9 20 -27v-201h-451c-18 0 -27 7 -27 21c0 13 9 20 27 20h96v481h-96c-18 0 -27 7 -27 21c0 13 9 20 27 20h233c18 0 27 -7 27 -20
c0 -14 -9 -21 -27 -21h-96z" />
    <glyph glyph-name="ldot" unicode="&#x140;" 
d="M432 418c28 0 50 -23 50 -51c0 -26 -23 -49 -50 -49s-50 23 -50 50s23 50 50 50zM280 604v-563h160c19 0 28 -7 28 -20c0 -14 -10 -21 -28 -21h-361c-18 0 -27 7 -27 21c0 13 9 20 27 20h160v522h-117c-18 0 -27 7 -27 21c0 13 9 20 27 20h158z" />
    <glyph glyph-name="Lslash" unicode="&#x141;" 
d="M226 522v-212l134 80c5 2 13 5 17 5c11 0 20 -10 20 -20c0 -9 -4 -13 -17 -20l-154 -92v-222h274v161c0 18 7 27 21 27c13 0 20 -9 20 -27v-202h-452c-18 0 -27 7 -27 21c0 13 9 20 27 20h96v205l-106 -62c-6 -4 -13 -6 -17 -6c-9 0 -19 10 -19 21c0 8 4 13 16 20l126 74
v229h-96c-18 0 -27 7 -27 21c0 13 9 20 27 20h233c18 0 27 -7 27 -20c0 -14 -9 -21 -27 -21h-96z" />
    <glyph glyph-name="lslash" unicode="&#x142;" 
d="M319 604v-261l88 51c7 4 12 6 17 6c10 0 19 -9 19 -20c0 -10 -4 -14 -16 -21l-108 -62v-256h162c18 0 27 -7 27 -20c0 -14 -9 -21 -27 -21h-362c-18 0 -27 7 -27 21c0 13 9 20 27 20h159v239l-87 -50c-9 -5 -11 -6 -17 -6c-10 0 -19 10 -19 21c0 9 4 14 16 21l107 61v236
h-117c-18 0 -27 7 -27 21c0 13 9 20 27 20h158z" />
    <glyph glyph-name="Nacute" unicode="&#x143;" 
d="M364 715l-114 -100c-9 -7 -13 -9 -19 -9c-11 0 -20 9 -20 21c0 7 2 10 12 19l114 100c9 7 13 9 19 9c11 0 20 -9 20 -21c0 -7 -3 -11 -12 -19zM501 0h-52l-305 504v-463h75c18 0 27 -7 27 -20c0 -14 -10 -21 -27 -21h-150c-18 0 -27 7 -27 21c0 13 9 20 27 20h34v481h-54
c-18 0 -27 7 -27 21c0 13 9 20 27 20h106l305 -504v463h-74c-19 0 -28 7 -28 21c0 13 9 20 28 20h149c18 0 27 -7 27 -20c0 -14 -9 -21 -27 -21h-34v-522z" />
    <glyph glyph-name="nacute" unicode="&#x144;" 
d="M420 600l-114 -100c-9 -7 -13 -9 -19 -9c-11 0 -20 9 -20 21c0 7 2 10 12 19l114 100c9 7 13 9 19 9c11 0 20 -9 20 -21c0 -7 -3 -11 -12 -19zM319 390c-89 0 -130 -68 -152 -96v-253h45c18 0 27 -7 27 -20c0 -14 -9 -21 -27 -21h-131c-19 0 -28 7 -28 21
c0 13 9 20 28 20h45v335h-34c-18 0 -27 7 -27 21c0 13 9 20 27 20h75v-69c58 64 94 83 156 83c89 0 157 -59 157 -136v-254h34c18 0 27 -7 27 -20c0 -14 -9 -21 -27 -21h-109c-18 0 -27 7 -27 21c0 13 9 20 27 20h34v247c0 56 -45 102 -120 102z" />
    <glyph glyph-name="Ncedilla" unicode="&#x145;" 
d="M262.945 -52.0498h67.8301l-73.9502 -135.15c-5.10059 -9.68945 -9.18066 -12.75 -15.8105 -12.75c-8.15918 0 -14.79 6.62988 -14.79 14.79c0 2.04004 0.510742 3.57031 1.02051 5.61035zM501 0h-52l-305 504v-463h75c18 0 27 -7 27 -20c0 -14 -10 -21 -27 -21h-150
c-18 0 -27 7 -27 21c0 13 9 20 27 20h34v481h-54c-18 0 -27 7 -27 21c0 13 9 20 27 20h106l305 -504v463h-74c-19 0 -28 7 -28 21c0 13 9 20 28 20h149c18 0 27 -7 27 -20c0 -14 -9 -21 -27 -21h-34v-522z" />
    <glyph glyph-name="ncedilla" unicode="&#x146;" 
d="M262.945 -52.0498h67.8301l-73.9502 -135.15c-5.10059 -9.68945 -9.18066 -12.75 -15.8105 -12.75c-8.15918 0 -14.79 6.62988 -14.79 14.79c0 2.04004 0.510742 3.57031 1.02051 5.61035zM319 390c-89 0 -130 -68 -152 -96v-253h45c18 0 27 -7 27 -20
c0 -14 -9 -21 -27 -21h-131c-19 0 -28 7 -28 21c0 13 9 20 28 20h45v335h-34c-18 0 -27 7 -27 21c0 13 9 20 27 20h75v-69c58 64 94 83 156 83c89 0 157 -59 157 -136v-254h34c18 0 27 -7 27 -20c0 -14 -9 -21 -27 -21h-109c-18 0 -27 7 -27 21c0 13 9 20 27 20h34v247
c0 56 -45 102 -120 102z" />
    <glyph glyph-name="Ncaron" unicode="&#x147;" 
d="M292 605l-132 109c-10 7 -13 11 -13 20c0 11 9 20 20 20c5 0 11 -3 18 -8l107 -88l107 88c7 5 13 8 18 8c10 0 20 -10 20 -20c0 -8 -2 -12 -13 -21zM501 0h-52l-305 504v-463h75c18 0 27 -7 27 -20c0 -14 -10 -21 -27 -21h-150c-18 0 -27 7 -27 21c0 13 9 20 27 20h34
v481h-54c-18 0 -27 7 -27 21c0 13 9 20 27 20h106l305 -504v463h-74c-19 0 -28 7 -28 21c0 13 9 20 28 20h149c18 0 27 -7 27 -20c0 -14 -9 -21 -27 -21h-34v-522z" />
    <glyph glyph-name="ncaron" unicode="&#x148;" 
d="M297 491l-132 109c-10 7 -13 11 -13 20c0 11 9 20 20 20c5 0 11 -3 18 -8l107 -88l107 88c7 5 13 8 18 8c10 0 20 -10 20 -20c0 -8 -2 -12 -13 -21zM319 390c-89 0 -130 -68 -152 -96v-253h45c18 0 27 -7 27 -20c0 -14 -9 -21 -27 -21h-131c-19 0 -28 7 -28 21
c0 13 9 20 28 20h45v335h-34c-18 0 -27 7 -27 21c0 13 9 20 27 20h75v-69c58 64 94 83 156 83c89 0 157 -59 157 -136v-254h34c18 0 27 -7 27 -20c0 -14 -9 -21 -27 -21h-109c-18 0 -27 7 -27 21c0 13 9 20 27 20h34v247c0 56 -45 102 -120 102z" />
    <glyph glyph-name="napostrophe" unicode="&#x149;" 
d="M319 390c-89 0 -130 -68 -152 -96v-253h45c18 0 27 -7 27 -20c0 -14 -9 -21 -27 -21h-131c-19 0 -28 7 -28 21c0 13 9 20 28 20h45v335h-34c-18 0 -27 7 -27 21c0 13 9 20 27 20h75v-69c58 64 94 83 156 83c89 0 157 -59 157 -136v-254h34c18 0 27 -7 27 -20
c0 -14 -9 -21 -27 -21h-109c-18 0 -27 7 -27 21c0 13 9 20 27 20h34v247c0 56 -45 102 -120 102zM51 664h80l-87 -159c-6 -11 -11 -15 -19 -15c-9 0 -17 8 -17 17c0 3 1 5 1 7z" />
    <glyph glyph-name="Eng" unicode="&#x14a;" 
d="M480 299c0 157 -63 237 -141 237c-92 0 -150 -68 -172 -96v-399h45c18 0 27 -7 27 -20c0 -14 -9 -21 -27 -21h-131c-19 0 -28 7 -28 21c0 13 9 20 28 20h45v481h-34c-18 0 -27 7 -27 21c0 13 9 20 27 20h75v-69c58 64 114 83 176 83c89 0 178 -83 178 -271
c0 -147 -21 -317 -147 -317c-19 0 -87 7 -87 34c0 11 8 20 18 20c13 0 33 -13 70 -13c84 0 105 120 105 269z" />
    <glyph glyph-name="eng" unicode="&#x14b;" 
d="M264 -145c13 0 33 -13 70 -13c61 0 105 48 105 116v330c0 56 -45 102 -120 102c-89 0 -130 -68 -152 -96v-253h45c18 0 27 -7 27 -20c0 -14 -9 -21 -27 -21h-131c-19 0 -28 7 -28 21c0 13 9 20 28 20h45v335h-34c-18 0 -27 7 -27 21c0 13 9 20 27 20h75v-69
c58 64 94 83 156 83c89 0 157 -59 157 -136v-343c0 -84 -65 -151 -147 -151c-19 0 -87 7 -87 34c0 11 8 20 18 20z" />
    <glyph glyph-name="Omacron" unicode="&#x14c;" 
d="M418 629h-236c-18 0 -27 7 -27 20s9 20 27 20h236c18 0 27 -7 27 -20s-9 -20 -27 -20zM300 576c141 0 249 -130 249 -300c0 -161 -112 -292 -249 -292c-139 0 -249 131 -249 296s110 296 249 296zM300 535c-115 0 -208 -115 -208 -255s94 -255 208 -255
c113 0 208 115 208 252c0 144 -92 258 -208 258z" />
    <glyph glyph-name="omacron" unicode="&#x14d;" 
d="M418 491h-236c-18 0 -27 7 -27 20s9 20 27 20h236c18 0 27 -7 27 -20s-9 -20 -27 -20zM300 431c128 0 228 -99 228 -226c0 -122 -102 -221 -228 -221c-127 0 -228 99 -228 224c0 123 101 223 228 223zM300 390c-104 0 -187 -81 -187 -182c0 -102 83 -183 187 -183
c103 0 187 81 187 180c0 105 -82 185 -187 185z" />
    <glyph glyph-name="Obreve" unicode="&#x14e;" 
d="M176 744c12 0 18 -7 20 -22c3 -38 48 -67 104 -67s100 29 104 67c2 15 8 22 21 22c11 0 20 -9 20 -23c0 -60 -63 -107 -145 -107s-145 47 -145 107c0 14 8 23 21 23zM300 576c141 0 249 -130 249 -300c0 -161 -112 -292 -249 -292c-139 0 -249 131 -249 296
s110 296 249 296zM300 535c-115 0 -208 -115 -208 -255s94 -255 208 -255c113 0 208 115 208 252c0 144 -92 258 -208 258z" />
    <glyph glyph-name="obreve" unicode="&#x14f;" 
d="M176 621c12 0 18 -7 20 -22c3 -38 48 -67 104 -67s100 29 104 67c2 15 8 22 21 22c11 0 20 -9 20 -23c0 -60 -63 -107 -145 -107s-145 47 -145 107c0 14 8 23 21 23zM300 431c128 0 228 -99 228 -226c0 -122 -102 -221 -228 -221c-127 0 -228 99 -228 224
c0 123 101 223 228 223zM300 390c-104 0 -187 -81 -187 -182c0 -102 83 -183 187 -183c103 0 187 81 187 180c0 105 -82 185 -187 185z" />
    <glyph glyph-name="Ohungarumlaut" unicode="&#x150;" 
d="M345 705l-97 -94c-7 -6 -13 -9 -19 -9c-11 0 -20 9 -20 21c0 7 1 9 12 19l98 94c6 6 12 9 18 9c11 0 20 -9 20 -21c0 -6 -2 -9 -12 -19zM487 705l-98 -94c-7 -6 -13 -9 -19 -9c-11 0 -20 9 -20 21c0 8 6 14 12 19l98 94c7 6 13 9 19 9c11 0 20 -9 20 -21
c0 -6 -1 -9 -12 -19zM300 576c141 0 249 -130 249 -300c0 -161 -112 -292 -249 -292c-139 0 -249 131 -249 296s110 296 249 296zM300 535c-115 0 -208 -115 -208 -255s94 -255 208 -255c113 0 208 115 208 252c0 144 -92 258 -208 258z" />
    <glyph glyph-name="ohungarumlaut" unicode="&#x151;" 
d="M345 594l-97 -94c-7 -6 -13 -9 -19 -9c-11 0 -20 9 -20 21c0 7 1 9 12 19l98 94c6 6 12 9 18 9c11 0 20 -9 20 -21c0 -6 -2 -9 -12 -19zM487 594l-98 -94c-7 -6 -13 -9 -19 -9c-11 0 -20 9 -20 21c0 8 6 14 12 19l98 94c7 6 13 9 19 9c11 0 20 -9 20 -21
c0 -6 -1 -9 -12 -19zM300 431c128 0 228 -99 228 -226c0 -122 -102 -221 -228 -221c-127 0 -228 99 -228 224c0 123 101 223 228 223zM300 390c-104 0 -187 -81 -187 -182c0 -102 83 -183 187 -183c103 0 187 81 187 180c0 105 -82 185 -187 185z" />
    <glyph glyph-name="OE" unicode="&#x152;" 
d="M338 272v-231h211v92c0 20 6 27 20 27c13 0 21 -11 21 -27v-133h-327c-152 0 -253 112 -253 282c0 167 99 281 245 281h315v-154c0 -18 -7 -27 -20 -27c-14 0 -21 9 -21 27v113h-191v-209h78v27c0 18 7 27 21 27c13 0 20 -9 20 -27v-96c0 -18 -7 -27 -20 -27
c-14 0 -21 9 -21 27v28h-78zM51 281c0 -99 43 -240 214 -240h32v481h-32c-171 0 -214 -140 -214 -241z" />
    <glyph glyph-name="oe" unicode="&#x153;" 
d="M299 317c33 84 79 114 132 114c58 0 146 -46 146 -232h-258c8 -99 63 -174 127 -174c57 0 90 62 112 62c10 0 20 -10 20 -20c0 -19 -74 -83 -134 -83s-115 46 -145 119c-29 -76 -77 -119 -133 -119c-83 0 -154 105 -154 228c0 118 70 219 153 219c54 0 106 -44 134 -114z
M536 240c-7 55 -21 150 -107 150c-59 0 -96 -50 -109 -150h216zM166 390c-60 0 -113 -85 -113 -182s53 -183 114 -183c59 0 113 86 113 181c0 99 -52 184 -114 184z" />
    <glyph glyph-name="Racute" unicode="&#x154;" 
d="M317 716l-114 -100c-9 -7 -13 -9 -19 -9c-11 0 -20 9 -20 21c0 7 2 10 12 19l114 100c9 7 13 9 19 9c11 0 20 -9 20 -21c0 -7 -3 -11 -12 -19zM165 251v-210h75c18 0 27 -7 27 -20c0 -14 -9 -21 -27 -21h-170c-18 0 -27 7 -27 21c0 13 9 20 27 20h54v481h-54
c-18 0 -27 7 -27 21c0 13 9 20 27 20h248c97 0 180 -72 180 -156c0 -65 -46 -113 -139 -145c63 -43 91 -80 172 -221h31c18 0 27 -7 27 -20c0 -14 -9 -21 -27 -21h-57c-88 162 -132 216 -208 251h-132zM165 292h114c98 0 178 52 178 116c0 60 -67 114 -139 114h-153v-230z
" />
    <glyph glyph-name="racute" unicode="&#x155;" 
d="M435 600l-114 -100c-9 -7 -13 -9 -19 -9c-11 0 -20 9 -20 21c0 7 2 10 12 19l114 100c9 7 13 9 19 9c11 0 20 -9 20 -21c0 -7 -3 -11 -12 -19zM520 344c-17 0 -39 42 -82 42c-45 0 -80 -23 -190 -124v-221h179c17 0 27 -8 27 -21c0 -12 -10 -20 -27 -20h-316
c-17 0 -27 8 -27 21c0 12 10 20 27 20h96v335h-75c-17 0 -27 8 -27 21c0 12 10 20 27 20h116v-102c93 84 142 112 193 112c60 0 100 -49 100 -62c0 -12 -9 -21 -21 -21z" />
    <glyph glyph-name="Rcedilla" unicode="&#x156;" 
d="M262.945 -52.0498h67.8301l-73.9502 -135.15c-5.10059 -9.68945 -9.18066 -12.75 -15.8105 -12.75c-8.15918 0 -14.79 6.62988 -14.79 14.79c0 2.04004 0.510742 3.57031 1.02051 5.61035zM165 251v-210h75c18 0 27 -7 27 -20c0 -14 -9 -21 -27 -21h-170
c-18 0 -27 7 -27 21c0 13 9 20 27 20h54v481h-54c-18 0 -27 7 -27 21c0 13 9 20 27 20h248c97 0 180 -72 180 -156c0 -65 -46 -113 -139 -145c63 -43 91 -80 172 -221h31c18 0 27 -7 27 -20c0 -14 -9 -21 -27 -21h-57c-88 162 -132 216 -208 251h-132zM165 292h114
c98 0 178 52 178 116c0 60 -67 114 -139 114h-153v-230z" />
    <glyph glyph-name="rcedilla" unicode="&#x157;" 
d="M262.945 -52.0498h67.8301l-73.9502 -135.15c-5.10059 -9.68945 -9.18066 -12.75 -15.8105 -12.75c-8.15918 0 -14.79 6.62988 -14.79 14.79c0 2.04004 0.510742 3.57031 1.02051 5.61035zM520 344c-17 0 -39 42 -82 42c-45 0 -80 -23 -190 -124v-221h179
c17 0 27 -8 27 -21c0 -12 -10 -20 -27 -20h-316c-17 0 -27 8 -27 21c0 12 10 20 27 20h96v335h-75c-17 0 -27 8 -27 21c0 12 10 20 27 20h116v-102c93 84 142 112 193 112c60 0 100 -49 100 -62c0 -12 -9 -21 -21 -21z" />
    <glyph glyph-name="Rcaron" unicode="&#x158;" 
d="M300 603l-132 109c-10 7 -13 11 -13 20c0 11 9 20 20 20c5 0 11 -3 18 -8l107 -88l107 88c7 5 13 8 18 8c10 0 20 -10 20 -20c0 -8 -2 -12 -13 -21zM165 251v-210h75c18 0 27 -7 27 -20c0 -14 -9 -21 -27 -21h-170c-18 0 -27 7 -27 21c0 13 9 20 27 20h54v481h-54
c-18 0 -27 7 -27 21c0 13 9 20 27 20h248c97 0 180 -72 180 -156c0 -65 -46 -113 -139 -145c63 -43 91 -80 172 -221h31c18 0 27 -7 27 -20c0 -14 -9 -21 -27 -21h-57c-88 162 -132 216 -208 251h-132zM165 292h114c98 0 178 52 178 116c0 60 -67 114 -139 114h-153v-230z
" />
    <glyph glyph-name="rcaron" unicode="&#x159;" 
d="M312 491l-132 109c-10 7 -13 11 -13 20c0 11 9 20 20 20c5 0 11 -3 18 -8l107 -88l107 88c7 5 13 8 18 8c10 0 20 -10 20 -20c0 -8 -2 -12 -13 -21zM520 344c-17 0 -39 42 -82 42c-45 0 -80 -23 -190 -124v-221h179c17 0 27 -8 27 -21c0 -12 -10 -20 -27 -20h-316
c-17 0 -27 8 -27 21c0 12 10 20 27 20h96v335h-75c-17 0 -27 8 -27 21c0 12 10 20 27 20h116v-102c93 84 142 112 193 112c60 0 100 -49 100 -62c0 -12 -9 -21 -21 -21z" />
    <glyph glyph-name="Sacute" unicode="&#x15a;" 
d="M422 718l-114 -100c-9 -7 -13 -9 -19 -9c-11 0 -20 9 -20 21c0 7 2 10 12 19l114 100c9 7 13 9 19 9c11 0 20 -9 20 -21c0 -7 -3 -11 -12 -19zM464 153c0 181 -349 54 -349 268c0 88 79 155 184 155c59 0 104 -18 146 -59v19c0 18 7 27 21 27c13 0 20 -9 20 -27v-103
c0 -18 -7 -27 -20 -27s-20 8 -21 24c-4 60 -65 105 -143 105c-82 0 -143 -49 -143 -115c0 -169 349 -49 349 -269c0 -97 -86 -167 -206 -167c-69 0 -128 25 -169 72v-29c0 -18 -7 -27 -21 -27c-13 0 -20 9 -20 27v112c0 18 7 27 21 27c13 0 19 -8 20 -24
c3 -66 77 -117 168 -117c93 0 163 54 163 128z" />
    <glyph glyph-name="sacute" unicode="&#x15b;" 
d="M418 600l-114 -100c-9 -7 -13 -9 -19 -9c-11 0 -20 9 -20 21c0 7 2 10 12 19l114 100c9 7 13 9 19 9c11 0 20 -9 20 -21c0 -7 -3 -11 -12 -19zM452 117c0 136 -328 40 -328 201c0 65 73 113 171 113c57 0 102 -15 137 -46v4c0 17 8 28 21 28s20 -9 20 -28v-69
c0 -18 -7 -27 -20 -27c-12 0 -19 7 -21 23c-5 45 -57 74 -133 74c-74 0 -130 -32 -130 -75c0 -111.371 328 -24 328 -199c0 -76 -83 -132 -196 -132c-65 0 -115 17 -157 54v-11c0 -18 -7 -27 -20 -27c-14 0 -21 9 -21 27v83c0 18 7 27 21 27c12 0 20 -9 20 -22v-7
c0 -46 69 -83 154 -83c88 0 154 39 154 92z" />
    <glyph glyph-name="Scircumflex" unicode="&#x15c;" 
d="M299 751l132 -108c11 -9 13 -13 13 -21c0 -11 -9 -20 -20 -20c-5 0 -11 3 -18 8l-107 88l-107 -88c-7 -5 -13 -8 -18 -8c-11 0 -20 9 -20 20c0 8 4 12 13 20zM464 153c0 181 -349 54 -349 268c0 88 79 155 184 155c59 0 104 -18 146 -59v19c0 18 7 27 21 27
c13 0 20 -9 20 -27v-103c0 -18 -7 -27 -20 -27s-20 8 -21 24c-4 60 -65 105 -143 105c-82 0 -143 -49 -143 -115c0 -169 349 -49 349 -269c0 -97 -86 -167 -206 -167c-69 0 -128 25 -169 72v-29c0 -18 -7 -27 -21 -27c-13 0 -20 9 -20 27v112c0 18 7 27 21 27
c13 0 19 -8 20 -24c3 -66 77 -117 168 -117c93 0 163 54 163 128z" />
    <glyph glyph-name="scircumflex" unicode="&#x15d;" 
d="M295 626l132 -108c11 -9 13 -13 13 -21c0 -11 -9 -20 -20 -20c-5 0 -11 3 -18 8l-107 88l-107 -88c-7 -5 -13 -8 -18 -8c-11 0 -20 9 -20 20c0 8 4 12 13 20zM452 117c0 136 -328 40 -328 201c0 65 73 113 171 113c57 0 102 -15 137 -46v4c0 17 8 28 21 28s20 -9 20 -28
v-69c0 -18 -7 -27 -20 -27c-12 0 -19 7 -21 23c-5 45 -57 74 -133 74c-74 0 -130 -32 -130 -75c0 -111.371 328 -24 328 -199c0 -76 -83 -132 -196 -132c-65 0 -115 17 -157 54v-11c0 -18 -7 -27 -20 -27c-14 0 -21 9 -21 27v83c0 18 7 27 21 27c12 0 20 -9 20 -22v-7
c0 -46 69 -83 154 -83c88 0 154 39 154 92z" />
    <glyph glyph-name="Scedilla" unicode="&#x15e;" 
d="M159 420c0 -169 349 -49 349 -269c0 -94 -79 -161 -196 -167v-31c41 -1 65 -23 65 -61c0 -39 -32 -65 -79 -65c-28 0 -88 15 -88 40c0 11 9 19 20 19c13 0 35 -21 67 -21c26 0 44 12 44 29s-15 25 -47 25h-20v66c-59 7 -110 33 -141 71v-29c0 -18 -7 -27 -21 -27
c-13 0 -20 9 -20 27v112c0 18 7 27 21 27c13 0 19 -8 20 -24c3 -66 77 -117 168 -117c94 0 163 54 163 128c0 181 -349 54 -349 268c0 88 79 155 184 155c59 0 105 -19 146 -59v19c0 18 7 27 21 27c13 0 20 -9 20 -27v-103c0 -18 -7 -27 -20 -27s-20 8 -21 24
c-4 60 -65 105 -143 105c-82 0 -143 -49 -143 -115z" />
    <glyph glyph-name="scedilla" unicode="&#x15f;" 
d="M452 117c0 136 -328 40 -328 201c0 65 73 113 170 113c58 0 103 -15 138 -46v4c0 17 8 28 21 28s20 -9 20 -28v-69c0 -18 -7 -27 -20 -27s-19 7 -21 23c-4 44 -58 74 -133 74s-130 -32 -130 -75c0 -87 183 -47 278 -109c31 -21 50 -55 50 -90c0 -74 -74 -127 -185 -132
v-31c41 -1 65 -23 65 -61c0 -39 -32 -65 -79 -65c-28 0 -88 15 -88 40c0 11 9 19 19 19c14 0 35 -21 67 -21c26 0 44 12 44 29s-15 25 -46 25h-20v66c-58 6 -98 22 -130 53v-11c0 -18 -7 -27 -20 -27c-14 0 -21 9 -21 27v83c0 18 7 27 21 27c12 0 20 -9 20 -22v-7
c0 -46 69 -83 154 -83c88 0 154 39 154 92z" />
    <glyph glyph-name="Scaron" unicode="&#x160;" 
d="M308 600l-132 109c-10 7 -13 11 -13 20c0 11 9 20 20 20c5 0 11 -3 18 -8l107 -88l107 88c7 5 13 8 18 8c10 0 20 -10 20 -20c0 -8 -2 -12 -13 -21zM464 153c0 181 -349 54 -349 268c0 88 79 155 184 155c59 0 104 -18 146 -59v19c0 18 7 27 21 27c13 0 20 -9 20 -27
v-103c0 -18 -7 -27 -20 -27s-20 8 -21 24c-4 60 -65 105 -143 105c-82 0 -143 -49 -143 -115c0 -169 349 -49 349 -269c0 -97 -86 -167 -206 -167c-69 0 -128 25 -169 72v-29c0 -18 -7 -27 -21 -27c-13 0 -20 9 -20 27v112c0 18 7 27 21 27c13 0 19 -8 20 -24
c3 -66 77 -117 168 -117c93 0 163 54 163 128z" />
    <glyph glyph-name="scaron" unicode="&#x161;" 
d="M306 490l-132 109c-10 7 -13 11 -13 20c0 11 9 20 20 20c5 0 11 -3 18 -8l107 -88l107 88c7 5 13 8 18 8c10 0 20 -10 20 -20c0 -8 -2 -12 -13 -21zM452 117c0 136 -328 40 -328 201c0 65 73 113 171 113c57 0 102 -15 137 -46v4c0 17 8 28 21 28s20 -9 20 -28v-69
c0 -18 -7 -27 -20 -27c-12 0 -19 7 -21 23c-5 45 -57 74 -133 74c-74 0 -130 -32 -130 -75c0 -111.371 328 -24 328 -199c0 -76 -83 -132 -196 -132c-65 0 -115 17 -157 54v-11c0 -18 -7 -27 -20 -27c-14 0 -21 9 -21 27v83c0 18 7 27 21 27c12 0 20 -9 20 -22v-7
c0 -46 69 -83 154 -83c88 0 154 39 154 92z" />
    <glyph glyph-name="uni0162" unicode="&#x162;" 
d="M236 -114c12 0 35 -21 66 -21c26 0 44 12 44 29s-15 25 -46 25h-20v81h-105c-18 0 -27 7 -27 21c0 13 9 20 27 20h105v481h-167v-73c0 -18 -7 -27 -21 -27c-13 0 -20 9 -20 27v114h456v-114c0 -19 -6 -27 -20 -27c-12 0 -21 11 -21 27v73h-166v-481h105
c18 0 27 -7 27 -20c0 -14 -9 -21 -27 -21h-108v-47c41 -1 65 -23 65 -61c0 -39 -32 -65 -79 -65c-28 0 -88 15 -88 40c0 11 9 19 20 19z" />
    <glyph glyph-name="uni0163" unicode="&#x163;" 
d="M208 -130c12 0 35 -21 66 -21c26 0 44 12 44 29s-15 25 -46 25h-20v81h38v-47c41 -1 65 -23 65 -61c0 -39 -32 -65 -79 -65c-28 0 -88 15 -88 40c0 11 9 19 20 19zM186 417h220c18 0 27 -7 27 -20c0 -14 -9 -21 -27 -21h-220v-267c0 -51 43 -84 112 -84
c56 0 127 17 166 40c8 5 11 6 16 6c10 0 19 -10 19 -20c0 -29 -114 -67 -199 -67c-94 0 -155 48 -155 123v269h-74c-19 0 -28 7 -28 21c0 13 9 20 28 20h74v119c0 18 7 27 21 27s20 -8 20 -27v-119z" />
    <glyph glyph-name="Tcaron" unicode="&#x164;" 
d="M300 603l-132 109c-10 7 -13 11 -13 20c0 11 9 20 20 20c5 0 11 -3 18 -8l107 -88l107 88c7 5 13 8 18 8c10 0 20 -10 20 -20c0 -8 -2 -12 -13 -21zM321 41h105c18 0 27 -7 27 -20c0 -14 -9 -21 -27 -21h-251c-18 0 -27 7 -27 21c0 13 9 20 27 20h105v481h-167v-73
c0 -18 -7 -27 -21 -27c-13 0 -20 9 -20 27v114h456v-114c0 -19 -6 -27 -20 -27c-12 0 -21 11 -21 27v73h-166v-481z" />
    <glyph glyph-name="tcaron" unicode="&#x165;" 
d="M438 613h80l-87 -159c-6 -11 -11 -15 -19 -15c-9 0 -17 8 -17 17c0 3 1 5 1 7zM186 417h220c18 0 27 -7 27 -20c0 -14 -9 -21 -27 -21h-220v-267c0 -51 43 -84 112 -84c56 0 127 17 166 40c8 5 11 6 16 6c10 0 19 -10 19 -20c0 -29 -114 -67 -199 -67
c-94 0 -155 48 -155 123v269h-74c-19 0 -28 7 -28 21c0 13 9 20 28 20h74v119c0 18 7 27 21 27s20 -8 20 -27v-119z" />
    <glyph glyph-name="Tbar" unicode="&#x166;" 
d="M321 337h99c18 0 27 -7 27 -20s-9 -20 -27 -20h-99v-256h105c18 0 27 -7 27 -20c0 -14 -9 -21 -27 -21h-251c-18 0 -27 7 -27 21c0 13 9 20 27 20h105v256h-96c-18 0 -27 7 -27 20s9 20 27 20h96v185h-167v-73c0 -18 -7 -27 -21 -27c-13 0 -20 9 -20 27v114h456v-114
c0 -19 -6 -27 -20 -27c-12 0 -21 11 -21 27v73h-166v-185z" />
    <glyph glyph-name="tbar" unicode="&#x167;" 
d="M145 275v101h-74c-19 0 -28 7 -28 21c0 13 9 20 28 20h74v119c0 18 7 27 21 27s20 -8 20 -27v-119h220c18 0 27 -7 27 -20c0 -14 -9 -21 -27 -21h-220v-101h220c18 0 27 -7 27 -20s-9 -20 -27 -20h-220v-126c0 -51 43 -84 112 -84c56 0 127 17 166 40c8 5 11 6 16 6
c10 0 19 -10 19 -20c0 -29 -114 -67 -199 -67c-94 0 -155 48 -155 123v128h-75c-18 0 -27 7 -27 20s9 20 27 20h75z" />
    <glyph glyph-name="Utilde" unicode="&#x168;" 
d="M362 656c33 0 56 46 73 46c10 0 20 -9 20 -20c0 -18 -51 -67 -91 -67c-47 0 -95 48 -124 48c-45 0 -47 -45 -75 -45c-11 0 -20 8 -20 19c0 23 54 67 94 67c43 0 94 -48 123 -48zM499 522v-337c0 -114 -87 -201 -199 -201c-113 0 -199 87 -199 201v337h-34
c-18 0 -27 7 -27 21s9 20 27 20h149c18 0 27 -7 27 -20c0 -14 -9 -21 -27 -21h-74v-337c0 -90 69 -160 158 -160c88 0 158 70 158 160v337h-74c-18 0 -27 7 -27 21s8 20 27 20h149c19 0 27 -6 27 -20s-9 -21 -27 -21h-34z" />
    <glyph glyph-name="utilde" unicode="&#x169;" 
d="M337 532c33 0 56 46 73 46c10 0 20 -9 20 -20c0 -18 -51 -67 -91 -67c-47 0 -95 48 -124 48c-45 0 -47 -45 -75 -45c-11 0 -20 8 -20 19c0 23 54 67 94 67c43 0 94 -48 123 -48zM439 0v66c-55 -54 -116 -82 -182 -82c-80 0 -133 52 -133 131v261h-54c-18 0 -27 7 -27 21
c0 13 9 20 27 20h95v-302c0 -50 40 -90 91 -90c67 0 128 30 183 90v261h-74c-19 0 -28 7 -28 21c0 13 9 20 28 20h115v-376h34c18 0 27 -7 27 -20c0 -14 -9 -21 -27 -21h-75z" />
    <glyph glyph-name="Umacron" unicode="&#x16a;" 
d="M418 627h-236c-18 0 -27 7 -27 20s9 20 27 20h236c18 0 27 -7 27 -20s-9 -20 -27 -20zM499 522v-337c0 -114 -87 -201 -199 -201c-113 0 -199 87 -199 201v337h-34c-18 0 -27 7 -27 21s9 20 27 20h149c18 0 27 -7 27 -20c0 -14 -9 -21 -27 -21h-74v-337
c0 -90 69 -160 158 -160c88 0 158 70 158 160v337h-74c-18 0 -27 7 -27 21s8 20 27 20h149c19 0 27 -6 27 -20s-9 -21 -27 -21h-34z" />
    <glyph glyph-name="umacron" unicode="&#x16b;" 
d="M393 491h-236c-18 0 -27 7 -27 20s9 20 27 20h236c18 0 27 -7 27 -20s-9 -20 -27 -20zM439 0v66c-55 -54 -116 -82 -182 -82c-80 0 -133 52 -133 131v261h-54c-18 0 -27 7 -27 21c0 13 9 20 27 20h95v-302c0 -50 40 -90 91 -90c67 0 128 30 183 90v261h-74
c-19 0 -28 7 -28 21c0 13 9 20 28 20h115v-376h34c18 0 27 -7 27 -20c0 -14 -9 -21 -27 -21h-75z" />
    <glyph glyph-name="Ubreve" unicode="&#x16c;" 
d="M176 745c12 0 18 -7 20 -22c3 -38 48 -67 104 -67s100 29 104 67c2 15 8 22 21 22c11 0 20 -9 20 -23c0 -60 -63 -107 -145 -107s-145 47 -145 107c0 14 8 23 21 23zM499 522v-337c0 -114 -87 -201 -199 -201c-113 0 -199 87 -199 201v337h-34c-18 0 -27 7 -27 21
s9 20 27 20h149c18 0 27 -7 27 -20c0 -14 -9 -21 -27 -21h-74v-337c0 -90 69 -160 158 -160c88 0 158 70 158 160v337h-74c-18 0 -27 7 -27 21s8 20 27 20h149c19 0 27 -6 27 -20s-9 -21 -27 -21h-34z" />
    <glyph glyph-name="ubreve" unicode="&#x16d;" 
d="M151 621c12 0 18 -7 20 -22c3 -38 48 -67 104 -67s100 29 104 67c2 15 8 22 21 22c11 0 20 -9 20 -23c0 -60 -63 -107 -145 -107s-145 47 -145 107c0 14 8 23 21 23zM439 0v66c-55 -54 -116 -82 -182 -82c-80 0 -133 52 -133 131v261h-54c-18 0 -27 7 -27 21
c0 13 9 20 27 20h95v-302c0 -50 40 -90 91 -90c67 0 128 30 183 90v261h-74c-19 0 -28 7 -28 21c0 13 9 20 28 20h115v-376h34c18 0 27 -7 27 -20c0 -14 -9 -21 -27 -21h-75z" />
    <glyph glyph-name="Uring" unicode="&#x16e;" 
d="M300 781c52 0 93 -40 93 -92c0 -48 -42 -89 -93 -89s-93 41 -93 91c0 49 42 90 93 90zM300 748c-33 0 -60 -26 -60 -57c0 -32 27 -58 60 -58s60 26 60 57c0 32 -27 58 -60 58zM499 522v-337c0 -114 -87 -201 -199 -201c-113 0 -199 87 -199 201v337h-34
c-18 0 -27 7 -27 21s9 20 27 20h149c18 0 27 -7 27 -20c0 -14 -9 -21 -27 -21h-74v-337c0 -90 69 -160 158 -160c88 0 158 70 158 160v337h-74c-18 0 -27 7 -27 21s8 20 27 20h149c19 0 27 -6 27 -20s-9 -21 -27 -21h-34z" />
    <glyph glyph-name="uring" unicode="&#x16f;" 
d="M275 672c52 0 93 -40 93 -92c0 -48 -42 -89 -93 -89s-93 41 -93 91c0 49 42 90 93 90zM275 639c-33 0 -60 -26 -60 -57c0 -32 27 -58 60 -58s60 26 60 57c0 32 -27 58 -60 58zM439 0v66c-55 -54 -116 -82 -182 -82c-80 0 -133 52 -133 131v261h-54c-18 0 -27 7 -27 21
c0 13 9 20 27 20h95v-302c0 -50 40 -90 91 -90c67 0 128 30 183 90v261h-74c-19 0 -28 7 -28 21c0 13 9 20 28 20h115v-376h34c18 0 27 -7 27 -20c0 -14 -9 -21 -27 -21h-75z" />
    <glyph glyph-name="Uhungarumlaut" unicode="&#x170;" 
d="M345 708l-97 -94c-7 -6 -13 -9 -19 -9c-11 0 -20 9 -20 21c0 7 1 9 12 19l98 94c6 6 12 9 18 9c11 0 20 -9 20 -21c0 -6 -2 -9 -12 -19zM487 708l-98 -94c-7 -6 -13 -9 -19 -9c-11 0 -20 9 -20 21c0 8 6 14 12 19l98 94c7 6 13 9 19 9c11 0 20 -9 20 -21
c0 -6 -1 -9 -12 -19zM499 522v-337c0 -114 -87 -201 -199 -201c-113 0 -199 87 -199 201v337h-34c-18 0 -27 7 -27 21s9 20 27 20h149c18 0 27 -7 27 -20c0 -14 -9 -21 -27 -21h-74v-337c0 -90 69 -160 158 -160c88 0 158 70 158 160v337h-74c-18 0 -27 7 -27 21s8 20 27 20
h149c19 0 27 -6 27 -20s-9 -21 -27 -21h-34z" />
    <glyph glyph-name="uhungarumlaut" unicode="&#x171;" 
d="M321 594l-97 -94c-7 -6 -13 -9 -19 -9c-11 0 -20 9 -20 21c0 7 1 9 12 19l98 94c6 6 12 9 18 9c11 0 20 -9 20 -21c0 -6 -2 -9 -12 -19zM463 594l-98 -94c-7 -6 -13 -9 -19 -9c-11 0 -20 9 -20 21c0 8 6 14 12 19l98 94c7 6 13 9 19 9c11 0 20 -9 20 -21
c0 -6 -1 -9 -12 -19zM439 0v66c-55 -54 -116 -82 -182 -82c-80 0 -133 52 -133 131v261h-54c-18 0 -27 7 -27 21c0 13 9 20 27 20h95v-302c0 -50 40 -90 91 -90c67 0 128 30 183 90v261h-74c-19 0 -28 7 -28 21c0 13 9 20 28 20h115v-376h34c18 0 27 -7 27 -20
c0 -14 -9 -21 -27 -21h-75z" />
    <glyph glyph-name="Uogonek" unicode="&#x172;" 
d="M383 -123c35 0 45 19 56 19c7 0 14 -7 14 -15c0 -17 -39 -36 -77 -36c-47 0 -76 23 -76 61c0 36 17 60 60 86c-29 -6 -42 -8 -61 -8c-112 0 -198 87 -198 201v337h-34c-18 0 -27 7 -27 21s9 20 27 20h149c18 0 27 -7 27 -20c0 -14 -9 -21 -27 -21h-74v-337
c0 -90 69 -160 158 -160c88 0 158 70 158 160v337h-74c-18 0 -27 7 -27 21s8 20 27 20h149c19 0 27 -6 27 -20s-9 -21 -27 -21h-34v-337c0 -164 -160 -185 -160 -274c0 -23 15 -34 44 -34z" />
    <glyph glyph-name="uogonek" unicode="&#x173;" 
d="M485 -123c37 0 45 19 57 19c7 0 14 -7 14 -15c0 -17 -39 -36 -77 -36c-48 0 -76 23 -76 61c0 42 21 67 77 94h-41v66c-55 -54 -116 -82 -182 -82c-80 0 -133 52 -133 131v261h-54c-18 0 -27 7 -27 21c0 13 9 20 27 20h95v-302c0 -50 40 -90 91 -90c67 0 128 30 183 90
v261h-74c-19 0 -28 7 -28 21c0 13 9 20 28 20h115v-376h34c18 0 27 -7 27 -20c0 -27 -99 -47 -99 -110c0 -23 15 -34 43 -34z" />
    <glyph glyph-name="Wcircumflex" unicode="&#x174;" 
d="M300 751l132 -108c11 -9 13 -13 13 -21c0 -11 -9 -20 -20 -20c-5 0 -11 3 -18 8l-107 88l-107 -88c-7 -5 -13 -8 -18 -8c-11 0 -20 9 -20 20c0 8 4 12 13 20zM122 0l-60 522h-15c-18 0 -27 7 -27 21c0 13 9 20 27 20h149c19 0 28 -7 28 -20c0 -14 -9 -21 -28 -21h-93
l56 -476l112 392h62l109 -392l57 476h-96c-18 0 -27 7 -27 21c0 13 9 20 27 20h150c18 0 27 -7 27 -20c0 -14 -9 -21 -27 -21h-15l-62 -522h-64l-112 400l-115 -400h-63z" />
    <glyph glyph-name="wcircumflex" unicode="&#x175;" 
d="M300 640l132 -108c11 -9 13 -13 13 -21c0 -11 -9 -20 -20 -20c-5 0 -11 3 -18 8l-107 88l-107 -88c-7 -5 -13 -8 -18 -8c-11 0 -20 9 -20 20c0 8 4 12 13 20zM441 0h-50l-91 259l-89 -259h-51l-84 376h-19c-18 0 -27 7 -27 21c0 13 9 20 27 20h111c18 0 27 -7 27 -20
c0 -14 -9 -21 -27 -21h-53l72 -320l86 255h51l89 -255l69 320h-50c-18 0 -27 7 -27 21c0 13 9 20 27 20h111c18 0 27 -7 27 -20c0 -14 -9 -21 -27 -21h-19z" />
    <glyph glyph-name="Ycircumflex" unicode="&#x176;" 
d="M300 752l132 -108c11 -9 13 -13 13 -21c0 -11 -9 -20 -20 -20c-5 0 -11 3 -18 8l-107 88l-107 -88c-7 -5 -13 -8 -18 -8c-11 0 -20 9 -20 20c0 8 4 12 13 20zM322 254v-213h105c18 0 27 -7 27 -20c0 -14 -9 -21 -27 -21h-251c-18 0 -27 7 -27 21c0 13 9 20 27 20h105v213
l-179 268h-24c-18 0 -27 7 -27 21c0 13 9 20 27 20h111c18 0 27 -7 27 -20c0 -14 -9 -21 -27 -21h-38l152 -227l149 227h-40c-19 0 -28 7 -28 21c0 13 9 20 28 20h110c17 0 27 -8 27 -20c0 -13 -11 -21 -27 -21h-24z" />
    <glyph glyph-name="ycircumflex" unicode="&#x177;" 
d="M300 640l132 -108c11 -9 13 -13 13 -21c0 -11 -9 -20 -20 -20c-5 0 -11 3 -18 8l-107 88l-107 -88c-7 -5 -13 -8 -18 -8c-11 0 -20 9 -20 20c0 8 4 12 13 20zM282 0l-188 376h-16c-18 0 -27 7 -27 21c0 13 9 20 27 20h115c18 0 27 -7 27 -20c0 -14 -9 -21 -27 -21h-52
l164 -331l161 331h-54c-18 0 -27 7 -27 21c0 13 9 20 27 20h110c18 0 27 -7 27 -20c0 -14 -9 -21 -27 -21h-14l-256 -521h65c18 0 27 -7 27 -20c0 -14 -9 -21 -27 -21h-233c-18 0 -27 7 -27 21c0 13 9 20 27 20h127z" />
    <glyph glyph-name="Ydieresis" unicode="&#x178;" 
d="M190 722c28 0 50 -23 50 -51c0 -26 -23 -49 -50 -49s-50 23 -50 50s23 50 50 50zM411 722c28 0 50 -23 50 -51c0 -26 -23 -49 -50 -49s-50 23 -50 50s23 50 50 50zM322 254v-213h105c18 0 27 -7 27 -20c0 -14 -9 -21 -27 -21h-251c-18 0 -27 7 -27 21c0 13 9 20 27 20
h105v213l-179 268h-24c-18 0 -27 7 -27 21c0 13 9 20 27 20h111c18 0 27 -7 27 -20c0 -14 -9 -21 -27 -21h-38l152 -227l149 227h-40c-19 0 -28 7 -28 21c0 13 9 20 28 20h110c17 0 27 -8 27 -20c0 -13 -11 -21 -27 -21h-24z" />
    <glyph glyph-name="Zacute" unicode="&#x179;" 
d="M376 721l-114 -100c-9 -7 -13 -9 -19 -9c-11 0 -20 9 -20 21c0 7 2 10 12 19l114 100c9 7 13 9 19 9c11 0 20 -9 20 -21c0 -7 -3 -11 -12 -19zM497 0h-394v59l328 460v3h-269v-118c0 -19 -7 -28 -20 -28c-14 0 -21 9 -21 28v159h349v-58l-328 -460v-4h314v141
c0 18 6 27 20 27s21 -9 21 -27v-182z" />
    <glyph glyph-name="zacute" unicode="&#x17a;" 
d="M377 600l-114 -100c-9 -7 -13 -9 -19 -9c-11 0 -20 9 -20 21c0 7 2 10 12 19l114 100c9 7 13 9 19 9c11 0 20 -9 20 -21c0 -7 -3 -11 -12 -19zM474 417v-36l-303 -340h277v56c0 18 7 27 21 27c13 0 20 -9 20 -27v-97h-374v36l301 340h-251v-55c0 -18 -7 -27 -20 -27
c-14 0 -21 9 -21 27v96h350z" />
    <glyph glyph-name="Zdotaccent" unicode="&#x17b;" 
d="M296 718c28 0 50 -23 50 -51c0 -26 -23 -49 -50 -49s-50 23 -50 50s23 50 50 50zM497 0h-394v59l328 460v3h-269v-118c0 -19 -7 -28 -20 -28c-14 0 -21 9 -21 28v159h349v-58l-328 -460v-4h314v141c0 18 6 27 20 27s21 -9 21 -27v-182z" />
    <glyph glyph-name="zdotaccent" unicode="&#x17c;" 
d="M299 605c28 0 50 -23 50 -51c0 -26 -23 -49 -50 -49s-50 23 -50 50s23 50 50 50zM474 417v-36l-303 -340h277v56c0 18 7 27 21 27c13 0 20 -9 20 -27v-97h-374v36l301 340h-251v-55c0 -18 -7 -27 -20 -27c-14 0 -21 9 -21 27v96h350z" />
    <glyph glyph-name="Zcaron" unicode="&#x17d;" 
d="M296 605l-132 109c-10 7 -13 11 -13 20c0 11 9 20 20 20c5 0 11 -3 18 -8l107 -88l107 88c7 5 13 8 18 8c10 0 20 -10 20 -20c0 -8 -2 -12 -13 -21zM497 0h-394v59l328 460v3h-269v-118c0 -19 -7 -28 -20 -28c-14 0 -21 9 -21 28v159h349v-58l-328 -460v-4h314v141
c0 18 6 27 20 27s21 -9 21 -27v-182z" />
    <glyph glyph-name="zcaron" unicode="&#x17e;" 
d="M299 491l-132 109c-10 7 -13 11 -13 20c0 11 9 20 20 20c5 0 11 -3 18 -8l107 -88l107 88c7 5 13 8 18 8c10 0 20 -10 20 -20c0 -8 -2 -12 -13 -21zM474 417v-36l-303 -340h277v56c0 18 7 27 21 27c13 0 20 -9 20 -27v-97h-374v36l301 340h-251v-55c0 -18 -7 -27 -20 -27
c-14 0 -21 9 -21 27v96h350z" />
    <glyph glyph-name="longs" unicode="&#x17f;" 
d="M520 551c-9 0 -81 12 -138 12c-66 0 -111 -35 -111 -85v-437h178c18 0 27 -7 27 -20c0 -14 -10 -21 -27 -21h-317c-18 0 -27 7 -27 21c0 13 9 20 27 20h98v335h-88c-18 0 -27 7 -27 21c0 13 9 20 27 20h88v61c0 73 64 126 154 126c38 0 107 -7 139 -13
c12 -3 18 -10 18 -20c0 -12 -9 -20 -21 -20z" />
    <glyph glyph-name="uni0180" unicode="&#x180;" 
d="M322 390c-99 0 -178 -81 -178 -182s79 -183 178 -183c97 0 178 82 178 180c0 104 -78 185 -178 185zM103 520v43h-54c-18 0 -27 7 -27 21c0 13 9 20 27 20h95v-84h138c18 0 27 -7 27 -20c0 -14 -9 -21 -27 -21h-138v-151c50 71 106 103 180 103c122 0 217 -97 217 -221
c0 -125 -97 -226 -217 -226c-73 0 -133 34 -180 104v-88h-95c-18 0 -27 7 -27 21c0 13 9 20 27 20h54v438h-54c-18 0 -27 7 -27 21c0 13 9 20 27 20h54z" />
    <glyph glyph-name="uni0181" unicode="&#x181;" 
d="M165 313h147c85 0 146 44 146 106c0 58 -56 103 -129 103h-164v-209zM500 153c0 49 -35 119 -186 119h-149v-231h208c71 0 127 50 127 112zM70 563h258c97 0 171 -63 171 -145c0 -51 -26 -88 -85 -120c84 -30 127 -78 127 -145c0 -84 -74 -153 -165 -153h-306
c-18 0 -27 7 -27 21c0 13 9 20 27 20h54v481h-54c-23 0 -55 -25 -55 -52v-2c0 -31 27 -53 53 -53c12 0 21 -9 21 -21c0 -11 -9 -20 -21 -20c-48 0 -94 40 -94 96c0 57 51 93 96 93z" />
    <glyph glyph-name="uni0182" unicode="&#x182;" 
d="M313 323c184 0 229 -98 229 -165c0 -84 -74 -158 -165 -158h-306c-18 0 -27 7 -27 21c0 13 9 20 27 20h54v481h-54c-18 0 -27 7 -27 21c0 13 9 20 27 20h440v-139c0 -18 -7 -27 -21 -27c-13 0 -20 9 -20 27v98h-304v-199h147zM501 158c0 48 -28 124 -186 124h-149v-241
h208c71 0 127 55 127 117z" />
    <glyph glyph-name="uni0183" unicode="&#x183;" 
d="M322 390c-99 0 -178 -81 -178 -182s79 -183 178 -183c97 0 178 82 178 180c0 104 -78 185 -178 185zM144 563v-235c50 71 106 103 180 103c122 0 217 -97 217 -221c0 -125 -97 -226 -217 -226c-73 0 -133 34 -180 104v-88h-95c-18 0 -27 7 -27 21c0 13 9 20 27 20h54v522
h-54c-18 0 -27 7 -27 21c0 13 9 20 27 20h424c18 0 27 -7 27 -20c0 -14 -9 -21 -27 -21h-329z" />
    <glyph glyph-name="uni0184" unicode="&#x184;" 
d="M508 153c0 49 -35 119 -186 119h-149v-231h208c71 0 127 50 127 112zM173 476v-163h147c184 0 229 -93 229 -160c0 -84 -74 -153 -165 -153h-306c-18 0 -27 7 -27 21c0 13 9 20 27 20h54v407l-50 -35s-11 -6 -17 -6c-10 0 -19 10 -19 21c0 9 4 14 16 21l70 48v66
c0 18 7 27 20 27c14 0 21 -9 21 -27v-37l74 51s12 6 17 6c10 0 19 -9 19 -20c0 -10 -4 -14 -16 -21z" />
    <glyph glyph-name="uni0185" unicode="&#x185;" 
d="M144 208c0 -101 79 -183 178 -183c97 0 178 82 178 180c0 104 -78 185 -178 185c-99 0 -178 -81 -178 -182zM144 475v-147c50 71 106 103 180 103c122 0 217 -97 217 -221c0 -125 -97 -226 -217 -226c-73 0 -133 34 -180 104v-88h-95c-18 0 -27 7 -27 21c0 13 9 20 27 20
h54v405l-45 -31s-11 -6 -17 -6c-10 0 -19 10 -19 21c0 9 4 14 16 21l65 45v67c0 18 7 27 20 27c14 0 21 -9 21 -27v-39l79 55s12 6 17 6c10 0 19 -9 19 -20c0 -10 -4 -14 -16 -21z" />
    <glyph glyph-name="uni0186" unicode="&#x186;" 
d="M83 125c30 0 58 -100 192 -100c118 0 218 103 218 223v71c0 119 -90 216 -201 216c-89 0 -169 -53 -173 -114c-1 -16 -8 -24 -20 -24c-14 0 -21 9 -21 27v112c0 18 7 27 20 27c14 0 21 -9 21 -27v-29c47 45 107 69 173 69c194 0 242 -192 242 -251v-83
c0 -135 -123 -258 -259 -258c-122 0 -212 97 -212 122c0 11 8 19 20 19z" />
    <glyph glyph-name="uni0187" unicode="&#x187;" 
d="M63 325c0 53 42 251 242 251c66 0 126 -24 173 -69v29c0 46 36 96 93 96c56 0 96 -45 96 -94c0 -11 -9 -20 -20 -20c-12 0 -21 9 -21 20c0 26 -23 54 -56 54c-26 -1 -51 -32 -51 -56v-112c0 -18 -7 -27 -21 -27c-12 0 -19 8 -20 24c-4 61 -84 114 -173 114
c-111 0 -201 -97 -201 -216v-71c0 -120 100 -223 218 -223c69 0 120 26 174 90c7 8 11 10 18 10c12 0 20 -8 20 -19c0 -20 -85 -122 -212 -122c-136 0 -259 123 -259 258v83z" />
    <glyph glyph-name="uni0188" unicode="&#x188;" 
d="M535 88c0 -21 -90 -104 -226 -104c-131 0 -225 92 -225 220c0 132 96 227 230 227c61 0 115 -19 156 -55v13c0 46 36 96 93 96c56 0 96 -45 96 -94c0 -11 -9 -20 -20 -20c-12 0 -21 9 -21 20c0 26 -23 54 -56 54c-26 -1 -51 -32 -51 -56v-91c0 -18 -7 -27 -20 -27
s-19 7 -21 24c-4 53 -75 95 -159 95c-110 0 -186 -75 -186 -185c0 -105 77 -180 186 -180c73 0 135 24 187 72c8 8 11 10 18 10c10 0 19 -9 19 -19z" />
    <glyph glyph-name="uni0189" unicode="&#x189;" 
d="M104 272h-77c-18 0 -27 7 -27 21c0 13 9 20 27 20h77v209h-34c-18 0 -27 7 -27 21c0 13 9 20 27 20h220c126 0 230 -115 230 -253v-56c0 -139 -104 -254 -230 -254h-220c-18 0 -27 7 -27 21c0 13 9 20 27 20h34v231zM479 319c0 41 -38 203 -191 203h-143v-209h162
c18 0 27 -7 27 -20c0 -14 -9 -21 -27 -21h-162v-231h150c94 0 184 99 184 204v74z" />
    <glyph glyph-name="uni018A" unicode="&#x18a;" 
d="M479 318c0 41 -38 204 -191 204h-143v-481h150c96 0 184 98 184 204v73zM34 563h256c129 0 230 -112 230 -253v-56c0 -142 -101 -254 -230 -254h-220c-18 0 -27 7 -27 21c0 13 9 20 27 20h34v481h-70c-24 0 -55 -25 -56 -51c0 -33 28 -56 54 -56c11 0 20 -9 20 -21
c0 -11 -9 -20 -20 -20c-49 0 -94 40 -94 96c0 57 51 93 96 93z" />
    <glyph glyph-name="uni018B" unicode="&#x18b;" 
d="M287 323h147v199h-304v-98c0 -18 -7 -27 -20 -27c-14 0 -21 9 -21 27v139h440c18 0 27 -7 27 -20c0 -14 -9 -21 -27 -21h-54v-481h54c18 0 27 -7 27 -20c0 -14 -9 -21 -27 -21h-306c-91 0 -165 74 -165 158c0 67 45 165 229 165zM99 158c0 -62 56 -117 127 -117h208v241
h-149c-158 0 -186 -76 -186 -124z" />
    <glyph glyph-name="uni018C" unicode="&#x18c;" 
d="M241 390c-100 0 -178 -81 -178 -185c0 -98 81 -180 178 -180c99 0 178 82 178 183s-79 182 -178 182zM419 563h-329c-18 0 -27 7 -27 21c0 13 9 20 27 20h424c18 0 27 -7 27 -20c0 -14 -9 -21 -27 -21h-54v-522h54c18 0 27 -7 27 -20c0 -14 -9 -21 -27 -21h-95v88
c-47 -70 -107 -104 -180 -104c-120 0 -217 101 -217 226c0 124 95 221 217 221c74 0 130 -32 180 -103v235z" />
    <glyph glyph-name="uni018D" unicode="&#x18d;" 
d="M433 -73c0 42 -59 74 -142 74c-80 0 -135 41 -174 86c-32 36 -49 83 -49 145c0 119 90 228 225 228c125 0 225 -106 225 -228c0 -63 -16 -111 -47 -143s-59 -59 -89 -67c48 -8 92 -43 92 -93c0 -76 -54 -116 -130 -116c-66 0 -177 30 -214 39v-24c0 -16 -6 -27 -21 -27
c-14 0 -20 11 -20 27v78c0 17 6 29 20 29c16 0 21 -11 21 -29v-14s154 -39 211 -39c54 0 92 24 92 74zM293 419c-114 0 -184 -91 -184 -187c0 -150 141 -188 184 -188c105 0 184 84 184 188c0 52 -15 91 -55 132c-40 40 -79 55 -129 55z" />
    <glyph glyph-name="uni018E" unicode="&#x18e;" 
d="M398 272h-145v-45c0 -18 -7 -27 -21 -27c-13 0 -20 9 -20 27v131c0 18 7 27 20 27c14 0 21 -9 21 -27v-45h145v209h-293v-98c0 -18 -7 -27 -20 -27c-14 0 -21 9 -21 27v139h429c18 0 27 -7 27 -20c0 -14 -9 -21 -27 -21h-54v-481h54c18 0 27 -7 27 -20
c0 -14 -9 -21 -27 -21h-450v160c0 18 7 27 20 27c14 0 21 -9 21 -27v-119h314v231z" />
    <glyph glyph-name="uni018F" unicode="&#x18f;" 
d="M493 253l-402 -1v-11c0 -119 90 -216 201 -216s201 97 201 216v12zM292 -16c-194 0 -242 192 -242 251v58h443v19c0 120 -100 223 -218 223c-69 0 -120 -26 -174 -90c-7 -8 -11 -10 -18 -10c-12 0 -20 8 -20 19c0 20 85 122 212 122c136 0 259 -123 259 -258v-83
c0 -53 -42 -251 -242 -251z" />
    <glyph glyph-name="uni0190" unicode="&#x190;" 
d="M297 270c-97 0 -161 -47 -161 -117c0 -74 70 -128 163 -128c91 0 165 51 168 117c1 16 7 24 20 24c14 0 21 -9 21 -27v-112c0 -18 -7 -27 -20 -27c-14 0 -21 9 -21 27v29c-41 -47 -100 -72 -169 -72c-120 0 -206 70 -206 167c0 73 46 121 110 140v7
c-51 18 -88 63 -88 123c0 88 79 155 184 155c59 0 104 -18 146 -59v19c0 18 7 27 21 27c13 0 20 -9 20 -27v-103c0 -18 -7 -27 -20 -27s-20 8 -21 24c-4 60 -65 105 -143 105c-82 0 -143 -49 -143 -115c0 -67 67 -109 152 -109h48c18 0 27 -7 27 -20c0 -14 -9 -21 -27 -21
h-61z" />
    <glyph glyph-name="uni0191" unicode="&#x191;" 
d="M26 -39c13 0 33 -13 70 -13c44 0 73 48 73 116v458h-54c-18 0 -27 7 -27 21c0 13 9 20 27 20h450v-139c0 -18 -7 -27 -21 -27c-13 0 -20 9 -20 27v98h-314v-209h145v45c0 18 7 27 20 27c14 0 21 -9 21 -27v-131c0 -18 -7 -27 -21 -27c-13 0 -20 9 -20 27v45h-145v-231
c-8 -76 -48 -133 -115 -134c-19 0 -87 7 -87 34c0 11 8 20 18 20z" />
    <glyph glyph-name="florin" unicode="&#x192;" 
d="M499 566c-11 0 -28 11 -64 11c-68 0 -114 -47 -114 -115v-87h96c18 0 27 -7 27 -20c0 -14 -9 -21 -27 -21h-96v-276c0 -84 -65 -151 -147 -151c-19 0 -87 7 -87 34c0 11 8 20 18 20c13 0 33 -13 70 -13c61 0 105 48 105 116v270h-96c-18 0 -27 7 -27 21c0 13 9 20 27 20
h96v87c0 87 66 156 151 156c18 0 87 -5 87 -32c0 -11 -9 -20 -19 -20z" />
    <glyph glyph-name="uni0193" unicode="&#x193;" 
d="M63 318c0 135 100 258 250 258c66 0 121 -18 166 -54v14c0 46 36 96 93 96c56 0 96 -45 96 -94c0 -11 -9 -20 -20 -20c-12 0 -21 9 -21 20c0 26 -23 54 -56 54c-26 -1 -51 -32 -51 -56v-91c0 -18 -7 -27 -20 -27s-19 8 -20 25c-4 51 -76 92 -165 92
c-177 0 -211 -173 -211 -218v-73c0 -136 88 -219 232 -219c52 0 87 8 143 34v150h-139c-18 0 -27 7 -27 21c0 13 9 20 27 20h194c19 0 28 -7 28 -20c0 -14 -9 -21 -28 -21h-14v-173c-59 -34 -125 -52 -187 -52c-164 0 -270 102 -270 260v74z" />
    <glyph glyph-name="uni0194" unicode="&#x194;" 
d="M300 227c-30 -46 -60 -70 -60 -121v-2c0 -40 12 -90 60 -90c54 0 60 54 60 90c-1 42 -28 75 -60 123zM277 261l-178 261h-24c-18 0 -27 7 -27 21c0 13 9 20 27 20h111c18 0 27 -7 27 -20c0 -14 -9 -21 -27 -21h-38l152 -227l149 227h-40c-19 0 -28 7 -28 21
c0 13 9 20 28 20h110c17 0 27 -8 27 -20c0 -13 -11 -21 -27 -21h-24l-172 -260c21 -28 78 -92 78 -158c0 -74 -35 -131 -101 -131s-101 65 -101 131c0 79 56 128 78 157z" />
    <glyph glyph-name="uni0195" unicode="&#x195;" 
d="M581 116c-1 -72 -50 -132 -131 -132c-49 0 -79 19 -110 57c-19 24 -19 74 -19 74v182c0 79 -40 93 -68 93h-23c-56 0 -89 -60 -94 -74l-7 -20v-255h45c19 0 28 -7 28 -20c0 -14 -10 -21 -28 -21h-132c-17 0 -27 7 -27 21c0 13 9 20 27 20h46v522h-54c-18 0 -27 7 -27 21
c0 13 9 20 27 20h95l-1 -244c22 45 45 71 104 71c97 0 130 -57 130 -140v-176c0 -50 40 -90 91 -90c67 0 86 60 86 93v258h-74c-19 0 -28 7 -28 21c0 13 9 20 28 20h115z" />
    <glyph glyph-name="uni0196" unicode="&#x196;" 
d="M502 68c0 -15 -50 -76 -132 -76c-68 0 -109 54 -109 128v403h-61c-15 0 -27 7 -27 20c0 16 10 20 27 20h102v-443c0 -62 26 -87 68 -87c75 0 92 55 112 55c5 0 20 -4 20 -20z" />
    <glyph glyph-name="uni0197" unicode="&#x197;" 
d="M279 321v201h-139c-18 0 -27 7 -27 21c0 13 9 20 27 20h319c19 0 28 -7 28 -20c0 -14 -9 -21 -28 -21h-139v-201h100c18 0 27 -7 27 -20s-9 -20 -27 -20h-100v-240h139c19 0 28 -7 28 -20c0 -14 -10 -21 -28 -21h-319c-18 0 -27 7 -27 21c0 13 9 20 27 20h139v240h-95
c-18 0 -27 7 -27 20s9 20 27 20h95z" />
    <glyph glyph-name="uni0198" unicode="&#x198;" 
d="M502 522l-222 -198c97 -40 134 -91 209 -283h56c18 0 27 -7 27 -20c0 -14 -9 -21 -27 -21h-87c-73 203 -117 263 -212 294l-81 -73v-180h75c18 0 27 -7 27 -20c0 -14 -9 -21 -27 -21h-170c-18 0 -27 7 -27 21c0 13 9 20 27 20h54v481h-54c-18 0 -27 7 -27 21
c0 13 9 20 27 20h170c18 0 27 -7 27 -20c0 -14 -9 -21 -27 -21h-75v-249l280 249h-45c-19 0 -28 7 -28 21c0 13 9 20 28 20h118c45 0 96 -36 96 -93c0 -56 -45 -96 -94 -96c-11 0 -20 9 -20 20c0 12 9 21 20 21c26 0 54 23 54 56c-1 26 -32 51 -56 51h-16z" />
    <glyph glyph-name="uni0199" unicode="&#x199;" 
d="M363 566c-11 0 -28 11 -64 11c-68 0 -114 -47 -114 -115v-233l173 147h-22c-18 0 -27 7 -27 21c0 13 9 20 27 20h130c18 0 27 -7 27 -20c0 -14 -9 -21 -27 -21h-47l-157 -131l207 -204h45c18 0 27 -7 27 -20c0 -14 -9 -21 -27 -21h-131c-18 0 -27 7 -27 21
c0 13 9 20 27 20h28l-180 178l-46 -39v-180h-95c-18 0 -27 7 -27 21c0 13 9 20 27 20h54v421c0 87 66 156 151 156c18 0 87 -5 87 -32c0 -11 -9 -20 -19 -20z" />
    <glyph glyph-name="uni019A" unicode="&#x19a;" 
d="M445 297c0 -5 -5 -23 -27 -23h-98v-233h160c19 0 28 -7 28 -20c0 -14 -10 -21 -28 -21h-361c-18 0 -27 7 -27 21c0 13 9 20 27 20h160v233h-97c-18 0 -27 7 -27 20s9 20 27 20h97v249h-117c-18 0 -27 7 -27 21c0 13 9 20 27 20h158v-290h98c17 0 27 -6 27 -17z" />
    <glyph glyph-name="uni019B" unicode="&#x19b;" 
d="M203 614c42 0 53 -34 53 -41l15 -32l72 49s12 6 17 6c10 0 19 -9 19 -20c0 -10 -4 -14 -16 -21l-74 -52l221 -464h17c10 0 17 -1 19 -8l4 -13c0 -15 -11 -20 -28 -20h-110c-15 0 -25 5 -25 20c0 14 10 21 25 21h56l-163 340l-163 -340h53c16 0 27 -6 27 -21
s-11 -20 -27 -20h-110c-7 0 -12 1 -15 2c-6 0 -12 13 -12 18c0 14 12 21 27 21h12l186 385l-27 56l-78 -54s-11 -6 -17 -6c-10 0 -19 10 -19 21c0 9 4 14 16 21l80 56l-26 55h-94c-15 0 -27 6 -27 21s11 20 27 20h85z" />
    <glyph glyph-name="uni019C" unicode="&#x19c;" 
d="M492 0v52c-34 -48 -63 -66 -105 -66c-43 0 -75 23 -97 71c-39 -50 -72 -71 -113 -71c-58 0 -105 49 -105 108v428h-34c-18 0 -27 7 -27 20c0 14 9 21 27 21h74v-465c0 -38 31 -71 66 -71c36 0 66 24 104 82v413h-34c-18 0 -27 7 -27 20c0 14 9 21 27 21h74v-462
c0 -39 31 -74 65 -74c35 0 67 25 105 82v413h-34c-18 0 -27 7 -27 20c0 14 10 21 27 21h109c17 0 26 -7 26 -21c0 -13 -9 -20 -27 -20h-34v-481h34c18 0 27 -7 27 -21c0 -13 -9 -20 -27 -20h-74z" />
    <glyph glyph-name="uni019D" unicode="&#x19d;" 
d="M210 58c0 -84 -44 -150 -115 -151c-19 0 -87 7 -87 34c0 11 8 20 18 20c13 0 33 -13 70 -13c44 0 73 48 73 116v458h-54c-18 0 -27 7 -27 21c0 13 9 20 27 20h106l273 -504v463h-74c-19 0 -28 7 -28 21c0 13 9 20 28 20h149c18 0 27 -7 27 -20c0 -14 -9 -21 -27 -21h-34
v-522h-52l-273 504v-446z" />
    <glyph glyph-name="uni019E" unicode="&#x19e;" 
d="M319 390c-89 0 -130 -68 -152 -96v-253h45c18 0 27 -7 27 -20c0 -14 -9 -21 -27 -21h-131c-19 0 -28 7 -28 21c0 13 9 20 28 20h45v335h-34c-18 0 -27 7 -27 21c0 13 9 20 27 20h75v-69c58 64 94 83 156 83c89 0 157 -59 157 -136v-438h34c18 0 27 -7 27 -20
c0 -14 -9 -21 -27 -21h-109c-18 0 -27 7 -27 21c0 13 9 20 27 20h34v431c0 56 -45 102 -120 102z" />
    <glyph glyph-name="uni019F" unicode="&#x19f;" 
d="M300 576c141 0 249 -130 249 -300c0 -161 -112 -292 -249 -292c-139 0 -249 131 -249 296s110 296 249 296zM507 300c-9 133 -97 235 -207 235c-109 0 -199 -104 -207 -235h414zM508 260h-415c8 -131 98 -235 207 -235c108 0 200 106 208 235z" />
    <glyph glyph-name="Ohorn" unicode="&#x1a0;" 
d="M300 535c-115 0 -208 -115 -208 -255s94 -255 208 -255c113 0 208 115 208 252c0 144 -92 258 -208 258zM443 524h58c24 0 55 25 56 51c0 33 -28 56 -54 56c-11 0 -20 9 -20 21c0 11 9 20 20 20c49 0 94 -40 94 -96c0 -57 -50 -93 -96 -93h-18c41 -53 66 -126 66 -207
c0 -161 -112 -292 -249 -292c-139 0 -249 131 -249 296s110 296 249 296c54 0 103 -19 143 -52z" />
    <glyph glyph-name="ohorn" unicode="&#x1a1;" 
d="M300 390c-104 0 -187 -81 -187 -182c0 -102 83 -183 187 -183c103 0 187 81 187 180c0 105 -82 185 -187 185zM431 391h63c24 0 55 25 56 51c0 33 -28 56 -54 56c-11 0 -20 9 -20 21c0 11 9 20 20 20c49 0 94 -40 94 -96c0 -57 -50 -93 -96 -93h-18
c33 -39 52 -89 52 -145c0 -122 -102 -221 -228 -221c-127 0 -228 99 -228 224c0 123 101 223 228 223c49 0 94 -15 131 -40z" />
    <glyph glyph-name="uni01A2" unicode="&#x1a2;" 
d="M217 535c-116 0 -173 -114 -173 -258c0 -137 60 -252 173 -252c114 0 173 115 173 255s-58 255 -173 255zM281 565c25 44 73 73 143 73c94 0 121 -72 121 -116v-481h21c19 0 28 -7 28 -20c0 -14 -10 -21 -28 -21h-87c-18 0 -27 7 -27 21c0 13 9 20 27 20h25v481
c0 24 -10 72 -94 72c-43 0 -66 -10 -93 -48c70 -46 111 -140 112 -233c0 -16 1 -41 1 -41c-3 -161 -76 -288 -213 -288s-214 131 -214 292c0 170 73 300 214 300c23 0 44 -4 64 -11z" />
    <glyph glyph-name="uni01A3" unicode="&#x1a3;" 
d="M200 390c-78 0 -132 -83 -132 -188c0 -99 56 -177 132 -177c78 0 134 81 134 183c0 101 -56 182 -134 182zM280 408c37 44 81 60 144 60c53 0 98 -40 98 -108v-319h46c18 0 28 -7 28 -20c0 -14 -10 -21 -28 -21h-132c-18 0 -26 7 -26 21c0 13 8 20 26 20h46v319
c0 44 -24 72 -68 72c-46 0 -75 -14 -106 -46c38 -36 63 -92 63 -161c0 -16 -1 -41 -1 -41v-2c0 -109 -82 -198 -170 -198c-94 0 -171 99 -171 221c0 127 75 226 171 226c28 0 56 -8 80 -23z" />
    <glyph glyph-name="uni01A4" unicode="&#x1a4;" 
d="M165 522v-250h134c87 0 159 57 159 126c0 68 -65 124 -144 124h-149zM124 522h-54c-24 0 -55 -25 -56 -51c0 -33 28 -56 54 -56c11 0 20 -9 20 -21c0 -11 -9 -20 -20 -20c-49 0 -94 40 -94 96c0 57 51 93 96 93h240c106 0 189 -72 189 -165s-89 -167 -203 -167h-131v-190
h138c19 0 28 -7 28 -20c0 -14 -10 -21 -28 -21h-233c-18 0 -27 7 -27 21c0 13 9 20 27 20h54v481z" />
    <glyph glyph-name="uni01A5" unicode="&#x1a5;" 
d="M144 221c0 -95 79 -170 178 -170c98 0 178 75 178 168c0 97 -77 171 -178 171c-99 0 -178 -75 -178 -169zM322 566c-11 0 -28 11 -64 11c-68 0 -114 -47 -114 -115v-127c53 69 103 96 179 96c124 0 218 -91 218 -210s-95 -211 -218 -211c-77 0 -133 30 -179 96v-251h98
c18 0 27 -7 27 -20c0 -14 -9 -21 -27 -21h-193c-18 0 -27 7 -27 21c0 13 9 20 27 20h54v607c0 87 66 156 151 156c18 0 87 -5 87 -32c0 -11 -9 -20 -19 -20z" />
    <glyph glyph-name="uni01A6" unicode="&#x1a6;" 
d="M170 221h97c81 0 152 34 152 81c0 42 -61 72 -117 72h-132v-153zM170 417h131c89 0 159 -49 159 -116c0 -55 -36 -89 -122 -107c98 -54 90 -244 151 -339h27c16 0 24 -11 24 -20c0 -11 -8 -21 -24 -21h-50c-76 96 -68 332 -183 367h-113v-140h63c16 0 24 -11 24 -20
c0 -11 -8 -21 -24 -21h-149c-16 0 -24 10 -24 21c0 9 8 20 24 20h45v481h-45c-16 0 -24 11 -24 20c0 11 8 21 24 21h149c16 0 24 -10 24 -21c0 -9 -8 -20 -24 -20h-63v-105z" />
    <glyph glyph-name="uni01A7" unicode="&#x1a7;" 
d="M92 151c0 220 349 100 349 269c0 66 -61 115 -143 115c-78 0 -139 -45 -143 -105c-1 -16 -8 -24 -21 -24s-20 9 -20 27v103c0 18 7 27 20 27c14 0 21 -9 21 -27v-19c42 41 87 59 146 59c105 0 184 -67 184 -155c0 -214 -349 -87 -349 -268c0 -74 70 -128 163 -128
c91 0 165 51 168 117c1 16 7 24 20 24c14 0 21 -9 21 -27v-112c0 -18 -7 -27 -20 -27c-14 0 -21 9 -21 27v29c-41 -47 -100 -72 -169 -72c-120 0 -206 70 -206 167z" />
    <glyph glyph-name="uni01A8" unicode="&#x1a8;" 
d="M476 318c0 -163 -328 -63 -328 -201c0 -53 66 -92 154 -92c85 0 154 37 154 83v7c0 13 8 22 20 22c14 0 21 -9 21 -27v-83c0 -18 -7 -27 -21 -27c-13 0 -20 9 -20 27v11c-42 -37 -92 -54 -157 -54c-113 0 -196 56 -196 132c0 149 237 116 296 154c21 12 32 29 32 45
c0 43 -56 75 -130 75c-76 0 -128 -29 -133 -74c-2 -16 -9 -23 -21 -23c-13 0 -20 9 -20 27v69c0 19 7 28 20 28s21 -11 21 -28v-4c35 31 80 46 137 46c98 0 171 -48 171 -113z" />
    <glyph glyph-name="uni01A9" unicode="&#x1a9;" 
d="M490 0h-388v60l157 247l-157 212v58h388v-163c0 -17 -6 -28 -21 -28c-14 0 -20 11 -20 28v121h-310v-4l168 -226l-166 -258v-4h308v143c0 16 6 28 20 28c15 0 21 -10 21 -28v-186z" />
    <glyph glyph-name="uni01AA" unicode="&#x1aa;" 
d="M174 585c-33 0 -60 -26 -60 -57c0 -32 27 -58 60 -58s60 26 60 57c0 32 -27 58 -60 58zM518 -59c0 -27 -67 -34 -87 -34c-82 0 -147 67 -147 151v404c0 25 -6 49 -17 70v-6c0 -48 -42 -89 -93 -89s-93 41 -93 91c0 49 42 90 93 90c85 0 151 -69 151 -156v-398
c0 -68 44 -116 105 -116c37 0 57 13 70 13c10 0 18 -9 18 -20z" />
    <glyph glyph-name="uni01AB" unicode="&#x1ab;" 
d="M283 -145c13 0 33 -13 70 -13c61 0 105 48 105 116v59c-41 -18 -105 -33 -158 -33c-94 0 -155 48 -155 123v269h-74c-19 0 -28 7 -28 21c0 13 9 20 28 20h74v119c0 18 7 27 21 27s20 -8 20 -27v-119h220c18 0 27 -7 27 -20c0 -14 -9 -21 -27 -21h-220v-267
c0 -51 43 -84 112 -84c56 0 127 17 166 40c8 5 11 6 16 6c10 0 19 -10 19 -20v-99c0 -84 -65 -151 -147 -151c-19 0 -87 7 -87 34c0 11 8 20 18 20z" />
    <glyph glyph-name="uni01AC" unicode="&#x1ac;" 
d="M113 522c-24 0 -55 -25 -56 -51c0 -33 28 -56 54 -56c11 0 20 -9 20 -21c0 -11 -9 -20 -20 -20c-49 0 -94 40 -94 96c0 57 51 93 96 93h415v-114c0 -19 -6 -27 -20 -27c-12 0 -21 11 -21 27v73h-166v-481h105c18 0 27 -7 27 -20c0 -14 -9 -21 -27 -21h-251
c-18 0 -27 7 -27 21c0 13 9 20 27 20h105v481h-167z" />
    <glyph glyph-name="uni01AD" unicode="&#x1ad;" 
d="M364 566c-11 0 -28 11 -64 11c-68 0 -114 -47 -114 -115v-45h220c18 0 27 -7 27 -20c0 -14 -9 -21 -27 -21h-220v-267c0 -51 43 -84 112 -84c56 0 127 17 166 40c8 5 11 6 16 6c10 0 19 -10 19 -20c0 -29 -114 -67 -199 -67c-94 0 -155 48 -155 123v269h-74
c-19 0 -28 7 -28 21c0 13 9 20 28 20h74v45c0 87 66 156 151 156c18 0 87 -5 87 -32c0 -11 -9 -20 -19 -20z" />
    <glyph glyph-name="uni01AE" unicode="&#x1ae;" 
d="M514 -165c0 -27 -67 -34 -87 -34c-82 0 -147 67 -147 151v570h-167v-73c0 -18 -7 -27 -21 -27c-13 0 -20 9 -20 27v114h456v-114c0 -19 -6 -27 -20 -27c-12 0 -21 11 -21 27v73h-166v-564c0 -68 44 -116 105 -116c37 0 57 13 70 13c10 0 18 -9 18 -20z" />
    <glyph glyph-name="Uhorn" unicode="&#x1af;" 
d="M499 522v-337c0 -114 -87 -201 -199 -201c-113 0 -199 87 -199 201v337h-34c-18 0 -27 7 -27 21s9 20 27 20h149c18 0 27 -7 27 -20c0 -14 -9 -21 -27 -21h-74v-337c0 -90 69 -160 158 -160c88 0 158 70 158 160v337h-74c-18 0 -27 7 -27 21s8 20 27 20h149
c24 0 55 25 56 51c0 33 -28 56 -54 56c-11 0 -20 9 -20 21c0 11 9 20 20 20c49 0 94 -40 94 -96c0 -57 -50 -93 -96 -93h-34z" />
    <glyph glyph-name="uhorn" unicode="&#x1b0;" 
d="M480 376v-335h34c18 0 27 -7 27 -20c0 -14 -9 -21 -27 -21h-75v66c-55 -54 -116 -82 -182 -82c-80 0 -133 52 -133 131v261h-54c-18 0 -27 7 -27 21c0 13 9 20 27 20h95v-302c0 -50 40 -90 91 -90c67 0 128 30 183 90v261h-74c-19 0 -28 7 -28 21c0 13 9 20 28 20h115
c24 0 53 26 54 51c0 33 -28 56 -54 56c-11 0 -20 9 -20 21c0 11 9 20 20 20c49 0 94 -40 94 -96s-49 -92 -94 -93z" />
    <glyph glyph-name="uni01B1" unicode="&#x1b1;" 
d="M87 214c0 170 122 214 156 217v97h-125v-101c0 -14 -5 -27 -19 -27c-16 0 -21 12 -21 27v144h207v-175c-105 -10 -159 -79 -159 -180c0 -112 75 -172 132 -178h92c124 14 139 144 139 178c0 70 -35 154 -133 176l-28 4v175h212v-144c0 -14 -8 -27 -22 -27s-19 13 -19 27
v101h-129v-97c82 -17 160 -96 160 -210c0 -187 -143 -223 -180 -223h-90c-45 6 -173 43 -173 216z" />
    <glyph glyph-name="uni01B2" unicode="&#x1b2;" 
d="M300 29c52 0 131 17 131 115v419h94c16 0 28 -6 28 -22s-8 -19 -28 -19h-52v-378c0 -104 -57 -156 -171 -156c-110 0 -178 49 -178 158v376h-53c-15 0 -28 7 -28 21c0 16 10 20 28 20h141c16 0 31 -6 31 -20c0 -17 -12 -21 -29 -21h-49v-374c0 -81 63 -119 135 -119z" />
    <glyph glyph-name="uni01B3" unicode="&#x1b3;" 
d="M151 522l152 -227l149 227h-40c-19 0 -28 7 -28 21c0 13 9 20 28 20h110c17 0 27 -8 27 -20c0 -13 -11 -21 -27 -21h-24l-176 -268v-213h105c18 0 27 -7 27 -20c0 -14 -9 -21 -27 -21h-251c-18 0 -27 7 -27 21c0 13 9 20 27 20h105v213l-179 268h-24
c-24 0 -55 -25 -56 -51c0 -33 28 -56 54 -56c11 0 20 -9 20 -21c0 -11 -9 -20 -20 -20c-49 0 -94 40 -94 96c0 57 51 93 96 93h111c18 0 27 -7 27 -20c0 -14 -9 -21 -27 -21h-38z" />
    <glyph glyph-name="uni01B4" unicode="&#x1b4;" 
d="M508 376l-256 -521h65c18 0 27 -7 27 -20c0 -14 -9 -21 -27 -21h-233c-18 0 -27 7 -27 21c0 13 9 20 27 20h127l71 145l-188 376h-16c-18 0 -27 7 -27 21c0 13 9 20 27 20h115c18 0 27 -7 27 -20c0 -14 -9 -21 -27 -21h-52l164 -331l161 331h-54c-18 0 -27 7 -27 21
c0 13 9 20 27 20h110c24 0 55 25 56 51c0 33 -28 56 -54 56c-11 0 -20 9 -20 21c0 11 9 20 20 20c49 0 94 -40 94 -96c0 -57 -50 -93 -96 -93h-14z" />
    <glyph glyph-name="uni01B5" unicode="&#x1b5;" 
d="M310 281l-168 -236v-4h314v141c0 18 6 27 20 27s21 -9 21 -27v-182h-394v59l158 222h-77c-18 0 -27 7 -27 20s9 20 27 20h106l141 198v3h-269v-118c0 -19 -7 -28 -20 -28c-14 0 -21 9 -21 28v159h349v-58l-131 -184h81c18 0 27 -7 27 -20s-9 -20 -27 -20h-110z" />
    <glyph glyph-name="uni01B6" unicode="&#x1b6;" 
d="M296 241l120 135h-251v-55c0 -18 -7 -27 -20 -27c-14 0 -21 9 -21 27v96h350v-36l-125 -140h71c18 0 27 -7 27 -20s-9 -20 -27 -20h-106l-143 -160h277v56c0 18 7 27 21 27c13 0 20 -9 20 -27v-97h-374v36l146 165h-77c-18 0 -27 7 -27 20s9 20 27 20h112z" />
    <glyph glyph-name="uni01B7" unicode="&#x1b7;" 
d="M168 314c-15 0 -19 15 -19 20s3 11 7 15l180 173h-183v-55c0 -18 -7 -27 -20 -27c-14 0 -21 9 -21 27v96h319c19 0 28 -7 28 -20c0 -14 -9 -21 -28 -21h-38l-144 -139c27 11 54 12 73 12c102 0 177 -82 177 -194c0 -126 -85 -216 -204 -216c-110 0 -199 76 -199 97
c0 11 9 20 20 20c22 0 63 -76 177 -76c98 0 165 72 165 177c0 89 -58 151 -142 151c-87 0 -125 -40 -148 -40z" />
    <glyph glyph-name="uni01B8" unicode="&#x1b8;" 
d="M411 314c-23 0 -61 40 -148 40c-84 0 -142 -62 -142 -151c0 -105 67 -177 165 -177c114 0 155 76 177 76c11 0 20 -9 20 -20c0 -21 -89 -97 -199 -97c-119 0 -204 90 -204 216c0 112 75 194 177 194c19 0 46 -1 73 -12l-144 139h-38c-19 0 -28 7 -28 21c0 13 9 20 28 20
h319v-96c0 -18 -7 -27 -21 -27c-13 0 -20 9 -20 27v55h-183l180 -173c4 -4 7 -10 7 -15s-4 -20 -19 -20z" />
    <glyph glyph-name="uni01B9" unicode="&#x1b9;" 
d="M364 169c-40 0 -25 41 -104 41c-63 0 -112 -70 -112 -152c0 -91 56 -176 124 -176c82 0 117 74 146 74c7 0 19 -7 19 -20c0 -5 -3 -11 -7 -15c-34 -32 -84 -79 -158 -79c-104 0 -164 111 -164 216c0 96 56 192 152 192h13l-134 126h-16c-19 0 -28 7 -28 21
c0 13 9 20 28 20h273c16 0 24 -10 24 -21c0 -9 -8 -20 -24 -20h-200l180 -173c4 -4 7 -10 7 -15c0 -11 -8 -19 -19 -19z" />
    <glyph glyph-name="yoghtail" unicode="&#x1ba;" 
d="M436 -104c0 -59 -103 -96 -173 -96c-85 0 -174 14 -175 106c1.01074 86.9639 84.5449 114 162 114c52.333 0 134 17 134 116c0 66 -49 74 -112 74c-80 0 -64 -41 -104 -41c-11 0 -19 8 -19 19c0 5 3 11 7 15l180 173h-200c-16 0 -24 11 -24 20c0 11 8 21 24 21h273
c19 0 28 -7 28 -20c0 -14 -9 -21 -28 -21h-16l-134 -126c95 0 165 -13.0029 165 -114c0 -60.2246 -33.459 -156 -174 -156c-64.667 0 -122 -20 -122 -73c0 -33 7.8916 -67 144 -67c65 0 122 41 125 61c1 8 9 15 19 15c13 0 20 -10 20 -20z" />
    <glyph glyph-name="uni01BB" unicode="&#x1bb;" 
d="M474 284c0 -5 -5 -23 -27 -23h-93c-77 -77 -178 -174 -231 -217v-3h314v36c0 18 7 27 21 27c13 0 20 -9 20 -27v-77h-394v60l214 201h-87c-18 0 -27 7 -27 20s9 20 27 20h128c78 77 94 104 94 146c0 69 -67 130 -143 130c-68 0 -130 -45 -146 -105
c-4 -14 -10 -20 -21 -20c-10 0 -19 9 -19 18c0 51 74 148 186 148c98 0 184 -81 184 -172c0 -47 -13 -75 -80 -145h53c17 0 27 -6 27 -17z" />
    <glyph glyph-name="uni01BC" unicode="&#x1bc;" 
d="M316 354c-89 0 -122 -41 -148 -41c-11 0 -19 9 -19 22v187h-45c-16 0 -24 11 -24 20c0 11 8 21 24 21h327c19 0 28 -7 28 -20c0 -14 -9 -21 -28 -21h-241v-157c51 21 88 30 132 30c102 0 177 -82 177 -194c0 -126 -85 -216 -204 -216c-110 0 -199 76 -199 97
c0 11 9 20 20 20c22 0 63 -76 177 -76c98 0 165 72 165 177c0 89 -58 151 -142 151z" />
    <glyph glyph-name="uni01BD" unicode="&#x1bd;" 
d="M136 201c-5 0 -14 4 -14 25v150c-18 0 -27 7 -27 21c0 13 9 20 28 20h273c16 0 24 -10 24 -21c0 -9 -8 -20 -24 -20h-233v-121c25 11 43 13 67 13h16c105 0 172 -50 172 -142c0 -82 -54 -146 -152 -146c-90 0 -151 46 -151 74c0 13 13 21 21 21c21 0 28 -55 130 -55
c79 0 112 44 112 106c0 72 -37 102 -132 102c-73 -1 -96 -27 -110 -27z" />
    <glyph glyph-name="uni01BE" unicode="&#x1be;" 
d="M134 34v68c0 18 7 27 21 27c13 0 20 -9 20 -27v-41c52 -26 84 -34 129 -34c83 0 142 47 142 113c0 57 -49 100 -165 149v81h-105c-18 0 -27 7 -27 20c0 14 9 21 27 21h105v111h-45c-18 0 -27 7 -27 20c0 14 9 21 27 21h131c18 0 28 -7 28 -21c0 -13 -9 -20 -28 -20h-45
v-111h105c18 0 28 -7 28 -21c0 -13 -9 -20 -28 -20h-105v-54c125 -59 165 -102 165 -176c0 -92 -72 -154 -178 -154c-89 0 -132 34 -175 48z" />
    <glyph glyph-name="uni01BF" unicode="&#x1bf;" 
d="M144 -21l277 227c43 35 73 78 73 130c0 60 -42 68 -97 68s-113 -1 -176 -50l-77 -60v-315zM144 -74v-71h98c18 0 27 -7 27 -20c0 -14 -9 -21 -27 -21h-193c-18 0 -27 7 -27 21c0 13 9 20 27 20h54v521h-54c-18 0 -27 7 -27 21c0 13 9 20 27 20h95v-71l51 40
c75 58 148 58 200 58c73 0 139 -20 139 -108c0 -68 -40 -124 -87 -162z" />
    <glyph glyph-name="uni01C0" unicode="&#x1c0;" 
d="M320 577v-674c0 -18 -7 -27 -20 -27s-20 9 -20 27v674c0 18 7 27 20 27s20 -9 20 -27z" />
    <glyph glyph-name="uni01C1" unicode="&#x1c1;" 
d="M384 577v-674c0 -18 -7 -27 -20 -27s-20 9 -20 27v674c0 18 7 27 20 27s20 -9 20 -27zM256 577v-674c0 -18 -7 -27 -20 -27s-20 9 -20 27v674c0 18 7 27 20 27s20 -9 20 -27z" />
    <glyph glyph-name="uni01C2" unicode="&#x1c2;" 
d="M320 375h202c18 0 27 -7 27 -20c0 -14 -9 -21 -27 -21h-202v-103h202c18 0 27 -7 27 -20c0 -14 -9 -21 -27 -21h-202v-287c0 -18 -7 -27 -20 -27s-20 9 -20 27v287h-202c-18 0 -27 7 -27 21c0 13 9 20 27 20h202v103h-202c-18 0 -27 7 -27 21c0 13 9 20 27 20h202v202
c0 18 7 27 20 27s20 -9 20 -27v-202z" />
    <glyph glyph-name="uni01C3" unicode="&#x1c3;" 
d="M338 563l-18 -326c-1.10254 -19.9805 -7 -28 -21 -28c-13 0 -18.9512 9.00293 -20 28l-18 326c-0.370117 6.69238 -1 12 -1 16c0 22 17 39 40 39c22 0 39 -17 39 -39c0 -2 -0.548828 -7.83301 -1 -16zM293 85h13c30 0 54 -22 54 -50s-24 -50 -54 -50h-13
c-30 0 -53 22 -53 50s23 50 53 50z" />
    <glyph glyph-name="uni01C4" unicode="&#x1c4;" 
d="M447 602l-132 109c-10 7 -13 11 -13 20c0 11 9 20 20 20c5 0 11 -3 18 -8l107 -88l107 88c7 5 13 8 18 8c10 0 20 -10 20 -20c0 -8 -2 -12 -13 -21zM561 0h-234v59l187 460v3h-128v-118c0 -19 -7 -28 -20 -28c-14 0 -21 9 -21 28v159h208v-58l-187 -460v-4h154v141
c0 18 6 27 20 27s21 -9 21 -27v-182zM68 41v481h-18c-18 0 -27 7 -27 21c0 13 9 20 27 20h92c129 0 166 -112 166 -253v-56c0 -142 -37 -254 -166 -254h-92c-18 0 -27 7 -27 21c0 13 9 20 27 20h18zM109 41h38c96 0 120 98 120 204v82c0 49 -1 92 -33 141
c-27 41 -40 54 -94 54h-31v-481z" />
    <glyph glyph-name="uni01C5" unicode="&#x1c5;" 
d="M443 473l-132 109c-10 7 -13 11 -13 20c0 11 9 20 20 20c5 0 11 -3 18 -8l107 -88l107 88c7 5 13 8 18 8c10 0 20 -10 20 -20c0 -8 -2 -12 -13 -21zM554 417v-36l-175 -340h149v56c0 18 7 27 21 27c13 0 20 -9 20 -27v-97h-246v36l173 340h-115v-55c0 -18 -7 -27 -20 -27
c-14 0 -21 9 -21 27v96h214zM68 41v481h-18c-18 0 -27 7 -27 21c0 13 9 20 27 20h92c129 0 166 -112 166 -253v-56c0 -142 -37 -254 -166 -254h-92c-18 0 -27 7 -27 21c0 13 9 20 27 20h18zM109 41h38c96 0 120 98 120 204v82c0 49 -1 92 -33 141c-27 41 -40 54 -94 54h-31
v-481z" />
    <glyph glyph-name="uni01C6" unicode="&#x1c6;" 
d="M440 474l-132 109c-10 7 -13 11 -13 20c0 11 9 20 20 20c5 0 11 -3 18 -8l107 -88l107 88c7 5 13 8 18 8c10 0 20 -10 20 -20c0 -8 -2 -12 -13 -21zM124 25c69 0 89 83 89 181c0 104 -31 184 -89 184c-46 0 -58 -81 -58 -182s24 -183 58 -183zM120 431
c71 0 84 -45 93 -64v196h-54c-18 0 -27 7 -27 21c0 13 9 20 27 20h95v-563h56l170 335h-123v-55c0 -18 -7 -27 -20 -27c-14 0 -21 9 -21 27v96h222v-36l-175 -340h149v56c0 18 7 27 21 27c13 0 20 -9 20 -27v-97h-340v49c-13 -49 -31 -65 -92 -65c-65 0 -96 101 -96 224
c0 122 19 223 95 223z" />
    <glyph glyph-name="uni01C7" unicode="&#x1c7;" 
d="M113 522v-481h89v160c0 18 7 27 21 27c13 0 20 -9 20 -27v-201h-211c-18 0 -27 7 -27 21c0 13 9 20 27 20h40v481h-40c-18 0 -27 7 -27 21c0 13 9 20 27 20h137c18 0 27 -7 27 -20c0 -14 -9 -21 -27 -21h-56zM327 93c23 -40 31 -68 75 -68c70 0 71 63 71 140v357h-95
c-18 0 -27 7 -27 21c0 13 9 20 27 20h186c18 0 27 -7 27 -20c0 -14 -9 -21 -27 -21h-50v-357c0 -99 -26 -181 -115 -181c-63 0 -72 28 -113 90v149c0 18 7 27 21 27c13 0 20 -9 20 -27v-130z" />
    <glyph glyph-name="uni01C8" unicode="&#x1c8;" 
d="M187 522v-481h173v160c0 18 7 27 21 27c13 0 20 -9 20 -27v-201h-351c-18 0 -27 7 -27 21c0 13 9 20 27 20h96v481h-96c-18 0 -27 7 -27 21c0 13 9 20 27 20h233c18 0 27 -7 27 -20c0 -14 -9 -21 -27 -21h-96zM535 376h-81c-18 0 -27 7 -27 21c0 13 9 20 27 20h122v-445
c0 -93 -64 -158 -155 -158h-129c-18 0 -27 7 -27 21c0 13 9 20 27 20h128c66 0 115 49 115 117v404zM583 624v-104h-59v104h59z" />
    <glyph glyph-name="uni01C9" unicode="&#x1c9;" 
d="M435 376h-81c-18 0 -27 7 -27 21c0 13 9 20 27 20h122v-445c0 -93 -64 -158 -155 -158h-129c-18 0 -27 7 -27 21c0 13 9 20 27 20h128c66 0 115 49 115 117v404zM483 624v-104h-59v104h59zM258 604v-563h64c19 0 28 -7 28 -20c0 -14 -10 -21 -28 -21h-171
c-18 0 -27 7 -27 21c0 13 9 20 27 20h66v522h-56c-18 0 -27 7 -27 21c0 13 9 20 27 20h97z" />
    <glyph glyph-name="uni01CA" unicode="&#x1ca;" 
d="M533 519v-406c0 -113 -17 -132 -79 -132c-64 0 -82 37 -82 90v149c0 18 7 27 21 27c13 0 20 -9 20 -27v-130c0 -50 14 -68 42 -68c24 0 37 14 37 91v406h-36c-18 0 -27 7 -27 21c0 13 9 20 27 20h117c18 0 27 -7 27 -20c0 -14 -9 -21 -27 -21h-40zM319 0h-50l-163 472
v-431h43c18 0 27 -7 27 -20c0 -14 -10 -21 -27 -21h-102c-18 0 -27 7 -27 21c0 13 9 20 27 20h18v481h-38c-18 0 -27 7 -27 21c0 13 9 20 27 20h90l163 -472v431h-42c-19 0 -28 7 -28 21c0 13 9 20 28 20h117c18 0 27 -7 27 -20c0 -14 -9 -21 -27 -21h-34
c0 -522 -2 -469.8 -2 -522z" />
    <glyph glyph-name="uni01CB" unicode="&#x1cb;" 
d="M401 0h-52l-205 488v-447h75c18 0 27 -7 27 -20c0 -14 -10 -21 -27 -21h-150c-18 0 -27 7 -27 21c0 13 9 20 27 20h34v481h-54c-18 0 -27 7 -27 21c0 13 9 20 27 20h106l205 -488v447h-74c-19 0 -28 7 -28 21c0 13 9 20 28 20h149c18 0 27 -7 27 -20
c0 -14 -9 -21 -27 -21h-34v-522zM535 376h-81c-18 0 -27 7 -27 21c0 13 9 20 27 20h122v-445c0 -93 -64 -158 -155 -158h-129c-18 0 -27 7 -27 21c0 13 9 20 27 20h128c66 0 115 49 115 117v404zM583 624v-104h-59v104h59z" />
    <glyph glyph-name="uni01CC" unicode="&#x1cc;" 
d="M353 288c0 24 -23 102 -115 102c-38 0 -58 -36 -76 -57c-12 -14 -3 2 -35 -39v-253h45c18 0 27 -7 27 -20c0 -14 -9 -21 -27 -21h-131c-19 0 -28 7 -28 21c0 13 9 20 28 20h45v335h-34c-18 0 -27 7 -27 21c0 13 9 20 27 20h75v-69c53 72 71 83 115 83h2
c90 0 150 -60 150 -136v-254h34c18 0 27 -7 27 -20c0 -14 -9 -21 -27 -21h-109c-18 0 -27 7 -27 21c0 13 9 20 27 20h34v247zM535 376h-81c-18 0 -27 7 -27 21c0 13 9 20 27 20h122v-445c0 -93 -64 -158 -155 -158h-129c-18 0 -27 7 -27 21c0 13 9 20 27 20h128
c66 0 115 49 115 117v404zM583 624v-104h-59v104h59z" />
    <glyph glyph-name="uni01CD" unicode="&#x1cd;" 
d="M300 603l-132 109c-10 7 -13 11 -13 20c0 11 9 20 20 20c5 0 11 -3 18 -8l107 -88l107 88c7 5 13 8 18 8c10 0 20 -10 20 -20c0 -8 -2 -12 -13 -21zM428 188h-266l-54 -147h79c18 0 27 -7 27 -20c0 -14 -9 -21 -27 -21h-151c-18 0 -27 7 -27 21c0 13 9 20 27 20h31
l179 481h-120c-18 0 -27 7 -27 21c0 13 8.90918 20 27 20h204l197 -522h37c18 0 27 -7 27 -20c0 -14 -9 -21 -27 -21h-156c-18 0 -27 7 -27 21c0 13 9 20 27 20h76zM413 229l-112 293h-15l-108 -293h235z" />
    <glyph glyph-name="uni01CE" unicode="&#x1ce;" 
d="M306 457l-132 109c-10 7 -13 11 -13 20c0 11 9 20 20 20c5 0 11 -3 18 -8l107 -88l107 88c7 5 13 8 18 8c10 0 20 -10 20 -20c0 -8 -2 -12 -13 -21zM125 378c0 33 141 53 174 53c93 0 161 -52 161 -123v-267h54c18 0 27 -7 27 -20c0 -14 -9 -21 -27 -21h-95v67
c-61 -57 -121 -83 -191 -83c-93 0 -156 52 -156 128c0 87 86 146 211 146c46 0 77 -5 136 -21v71c0 49 -50 82 -123 82c-80 0 -123 -32 -152 -32c-10 0 -19 9 -19 20zM419 112v90c-36 9 -84 15 -128 15c-106 0 -178 -43 -178 -106c0 -52 45 -86 114 -86c71 0 125 24 192 87z
" />
    <glyph glyph-name="uni01CF" unicode="&#x1cf;" 
d="M300 603l-132 109c-10 7 -13 11 -13 20c0 11 9 20 20 20c5 0 11 -3 18 -8l107 -88l107 88c7 5 13 8 18 8c10 0 20 -10 20 -20c0 -8 -2 -12 -13 -21zM320 522v-481h139c19 0 28 -7 28 -20c0 -14 -10 -21 -28 -21h-319c-18 0 -27 7 -27 21c0 13 9 20 27 20h139v481h-139
c-18 0 -27 7 -27 21c0 13 9 20 27 20h319c19 0 28 -7 28 -20c0 -14 -9 -21 -28 -21h-139z" />
    <glyph glyph-name="uni01D0" unicode="&#x1d0;" 
d="M299 471l-132 109c-10 7 -13 11 -13 20c0 11 9 20 20 20c5 0 11 -3 18 -8l107 -88l107 88c7 5 13 8 18 8c10 0 20 -10 20 -20c0 -8 -2 -12 -13 -21zM320 417v-376h160c19 0 28 -7 28 -20c0 -14 -10 -21 -28 -21h-361c-18 0 -27 7 -27 21c0 13 9 20 27 20h160v335h-118
c-18 0 -27 7 -27 21c0 13 9 20 27 20h159z" />
    <glyph glyph-name="uni01D1" unicode="&#x1d1;" 
d="M300 603l-132 109c-10 7 -13 11 -13 20c0 11 9 20 20 20c5 0 11 -3 18 -8l107 -88l107 88c7 5 13 8 18 8c10 0 20 -10 20 -20c0 -8 -2 -12 -13 -21zM300 576c141 0 249 -130 249 -300c0 -161 -112 -292 -249 -292c-139 0 -249 131 -249 296s110 296 249 296zM300 535
c-115 0 -208 -115 -208 -255s94 -255 208 -255c113 0 208 115 208 252c0 144 -92 258 -208 258z" />
    <glyph glyph-name="uni01D2" unicode="&#x1d2;" 
d="M300 457l-132 109c-10 7 -13 11 -13 20c0 11 9 20 20 20c5 0 11 -3 18 -8l107 -88l107 88c7 5 13 8 18 8c10 0 20 -10 20 -20c0 -8 -2 -12 -13 -21zM300 431c128 0 228 -99 228 -226c0 -122 -102 -221 -228 -221c-127 0 -228 99 -228 224c0 123 101 223 228 223zM300 390
c-104 0 -187 -81 -187 -182c0 -102 83 -183 187 -183c103 0 187 81 187 180c0 105 -82 185 -187 185z" />
    <glyph glyph-name="uni01D3" unicode="&#x1d3;" 
d="M300 603l-132 109c-10 7 -13 11 -13 20c0 11 9 20 20 20c5 0 11 -3 18 -8l107 -88l107 88c7 5 13 8 18 8c10 0 20 -10 20 -20c0 -8 -2 -12 -13 -21zM499 522v-337c0 -114 -87 -201 -199 -201c-113 0 -199 87 -199 201v337h-34c-18 0 -27 7 -27 21s9 20 27 20h149
c18 0 27 -7 27 -20c0 -14 -9 -21 -27 -21h-74v-337c0 -90 69 -160 158 -160c88 0 158 70 158 160v337h-74c-18 0 -27 7 -27 21s8 20 27 20h149c19 0 27 -6 27 -20s-9 -21 -27 -21h-34z" />
    <glyph glyph-name="uni01D4" unicode="&#x1d4;" 
d="M292 457l-132 109c-10 7 -13 11 -13 20c0 11 9 20 20 20c5 0 11 -3 18 -8l107 -88l107 88c7 5 13 8 18 8c10 0 20 -10 20 -20c0 -8 -2 -12 -13 -21zM439 0v66c-55 -54 -116 -82 -182 -82c-80 0 -133 52 -133 131v261h-54c-18 0 -27 7 -27 21c0 13 9 20 27 20h95v-302
c0 -50 40 -90 91 -90c67 0 128 30 183 90v261h-74c-19 0 -28 7 -28 21c0 13 9 20 28 20h115v-376h34c18 0 27 -7 27 -20c0 -14 -9 -21 -27 -21h-75z" />
    <glyph glyph-name="uni01D5" unicode="&#x1d5;" 
d="M418 760h-236c-18 0 -27 7 -27 20s9 20 27 20h236c18 0 27 -7 27 -20s-9 -20 -27 -20zM190 707c28 0 50 -23 50 -51c0 -26 -23 -49 -50 -49s-50 23 -50 50s23 50 50 50zM411 707c28 0 50 -23 50 -51c0 -26 -23 -49 -50 -49s-50 23 -50 50s23 50 50 50zM499 522v-337
c0 -114 -87 -201 -199 -201c-113 0 -199 87 -199 201v337h-34c-18 0 -27 7 -27 21s9 20 27 20h149c18 0 27 -7 27 -20c0 -14 -9 -21 -27 -21h-74v-337c0 -90 69 -160 158 -160c88 0 158 70 158 160v337h-74c-18 0 -27 7 -27 21s8 20 27 20h149c19 0 27 -6 27 -20
s-9 -21 -27 -21h-34z" />
    <glyph glyph-name="uni01D6" unicode="&#x1d6;" 
d="M410 644h-236c-18 0 -27 7 -27 20s9 20 27 20h236c18 0 27 -7 27 -20s-9 -20 -27 -20zM182 591c28 0 50 -23 50 -51c0 -26 -23 -49 -50 -49s-50 23 -50 50s23 50 50 50zM403 591c28 0 50 -23 50 -51c0 -26 -23 -49 -50 -49s-50 23 -50 50s23 50 50 50zM439 0v66
c-55 -54 -116 -82 -182 -82c-80 0 -133 52 -133 131v261h-54c-18 0 -27 7 -27 21c0 13 9 20 27 20h95v-302c0 -50 40 -90 91 -90c67 0 128 30 183 90v261h-74c-19 0 -28 7 -28 21c0 13 9 20 28 20h115v-376h34c18 0 27 -7 27 -20c0 -14 -9 -21 -27 -21h-75z" />
    <glyph glyph-name="uni01D7" unicode="&#x1d7;" 
d="M499 469.8v-303.3c0 -102.6 -87 -180.9 -199 -180.9c-113 0 -199 78.3008 -199 180.9v303.3h-34c-18 0 -27 6.2998 -27 18.8994s9 18 27 18h149c18 0 27 -6.2998 27 -18c0 -12.5996 -9 -18.8994 -27 -18.8994h-74v-303.3c0 -81 69 -144 158 -144c88 0 158 63 158 144
v303.3h-74c-18 0 -27 6.2998 -27 18.8994s8 18 27 18h149c19 0 27 -5.40039 27 -18s-9 -18.8994 -27 -18.8994h-34zM190 643c28 0 50 -23 50 -51c0 -26 -23 -49 -50 -49s-50 23 -50 50s23 50 50 50zM411 643c28 0 50 -23 50 -51c0 -26 -23 -49 -50 -49s-50 23 -50 50
s23 50 50 50zM422 754l-114 -100c-9 -7 -13 -9 -19 -9c-11 0 -20 9 -20 21c0 7 2 10 12 19l114 100c9 7 13 9 19 9c11 0 20 -9 20 -21c0 -7 -3 -11 -12 -19z" />
    <glyph glyph-name="uni01D8" unicode="&#x1d8;" 
d="M414 729l-114 -100c-9 -7 -13 -9 -19 -9c-11 0 -20 9 -20 21c0 7 2 10 12 19l114 100c9 7 13 9 19 9c11 0 20 -9 20 -21c0 -7 -3 -11 -12 -19zM182 591c28 0 50 -23 50 -51c0 -26 -23 -49 -50 -49s-50 23 -50 50s23 50 50 50zM403 591c28 0 50 -23 50 -51
c0 -26 -23 -49 -50 -49s-50 23 -50 50s23 50 50 50zM439 0v66c-55 -54 -116 -82 -182 -82c-80 0 -133 52 -133 131v261h-54c-18 0 -27 7 -27 21c0 13 9 20 27 20h95v-302c0 -50 40 -90 91 -90c67 0 128 30 183 90v261h-74c-19 0 -28 7 -28 21c0 13 9 20 28 20h115v-376h34
c18 0 27 -7 27 -20c0 -14 -9 -21 -27 -21h-75z" />
    <glyph glyph-name="uni01D9" unicode="&#x1d9;" 
d="M499 469.8v-303.3c0 -102.6 -87 -180.9 -199 -180.9c-113 0 -199 78.3008 -199 180.9v303.3h-34c-18 0 -27 6.2998 -27 18.8994s9 18 27 18h149c18 0 27 -6.2998 27 -18c0 -12.5996 -9 -18.8994 -27 -18.8994h-74v-303.3c0 -81 69 -144 158 -144c88 0 158 63 158 144
v303.3h-74c-18 0 -27 6.2998 -27 18.8994s8 18 27 18h149c19 0 27 -5.40039 27 -18s-9 -18.8994 -27 -18.8994h-34zM190 639c28 0 50 -23 50 -51c0 -26 -23 -49 -50 -49s-50 23 -50 50s23 50 50 50zM411 639c28 0 50 -23 50 -51c0 -26 -23 -49 -50 -49s-50 23 -50 50
s23 50 50 50zM300 645l-132 109c-10 7 -13 11 -13 20c0 11 9 20 20 20c5 0 11 -3 18 -8l107 -88l107 88c7 5 13 8 18 8c10 0 20 -10 20 -20c0 -8 -2 -12 -13 -21z" />
    <glyph glyph-name="uni01DA" unicode="&#x1da;" 
d="M292 593l-132 109c-10 7 -13 11 -13 20c0 11 9 20 20 20c5 0 11 -3 18 -8l107 -88l107 88c7 5 13 8 18 8c10 0 20 -10 20 -20c0 -8 -2 -12 -13 -21zM182 591c28 0 50 -23 50 -51c0 -26 -23 -49 -50 -49s-50 23 -50 50s23 50 50 50zM403 591c28 0 50 -23 50 -51
c0 -26 -23 -49 -50 -49s-50 23 -50 50s23 50 50 50zM439 0v66c-55 -54 -116 -82 -182 -82c-80 0 -133 52 -133 131v261h-54c-18 0 -27 7 -27 21c0 13 9 20 27 20h95v-302c0 -50 40 -90 91 -90c67 0 128 30 183 90v261h-74c-19 0 -28 7 -28 21c0 13 9 20 28 20h115v-376h34
c18 0 27 -7 27 -20c0 -14 -9 -21 -27 -21h-75z" />
    <glyph glyph-name="uni01DB" unicode="&#x1db;" 
d="M214 788l114 -100l7 -8c5 -5 5 -5 5 -11c0 -12 -9 -21 -21 -21c-5 0 -11 3 -18 9l-114 100c-9 8 -12 12 -12 20c0 11 9 20 20 20c6 0 11 -3 19 -9zM499 469.8v-303.3c0 -102.6 -87 -180.9 -199 -180.9c-113 0 -199 78.3008 -199 180.9v303.3h-34
c-18 0 -27 6.2998 -27 18.8994s9 18 27 18h149c18 0 27 -6.2998 27 -18c0 -12.5996 -9 -18.8994 -27 -18.8994h-74v-303.3c0 -81 69 -144 158 -144c88 0 158 63 158 144v303.3h-74c-18 0 -27 6.2998 -27 18.8994s8 18 27 18h149c19 0 27 -5.40039 27 -18
s-9 -18.8994 -27 -18.8994h-34zM190 649c28 0 50 -23 50 -51c0 -26 -23 -49 -50 -49s-50 23 -50 50s23 50 50 50zM411 649c28 0 50 -23 50 -51c0 -26 -23 -49 -50 -49s-50 23 -50 50s23 50 50 50z" />
    <glyph glyph-name="uni01DC" unicode="&#x1dc;" 
d="M202 764l114 -100c8.84082 -7.75488 12 -11.4004 12 -19c0 -12 -9 -21 -21 -21c-5 0 -11 3 -18 9l-114 100c-9 8 -12 12 -12 20c0 11 9 20 20 20c6 0 11 -3 19 -9zM182 591c28 0 50 -23 50 -51c0 -26 -23 -49 -50 -49s-50 23 -50 50s23 50 50 50zM403 591
c28 0 50 -23 50 -51c0 -26 -23 -49 -50 -49s-50 23 -50 50s23 50 50 50zM439 0v66c-55 -54 -116 -82 -182 -82c-80 0 -133 52 -133 131v261h-54c-18 0 -27 7 -27 21c0 13 9 20 27 20h95v-302c0 -50 40 -90 91 -90c67 0 128 30 183 90v261h-74c-19 0 -28 7 -28 21
c0 13 9 20 28 20h115v-376h34c18 0 27 -7 27 -20c0 -14 -9 -21 -27 -21h-75z" />
    <glyph glyph-name="uni01DD" unicode="&#x1dd;" 
d="M63 216h416c-14 105 -94 174 -202 174c-62 0 -135 -22 -175 -54c-7 -5 -11 -7 -16 -7c-10 0 -19 9 -19 20c0 35 120 82 211 82c135 0 242 -103 242 -233c0 -121 -100 -214 -228 -214c-133 0 -229 91 -229 232zM479 175h-374c16 -91 90 -150 187 -150s169 58 187 150z" />
    <glyph glyph-name="uni01DE" unicode="&#x1de;" 
d="M393 760h-236c-18 0 -27 7 -27 20s9 20 27 20h236c18 0 27 -7 27 -20s-9 -20 -27 -20zM187 709c28 0 50 -23 50 -51c0 -26 -23 -49 -50 -49s-50 23 -50 50s23 50 50 50zM408 709c28 0 50 -23 50 -51c0 -26 -23 -49 -50 -49s-50 23 -50 50s23 50 50 50zM428 188h-266
l-54 -147h79c18 0 27 -7 27 -20c0 -14 -9 -21 -27 -21h-151c-18 0 -27 7 -27 21c0 13 9 20 27 20h31l179 481h-120c-18 0 -27 7 -27 21c0 13 8.90918 20 27 20h204l197 -522h37c18 0 27 -7 27 -20c0 -14 -9 -21 -27 -21h-156c-18 0 -27 7 -27 21c0 13 9 20 27 20h76z
M413 229l-112 293h-15l-108 -293h235z" />
    <glyph glyph-name="uni01DF" unicode="&#x1df;" 
d="M408 644h-236c-18 0 -27 7 -27 20s9 20 27 20h236c18 0 27 -7 27 -20s-9 -20 -27 -20zM178 591c28 0 50 -23 50 -51c0 -26 -23 -49 -50 -49s-50 23 -50 50s23 50 50 50zM399 591c28 0 50 -23 50 -51c0 -26 -23 -49 -50 -49s-50 23 -50 50s23 50 50 50zM125 378
c0 33 141 53 174 53c93 0 161 -52 161 -123v-267h54c18 0 27 -7 27 -20c0 -14 -9 -21 -27 -21h-95v67c-61 -57 -121 -83 -191 -83c-93 0 -156 52 -156 128c0 87 86 146 211 146c46 0 77 -5 136 -21v71c0 49 -50 82 -123 82c-80 0 -123 -32 -152 -32c-10 0 -19 9 -19 20z
M419 112v90c-36 9 -84 15 -128 15c-106 0 -178 -43 -178 -106c0 -52 45 -86 114 -86c71 0 125 24 192 87z" />
    <glyph glyph-name="uni01E0" unicode="&#x1e0;" 
d="M418 760h-236c-18 0 -27 7 -27 20s9 20 27 20h236c18 0 27 -7 27 -20s-9 -20 -27 -20zM295 706c28 0 50 -23 50 -51c0 -26 -23 -49 -50 -49s-50 23 -50 50s23 50 50 50zM428 188h-266l-54 -147h79c18 0 27 -7 27 -20c0 -14 -9 -21 -27 -21h-151c-18 0 -27 7 -27 21
c0 13 9 20 27 20h31l179 481h-120c-18 0 -27 7 -27 21c0 13 8.90918 20 27 20h204l197 -522h37c18 0 27 -7 27 -20c0 -14 -9 -21 -27 -21h-156c-18 0 -27 7 -27 21c0 13 9 20 27 20h76zM413 229l-112 293h-15l-108 -293h235z" />
    <glyph glyph-name="uni01E1" unicode="&#x1e1;" 
d="M424 647h-236c-18 0 -27 7 -27 20s9 20 27 20h236c18 0 27 -7 27 -20s-9 -20 -27 -20zM299 591c28 0 50 -23 50 -51c0 -26 -23 -49 -50 -49s-50 23 -50 50s23 50 50 50zM125 378c0 33 141 53 174 53c93 0 161 -52 161 -123v-267h54c18 0 27 -7 27 -20
c0 -14 -9 -21 -27 -21h-95v67c-61 -57 -121 -83 -191 -83c-93 0 -156 52 -156 128c0 87 86 146 211 146c46 0 77 -5 136 -21v71c0 49 -50 82 -123 82c-80 0 -123 -32 -152 -32c-10 0 -19 9 -19 20zM419 112v90c-36 9 -84 15 -128 15c-106 0 -178 -43 -178 -106
c0 -52 45 -86 114 -86c71 0 125 24 192 87z" />
    <glyph glyph-name="uni01E2" unicode="&#x1e2;" 
d="M458 623h-236c-18 0 -27 7 -27 20s9 20 27 20h236c18 0 27 -7 27 -20s-9 -20 -27 -20zM297 189h-141l-41 -148h26c18 0 27 -7 27 -20c0 -14 -9 -21 -27 -21h-104c-18 0 -27 7 -27 21c0 13 9 20 27 20h37l133 481h-63c-18 0 -27 7 -27 21c0 13 9 20 27 20h426v-152
c0 -18 -7 -27 -21 -27c-13 0 -20 9 -20 27v111h-191v-208h78v28c0 18 7 27 20 27c14 0 20 -9 20 -27v-96c0 -18 -7 -27 -20 -27s-20 10 -20 27v27h-78v-232h211v93c0 19 6 26 20 26c13 0 21 -11 21 -26v-134h-345c-18 0 -27 7 -27 21c0 13 9 20 27 20h52v148zM297 230v292
h-50l-80 -292h130z" />
    <glyph glyph-name="uni01E3" unicode="&#x1e3;" 
d="M413 482h-236c-18 0 -27 7 -27 20s9 20 27 20h236c18 0 27 -7 27 -20s-9 -20 -27 -20zM71 378c0 32 99 53 128 53c49 0 94 -33 113 -84c24 52 70 84 118 84c103 0 144 -99 147 -232h-258c7 -102 60 -174 127 -174c57 0 90 62 112 62c11 0 20 -10 20 -20
c0 -19 -74 -83 -134 -83c-46 0 -92 28 -124 77v-34c0 -18 -7 -27 -20 -27s-20 9 -20 27v25c-39 -47 -76 -68 -120 -68c-85 0 -148 63 -148 148c0 73 83 125 183 125c28 0 56 -4 85 -12v60c0 47 -39 85 -88 85c-61 0 -83 -32 -102 -32c-9 0 -19 11 -19 20zM280 110v93
c-27 8 -56 13 -79 13c-43 0 -101 -19 -123 -40c-14 -14 -21 -31 -21 -55c0 -56 44 -96 105 -96c37 0 71 25 118 85zM535 240c-7 56 -21 150 -106 150c-60 0 -96 -50 -109 -150h215z" />
    <glyph glyph-name="uni01E4" unicode="&#x1e4;" 
d="M315 535c-177 0 -211 -173 -211 -218v-73c0 -136 88 -219 232 -219c52 0 87 8 143 34v46h-139c-18 0 -27 7 -27 21c0 13 9 20 27 20h139v63h-139c-18 0 -27 7 -27 21c0 13 9 20 27 20h194c19 0 28 -7 28 -20c0 -14 -9 -21 -28 -21h-14v-63h14c19 0 28 -7 28 -20
c0 -14 -10 -21 -28 -21h-14v-69c-59 -34 -125 -52 -187 -52c-164 0 -270 102 -270 260v74c0 135 100 258 250 258c66 0 121 -18 166 -54v14c0 18 7 27 21 27s20 -8 20 -27v-91c0 -18 -7 -27 -20 -27s-19 8 -20 25c-4 51 -76 92 -165 92z" />
    <glyph glyph-name="uni01E5" unicode="&#x1e5;" 
d="M272 390c-94 0 -168 -75 -168 -169c0 -95 75 -170 168 -170s168 75 168 168c0 97 -73 171 -168 171zM469 -88c-14 -30 -61 -98 -153 -98h-114c-18 0 -27 7 -27 21c0 13 9 20 27 20h116c44 0 82 23 103 57h-122c-18 0 -27 7 -27 20s9 20 27 20h138c2 8 3 17 3 26v129
c-45 -66 -99 -97 -171 -97c-113 0 -206 95 -206 211s93 210 206 210c73 0 126 -30 171 -97v83h95c18 0 27 -7 27 -20c0 -14 -9 -21 -27 -21h-54v-404c0 -7 0 -14 -1 -20h55c18 0 27 -7 27 -20s-9 -20 -27 -20h-66z" />
    <glyph glyph-name="Gcaron" unicode="&#x1e6;" 
d="M312 615l-132 109c-10 7 -13 11 -13 20c0 11 9 20 20 20c5 0 11 -3 18 -8l107 -88l107 88c7 5 13 8 18 8c10 0 20 -10 20 -20c0 -8 -2 -12 -13 -21zM315 535c-177 0 -211 -173 -211 -218v-73c0 -136 88 -219 232 -219c52 0 87 8 143 34v150h-139c-18 0 -27 7 -27 21
c0 13 9 20 27 20h194c19 0 28 -7 28 -20c0 -14 -9 -21 -28 -21h-14v-173c-59 -34 -125 -52 -187 -52c-164 0 -270 102 -270 260v74c0 135 100 258 250 258c66 0 121 -18 166 -54v14c0 18 7 27 21 27s20 -8 20 -27v-91c0 -18 -7 -27 -20 -27s-19 8 -20 25
c-4 51 -76 92 -165 92z" />
    <glyph glyph-name="gcaron" unicode="&#x1e7;" 
d="M312 468l-132 109c-10 7 -13 11 -13 20c0 11 9 20 20 20c5 0 11 -3 18 -8l107 -88l107 88c7 5 13 8 18 8c10 0 20 -10 20 -20c0 -8 -2 -12 -13 -21zM440 334v83h95c18 0 27 -7 27 -20c0 -14 -9 -21 -27 -21h-54v-404c0 -83.7959 -72.1953 -158 -165 -158h-114
c-18 0 -27 7 -27 21c0 13 9 20 27 20h116c68 0 122 55 122 123v129c-45 -66 -99 -97 -171 -97c-113 0 -206 95 -206 211s93 210 206 210c73 0 126 -30 171 -97zM272 390c-94 0 -168 -75 -168 -169c0 -95 75 -170 168 -170s168 75 168 168c0 97 -73 171 -168 171z" />
    <glyph glyph-name="uni01E8" unicode="&#x1e8;" 
d="M308 600l-132 109c-10 7 -13 11 -13 20c0 11 9 20 20 20c5 0 11 -3 18 -8l107 -88l107 88c7 5 13 8 18 8c10 0 20 -10 20 -20c0 -8 -2 -12 -13 -21zM165 221v-180h75c18 0 27 -7 27 -20c0 -14 -9 -21 -27 -21h-170c-18 0 -27 7 -27 21c0 13 9 20 27 20h54v481h-54
c-18 0 -27 7 -27 21c0 13 9 20 27 20h170c18 0 27 -7 27 -20c0 -14 -9 -21 -27 -21h-75v-249l280 249h-45c-19 0 -28 7 -28 21c0 13 9 20 28 20h118c19 0 28 -7 28 -20c0 -14 -9 -21 -28 -21h-16l-222 -198c97 -40 134 -91 209 -283h56c18 0 27 -7 27 -20
c0 -14 -9 -21 -27 -21h-87c-73 203 -117 263 -212 294z" />
    <glyph glyph-name="uni01E9" unicode="&#x1e9;" 
d="M302 635l-132 109c-10 7 -13 11 -13 20c0 11 9 20 20 20c5 0 11 -3 18 -8l107 -88l107 88c7 5 13 8 18 8c10 0 20 -10 20 -20c0 -8 -2 -12 -13 -21zM185 180v-180h-95c-18 0 -27 7 -27 21c0 13 9 20 27 20h54v522h-54c-18 0 -27 7 -27 21c0 13 9 20 27 20h95v-375
l173 147h-22c-18 0 -27 7 -27 21c0 13 9 20 27 20h130c18 0 27 -7 27 -20c0 -14 -9 -21 -27 -21h-47l-157 -131l207 -204h45c18 0 27 -7 27 -20c0 -14 -9 -21 -27 -21h-131c-18 0 -27 7 -27 21c0 13 9 20 27 20h28l-180 178z" />
    <glyph glyph-name="uni01EA" unicode="&#x1ea;" 
d="M320 -139c37 0 45 19 57 19c7 0 14 -7 14 -15c0 -17 -39 -36 -77 -36c-48 0 -76 23 -76 61c0 41 22 68 77 94h47l-27 -15c-37 -21 -58 -47 -58 -74c0 -23 14 -34 43 -34zM300 576c141 0 249 -130 249 -300c0 -161 -112 -292 -249 -292c-139 0 -249 131 -249 296
s110 296 249 296zM300 535c-115 0 -208 -115 -208 -255s94 -255 208 -255c113 0 208 115 208 252c0 144 -92 258 -208 258z" />
    <glyph glyph-name="uni01EB" unicode="&#x1eb;" 
d="M320 -139c37 0 45 19 57 19c7 0 14 -7 14 -15c0 -17 -39 -36 -77 -36c-48 0 -76 23 -76 61c0 41 22 68 77 94h47l-27 -15c-37 -21 -58 -47 -58 -74c0 -23 14 -34 43 -34zM300 431c128 0 228 -99 228 -226c0 -122 -102 -221 -228 -221c-127 0 -228 99 -228 224
c0 123 101 223 228 223zM300 390c-104 0 -187 -81 -187 -182c0 -102 83 -183 187 -183c103 0 187 81 187 180c0 105 -82 185 -187 185z" />
    <glyph glyph-name="uni01EC" unicode="&#x1ec;" 
d="M418 623h-236c-18 0 -27 7 -27 20s9 20 27 20h236c18 0 27 -7 27 -20s-9 -20 -27 -20zM320 -139c37 0 45 19 57 19c7 0 14 -7 14 -15c0 -17 -39 -36 -77 -36c-48 0 -76 23 -76 61c0 41 22 68 77 94h47l-27 -15c-37 -21 -58 -47 -58 -74c0 -23 14 -34 43 -34zM300 576
c141 0 249 -130 249 -300c0 -161 -112 -292 -249 -292c-139 0 -249 131 -249 296s110 296 249 296zM300 535c-115 0 -208 -115 -208 -255s94 -255 208 -255c113 0 208 115 208 252c0 144 -92 258 -208 258z" />
    <glyph glyph-name="uni01ED" unicode="&#x1ed;" 
d="M418 481h-236c-18 0 -27 7 -27 20s9 20 27 20h236c18 0 27 -7 27 -20s-9 -20 -27 -20zM320 -139c37 0 45 19 57 19c7 0 14 -7 14 -15c0 -17 -39 -36 -77 -36c-48 0 -76 23 -76 61c0 41 22 68 77 94h47l-27 -15c-37 -21 -58 -47 -58 -74c0 -23 14 -34 43 -34zM300 431
c128 0 228 -99 228 -226c0 -122 -102 -221 -228 -221c-127 0 -228 99 -228 224c0 123 101 223 228 223zM300 390c-104 0 -187 -81 -187 -182c0 -102 83 -183 187 -183c103 0 187 81 187 180c0 105 -82 185 -187 185z" />
    <glyph glyph-name="uni01EE" unicode="&#x1ee;" 
d="M268 616l-132 109c-10 7 -13 11 -13 20c0 11 9 20 20 20c5 0 11 -3 18 -8l107 -88l107 88c7 5 13 8 18 8c10 0 20 -10 20 -20c0 -8 -2 -12 -13 -21zM168 314c-15 0 -19 15 -19 20s3 11 7 15l180 173h-183v-55c0 -18 -7 -27 -20 -27c-14 0 -21 9 -21 27v96h319
c19 0 28 -7 28 -20c0 -14 -9 -21 -28 -21h-38l-144 -139c27 11 54 12 73 12c102 0 177 -82 177 -194c0 -126 -85 -216 -204 -216c-110 0 -199 76 -199 97c0 11 9 20 20 20c22 0 63 -76 177 -76c98 0 165 72 165 177c0 89 -58 151 -142 151c-87 0 -125 -40 -148 -40z" />
    <glyph glyph-name="uni01EF" unicode="&#x1ef;" 
d="M272 471l-132 109c-10 7 -13 11 -13 20c0 11 9 20 20 20c5 0 11 -3 18 -8l107 -88l107 88c7 5 13 8 18 8c10 0 20 -10 20 -20c0 -8 -2 -12 -13 -21zM168 169c-11 0 -19 8 -19 19c0 5 3 11 7 15l180 173h-200c-16 0 -24 11 -24 20c0 11 8 21 24 21h273c19 0 28 -7 28 -20
c0 -14 -9 -21 -28 -21h-16l-134 -126h13c96 0 152 -96 152 -192c0 -105 -60 -216 -164 -216c-74 0 -124 47 -158 79c-4 4 -7 10 -7 15c0 13 12 20 19 20c29 0 64 -74 146 -74c68 0 124 85 124 176c0 82 -49 152 -112 152c-79 0 -64 -41 -104 -41z" />
    <glyph glyph-name="uni01F0" unicode="&#x1f0;" 
d="M417 376h-241c-18 0 -27 7 -27 21c0 13 9 20 27 20h282v-445c0 -93 -64 -158 -155 -158h-129c-18 0 -27 7 -27 21c0 13 9 20 27 20h128c66 0 115 49 115 117v404zM384 457l-132 109c-10 7 -12 11 -12 20c0 11 8 20 20 20c4 0 10 -3 18 -8l106 -88l108 88c6 5 12 8 18 8
c10 0 20 -10 20 -20c0 -8 -2 -12 -14 -21z" />
    <glyph glyph-name="uni01F1" unicode="&#x1f1;" 
d="M561 0h-234v59l187 460v3h-128v-118c0 -19 -7 -28 -20 -28c-14 0 -21 9 -21 28v159h208v-58l-187 -460v-4h154v141c0 18 6 27 20 27s21 -9 21 -27v-182zM68 41v481h-18c-18 0 -27 7 -27 21c0 13 9 20 27 20h92c129 0 166 -112 166 -253v-56c0 -142 -37 -254 -166 -254
h-92c-18 0 -27 7 -27 21c0 13 9 20 27 20h18zM109 41h38c96 0 120 98 120 204v82c0 49 -1 92 -33 141c-27 41 -40 54 -94 54h-31v-481z" />
    <glyph glyph-name="uni01F2" unicode="&#x1f2;" 
d="M554 417v-36l-175 -340h149v56c0 18 7 27 21 27c13 0 20 -9 20 -27v-97h-246v36l173 340h-115v-55c0 -18 -7 -27 -20 -27c-14 0 -21 9 -21 27v96h214zM68 41v481h-18c-18 0 -27 7 -27 21c0 13 9 20 27 20h92c129 0 166 -112 166 -253v-56c0 -142 -37 -254 -166 -254h-92
c-18 0 -27 7 -27 21c0 13 9 20 27 20h18zM109 41h38c96 0 120 98 120 204v82c0 49 -1 92 -33 141c-27 41 -40 54 -94 54h-31v-481z" />
    <glyph glyph-name="uni01F3" unicode="&#x1f3;" 
d="M124 25c69 0 89 83 89 181c0 104 -31 184 -89 184c-46 0 -58 -81 -58 -182s24 -183 58 -183zM120 431c71 0 84 -45 93 -64v196h-54c-18 0 -27 7 -27 21c0 13 9 20 27 20h95v-563h56l170 335h-123v-55c0 -18 -7 -27 -20 -27c-14 0 -21 9 -21 27v96h222v-36l-175 -340h149
v56c0 18 7 27 21 27c13 0 20 -9 20 -27v-97h-340v49c-13 -49 -31 -65 -92 -65c-65 0 -96 101 -96 224c0 122 19 223 95 223z" />
    <glyph glyph-name="uni01F4" unicode="&#x1f4;" 
d="M383 712l-114 -100c-9 -7 -13 -9 -19 -9c-11 0 -20 9 -20 21c0 7 2 10 12 19l114 100c9 7 13 9 19 9c11 0 20 -9 20 -21c0 -7 -3 -11 -12 -19zM315 535c-177 0 -211 -173 -211 -218v-73c0 -136 88 -219 232 -219c52 0 87 8 143 34v150h-139c-18 0 -27 7 -27 21
c0 13 9 20 27 20h194c19 0 28 -7 28 -20c0 -14 -9 -21 -28 -21h-14v-173c-59 -34 -125 -52 -187 -52c-164 0 -270 102 -270 260v74c0 135 100 258 250 258c66 0 121 -18 166 -54v14c0 18 7 27 21 27s20 -8 20 -27v-91c0 -18 -7 -27 -20 -27s-19 8 -20 25
c-4 51 -76 92 -165 92z" />
    <glyph glyph-name="uni01F5" unicode="&#x1f5;" 
d="M383 566l-114 -100c-9 -7 -13 -9 -19 -9c-11 0 -20 9 -20 21c0 7 2 10 12 19l114 100c9 7 13 9 19 9c11 0 20 -9 20 -21c0 -7 -3 -11 -12 -19zM440 334v83h95c18 0 27 -7 27 -20c0 -14 -9 -21 -27 -21h-54v-404c0 -83.7959 -72.1953 -158 -165 -158h-114
c-18 0 -27 7 -27 21c0 13 9 20 27 20h116c68 0 122 55 122 123v129c-45 -66 -99 -97 -171 -97c-113 0 -206 95 -206 211s93 210 206 210c73 0 126 -30 171 -97zM272 390c-94 0 -168 -75 -168 -169c0 -95 75 -170 168 -170s168 75 168 168c0 97 -73 171 -168 171z" />
    <glyph glyph-name="uni01F6" unicode="&#x1f6;" 
d="M580 116c-1 -72 -50 -132 -131 -132c-49 0 -79 19 -110 57c-19 24 -19 74 -19 74v159h-190v-231h54c18 0 27 -7 27 -20c0 -14 -9 -21 -27 -21h-140c-18 0 -28 7 -28 21c0 13 9 20 28 20h45v481h-25c-18 0 -27 7 -27 21c0 13 9 20 27 20h104c18 0 27 -7 27 -20
c0 -14 -9 -21 -27 -21h-38v-209h190v209h-38c-18 0 -27 7 -27 21c0 13 9 20 27 20h104c18 0 27 -7 27 -20c0 -14 -9 -21 -27 -21h-25v-409c0 -50 40 -90 91 -90c67 0 86 60 86 93v258h-74c-19 0 -28 7 -28 21c0 13 9 20 28 20h115z" />
    <glyph glyph-name="uni01F7" unicode="&#x1f7;" 
d="M144 477l62 44c56 39 112 51 186 51c84 0 146 -34 146 -110c0 -75 -44 -129 -77 -162l-317 -311v-134h98c18 0 27 -7 27 -20c0 -14 -9 -21 -27 -21h-193c-18 0 -27 7 -27 21c0 13 9 20 27 20h54v667h-54c-18 0 -27 7 -27 21c0 13 9 20 27 20h95v-86zM144 426v-380
l287 282c31 31 67 82 67 134c0 51 -30 70 -106 70c-70 0 -114 -11 -162 -45z" />
    <glyph glyph-name="uni01F8" unicode="&#x1f8;" 
d="M248 743l114 -100c8.84082 -7.75488 12 -11.4004 12 -19c0 -12 -9 -21 -21 -21c-5 0 -11 3 -18 9l-114 100c-9 8 -12 12 -12 20c0 11 9 20 20 20c6 0 11 -3 19 -9zM501 0h-52l-305 504v-463h75c18 0 27 -7 27 -20c0 -14 -10 -21 -27 -21h-150c-18 0 -27 7 -27 21
c0 13 9 20 27 20h34v481h-54c-18 0 -27 7 -27 21c0 13 9 20 27 20h106l305 -504v463h-74c-19 0 -28 7 -28 21c0 13 9 20 28 20h149c18 0 27 -7 27 -20c0 -14 -9 -21 -27 -21h-34v-522z" />
    <glyph glyph-name="uni01F9" unicode="&#x1f9;" 
d="M254 640l114 -100c8.84082 -7.75488 12 -11.4004 12 -19c0 -12 -9 -21 -21 -21c-5 0 -11 3 -18 9l-114 100c-9 8 -12 12 -12 20c0 11 9 20 20 20c6 0 11 -3 19 -9zM319 390c-89 0 -130 -68 -152 -96v-253h45c18 0 27 -7 27 -20c0 -14 -9 -21 -27 -21h-131
c-19 0 -28 7 -28 21c0 13 9 20 28 20h45v335h-34c-18 0 -27 7 -27 21c0 13 9 20 27 20h75v-69c58 64 94 83 156 83c89 0 157 -59 157 -136v-254h34c18 0 27 -7 27 -20c0 -14 -9 -21 -27 -21h-109c-18 0 -27 7 -27 21c0 13 9 20 27 20h34v247c0 56 -45 102 -120 102z" />
    <glyph glyph-name="Aringacute" unicode="&#x1fa;" 
d="M314 760l-114 -100c-9 -7 -13 -9 -19 -9c-11 0 -20 9 -20 21c0 7 2 10 12 19l114 100c9 7 13 9 19 9c11 0 20 -9 20 -21c0 -7 -3 -11 -12 -19zM428 148.8h-266l-54 -117.6h79c18 0 27 -5.60059 27 -16c0 -11.2002 -9 -16.7998 -27 -16.7998h-151
c-18 0 -27 5.59961 -27 16.7998c0 10.3994 9 16 27 16h31l179 384.8h-120c-18 0 -27 5.59961 -27 16.7998c0 10.4004 9 16 27 16h204l197 -417.6h37c18 0 27 -5.60059 27 -16c0 -11.2002 -9 -16.7998 -27 -16.7998h-156c-18 0 -27 5.59961 -27 16.7998c0 10.3994 9 16 27 16
h76zM413 181.6l-112 234.4h-15l-108 -234.4h235zM277 659c52 0 93 -40 93 -92c0 -48 -42 -89 -93 -89s-93 41 -93 91c0 49 42 90 93 90zM277 626c-33 0 -60 -26 -60 -57c0 -32 27 -58 60 -58s60 26 60 57c0 32 -27 58 -60 58z" />
    <glyph glyph-name="aringacute" unicode="&#x1fb;" 
d="M300 647c52 0 93 -40 93 -92c0 -48 -42 -89 -93 -89s-93 41 -93 91c0 49 42 90 93 90zM300 614c-33 0 -60 -26 -60 -57c0 -32 27 -58 60 -58s60 26 60 57c0 32 -27 58 -60 58zM125 378c0 33 141 53 174 53c93 0 161 -52 161 -123v-267h54c18 0 27 -7 27 -20
c0 -14 -9 -21 -27 -21h-95v67c-61 -57 -121 -83 -191 -83c-93 0 -156 52 -156 128c0 87 86 146 211 146c46 0 77 -5 136 -21v71c0 49 -50 82 -123 82c-80 0 -123 -32 -152 -32c-10 0 -19 9 -19 20zM419 112v90c-36 9 -84 15 -128 15c-106 0 -178 -43 -178 -106
c0 -52 45 -86 114 -86c71 0 125 24 192 87zM359 760l-114 -100c-9 -7 -13 -9 -19 -9c-11 0 -20 9 -20 21c0 7 2 10 12 19l114 100c9 7 13 9 19 9c11 0 20 -9 20 -21c0 -7 -3 -11 -12 -19z" />
    <glyph glyph-name="AEacute" unicode="&#x1fc;" 
d="M371 712l-114 -100c-9 -7 -13 -9 -19 -9c-11 0 -20 9 -20 21c0 7 2 10 12 19l114 100c9 7 13 9 19 9c11 0 20 -9 20 -21c0 -7 -3 -11 -12 -19zM297 189h-141l-41 -148h26c18 0 27 -7 27 -20c0 -14 -9 -21 -27 -21h-104c-18 0 -27 7 -27 21c0 13 9 20 27 20h37l133 481
h-63c-18 0 -27 7 -27 21c0 13 9 20 27 20h426v-152c0 -18 -7 -27 -21 -27c-13 0 -20 9 -20 27v111h-191v-208h78v28c0 18 7 27 20 27c14 0 20 -9 20 -27v-96c0 -18 -7 -27 -20 -27s-20 10 -20 27v27h-78v-232h211v93c0 19 6 26 20 26c13 0 21 -11 21 -26v-134h-345
c-18 0 -27 7 -27 21c0 13 9 20 27 20h52v148zM297 230v292h-50l-80 -292h130z" />
    <glyph glyph-name="aeacute" unicode="&#x1fd;" 
d="M365 566l-114 -100c-9 -7 -13 -9 -19 -9c-11 0 -20 9 -20 21c0 7 2 10 12 19l114 100c9 7 13 9 19 9c11 0 20 -9 20 -21c0 -7 -3 -11 -12 -19zM71 378c0 32 99 53 128 53c49 0 94 -33 113 -84c24 52 70 84 118 84c103 0 144 -99 147 -232h-258c7 -102 60 -174 127 -174
c57 0 90 62 112 62c11 0 20 -10 20 -20c0 -19 -74 -83 -134 -83c-46 0 -92 28 -124 77v-34c0 -18 -7 -27 -20 -27s-20 9 -20 27v25c-39 -47 -76 -68 -120 -68c-85 0 -148 63 -148 148c0 73 83 125 183 125c28 0 56 -4 85 -12v60c0 47 -39 85 -88 85c-61 0 -83 -32 -102 -32
c-9 0 -19 11 -19 20zM280 110v93c-27 8 -56 13 -79 13c-43 0 -101 -19 -123 -40c-14 -14 -21 -31 -21 -55c0 -56 44 -96 105 -96c37 0 71 25 118 85zM535 240c-7 56 -21 150 -106 150c-60 0 -96 -50 -109 -150h215z" />
    <glyph glyph-name="Oslashacute" unicode="&#x1fe;" 
d="M371 753l-114 -100c-9 -7 -13 -9 -19 -9c-11 0 -20 9 -20 21c0 7 2 10 12 19l114 100c9 7 13 9 19 9c11 0 20 -9 20 -21c0 -7 -3 -11 -12 -19zM141 51l-65 -82c-7 -9 -12 -12 -18 -12c-10 0 -18 8 -18 18c0 4 1 7 8 16l69 87c-45 60 -66 126 -66 202
c0 166 110 296 249 296c60 0 109 -21 158 -66l66 83c7 9 11 12 18 12c10 0 18 -8 18 -18c0 -5 -2 -8 -8 -16l-70 -88c43 -53 67 -127 67 -203c0 -165 -110 -296 -249 -296c-60 0 -114 23 -159 67zM144 112l288 364c-40 40 -83 59 -132 59c-115 0 -208 -115 -208 -255
c0 -62 17 -116 52 -168zM456 449l-289 -365c39 -39 84 -59 133 -59c114 0 208 115 208 255c0 63 -18 120 -52 169z" />
    <glyph glyph-name="oslashacute" unicode="&#x1ff;" 
d="M369 607l-114 -100c-9 -7 -13 -9 -19 -9c-11 0 -20 9 -20 21c0 7 2 10 12 19l114 100c9 7 13 9 19 9c11 0 20 -9 20 -21c0 -7 -3 -11 -12 -19zM154 35l-66 -68c-8 -8 -12 -10 -17 -10c-10 0 -18 8 -18 18c0 5 2 9 10 17l66 67c-37 43 -57 94 -57 149
c0 124 101 223 228 223c54 0 102 -16 144 -49l64 66c9 8 12 10 18 10c9 0 17 -8 17 -18c0 -5 -2 -9 -10 -17l-64 -65c39 -43 59 -94 59 -151c0 -124 -101 -223 -228 -223c-55 0 -102 17 -146 51zM441 329l-258 -264c33 -26 73 -40 117 -40c104 0 187 81 187 182
c0 46 -16 87 -46 122zM158 89l257 263c-33 25 -72 38 -115 38c-104 0 -187 -81 -187 -182c0 -44 16 -86 45 -119z" />
    <glyph glyph-name="uni0200" unicode="&#x200;" 
d="M269 731c-10 10 -12 13 -12 19c0 12 9 21 20 21c6 0 12 -3 18 -9l98 -94c11 -10 12 -12 12 -19c0 -12 -9 -21 -20 -21c-6 0 -12 3 -19 9zM127 731c-11 10 -12 13 -12 19c0 12 9 21 20 21c6 0 12 -3 19 -9l98 -94c5 -5 12 -11 12 -19c0 -12 -9 -21 -20 -21
c-6 0 -12 3 -19 9zM428 188h-266l-54 -147h79c18 0 27 -7 27 -20c0 -14 -9 -21 -27 -21h-151c-18 0 -27 7 -27 21c0 13 9 20 27 20h31l179 481h-120c-18 0 -27 7 -27 21c0 13 8.90918 20 27 20h204l197 -522h37c18 0 27 -7 27 -20c0 -14 -9 -21 -27 -21h-156
c-18 0 -27 7 -27 21c0 13 9 20 27 20h76zM413 229l-112 293h-15l-108 -293h235z" />
    <glyph glyph-name="uni0201" unicode="&#x201;" 
d="M304 607c-10 10 -12 13 -12 19c0 12 9 21 20 21c6 0 12 -3 18 -9l98 -94c11 -10 12 -12 12 -19c0 -12 -9 -21 -20 -21c-6 0 -12 3 -19 9zM162 607c-11 10 -12 13 -12 19c0 12 9 21 20 21c6 0 12 -3 19 -9l98 -94c5 -5 12 -11 12 -19c0 -12 -9 -21 -20 -21
c-6 0 -12 3 -19 9zM125 378c0 33 141 53 174 53c93 0 161 -52 161 -123v-267h54c18 0 27 -7 27 -20c0 -14 -9 -21 -27 -21h-95v67c-61 -57 -121 -83 -191 -83c-93 0 -156 52 -156 128c0 87 86 146 211 146c46 0 77 -5 136 -21v71c0 49 -50 82 -123 82
c-80 0 -123 -32 -152 -32c-10 0 -19 9 -19 20zM419 112v90c-36 9 -84 15 -128 15c-106 0 -178 -43 -178 -106c0 -52 45 -86 114 -86c71 0 125 24 192 87z" />
    <glyph glyph-name="uni0202" unicode="&#x202;" 
d="M389 571c-12 0 -18 7 -20 22c-3 38 -48 67 -104 67s-100 -29 -104 -67c-2 -15 -8 -22 -21 -22c-11 0 -20 9 -20 23c0 60 63 107 145 107s145 -47 145 -107c0 -14 -8 -23 -21 -23zM428 188h-266l-54 -147h79c18 0 27 -7 27 -20c0 -14 -9 -21 -27 -21h-151
c-18 0 -27 7 -27 21c0 13 9 20 27 20h31l179 481h-120c-18 0 -27 7 -27 21c0 13 8.90918 20 27 20h204l197 -522h37c18 0 27 -7 27 -20c0 -14 -9 -21 -27 -21h-156c-18 0 -27 7 -27 21c0 13 9 20 27 20h76zM413 229l-112 293h-15l-108 -293h235z" />
    <glyph glyph-name="uni0203" unicode="&#x203;" 
d="M423 468c-12 0 -18 7 -20 22c-3 38 -48 67 -104 67s-100 -29 -104 -67c-2 -15 -8 -22 -21 -22c-11 0 -20 9 -20 23c0 60 63 107 145 107s145 -47 145 -107c0 -14 -8 -23 -21 -23zM125 378c0 33 141 53 174 53c93 0 161 -52 161 -123v-267h54c18 0 27 -7 27 -20
c0 -14 -9 -21 -27 -21h-95v67c-61 -57 -121 -83 -191 -83c-93 0 -156 52 -156 128c0 87 86 146 211 146c46 0 77 -5 136 -21v71c0 49 -50 82 -123 82c-80 0 -123 -32 -152 -32c-10 0 -19 9 -19 20zM419 112v90c-36 9 -84 15 -128 15c-106 0 -178 -43 -178 -106
c0 -52 45 -86 114 -86c71 0 125 24 192 87z" />
    <glyph glyph-name="uni0204" unicode="&#x204;" 
d="M239 729c-10 10 -12 13 -12 19c0 12 9 21 20 21c6 0 12 -3 18 -9l98 -94c11 -10 12 -12 12 -19c0 -12 -9 -21 -20 -21c-6 0 -12 3 -19 9zM97 729c-11 10 -12 13 -12 19c0 12 9 21 20 21c6 0 12 -3 19 -9l98 -94c5 -5 12 -11 12 -19c0 -12 -9 -21 -20 -21
c-6 0 -12 3 -19 9zM165 272v-231h314v119c0 18 7 27 21 27c13 0 20 -9 20 -27v-160h-450c-18 0 -27 7 -27 21c0 13 9 20 27 20h54v481h-54c-18 0 -27 7 -27 21c0 13 9 20 27 20h429v-139c0 -18 -7 -27 -21 -27c-13 0 -20 9 -20 27v98h-293v-209h145v45c0 18 7 27 21 27
c13 0 20 -9 20 -27v-131c0 -18 -7 -27 -20 -27c-14 0 -21 9 -21 27v45h-145z" />
    <glyph glyph-name="uni0205" unicode="&#x205;" 
d="M245 594c-10 10 -12 13 -12 19c0 12 9 21 20 21c6 0 12 -3 18 -9l98 -94c11 -10 12 -12 12 -19c0 -12 -9 -21 -20 -21c-6 0 -12 3 -19 9zM103 594c-11 10 -12 13 -12 19c0 12 9 21 20 21c6 0 12 -3 19 -9l98 -94c5 -5 12 -11 12 -19c0 -12 -9 -21 -20 -21
c-6 0 -12 3 -19 9zM520 199h-416c14 -105 94 -174 202 -174c62 0 135 22 175 54c7 5 11 7 16 7c10 0 19 -9 19 -20c0 -35 -120 -82 -211 -82c-135 0 -242 103 -242 233c0 121 100 214 228 214c133 0 229 -91 229 -232zM104 240h374c-16 91 -90 150 -187 150
s-169 -58 -187 -150z" />
    <glyph glyph-name="uni0206" unicode="&#x206;" 
d="M412 571c-12 0 -18 7 -20 22c-3 38 -48 67 -104 67s-100 -29 -104 -67c-2 -15 -8 -22 -21 -22c-11 0 -20 9 -20 23c0 60 63 107 145 107s145 -47 145 -107c0 -14 -8 -23 -21 -23zM165 272v-231h314v119c0 18 7 27 21 27c13 0 20 -9 20 -27v-160h-450c-18 0 -27 7 -27 21
c0 13 9 20 27 20h54v481h-54c-18 0 -27 7 -27 21c0 13 9 20 27 20h429v-139c0 -18 -7 -27 -21 -27c-13 0 -20 9 -20 27v98h-293v-209h145v45c0 18 7 27 21 27c13 0 20 -9 20 -27v-131c0 -18 -7 -27 -20 -27c-14 0 -21 9 -21 27v45h-145z" />
    <glyph glyph-name="uni0207" unicode="&#x207;" 
d="M419 455c-12 0 -18 7 -20 22c-3 38 -48 67 -104 67s-100 -29 -104 -67c-2 -15 -8 -22 -21 -22c-11 0 -20 9 -20 23c0 60 63 107 145 107s145 -47 145 -107c0 -14 -8 -23 -21 -23zM520 199h-416c14 -105 94 -174 202 -174c62 0 135 22 175 54c7 5 11 7 16 7
c10 0 19 -9 19 -20c0 -35 -120 -82 -211 -82c-135 0 -242 103 -242 233c0 121 100 214 228 214c133 0 229 -91 229 -232zM104 240h374c-16 91 -90 150 -187 150s-169 -58 -187 -150z" />
    <glyph glyph-name="uni0208" unicode="&#x208;" 
d="M254 729c-10 10 -12 13 -12 19c0 12 9 21 20 21c6 0 12 -3 18 -9l98 -94c11 -10 12 -12 12 -19c0 -12 -9 -21 -20 -21c-6 0 -12 3 -19 9zM112 729c-11 10 -12 13 -12 19c0 12 9 21 20 21c6 0 12 -3 19 -9l98 -94c5 -5 12 -11 12 -19c0 -12 -9 -21 -20 -21
c-6 0 -12 3 -19 9zM320 522v-481h139c19 0 28 -7 28 -20c0 -14 -10 -21 -28 -21h-319c-18 0 -27 7 -27 21c0 13 9 20 27 20h139v481h-139c-18 0 -27 7 -27 21c0 13 9 20 27 20h319c19 0 28 -7 28 -20c0 -14 -9 -21 -28 -21h-139z" />
    <glyph glyph-name="uni0209" unicode="&#x209;" 
d="M253 594c-10 10 -12 13 -12 19c0 12 9 21 20 21c6 0 12 -3 18 -9l98 -94c11 -10 12 -12 12 -19c0 -12 -9 -21 -20 -21c-6 0 -12 3 -19 9zM111 594c-11 10 -12 13 -12 19c0 12 9 21 20 21c6 0 12 -3 19 -9l98 -94c5 -5 12 -11 12 -19c0 -12 -9 -21 -20 -21
c-6 0 -12 3 -19 9zM320 417v-376h160c19 0 28 -7 28 -20c0 -14 -10 -21 -28 -21h-361c-18 0 -27 7 -27 21c0 13 9 20 27 20h160v335h-118c-18 0 -27 7 -27 21c0 13 9 20 27 20h159z" />
    <glyph glyph-name="uni020A" unicode="&#x20a;" 
d="M428 571c-12 0 -18 7 -20 22c-3 38 -48 67 -104 67s-100 -29 -104 -67c-2 -15 -8 -22 -21 -22c-11 0 -20 9 -20 23c0 60 63 107 145 107s145 -47 145 -107c0 -14 -8 -23 -21 -23zM320 522v-481h139c19 0 28 -7 28 -20c0 -14 -10 -21 -28 -21h-319c-18 0 -27 7 -27 21
c0 13 9 20 27 20h139v481h-139c-18 0 -27 7 -27 21c0 13 9 20 27 20h319c19 0 28 -7 28 -20c0 -14 -9 -21 -28 -21h-139z" />
    <glyph glyph-name="uni020B" unicode="&#x20b;" 
d="M427 455c-12 0 -18 7 -20 22c-3 38 -48 67 -104 67s-100 -29 -104 -67c-2 -15 -8 -22 -21 -22c-11 0 -20 9 -20 23c0 60 63 107 145 107s145 -47 145 -107c0 -14 -8 -23 -21 -23zM320 417v-376h160c19 0 28 -7 28 -20c0 -14 -10 -21 -28 -21h-361c-18 0 -27 7 -27 21
c0 13 9 20 27 20h160v335h-118c-18 0 -27 7 -27 21c0 13 9 20 27 20h159z" />
    <glyph glyph-name="uni020C" unicode="&#x20c;" 
d="M255 731c-10 10 -12 13 -12 19c0 12 9 21 20 21c6 0 12 -3 18 -9l98 -94c11 -10 12 -12 12 -19c0 -12 -9 -21 -20 -21c-6 0 -12 3 -19 9zM113 731c-11 10 -12 13 -12 19c0 12 9 21 20 21c6 0 12 -3 19 -9l98 -94c5 -5 12 -11 12 -19c0 -12 -9 -21 -20 -21
c-6 0 -12 3 -19 9zM300 576c141 0 249 -130 249 -300c0 -161 -112 -292 -249 -292c-139 0 -249 131 -249 296s110 296 249 296zM300 535c-115 0 -208 -115 -208 -255s94 -255 208 -255c113 0 208 115 208 252c0 144 -92 258 -208 258z" />
    <glyph glyph-name="uni020D" unicode="&#x20d;" 
d="M255 594c-10 10 -12 13 -12 19c0 12 9 21 20 21c6 0 12 -3 18 -9l98 -94c11 -10 12 -12 12 -19c0 -12 -9 -21 -20 -21c-6 0 -12 3 -19 9zM113 594c-11 10 -12 13 -12 19c0 12 9 21 20 21c6 0 12 -3 19 -9l98 -94c5 -5 12 -11 12 -19c0 -12 -9 -21 -20 -21
c-6 0 -12 3 -19 9zM300 431c128 0 228 -99 228 -226c0 -122 -102 -221 -228 -221c-127 0 -228 99 -228 224c0 123 101 223 228 223zM300 390c-104 0 -187 -81 -187 -182c0 -102 83 -183 187 -183c103 0 187 81 187 180c0 105 -82 185 -187 185z" />
    <glyph glyph-name="uni020E" unicode="&#x20e;" 
d="M428 573c-12 0 -18 7 -20 22c-3 38 -48 67 -104 67s-100 -29 -104 -67c-2 -15 -8 -22 -21 -22c-11 0 -20 9 -20 23c0 60 63 107 145 107s145 -47 145 -107c0 -14 -8 -23 -21 -23zM300 576c141 0 249 -130 249 -300c0 -161 -112 -292 -249 -292c-139 0 -249 131 -249 296
s110 296 249 296zM300 535c-115 0 -208 -115 -208 -255s94 -255 208 -255c113 0 208 115 208 252c0 144 -92 258 -208 258z" />
    <glyph glyph-name="uni020F" unicode="&#x20f;" 
d="M428 455c-12 0 -18 7 -20 22c-3 38 -48 67 -104 67s-100 -29 -104 -67c-2 -15 -8 -22 -21 -22c-11 0 -20 9 -20 23c0 60 63 107 145 107s145 -47 145 -107c0 -14 -8 -23 -21 -23zM300 431c128 0 228 -99 228 -226c0 -122 -102 -221 -228 -221c-127 0 -228 99 -228 224
c0 123 101 223 228 223zM300 390c-104 0 -187 -81 -187 -182c0 -102 83 -183 187 -183c103 0 187 81 187 180c0 105 -82 185 -187 185z" />
    <glyph glyph-name="uni0210" unicode="&#x210;" 
d="M190 729c-10 10 -12 13 -12 19c0 12 9 21 20 21c6 0 12 -3 18 -9l98 -94c11 -10 12 -12 12 -19c0 -12 -9 -21 -20 -21c-6 0 -12 3 -19 9zM48 729c-11 10 -12 13 -12 19c0 12 9 21 20 21c6 0 12 -3 19 -9l98 -94c5 -5 12 -11 12 -19c0 -12 -9 -21 -20 -21
c-6 0 -12 3 -19 9zM165 251v-210h75c18 0 27 -7 27 -20c0 -14 -9 -21 -27 -21h-170c-18 0 -27 7 -27 21c0 13 9 20 27 20h54v481h-54c-18 0 -27 7 -27 21c0 13 9 20 27 20h248c97 0 180 -72 180 -156c0 -65 -46 -113 -139 -145c63 -43 91 -80 172 -221h31c18 0 27 -7 27 -20
c0 -14 -9 -21 -27 -21h-57c-88 162 -132 216 -208 251h-132zM165 292h114c98 0 178 52 178 116c0 60 -67 114 -139 114h-153v-230z" />
    <glyph glyph-name="uni0211" unicode="&#x211;" 
d="M267 594c-10 10 -12 13 -12 19c0 12 9 21 20 21c6 0 12 -3 18 -9l98 -94c11 -10 12 -12 12 -19c0 -12 -9 -21 -20 -21c-6 0 -12 3 -19 9zM125 594c-11 10 -12 13 -12 19c0 12 9 21 20 21c6 0 12 -3 19 -9l98 -94c5 -5 12 -11 12 -19c0 -12 -9 -21 -20 -21
c-6 0 -12 3 -19 9zM520 344c-17 0 -39 42 -82 42c-45 0 -80 -23 -190 -124v-221h179c17 0 27 -8 27 -21c0 -12 -10 -20 -27 -20h-316c-17 0 -27 8 -27 21c0 12 10 20 27 20h96v335h-75c-17 0 -27 8 -27 21c0 12 10 20 27 20h116v-102c93 84 142 112 193 112
c60 0 100 -49 100 -62c0 -12 -9 -21 -21 -21z" />
    <glyph glyph-name="uni0212" unicode="&#x212;" 
d="M399 570c-12 0 -18 7 -20 22c-3 38 -48 67 -104 67s-100 -29 -104 -67c-2 -15 -8 -22 -21 -22c-11 0 -20 9 -20 23c0 60 63 107 145 107s145 -47 145 -107c0 -14 -8 -23 -21 -23zM165 251v-210h75c18 0 27 -7 27 -20c0 -14 -9 -21 -27 -21h-170c-18 0 -27 7 -27 21
c0 13 9 20 27 20h54v481h-54c-18 0 -27 7 -27 21c0 13 9 20 27 20h248c97 0 180 -72 180 -156c0 -65 -46 -113 -139 -145c63 -43 91 -80 172 -221h31c18 0 27 -7 27 -20c0 -14 -9 -21 -27 -21h-57c-88 162 -132 216 -208 251h-132zM165 292h114c98 0 178 52 178 116
c0 60 -67 114 -139 114h-153v-230z" />
    </font>
</defs>
</svg>
