<?xml version="1.0" standalone="no"?>
<!DOCTYPE svg PUBLIC "-//W3C//DTD SVG 1.1//EN" "http://www.w3.org/Graphics/SVG/1.1/DTD/svg11.dtd" >
<svg xmlns="http://www.w3.org/2000/svg" xmlns:xlink="http://www.w3.org/1999/xlink" version="1.1">
<metadata>
Created by FontForge 20170910 at Wed Nov 16 07:33:48 2016
 By Jimmy Wärting
Copyright \(c\) 2016 by AlefAlefAlef. All rights reserved.
</metadata>
<defs>
<font id="GveretLevinAlefAlefAlef-Regular" horiz-adv-x="0" >
  <font-face 
    font-family="Gveret Levin AlefAlefAlef"
    font-weight="400"
    font-style="italic"
    font-stretch="normal"
    units-per-em="1000"
    panose-1="0 0 5 0 0 0 0 0 0 0"
    ascent="800"
    descent="-200"
    bbox="-479.361 -374.32 883.057 1032.34"
    underline-thickness="60"
    underline-position="-140"
    slope="-16"
    stemh="116"
    stemv="99"
    unicode-range="U+0020-FB4B"
  />
<missing-glyph horiz-adv-x="500" 
d="M410 800v-1000h-317v1000h317zM333 733h-165v-33h65v-37h-66v-33h166v33h-66v37h66v33zM267 604h-100v-104h166v34h-66v70zM233 570v-36h-33v36h33zM333 473h-166v-33h66v-37h-66v-33h100v70h66v33zM333 413h-33v-66h-133v-34h166v100zM333 291h-100v-56h34v23h33v-47
h-100v80h-33v-113h166v113zM333 118h-166v-113h166v113zM300 85v-47h-100v47h100zM333 -18h-166v-33h70l-70 -47v-33h166v33h-102l70 47h32v33z" />
    <glyph glyph-name=".notdef" horiz-adv-x="500" 
d="M410 800v-1000h-317v1000h317zM333 733h-165v-33h65v-37h-66v-33h166v33h-66v37h66v33zM267 604h-100v-104h166v34h-66v70zM233 570v-36h-33v36h33zM333 473h-166v-33h66v-37h-66v-33h100v70h66v33zM333 413h-33v-66h-133v-34h166v100zM333 291h-100v-56h34v23h33v-47
h-100v80h-33v-113h166v113zM333 118h-166v-113h166v113zM300 85v-47h-100v47h100zM333 -18h-166v-33h70l-70 -47v-33h166v33h-102l70 47h32v33z" />
    <glyph glyph-name="uni05D0" unicode="&#x5d0;" horiz-adv-x="537" 
d="M-25 -72c-24 6 -33 45 -17 118s172 483 204 529c27 38 60 55 94 44c21 -7 36 -47 14 -94s-197 -455 -213 -529c-16 -73 -57 -74 -82 -68zM339 -19c-47 5 -168 60 -159 183c13 175 248 271 281 280s70 12 89 -16c21 -30 6 -73 -48 -92c-61 -21 -206 -81 -206 -176
s127 -94 127 -124c0 -33 -36 -60 -84 -55z" />
    <glyph glyph-name="uni05D1" unicode="&#x5d1;" horiz-adv-x="642" 
d="M-4 -99c-20 8 -35 46 -4 95c32 50 119 209 178 215c57 6 69 -83 142 -85c66 -2 192 77 185 148c-6 60 -72 94 -132 94c-89 0 -165 -40 -232 -47c-39 -4 -71 -6 -89 19c-21 30 -3 58 34 80c38 23 183 67 303 60c110 -6 242 -90 236 -214c-6 -123 -193 -247 -317 -239
c-57 3 -99 32 -123 55c-29 -42 -85 -124 -100 -153c-20 -40 -57 -37 -81 -28z" />
    <glyph glyph-name="uni05D2" unicode="&#x5d2;" horiz-adv-x="513" 
d="M412 427c71 0 114 -26 114 -58s-36 -81 -122 -81c-20 0 -43 5 -67 14c-154 -51 -272 -153 -272 -235c0 -69 44 -114 98 -153c28 -20 40 -62 10 -86c-21 -17 -66 -3 -101 24c-78 60 -128 143 -119 233c14 144 149 238 270 290c-33 32 -60 70 -72 110c-11 36 -17 74 19 97
c39 25 84 -8 109 -71c20 -49 50 -77 75 -93c25 6 46 9 58 9z" />
    <glyph glyph-name="uni05D3" unicode="&#x5d3;" horiz-adv-x="519" 
d="M393 666c92 -10 180 -61 169 -166c-12 -117 -147 -177 -208 -195c24 -10 51 -39 42 -132c-11 -104 -42 -130 -71 -170c-32 -44 -114 -17 -85 37c29 55 46 100 50 140c4 38 -12 60 -74 67c-63 7 -159 -42 -172 41c-11 82 189 66 189 66c79 24 180 87 210 120
c29 31 26 76 -35 83c-62 6 -137 -12 -178 -29c-42 -18 -121 -29 -144 -2c-22 29 1 66 18 80c47 38 198 69 289 60z" />
    <glyph glyph-name="uni05D4" unicode="&#x5d4;" horiz-adv-x="651" 
d="M401 5c-33 -20 -79 -32 -95 5c-13 29 13 61 44 89c56 51 196 161 188 271c-8 107 -194 141 -399 50c-36 -16 -73 -22 -93 9c-16 25 -1 57 41 83c190 118 475 91 544 -83c72 -181 -131 -364 -230 -424zM27 -12c-29 16 -51 62 2 107c49 42 76 95 95 177c8 35 56 49 83 35
c26 -12 39 -40 24 -93c-19 -67 -70 -157 -124 -199c-24 -19 -55 -41 -80 -27z" />
    <glyph glyph-name="uni05D5" unicode="&#x5d5;" horiz-adv-x="233" 
d="M-21 -14c-21 8 -16 47 -2 94c9 30 93 230 150 427c24 83 49 129 105 114c40 -11 46 -58 25 -128c-41 -135 -168 -421 -198 -468s-54 -49 -80 -39z" />
    <glyph glyph-name="uni05D6" unicode="&#x5d6;" horiz-adv-x="541" 
d="M256 446c101 24 257 24 257 -149c0 -197 -265 -334 -394 -381c-119 -43 -219 1 -209 54c7 37 59 27 78 29c90 9 211 73 286 123c92 61 171 175 107 219s-228 -52 -266 -59c-61 -11 -94 64 -57 101c20 20 216 253 248 294s74 49 107 27c34 -22 30 -76 -10 -115
c-20 -19 -97 -95 -147 -143z" />
    <glyph glyph-name="uni05D7" unicode="&#x5d7;" horiz-adv-x="658" 
d="M520 542c92 -25 163 -123 121 -237c-42 -113 -203 -370 -296 -321c-74 39 36 131 82 192c39 51 165 234 50 254c-60 10 -143 -10 -214 -34c-64 -128 -149 -290 -176 -328c-33 -46 -59 -70 -92 -56c-24 10 -33 44 -5 94c14 24 66 126 119 229c-27 -4 -52 6 -62 32
c-16 42 48 89 94 110c9 4 26 10 47 17c17 33 29 60 36 75c29 66 68 99 102 83c35 -16 35 -52 11 -105l-8 -17c73 15 149 24 191 12z" />
    <glyph glyph-name="uni05D8" unicode="&#x5d8;" horiz-adv-x="564" 
d="M244 -21c-112 0 -213 83 -213 214c0 324 286 617 619 617c79 0 139 -8 139 -58c0 -41 -40 -53 -84 -53c-288 0 -551 -194 -551 -513c0 -48 42 -90 92 -90c84 0 131 93 150 183c10 48 43 65 66 65c45 0 66 -47 57 -103c-12 -74 -105 -262 -275 -262z" />
    <glyph glyph-name="uni05D9" unicode="&#x5d9;" horiz-adv-x="207" 
d="M62 229c-64 24 16 163 44 262c14 49 49 77 82 66c47 -16 45 -59 27 -110c-19 -53 -74 -248 -153 -218z" />
    <glyph glyph-name="uni05DA" unicode="&#x5da;" horiz-adv-x="430" 
d="M-56 -370c-9 7 -35 34 5 90c79 111 194 306 221 350c46 75 118 188 118 290c0 83 -64 139 -145 123c-46 -9 -81 0 -87 37c-11 66 61 90 152 78c254 -33 220 -325 123 -480c-63 -101 -206 -339 -307 -454c-38 -43 -70 -42 -80 -34z" />
    <glyph glyph-name="uni05DB" unicode="&#x5db;" horiz-adv-x="596" 
d="M87 -8c-78 25 -115 81 -103 117c13 40 77 13 123 -5c135 -53 295 23 335 164c37 132 -61 194 -177 192c-117 -2 -166 -6 -170 42c-3 36 28 57 72 68c234 59 449 -103 389 -315c-81 -285 -337 -305 -469 -263z" />
    <glyph glyph-name="uni05DC" unicode="&#x5dc;" horiz-adv-x="265" 
d="M672 913c45 -37 50 -79 34 -93c-46 -40 -105 43 -170 45c-211 6 -295 -446 -336 -657s-125 -225 -173 -221c-54 5 -77 50 -70 111c11 98 86 128 136 136c20 117 56 268 106 421c68 209 184 302 320 307c50 2 114 -17 153 -49z" />
    <glyph glyph-name="uni05DD" unicode="&#x5dd;" horiz-adv-x="568" 
d="M371 530c72 -9 169 -95 169 -231c0 -124 -84 -219 -196 -219c-92 0 -161 79 -201 142c-36 -96 -98 -241 -119 -261c-32 -30 -78 -13 -78 29c0 37 75 223 116 365c10 35 25 49 52 49c3 0 6 0 9 -1c3 18 12 36 26 50c27 27 123 89 222 77zM433 315c1 67 -54 108 -85 110
c-71 5 -142 -65 -149 -73c-3 -3 -8 -6 -13 -7c28 -49 83 -145 162 -154c45 -5 84 52 85 124z" />
    <glyph glyph-name="uni05DE" unicode="&#x5de;" horiz-adv-x="450" 
d="M482 622c41 -21 37 -64 13 -122c-52 -126 -137 -280 -192 -436c-20 -57 -56 -81 -88 -68c-33 13 -62 57 -79 139c-4 21 -6 38 -7 52c-16 -41 -46 -108 -79 -151c-23 -30 -48 -50 -77 -35c-39 20 -23 61 15 135s72 163 98 227c31 75 47 104 81 95c61 -16 31 -82 48 -216
c3 -26 5 -48 6 -67c40 113 153 362 173 398c24 44 53 67 88 49z" />
    <glyph glyph-name="uni05DF" unicode="&#x5df;" horiz-adv-x="220" 
d="M-153 -354c-30 12 -28 88 12 148c36 54 198 475 255 688c11 42 52 170 117 150c44 -13 36 -81 12 -152c-109 -329 -278 -712 -312 -767c-34 -54 -53 -79 -84 -67z" />
    <glyph glyph-name="uni05E0" unicode="&#x5e0;" horiz-adv-x="236" 
d="M-345 -319c-92 7 -139 41 -134 87c4 35 61 31 99 28c128 -9 367 7 477 659c11 67 45 124 105 103c59 -20 18 -110 2 -188c-34 -163 -168 -718 -549 -689z" />
    <glyph glyph-name="uni05E1" unicode="&#x5e1;" horiz-adv-x="566" 
d="M381 562c81 -9 172 -75 157 -214c-27 -248 -196 -386 -322 -372c-92 10 -211 73 -192 255c14 140 95 197 151 219c-4 5 -7 11 -8 17c-8 36 9 56 41 72c46 23 121 29 173 23zM429 362c7 64 -33 98 -65 101c-25 3 -71 -12 -107 -23c1 -5 1 -11 0 -19
c-4 -35 -111 -72 -120 -168c-9 -93 24 -162 76 -168c140 -16 207 196 216 277z" />
    <glyph glyph-name="uni05E2" unicode="&#x5e2;" horiz-adv-x="518" 
d="M579 512c18 -46 -35 -64 -85 -71c-38 -5 -78 -16 -118 -30c41 -197 49 -436 -127 -500c-81 -29 -195 -5 -237 108c-69 186 50 366 224 462l-6 16c-38 105 -113 223 -39 250c27 9 73 27 107 -65c9 -24 29 -81 50 -153c45 14 92 22 138 24c51 2 82 -13 93 -41zM200 6
c34 13 119 119 70 354c-116 -70 -197 -179 -152 -302c17 -47 42 -66 82 -52z" />
    <glyph glyph-name="uni05E3" unicode="&#x5e3;" horiz-adv-x="309" 
d="M564 1002c128 5 175 -55 166 -151c-11 -117 -125 -164 -305 -203c-29 -6 -56 -13 -81 -20c-48 -136 -79 -299 -99 -420c-34 -211 -125 -225 -173 -221c-54 5 -77 50 -70 111c11 97 85 127 134 136c16 97 40 221 73 342c-74 -36 -120 -79 -152 -123
c-24 -33 -49 -87 -92 -76c-30 8 -47 54 -32 95c41 111 172 189 316 237c68 199 182 288 315 293zM413 751c200 37 262 136 151 136c-68 0 -123 -56 -168 -139z" />
    <glyph glyph-name="uni05E4" unicode="&#x5e4;" horiz-adv-x="624" 
d="M192 -56c-100 0 -196 46 -196 193c0 124 112 236 202 252c91 16 182 -46 160 -145c-10 -46 -114 -152 -166 -108c-32 27 76 118 48 146c-24 24 -137 -43 -137 -155c0 -43 32 -70 89 -70c94 0 309 113 309 338c0 97 -46 144 -105 155c-68 13 -156 -14 -222 -58
c-35 -24 -71 -30 -91 -9c-23 24 -7 70 50 111c64 46 148 66 246 67c169 2 248 -154 236 -302c-19 -228 -231 -415 -423 -415z" />
    <glyph glyph-name="uni05E5" unicode="&#x5e5;" horiz-adv-x="265" 
d="M519 1032c128 5 175 -45 166 -141c-11 -117 -135 -204 -315 -243c-24 -5 -46 -9 -67 -11c-50 -150 -83 -325 -103 -429c-41 -211 -125 -225 -173 -221c-54 5 -77 50 -70 111c11 97 84 127 134 136c17 114 45 268 83 407c-167 38 -181 201 -172 279c5 42 18 100 62 100
c31 0 40 -27 40 -70c0 -104 33 -173 105 -197c69 189 180 274 310 279zM388 761c196 56 242 156 131 156c-70 0 -126 -69 -172 -166c13 3 27 6 41 10z" />
    <glyph glyph-name="uni05E6" unicode="&#x5e6;" horiz-adv-x="536" 
d="M534 525c-17 -85 -86 -144 -132 -167c65 -27 93 -113 85 -160c-32 -162 -174 -222 -323 -236c-93 -9 -135 5 -154 13c-50 21 -78 72 -37 107s82 -10 161 -6c149 6 229 70 240 127c11 59 -52 92 -128 88c-78 -4 -95 18 -88 52c6 35 40 48 80 50c39 2 202 80 198 142
c-5 62 -171 54 -253 29c-81 -26 -110 -5 -110 27c0 78 153 106 268 112s213 -72 193 -178z" />
    <glyph glyph-name="uni05E7" unicode="&#x5e7;" horiz-adv-x="536" 
d="M280 70c-36 33 -16 76 24 107c109 85 143 223 79 291c-34 37 -120 16 -166 8c-65 -11 -96 -47 -129 4c-34 52 43 100 166 117c133 18 198 -30 228 -69c76 -98 49 -279 -53 -383c-73 -75 -127 -95 -149 -75zM-82 -239c-26 17 -12 64 2 92c52 104 133 334 179 452
c17 44 47 65 82 49c26 -12 44 -43 22 -99c-22 -57 -155 -400 -184 -444c-36 -55 -71 -70 -101 -50z" />
    <glyph glyph-name="uni05E8" unicode="&#x5e8;" horiz-adv-x="547" 
d="M243 -31c-27 20 -21 58 19 87c71 51 131 196 131 298c0 128 -110 141 -192 107c-68 -28 -110 -16 -121 20c-20 66 118 126 233 111c254 -33 226 -326 129 -481c-87 -139 -180 -156 -199 -142z" />
    <glyph glyph-name="uni05E9" unicode="&#x5e9;" horiz-adv-x="574" 
d="M598 531c-24 -155 -287 -304 -449 -376c9 -33 25 -58 47 -66c93 -36 179 49 215 126c21 45 50 77 88 61c34 -14 35 -51 14 -102c-56 -137 -174 -214 -290 -196c-94 14 -155 66 -179 136c-6 -1 -10 -2 -13 -3c-44 -7 -55 32 -29 67c5 7 16 15 30 24c1 18 3 37 8 56
c77 328 334 429 458 429c80 0 115 -58 100 -156zM285 340c174 114 232 222 213 248c-23 31 -189 -47 -286 -165c-39 -48 -60 -107 -68 -162c46 23 96 49 141 79z" />
    <glyph glyph-name="uni05EA" unicode="&#x5ea;" horiz-adv-x="445" 
d="M367 389c49 -129 32 -310 -23 -310c-46 0 -62 37 -60 90c5 121 -21 251 -73 263c1 -157 -79 -486 -208 -580c-116 -84 -245 -92 -334 -84c-34 3 -53 18 -50 47c3 31 25 43 60 48c48 7 125 2 199 32c131 53 202 295 221 480c10 93 26 163 88 170c65 7 131 -27 180 -156z
M199 432h-2h2z" />
    <glyph glyph-name="uniFB2A" unicode="&#xfb2a;" horiz-adv-x="574" 
d="M661 730c29 0 43 -19 43 -43s-30 -42 -53 -42c-27 0 -34 18 -34 42s20 43 44 43zM498 687c80 0 115 -58 100 -156c-24 -155 -287 -304 -449 -376c9 -33 25 -58 47 -66c93 -36 179 49 215 126c21 45 50 77 88 61c34 -14 35 -51 14 -102c-56 -137 -174 -214 -290 -196
c-94 14 -155 66 -179 136c-6 -1 -10 -2 -13 -3c-44 -7 -55 32 -29 67c5 7 16 15 30 24c1 18 3 37 8 56c77 328 334 429 458 429zM285 340c174 114 232 222 213 248c-23 31 -189 -47 -286 -165c-39 -48 -60 -107 -68 -162c46 23 96 49 141 79z" />
    <glyph glyph-name="uniFB2B" unicode="&#xfb2b;" horiz-adv-x="574" 
d="M197 612c-27 0 -34 18 -34 42s20 43 44 43c29 0 43 -19 43 -43s-30 -42 -53 -42zM598 531c-24 -155 -287 -304 -449 -376c9 -33 25 -58 47 -66c93 -36 179 49 215 126c21 45 50 77 88 61c34 -14 35 -51 14 -102c-56 -137 -174 -214 -290 -196c-94 14 -155 66 -179 136
c-6 -1 -10 -2 -13 -3c-44 -7 -55 32 -29 67c5 7 16 15 30 24c1 18 3 37 8 56c77 328 334 429 458 429c80 0 115 -58 100 -156zM285 340c174 114 232 222 213 248c-23 31 -189 -47 -286 -165c-39 -48 -60 -107 -68 -162c46 23 96 49 141 79z" />
    <glyph glyph-name="uniFB2C" unicode="&#xfb2c;" horiz-adv-x="574" 
d="M661 730c29 0 43 -19 43 -43s-30 -42 -53 -42c-27 0 -34 18 -34 42s20 43 44 43zM498 687c80 0 115 -58 100 -156c-24 -155 -287 -304 -449 -376c9 -33 25 -58 47 -66c93 -36 179 49 215 126c21 45 50 77 88 61c34 -14 35 -51 14 -102c-56 -137 -174 -214 -290 -196
c-94 14 -155 66 -179 136c-6 -1 -10 -2 -13 -3c-44 -7 -55 32 -29 67c5 7 16 15 30 24c1 18 3 37 8 56c77 328 334 429 458 429zM285 340c174 114 232 222 213 248c-23 31 -189 -47 -286 -165c-39 -48 -60 -107 -68 -162c46 23 96 49 141 79zM338 499c25 0 37 -17 37 -37
c0 -21 -25 -38 -45 -38c-23 0 -29 17 -29 38c0 20 16 37 37 37z" />
    <glyph glyph-name="uniFB2D" unicode="&#xfb2d;" horiz-adv-x="574" 
d="M197 612c-27 0 -34 18 -34 42s20 43 44 43c29 0 43 -19 43 -43s-30 -42 -53 -42zM598 531c-24 -155 -287 -304 -449 -376c9 -33 25 -58 47 -66c93 -36 179 49 215 126c21 45 50 77 88 61c34 -14 35 -51 14 -102c-56 -137 -174 -214 -290 -196c-94 14 -155 66 -179 136
c-6 -1 -10 -2 -13 -3c-44 -7 -55 32 -29 67c5 7 16 15 30 24c1 18 3 37 8 56c77 328 334 429 458 429c80 0 115 -58 100 -156zM285 340c174 114 232 222 213 248c-23 31 -189 -47 -286 -165c-39 -48 -60 -107 -68 -162c46 23 96 49 141 79zM338 499c25 0 37 -17 37 -37
c0 -21 -25 -38 -45 -38c-23 0 -29 17 -29 38c0 20 16 37 37 37z" />
    <glyph glyph-name="uniFB2E" unicode="&#xfb2e;" horiz-adv-x="537" 
d="M-25 -72c-24 6 -33 45 -17 118s172 483 204 529c27 38 60 55 94 44c21 -7 36 -47 14 -94s-197 -455 -213 -529c-16 -73 -57 -74 -82 -68zM339 -19c-47 5 -168 60 -159 183c13 175 248 271 281 280s70 12 89 -16c21 -30 6 -73 -48 -92c-61 -21 -206 -81 -206 -176
s127 -94 127 -124c0 -33 -36 -60 -84 -55zM250 -193c-16 0 -74 2 -146 9c-19 1 -32 12 -32 27s12 25 32 25c12 0 131 7 146 7c21 0 34 -15 34 -34c0 -22 -18 -34 -34 -34z" />
    <glyph glyph-name="uniFB2F" unicode="&#xfb2f;" horiz-adv-x="537" 
d="M256 619c21 -7 36 -47 14 -94s-197 -455 -213 -529c-16 -73 -57 -74 -82 -68c-24 6 -33 45 -17 118s172 483 204 529c27 38 60 55 94 44zM550 428c21 -30 6 -73 -48 -92c-61 -21 -206 -81 -206 -176s127 -94 127 -124c0 -33 -36 -60 -84 -55c-47 5 -168 60 -159 183
c13 175 248 271 281 280s70 12 89 -16zM258 -96c21 0 35 -16 35 -36c0 -23 -19 -35 -35 -35c-9 0 -29 1 -56 2c1 -21 5 -53 5 -59c0 -35 -2 -49 -37 -49c-33 0 -47 27 -35 55l24 56c-17 1 -36 2 -55 4s-33 12 -33 28s12 27 33 27c13 0 138 7 154 7z" />
    <glyph glyph-name="uniFB30" unicode="&#xfb30;" horiz-adv-x="537" 
d="M-25 -72c-24 6 -33 45 -17 118s172 483 204 529c27 38 60 55 94 44c21 -7 36 -47 14 -94s-197 -455 -213 -529c-16 -73 -57 -74 -82 -68zM339 -19c-47 5 -168 60 -159 183c13 175 248 271 281 280s70 12 89 -16c21 -30 6 -73 -48 -92c-61 -21 -206 -81 -206 -176
s127 -94 127 -124c0 -33 -36 -60 -84 -55zM397 149c-23 0 -29 17 -29 38c0 20 16 37 37 37c25 0 37 -17 37 -37c0 -21 -25 -38 -45 -38z" />
    <glyph glyph-name="uniFB31" unicode="&#xfb31;" horiz-adv-x="642" 
d="M-4 -99c-20 8 -35 46 -4 95c32 50 119 209 178 215c57 6 69 -83 142 -85c66 -2 192 77 185 148c-6 60 -72 94 -132 94c-89 0 -165 -40 -232 -47c-39 -4 -71 -6 -89 19c-21 30 -3 58 34 80c38 23 183 67 303 60c110 -6 242 -90 236 -214c-6 -123 -193 -247 -317 -239
c-57 3 -99 32 -123 55c-29 -42 -85 -124 -100 -153c-20 -40 -57 -37 -81 -28zM324 207c-23 0 -29 17 -29 38c0 20 16 37 37 37c25 0 37 -17 37 -37c0 -21 -25 -38 -45 -38z" />
    <glyph glyph-name="uniFB32" unicode="&#xfb32;" horiz-adv-x="513" 
d="M412 427c71 0 114 -26 114 -58s-36 -81 -122 -81c-20 0 -43 5 -67 14c-154 -51 -272 -153 -272 -235c0 -69 44 -114 98 -153c28 -20 40 -62 10 -86c-21 -17 -66 -3 -101 24c-78 60 -128 143 -119 233c14 144 149 238 270 290c-33 32 -60 70 -72 110c-11 36 -17 74 19 97
c39 25 84 -8 109 -71c20 -49 50 -77 75 -93c25 6 46 9 58 9zM312 187c25 0 37 -17 37 -37c0 -21 -25 -38 -45 -38c-23 0 -29 17 -29 38c0 20 16 37 37 37z" />
    <glyph glyph-name="uniFB33" unicode="&#xfb33;" horiz-adv-x="519" 
d="M393 666c92 -10 180 -61 169 -166c-12 -117 -147 -177 -208 -195c24 -10 51 -39 42 -132c-11 -104 -42 -130 -71 -170c-32 -44 -114 -17 -85 37c29 55 46 100 50 140c4 38 -12 60 -74 67c-63 7 -159 -42 -172 41c-11 82 189 66 189 66c79 24 180 87 210 120
c29 31 26 76 -35 83c-62 6 -137 -12 -178 -29c-42 -18 -121 -29 -144 -2c-22 29 1 66 18 80c47 38 198 69 289 60zM274 446c0 -21 -25 -38 -45 -38c-23 0 -29 17 -29 38c0 20 16 37 37 37c25 0 37 -17 37 -37z" />
    <glyph glyph-name="uniFB34" unicode="&#xfb34;" horiz-adv-x="651" 
d="M401 5c-33 -20 -79 -32 -95 5c-13 29 13 61 44 89c56 51 196 161 188 271c-8 107 -194 141 -399 50c-36 -16 -73 -22 -93 9c-16 25 -1 57 41 83c190 118 475 91 544 -83c72 -181 -131 -364 -230 -424zM390 300c-23 0 -29 17 -29 38c0 20 16 37 37 37c25 0 37 -17 37 -37
c0 -21 -25 -38 -45 -38zM27 -12c-29 16 -51 62 2 107c49 42 76 95 95 177c8 35 56 49 83 35c26 -12 39 -40 24 -93c-19 -67 -70 -157 -124 -199c-24 -19 -55 -41 -80 -27z" />
    <glyph glyph-name="uniFB35" unicode="&#xfb35;" horiz-adv-x="233" 
d="M-21 -14c-21 8 -16 47 -2 94c9 30 93 230 150 427c24 83 49 129 105 114c40 -11 46 -58 25 -128c-41 -135 -168 -421 -198 -468s-54 -49 -80 -39zM12 330c-23 0 -29 17 -29 38c0 20 16 37 37 37c25 0 37 -17 37 -37c0 -21 -25 -38 -45 -38z" />
    <glyph glyph-name="uniFB36" unicode="&#xfb36;" horiz-adv-x="541" 
d="M256 446c101 24 257 24 257 -149c0 -197 -265 -334 -394 -381c-119 -43 -219 1 -209 54c7 37 59 27 78 29c90 9 211 73 286 123c92 61 171 175 107 219s-228 -52 -266 -59c-61 -11 -94 64 -57 101c20 20 216 253 248 294s74 49 107 27c34 -22 30 -76 -10 -115
c-20 -19 -97 -95 -147 -143zM250 198c0 -21 -25 -38 -45 -38c-23 0 -29 17 -29 38c0 20 16 37 37 37c25 0 37 -17 37 -37z" />
    <glyph glyph-name="uniFB38" unicode="&#xfb38;" horiz-adv-x="564" 
d="M244 -21c-112 0 -213 83 -213 214c0 324 286 617 619 617c79 0 139 -8 139 -58c0 -41 -40 -53 -84 -53c-288 0 -551 -194 -551 -513c0 -48 42 -90 92 -90c84 0 131 93 150 183c10 48 43 65 66 65c45 0 66 -47 57 -103c-12 -74 -105 -262 -275 -262zM275 237
c-23 0 -29 17 -29 38c0 20 16 37 37 37c25 0 37 -17 37 -37c0 -21 -25 -38 -45 -38z" />
    <glyph glyph-name="uniFB39" unicode="&#xfb39;" horiz-adv-x="207" 
d="M62 229c-64 24 16 163 44 262c14 49 49 77 82 66c47 -16 45 -59 27 -110c-19 -53 -74 -248 -153 -218zM39 101c-23 0 -29 17 -29 38c0 20 16 37 37 37c25 0 37 -17 37 -37c0 -21 -25 -38 -45 -38z" />
    <glyph glyph-name="uniFB3A" unicode="&#xfb3a;" horiz-adv-x="430" 
d="M-56 -370c-9 7 -35 34 5 90c79 111 194 306 221 350c46 75 118 188 118 290c0 83 -64 139 -145 123c-46 -9 -81 0 -87 37c-11 66 61 90 152 78c254 -33 220 -325 123 -480c-63 -101 -206 -339 -307 -454c-38 -43 -70 -42 -80 -34zM121 252c-23 0 -29 17 -29 38
c0 20 16 37 37 37c25 0 37 -17 37 -37c0 -21 -25 -38 -45 -38z" />
    <glyph glyph-name="uniFB3B" unicode="&#xfb3b;" horiz-adv-x="596" 
d="M87 -8c-78 25 -115 81 -103 117c13 40 77 13 123 -5c135 -53 295 23 335 164c37 132 -61 194 -177 192c-117 -2 -166 -6 -170 42c-3 36 28 57 72 68c234 59 449 -103 389 -315c-81 -285 -337 -305 -469 -263zM213 237c-23 0 -29 17 -29 38c0 20 16 37 37 37
c25 0 37 -17 37 -37c0 -21 -25 -38 -45 -38z" />
    <glyph glyph-name="uniFB3C" unicode="&#xfb3c;" horiz-adv-x="265" 
d="M672 913c45 -37 50 -79 34 -93c-46 -40 -105 43 -170 45c-211 6 -295 -446 -336 -657s-125 -225 -173 -221c-54 5 -77 50 -70 111c11 98 86 128 136 136c20 117 56 268 106 421c68 209 184 302 320 307c50 2 114 -17 153 -49zM27 293c-23 0 -29 17 -29 38
c0 20 16 37 37 37c25 0 37 -17 37 -37c0 -21 -25 -38 -45 -38z" />
    <glyph glyph-name="uniFB3E" unicode="&#xfb3e;" horiz-adv-x="450" 
d="M482 622c41 -21 37 -64 13 -122c-52 -126 -137 -280 -192 -436c-20 -57 -56 -81 -88 -68c-33 13 -62 57 -79 139c-4 21 -6 38 -7 52c-16 -41 -46 -108 -79 -151c-23 -30 -48 -50 -77 -35c-39 20 -23 61 15 135s72 163 98 227c31 75 47 104 81 95c61 -16 31 -82 48 -216
c3 -26 5 -48 6 -67c40 113 153 362 173 398c24 44 53 67 88 49zM267 410c-23 0 -29 17 -29 38c0 20 16 37 37 37c25 0 37 -17 37 -37c0 -21 -25 -38 -45 -38z" />
    <glyph glyph-name="uniFB40" unicode="&#xfb40;" horiz-adv-x="236" 
d="M-345 -319c-92 7 -139 41 -134 87c4 35 61 31 99 28c128 -9 367 7 477 659c11 67 45 124 105 103c59 -20 18 -110 2 -188c-34 -163 -168 -718 -549 -689zM-20 237c-23 0 -29 17 -29 38c0 20 16 37 37 37c25 0 37 -17 37 -37c0 -21 -25 -38 -45 -38z" />
    <glyph glyph-name="uniFB41" unicode="&#xfb41;" horiz-adv-x="566" 
d="M381 562c81 -9 172 -75 157 -214c-27 -248 -196 -386 -322 -372c-92 10 -211 73 -192 255c14 140 95 197 151 219c-4 5 -7 11 -8 17c-8 36 9 56 41 72c46 23 121 29 173 23zM429 362c7 64 -33 98 -65 101c-25 3 -71 -12 -107 -23c1 -5 1 -11 0 -19
c-4 -35 -111 -72 -120 -168c-9 -93 24 -162 76 -168c140 -16 207 196 216 277zM284 312c25 0 37 -17 37 -37c0 -21 -25 -38 -45 -38c-23 0 -29 17 -29 38c0 20 16 37 37 37z" />
    <glyph glyph-name="uniFB43" unicode="&#xfb43;" horiz-adv-x="309" 
d="M564 1002c128 5 175 -55 166 -151c-11 -117 -125 -164 -305 -203c-29 -6 -56 -13 -81 -20c-48 -136 -79 -299 -99 -420c-34 -211 -125 -225 -173 -221c-54 5 -77 50 -70 111c11 97 85 127 134 136c16 97 40 221 73 342c-74 -36 -120 -79 -152 -123
c-24 -33 -49 -87 -92 -76c-30 8 -47 54 -32 95c41 111 172 189 316 237c68 199 182 288 315 293zM413 751c200 37 262 136 151 136c-68 0 -123 -56 -168 -139zM98 316c0 -21 -25 -38 -45 -38c-23 0 -29 17 -29 38c0 20 16 37 37 37c25 0 37 -17 37 -37z" />
    <glyph glyph-name="uniFB44" unicode="&#xfb44;" horiz-adv-x="624" 
d="M192 -56c-100 0 -196 46 -196 193c0 124 112 236 202 252c91 16 182 -46 160 -145c-10 -46 -114 -152 -166 -108c-32 27 76 118 48 146c-24 24 -137 -43 -137 -155c0 -43 32 -70 89 -70c94 0 309 113 309 338c0 97 -46 144 -105 155c-68 13 -156 -14 -222 -58
c-35 -24 -71 -30 -91 -9c-23 24 -7 70 50 111c64 46 148 66 246 67c169 2 248 -154 236 -302c-19 -228 -231 -415 -423 -415zM373 407c-23 0 -29 17 -29 38c0 20 16 37 37 37c25 0 37 -17 37 -37c0 -21 -25 -38 -45 -38z" />
    <glyph glyph-name="uniFB46" unicode="&#xfb46;" horiz-adv-x="536" 
d="M534 525c-17 -85 -86 -144 -132 -167c65 -27 93 -113 85 -160c-32 -162 -174 -222 -323 -236c-93 -9 -135 5 -154 13c-50 21 -78 72 -37 107s82 -10 161 -6c149 6 229 70 240 127c11 59 -52 92 -128 88c-78 -4 -95 18 -88 52c6 35 40 48 80 50c39 2 202 80 198 142
c-5 62 -171 54 -253 29c-81 -26 -110 -5 -110 27c0 78 153 106 268 112s213 -72 193 -178zM216 181c0 -21 -25 -38 -45 -38c-23 0 -29 17 -29 38c0 20 16 37 37 37c25 0 37 -17 37 -37z" />
    <glyph glyph-name="uniFB47" unicode="&#xfb47;" horiz-adv-x="536" 
d="M280 70c-36 33 -16 76 24 107c109 85 143 223 79 291c-34 37 -120 16 -166 8c-65 -11 -96 -47 -129 4c-34 52 43 100 166 117c133 18 198 -30 228 -69c76 -98 49 -279 -53 -383c-73 -75 -127 -95 -149 -75zM308 324c-23 0 -29 17 -29 38c0 20 16 37 37 37
c25 0 37 -17 37 -37c0 -21 -25 -38 -45 -38zM-82 -239c-26 17 -12 64 2 92c52 104 133 334 179 452c17 44 47 65 82 49c26 -12 44 -43 22 -99c-22 -57 -155 -400 -184 -444c-36 -55 -71 -70 -101 -50z" />
    <glyph glyph-name="uniFB48" unicode="&#xfb48;" horiz-adv-x="547" 
d="M243 -31c-27 20 -21 58 19 87c71 51 131 196 131 298c0 128 -110 141 -192 107c-68 -28 -110 -16 -121 20c-20 66 118 126 233 111c254 -33 226 -326 129 -481c-87 -139 -180 -156 -199 -142zM237 257c-23 0 -29 17 -29 38c0 20 16 37 37 37c25 0 37 -17 37 -37
c0 -21 -25 -38 -45 -38z" />
    <glyph glyph-name="uniFB49" unicode="&#xfb49;" horiz-adv-x="574" 
d="M598 531c-24 -155 -287 -304 -449 -376c9 -33 25 -58 47 -66c93 -36 179 49 215 126c21 45 50 77 88 61c34 -14 35 -51 14 -102c-56 -137 -174 -214 -290 -196c-94 14 -155 66 -179 136c-6 -1 -10 -2 -13 -3c-44 -7 -55 32 -29 67c5 7 16 15 30 24c1 18 3 37 8 56
c77 328 334 429 458 429c80 0 115 -58 100 -156zM285 340c174 114 232 222 213 248c-23 31 -189 -47 -286 -165c-39 -48 -60 -107 -68 -162c46 23 96 49 141 79zM338 499c25 0 37 -17 37 -37c0 -21 -25 -38 -45 -38c-23 0 -29 17 -29 38c0 20 16 37 37 37z" />
    <glyph glyph-name="uniFB4A" unicode="&#xfb4a;" horiz-adv-x="445" 
d="M367 389c49 -129 32 -310 -23 -310c-46 0 -62 37 -60 90c5 121 -21 251 -73 263c1 -157 -79 -486 -208 -580c-116 -84 -245 -92 -334 -84c-34 3 -53 18 -50 47c3 31 25 43 60 48c48 7 125 2 199 32c131 53 202 295 221 480c10 93 26 163 88 170c65 7 131 -27 180 -156z
M199 432h-2h2zM224 227c25 0 37 -17 37 -37c0 -21 -25 -38 -45 -38c-23 0 -29 17 -29 38c0 20 16 37 37 37z" />
    <glyph glyph-name="uniFB4B" unicode="&#xfb4b;" horiz-adv-x="233" 
d="M264 695c-27 0 -34 19 -34 43s20 43 44 43c29 0 43 -19 43 -43s-30 -43 -53 -43zM-21 -14c-21 8 -16 47 -2 94c9 30 93 230 150 427c24 83 49 129 105 114c40 -11 46 -58 25 -128c-41 -135 -168 -421 -198 -468s-54 -49 -80 -39z" />
    <glyph glyph-name="zero" unicode="0" horiz-adv-x="547" 
d="M216 -10c-149 0 -202 121 -188 271c16 173 159 348 314 348c151 0 211 -106 196 -268c-15 -164 -140 -351 -322 -351zM218 109c109 0 196 135 206 243c5 62 -6 142 -90 142c-54 0 -54 -21 -66 -33c-8 -7 -38 -69 -50 -86c-14 -21 -25 -20 -40 -25
c-17 -6 -35 -63 -40 -123c-4 -56 28 -118 80 -118z" />
    <glyph glyph-name="one" unicode="1" horiz-adv-x="271" 
d="M60 -14c-23 -5 -62 7 -71 33c-3 9 -3 18 -1 27c11 59 22 117 42 172c21 62 44 124 69 184c20 48 44 96 69 141c32 56 73 91 117 56c51 -41 29 -92 0 -137c-48 -76 -88 -159 -122 -245c-18 -44 -36 -89 -49 -137c-10 -33 -13 -85 -54 -94z" />
    <glyph glyph-name="two" unicode="2" horiz-adv-x="430" 
d="M80 -12c-74 18 -113 81 -94 157c30 120 233 177 300 282c88 137 -20 75 -20 75c-32 -20 -96 -69 -120 -74c-26 -5 -48 9 -57 28c-11 24 -6 62 16 77c41 28 149 119 228 93c87 -29 111 -90 107 -148c-6 -82 -60 -132 -95 -165c-50 -47 -172 -114 -219 -152
c-16 -13 -38 -29 -36 -52c2 -22 29 -25 45 -24c40 3 138 13 178 9c10 -1 20 -3 28 -11c10 -10 13 -23 10 -37c-17 -78 -217 -71 -271 -58z" />
    <glyph glyph-name="three" unicode="3" horiz-adv-x="433" 
d="M30 27c-34 28 -98 89 -52 133c32 32 67 10 79 -11c43 -77 183 -109 213 20c8 33 9 99 -46 118c-31 10 -63 41 -51 78c11 36 72 56 102 70c116 54 56 127 -64 72c-41 -19 -72 22 -77 44c-12 60 99 88 168 76c74 -14 143 -52 144 -134c1 -63 -60 -117 -120 -137
c-24 -8 -13 -28 -8 -33c89 -89 72 -227 5 -284c-82 -71 -217 -73 -293 -12z" />
    <glyph glyph-name="four" unicode="4" horiz-adv-x="470" 
d="M442 594c74 -18 57 -89 43 -126l-131 -351c-61 -162 -106 -129 -106 -129c-73 20 -16 159 9 212c-192 86 -251 223 -145 397c28 46 68 21 77 8c25 -36 13 -78 5 -105c-33 -110 8 -134 55 -162c22 -13 39 -20 51 -24c19 55 47 143 68 208c23 74 74 72 74 72z" />
    <glyph glyph-name="five" unicode="5" horiz-adv-x="466" 
d="M302 -11c-91 -37 -212 -7 -275 54c-33 30 -50 63 -35 84c20 27 47 25 85 1c73 -48 193 -58 222 13c14 33 0 88 -23 117c-45 54 -109 91 -165 140c-19 17 -29 41 -29 67c-2 79 56 118 128 129c64 10 163 7 226 -9c81 -21 36 -96 23 -104c-15 -9 -188 13 -220 4
c-27 -8 -39 -28 -4 -45c69 -32 161 -129 182 -226c19 -88 -24 -189 -115 -225z" />
    <glyph glyph-name="six" unicode="6" horiz-adv-x="559" 
d="M565 526c45 -31 45 -78 18 -93c-18 -10 -63 17 -114 21c-95 8 -216 -27 -284 -99c-34 -36 -46 -88 -40 -137c20 19 47 39 80 54c63 28 144 29 206 -26c68 -61 79 -165 4 -228c-71 -60 -271 -66 -361 61c-75 106 -49 292 59 386c127 110 352 116 432 61zM353 174
c-50 22 -99 27 -177 -40c14 -19 32 -35 54 -44c46 -19 98 -23 139 16c19 18 9 57 -16 68z" />
    <glyph glyph-name="seven" unicode="7" horiz-adv-x="485" 
d="M485 303c6 -49 -60 -53 -113 -51c-39 -61 -83 -110 -103 -133c-26 -30 -74 -84 -127 -110c-34 -17 -87 -25 -103 3c-20 34 24 68 63 98c53 41 108 91 149 145c-33 -2 -66 -9 -145 -22c-55 -9 -76 0 -83 40c-3 18 9 47 77 66c63 18 140 28 210 28c20 73 -4 109 -83 77
c-32 -13 -68 -24 -99 -20c-16 2 -35 8 -39 20c-12 37 50 80 100 99c0 0 226 81 246 -69c5 -40 -1 -80 -14 -119c37 -10 61 -27 64 -52z" />
    <glyph glyph-name="eight" unicode="8" horiz-adv-x="426" 
d="M337 613c87 -9 133 -82 117 -179c-12 -71 -81 -108 -154 -130c28 -44 60 -113 38 -197c-33 -128 -166 -129 -236 -125c-84 5 -148 81 -112 216c25 95 105 139 163 152c-25 26 -37 81 -31 120c17 113 104 154 215 143zM228 466c-5 -35 8 -67 20 -90c60 14 82 29 94 64
c11 33 1 78 -30 84c-36 7 -77 -10 -84 -58zM89 177c-22 -59 15 -96 52 -98c47 -3 89 11 102 61c14 55 -26 105 -35 128c-55 -10 -97 -32 -119 -91z" />
    <glyph glyph-name="nine" unicode="9" horiz-adv-x="534" 
d="M458 433c75 -106 49 -292 -59 -386c-127 -110 -352 -116 -432 -61c-45 31 -45 78 -18 93c18 10 63 -17 114 -21c95 -8 216 27 284 99c34 36 46 88 40 137c-20 -19 -47 -39 -80 -54c-63 -28 -144 -29 -206 26c-68 61 -79 165 -4 228c71 60 271 66 361 -61zM179 338
c50 -22 99 -27 177 40c-14 19 -32 35 -54 44c-46 19 -98 23 -139 -16c-19 -18 -9 -57 16 -68z" />
    <glyph glyph-name="asterisk" unicode="*" horiz-adv-x="319" 
d="M370 515c2 -17 -16 -28 -39 -34c-13 -3 -30 -5 -50 -7c19 -32 33 -58 37 -68c5 -12 -6 -35 -17 -40c-11 -6 -30 3 -38 20c-6 11 -17 25 -32 45c-8 -15 -16 -29 -22 -38c-12 -19 -29 -32 -45 -25s-27 27 -17 51c4 10 14 28 26 52c-16 0 -32 -1 -47 -1
c-33 -1 -54 15 -54 41c0 21 20 42 55 39c11 -1 22 -2 33 -2c-9 17 -18 36 -27 57c-8 19 -6 44 15 55c12 7 27 -5 35 -20c11 -19 23 -39 35 -61c5 14 9 27 12 41c8 34 34 45 54 39c26 -8 33 -31 23 -63c-5 -15 -11 -32 -19 -50c17 1 30 2 38 2c27 1 42 -15 44 -33z" />
    <glyph glyph-name="backslash" unicode="\" horiz-adv-x="370" 
d="M294 -145c-20 -6 -50 12 -58 43c-62 240 -130 470 -192 699c-9 33 2 73 38 85c21 7 43 -15 52 -41c51 -147 167 -583 197 -726c4 -19 -18 -54 -37 -60z" />
    <glyph glyph-name="periodcentered" unicode="&#xb7;" horiz-adv-x="180" 
d="M77 228c-45 0 -57 33 -57 74c0 40 33 73 74 73c50 0 73 -33 73 -73c0 -41 -50 -74 -90 -74z" />
    <glyph glyph-name="bullet" unicode="&#x2022;" horiz-adv-x="371" 
d="M174 127c-95 0 -140 60 -140 146c0 84 69 153 155 153c105 0 153 -69 153 -153c0 -86 -85 -146 -168 -146z" />
    <glyph glyph-name="colon" unicode=":" horiz-adv-x="210" 
d="M125 325c-45 0 -57 33 -57 74c0 40 33 73 74 73c50 0 73 -33 73 -73c0 -41 -50 -74 -90 -74zM25 -7c-45 0 -57 33 -57 74c0 40 33 73 74 73c50 0 73 -33 73 -73c0 -41 -50 -74 -90 -74z" />
    <glyph glyph-name="comma" unicode="," horiz-adv-x="170" 
d="M-61 -135c-16 5 -29 18 -18 55c11 36 55 168 59 190c7 36 39 62 64 56c41 -10 53 -40 44 -73c-29 -107 -116 -238 -149 -228z" />
    <glyph glyph-name="exclam" unicode="!" horiz-adv-x="230" 
d="M59 215c-23 11 -26 41 -17 74c16 60 99 223 146 311c23 43 56 57 89 38c27 -16 39 -54 11 -96c-74 -111 -112 -184 -158 -295c-15 -36 -49 -42 -71 -32zM14 -7c-45 0 -57 33 -57 74c0 40 33 73 74 73c50 0 73 -33 73 -73c0 -41 -50 -74 -90 -74z" />
    <glyph glyph-name="numbersign" unicode="#" horiz-adv-x="550" 
d="M504 406c28 0 54 -17 50 -40c-3 -19 -26 -43 -63 -44c-18 0 -47 -1 -81 -3c-8 -21 -17 -42 -26 -64c46 0 79 0 87 -1c23 -4 39 -28 36 -45c-4 -23 -41 -44 -56 -44c-6 0 -46 0 -102 -1c-17 -47 -33 -91 -45 -127c-12 -37 -58 -49 -73 -43c-17 7 -21 22 -15 40l46 129
c-28 0 -59 -1 -89 -1l-46 -121c-15 -32 -42 -51 -64 -52c-31 -1 -46 22 -33 62l43 108c-11 0 -22 -1 -33 -1c-28 -1 -39 18 -39 37c0 27 27 47 54 49c12 1 31 2 53 3c8 21 17 42 25 64c-31 -1 -54 0 -65 1c-23 3 -24 30 -20 48c4 17 24 41 56 41c10 0 34 0 65 1
c25 60 43 107 46 115c10 26 45 49 67 46c19 -3 24 -23 11 -67c-5 -17 -17 -51 -32 -93c30 0 62 1 91 1c25 64 43 112 47 120c22 46 51 45 67 45c18 0 40 -19 27 -49c-2 -5 -22 -51 -48 -115c31 1 53 1 59 1zM296 253c8 21 15 42 23 63l-90 -3c-8 -21 -16 -42 -23 -62
c29 1 60 1 90 2z" />
    <glyph glyph-name="period" unicode="." horiz-adv-x="180" 
d="M15 -7c-45 0 -57 33 -57 74c0 40 33 73 74 73c50 0 73 -33 73 -73c0 -41 -50 -74 -90 -74z" />
    <glyph glyph-name="question" unicode="?" horiz-adv-x="460" 
d="M208 193c-26 6 -49 25 -42 71c19 125 220 166 229 227c6 40 -57 70 -116 69c-69 -1 -97 -59 -112 -100c-9 -24 -43 -41 -63 -30s-43 29 -30 77c18 66 101 158 209 155c123 -3 213 -90 213 -162c0 -163 -205 -141 -225 -265c-6 -37 -49 -45 -63 -42zM176 -7
c-45 0 -57 33 -57 74c0 40 33 73 74 73c50 0 73 -33 73 -73c0 -41 -50 -74 -90 -74z" />
    <glyph glyph-name="quotedbl" unicode="&#x22;" horiz-adv-x="333" 
d="M125 447c-15 5 -27 18 -15 55c12 36 59 178 63 200c7 36 40 62 64 56c39 -10 49 -40 39 -73c-32 -107 -120 -248 -151 -238zM259 447c-15 5 -27 18 -15 55c12 36 60 178 64 200c7 36 40 62 64 56c38 -10 48 -40 38 -73c-32 -107 -120 -248 -151 -238z" />
    <glyph glyph-name="quotesingle" unicode="'" horiz-adv-x="199" 
d="M125 447c-15 5 -27 18 -15 55c12 36 60 178 64 200c7 36 40 62 64 56c38 -10 48 -40 38 -73c-32 -107 -120 -248 -151 -238z" />
    <glyph glyph-name="semicolon" unicode=";" horiz-adv-x="190" 
d="M115 325c-45 0 -57 33 -57 74c0 40 33 73 74 73c50 0 73 -33 73 -73c0 -41 -50 -74 -90 -74zM-31 -135c-16 5 -29 18 -18 55c11 36 55 168 59 190c7 36 39 62 64 56c41 -10 53 -40 44 -73c-29 -107 -116 -238 -149 -228z" />
    <glyph glyph-name="slash" unicode="/" horiz-adv-x="310" 
d="M-130 -111c-14 11 -19 48 -3 70c126 173 362 516 492 675c18 22 49 33 83 12c16 -10 13 -37 -1 -57c-130 -186 -425 -602 -505 -697c-16 -19 -47 -18 -66 -3z" />
    <glyph glyph-name="underscore" unicode="_" horiz-adv-x="430" 
d="M321 -3c-30 0 -329 -3 -358 1s-42 20 -42 51c0 20 21 38 42 42s333 -4 367 -4c16 0 39 -18 39 -42c0 -17 -20 -48 -48 -48z" />
    <glyph glyph-name="braceleft" unicode="{" horiz-adv-x="340" 
d="M388 709c43 4 86 5 81 -38c-7 -56 -47 -48 -93 -48s-92 -49 -105 -95c-12 -42 -47 -157 -60 -197c-8 -24 -41 -42 -71 -52c23 -9 41 -28 37 -53c-6 -40 -29 -96 -47 -156s-4 -103 46 -103c32 0 70 -12 65 -55c-6 -52 -54 -40 -103 -40c-34 0 -148 37 -96 202
c18 57 25 85 37 121c8 24 -48 44 -58 44s-31 17 -23 40c7 23 29 39 48 39c11 0 71 13 84 45c12 32 57 174 67 200c30 81 105 138 191 146z" />
    <glyph glyph-name="braceright" unicode="}" horiz-adv-x="340" 
d="M328 342c10 0 31 -17 23 -40c-7 -23 -29 -39 -48 -39c-11 0 -71 -13 -84 -45c-12 -32 -57 -174 -67 -200c-30 -81 -105 -138 -191 -146c-43 -4 -86 -5 -81 38c7 56 47 48 93 48s92 49 105 95c12 42 47 157 60 197c8 24 41 42 71 52c-23 9 -41 28 -37 53
c6 40 29 96 47 156s4 103 -46 103c-32 0 -70 12 -65 55c6 52 54 40 103 40c34 0 148 -37 96 -202c-18 -57 -25 -85 -37 -121c-8 -24 48 -44 58 -44z" />
    <glyph glyph-name="bracketleft" unicode="[" horiz-adv-x="299" 
d="M95 -128c-34 0 -150 37 -103 202c20 73 107 411 137 489c31 77 101 139 186 146c51 4 98 -3 92 -43c-10 -64 -54 -52 -101 -52c-46 0 -78 -40 -89 -86c-11 -42 -109 -398 -125 -458s-12 -93 38 -93c39 0 71 -18 66 -65c-5 -45 -55 -40 -101 -40z" />
    <glyph glyph-name="bracketright" unicode="]" horiz-adv-x="300" 
d="M213 709c34 0 150 -37 103 -202c-20 -73 -107 -411 -137 -489c-31 -77 -101 -139 -186 -146c-51 -4 -98 3 -92 43c10 64 54 52 101 52c46 0 78 40 89 86c11 42 109 398 125 458s12 93 -38 93c-39 0 -71 18 -66 65c5 45 55 40 101 40z" />
    <glyph glyph-name="parenleft" unicode="(" horiz-adv-x="309" 
d="M316 699c47 34 77 25 89 -2c7 -18 -9 -40 -36 -54c-25 -13 -146 -154 -194 -348c-35 -149 5 -279 31 -350c15 -42 -2 -77 -23 -82c-31 -7 -54 24 -62 41c-53 104 -97 191 -67 368c30 169 115 320 262 427z" />
    <glyph glyph-name="parenright" unicode=")" horiz-adv-x="310" 
d="M3 -116c-47 -34 -77 -25 -89 2c-7 18 9 40 36 54c25 13 146 154 194 348c35 149 -5 279 -31 350c-15 42 2 77 23 82c31 7 54 -24 62 -41c53 -104 97 -191 67 -368c-30 -169 -115 -320 -262 -427z" />
    <glyph glyph-name="emdash" unicode="&#x2014;" horiz-adv-x="669" 
d="M47 242c-29 4 -42 20 -42 47c0 20 21 38 42 42s551 0 585 0c16 0 39 -18 41 -36c2 -17 -20 -48 -48 -48c-30 0 -549 -9 -578 -5z" />
    <glyph glyph-name="endash" unicode="&#x2013;" horiz-adv-x="540" 
d="M489 237c-241 0 -323 1 -438 6c-24 1 -42 14 -42 44c0 19 10 39 42 42c12 1 185 -2 447 -2c22 0 39 -15 39 -39c0 -27 -18 -51 -48 -51z" />
    <glyph glyph-name="hyphen" unicode="-" horiz-adv-x="357" 
d="M298 237c-30 0 -209 -3 -238 1s-42 20 -42 51c0 20 21 38 42 42s213 -4 247 -4c16 0 39 -18 39 -42c0 -17 -20 -48 -48 -48z" />
    <glyph glyph-name="quotedblleft" unicode="&#x201c;" horiz-adv-x="333" 
d="M125 447c-15 5 -27 18 -15 55c12 36 59 178 63 200c7 36 40 62 64 56c39 -10 49 -40 39 -73c-32 -107 -120 -248 -151 -238zM259 447c-15 5 -27 18 -15 55c12 36 60 178 64 200c7 36 40 62 64 56c38 -10 48 -40 38 -73c-32 -107 -120 -248 -151 -238z" />
    <glyph glyph-name="quotedblright" unicode="&#x201d;" horiz-adv-x="333" 
d="M125 447c-15 5 -27 18 -15 55c12 36 59 178 63 200c7 36 40 62 64 56c39 -10 49 -40 39 -73c-32 -107 -120 -248 -151 -238zM259 447c-15 5 -27 18 -15 55c12 36 60 178 64 200c7 36 40 62 64 56c38 -10 48 -40 38 -73c-32 -107 -120 -248 -151 -238z" />
    <glyph glyph-name="quoteleft" unicode="&#x2018;" horiz-adv-x="199" 
d="M125 447c-15 5 -27 18 -15 55c12 36 60 178 64 200c7 36 40 62 64 56c38 -10 48 -40 38 -73c-32 -107 -120 -248 -151 -238z" />
    <glyph glyph-name="quoteright" unicode="&#x2019;" horiz-adv-x="199" 
d="M125 447c-15 5 -27 18 -15 55c12 36 60 178 64 200c7 36 40 62 64 56c38 -10 48 -40 38 -73c-32 -107 -120 -248 -151 -238z" />
    <glyph glyph-name="uni05F3" unicode="&#x5f3;" horiz-adv-x="199" 
d="M125 447c-15 5 -27 18 -15 55c12 36 60 178 64 200c7 36 40 62 64 56c38 -10 48 -40 38 -73c-32 -107 -120 -248 -151 -238z" />
    <glyph glyph-name="uni05F4" unicode="&#x5f4;" horiz-adv-x="333" 
d="M139 447c-15 5 -27 18 -15 55c12 36 59 178 63 200c7 36 40 62 64 56c39 -10 49 -40 39 -73c-32 -107 -120 -248 -151 -238zM273 447c-15 5 -27 18 -15 55c12 36 60 178 64 200c7 36 40 62 64 56c38 -10 48 -40 38 -73c-32 -107 -120 -248 -151 -238z" />
    <glyph glyph-name="uni05BE" unicode="&#x5be;" horiz-adv-x="357" 
d="M337 438c-30 -2 -128 -18 -207 -6c-64 10 -56 94 0 99c71 6 183 -4 217 -4c16 0 39 -18 39 -42c0 -27 -20 -45 -49 -47z" />
    <glyph glyph-name="space" unicode=" " horiz-adv-x="290" 
 />
    <glyph glyph-name="dollar" unicode="$" horiz-adv-x="500" 
d="M352 424c-3 14 -13 29 -26 42l-42 -120c61 -42 191 -122 152 -239c-40 -123 -173 -147 -279 -123l-12 -35c-7 -22 -24 -28 -45 -22c-26 8 -33 22 -23 49l12 33c-79 47 -110 147 -80 208c25 49 49 65 81 51c31 -14 28 -46 22 -65c-13 -38 -5 -69 15 -92
c22 58 45 118 67 177c-71 43 -145 118 -104 212c27 63 104 94 206 79l11 39c6 23 32 45 50 37s23 -37 17 -53l-14 -41c44 -24 70 -68 85 -98c14 -29 22 -69 -13 -87c-32 -17 -69 3 -80 48zM189 463c-12 -35 12 -61 39 -80c15 40 28 77 40 112c-33 4 -68 0 -79 -32zM331 127
c20 52 -20 93 -79 128l-63 -181c59 -16 125 8 142 53z" />
    <glyph glyph-name="uni20AA" unicode="&#x20aa;" horiz-adv-x="741" 
d="M385 342c-50 9 -120 -8 -178 -29c-53 -103 -121 -235 -143 -266c-27 -38 -49 -56 -76 -45c-20 8 -27 36 -4 77c11 20 54 101 97 185c-22 -3 -42 6 -50 26c-13 35 39 74 77 91c7 3 21 8 39 14c14 28 25 50 30 62c24 54 55 81 83 68c29 -13 29 -44 9 -87l-7 -14
c61 13 123 20 158 10c76 -21 136 -102 100 -195c-5 -13 -21 -51 -29 -68c-13 -27 -45 -43 -74 -27c-27 15 -33 44 -14 80c15 29 38 108 -18 118zM695 421c15 -4 38 -33 20 -92c-9 -30 -46 -141 -61 -197c-20 -74 -83 -116 -148 -130c-75 -16 -122 -11 -175 6
c-70 23 -116 108 -104 165c5 24 11 47 29 94c9 24 42 42 63 35c19 -6 32 -29 20 -61l-20 -56c-13 -40 16 -82 50 -94c50 -18 93 -10 129 0c19 5 44 25 58 57c18 42 64 196 69 215c11 41 48 64 70 58z" />
    <glyph glyph-name="plus" unicode="+" horiz-adv-x="464" 
d="M421 327c16 0 37 -18 33 -42c-2 -17 -27 -48 -55 -48c-13 0 -70 -1 -135 -1c-21 -66 -39 -125 -45 -137c-13 -28 -32 -37 -61 -32c-20 3 -30 27 -28 48c2 9 18 60 38 121c-57 0 -105 0 -116 2c-29 4 -40 20 -35 51c3 20 26 38 48 42c9 2 67 1 134 0c22 66 41 125 46 139
c5 16 30 35 53 31c16 -3 39 -28 31 -56c-4 -11 -18 -59 -36 -116z" />
    <glyph glyph-name="minus" unicode="&#x2212;" horiz-adv-x="467" 
d="M408 237c-30 0 -319 -3 -348 1s-42 20 -42 51c0 20 21 38 42 42s323 -4 357 -4c16 0 39 -18 39 -42c0 -17 -20 -48 -48 -48z" />
    <glyph glyph-name="multiply" unicode="&#xd7;" horiz-adv-x="403" 
d="M386 432c12 -15 5 -42 -11 -59c-6 -8 -55 -48 -111 -94c30 -53 56 -101 63 -112c9 -12 2 -42 -20 -56c-15 -10 -52 -12 -66 11c-5 8 -29 47 -56 93l-111 -90c-14 -11 -43 -14 -57 2c-10 12 -11 48 11 68c10 9 58 49 112 94c-31 53 -59 100 -63 111c-10 25 -1 44 27 62
c18 12 44 7 57 -8c5 -6 30 -48 59 -98c49 41 91 75 101 82c26 18 47 16 65 -6z" />
    <glyph glyph-name="divide" unicode="&#xf7;" horiz-adv-x="467" 
d="M245 374c-40 0 -51 29 -51 66c0 36 30 66 67 66c45 0 65 -30 65 -66c0 -37 -45 -66 -81 -66zM410 245c-30 0 -319 -3 -348 1s-42 20 -42 51c0 20 21 38 42 42s323 -4 357 -4c16 0 39 -18 39 -42c0 -17 -20 -48 -48 -48zM186 73c-40 0 -51 29 -51 66c0 36 30 66 67 66
c45 0 65 -30 65 -66c0 -37 -45 -66 -81 -66z" />
    <glyph glyph-name="equal" unicode="=" horiz-adv-x="467" 
d="M422 322c-30 0 -299 -3 -328 1s-42 20 -42 51c0 20 21 38 42 42s303 -4 337 -4c16 0 39 -18 39 -42c0 -17 -20 -48 -48 -48zM377 161c-30 0 -299 -3 -328 1s-42 20 -42 51c0 20 21 38 42 42s303 -4 337 -4c16 0 39 -18 39 -42c0 -17 -20 -48 -48 -48z" />
    <glyph glyph-name="greater" unicode="&#x3e;" horiz-adv-x="440" 
d="M377 327c33 -18 36 -57 8 -80c-59 -49 -228 -108 -287 -128c-33 -11 -66 -21 -80 6c-14 28 -3 52 22 71c47 36 175 66 243 95c-61 24 -122 46 -183 86c-28 18 -52 36 -39 63s46 34 76 18c81 -43 160 -88 240 -131z" />
    <glyph glyph-name="less" unicode="&#x3c;" horiz-adv-x="439" 
d="M425 437c14 -28 3 -52 -22 -71c-47 -36 -175 -66 -243 -95c61 -24 122 -46 183 -86c28 -18 52 -36 39 -63s-46 -34 -76 -18c-81 43 -160 88 -240 131c-33 18 -36 57 -8 80c59 49 228 108 287 128c33 11 66 21 80 -6z" />
    <glyph glyph-name="asciitilde" unicode="~" horiz-adv-x="470" 
d="M71 191c-36 1 -50 26 -48 63c2 43 14 76 45 98c26 18 59 36 96 33c40 -3 67 -32 87 -52c30 -30 46 -53 71 -56c16 -2 42 14 43 39c1 32 25 53 56 52c25 -1 28 -33 26 -58c-6 -78 -67 -116 -137 -112c-95 5 -105 80 -152 92c-19 5 -41 -16 -42 -44c-1 -38 -20 -56 -45 -55
z" />
    <glyph glyph-name="percent" unicode="%" horiz-adv-x="620" 
d="M164 296c-73 0 -103 56 -100 125c3 80 76 161 151 161c74 0 103 -49 99 -123c-4 -77 -61 -163 -150 -163zM51 3c-12 10 -12 37 3 57c133 151 312 343 441 486c18 20 47 31 71 16c15 -9 12 -39 -1 -57c-72 -100 -378 -409 -455 -501c-10 -12 -46 -11 -59 -1zM171 377
c37 0 65 44 67 80c1 19 -3 46 -32 46c-23 0 -56 -33 -60 -64c-4 -29 2 -62 25 -62zM406 -13c-73 0 -104 55 -100 125c5 80 76 161 151 161c74 0 105 -49 100 -124c-5 -76 -62 -162 -151 -162zM412 64c39 0 70 47 72 83c1 22 -4 51 -34 51c-19 0 -33 -20 -38 -25
c-2 -2 -1 -9 -5 -15c-5 -7 -7 -11 -13 -11c-2 0 -12 -21 -13 -42c-1 -20 13 -41 31 -41z" />
    <glyph glyph-name="copyright" unicode="&#xa9;" horiz-adv-x="692" 
d="M403 602c176 0 307 -143 270 -317c-38 -180 -199 -330 -374 -330c-176 0 -306 156 -272 330c49 249 211 317 376 317zM584 285c25 140 -52 244 -192 244c-129 0 -241 -59 -287 -244c-32 -127 59 -246 199 -246c139 0 255 106 280 246zM277 109c-68 32 -97 118 -55 226
c46 117 139 141 197 134c42 -5 75 -40 81 -76c4 -25 -1 -39 -9 -53c-15 -27 -39 -29 -51 -24c-18 7 -24 30 -15 50c5 11 -5 27 -20 30c-28 6 -79 -19 -105 -103c-15 -49 -16 -99 17 -117c18 -10 50 14 58 37c6 18 34 30 50 24c18 -7 26 -31 20 -47
c-20 -54 -93 -116 -168 -81z" />
    <glyph glyph-name="degree" unicode="&#xb0;" horiz-adv-x="360" 
d="M247 406c-89 0 -153 75 -137 164s90 135 179 135s141 -66 125 -155s-78 -144 -167 -144zM254 486c38 0 70 27 77 66s-16 66 -54 66s-70 -27 -78 -66s15 -66 55 -66z" />
    <glyph glyph-name="bar" unicode="|" horiz-adv-x="187" 
d="M-50 -118c-19 7 -26 27 -20 47l246 767c7 22 29 32 53 24c31 -10 47 -39 38 -65l-271 -751c-8 -21 -27 -29 -46 -22z" />
    <glyph glyph-name="asciicircum" unicode="^" horiz-adv-x="330" 
d="M363 455c9 -22 -12 -57 -41 -60c-15 -2 -35 15 -41 36c-5 17 -21 86 -35 146l-94 -120c-21 -27 -58 -50 -80 -46s-34 34 -20 54c25 38 113 138 128 162c15 23 50 54 85 50c20 -2 41 -27 45 -39c8 -22 46 -165 53 -183z" />
    <glyph glyph-name="uni05B0" unicode="&#x5b0;" 
d="M251 -84c-23 0 -29 17 -29 38c0 20 16 37 37 37c25 0 37 -17 37 -37c0 -21 -25 -38 -45 -38zM227 -197c-23 0 -29 17 -29 38c0 20 16 37 37 37c25 0 37 -17 37 -37c0 -21 -25 -38 -45 -38z" />
    <glyph glyph-name="uni05B1" unicode="&#x5b1;" 
d="M136 -80c-23 0 -29 17 -29 38c0 20 16 37 37 37c25 0 37 -17 37 -37c0 -21 -25 -38 -45 -38zM247 -87c-23 0 -29 17 -29 38c0 20 16 37 37 37c25 0 37 -17 37 -37c0 -21 -25 -38 -45 -38zM352 -91c-23 0 -29 17 -29 38c0 20 16 37 37 37c25 0 37 -17 37 -37
c0 -21 -25 -38 -45 -38zM169 -180c-23 0 -29 17 -29 38c0 20 16 37 37 37c25 0 37 -17 37 -37c0 -21 -25 -38 -45 -38zM330 -195c-23 0 -29 17 -29 38c0 20 16 37 37 37c25 0 37 -17 37 -37c0 -21 -25 -38 -45 -38z" />
    <glyph glyph-name="uni05B2" unicode="&#x5b2;" 
d="M359 -88c-23 0 -29 17 -29 38c0 20 16 37 37 37c25 0 37 -17 37 -37c0 -21 -25 -38 -45 -38zM259 -83c-16 0 -71 4 -140 8c-17 1 -31 12 -31 26s12 24 31 24c11 0 125 7 140 7c19 0 32 -15 32 -32c0 -21 -18 -33 -32 -33zM330 -192c-23 0 -29 17 -29 38c0 20 16 37 37 37
c25 0 37 -17 37 -37c0 -21 -25 -38 -45 -38z" />
    <glyph glyph-name="uni05B3" unicode="&#x5b3;" 
d="M367 -13c25 0 37 -17 37 -37c0 -21 -25 -38 -45 -38c-23 0 -29 17 -29 38c0 20 16 37 37 37zM269 -15c19 0 32 -14 32 -32c0 -21 -18 -32 -32 -32c-8 0 -24 0 -47 1v-72c0 -28 -11 -37 -34 -37c-21 0 -37 19 -32 41l17 71c-14 1 -29 2 -44 4c-17 2 -30 11 -30 26
c0 14 11 24 30 24c11 0 125 6 140 6zM345 -117c25 0 37 -17 37 -37c0 -21 -25 -38 -45 -38c-23 0 -29 17 -29 38c0 20 16 37 37 37z" />
    <glyph glyph-name="uni05B4" unicode="&#x5b4;" 
d="M244 -116c-27 0 -34 19 -34 43s20 43 44 43c29 0 43 -19 43 -43s-30 -43 -53 -43z" />
    <glyph glyph-name="uni05B5" unicode="&#x5b5;" 
d="M204 -110c-23 0 -29 17 -29 38c0 20 16 37 37 37c25 0 37 -17 37 -37c0 -21 -25 -38 -45 -38zM305 -110c-23 0 -29 17 -29 38c0 20 16 37 37 37c25 0 37 -17 37 -37c0 -21 -25 -38 -45 -38z" />
    <glyph glyph-name="uni05B6" unicode="&#x5b6;" 
d="M194 -83c-23 0 -29 17 -29 38c0 20 16 37 37 37c25 0 37 -17 37 -37c0 -21 -25 -38 -45 -38zM305 -89c-23 0 -29 17 -29 38c0 20 16 37 37 37c25 0 37 -17 37 -37c0 -21 -25 -38 -45 -38zM228 -184c-23 0 -29 17 -29 38c0 20 16 37 37 37c25 0 37 -17 37 -37
c0 -21 -25 -38 -45 -38z" />
    <glyph glyph-name="uni05B7" unicode="&#x5b7;" 
d="M371 -124c-16 0 -74 2 -146 9c-19 1 -32 12 -32 27s12 25 32 25c12 0 131 7 146 7c21 0 34 -15 34 -34c0 -22 -18 -34 -34 -34z" />
    <glyph glyph-name="uni05B8" unicode="&#x5b8;" 
d="M377 -24c21 0 35 -16 35 -36c0 -23 -19 -35 -35 -35c-9 0 -29 1 -56 2c1 -21 5 -53 5 -59c0 -35 -2 -49 -37 -49c-33 0 -47 27 -35 55l24 56c-17 1 -36 2 -55 4s-33 12 -33 28s12 27 33 27c13 0 138 7 154 7z" />
    <glyph glyph-name="uni05B9" unicode="&#x5b9;" 
d="M388 532c-27 0 -34 19 -34 43s20 43 44 43c29 0 43 -19 43 -43s-30 -43 -53 -43z" />
    <glyph glyph-name="uni05BA" unicode="&#x5ba;" 
d="M371 525c-27 0 -34 18 -34 42s20 43 44 43c29 0 43 -19 43 -43s-30 -42 -53 -42z" />
    <glyph glyph-name="uni05BB" unicode="&#x5bb;" 
d="M171 -80c-23 0 -29 17 -29 38c0 20 16 37 37 37c25 0 37 -17 37 -37c0 -21 -25 -38 -45 -38zM231 -155c-23 0 -29 17 -29 38c0 20 16 37 37 37c25 0 37 -17 37 -37c0 -21 -25 -38 -45 -38zM291 -235c-23 0 -29 17 -29 38c0 20 16 37 37 37c25 0 37 -17 37 -37
c0 -21 -25 -38 -45 -38z" />
    <glyph glyph-name="uni05BC" unicode="&#x5bc;" 
d="M251 296c-23 0 -29 17 -29 38c0 20 16 37 37 37c25 0 37 -17 37 -37c0 -21 -25 -38 -45 -38z" />
    <glyph glyph-name="uni05BF" unicode="&#x5bf;" 
d="M413 547c-14 0 -86 0 -150 8c-17 2 -29 11 -29 25c0 13 11 22 29 22c10 0 137 7 150 7c19 0 31 -15 31 -31c0 -20 -17 -31 -31 -31z" />
    <glyph glyph-name="uni05C1" unicode="&#x5c1;" 
d="M371 525c-27 0 -34 18 -34 42s20 43 44 43c29 0 43 -19 43 -43s-30 -42 -53 -42z" />
    <glyph glyph-name="uni05C2" unicode="&#x5c2;" 
d="M371 525c-27 0 -34 18 -34 42s20 43 44 43c29 0 43 -19 43 -43s-30 -42 -53 -42z" />
    <glyph glyph-name="uni05C7" unicode="&#x5c7;" 
d="M307 -35c14 0 23 -10 23 -24c0 -15 -13 -23 -23 -23c-6 0 -19 1 -38 2c1 -15 4 -36 4 -39c0 -23 -1 -33 -24 -33c-22 0 -31 18 -23 37l15 36l-36 3c-12 2 -22 8 -22 19c0 10 8 18 22 18c9 0 91 4 102 4z" />
    <glyph glyph-name="spacer" horiz-adv-x="193" 
d="M-6 -19c-25 7 -36 40 -18 93c17 51 104 337 125 410c20 69 53 106 89 93c37 -13 42 -49 26 -104c-20 -68 -113 -365 -139 -428c-20 -49 -49 -73 -83 -64z" />
    <glyph glyph-name="quotedblbase" unicode="&#x201e;" horiz-adv-x="300" 
d="M-68 -149c-15 5 -27 18 -15 55c12 36 59 178 63 200c7 36 40 62 64 56c39 -10 49 -40 39 -73c-32 -107 -120 -248 -151 -238zM66 -149c-15 5 -27 18 -15 55c12 36 60 178 64 200c7 36 40 62 64 56c38 -10 48 -40 38 -73c-32 -107 -120 -248 -151 -238z" />
    <glyph glyph-name="quotesinglbase" unicode="&#x201a;" horiz-adv-x="166" 
d="M-73 -166c-15 5 -27 18 -15 55c12 36 60 178 64 200c7 36 40 62 64 56c38 -10 48 -40 38 -73c-32 -107 -120 -248 -151 -238z" />
    <glyph glyph-name="Euro" unicode="&#x20ac;" horiz-adv-x="578" 
d="M540 597c78 -25 106 -51 94 -87c-13 -40 -67 -44 -113 -25c-97 40 -194 5 -255 -70l146 -2c15 0 38 -16 40 -38c2 -19 -13 -42 -40 -43c-14 -1 -107 -2 -192 -3c-2 -6 -3 -12 -5 -18s-3 -12 -4 -18c72 -1 143 -3 159 -3s38 -18 37 -42c-2 -17 -22 -43 -50 -43
c-14 0 -77 -2 -145 -4c19 -60 81 -84 160 -82c87 2 136 6 140 -42c3 -36 -28 -57 -72 -68c-187 -47 -329 40 -349 190c-32 0 -56 0 -64 1c-29 4 -40 20 -38 51c1 20 23 38 45 42c5 1 29 1 60 1c2 10 4 20 7 30c0 2 1 3 1 5c-12 0 -21 0 -25 1c-27 4 -45 18 -43 47
c1 18 18 35 37 38c5 1 30 1 64 1c97 200 289 218 405 181z" />
    <glyph glyph-name="newsheqelsign.ss01" horiz-adv-x="888" 
d="M473 390c-60 10 -143 -10 -214 -34c-64 -127 -149 -287 -176 -325c-34 -45 -59 -68 -92 -55c-24 10 -33 44 -5 94c13 25 65 124 117 225c-26 -4 -51 7 -60 32c-15 42 48 89 94 110c9 4 25 10 47 17l36 75c29 66 68 99 102 83c35 -16 35 -53 11 -106c-2 -4 -4 -10 -7 -16
c72 15 148 24 190 12c92 -25 163 -123 121 -237c-6 -16 -25 -62 -35 -83c-15 -33 -55 -52 -90 -33c-33 18 -40 54 -17 97c19 36 46 132 -22 144zM850 486c19 -5 47 -40 25 -112c-11 -36 -56 -172 -75 -240c-25 -89 -100 -140 -179 -158c-92 -21 -149 -13 -213 8
c-85 28 -141 131 -127 200c6 29 14 58 36 114c12 30 51 51 76 43c23 -7 39 -35 25 -74c-11 -30 -20 -53 -25 -68c-16 -49 20 -100 61 -115c61 -22 113 -11 157 1c23 6 53 30 70 69c22 51 78 238 84 261c13 50 58 78 85 71z" />
    <glyph glyph-name="alephsymbol" unicode="&#x2135;" horiz-adv-x="800" 
d="M402 297l-313 180l313 181l313 -181zM421 366l5 4s-14 39 -13 62c86 -1 146 32 154 36l14 -9l20 7l2 5l-43 24c-12 7 -9 16 -3 25l-33 13l-28 -16l21 -18c-25 -19 -57 -44 -100 -45c3 49 30 113 36 127c-21 11 -70 4 -70 4s4 -38 3 -59c-29 11 -64 6 -94 -13
c-13 -8 -28 -30 -36 -42l-6 -1l-13 7c-14 7 -17 6 -17 6l-30 -10l15 -15c6 1 15 3 25 -3l44 -26s23 7 29 11c9 16 17 48 37 63c11 8 24 16 44 6c-10 -39 -28 -142 -28 -142zM392 -82l-312 182l-1 360l313 -181v-361zM412 -82v362l313 180l-1 -360zM461 7l21 6
c2 5 5 14 15 20l43 26s7 23 7 30c-11 16 -30 41 -35 64c-3 14 -2 29 18 43c28 -31 107 -99 107 -99l34 57v5s-41 7 -61 21c44 73 48 142 48 151l14 8l5 20l-4 3l-42 -23c-12 -7 -20 0 -23 9l-29 -21v-32l26 9c4 -32 10 -70 -14 -111c-38 29 -80 84 -88 97
c-21 -12 -40 -58 -40 -58s35 -15 53 -26c-26 -21 -40 -53 -38 -88c1 -16 11 -41 19 -53l-1 -6l-15 -8c-13 -7 -14 -11 -14 -11zM305 7l35 17l-1 7s-42 53 -63 92c46 19 49 83 49 90l15 -8l6 14l-4 8l-43 24c-12 7 -21 23 -25 38l-28 11v-31l27 -24c2 -32 8 -78 -14 -89
c-41 71 -81 174 -91 194c-22 13 -41 -11 -41 -11s36 -53 54 -85c-25 9 -41 -5 -38 -43c1 -15 12 -52 19 -74l-1 -3l-16 9c-13 7 -14 6 -14 6l-6 -25l21 -18c1 3 7 7 16 2l45 -26s7 15 7 21c-11 30 -30 77 -36 104c-4 18 -3 31 17 22c29 -63 110 -222 110 -222z" />
    <glyph glyph-name="ampersand" unicode="&#x26;" horiz-adv-x="500" 
d="M397 149l60 -114c14 -28 6 -62 -23 -72s-58 -4 -72 25l-39 79c-118 -108 -240 -123 -315 -61c-55 46 -74 181 84 302c31 24 58 43 82 59l-33 65c-38 62 -19 85 -10 118c15 56 102 104 189 86c75 -17 133 -78 117 -172c-8 -50 -49 -72 -140 -127l55 -103
c19 25 37 55 55 87c12 25 53 56 77 27c33 -40 -14 -88 -42 -133c-15 -24 -30 -46 -45 -66zM270 548c-46 -8 -48 -54 -13 -132c54 28 77 33 90 63c15 31 -23 77 -77 69zM77 133c-6 -85 95 -85 204 18l-67 134c-12 -7 -24 -15 -37 -24c-58 -38 -98 -95 -100 -128z" />
    <glyph glyph-name="at" unicode="@" horiz-adv-x="809" 
d="M491 635c194 0 311 -170 262 -364c-39 -161 -147 -232 -221 -204c-23 9 -42 30 -56 54c-46 -42 -126 -55 -180 -28c-71 35 -94 130 -34 249c64 129 170 155 232 147c33 -4 47 -25 54 -51c5 5 10 9 15 11c94 31 -19 -135 -8 -242c9 -96 85 -52 112 64
c34 141 -37 261 -192 261c-153 0 -281 -106 -325 -261c-43 -154 20 -260 175 -247c93 8 136 -1 139 -27c3 -34 -33 -67 -162 -75c-195 -12 -322 158 -261 349c63 199 257 364 450 364zM360 178c19 -11 83 -14 99 45c7 41 27 89 29 107c7 41 -2 58 -20 62
c-30 5 -79 -15 -114 -96c-23 -54 -27 -99 6 -118z" />
    </font>
</defs>
</svg>
