<?xml version="1.0" standalone="no"?>
<!DOCTYPE svg PUBLIC "-//W3C//DTD SVG 1.1//EN" "http://www.w3.org/Graphics/SVG/1.1/DTD/svg11.dtd" >
<svg xmlns="http://www.w3.org/2000/svg" xmlns:xlink="http://www.w3.org/1999/xlink" version="1.1">
<metadata>
Created by FontForge 20170910 at Sun Mar 14 11:02:32 2010
 By Jimmy Wärting
Created by Yoram Gnat with FontForge 1.0 (http://fontforge.sf.net)

Copyright .2007-2010 by Yoram Gnat
(yoram.gnat@gmail.com). 

Distributed under the terms of GNU General Public License version 2(http://www.gnu.org/licenses/gpl.html).

As a special exception, if you create a document which uses this font, and embed this font or unaltered portions of this font into the document, this font does not by itself cause the resulting document to be covered by the GNU General Public License. This exception does not however invalidate any other reasons why the document might be covered by the GNU General Public License. If you modify this font, you may extend this exception to your version of the font, but you are not obligated to do so. If you do not wish to do so, delete this exception statement from your version. 


</metadata>
<defs>
<font id="Hebrew-Paleo-Siloam" horiz-adv-x="836" >
  <font-face 
    font-family="Hebrew Paleo Siloam"
    font-weight="500"
    font-stretch="normal"
    units-per-em="1000"
    panose-1="2 0 6 3 0 0 0 0 0 0"
    ascent="800"
    descent="-200"
    bbox="33 -250 1029 847"
    underline-thickness="50"
    underline-position="-150"
    unicode-range="U+0020-1091F"
  />
<missing-glyph horiz-adv-x="364" 
d="M33 0v666h265v-666h-265zM66 33h199v600h-199v-600z" />
    <glyph glyph-name=".notdef" horiz-adv-x="364" 
d="M33 0v666h265v-666h-265zM66 33h199v600h-199v-600z" />
    <glyph glyph-name=".null" horiz-adv-x="0" 
 />
    <glyph glyph-name="nonmarkingreturn" horiz-adv-x="333" 
 />
    <glyph glyph-name="space" unicode=" " horiz-adv-x="450" 
 />
    <glyph glyph-name="exclam" unicode="!" horiz-adv-x="255" 
d="M64 50q0 27 19.5 46.5t46.5 19.5q26 0 45.5 -19.5t19.5 -46.5t-19.5 -46.5t-45.5 -19.5q-27 0 -46.5 19.5t-19.5 46.5zM80 273v339q-20 16 -20 38q0 21 15.5 35.5t36.5 14.5h18q22 0 36 -14t14 -36v-377q9 -13 9 -29q0 -21 -14.5 -35.5t-35.5 -14.5h-18q-21 0 -35.5 14.5
t-14.5 35.5q0 16 9 29z" />
    <glyph glyph-name="quotedbl" unicode="&#x22;" horiz-adv-x="463" 
d="M302 604q-30 14 -30 46q0 20 15 35t35 15h29q21 0 35.5 -13t14.5 -33q0 -6 1 -17t1 -16q0 -92 -41 -184q-13 -30 -45 -30q-11 0 -20 4q-29 12 -29 44q0 12 4 21q30 70 30 128zM94 604q-30 13 -30 46q0 20 14.5 35t35.5 15h29q21 0 35.5 -13t14.5 -33q0 -6 0.5 -17
t0.5 -16q0 -94 -40 -184q-13 -30 -46 -30q-11 0 -20 4q-28 12 -28 44q0 12 4 21q30 70 30 128z" />
    <glyph glyph-name="numbersign" unicode="#" horiz-adv-x="703" 
d="M245 575q-6 15 -3 31q4 17 18 28t31 11q7 0 11 -1l18 -4q17 -4 28 -18t11 -31q0 -7 -1 -11q-5 -16 -15 -26l-18 -79l127 4l21 96q-6 14 -3 31q4 17 18 28t31 11q7 0 11 -1l18 -4q17 -4 28 -18t11 -31q0 -7 -1 -11q-5 -16 -15 -26l-16 -72h8q13 10 30 10q20 0 35 -14.5
t15 -35.5v-18q0 -21 -15 -35.5t-35 -14.5q-16 0 -27 8h-33l-22 -102l52 2q13 10 30 10q20 0 35 -14.5t15 -35.5v-18q0 -21 -15 -35.5t-35 -14.5q-19 0 -27 6h-77l-25 -115q5 -15 2 -29q-4 -17 -17.5 -26.5t-30.5 -9.5h-12h-18q-16 4 -27 19t-11 32v11q4 14 16 26l20 89
l-128 -4l-23 -106q6 -15 3 -31q-8 -36 -48 -36h-12h-18q-17 4 -28 18.5t-11 32.5q0 7 1 11q3 14 15 26l18 81h-15q-13 -10 -30 -10q-21 0 -35.5 14.5t-14.5 35.5v18q0 21 14.5 35.5t35.5 14.5q16 0 27 -8l40 1l23 101l-60 -2q-13 -10 -30 -10q-21 0 -35.5 14.5t-14.5 35.5
v18q0 21 14.5 35.5t35.5 14.5q16 0 27 -8l85 2zM303 374l-22 -101l127 4l22 101z" />
    <glyph glyph-name="dollar" unicode="$" horiz-adv-x="625" 
d="M555 498h-128v6q0 44 -20.5 71.5t-57.5 32.5v-201q116 -32 166 -81t50 -131q0 -56 -22.5 -102.5t-63.5 -72.5q-51 -32 -130 -41v-105h-68v105q-82 8 -135 46q-86 61 -86 173v9h131q5 -106 90 -121v213q-204 47 -204 213q0 84 53.5 136t150.5 61v54h68v-54q95 -5 150 -61
t56 -150zM281 427v181q-81 -16 -81 -92q0 -63 81 -89zM349 282v-196q84 21 84 97q0 73 -84 99z" />
    <glyph glyph-name="percent" unicode="%" horiz-adv-x="680" 
d="M140 476q0 -53 25 -53q43 0 55.5 19.5t12.5 70.5q0 47 -27 47q-43 0 -54.5 -17t-11.5 -67zM206 640q51 0 79 -37t28 -90q0 -84 -35 -127t-113 -43q-51 0 -78 40t-27 93q0 85 35.5 124.5t110.5 39.5zM447 134q0 -52 25 -52q44 0 56 19.5t12 70.5q0 46 -27 46
q-43 0 -54.5 -16.5t-11.5 -67.5zM513 298q50 0 78.5 -36.5t28.5 -89.5q0 -85 -35 -128.5t-113 -43.5q-51 0 -78 40.5t-27 93.5q0 83 34.5 123.5t111.5 40.5zM129 92l323 509q0 17 8 30q16 22 42 22q16 0 28 -8l15 -10q22 -16 22 -42q0 -16 -8 -28q-9 -12 -23 -18l-323 -510
q0 -17 -8 -29q-16 -22 -41 -22q-16 0 -29 9l-15 5q-22 16 -22 46q0 16 8 28q10 14 23 18z" />
    <glyph glyph-name="ampersand" unicode="&#x26;" horiz-adv-x="759" 
d="M531 373h113v-11v-5q-2 -58 -20 -113.5t-48 -89.5l123 -154h-161l-46 56q-60 -45 -102 -62t-93 -17q-107 0 -172 59.5t-65 156.5q0 71 34.5 116.5t122.5 91.5q-9 12 -12 15l-28 34q-42 50 -42 106q0 71 54.5 119t134.5 48t129 -42.5t49 -112.5q0 -54 -25 -92t-92 -84
l116 -144q30 57 30 115v10zM283 319l-47 -29q-43 -29 -43 -80q0 -45 32.5 -81t73.5 -36q48 0 120 55zM322 470q60 33 60 86q0 28 -15 43t-42 15q-25 0 -41.5 -13.5t-16.5 -34.5q0 -19 8.5 -33.5t46.5 -62.5z" />
    <glyph glyph-name="quotesingle" unicode="'" horiz-adv-x="254" 
d="M94 604q-30 13 -30 46q0 21 14.5 35.5t35.5 14.5h29q20 0 34.5 -13t15.5 -33q1 -11 1 -32q0 -93 -40 -186q-13 -30 -46 -30q-11 0 -20 4q-28 12 -28 45q0 12 4 21q25 59 30 128z" />
    <glyph glyph-name="parenleft" unicode="(" horiz-adv-x="372" 
d="M60 310q0 217 150 359q13 14 34 14h18q21 0 35.5 -14.5t14.5 -35.5q0 -20 -14 -35t-33 -15q-105 -108 -105 -273q0 -152 104 -268q19 0 32.5 -15t13.5 -35q0 -21 -14.5 -35.5t-35.5 -14.5h-18q-21 0 -36 16q-146 154 -146 352z" />
    <glyph glyph-name="parenright" unicode=")" horiz-adv-x="372" 
d="M312 310q0 -198 -146 -352q-15 -16 -36 -16h-18q-21 0 -35.5 14.5t-14.5 35.5q0 20 13.5 35t32.5 15q104 116 104 268q0 165 -105 273q-19 0 -33 15t-14 35q0 21 14.5 35.5t35.5 14.5h18q21 0 34 -14q150 -142 150 -359z" />
    <glyph glyph-name="asterisk" unicode="*" horiz-adv-x="614" 
d="M232 321l-115 39q-15 -4 -25 0q-14 4 -23 17t-9 27q0 9 2 14l5 15q10 32 44 32q10 0 15 -2q15 -5 23 -17l112 -36v120q-8 13 -8 26q0 20 13.5 33.5t32.5 13.5h16q19 0 32.5 -13.5t13.5 -33.5q0 -15 -7 -25v-121l111 36q8 13 24 18q5 2 15 2q34 0 44 -32l4 -15q2 -5 2 -15
q0 -34 -31 -44q-6 -2 -24 0l-117 -39l70 -96q16 -5 24 -17q9 -12 9 -28q0 -24 -19 -37l-13 -9q-12 -9 -28 -9q-24 0 -37 19q-7 10 -9 23l-72 100l-71 -98q0 -14 -9 -24q-13 -19 -37 -19q-15 0 -27 9l-13 9q-20 14 -20 38q0 15 9 27t24 17z" />
    <glyph glyph-name="plus" unicode="+" horiz-adv-x="566" 
d="M137 337l98 5v98q-9 12 -9 29q0 21 14.5 35.5t35.5 14.5h18q21 0 35.5 -14.5t14.5 -35.5q0 -17 -9 -29v-94l91 5q13 10 30 10q21 0 35.5 -14.5t14.5 -35.5v-18q0 -21 -14.5 -35.5t-35.5 -14.5q-14 0 -27 8l-94 -5v-95q9 -13 9 -29q0 -21 -14.5 -35.5t-35.5 -14.5h-18
q-21 0 -35.5 14.5t-14.5 35.5q0 16 9 29v92l-95 -6q-13 -10 -30 -10q-21 0 -35.5 14.5t-14.5 35.5v18q0 21 14.5 35.5t35.5 14.5q14 0 27 -8z" />
    <glyph glyph-name="comma" unicode="," horiz-adv-x="255" 
d="M195 29q0 -118 -41 -213q-13 -30 -46 -30q-12 0 -20 4q-28 12 -28 45q0 12 4 21q25 58 30 127q-30 13 -30 46q0 27 19.5 46.5t45.5 19.5q27 0 46.5 -19.5t19.5 -46.5z" />
    <glyph glyph-name="hyphen" unicode="-" horiz-adv-x="547" 
d="M137 336l269 12q15 10 31 10q20 0 35 -14.5t15 -35.5v-18q0 -21 -15 -35.5t-35 -14.5q-14 0 -27 8l-270 -12q-13 -10 -30 -10q-21 0 -35.5 14.5t-14.5 35.5v18q0 21 14.5 35.5t35.5 14.5q14 0 27 -8z" />
    <glyph glyph-name="period" unicode="." horiz-adv-x="251" 
d="M60 50q0 27 19.5 46.5t46.5 19.5t46 -19.5t19 -46.5t-19 -46.5t-46 -19.5t-46.5 19.5t-19.5 46.5z" />
    <glyph glyph-name="slash" unicode="/" horiz-adv-x="495" 
d="M84 58l236 573q-3 16 3 31q14 30 47 30q11 0 19 -4l16 -7q30 -13 30 -46q0 -11 -4 -20q-7 -15 -18 -22l-238 -576q3 -15 -3 -29q-13 -30 -46 -30q-12 0 -20 4l-16 7q-30 13 -30 46q0 12 4 20q5 13 20 23z" />
    <glyph glyph-name="zero" unicode="0" horiz-adv-x="651" 
d="M161 279q0 -79 29 -131.5t82 -52.5q60 0 102 16t64.5 39t35 63t15.5 74t3 86q0 77 -30.5 123t-86.5 46q-59 0 -100.5 -15.5t-63.5 -37.5t-33.5 -61t-14 -69.5t-2.5 -79.5zM375 642q72 0 123 -40.5t72.5 -99.5t21.5 -129q0 -63 -5 -109.5t-24.5 -100.5t-52.5 -88
t-93.5 -57t-144.5 -23q-57 0 -100.5 27.5t-66 71.5t-33.5 91t-11 94q0 42 2 74.5t9.5 72t21 68.5t37 58.5t56 48t80.5 30t108 11.5z" />
    <glyph glyph-name="one" unicode="1" horiz-adv-x="519" 
d="M124 93l102 5l7 419l-82 -33q-15 -21 -41 -21q-21 0 -35.5 14.5t-14.5 35.5v18q0 21 14.5 35.5t35.5 14.5q7 0 11 -1l144 58q9 4 20 4q15 0 27 -9q22 -15 22 -42l-8 -488l88 4q13 10 30 10q21 0 35.5 -14.5t14.5 -35.5v-18q0 -21 -14.5 -35t-35.5 -14q-16 0 -27 7
l-290 -12q-16 -12 -30 -12q-21 0 -35.5 14.5t-14.5 35.5v18q0 21 14.5 35.5t35.5 14.5q14 0 27 -8z" />
    <glyph glyph-name="two" unicode="2" horiz-adv-x="641" 
d="M163 490q-3 -17 -17 -28.5t-32 -11.5q-21 0 -35.5 14.5t-14.5 35.5v18q0 26 22 41q120 83 295 83q94 0 142.5 -46.5t48.5 -138.5q0 -95 -67 -158t-191 -115q-110 -46 -144 -89l334 16q13 10 30 10q21 0 35.5 -14.5t14.5 -35.5v-18q0 -21 -14.5 -35.5t-35.5 -14.5
q-14 0 -27 8l-410 -19h-3q-20 0 -36 16q-13 14 -13 34v6q8 48 29.5 85.5t57.5 64t65.5 42.5t77.5 36q108 46 152.5 87t44.5 94q0 50 -20 67.5t-71 17.5q-73 0 -122 -11.5t-96 -40.5z" />
    <glyph glyph-name="three" unicode="3" horiz-adv-x="621" 
d="M168 499q-4 -17 -17.5 -28.5t-31.5 -11.5q-21 0 -35.5 14.5t-14.5 35.5v18q0 27 22 41q106 74 280 74q76 0 124.5 -38.5t48.5 -102.5t-50 -105q70 -46 70 -131q0 -70 -31 -124.5t-80.5 -85t-104.5 -45.5t-111 -15q-61 0 -110 20.5t-67 61.5q-5 11 -5 28v11
q0 21 14.5 35.5t35.5 14.5t35.5 -14.5t14.5 -37.5q29 -19 82 -19q94 0 160.5 44t66.5 126q0 66 -118 66q-20 0 -43 -3h-6q-19 0 -32.5 11.5t-16.5 30.5q-1 3 -1 10q0 18 11.5 31t29.5 16q23 4 34 6.5t33.5 8t35 10.5t26.5 12.5t20.5 16.5t6.5 20q0 41 -73 41
q-128 0 -203 -43z" />
    <glyph glyph-name="four" unicode="4" horiz-adv-x="623" 
d="M538 213l-2 -135q8 -13 8 -28q0 -21 -14.5 -35.5t-35.5 -14.5h-18q-20 0 -35 14.5t-15 35.5q0 13 12 29v123l-349 -18h-3q-28 0 -41 21q-9 12 -9 26q0 12 4 21l125 328v12q0 21 15 35.5t35 14.5h18q21 0 35.5 -14.5t14.5 -35.5q0 -25 -20 -40l-102 -264l277 14l6 220
q-9 12 -9 28q0 21 15 35.5t35 14.5h18q21 0 35.5 -14.5t14.5 -35.5q0 -17 -9 -29l-4 -223q20 -14 22 -39v-3q0 -28 -24 -43z" />
    <glyph glyph-name="five" unicode="5" horiz-adv-x="605" 
d="M449 541l-267 -9l-4 -83q75 31 169 31q79 0 140.5 -55.5t61.5 -136.5q0 -127 -96.5 -210t-223.5 -83q-119 0 -167 77q-7 12 -7 33v10q0 21 14.5 35.5t35.5 14.5t35.5 -14.5t14.5 -37.5q19 -18 74 -18q90 0 155 56t65 137q0 37 -30.5 64.5t-71.5 27.5q-117 0 -191 -61
q-15 -12 -31 -12q-13 0 -23 5q-28 14 -28 44v3l10 223q1 21 14.5 34t33.5 14l317 11q13 10 29 10q21 0 35.5 -14.5t14.5 -35.5v-18q0 -21 -14.5 -36t-35.5 -15q-15 0 -29 9z" />
    <glyph glyph-name="six" unicode="6" horiz-adv-x="637" 
d="M422 531q-35 11 -71 11q-65 0 -113.5 -47t-68.5 -122q92 77 223 77q89 0 142.5 -51t53.5 -133q0 -105 -82.5 -188t-191.5 -83q-129 0 -192.5 81t-63.5 205q0 89 32.5 170t101.5 136t159 55q114 0 159 -53q11 -16 11 -32v-18q0 -21 -14.5 -35.5t-35.5 -14.5
q-19 0 -32.5 12t-16.5 30zM165 213q25 -118 149 -118q67 0 120.5 54.5t53.5 116.5q0 84 -96 84q-74 0 -126.5 -32t-75.5 -80q-7 -17 -25 -25z" />
    <glyph glyph-name="seven" unicode="7" horiz-adv-x="557" 
d="M227 84q29 174 169 455l-262 -8l-1 -23q-1 -20 -15.5 -34t-34.5 -14h-2q-20 1 -34 15.5t-14 34.5v2l3 70q1 21 14.5 34t33.5 14l393 12h3q26 0 41 -23q8 -14 8 -27q0 -12 -6 -23q-167 -321 -197 -497q5 -12 5 -22q0 -21 -14.5 -35.5t-35.5 -14.5h-18q-21 0 -35.5 14.5
t-14.5 35.5q0 20 14 34z" />
    <glyph glyph-name="eight" unicode="8" horiz-adv-x="660" 
d="M409 340q-130 0 -190 -32t-60 -112q0 -43 33 -72t94 -29q112 0 167.5 46t55.5 124q0 29 -26 52t-74 23zM390 542q-112 0 -149 -24q-23 -14 -23 -45q0 -15 20.5 -25.5t46.5 -10.5q103 0 140 28q12 9 16 16.5t4 26.5q0 13 -16.5 23.5t-38.5 10.5zM515 415q43 -22 68.5 -62
t25.5 -88q0 -125 -87 -197.5t-236 -72.5q-98 0 -162.5 56t-64.5 145q0 133 94 191q-35 37 -35 86q0 87 70 130q63 39 202 39q64 0 109.5 -38.5t45.5 -95.5q0 -52 -30 -93z" />
    <glyph glyph-name="nine" unicode="9" horiz-adv-x="609" 
d="M450 378q-9 164 -135 164q-80 0 -120 -36t-40 -98q0 -44 20.5 -67t57.5 -23q117 0 165 48q15 15 35 15q9 0 17 -3zM440 272q-76 -54 -207 -54q-80 0 -129 52.5t-49 137.5q0 106 70 170t190 64q110 0 172.5 -76t62.5 -207q0 -155 -84.5 -259.5t-218.5 -104.5
q-61 0 -110 24q-28 14 -28 45v18q0 21 14.5 35.5t35.5 14.5q34 0 47 -32q20 -5 41 -5q70 0 122 47.5t71 129.5z" />
    <glyph glyph-name="colon" unicode=":" horiz-adv-x="251" 
d="M60 392q0 27 19.5 46.5t46.5 19.5t46 -19.5t19 -46.5t-19 -46t-46 -19t-46.5 19t-19.5 46zM60 50q0 27 19.5 46.5t46.5 19.5t46 -19.5t19 -46.5t-19 -46.5t-46 -19.5t-46.5 19.5t-19.5 46.5z" />
    <glyph glyph-name="semicolon" unicode=";" horiz-adv-x="255" 
d="M195 29q0 -118 -41 -213q-13 -30 -46 -30q-12 0 -20 4q-28 12 -28 45q0 12 4 21q25 58 30 127q-30 13 -30 46q0 27 19.5 46.5t45.5 19.5q27 0 46.5 -19.5t19.5 -46.5zM64 392q0 27 19.5 46.5t46.5 19.5t46 -19.5t19 -46.5t-19 -46t-46 -19t-46.5 19t-19.5 46z" />
    <glyph glyph-name="less" unicode="&#x3c;" horiz-adv-x="583" 
d="M418 81l-336 227q-22 15 -22 42q2 29 25 42l325 192q6 15 20 23q11 7 25 7q30 0 44 -25l9 -16q6 -12 6 -25q0 -29 -25 -43q-13 -9 -28 -7l-257 -152l266 -179q15 0 28 -7q25 -14 25 -43q0 -14 -7 -25l-9 -16q-14 -25 -43 -25q-14 0 -25 7q-14 7 -21 23z" />
    <glyph glyph-name="equal" unicode="=" horiz-adv-x="567" 
d="M137 436l289 13q15 10 31 10q20 0 35 -14.5t15 -35.5v-18q0 -21 -15 -35.5t-35 -14.5q-14 0 -27 8l-290 -13q-13 -10 -30 -10q-21 0 -35.5 14.5t-14.5 35.5v18q0 21 14.5 35.5t35.5 14.5q14 0 27 -8zM137 236l289 13q15 10 31 10q20 0 35 -14.5t15 -35.5v-18
q0 -21 -15 -35.5t-35 -14.5q-14 0 -27 8l-290 -13q-13 -10 -30 -10q-21 0 -35.5 14.5t-14.5 35.5v18q0 21 14.5 35.5t35.5 14.5q14 0 27 -8z" />
    <glyph glyph-name="greater" unicode="&#x3e;" horiz-adv-x="583" 
d="M165 583l336 -226q22 -15 22 -43q-2 -28 -25 -41l-325 -193q-7 -15 -21 -22q-11 -7 -25 -7q-29 0 -43 25l-9 16q-7 10 -7 24q0 30 25 44q15 8 29 6l257 152l-266 180q-15 0 -28 7q-25 14 -25 43q0 14 7 25l9 16q14 25 43 25q14 0 25 -7q15 -9 21 -24z" />
    <glyph glyph-name="question" unicode="?" horiz-adv-x="613" 
d="M247 50q0 27 19.5 46.5t46.5 19.5t46.5 -19.5t19.5 -46.5t-19.5 -46.5t-46.5 -19.5t-46.5 19.5t-19.5 46.5zM154 580q-16 -26 -44 -26q-21 0 -35.5 15t-14.5 35v16q0 36 34 47q98 33 271 33q87 0 137.5 -45.5t50.5 -129.5q0 -69 -50 -126t-142 -121q0 -24 -14 -39
t-36 -15q-20 0 -35 14.5t-15 35.5v30q0 26 22 42q170 115 170 179q0 41 -22 58t-66 17q-135 0 -211 -20z" />
    <glyph glyph-name="at" unicode="@" horiz-adv-x="1040" 
d="M677 508h90l-78 -280q-8 -30 -8 -42q0 -22 13.5 -35.5t35.5 -13.5q56 0 110 72q51 71 51 161q0 118 -98 206q-104 92 -249 92q-175 0 -284 -126q-103 -119 -103 -276q0 -153 118 -245q104 -81 244 -81q116 0 207 41l28 -73q-101 -46 -237 -46q-185 0 -306 95
q-72 56 -111.5 137t-39.5 170q0 87 38.5 178t104.5 159q139 144 346 144q190 0 320 -125q111 -108 111 -265q0 -121 -82 -215q-75 -84 -168 -84q-51 0 -89 26q-26 18 -36 49q-62 -75 -150 -75q-68 0 -116 50t-48 121q0 108 74 200q34 42 82.5 66.5t99.5 24.5q80 0 114 -71z
M544 447q-59 0 -107.5 -63.5t-48.5 -139.5q0 -45 26 -76t63 -31q48 0 88 47q28 32 45.5 77.5t17.5 83.5q0 47 -22.5 74.5t-61.5 27.5z" />
    <glyph glyph-name="bracketleft" unicode="[" horiz-adv-x="362" 
d="M302 729v-102h-112v-725h112v-102h-242v929h242z" />
    <glyph glyph-name="backslash" unicode="\" horiz-adv-x="421" 
d="M127 714l234 -728h-67l-234 728h67z" />
    <glyph glyph-name="bracketright" unicode="]" horiz-adv-x="362" 
d="M60 -200v102h112v725h-112v102h242v-929h-242z" />
    <glyph glyph-name="asciicircum" unicode="^" horiz-adv-x="581" 
d="M521 270h-113l-121 300l-115 -300h-112l165 425h125z" />
    <glyph glyph-name="underscore" unicode="_" horiz-adv-x="720" 
d="M660 -120v-69h-600v69h600z" />
    <glyph glyph-name="grave" unicode="`" horiz-adv-x="255" 
d="M195 469h-135v109q0 79 45 117q37 31 90 34v-46q-80 -15 -80 -84v-5h80v-125z" />
    <glyph glyph-name="braceleft" unicode="{" horiz-adv-x="378" 
d="M310 40q8 -13 8 -34q0 -23 -8 -44h-9.5h-9.5h-7h-26q-71 0 -99 38q-22 28 -22 87v202q0 27 -16.5 40.5t-56.5 18.5q-4 24 -4 42q0 15 4 41q39 5 56 18.5t17 41.5v202q0 57 22 85q31 42 103 42q22 0 48 -2q7 -18 7 -38q0 -22 -7 -40q-40 -5 -57.5 -18.5t-17.5 -40.5v-179
q0 -47 -16 -71.5t-56 -40.5q40 -16 56 -40.5t16 -71.5v-179q0 -27 17.5 -40.5t57.5 -18.5z" />
    <glyph glyph-name="bar" unicode="|" horiz-adv-x="220" 
d="M60 111v578h100v-578h-100z" />
    <glyph glyph-name="braceright" unicode="}" horiz-adv-x="378" 
d="M68 40q40 5 57.5 18.5t17.5 40.5v179q0 47 16 71.5t56 40.5q-40 16 -56 40.5t-16 71.5v179q0 27 -17.5 40.5t-57.5 18.5q-7 18 -7 40q0 20 7 38q26 2 48 2q72 0 103 -42q22 -28 22 -85v-202q0 -28 17 -41.5t56 -18.5q4 -26 4 -41q0 -18 -4 -42q-40 -5 -56.5 -18.5
t-16.5 -40.5v-202q0 -59 -22 -87q-28 -38 -99 -38h-26h-7h-9.5h-9.5q-8 21 -8 44q0 21 8 34z" />
    <glyph glyph-name="asciitilde" unicode="~" horiz-adv-x="624" 
d="M122 351l-62 70q36 66 69 93t77 27q30 0 74 -18l65 -28q43 -18 72 -18q39 0 83 66l64 -71q-25 -52 -63.5 -82t-78.5 -30q-29 0 -91 26l-55 22q-36 16 -65 16q-25 0 -43.5 -15t-45.5 -58z" />
    <glyph glyph-name="afii57842" unicode="&#x5c0;" horiz-adv-x="369" 
d="M90 290q0 39 30.5 67.5t69.5 28.5q38 0 63.5 -28t25.5 -68q0 -39 -27.5 -67t-66.5 -28q-38 0 -66.5 28.5t-28.5 66.5z" />
    <glyph glyph-name="afii57658" unicode="&#x5c3;" horiz-adv-x="369" 
d="M90 290q0 39 30.5 67.5t69.5 28.5q38 0 63.5 -28t25.5 -68q0 -39 -27.5 -67t-66.5 -28q-38 0 -66.5 28.5t-28.5 66.5z" />
    <glyph glyph-name="afii57664" unicode="&#x5d0;" horiz-adv-x="785" 
d="M706 398l-210 -40q65 -277 65 -486q0 -25 -22.5 -43.5t-38.5 -18.5q-17 0 -19 10q0 231 -90 600q-123 -32 -287 -32q-39 0 -44 32v2q0 9 10.5 23t18.5 14q17 -2 46 -2q112 0 241 31l-22 104v3q0 10 11 16.5t22 6.5q31 0 39 -18l23 -56l227 51q15 0 23.5 -10t8.5 -24
q0 -21 -19 -31l-218 -55l13 -45l211 40q30 -5 30 -38q0 -22 -19 -34z" />
    <glyph glyph-name="afii57665" unicode="&#x5d1;" horiz-adv-x="686" 
d="M536 516q-130 -50 -202 -112v-14l202 -40q0 16 2.5 52t2.5 55q0 34 -5 59zM534 604q48 0 82 -44q10 -94 10 -189q0 -105 -12 -199q-11 -49 -54 -62q-216 -85 -462 -110q-38 7 -38 29q0 21 33 61q171 0 429 92l10 92l-298 58q-12 12 -12 29q0 19 14 47q106 111 298 196z
" />
    <glyph glyph-name="afii57666" unicode="&#x5d2;" horiz-adv-x="604" 
d="M64 500q18 10 38 18.5t35.5 15t40.5 14t36 11t41 10.5t36.5 8.5t41.5 9t38 8.5q24 0 41.5 -6t22 -10t19.5 -17q90 -263 90 -574q-3 -2 -15 -11.5t-16.5 -12.5l-13.5 -9t-15.5 -8t-13.5 -2q-22 0 -36 30q0 255 -75 523q-130 -19 -265 -76q-34 14 -34 50q0 13 4 28z" />
    <glyph glyph-name="afii57667" unicode="&#x5d3;" horiz-adv-x="756" 
d="M386 490q-110 -68 -205 -160q83 -12 185 -12q94 0 180 10zM459 538q125 -111 217 -223q0 -2 10 -13t10 -14q0 -20 -15 -43.5t-35 -34.5l-42 30q-50 0 -151 -4t-154 -4q-107 0 -193 13q-46 6 -46 41q0 20 9 44q51 61 117 120t112 94t126 91q19 -7 32.5 -20.5t18.5 -23
t14 -29.5z" />
    <glyph glyph-name="afii57668" unicode="&#x5d4;" horiz-adv-x="829" 
d="M466 530q86 -104 154.5 -221t148.5 -279q-23 -59 -62 -59q-26 0 -61 29l-72 155q-190 -153 -423 -215q-59 14 -59 32q0 12 24 28q201 75 425 222l-45 76l-225 -148q-15 -3 -26 -3q-34 0 -34 28q0 15 10 40l233 150l-68 110q-116 -69 -292 -223q-4 6 -13 10t-15 11.5
t-6 24.5q0 15 4 32q53 63 106.5 113t113.5 89.5t101 62.5t109 57q45 -20 45 -87z" />
    <glyph glyph-name="afii57669" unicode="&#x5d5;" horiz-adv-x="516" 
d="M165 538l110 -50l113 104q12 2 18 2q20 0 32 -8.5t15 -18t3 -19.5q0 -2 -0.5 -4.5t-0.5 -3.5l-120 -118q45 -171 45 -457q-34 -51 -58 -51q-19 0 -40 26q7 62 7 139q0 125 -34 273l-75 -64q-30 0 -43.5 14.5t-16.5 42.5l95 83l-137 74q-18 10 -18 24q0 13 15 32l86 88
q6 2 11 2q11 0 20 -6t20 -19t16 -17z" />
    <glyph glyph-name="afii57670" unicode="&#x5d6;" horiz-adv-x="894" 
d="M68 455q267 28 718 195q32 -8 32 -35q0 -15 -10 -37.5t-25.5 -50t-21.5 -42.5l-28 -5l20 72q-21 -7 -75.5 -27t-83.5 -30.5t-75 -25t-87 -24.5t-81 -17l77 -83q63 12 126.5 29.5t141.5 42t117 35.5q21 -11 21 -34q0 -7 -1 -10q-34 -89 -77 -163h-35l20 93
q-287 -97 -625 -146q-34 12 -34 41q0 17 14 45l237 42l-57 95l-175 -40q-41 8 -41 42q0 14 8 38z" />
    <glyph glyph-name="afii57671" unicode="&#x5d7;" horiz-adv-x="787" 
d="M253 200l20 -82l330 107q0 48 -16 93zM213 362l17 -80l343 113q0 26 -18 80zM617 575q68 -217 110 -543q-14 -37 -45 -37q-12 0 -32 5l-33 140l-327 -102l7 -23q-27 -28 -62 -28q-11 0 -22 3q-43 205 -153 588q20 28 55 28q21 0 42 -8l33 -160l350 117l-3 13q4 2 10 6.5
t10 6.5t9.5 4t11.5 2q14 0 39 -12z" />
    <glyph glyph-name="afii57672" unicode="&#x5d8;" horiz-adv-x="760" 
d="M423 315v-140q73 9 114 44.5t70 95.5h-184zM423 510v-118h172q-79 102 -172 118zM155 320q23 -69 68.5 -100.5t116.5 -47.5v148h-185zM340 513q-135 -29 -170 -113h173zM373 600q83 0 157 -30.5t122 -92t48 -139.5q0 -114 -99 -182t-228 -68q-125 0 -219 74.5t-94 189.5
q0 75 46 133t116.5 86.5t150.5 28.5z" />
    <glyph glyph-name="afii57673" unicode="&#x5d9;" horiz-adv-x="944" 
d="M70 505q186 89 482 163q68 -17 68 -98q-73 -230 -205 -480q66 22 135 55t159 81.5t131 68.5q44 -8 44 -45q0 -14 -6 -35q-28 -15 -123.5 -66.5t-140.5 -74.5t-123.5 -55.5t-148.5 -50.5q-14 -3 -25 -3q-26 0 -34 12.5t-8 37.5l140 297l-270 -102q-53 0 -53 30q0 17 16 40
l304 120l36 -15l64 167q-191 -44 -410 -127q-42 6 -42 36q0 7 10 44z" />
    <glyph glyph-name="afii57674" unicode="&#x5da;" horiz-adv-x="842" 
d="M487 595l90 -177q10 47 28 85t50 86.5t42 65.5q13 3 24 3q44 0 61 -53q-42 -34 -80.5 -124t-81.5 -214t-75 -189q-7 -13 -23.5 -43.5t-23.5 -42t-21.5 -35.5t-25 -37t-26.5 -31t-34 -32.5t-39 -28.5q-38 -26 -86 -39.5t-80 -16t-82 -2.5h-15q-29 9 -29 40q0 5 7 38
q11 1 46.5 4.5t47 5.5t40 7t43 11.5t37.5 16.5t42 25t39 34q88 95 147 266q-167 103 -274 204q-2 10 -2 13q0 33 52 60q104 -115 250 -197l4 20l-132 240q14 46 47 46q15 0 33 -9z" />
    <glyph glyph-name="afii57675" unicode="&#x5db;" horiz-adv-x="842" 
d="M487 595l90 -177q10 47 28 85t50 86.5t42 65.5q13 3 24 3q44 0 61 -53q-42 -34 -80.5 -124t-81.5 -214t-75 -189q-7 -13 -23.5 -43.5t-23.5 -42t-21.5 -35.5t-25 -37t-26.5 -31t-34 -32.5t-39 -28.5q-38 -26 -86 -39.5t-80 -16t-82 -2.5h-15q-29 9 -29 40q0 5 7 38
q11 1 46.5 4.5t47 5.5t40 7t43 11.5t37.5 16.5t42 25t39 34q88 95 147 266q-167 103 -274 204q-2 10 -2 13q0 33 52 60q104 -115 250 -197l4 20l-132 240q14 46 47 46q15 0 33 -9z" />
    <glyph glyph-name="afii57676" unicode="&#x5dc;" horiz-adv-x="788" 
d="M119 228q65 77 158 158.5t170.5 140.5t168.5 141.5t155 163.5q37 15 52 15q25 0 25 -31q0 -14 -2 -22q-66 -81 -156 -163t-167 -140.5t-174.5 -143t-171.5 -165.5q-15 -13 -22.5 -20.5t-16.5 -22.5t-9 -31q0 -17 13 -27.5t30 -10.5q8 0 15.5 3.5t11.5 7t11.5 12
t11.5 12.5q15 14 26.5 28t25.5 32t25 30q26 11 36 11q27 0 27 -56q-11 -13 -26.5 -32t-29 -33.5t-29.5 -29.5q-5 -4 -16 -14.5t-16 -14t-14 -10t-18.5 -10t-20.5 -6.5q-21 -5 -48 -5q-34 0 -57 17q-27 28 -27 86v14q0 28 20 65t39 51z" />
    <glyph glyph-name="afii57677" unicode="&#x5dd;" 
d="M88 -250q-28 16 -28 45q0 18 8 37q196 21 282 98q38 35 89 120q12 20 17 28l115 312l-90 38l-73 -96q-5 1 -21.5 1.5t-23.5 2.5t-14.5 10.5t-7.5 25.5l65 88l-65 22l-63 -72h-9q-45 0 -63 30q85 94 205 282q3 0 10 1t10 1q28 0 55 -36l-92 -138l64 -22q17 13 32 34t31 50
t25 43h8q42 0 60 -27q-39 -89 -80 -136l57 -17l105 160q18 5 28 5q34 0 52 -48q-88 -115 -115 -214q-44 -124 -68 -188t-66.5 -151t-80.5 -129q-137 -160 -327 -160h-31z" />
    <glyph glyph-name="afii57678" unicode="&#x5de;" 
d="M88 -250q-28 16 -28 45q0 18 8 37q196 21 282 98q38 35 89 120q12 20 17 28l115 312l-90 38l-73 -96q-5 1 -21.5 1.5t-23.5 2.5t-14.5 10.5t-7.5 25.5l65 88l-65 22l-63 -72h-9q-45 0 -63 30q85 94 205 282q3 0 10 1t10 1q28 0 55 -36l-92 -138l64 -22q17 13 32 34t31 50
t25 43h8q42 0 60 -27q-39 -89 -80 -136l57 -17l105 160q18 5 28 5q34 0 52 -48q-88 -115 -115 -214q-44 -124 -68 -188t-66.5 -151t-80.5 -129q-137 -160 -327 -160h-31z" />
    <glyph glyph-name="afii57679" unicode="&#x5df;" 
d="M88 -250q-28 16 -28 45q0 18 8 37q196 21 282 98q38 35 89 120q12 20 17 28l115 312q-107 38 -167 75l-23 -25q-3 0 -14 1t-15.5 1.5t-13 3.5t-12.5 7t-7 12.5t-3 19.5q8 0 68 90.5t74 122.5q20 0 48 -11t28 -29q-8 -15 -36 -63.5t-42 -64.5q38 -27 65.5 -38t69.5 -17
l105 160q18 5 28 5q34 0 52 -48q-88 -115 -115 -214q-44 -124 -68 -188t-66.5 -151t-80.5 -129q-137 -160 -326 -160h-32z" />
    <glyph glyph-name="afii57680" unicode="&#x5e0;" 
d="M88 -250q-28 16 -28 45q0 18 8 37q196 21 282 98q38 35 89 120q12 20 17 28l115 312q-107 38 -167 75l-23 -25q-3 0 -14 1t-15.5 1.5t-13 3.5t-12.5 7t-7 12.5t-3 19.5q8 0 68 90.5t74 122.5q20 0 48 -11t28 -29q-8 -15 -36 -63.5t-42 -64.5q38 -27 65.5 -38t69.5 -17
l105 160q18 5 28 5q34 0 52 -48q-88 -115 -115 -214q-44 -124 -68 -188t-66.5 -151t-80.5 -129q-137 -160 -326 -160h-32z" />
    <glyph glyph-name="afii57681" unicode="&#x5e1;" horiz-adv-x="682" 
d="M462 306h-366q-24 13 -24 32q0 16 24 46h418q23 0 39.5 -16.5t16.5 -41.5q0 -23 -12 -44q-37 -109 -73 -160t-85 -58q-2 1 -14 6.5t-18 12t-6 16.5q0 19 22 49q39 22 58.5 56t19.5 102zM258 260q0 21 11 31.5t27 10.5q17 0 32 -11t20 -31q0 -143 -10 -230.5t-43 -219.5
q-24 -28 -46 -28q-21 0 -44 28q3 11 11.5 38t10.5 34.5t8 29t7.5 30.5t5.5 28t5 32.5t2.5 33.5t2 41t0.5 46v137zM80 436q-9 11 -9 21q0 22 31 45h452q37 0 37 -20q0 -12 -21 -48q-26 -27 -39 -27q-11 0 -17 29h-434zM72 554q-12 10 -12 23q0 23 34 45h494q34 -12 34 -44
q0 -4 -1 -12t-1 -12q-46 -49 -64 -49q-11 0 -11 18q0 11 5 31h-478z" />
    <glyph glyph-name="afii57682" unicode="&#x5e2;" horiz-adv-x="680" 
d="M210 484q-21 -14 -21 -28q0 -10 9 -20l166 -86q12 -13 24 -13q11 0 20 15q52 24 75 55t43 91v12q0 10 -11 16q-151 0 -305 -42zM95 551q210 75 475 75q50 -23 50 -77q0 -7 -2 -23q-13 -42 -26 -75t-28 -58t-26.5 -41.5t-30 -33t-29 -25t-33 -24.5t-34.5 -25q-8 -5 -17 -5
q-16 0 -50 15q-15 9 -57.5 35.5t-61 39t-51 35t-58.5 44.5t-51 48q-5 20 -5 36q0 34 35 59z" />
    <glyph glyph-name="afii57683" unicode="&#x5e3;" horiz-adv-x="834" 
d="M607 502h-53q-112 0 -160 38q-22 21 -22 39q0 7 3.5 14t10 15.5t8.5 12.5q65 -36 151 -36q54 0 119 15l30 45q13 7 26 7q32 0 54 -47q-7 -14 -50 -83t-54 -104q-4 -11 -19.5 -56.5t-20.5 -59t-20 -54.5t-21.5 -57.5t-21 -52.5t-24 -54.5t-24.5 -48t-28 -49.5t-29 -43
t-33 -43q-49 -59 -106.5 -90t-98.5 -35.5t-83.5 -7t-56.5 -9.5q-24 15 -24 46q0 16 7 36q13 9 51 13t77 8t86.5 27.5t80.5 66.5q29 31 54.5 70.5t42.5 73t37.5 86.5t30.5 83.5t29.5 93t28.5 88.5q1 4 5.5 14.5t10 22.5t6.5 15z" />
    <glyph glyph-name="afii57684" unicode="&#x5e4;" horiz-adv-x="834" 
d="M607 502h-53q-112 0 -160 38q-22 21 -22 39q0 7 3.5 14t10 15.5t8.5 12.5q65 -36 151 -36q54 0 119 15l30 45q13 7 26 7q32 0 54 -47q-7 -14 -50 -83t-54 -104q-4 -11 -19.5 -56.5t-20.5 -59t-20 -54.5t-21.5 -57.5t-21 -52.5t-24 -54.5t-24.5 -48t-28 -49.5t-29 -43
t-33 -43q-49 -59 -106.5 -90t-98.5 -35.5t-83.5 -7t-56.5 -9.5q-24 15 -24 46q0 16 7 36q13 9 51 13t77 8t86.5 27.5t80.5 66.5q29 31 54.5 70.5t42.5 73t37.5 86.5t30.5 83.5t29.5 93t28.5 88.5q1 4 5.5 14.5t10 22.5t6.5 15z" />
    <glyph glyph-name="afii57685" unicode="&#x5e5;" horiz-adv-x="1089" 
d="M60 475q17 27 49 27q11 0 37 -4l14 -66q187 150 418 150q12 2 17 2q46 0 78 -36q2 -14 2 -20q0 -33 -19.5 -69.5t-38.5 -56.5l-19 -20q54 13 127 39.5t132.5 41.5t127.5 15h11q33 0 33 -50q0 -17 -6 -53q-10 -65 -46 -117.5t-87 -79.5q-82 -46 -170 -46q-14 0 -14 13
q0 11 12 17q13 7 43 22.5t50.5 28t46 33t45.5 50.5t33 69l-20 20l-636 -155q-28 16 -28 44q0 13 8 41q17 4 50 11.5t51 11.5t47.5 11.5t47 14t40 16t35.5 20t25.5 23.5t18 28.5t5.5 33.5q-220 0 -400 -140l13 -45q-19 -17 -52 -17q-8 0 -22.5 1t-20.5 1q-22 116 -38 190z
" />
    <glyph glyph-name="afii57686" unicode="&#x5e6;" horiz-adv-x="1089" 
d="M60 475q17 27 49 27q11 0 37 -4l14 -66q187 150 418 150q12 2 17 2q46 0 78 -36q2 -14 2 -20q0 -33 -19.5 -69.5t-38.5 -56.5l-19 -20q54 13 127 39.5t132.5 41.5t127.5 15h11q33 0 33 -50q0 -17 -6 -53q-10 -65 -46 -117.5t-87 -79.5q-82 -46 -170 -46q-14 0 -14 13
q0 11 12 17q13 7 43 22.5t50.5 28t46 33t45.5 50.5t33 69l-20 20l-636 -155q-28 16 -28 44q0 13 8 41q17 4 50 11.5t51 11.5t47.5 11.5t47 14t40 16t35.5 20t25.5 23.5t18 28.5t5.5 33.5q-220 0 -400 -140l13 -45q-19 -17 -52 -17q-8 0 -22.5 1t-20.5 1q-22 116 -38 190z
" />
    <glyph glyph-name="afii57687" unicode="&#x5e7;" horiz-adv-x="633" 
d="M398 320h-12l17 -102q58 70 73 102q16 34 16 67v6q0 54 -24 80q-26 26 -65 42.5t-70 16.5q-71 0 -180 -74q-5 -10 -1.5 -16t11.5 -9q78 -37 195 -37h37q10 0 10 -39q0 -37 -7 -37zM86 470q40 52 105 92t139 40q5 0 15 -1t16 -1q85 0 148.5 -62t63.5 -133q0 -50 -9.5 -77
t-31.5 -55t-31 -45l-85 -103q0 -40 5.5 -119.5t5.5 -117.5q0 -53 -6 -85q-22 -23 -46 -23q-21 0 -42 18v7q0 112 -1 174t-8.5 159.5t-22.5 181.5q-12 3 -61.5 10t-84 18t-77.5 35q-18 29 -18 41q0 20 26 46z" />
    <glyph glyph-name="afii57688" unicode="&#x5e8;" horiz-adv-x="543" 
d="M378 505l-210 -103l215 -74q-6 34 -6 86q0 14 0.5 44.5t0.5 46.5zM93 455l325 155q15 3 29 3q23 0 36 -15q-21 -181 -21 -388q0 -223 21 -380q-28 -30 -48 -30q-18 0 -39 22q-26 215 -26 418l-260 102q-50 10 -50 41q0 24 33 72z" />
    <glyph glyph-name="afii57689" unicode="&#x5e9;" horiz-adv-x="902" 
d="M114 560l210 -178l193 263h8q10 0 18 -2.5t14 -9t9.5 -11t9 -14t8.5 -13.5l-87 -130l125 -93l168 186q26 0 39 -11t13 -39l-162 -188q-7 -19 -10 -26t-10 -17.5t-16.5 -14.5t-23.5 -4l-170 140l-108 -140q-12 -2 -18 -2q-51 0 -57 52l10 10l-217 174q1 5 2 22.5t3 24.5
t11.5 14.5t26.5 7.5q2 0 5.5 -0.5t5.5 -0.5z" />
    <glyph glyph-name="afii57690" unicode="&#x5ea;" horiz-adv-x="546" 
d="M118 604l152 -132l148 134q12 2 16 2q44 0 52 -58l-144 -134l142 -126q-2 -3 -6.5 -12t-7 -12.5t-8 -10.5t-11 -11t-14 -9t-19.5 -9l-146 126l-122 -120q-62 8 -68 66l128 110l-150 132q1 4 3.5 15.5t5 17t8 13.5t16 12t25.5 6z" />
    <glyph glyph-name="uni2009" unicode="&#x2009;" horiz-adv-x="150" 
 />
    <glyph glyph-name="u10900" unicode="&#x10900;" horiz-adv-x="785" 
d="M706 398l-210 -40q65 -277 65 -486q0 -25 -22.5 -43.5t-38.5 -18.5q-17 0 -19 10q0 231 -90 600q-123 -32 -287 -32q-39 0 -44 32v2q0 9 10.5 23t18.5 14q17 -2 46 -2q112 0 241 31l-22 104v3q0 10 11 16.5t22 6.5q31 0 39 -18l23 -56l227 51q15 0 23.5 -10t8.5 -24
q0 -21 -19 -31l-218 -55l13 -45l211 40q30 -5 30 -38q0 -22 -19 -34z" />
    <glyph glyph-name="u10901" unicode="&#x10901;" horiz-adv-x="686" 
d="M536 516q-130 -50 -202 -112v-14l202 -40q0 16 2.5 52t2.5 55q0 34 -5 59zM534 604q48 0 82 -44q10 -94 10 -189q0 -105 -12 -199q-11 -49 -54 -62q-216 -85 -462 -110q-38 7 -38 29q0 21 33 61q171 0 429 92l10 92l-298 58q-12 12 -12 29q0 19 14 47q106 111 298 196z
" />
    <glyph glyph-name="u10902" unicode="&#x10902;" horiz-adv-x="604" 
d="M64 500q18 10 38 18.5t35.5 15t40.5 14t36 11t41 10.5t36.5 8.5t41.5 9t38 8.5q24 0 41.5 -6t22 -10t19.5 -17q90 -263 90 -574q-3 -2 -15 -11.5t-16.5 -12.5l-13.5 -9t-15.5 -8t-13.5 -2q-22 0 -36 30q0 255 -75 523q-130 -19 -265 -76q-34 14 -34 50q0 13 4 28z" />
    <glyph glyph-name="u10903" unicode="&#x10903;" horiz-adv-x="756" 
d="M386 490q-110 -68 -205 -160q83 -12 185 -12q94 0 180 10zM459 538q125 -111 217 -223q0 -2 10 -13t10 -14q0 -20 -15 -43.5t-35 -34.5l-42 30q-50 0 -151 -4t-154 -4q-107 0 -193 13q-46 6 -46 41q0 20 9 44q51 61 117 120t112 94t126 91q19 -7 32.5 -20.5t18.5 -23
t14 -29.5z" />
    <glyph glyph-name="u10904" unicode="&#x10904;" horiz-adv-x="829" 
d="M466 530q86 -104 154.5 -221t148.5 -279q-23 -59 -62 -59q-26 0 -61 29l-72 155q-190 -153 -423 -215q-59 14 -59 32q0 12 24 28q201 75 425 222l-45 76l-225 -148q-15 -3 -26 -3q-34 0 -34 28q0 15 10 40l233 150l-68 110q-116 -69 -292 -223q-4 6 -13 10t-15 11.5
t-6 24.5q0 15 4 32q53 63 106.5 113t113.5 89.5t101 62.5t109 57q45 -20 45 -87z" />
    <glyph glyph-name="u10905" unicode="&#x10905;" horiz-adv-x="516" 
d="M165 538l110 -50l113 104q12 2 18 2q20 0 32 -8.5t15 -18t3 -19.5q0 -2 -0.5 -4.5t-0.5 -3.5l-120 -118q45 -171 45 -457q-34 -51 -58 -51q-19 0 -40 26q7 62 7 139q0 125 -34 273l-75 -64q-30 0 -43.5 14.5t-16.5 42.5l95 83l-137 74q-18 10 -18 24q0 13 15 32l86 88
q6 2 11 2q11 0 20 -6t20 -19t16 -17z" />
    <glyph glyph-name="u10906" unicode="&#x10906;" horiz-adv-x="894" 
d="M68 455q267 28 718 195q32 -8 32 -35q0 -15 -10 -37.5t-25.5 -50t-21.5 -42.5l-28 -5l20 72q-21 -7 -75.5 -27t-83.5 -30.5t-75 -25t-87 -24.5t-81 -17l77 -83q63 12 126.5 29.5t141.5 42t117 35.5q21 -11 21 -34q0 -7 -1 -10q-34 -89 -77 -163h-35l20 93
q-287 -97 -625 -146q-34 12 -34 41q0 17 14 45l237 42l-57 95l-175 -40q-41 8 -41 42q0 14 8 38z" />
    <glyph glyph-name="u10907" unicode="&#x10907;" horiz-adv-x="787" 
d="M253 200l20 -82l330 107q0 48 -16 93zM213 362l17 -80l343 113q0 26 -18 80zM617 575q68 -217 110 -543q-14 -37 -45 -37q-12 0 -32 5l-33 140l-327 -102l7 -23q-27 -28 -62 -28q-11 0 -22 3q-43 205 -153 588q20 28 55 28q21 0 42 -8l33 -160l350 117l-3 13q4 2 10 6.5
t10 6.5t9.5 4t11.5 2q14 0 39 -12z" />
    <glyph glyph-name="u10908" unicode="&#x10908;" horiz-adv-x="760" 
d="M423 315v-140q73 9 114 44.5t70 95.5h-184zM423 510v-118h172q-79 102 -172 118zM155 320q23 -69 68.5 -100.5t116.5 -47.5v148h-185zM340 513q-135 -29 -170 -113h173zM373 600q83 0 157 -30.5t122 -92t48 -139.5q0 -114 -99 -182t-228 -68q-125 0 -219 74.5t-94 189.5
q0 75 46 133t116.5 86.5t150.5 28.5z" />
    <glyph glyph-name="u10909" unicode="&#x10909;" horiz-adv-x="944" 
d="M70 505q186 89 482 163q68 -17 68 -98q-73 -230 -205 -480q66 22 135 55t159 81.5t131 68.5q44 -8 44 -45q0 -14 -6 -35q-28 -15 -123.5 -66.5t-140.5 -74.5t-123.5 -55.5t-148.5 -50.5q-14 -3 -25 -3q-26 0 -34 12.5t-8 37.5l140 297l-270 -102q-53 0 -53 30q0 17 16 40
l304 120l36 -15l64 167q-191 -44 -410 -127q-42 6 -42 36q0 7 10 44z" />
    <glyph glyph-name="u1090A" unicode="&#x1090a;" horiz-adv-x="842" 
d="M487 595l90 -177q10 47 28 85t50 86.5t42 65.5q13 3 24 3q44 0 61 -53q-42 -34 -80.5 -124t-81.5 -214t-75 -189q-7 -13 -23.5 -43.5t-23.5 -42t-21.5 -35.5t-25 -37t-26.5 -31t-34 -32.5t-39 -28.5q-38 -26 -86 -39.5t-80 -16t-82 -2.5h-15q-29 9 -29 40q0 5 7 38
q11 1 46.5 4.5t47 5.5t40 7t43 11.5t37.5 16.5t42 25t39 34q88 95 147 266q-167 103 -274 204q-2 10 -2 13q0 33 52 60q104 -115 250 -197l4 20l-132 240q14 46 47 46q15 0 33 -9z" />
    <glyph glyph-name="u1090B" unicode="&#x1090b;" horiz-adv-x="788" 
d="M119 228q65 77 158 158.5t170.5 140.5t168.5 141.5t155 163.5q37 15 52 15q25 0 25 -31q0 -14 -2 -22q-66 -81 -156 -163t-167 -140.5t-174.5 -143t-171.5 -165.5q-15 -13 -22.5 -20.5t-16.5 -22.5t-9 -31q0 -17 13 -27.5t30 -10.5q8 0 15.5 3.5t11.5 7t11.5 12
t11.5 12.5q15 14 26.5 28t25.5 32t25 30q26 11 36 11q27 0 27 -56q-11 -13 -26.5 -32t-29 -33.5t-29.5 -29.5q-5 -4 -16 -14.5t-16 -14t-14 -10t-18.5 -10t-20.5 -6.5q-21 -5 -48 -5q-34 0 -57 17q-27 28 -27 86v14q0 28 20 65t39 51z" />
    <glyph glyph-name="u1090C" unicode="&#x1090c;" 
d="M88 -250q-28 16 -28 45q0 18 8 37q196 21 282 98q38 35 89 120q12 20 17 28l115 312l-90 38l-73 -96q-5 1 -21.5 1.5t-23.5 2.5t-14.5 10.5t-7.5 25.5l65 88l-65 22l-63 -72h-9q-45 0 -63 30q85 94 205 282q3 0 10 1t10 1q28 0 55 -36l-92 -138l64 -22q17 13 32 34t31 50
t25 43h8q42 0 60 -27q-39 -89 -80 -136l57 -17l105 160q18 5 28 5q34 0 52 -48q-88 -115 -115 -214q-44 -124 -68 -188t-66.5 -151t-80.5 -129q-137 -160 -327 -160h-31z" />
    <glyph glyph-name="u1090D" unicode="&#x1090d;" 
d="M88 -250q-28 16 -28 45q0 18 8 37q196 21 282 98q38 35 89 120q12 20 17 28l115 312q-107 38 -167 75l-23 -25q-3 0 -14 1t-15.5 1.5t-13 3.5t-12.5 7t-7 12.5t-3 19.5q8 0 68 90.5t74 122.5q20 0 48 -11t28 -29q-8 -15 -36 -63.5t-42 -64.5q38 -27 65.5 -38t69.5 -17
l105 160q18 5 28 5q34 0 52 -48q-88 -115 -115 -214q-44 -124 -68 -188t-66.5 -151t-80.5 -129q-137 -160 -326 -160h-32z" />
    <glyph glyph-name="u1090E" unicode="&#x1090e;" horiz-adv-x="682" 
d="M462 306h-366q-24 13 -24 32q0 16 24 46h418q23 0 39.5 -16.5t16.5 -41.5q0 -23 -12 -44q-37 -109 -73 -160t-85 -58q-2 1 -14 6.5t-18 12t-6 16.5q0 19 22 49q39 22 58.5 56t19.5 102zM258 260q0 21 11 31.5t27 10.5q17 0 32 -11t20 -31q0 -143 -10 -230.5t-43 -219.5
q-24 -28 -46 -28q-21 0 -44 28q3 11 11.5 38t10.5 34.5t8 29t7.5 30.5t5.5 28t5 32.5t2.5 33.5t2 41t0.5 46v137zM80 436q-9 11 -9 21q0 22 31 45h452q37 0 37 -20q0 -12 -21 -48q-26 -27 -39 -27q-11 0 -17 29h-434zM72 554q-12 10 -12 23q0 23 34 45h494q34 -12 34 -44
q0 -4 -1 -12t-1 -12q-46 -49 -64 -49q-11 0 -11 18q0 11 5 31h-478z" />
    <glyph glyph-name="u1090F" unicode="&#x1090f;" horiz-adv-x="680" 
d="M210 484q-21 -14 -21 -28q0 -10 9 -20l166 -86q12 -13 24 -13q11 0 20 15q52 24 75 55t43 91v12q0 10 -11 16q-151 0 -305 -42zM95 551q210 75 475 75q50 -23 50 -77q0 -7 -2 -23q-13 -42 -26 -75t-28 -58t-26.5 -41.5t-30 -33t-29 -25t-33 -24.5t-34.5 -25q-8 -5 -17 -5
q-16 0 -50 15q-15 9 -57.5 35.5t-61 39t-51 35t-58.5 44.5t-51 48q-5 20 -5 36q0 34 35 59z" />
    <glyph glyph-name="u10910" unicode="&#x10910;" horiz-adv-x="834" 
d="M607 502h-53q-112 0 -160 38q-22 21 -22 39q0 7 3.5 14t10 15.5t8.5 12.5q65 -36 151 -36q54 0 119 15l30 45q13 7 26 7q32 0 54 -47q-7 -14 -50 -83t-54 -104q-4 -11 -19.5 -56.5t-20.5 -59t-20 -54.5t-21.5 -57.5t-21 -52.5t-24 -54.5t-24.5 -48t-28 -49.5t-29 -43
t-33 -43q-49 -59 -106.5 -90t-98.5 -35.5t-83.5 -7t-56.5 -9.5q-24 15 -24 46q0 16 7 36q13 9 51 13t77 8t86.5 27.5t80.5 66.5q29 31 54.5 70.5t42.5 73t37.5 86.5t30.5 83.5t29.5 93t28.5 88.5q1 4 5.5 14.5t10 22.5t6.5 15z" />
    <glyph glyph-name="u10911" unicode="&#x10911;" horiz-adv-x="1089" 
d="M60 475q17 27 49 27q11 0 37 -4l14 -66q187 150 418 150q12 2 17 2q46 0 78 -36q2 -14 2 -20q0 -33 -19.5 -69.5t-38.5 -56.5l-19 -20q54 13 127 39.5t132.5 41.5t127.5 15h11q33 0 33 -50q0 -17 -6 -53q-10 -65 -46 -117.5t-87 -79.5q-82 -46 -170 -46q-14 0 -14 13
q0 11 12 17q13 7 43 22.5t50.5 28t46 33t45.5 50.5t33 69l-20 20l-636 -155q-28 16 -28 44q0 13 8 41q17 4 50 11.5t51 11.5t47.5 11.5t47 14t40 16t35.5 20t25.5 23.5t18 28.5t5.5 33.5q-220 0 -400 -140l13 -45q-19 -17 -52 -17q-8 0 -22.5 1t-20.5 1q-22 116 -38 190z
" />
    <glyph glyph-name="u10912" unicode="&#x10912;" horiz-adv-x="633" 
d="M398 320h-12l17 -102q58 70 73 102q16 34 16 67v6q0 54 -24 80q-26 26 -65 42.5t-70 16.5q-71 0 -180 -74q-5 -10 -1.5 -16t11.5 -9q78 -37 195 -37h37q10 0 10 -39q0 -37 -7 -37zM86 470q40 52 105 92t139 40q5 0 15 -1t16 -1q85 0 148.5 -62t63.5 -133q0 -50 -9.5 -77
t-31.5 -55t-31 -45l-85 -103q0 -40 5.5 -119.5t5.5 -117.5q0 -53 -6 -85q-22 -23 -46 -23q-21 0 -42 18v7q0 112 -1 174t-8.5 159.5t-22.5 181.5q-12 3 -61.5 10t-84 18t-77.5 35q-18 29 -18 41q0 20 26 46z" />
    <glyph glyph-name="u10913" unicode="&#x10913;" horiz-adv-x="543" 
d="M378 505l-210 -103l215 -74q-6 34 -6 86q0 14 0.5 44.5t0.5 46.5zM93 455l325 155q15 3 29 3q23 0 36 -15q-21 -181 -21 -388q0 -223 21 -380q-28 -30 -48 -30q-18 0 -39 22q-26 215 -26 418l-260 102q-50 10 -50 41q0 24 33 72z" />
    <glyph glyph-name="u10914" unicode="&#x10914;" horiz-adv-x="902" 
d="M114 560l210 -178l193 263h8q10 0 18 -2.5t14 -9t9.5 -11t9 -14t8.5 -13.5l-87 -130l125 -93l168 186q26 0 39 -11t13 -39l-162 -188q-7 -19 -10 -26t-10 -17.5t-16.5 -14.5t-23.5 -4l-170 140l-108 -140q-12 -2 -18 -2q-51 0 -57 52l10 10l-217 174q1 5 2 22.5t3 24.5
t11.5 14.5t26.5 7.5q2 0 5.5 -0.5t5.5 -0.5z" />
    <glyph glyph-name="u10915" unicode="&#x10915;" horiz-adv-x="546" 
d="M118 604l152 -132l148 134q12 2 16 2q44 0 52 -58l-144 -134l142 -126q-2 -3 -6.5 -12t-7 -12.5t-8 -10.5t-11 -11t-14 -9t-19.5 -9l-146 126l-122 -120q-62 8 -68 66l128 110l-150 132q1 4 3.5 15.5t5 17t8 13.5t16 12t25.5 6z" />
    <glyph glyph-name="u10916" unicode="&#x10916;" horiz-adv-x="184" 
d="M50 56v434q19 18 42 18q22 0 42 -18v-434q-24 -14 -45 -14t-39 14z" />
    <glyph glyph-name="u10917" unicode="&#x10917;" horiz-adv-x="567" 
d="M93 526h329q53 0 74 -22t21 -62v-4q0 -108 -115 -167q-9 -3 -17 -3q-16 0 -16 8q0 6 9 14q55 48 55 107q0 33 -16 48t-62 15h-282q-23 0 -23 12q0 15 15 34.5t28 19.5z" />
    <glyph glyph-name="u10918" unicode="&#x10918;" horiz-adv-x="509" 
d="M86 556h244q12 -2 23 -9.5t11 -16.5q0 -4 -3.5 -8.5t-12.5 -13.5l-12 -12l-120 -106h218q25 -11 25 -24q0 -8 -7 -18l-314 -282q-57 0 -57 38q0 13 11 32l182 152h-206q-18 6 -18 34q0 34 18 48l148 106h-136q-9 1 -14.5 11.5t-5.5 19.5q0 14 8 31.5t18 17.5z" />
    <glyph glyph-name="u10919" unicode="&#x10919;" horiz-adv-x="538" 
d="M50 382q70 93 178 192l70 -64l54 40q35 -4 42 -40l-38 -48l132 -190q0 -65 -43 -65q-10 0 -25 5l-170 228q-6 18 -19 18q-14 0 -39 -20l-88 -104q-54 16 -54 48z" />
    <glyph glyph-name="u1091F" unicode="&#x1091f;" horiz-adv-x="369" 
d="M90 290q0 39 30.5 67.5t69.5 28.5q38 0 63.5 -28t25.5 -68q0 -39 -27.5 -67t-66.5 -28q-38 0 -66.5 28.5t-28.5 66.5z" />
  </font>
</defs>
</svg>
