<?xml version="1.0" standalone="no"?>
<!DOCTYPE svg PUBLIC "-//W3C//DTD SVG 1.1//EN" "http://www.w3.org/Graphics/SVG/1.1/DTD/svg11.dtd" >
<svg xmlns="http://www.w3.org/2000/svg" xmlns:xlink="http://www.w3.org/1999/xlink" version="1.1">
<metadata>
Created by FontForge 20170910 at Wed Mar 17 16:09:02 2010
 By Jimmy Wärting
Created by Yoram Gnat with FontForge 1.0 (http://fontforge.sf.net)

Copyright .2007 by Yoram Gnat
(yoram.gnat@gmail.com). 

Distributed under the terms of GNU General Public License version 2(http://www.gnu.org/licenses/gpl.html).

As a special exception, if you create a document which uses this font, and embed this font or unaltered portions of this font into the document, this font does not by itself cause the resulting document to be covered by the GNU General Public License. This exception does not however invalidate any other reasons why the document might be covered by the GNU General Public License. If you modify this font, you may extend this exception to your version of the font, but you are not obligated to do so. If you do not wish to do so, delete this exception statement from your version.



</metadata>
<defs>
<font id="Hebrew-Square-BenKosba" horiz-adv-x="1267" >
  <font-face 
    font-family="Hebrew Square BenKosba"
    font-weight="500"
    font-stretch="normal"
    units-per-em="2048"
    panose-1="2 0 6 3 0 0 0 0 0 0"
    ascent="1638"
    descent="-410"
    bbox="0 -433 2066 1659"
    underline-thickness="124"
    underline-position="-375"
    unicode-range="U+0020-05EA"
  />
<missing-glyph horiz-adv-x="748" 
d="M68 0v1365h544v-1365h-544zM136 68h408v1229h-408v-1229z" />
    <glyph glyph-name=".notdef" horiz-adv-x="748" 
d="M68 0v1365h544v-1365h-544zM136 68h408v1229h-408v-1229z" />
    <glyph glyph-name=".null" horiz-adv-x="0" 
 />
    <glyph glyph-name="nonmarkingreturn" horiz-adv-x="682" 
 />
    <glyph glyph-name="space" unicode=" " horiz-adv-x="649" 
 />
    <glyph glyph-name="exclam" unicode="!" horiz-adv-x="671" 
d="M207 102q0 56 39 95t94 39q54 0 92.5 -39.5t38.5 -94.5t-38.5 -94t-92.5 -39q-55 0 -94 39t-39 94zM240 553v686q-39 31 -39 76q0 42 30 72t72 30h37q44 0 73 -29t29 -73v-762q19 -26 19 -59q0 -42 -30.5 -71.5t-72.5 -29.5h-34q-44 0 -74.5 29.5t-30.5 71.5q0 34 21 59z
" />
    <glyph glyph-name="quotedbl" unicode="&#x22;" horiz-adv-x="1101" 
d="M696 1223q-27 12 -44 37t-17 55q0 41 30.5 71.5t71.5 30.5h60q42 0 71 -26t29 -68q0 -11 2 -33t2 -33q0 -185 -82 -372q-12 -29 -37 -45.5t-55 -16.5q-24 0 -41 8q-28 13 -44 38t-16 55q0 20 9 41q61 146 61 258zM274 1223q-26 12 -42.5 37t-16.5 55q0 41 29.5 71.5
t70.5 30.5h60q42 0 71 -26t29 -68q0 -11 2 -33t2 -33q0 -185 -82 -372q-12 -29 -37 -45.5t-56 -16.5q-23 0 -42 8q-27 14 -43.5 39.5t-16.5 54.5q0 21 9 40q63 143 63 258z" />
    <glyph glyph-name="numbersign" unicode="#" horiz-adv-x="1581" 
d="M578 1163q-9 21 -9 42v22q8 35 36.5 56.5t63.5 21.5q15 0 23 -2l37 -7q35 -9 57.5 -37.5t22.5 -62.5q0 -13 -2 -20q-10 -35 -31 -56l-37 -149h256l43 192q-8 21 -8 41v23q7 35 36.5 56.5t65.5 21.5q15 0 23 -2l37 -7q34 -9 55.5 -36t21.5 -60q0 -12 -3 -24
q-10 -36 -29 -56l-33 -143h17q29 18 61 18q42 0 71 -29t29 -71v-37q0 -42 -29 -71t-71 -29q-33 0 -55 16h-68l-45 -203h107q26 21 61 21q41 0 70.5 -30t29.5 -73v-34q0 -43 -29.5 -74t-70.5 -31q-31 0 -55 19h-156l-51 -236q7 -15 7 -34q0 -13 -3 -27q-9 -34 -37.5 -56
t-61.5 -22q-13 0 -20 2l-39 8q-34 9 -55.5 38t-21.5 65v6v7.5v6.5q13 34 34 49l41 182h-262l-45 -223q8 -21 8 -41q0 -8 -2 -22q-7 -35 -35 -56.5t-64 -21.5q-15 0 -22 2l-36 8q-36 7 -58.5 35.5t-22.5 64.5q0 11 3 23q6 29 30 49l37 166h-30q-25 -18 -62 -18
q-42 0 -72 28.5t-30 71.5v37q0 41 30.5 70.5t71.5 29.5q31 0 55 -14h80l49 205h-122q-33 -25 -62 -25q-41 0 -71.5 29.5t-30.5 70.5v37q0 43 30 73t72 30q41 0 55 -13h172zM694 766l-43 -205h254l47 205h-258z" />
    <glyph glyph-name="dollar" unicode="$" horiz-adv-x="1425" 
d="M1204 1010h-258q0 94 -41 152.5t-117 68.5v-408q236 -65 336.5 -163t100.5 -265q0 -114 -46.5 -207.5t-127.5 -146.5q-102 -67 -263 -84v-213h-137v213q-85 0 -146 23.5t-128 70.5q-176 125 -176 350v19h268q0 -104 47.5 -167t134.5 -77v430q-413 93 -413 430
q0 176 110.5 288t302.5 112v108h137v-108q189 0 302.5 -118.5t113.5 -307.5zM651 864v367q-84 -17 -124 -62.5t-40 -124.5q0 -67 39 -109.5t125 -70.5zM788 571v-395q170 38 170 195q0 149 -170 200z" />
    <glyph glyph-name="percent" unicode="%" horiz-adv-x="1538" 
d="M365 965q0 -41 11.5 -75t37.5 -34q47 0 75 10t42 35.5t18 55t4 81.5q0 97 -55 97q-86 0 -109.5 -34t-23.5 -136zM498 1296q104 0 161.5 -74t57.5 -184q0 -169 -72 -256.5t-231 -87.5q-70 0 -120 41.5t-71.5 101t-21.5 128.5q0 171 72.5 251t224.5 80zM987 272
q0 -106 49 -106q88 0 114 40t26 142q0 40 -14.5 67t-43.5 27q-46 0 -71.5 -7.5t-39 -30t-17 -50.5t-3.5 -82zM1118 602q102 0 160.5 -73t58.5 -181q0 -171 -71.5 -257.5t-229.5 -86.5q-103 0 -158 80.5t-55 187.5q0 168 70.5 249t224.5 81zM342 186l653 1031q0 29 17 61
q31 45 88 45q30 0 55 -16l29 -23q44 -29 44 -83q0 -32 -16 -58q-18 -25 -45 -35l-655 -1034q0 -36 -16 -58q-30 -44 -84 -44q-31 0 -58 18l-30 18q-44 33 -44 86q0 31 17 58q18 25 45 34z" />
    <glyph glyph-name="ampersand" unicode="&#x26;" horiz-adv-x="1695" 
d="M1155 756h229v-23v-10q0 -114 -38 -227t-99 -185l248 -311h-326l-92 115q-123 -93 -206.5 -127.5t-188.5 -34.5q-216 0 -348.5 120t-132.5 316q0 144 70.5 237t248.5 187q-19 26 -24 29l-58 69q-84 104 -84 215q0 142 110.5 240t272.5 98q163 0 261 -86t98 -227
q0 -110 -50.5 -187t-183.5 -169l232 -291q34 63 47.5 114.5t13.5 116.5v21zM655 645l-96 -57q-41 -26 -64.5 -69t-23.5 -93q0 -92 66.5 -165t148.5 -73q100 0 244 111zM733 952q123 64 123 174q0 55 -30.5 85t-86.5 30q-52 0 -85 -26.5t-33 -69.5q0 -37 17.5 -67t94.5 -126z
" />
    <glyph glyph-name="quotesingle" unicode="'" horiz-adv-x="677" 
d="M274 1223q-26 12 -42.5 37.5t-16.5 54.5q0 43 29.5 72.5t70.5 29.5h60q42 0 71 -26t29 -68q0 -11 2 -32t2 -34q0 -177 -82 -374q-12 -28 -37 -44.5t-55 -16.5q-22 0 -43 9q-27 12 -43.5 37t-16.5 55q0 21 9 42q63 143 63 258z" />
    <glyph glyph-name="parenleft" unicode="(" horiz-adv-x="913" 
d="M618 1180q-212 -220 -212 -549v-4q0 -165 51.5 -293t156.5 -248q41 -5 68 -33.5t27 -68.5q0 -42 -29.5 -71.5t-71.5 -29.5h-37q-46 0 -73 31q-297 312 -297 713v4q0 219 79.5 402.5t225.5 322.5q26 26 69 26h37q42 0 71.5 -29t29.5 -71q0 -41 -28 -71.5t-67 -30.5z" />
    <glyph glyph-name="parenright" unicode=")" horiz-adv-x="913" 
d="M299 1180q-38 0 -65 31t-27 71q0 43 28.5 71.5t71.5 28.5h37q43 0 74 -32q142 -152 218.5 -326.5t76.5 -386.5v-2q0 -433 -305 -725q-24 -27 -68 -27h-37q-42 0 -72 29.5t-30 71.5q0 40 28.5 71t69.5 31q211 221 211 549v2q0 167 -52 296.5t-159 246.5z" />
    <glyph glyph-name="asterisk" unicode="*" horiz-adv-x="1402" 
d="M553 651l-234 76q-12 -3 -24 -3q-14 0 -29 5q-29 9 -46 34.5t-17 55.5q0 15 4 27l10 31q10 30 34.5 48t55.5 18q13 0 31 -5q33 -15 45 -33l227 -74v240q-16 30 -16 55q0 39 27 67t65 28h33q39 0 66.5 -28t27.5 -67q0 -25 -14 -51v-244l225 74q13 25 47 35q12 4 28 4
q31 0 57.5 -17t35.5 -46l6 -33q6 -15 6 -31q0 -28 -17.5 -52t-45.5 -34q-19 -7 -31 -7q-1 0 -16 3l-238 -76l139 -196q32 -10 49 -33q19 -26 19 -58q0 -46 -37 -73l-27 -19q-25 -18 -57 -18q-48 0 -76 37q-14 20 -18 49l-146 201l-143 -199q0 -28 -18 -49q-29 -40 -75 -40
q-31 0 -54 19l-27 19q-39 31 -39 78q0 30 19 55q17 23 47 33z" />
    <glyph glyph-name="plus" unicode="+" horiz-adv-x="1306" 
d="M358 692h199v199q-18 21 -18 57q0 44 29 73.5t71 29.5h37q43 0 72.5 -29t29.5 -74q0 -36 -18 -57v-180h184q28 20 60 20q43 0 72.5 -29.5t29.5 -70.5v-37q0 -43 -29.5 -72.5t-72.5 -29.5q-28 0 -56 18h-188v-205q18 -27 18 -57q0 -43 -29.5 -73t-72.5 -30h-37
q-41 0 -70.5 30t-29.5 73q0 30 18 57v184h-192q-3 -2 -13 -8.5t-16 -9.5t-15.5 -6.5t-17.5 -3.5q-42 0 -72 29t-30 71v35q0 44 30 73t72 29q5 0 13.5 0.5t12.5 0.5q19 0 29 -7z" />
    <glyph glyph-name="comma" unicode="," horiz-adv-x="679" 
d="M479 59q0 -131 -19 -230.5t-63 -201.5q-13 -28 -38.5 -44t-56.5 -16q-22 0 -40 7q-27 13 -43.5 39t-16.5 56q0 21 9 40q63 140 63 256q-26 13 -42.5 38.5t-16.5 55.5q0 55 38.5 94.5t92.5 39.5q55 0 94 -39t39 -95z" />
    <glyph glyph-name="hyphen" unicode="-" 
d="M358 705h547q28 20 62 20q40 0 70 -29.5t30 -70.5v-37q0 -43 -29.5 -72t-70.5 -29q-32 0 -56 17h-546q-6 -4 -17.5 -17t-23 -21.5t-21.5 -8.5q-41 0 -71.5 30.5t-30.5 71.5v35q0 42 30 72t72 30q8 0 23 6.5t21 6.5t11 -4z" />
    <glyph glyph-name="period" unicode="." horiz-adv-x="667" 
d="M201 102q0 55 39.5 94.5t95.5 39.5q54 0 93.5 -39.5t39.5 -94.5t-39.5 -94t-93.5 -39q-56 0 -95.5 39t-39.5 94z" />
    <glyph glyph-name="slash" unicode="/" horiz-adv-x="1163" 
d="M250 117l477 1161q-1 0 -1 10l1 11q0 21 8 40q14 29 39.5 45.5t55.5 16.5q22 0 38 -8l33 -13q29 -13 45.5 -38.5t16.5 -55.5q0 -21 -9 -41q-14 -31 -36 -45l-482 -1165q1 -6 1 -20q0 -22 -7 -40q-13 -27 -40 -43.5t-57 -16.5q-19 0 -36 7l-35 17q-27 11 -43.5 36.5
t-16.5 55.5q0 21 9 41q6 20 39 45z" />
    <glyph glyph-name="zero" unicode="0" horiz-adv-x="1224" 
d="M278 565q0 -103 24.5 -185.5t77 -134.5t125.5 -52q68 0 124.5 10t99 26.5t76 44t56.5 56.5t39.5 70t26 78.5t14.5 88t6.5 92t1.5 97.5q0 157 -61.5 248.5t-175.5 91.5q-68 0 -124.5 -10t-98 -25.5t-74.5 -42.5t-55 -54t-38 -67t-24 -74t-13 -83t-6 -85.5t-1 -89.5z
M712 1300q90 0 164 -31t124 -83t84.5 -122.5t50 -147.5t15.5 -160q0 -88 -5 -158.5t-21 -153t-43.5 -145t-76.5 -123t-115.5 -99.5t-164 -63t-219.5 -24q-79 0 -145.5 26t-112 71t-79.5 102t-53.5 123t-28.5 128.5t-9 124.5q0 85 4.5 150.5t19.5 145.5t41.5 139.5
t74.5 118.5t113.5 96.5t162.5 61t219 23.5z" />
    <glyph glyph-name="one" unicode="1" horiz-adv-x="958" 
d="M202 199h221v848l-168 -68q-28 -41 -82 -41q-42 0 -71 29t-29 71v37q0 43 28.5 72t71.5 29h22l291 114q20 10 41 10q28 0 56 -18q43 -32 43 -86v-979h161q33 21 62 21q43 0 72.5 -30t29.5 -73v-37q0 -41 -29.5 -69.5t-72.5 -28.5q-29 0 -53 12h-590q-3 -3 -12 -13
t-15 -16.5t-15.5 -12t-17.5 -5.5q-41 0 -70.5 30t-29.5 73v34q0 43 29.5 73t70.5 30q5 0 14.5 0.5t13.5 0.5q18 0 28 -7z" />
    <glyph glyph-name="two" unicode="2" horiz-adv-x="1206" 
d="M284 991q-7 -34 -35.5 -57t-65.5 -23q-42 0 -71 29t-29 72v37q0 54 45 84q129 90 271 128.5t325 38.5q189 0 289 -94t100 -280q0 -82 -27 -153.5t-72 -126.5t-115 -106t-142.5 -89t-167.5 -78q-36 -16 -89 -35t-82.5 -30.5t-63 -33t-56.5 -49.5h676q23 19 59 19
q43 0 74 -29t31 -72v-34q0 -43 -31 -73t-74 -30q-28 0 -53 17h-830q-12 0 -31.5 -8.5t-27.5 -8.5q-10 0 -18 10q-30 32 -30 68q0 8 1 12q11 67 34.5 123t61.5 100.5t75.5 77.5t94 64.5t97 51t104.5 46.5q217 92 307 175.5t90 191.5q0 100 -40 135t-144 35q-149 0 -247.5 -23
t-192.5 -82z" />
    <glyph glyph-name="three" unicode="3" horiz-adv-x="1161" 
d="M290 1010q-6 -34 -34.5 -57t-63.5 -23q-42 0 -71 29t-29 71v37q0 56 45 84q118 82 256 115.5t309 33.5q154 0 252 -78.5t98 -207.5q0 -131 -100 -213q68 -44 104.5 -105.5t36.5 -158.5q0 -115 -42 -210t-109.5 -156t-156 -103t-177.5 -60t-178 -18q-123 0 -222 41
t-135 125q-10 17 -10 48v32q0 41 29.5 70.5t70.5 29.5q44 0 72.5 -29.5t28.5 -75.5q62 -38 166 -38q90 0 171 21t146.5 62t104 108.5t38.5 152.5q0 133 -237 133q-39 0 -88 -7h-14q-38 0 -66 24.5t-33 62.5q-1 6 -1 17q0 37 22.5 64.5t60.5 32.5q37 7 51 10t51 11t54.5 14
t47.5 15.5t45.5 19t33 22t25 27.5t7.5 31q0 41 -39.5 61.5t-107.5 20.5q-135 0 -231.5 -19.5t-180.5 -66.5z" />
    <glyph glyph-name="four" unicode="4" horiz-adv-x="1168" 
d="M1043 430v-272q12 -20 12 -56q0 -43 -29 -72.5t-73 -29.5h-37q-40 0 -69.5 30t-29.5 72q0 16 25 58v248h-709q-12 0 -31.5 -4.5t-27.5 -4.5q-17 0 -27 15q-21 27 -21 55q0 20 9 41l256 666q-4 12 -4 22q0 42 30 72t72 30h35q43 0 73 -29.5t30 -72.5q0 -51 -41 -80
l-207 -506h573v445q-18 25 -18 55q0 43 30 74t70 31h39q42 0 71 -31t29 -74q0 -32 -18 -59v-451q37 -23 37 -78q0 -28 -13.5 -54t-35.5 -40z" />
    <glyph glyph-name="five" unicode="5" horiz-adv-x="1128" 
d="M864 1094h-541v-185q147 62 334 62q104 0 197 -49t151.5 -139t58.5 -199q0 -104 -35.5 -198t-97.5 -165t-143.5 -123.5t-176.5 -80t-194 -27.5q-241 0 -340 155q-12 19 -12 55v33q0 43 29 72t71 29q44 0 72.5 -29.5t28.5 -75.5q41 -36 151 -36q120 0 222.5 51.5
t163.5 142t61 197.5q0 73 -63 129.5t-144 56.5q-127 0 -218 -29.5t-171 -95.5q-27 -24 -60 -24q-24 0 -49 12q-24 11 -30.5 29.5t-6.5 52.5v12v451q0 45 29 82.5t70 37.5h643q27 21 57 21q43 0 71.5 -29.5t28.5 -72.5v-37q0 -42 -29 -72.5t-71 -30.5q-27 0 -57 17z" />
    <glyph glyph-name="six" unicode="6" horiz-adv-x="1194" 
d="M807 1075q-69 21 -143 21q-132 0 -231 -94.5t-138 -245.5q186 155 451 155q181 0 288 -102.5t107 -269.5q0 -104 -45 -204t-119.5 -176t-177 -122.5t-211.5 -46.5q-108 0 -196 31t-147 84.5t-99 127.5t-58 158t-18 178q0 106 24.5 210t74.5 198t119.5 166t166.5 114.5
t209 42.5q101 0 187 -26t132 -82q25 -26 25 -66v-34q0 -43 -29.5 -73t-72.5 -30q-38 0 -66 25t-33 61zM287 430q23 -110 97.5 -173.5t203.5 -63.5q136 0 244 110t108 236q0 77 -47 123.5t-147 46.5q-150 0 -256.5 -65t-153.5 -163q-10 -31 -49 -51z" />
    <glyph glyph-name="seven" unicode="7" horiz-adv-x="1052" 
d="M412 170q30 170 108.5 386.5t235.5 535.5h-532v-64q0 -42 -32 -70t-75 -28q-41 0 -65.5 32t-24.5 74v142q0 45 29 83.5t67 38.5h797q59 0 88 -47q18 -25 18 -53q0 -24 -14 -49q-192 -371 -280.5 -604.5t-116.5 -401.5q8 -24 8 -43q0 -43 -28.5 -72.5t-71.5 -29.5h-37
q-43 0 -71.5 29.5t-28.5 72.5q0 42 26 68z" />
    <glyph glyph-name="eight" unicode="8" horiz-adv-x="1244" 
d="M782 688q-263 0 -385.5 -64.5t-122.5 -226.5q0 -87 67.5 -145.5t190.5 -58.5q228 0 340 92.5t112 251.5q0 58 -52.5 104.5t-149.5 46.5zM743 1096q-224 0 -303 -47q-25 -15 -34 -35t-9 -56q0 -31 40 -52t93 -21q210 0 284 57q25 18 33 34t8 52q0 26 -33 47t-79 21z
M997 840q86 -44 138 -125.5t52 -177.5q0 -253 -177 -400t-478 -147q-198 0 -328.5 113.5t-130.5 293.5q0 269 190 385q-71 74 -71 176q0 176 141 263q78 47 175 63t235 16q130 0 221.5 -77.5t91.5 -194.5q0 -105 -59 -188z" />
    <glyph glyph-name="nine" unicode="9" horiz-adv-x="1137" 
d="M864 766q0 166 -74.5 248t-198.5 82q-163 0 -244 -72.5t-81 -198.5q0 -88 41.5 -135t117.5 -47q111 0 200.5 27t133.5 71q30 30 72 30q19 0 33 -5zM845 553q-151 -111 -420 -111q-163 0 -261.5 106.5t-98.5 276.5q0 216 141.5 345.5t384.5 129.5q222 0 348.5 -154.5
t126.5 -418.5q0 -205 -75.5 -372.5t-216.5 -266t-320 -98.5q-121 0 -223 47q-55 27 -55 92v37q0 43 28.5 71.5t69.5 28.5q33 0 58.5 -17.5t37.5 -47.5q50 -8 84 -8q140 0 246.5 96.5t144.5 263.5z" />
    <glyph glyph-name="colon" unicode=":" horiz-adv-x="663" 
d="M203 999q0 56 39 95t94 39t94 -39t39 -95q0 -55 -38.5 -93t-94.5 -38t-94.5 38t-38.5 93zM203 307q0 56 39 95.5t94 39.5t94 -39.5t39 -95.5q0 -54 -39 -93.5t-94 -39.5t-94 39.5t-39 93.5z" />
    <glyph glyph-name="semicolon" unicode=";" horiz-adv-x="679" 
d="M479 59q0 -131 -19 -230.5t-63 -201.5q-13 -28 -38.5 -44t-56.5 -16q-22 0 -40 7q-27 13 -43.5 39t-16.5 56q0 21 9 40q63 140 63 256q-26 13 -42.5 38.5t-16.5 55.5q0 55 38.5 94.5t92.5 39.5q55 0 94 -39t39 -95zM215 795q0 54 39 93.5t94 39.5t93 -39.5t38 -93.5
q0 -56 -38 -94.5t-93 -38.5q-56 0 -94.5 39t-38.5 94z" />
    <glyph glyph-name="less" unicode="&#x3c;" horiz-adv-x="1337" 
d="M928 164l-680 461q-47 27 -47 84q7 61 53 86l657 387q13 28 41 47q23 13 50 13q59 0 90 -50l18 -33q11 -21 11 -47q0 -60 -50 -90q-20 -13 -45 -13h-12l-520 -309l538 -360q28 0 58 -16q50 -28 50 -88q0 -29 -14 -50l-18 -32q-32 -51 -87 -51q-25 0 -50 14q-28 12 -43 47
z" />
    <glyph glyph-name="equal" unicode="=" horiz-adv-x="1308" 
d="M358 909h586q31 21 64 21q40 0 70 -30t30 -73v-36q0 -41 -30 -70t-70 -29q-36 0 -56 15h-587q-6 -4 -17.5 -17t-23 -22t-21.5 -9q-41 0 -71.5 30t-30.5 71v39q0 42 30 71t72 29q9 0 24 6.5t21 6.5t10 -3zM358 504h586q32 20 64 20q40 0 70 -29.5t30 -70.5v-37
q0 -42 -30 -72t-70 -30q-32 0 -56 16h-587q-5 -4 -17 -16.5t-23.5 -20.5t-21.5 -8q-42 0 -72 29t-30 71v37q0 42 30 71.5t72 29.5q9 0 24 6t22 6q3 0 9 -2z" />
    <glyph glyph-name="greater" unicode="&#x3e;" horiz-adv-x="1337" 
d="M414 1180l680 -457q45 -30 45 -88q0 -53 -49 -82l-660 -391q-13 -30 -41 -45q-25 -14 -50 -14q-57 0 -89 51l-17 32q-15 24 -15 51q0 58 50 87q28 13 48 13q8 0 12 -1l520 307l-539 367q-35 0 -57 12q-50 28 -50 85q0 28 15 52l16 33q28 50 89 50q28 0 51 -13
q29 -19 41 -49z" />
    <glyph glyph-name="question" unicode="?" horiz-adv-x="1400" 
d="M582 102q0 55 39.5 94.5t95.5 39.5q53 0 92 -39.5t39 -94.5t-39 -94t-92 -39q-56 0 -95.5 39t-39.5 94zM393 1176q-31 -56 -90 -56q-41 0 -71.5 30.5t-30.5 72.5v32q0 34 19.5 59.5t51.5 35.5q195 67 549 67q176 0 277.5 -92t101.5 -262q0 -60 -21.5 -117.5t-54.5 -105
t-87 -99t-104 -90.5t-120 -88q0 -49 -28.5 -78.5t-73.5 -29.5q-42 0 -71.5 28.5t-29.5 69.5v61q0 54 45 86q169 114 255.5 207.5t86.5 155.5q0 83 -44 118.5t-132 35.5q-257 0 -428 -41z" />
    <glyph glyph-name="at" unicode="@" horiz-adv-x="2265" 
d="M1452 1028h182l-157 -565q-17 -62 -17 -86q0 -46 26 -72t73 -26q54 0 114 39t109 106q102 144 102 326q0 241 -198 417q-214 185 -504 185q-354 0 -574 -256q-99 -112 -154 -258.5t-55 -298.5q0 -311 238 -496q216 -164 496 -164q240 0 417 84l58 -149q-211 -95 -482 -95
q-369 0 -616 195q-147 114 -228 277t-81 344q0 175 79 358.5t212 323.5q283 292 700 292q383 0 649 -254q115 -112 170 -243t55 -295q0 -242 -168 -434q-74 -81 -161.5 -124.5t-177.5 -43.5q-102 0 -179 51q-32 23 -47.5 43t-25.5 57q-59 -71 -140 -111t-163 -40
q-139 0 -236.5 100t-97.5 246q0 100 40.5 209t110.5 194q67 86 165.5 135.5t201.5 49.5q84 0 139 -34.5t92 -109.5zM1182 905q-77 0 -151 -59.5t-119.5 -155t-45.5 -196.5q0 -91 52.5 -153t128.5 -62q45 0 93.5 25.5t84.5 68.5q56 66 91.5 156.5t35.5 168.5
q0 96 -45.5 151.5t-124.5 55.5z" />
    <glyph glyph-name="bracketleft" unicode="[" horiz-adv-x="892" 
d="M692 1477v-207h-225v-1469h225v-207h-491v1883h491z" />
    <glyph glyph-name="backslash" unicode="\" horiz-adv-x="1011" 
d="M340 1446l473 -1475h-137l-475 1475h139z" />
    <glyph glyph-name="bracketright" unicode="]" horiz-adv-x="892" 
d="M201 -406v207h229v1469h-229v207h491v-1883h-491z" />
    <glyph glyph-name="asciicircum" unicode="^" horiz-adv-x="1335" 
d="M1135 547h-230l-243 608l-232 -608h-229l336 858h254z" />
    <glyph glyph-name="underscore" unicode="_" 
d="M1268 -197q-5 -18 -5 -56q0 -25 2.5 -70t2.5 -58h-1268v180z" />
    <glyph glyph-name="grave" unicode="`" horiz-adv-x="675" 
d="M475 948h-274v221q0 86 22 141t70 95q73 61 182 72v-95q-160 -26 -160 -180h160v-254z" />
    <glyph glyph-name="bar" unicode="|" horiz-adv-x="604" 
d="M199 70v1169h204v-1169h-204z" />
    <glyph glyph-name="braceleft" unicode="{" horiz-adv-x="901" 
d="M700 80v-158h-106q-63 0 -117.5 21.5t-81.5 60.5q-45 59 -45 172v410q0 55 -35 85.5t-114 41.5v153q79 11 114 41.5t35 87.5v410q0 111 45 170q63 84 207 84q9 0 39 -2t59 -2v-158q-151 0 -151 -117v-364q0 -95 -32.5 -145t-113.5 -80q81 -33 113.5 -82.5t32.5 -145.5
v-362q0 -55 35.5 -82.5t115.5 -38.5z" />
    <glyph glyph-name="braceright" unicode="}" horiz-adv-x="899" 
d="M698 866v-153q-78 -13 -111.5 -42.5t-33.5 -84.5v-410q0 -133 -65 -193.5t-205 -60.5h-82v158q85 12 119 38.5t34 82.5v362q0 96 32.5 145.5t113.5 82.5q-81 30 -113.5 80t-32.5 145v364q0 54 -34 80.5t-119 36.5v158q30 0 59.5 2t38.5 2q148 0 211 -84q43 -58 43 -170
v-410q0 -56 33.5 -86t111.5 -43z" />
    <glyph glyph-name="asciitilde" unicode="~" horiz-adv-x="1423" 
d="M328 711l-127 141q73 133 141 187.5t156 54.5q64 0 151 -35l131 -55q75 -37 146 -37q79 0 168 133l129 -146q-51 -104 -129 -164.5t-158 -60.5q-37 0 -73 10.5t-111 42.5l-113 43q-70 33 -129 33q-53 0 -89.5 -30t-92.5 -117z" />
    <glyph glyph-name="afii57664" unicode="&#x5d0;" horiz-adv-x="1617" 
d="M75 18q355 227 504 582q7 49 7 91q0 97 -43 149q13 129 183 186q45 -120 89.5 -206.5t94 -167.5t77.5 -136q135 99 135 261q69 63 192 105q30 -107 86 -186.5t142 -158.5q-70 -48 -165 -48q-73 0 -99 36l-39 45q-32 -56 -72.5 -82.5t-113.5 -37.5q47 -67 81.5 -156.5
t62.5 -185t45 -135.5q-52 -83 -153 -108q-6 20 -25.5 86t-27.5 91t-28.5 84t-35.5 89.5t-41.5 81.5t-53.5 86.5t-64.5 77.5t-80.5 79q-336 -522 -657 -522z" />
    <glyph glyph-name="afii57665" unicode="&#x5d1;" horiz-adv-x="1185" 
d="M511 988q-41 -18 -48 -68q0 -51 198 -51q50 0 97.5 12t81.5 29.5t60.5 37t40 35.5t13.5 24q0 3 -3 5q144 0 144 -112q0 -55 -33 -98.5t-98 -52.5q8 -59 8 -123q0 -105 -26 -194.5t-84 -224.5l31 8h26q21 0 43.5 4t44.5 4q31 0 98 -7q5 -23 5 -40q0 -34 -17 -60
q-13 -21 -30.5 -31t-21.5 -25q-107 0 -189.5 -8t-163 -29.5t-128.5 -38t-150 -57t-163 -63.5q-58 -24 -99 -24q-40 0 -73 24q26 55 73 100t115.5 79t124.5 56.5t143 52.5t129 46q73 142 101.5 234t28.5 236q-48 -15 -120 -15t-148 15t-127 36q-18 10 -34 20.5t-26.5 19
t-20.5 22t-15 19.5t-12 22.5t-9 20.5t-8 23t-7 21q0 57 18.5 98.5t44.5 63.5t65 35t70 16t70 3q13 -19 13 -40q0 -31 -33 -60z" />
    <glyph glyph-name="afii57666" unicode="&#x5d2;" horiz-adv-x="1272" 
d="M893 444q28 -55 84 -120t103 -109t117 -105q-3 -20 -6 -30t-13 -24.5t-31 -21t-54 -6.5q-239 148 -392 296q-151 -68 -258 -142.5t-178 -181.5q-56 -25 -92 -25q-9 0 -18 2t-14.5 3.5t-16.5 7t-14 7.5t-17.5 10.5t-17.5 10.5q30 33 80.5 95.5t86.5 102t120.5 109.5
t202.5 147q-9 19 -22.5 50.5t-36.5 107.5t-23 128t38.5 102t93 84t109 60.5t92.5 39.5l39 12q18 3 33 3q87 0 87 -109q0 -56 -20 -112q-30 -51 -132 -88q-29 -10 -53 -10q-10 0 -33.5 2t-37.5 2q0 -60 13.5 -84t42.5 -36q136 0 178 -144z" />
    <glyph glyph-name="afii57667" unicode="&#x5d3;" horiz-adv-x="1233" 
d="M228 1000q41 31 68 31q33 0 33 -51q-37 -47 -37 -85q0 -15 6 -30q40 -6 90 -6q172 0 400 61q43 23 72 47.5t59.5 58t48.5 49.5q51 13 91 13q99 0 99 -88q-68 -60 -107 -110t-48 -105q0 -38 -0.5 -103t-0.5 -92q0 -115 11 -197.5t45 -167.5l80 -190q0 -17 -4 -31t-8 -23.5
t-15.5 -17t-16.5 -11.5t-22 -7.5t-21.5 -4.5t-24.5 -3t-23 -2q-72 120 -115 219.5t-63.5 203t-26 187t-5.5 220.5q-235 -95 -600 -95q-62 14 -90 50t-28 75q0 15 3 25q10 30 18 50.5t21 39t18 26t26.5 22.5t27.5 19t39 23z" />
    <glyph glyph-name="afii57668" unicode="&#x5d4;" horiz-adv-x="1343" 
d="M521 1071q1 1 6 1q19 0 48.5 -16.5t29.5 -33.5q0 -11 -15 -20q-11 -5 -35.5 -15t-38 -16t-34.5 -15.5t-33 -18.5t-24.5 -20t-18 -23.5t-5.5 -26.5q0 -32 54 -32q43 0 162.5 27t149.5 32q51 26 81.5 43.5t68 49.5t60.5 69q50 8 85 8q75 0 113 -32q0 -58 -14.5 -147
t-14.5 -136q0 -40 5 -71q7 -48 32.5 -93t51 -89.5t30.5 -93.5q3 -26 3 -48q0 -55 -22.5 -143.5t-28.5 -126.5q-38 -48 -96 -48q0 101 -1.5 150t-10 120t-27.5 147q-13 51 -57.5 114t-59.5 99q-8 17 -10.5 34t-4 38t-3.5 36q-19 -8 -61.5 -36t-83.5 -47t-77 -19
q-25 -126 -42 -201t-46 -174t-68.5 -184t-92.5 -170q-4 -2 -25 -14.5t-34 -19.5t-33.5 -14t-35.5 -7q-45 0 -61 55q8 26 35.5 70t57 96t59 124t48.5 181.5t19 239.5q-76 -21 -160 -21q-93 0 -188 27q-37 10 -60 39.5t-23 77.5q0 38 14 81q75 68 124 106t97.5 59t83 28.5
t103.5 16.5z" />
    <glyph glyph-name="afii57669" unicode="&#x5d5;" horiz-adv-x="692" 
d="M210 1009q72 -18 121 -42.5t96.5 -73t84.5 -128t69 -198.5q36 -135 36 -307q0 -10 -0.5 -31.5t-0.5 -32.5q-9 -4 -11 -5q-13 -3 -24 -3q-12 0 -23 2.5t-24 7.5t-20 7q-12 45 -27.5 126.5t-24.5 115.5q-50 186 -116 268.5t-169 82.5q-42 0 -98 -14q0 29 -2 43t-2 21
q0 2 1 19.5t1 35.5q49 67 133 106z" />
    <glyph glyph-name="afii57670" unicode="&#x5d6;" horiz-adv-x="689" 
d="M610 985q4 -29 4 -54q0 -32 -16 -53t-63 -50q-16 -17 -44 -17q-15 0 -46 5q-12 0 -18.5 6t-27.5 6q110 -92 110 -404q0 -81 -11.5 -184t-25.5 -171.5t-22 -68.5q-1 4 -7 4q-3 0 -13 -2t-17 -2q-20 0 -32 18q5 37 5 88q0 74 -6.5 157.5t-22.5 188.5t-51 199t-85 150h-46
q-100 0 -100 39v13q18 22 41 51t31 37.5t21.5 22t27 17.5t31.5 8.5t49 9.5q0 5 19.5 26t19.5 24q3 14 4.5 23.5t1.5 11t1 5.5t1 4.5t3.5 10.5t7.5 21l133 -61q-1 -6 -1 -14q0 -11 5 -14.5t5 -7.5t-1 -8q25 -36 130 -36z" />
    <glyph glyph-name="afii57671" unicode="&#x5d7;" horiz-adv-x="1253" 
d="M380 908q90 27 251 27q118 0 265 -15q13 57 45 96.5t91 81.5q77 -51 111.5 -176t34.5 -286q0 -233 -50 -400q0 -73 -34.5 -128.5t-100.5 -111.5q-2 0 -11 1t-11.5 1.5l-10 2t-10.5 2.5t-8.5 3.5t-7.5 5.5t-5 7t-4 9t-1 12q2 13 27 120.5t42.5 215.5t17.5 197
q0 130 -42 203q-156 -41 -280 -41q-74 0 -155 10q8 -59 26.5 -162.5t30 -191t11.5 -168.5q0 -88 -14 -169q-14 -84 -67 -84q-11 0 -25.5 3.5t-25 7t-28.5 10t-26 9.5q0 494 -91 751h-209q-41 18 -41 64q0 49 52 126q56 80 113 117.5t135 47.5q27 -20 27 -100q0 -81 -22 -98z
" />
    <glyph glyph-name="afii57672" unicode="&#x5d8;" horiz-adv-x="1351" 
d="M401 994q0 -41 33.5 -56t92.5 -15v-19q0 -64 -39.5 -101.5t-106.5 -37.5h-21q0 -3 -1 -11t-1 -12q0 -83 45 -258.5t52 -225.5q94 0 163 4.5t148.5 20.5t138.5 44.5t115.5 78.5t96.5 120q0 11 1.5 30t1.5 28q0 94 -40 149.5t-109 72.5q-36 -39 -89 -80.5t-89.5 -78.5
t-62.5 -92q-36 18 -47.5 45t-11.5 68v19q0 38 14.5 73t45 70.5t59 63t76.5 70.5t77 72q32 37 71 37q16 0 43.5 -9.5t31.5 -10.5l-25 -101q26 -6 59 -31t68.5 -68t60 -116.5t24.5 -160.5q0 -24 -7.5 -57t-19 -75t-16.5 -64l-50 -95q-39 -45 -87 -78.5t-92.5 -53t-117.5 -36.5
t-126 -25.5t-157.5 -24t-174.5 -27.5l-82 40q-37 62 -59.5 143.5t-32 157t-19 149t-29.5 137t-54 102.5q-8 0 -34 -4q-43 13 -43 70q0 33 16 86q82 -19 96 -19q20 0 89 25q-31 59 -31 103q8 0 22.5 1t21.5 1q50 0 112 -38z" />
    <glyph glyph-name="afii57673" unicode="&#x5d9;" horiz-adv-x="586" 
d="M203 1048q6 -3 17.5 -9t43.5 -26t61 -41t64.5 -53t61 -63t43 -69.5t17.5 -74.5q0 -50 -20 -110.5t-48 -111.5t-56 -95t-48 -69l-20 -26q-29 -28 -52 -28q-18 0 -32 20q11 25 27.5 65t44.5 138.5t28 164.5q0 33 -29 55t-75.5 30.5t-78.5 11.5t-63 3h-14q33 211 128 288z
" />
    <glyph glyph-name="afii57674" unicode="&#x5da;" horiz-adv-x="1363" 
d="M220 465q-12 21 -58.5 88t-66.5 113t-20 97q0 29 9 62q9 31 23.5 56t39.5 43.5t44 30.5t57.5 24t57.5 17.5t66 16.5q59 14 114 14q47 0 145 -15t161 -15q66 20 98 20q46 0 78 -32q25 -70 71.5 -193t75 -200t65 -194.5t57.5 -211.5t36 -213t15 -236q-72 -49 -121 -49
q-10 0 -15 1q-14 75 -28.5 179.5t-30.5 189t-45 175.5q-17 55 -42 100t-60.5 98.5t-57.5 93.5l-96 288q-38 0 -98 4.5t-87 4.5q-63 0 -123 -17q-33 0 -56 -8t-38 -26.5t-23 -36t-19 -49.5q8 -48 8 -80q0 -52 -29 -84t-107 -56z" />
    <glyph glyph-name="afii57675" unicode="&#x5db;" horiz-adv-x="1168" 
d="M425 1116q0 -24 -13.5 -67t-13.5 -60q0 -27 23 -45q32 -25 78 -25q22 0 47 5.5t55 15t40 12.5q44 16 99.5 32.5t98.5 32t90 39.5q36 28 78 28l78 -20q0 -60 4 -179t4 -179q0 -163 -24 -294q-17 -29 -27 -67.5t-19 -66.5t-54.5 -80t-131.5 -118q-172 -66 -316 -85
t-323 -19h-109q-14 18 -14 32q0 28 42 56q28 4 107 13.5t113.5 15t102.5 17t109 24t95.5 31.5t100.5 45t88 58l48 128q21 80 21 178q0 46 -6.5 145.5t-6.5 156.5q-37 -13 -116.5 -48.5t-149.5 -57t-162 -34.5q-54 0 -95.5 9.5t-77.5 31.5t-55.5 64.5t-19.5 102.5
q0 69 19.5 121t76.5 91q19 15 50 15q27 0 48 -11.5t21 -30.5q0 -5 -3 -13z" />
    <glyph glyph-name="afii57676" unicode="&#x5dc;" horiz-adv-x="981" 
d="M295 1477q-20 0 -33.5 -13.5t-13.5 -32.5q0 -16 14 -26t33 -10q21 0 36.5 13t15.5 33q0 17 -15.5 26.5t-36.5 9.5zM394 978q5 -4 12.5 -10.5t11.5 -9.5t10 -6.5t11.5 -5t12.5 -1.5q37 0 111 35t107 43q82 36 129 36q49 0 72 -42q35 -35 35 -93q0 -43 -24 -117
q-16 -41 -35 -94t-30 -83t-28 -70t-33 -64t-42 -56t-58 -55t-77 -51t-103.5 -55t-133.5 -57q-43 0 -69 13t-26 37q0 22 24 49q194 0 315.5 130.5t121.5 325.5q12 21 12 36q0 5 -1.5 8.5t-4.5 6.5t-6 5t-8.5 3.5t-8.5 2.5t-9.5 2t-9.5 2q-26 -11 -64.5 -29t-69 -30t-67.5 -22
q-45 -12 -107 -12h-34q-51 0 -98.5 48.5t-47.5 113.5q0 12 1.5 22.5t7 24t8.5 21t13 28t15 30.5q37 97 66 190q6 22 6 33q0 10 -5 35h-26q-6 2 -24 9.5t-22.5 9.5t-18 9t-17 11.5t-12 13.5t-11 19t-6.5 24.5t-5 32t-1 39.5q45 143 165 155q53 0 85 -7t48 -25t20.5 -40.5
t4.5 -62.5q-19 -102 -69 -207q-23 -67 -23 -113q0 -15 -8 -55.5t-8 -48.5q0 -31 4 -48t7.5 -21.5t14.5 -12.5z" />
    <glyph glyph-name="afii57677" unicode="&#x5dd;" horiz-adv-x="1236" 
d="M591 100q88 15 154 32t125 42.5t90 61t31 80.5q12 76 12 137q0 217 -162 411q-286 -40 -472 -40q43 -48 74 -95.5t48.5 -83.5t31.5 -88t19.5 -82.5t14.5 -93.5t15 -97q0 -51 10 -103t10 -66q0 -10 -1 -15zM243 1052l120 -36q128 0 325 -4t287 -4q184 -184 184 -456
q0 -22 0.5 -63t0.5 -60q0 -57 -3 -95.5t-11.5 -83t-26.5 -75t-47 -60.5t-74 -51.5t-106 -35.5q-22 -28 -164 -28q-16 0 -47.5 -3.5t-45.5 -3.5q-17 0 -36 -3l-23 -138l-69 12v164l-120 124q-2 5 -2 15q0 25 42 25l64 -44l-83 212q-16 54 -39 108.5t-42.5 90t-56.5 101.5
t-59 108l-136 20q0 102 60 176z" />
    <glyph glyph-name="afii57678" unicode="&#x5de;" horiz-adv-x="1528" 
d="M578 905l165 115q40 35 76 35q33 0 64 -25q162 -68 289.5 -167.5t245.5 -232.5q3 -8 14.5 -36t16 -46.5t4.5 -38.5q0 -43 -30 -89q-354 -207 -865 -400q-20 -3 -32 -3q-32 0 -32 20q0 3 14 48l690 380l30 80q-96 109 -178 186t-182 150h-13q-55 0 -172 -91
q-91 -120 -212 -214.5t-223 -120.5q-64 -10 -109 -10q-64 0 -64 21q0 14 28 34l340 270q10 57 10 108q0 65 -15 132q-22 0 -68.5 -7.5t-69.5 -7.5q-82 0 -132 80q6 2 32 10.5t34 11.5t31 12t31.5 14t27 15t27 19t21.5 22t19.5 27t12.5 31.5t9 37.5q28 7 46 7q39 0 54 -32
q7 -27 20.5 -55.5t22 -49.5t15.5 -82t7 -158z" />
    <glyph glyph-name="afii57679" unicode="&#x5df;" horiz-adv-x="606" 
d="M63 1128q47 52 101 52q50 0 107 -44q4 -24 4 -61v-52q0 -129 52 -195q74 -139 98 -204.5t46 -179.5q4 -29 4 -62q0 -187 -71 -358q-11 -26 -34 -83t-33 -80.5t-30.5 -68t-36.5 -72.5t-40.5 -67t-53.5 -77q-4 -6 -12 -6q-11 0 -21.5 10t-10.5 20v4q0 42 8.5 78.5t24 81
t23.5 76.5q28 62 46.5 105.5t29 71.5t18 60.5t10.5 49.5t9 62t11 75q7 59 7 124q0 232 -112 364q-48 68 -98 170.5t-50 149.5q-4 7 -4 14q0 6 4 20t4 22z" />
    <glyph glyph-name="afii57680" unicode="&#x5e0;" horiz-adv-x="1092" 
d="M804 662q92 -111 192 -385q21 -49 21 -85q0 -47 -30.5 -68t-88.5 -32q-39 -8 -140.5 -28.5t-157.5 -30.5t-143.5 -23.5t-169 -19.5t-163.5 -6q-22 0 -35.5 10t-13.5 25q0 21 37 50q398 52 678 139q-48 298 -226 502q-11 9 -11 23q0 31 50.5 120.5t113.5 139.5
q18 14 42 14t45.5 -13t32.5 -34q15 -23 15 -49q0 -27 -36 -101q-40 -44 -40 -87q0 -42 28 -61z" />
    <glyph glyph-name="afii57681" unicode="&#x5e1;" horiz-adv-x="1576" 
d="M497 752q-32 -144 -32 -295q0 -101 16 -213q0 -40 39.5 -54t120.5 -14l152 40q88 38 156 82.5t147 110t109 87.5q67 100 88 232q-79 46 -190 76t-233 30q-198 0 -373 -82zM317 1108q20 -47 72.5 -70.5t135.5 -37.5h804q56 0 90.5 -7t52 -23t23.5 -36.5t6 -53.5
q0 -95 -26.5 -176t-67.5 -141.5t-114 -142.5q-114 -129 -222.5 -200.5t-277.5 -135.5q-83 -31 -162 -31q-57 0 -222 31q-59 11 -95 31.5t-49 64.5q-1 3 -1 8q0 12 13.5 20.5t30.5 13t32 14t17 24.5q-20 76 -28.5 109.5t-14.5 72t-6 70.5q0 26 5 68q-5 32 -4.5 82.5t-6 87.5
t-29.5 74q-20 31 -60 45.5t-78 29.5t-54 49q-6 12 -6 24q0 17 14.5 35.5t28 28.5t39.5 28q24 16 48.5 23t57 11t54.5 10z" />
    <glyph glyph-name="afii57682" unicode="&#x5e2;" horiz-adv-x="1474" 
d="M1360 815q0 -33 -34 -70q-73 -136 -183 -258t-230.5 -213t-264 -171t-272.5 -134.5t-268 -100.5q-33 14 -33 54q0 34 26 88q11 3 65.5 19.5t71.5 22t67 22t74 26.5t68 28.5t74 34.5t67.5 38.5t71.5 46.5q-39 164 -54 207q-48 137 -145 187q-37 19 -83 28q-18 23 -18 47
q0 25 18 51q23 36 37.5 47.5t43.5 21.5q13 4 37 4q8 0 23 -0.5t21 -0.5q13 0 24 -3t24.5 -8t23.5 -8q44 -15 73 -39t44 -71q29 -46 29 -121q0 -37 -9.5 -115t-9.5 -114q0 -35 5 -58q70 35 134 87t110 105.5t84.5 111.5t60.5 103.5t34 82.5q12 12 21 24.5t12.5 18t10 20
t7.5 17.5q-13 -4 -39.5 -18.5t-40.5 -14.5q-10 0 -22 6q-24 13 -41 35.5t-17 45.5q0 16 10 30q41 59 86 85t118 26q66 0 96.5 -36.5t30.5 -91.5q0 -75 -39 -125z" />
    <glyph glyph-name="afii57683" unicode="&#x5e3;" horiz-adv-x="1047" 
d="M804 376q-33 188 -83 304t-136 164q-11 0 -34 3t-34 3q-48 0 -86.5 -29.5t-73.5 -111.5q20 4 40 4q34 0 52.5 -10.5t18.5 -22.5q0 -7 -6 -10q-16 -88 -80 -144t-217 -99q-30 -8 -45 -8q-18 0 -28 12t-17 44q47 69 101.5 156t81.5 127.5t80 104t127 137.5q53 38 105 38
q45 0 105 -23q59 -19 82 -43q46 -57 78.5 -116.5t53.5 -123t32.5 -112t26 -120.5t24.5 -112q0 -139 -8.5 -247t-20 -172t-31 -117t-34 -76.5t-37.5 -56.5t-33 -51l-76 -20q9 37 38 128t43.5 169t14.5 175q0 115 -24 256z" />
    <glyph glyph-name="afii57684" unicode="&#x5e4;" horiz-adv-x="1315" 
d="M703 690q-16 -88 -80 -144t-217 -99q-30 -8 -45 -8q-18 0 -28 12t-17 44q47 69 101.5 156t81.5 127.5t80 104t127 137.5q53 38 105 38q45 0 105 -23q58 -19 82 -43q100 -190 143.5 -313.5t84.5 -295.5v-7q0 -20 7 -61.5t7 -61.5q-11 -68 -81 -90q-489 -255 -1001 -255
q-83 0 -83 48q0 25 31 80q92 0 202.5 26.5t292.5 79.5t343 88q35 0 63 20.5t28 59.5l10 86q0 158 -62 286.5t-157 181.5q-12 0 -34 3t-34 3q-48 0 -86.5 -29.5t-73.5 -111.5q20 4 40 4q34 0 52.5 -10.5t18.5 -22.5q0 -7 -6 -10z" />
    <glyph glyph-name="afii57685" unicode="&#x5e5;" horiz-adv-x="951" 
d="M871 -48q5 -16 5 -37q0 -10 -1.5 -28.5t-1.5 -27.5q0 -101 -38 -147q-16 -16 -31 -28.5t-24 -19t-22.5 -11.5t-18 -6.5t-19.5 -4t-17 -2.5l28 160q7 26 7 53q0 129 -87 352t-159 298q-22 5 -55 10t-50.5 8t-36 9t-26.5 15t-8 23q0 12 8 31q-15 13 -34.5 33t-36.5 34.5
t-40 25.5q-21 11 -42 15t-47.5 6t-45.5 6q-3 12 -3 22q0 48 43 83.5t95 35.5q42 -4 145 -84.5t164 -98.5l135 93q28 63 28 97q0 45 -47 45q-28 0 -80 -19q-30 14 -47 40.5t-17 55.5q0 34 22 57q31 31 78 31q8 0 24.5 0.5t25.5 0.5q43 0 79 -14q49 -20 80 -53t70 -94
q0 -48 -13 -85.5t-40 -67t-53 -50t-66 -49.5t-65 -51q23 -39 46.5 -92t49 -128t43.5 -131t49 -159t47 -152z" />
    <glyph glyph-name="afii57686" unicode="&#x5e6;" horiz-adv-x="987" 
d="M675 624q15 -30 48 -66.5t55.5 -67.5t22.5 -61q0 -18 -9 -39q-18 -42 -44.5 -76t-51.5 -56t-68 -45t-71.5 -35t-85.5 -34q-79 -31 -168 -53.5t-149 -22.5q-79 0 -79 43q41 18 101 39.5t106.5 42t95.5 50.5q15 10 48 29.5t47 28.5t38.5 26.5t39 32.5t32 36.5t32.5 47.5
q4 7 4 12q0 12 -15 20.5t-38.5 18t-34.5 18.5q-22 5 -55 10t-50.5 8t-36 9t-26.5 15t-8 23q0 12 8 31q-15 13 -34.5 33t-36.5 34.5t-40 25.5q-21 11 -42 15t-47.5 6t-45.5 6q-3 12 -3 22q0 48 43 83.5t95 35.5q42 -4 145 -84.5t164 -98.5l135 93q28 63 28 97q0 45 -47 45
q-28 0 -80 -19q-30 14 -47 40.5t-17 55.5q0 34 22 57q31 31 78 31q8 0 24.5 0.5t25.5 0.5q43 0 79 -14q49 -20 80 -53t70 -94q0 -48 -13 -85.5t-40 -67t-53 -50t-66 -49.5t-65 -51z" />
    <glyph glyph-name="afii57687" unicode="&#x5e7;" horiz-adv-x="1222" 
d="M471 706q14 -46 72 -131.5t85 -135.5q42 -46 72 -165t30 -204q0 -38 -8 -54q-15 -47 -36 -87.5t-42 -68t-50 -54t-50 -41.5t-50 -34l95 264v7v10v10q0 57 -13 129t-50.5 155t-92.5 122q-37 30 -56 62.5t-19 87.5q0 31 6 59q15 14 29 34.5t25 30t30 9.5q17 0 23 -5z
M384 1186q56 -50 94 -138l-105 -23q-33 -23 -33 -36q0 -10 33 -14q76 -17 129 -17q20 0 72 4t97 4q54 0 161.5 5.5t162.5 5.5q40 50 75 50h4q73 -157 73 -274q0 -61 -20.5 -111t-51.5 -82t-76 -55.5t-86 -35t-90 -18.5t-78 -8.5t-61 -1.5h-15q71 39 122 71.5t97.5 70.5
t70 76.5t23.5 76.5q0 49 -9 68q-58 0 -172.5 -6.5t-170.5 -6.5q-42 0 -102.5 -1.5t-83.5 -1.5q-109 0 -232 31q-73 21 -105 53t-32 82q0 43 23 94q41 82 108.5 110t155.5 28h22z" />
    <glyph glyph-name="afii57688" unicode="&#x5e8;" horiz-adv-x="1146" 
d="M101 870q56 27 122.5 67t109.5 67.5t108 53.5t135 37q148 0 228.5 -16.5t161.5 -73.5q105 -137 105 -315q0 -129 -22 -223.5t-78 -226.5q-37 -89 -77.5 -142.5t-112.5 -97.5q-11 -6 -24 -6q-25 0 -48.5 19.5t-23.5 42.5q0 6 1 9q11 42 34 80.5t48 67.5l50 58t45 67.5
t28 81.5q23 128 23 200q0 153 -88 215q-109 61 -209 61q-35 0 -72.5 -6.5t-86 -18t-77.5 -16.5l-70 -50q-81 -31 -140 -31q-35 0 -65 11q-1 9 -16 17.5t-15 18.5q0 17 26 49z" />
    <glyph glyph-name="afii57689" unicode="&#x5e9;" horiz-adv-x="1559" 
d="M109 1024q42 13 82 13q56 0 108 -24t97.5 -69t80.5 -87.5t80 -102t73 -91.5q40 0 63 20t29.5 47.5t6.5 67.5q0 18 -2 54t-2 52q-38 0 -70.5 26t-32.5 61q0 27 23 53q17 15 68 34.5t96 19.5q53 0 80 -30q50 -55 50 -131q0 -53 -38 -177q-22 -73 -61.5 -118t-107.5 -69
l97 -381q37 7 74.5 24.5t64.5 34.5t64.5 50.5t56.5 52t60 61t56 57.5q7 19 38.5 75t31.5 92l1 11q0 10 -1 10q-6 43 -43 96.5t-47 87.5q-5 17 -5 30q0 43 37 86q50 55 99 55q67 0 148 -88q20 -34 20 -96q0 -46 -13.5 -103t-55 -142t-106.5 -168t-180 -178.5t-264 -176.5
l8 -39q-21 -18 -56 -18q-27 0 -64 10q-23 48 -58 135.5t-65 157t-71 149.5t-94 149.5t-116 120.5q-95 21 -135 21q-52 0 -97 -21q-42 70 -42 139q0 16 2 32t6 34t7 29t10 32.5t9 29.5z" />
    <glyph glyph-name="afii57690" unicode="&#x5ea;" 
d="M580 852l424 180q43 13 78 13q73 0 110 -61v-83q0 -288 -11.5 -472t-52.5 -329q-53 -75 -92 -75q-24 0 -48 27q2 21 9.5 80t10.5 89t7.5 78.5t6.5 91t2 85.5q0 166 -36 332l-276 -176q-8 -51 -8 -123q0 -9 0.5 -27t0.5 -26q0 -95 -23 -173t-102 -183q-31 -18 -73 -52
t-77.5 -55t-81.5 -29q-42 -8 -78 -8q-105 0 -150 64q-14 18 -14 33q0 26 42 47q35 -5 63 -5q106 0 185 69q16 21 47 55.5t45 52.5t26.5 48.5t12.5 64.5q0 64 -43 167q-87 10 -140 37.5t-53 73.5q0 38 37 85q-11 4 -25.5 13t-27 14t-27.5 5q-22 0 -52.5 -28.5t-46.5 -28.5
q-7 0 -17 5q-25 14 -41 39t-16 51t17 46q67 78 132.5 115t155.5 37q35 0 63.5 -17.5t45 -40t42 -54.5t49.5 -52z" />
    </font>
</defs>
</svg>
