<svg xmlns="http://www.w3.org/2000/svg">
<defs>
<font id="Paskol" horiz-adv-x="493" >
  <font-face 
    font-family="Paskol"
    font-weight="700"
    font-stretch="expanded"
    units-per-em="1000"
    panose-1="0 0 7 0 0 0 0 0 0 0"
    ascent="800"
    descent="-200"
    bbox="-79 -179 855 764"
    underline-thickness="50"
    underline-position="-158"
    unicode-range="U+0020-20AA"
  />
<missing-glyph horiz-adv-x="874" 
d="M737 606v-1h78q16 0 28 -11q11 -12 11 -28v-77h1v77q0 17 -11 29q-13 11 -29 11h-78zM737 600v-2h78q13 0 23 -8q10 -10 10 -24v-77h2v77q0 14 -11 25q-10 9 -24 9h-78zM737 595v-4h78q11 0 19 -7q7 -7 7 -18v-77h3v77q0 13 -9 20q-8 9 -20 9h-78zM737 589v-4h78
q9 0 13 -5q6 -5 6 -14v-77h4v77q0 10 -7 17q-6 6 -16 6h-78zM737 583v-5h78q6 0 9 -3t3 -9v-77h5v77q0 8 -5 13q-4 4 -12 4h-78zM737 542v-53h2v53h-2zM744 542v-53h1v53h-1zM749 542v-53h3v53h-3zM755 542v-53h4v53h-4zM760 542v-53h6v53h-6zM604 489h1v75q0 15 9 27
q5 6 12 10q8 4 17 4h38q17 0 29 -12q11 -13 10 -30v-34q0 -16 -12 -28q-11 -11 -27 -12h-20v0h20q16 0 28 10q12 13 12 30v34q1 17 -10 30q-12 13 -30 13h-38q-9 0 -17 -4t-13 -11q-9 -12 -9 -27v-75zM610 489h2v74q0 13 8 23q3 6 9 9q7 3 14 3h38q15 0 24 -10t9 -25v-34
q0 -14 -10 -23q-10 -10 -23 -10h-20v-2h20q14 0 24 10q11 10 11 25v34q0 16 -9 27q-10 10 -26 10h-38q-8 0 -15 -4q-6 -3 -10 -8q-8 -11 -8 -25v-74zM619 489v74q0 12 6 20q3 3 7 6q5 2 11 2h38q13 0 19 -8q7 -7 7 -20v-34q0 -11 -8 -19q-8 -7 -18 -7h-20v-4h20q12 1 20 9
q9 8 9 21v34q0 14 -7 23q-9 9 -22 9h-38q-6 0 -13 -3q-4 -3 -8 -8q-6 -8 -6 -21l-1 -54v-20h4zM621 489h4v74q1 10 5 16q3 3 5 4q3 2 8 2h38q10 -1 14 -6q5 -5 5 -16v-34q0 -8 -6 -13q-5 -6 -13 -6h-20v-4h20q9 0 16 7q7 6 7 16v34q0 12 -6 19t-17 7h-38q-6 0 -10 -3
q-3 -1 -6 -5q-6 -7 -6 -18v-74zM627 489h5v74q1 8 4 11q1 2 2 3q2 1 5 1h38q7 -1 9 -3q3 -2 4 -12v-34q0 -5 -4 -9t-9 -4h-20v-5h20q7 0 13 5q5 6 5 13v34q-1 11 -5 15q-4 5 -13 5h-38q-4 0 -7 -1q-3 -2 -5 -5q-4 -4 -4 -14v-74zM470 606v-1h77q16 0 28 -11q12 -12 11 -28

<glyph glyph-name=".notdef" horiz-adv-x="874" 
d="M737 606v-1h78q16 0 28 -11q11 -12 11 -28v-77h1v77q0 17 -11 29q-13 11 -29 11h-78zM737 600v-2h78q13 0 23 -8q10 -10 10 -24v-77h2v77q0 14 -11 25q-10 9 -24 9h-78zM737 595v-4h78q11 0 19 -7q7 -7 7 -18v-77h3v77q0 13 -9 20q-8 9 -20 9h-78zM737 589v-4h78
q9 0 13 -5q6 -5 6 -14v-77h4v77q0 10 -7 17q-6 6 -16 6h-78zM737 583v-5h78q6 0 9 -3t3 -9v-77h5v77q0 8 -5 13q-4 4 -12 4h-78zM737 542v-53h2v53h-2zM744 542v-53h1v53h-1zM749 542v-53h3v53h-3zM755 542v-53h4v53h-4zM760 542v-53h6v53h-6zM604 489h1v75q0 15 9 27
q5 6 12 10q8 4 17 4h38q17 0 29 -12q11 -13 10 -30v-34q0 -16 -12 -28q-11 -11 -27 -12h-20v0h20q16 0 28 10q12 13 12 30v34q1 17 -10 30q-12 13 -30 13h-38q-9 0 -17 -4t-13 -11q-9 -12 -9 -27v-75zM610 489h2v74q0 13 8 23q3 6 9 9q7 3 14 3h38q15 0 24 -10t9 -25v-34
q0 -14 -10 -23q-10 -10 -23 -10h-20v-2h20q14 0 24 10q11 10 11 25v34q0 16 -9 27q-10 10 -26 10h-38q-8 0 -15 -4q-6 -3 -10 -8q-8 -11 -8 -25v-74zM619 489v74q0 12 6 20q3 3 7 6q5 2 11 2h38q13 0 19 -8q7 -7 7 -20v-34q0 -11 -8 -19q-8 -7 -18 -7h-20v-4h20q12 1 20 9
q9 8 9 21v34q0 14 -7 23q-9 9 -22 9h-38q-6 0 -13 -3q-4 -3 -8 -8q-6 -8 -6 -21l-1 -54v-20h4zM621 489h4v74q1 10 5 16q3 3 5 4q3 2 8 2h38q10 -1 14 -6q5 -5 5 -16v-34q0 -8 -6 -13q-5 -6 -13 -6h-20v-4h20q9 0 16 7q7 6 7 16v34q0 12 -6 19t-17 7h-38q-6 0 -10 -3
q-3 -1 -6 -5q-6 -7 -6 -18v-74zM627 489h5v74q1 8 4 11q1 2 2 3q2 1 5 1h38q7 -1 9 -3q3 -2 4 -12v-34q0 -5 -4 -9t-9 -4h-20v-5h20q7 0 13 5q5 6 5 13v34q-1 11 -5 15q-4 5 -13 5h-38q-4 0 -7 -1q-3 -2 -5 -5q-4 -4 -4 -14v-74zM470 606v-1h77q16 0 28 -11q12 -12 11 -28
v-27q0 -8 -2 -16t-8 -15t-14 -12q-2 -3 -6 -4l-3 -3h1q1 0 3 1q3 3 6 5q8 5 13 12q7 8 9 16t3 16v27q0 17 -12 29q-13 11 -29 11h-77zM470 600v-2h77q14 0 23 -8q10 -10 10 -24v-26q0 -8 -3 -14q-2 -8 -7 -13q-4 -7 -12 -12q-2 -2 -5 -4l-3 -2v-2q1 0 4 2l6 4q7 6 13 12
q4 6 7 14q2 7 2 14v27q1 14 -10 25q-10 9 -25 9h-77zM470 595v-3h77q11 0 19 -8q7 -7 7 -18v-26q0 -7 -2 -13t-5 -11q-5 -4 -12 -10q-2 -1 -5 -3q-3 -3 -4 -3l2 -3q1 1 3 2q4 4 6 5q7 5 12 11q4 5 6 11q2 7 2 14v26q0 13 -8 20q-8 9 -21 9h-77zM470 589v-4h77q9 0 14 -5
t5 -14v-26q0 -7 -2 -11q-1 -5 -4 -8q-3 -4 -10 -9q-2 -2 -5 -4q-2 -2 -4 -2l2 -4q1 1 4 3q3 1 6 3q7 5 10 10l6 10q1 5 1 12v26q0 10 -6 17q-7 6 -17 6h-77zM470 583v-5h77q6 0 9 -3q4 -3 4 -9v-25q-1 -7 -2 -9q-2 -5 -3 -7q-2 -2 -9 -8q-2 -1 -5 -4q-2 -1 -5 -3l4 -4
q1 1 4 3q3 3 5 4q7 5 10 9q3 3 4 8q1 4 2 11v25q0 8 -5 13q-5 4 -13 4h-77zM491 542v-121h2v121h-2zM497 542v-121h2v121h-2zM503 542v-121h3v121h-3zM508 542v-121h5v121h-5zM514 542v-121h5v121h-5zM386 516v0h26q7 0 10 4q4 3 5 11v35q-1 7 -4 10t-10 4h-38q-16 0 -27 10
q-11 12 -11 26v25q0 13 8 23q5 6 11 9q9 4 16 4h14v0h-14q-7 1 -16 -3q-7 -3 -12 -9q-8 -11 -8 -24v-25q0 -15 11 -26q12 -12 28 -12h38q6 0 9 -3q4 -2 4 -9v-35q0 -7 -4 -11q-4 -3 -10 -4h-26zM386 511v-2h26q9 0 15 6t6 16v35q0 9 -5 14q-6 6 -15 6h-38q-13 0 -23 9
q-8 9 -8 21v25q0 11 6 19q4 4 9 7q6 3 13 3h14v2h-14q-7 0 -13 -3q-6 -2 -10 -8q-7 -8 -7 -20v-25q0 -13 9 -23q10 -9 24 -9h38q9 0 13 -5q5 -5 6 -13v-35q0 -9 -6 -15q-6 -5 -14 -5h-26zM386 506v-4h26q12 0 20 8q8 9 8 21v35q0 12 -8 20q-7 7 -19 7h-38q-10 0 -17 7
q-7 6 -7 16v25q0 9 4 15q4 3 7 5q5 2 10 2h14v4h-14q-6 0 -11 -3q-5 -2 -8 -6q-5 -7 -5 -17v-25q0 -10 7 -18q8 -8 20 -8h38q11 0 17 -7q7 -7 7 -17v-35q0 -12 -7 -18q-8 -7 -18 -7h-26zM386 499v-4h26q14 0 24 11q11 10 11 25v35q0 14 -10 24t-24 10h-38q-8 0 -13 5
q-4 5 -4 11v25q0 7 3 11q1 1 4 3t7 2h14v3h-14q-5 0 -9 -1q-3 -2 -5 -5q-5 -5 -5 -13v-25q0 -8 6 -14t16 -6h38q13 0 21 -9q9 -8 8 -21v-35q1 -13 -8 -22q-9 -10 -22 -10h-26zM386 494v-5h26q17 0 30 12q12 12 12 30v35q0 17 -12 29q-12 11 -29 11h-38q-5 0 -8 4q-2 2 -2 6
v25q0 5 1 6l2 2t4 1h14v5h-14q-4 0 -7 -2q-2 0 -3 -3q-3 -3 -3 -9v-25q0 -6 4 -10q5 -5 12 -5h38q15 0 25 -10q11 -10 11 -25v-35q0 -15 -11 -27q-11 -10 -26 -10h-26zM202 606v-1h118v1h-118zM202 600v-2h118v2h-118zM202 595v-3h118v3h-118zM202 589v-4h118v4h-118z
M202 583v-5h44v-89h1v89h5v-89h2v89h4v-89h3v89h2v-89h5v89v0v-89h6v89h46v5h-118zM39 516v-1h18q4 0 6 1q1 0 3 3q3 3 4 12v35q0 16 11 27q12 12 28 12h35q17 1 30 -12q12 -12 11 -29v-76h2v76q0 18 -12 31q-14 11 -31 11h-35q-17 0 -29 -12q-11 -12 -11 -28v-35
q-1 -9 -4 -12q-1 -1 -3 -2q-1 -1 -5 -1h-18zM39 510v-2h18q5 1 9 2q3 1 5 5q5 5 6 16v35q0 14 8 23q10 10 24 9h35q14 1 25 -9q10 -10 10 -25v-76h2v76q0 16 -11 26t-26 10h-35q-15 0 -25 -10t-10 -24v-35q0 -11 -4 -15q-3 -3 -6 -4q-2 -2 -7 -2h-18zM39 505v-3h18q7 0 11 2
q5 2 9 6q6 9 6 21v35q0 10 8 18q7 8 18 8h35q12 0 21 -8q7 -8 7 -20v-76h3v76q0 13 -8 22q-9 9 -23 9h-35q-12 0 -21 -9q-8 -8 -8 -20v-35q0 -12 -6 -18q-3 -4 -7 -7q-4 -1 -10 -1h-18zM39 499v-4h18q7 0 14 3t10 8q9 11 9 25v35q0 8 5 14q6 5 14 5h35q11 0 16 -5
q5 -6 5 -16v-76h5v76q0 12 -8 19q-7 6 -18 7h-35q-11 -1 -17 -7q-6 -7 -6 -17v-35q0 -13 -8 -22q-4 -5 -8 -7q-6 -3 -13 -3h-18zM39 493v-5h18q9 0 17 4q7 4 13 10q10 13 10 29v35q0 6 3 9q2 3 9 4h35q8 -1 11 -4t4 -11v-76h5v76q0 9 -6 15q-4 4 -14 4h-35q-8 0 -13 -4
q-5 -5 -5 -13v-35q0 -15 -8 -26q-5 -6 -11 -9q-7 -3 -15 -3h-18zM673 307v-1h27q7 0 10 4q4 4 4 12v34q0 7 -3 10q-4 3 -10 3h-39q-15 0 -26 12q-11 11 -11 26v25q0 13 8 23q5 6 11 9q8 3 16 3h13v1h-13q-8 0 -16 -3q-7 -3 -12 -9q-8 -11 -8 -24v-25q0 -15 11 -27
q11 -11 27 -11h39q6 0 9 -4q4 -3 4 -9v-34q0 -7 -4 -11t-10 -4h-27zM673 302v-3h27q9 0 15 6q6 7 6 17v34q0 9 -5 15q-6 5 -15 5h-39q-12 0 -22 9q-8 10 -8 22v25q0 10 6 18q4 5 9 7q6 3 13 3h13v2h-13q-7 0 -13 -3q-7 -2 -10 -7q-7 -9 -7 -20v-25q0 -13 9 -23
q10 -10 23 -10h39q9 0 13 -5q5 -4 5 -13v-34q0 -10 -5 -15q-6 -5 -14 -5h-27zM673 295v-3h27q11 0 20 9q8 8 8 21v34q0 12 -8 19q-7 8 -19 8h-39q-10 0 -17 7q-6 7 -6 17v25q0 8 4 14q3 3 7 6q4 1 10 1h13v3h-13q-6 0 -11 -2t-8 -6q-5 -7 -5 -16v-25q0 -12 7 -19q8 -8 19 -8
h39q10 0 17 -7q7 -6 7 -17v-34q0 -12 -8 -19q-7 -8 -17 -8h-27zM673 290v-5h27q14 0 24 11q11 10 11 26v34q0 15 -10 25q-10 9 -24 9h-39q-7 0 -12 5q-4 5 -4 12v25q0 6 3 10q1 2 4 4h7h13v5h-13q-5 0 -9 -2q-3 -2 -5 -4q-5 -6 -5 -13v-25q0 -9 6 -15q6 -7 15 -7h39
q13 0 21 -7q8 -9 8 -22v-34q0 -14 -9 -24q-8 -8 -21 -8h-27zM673 284v-5h27q17 0 30 12q12 13 12 31v34q0 17 -12 29q-13 12 -29 12h-39q-5 0 -7 2q-3 3 -3 8v25q1 4 2 6q1 1 2 1t4 1h13v5h-13q-4 0 -7 -1l-3 -3q-3 -3 -3 -9v-25q0 -7 4 -11q5 -4 11 -4h39q15 0 25 -10
q11 -11 11 -26v-34q0 -16 -11 -27t-26 -11h-27zM580 397v-33q0 -4 -1 -5q0 -2 -3 -4q-2 -3 -11 -3h-9l6 -5h3q11 0 15 5q3 2 4 5q2 2 2 7v33h-6zM586 397v-33v-8q-2 -4 -5 -6q-5 -5 -16 -5h-2l4 -4q11 1 17 6q3 3 5 8q2 4 2 9v33h-5zM593 397v-33q0 -6 -2 -11q-1 -4 -5 -8
q-6 -5 -16 -6l3 -3q8 2 15 7q4 4 6 9q2 6 2 12v33h-3zM600 397v-8v-7v-18q0 -7 -2 -13q-3 -6 -8 -11q-7 -5 -14 -7l1 -1q8 2 14 7q5 4 9 11q3 6 3 14v18v7v8h-3zM607 397v-8v-25q0 -9 -3 -16q-4 -8 -10 -13t-13 -7l1 -1q7 2 13 7t10 14q3 7 3 16v25v8h-1zM490 396v-1
l116 -116h2v2l-115 115h-3zM496 396l112 -111v6l-105 105h-7zM505 396l103 -104v8l-96 96h-7zM490 386l108 -107h3l-111 110v-3zM490 379l29 -29q-8 -3 -15 -8q-6 -6 -10 -14q-3 -8 -3 -16v-17v-8v-8h5v8v8v17q0 7 3 14q3 6 8 12q7 5 16 7l2 -1q-9 -2 -16 -8q-6 -4 -9 -11
q-2 -6 -2 -13v-33h4v33q0 6 2 12q3 5 7 9q7 6 17 8l2 -2q-11 -2 -17 -7q-4 -4 -7 -9q-1 -5 -1 -11v-33h3v33q0 5 1 10q3 4 6 7q7 6 18 6l4 -3h-3q-11 0 -17 -6q-3 -2 -4 -6q-2 -3 -2 -8v-33h2v33q0 4 2 7q1 3 4 6q4 4 15 4h6l4 -4h-10q-9 0 -12 -4q-3 -2 -3 -3q-1 -3 -1 -6
v-33h1v33q0 3 1 5q0 2 3 3q2 3 11 4h11l45 -45h1l-101 100v0zM327 397v-90h-30v-5h75q10 0 14 5q6 5 6 15v74h-6v-74q0 -9 -4 -11q-3 -3 -10 -4h-17v90h-1v-90h-5v90h-2v-90h-4v90h-3v-90h-2v90h-4v-90h-2v90h-5zM393 396v-74q0 -11 -6 -16q-5 -5 -15 -6h-75v-4h75
q11 0 18 7t7 19v74h-4zM400 396v-74q0 -14 -8 -21t-20 -7h-75v-4h75q14 0 22 8q9 10 9 24v74h-3zM406 396v-74q1 -16 -10 -26q-10 -9 -24 -9h-75v-2h75q15 0 26 10t11 27v74h-3zM413 396v-74q1 -18 -11 -30q-13 -12 -30 -12h-75v-1h75q17 -1 30 12t12 31v74h-1zM212 307v-1
h26q7 0 11 4q5 4 5 12v34q0 7 -4 10q-3 3 -10 3h-39q-16 0 -26 12q-10 11 -10 26v25q-1 13 7 23q5 6 12 9t15 3h13v1h-13q-8 0 -16 -3q-7 -3 -12 -9q-8 -11 -8 -24v-25q0 -15 11 -27q11 -11 27 -11h39q6 0 9 -4q3 -3 3 -9v-34q0 -7 -4 -11q-3 -4 -10 -4h-26zM212 302v-3h26
q10 0 16 6q6 7 6 17v34q0 9 -5 15q-6 5 -15 5h-39q-13 0 -22 9q-8 10 -8 22v25q0 10 6 18q4 5 9 7q6 3 13 3h13v2h-13q-7 0 -14 -3q-5 -2 -10 -7q-6 -9 -6 -20v-25q0 -13 9 -23q10 -10 23 -10h39q8 0 13 -5q5 -4 5 -13v-34q0 -10 -6 -15q-5 -5 -14 -5h-26zM212 295v-3h26
q13 0 21 9q8 8 8 21v34q0 12 -8 19q-7 8 -19 8h-39q-10 0 -16 7q-7 7 -7 17v25q0 8 4 14q3 3 7 6q5 1 10 1h13v3h-13q-6 0 -11 -2t-8 -6q-5 -7 -5 -16v-25q0 -12 7 -19q8 -8 19 -8h39q11 0 17 -7q7 -6 7 -17v-34q0 -12 -7 -19q-8 -8 -19 -8h-26zM212 290v-5h26q15 0 26 11
q10 10 10 26v34q0 15 -10 25q-10 9 -24 9h-39q-7 0 -12 5q-4 5 -4 12v25q0 6 3 10q1 2 4 4h7h13v5h-13q-5 0 -9 -2q-3 -2 -5 -4q-5 -6 -5 -13v-25q0 -9 6 -15q6 -7 15 -7h39q12 0 21 -7q9 -9 8 -22v-34q1 -14 -8 -24q-9 -8 -23 -8h-26zM212 284v-5h26q18 0 30 12
q13 13 13 31v34q0 17 -13 29q-11 12 -28 12h-39q-4 0 -7 2q-3 3 -3 8v25q0 4 2 6q1 1 2 1t4 1h13v5h-13q-4 0 -6 -1q-2 -2 -4 -3q-3 -3 -3 -9v-25q0 -7 5 -11q4 -4 10 -4h39q15 0 25 -10q10 -11 10 -26v-34q0 -16 -10 -27q-11 -11 -27 -11h-26zM654 187v-90h-30v-5h75
q10 0 15 5t5 14v76h-5v-76q0 -7 -4 -10q-3 -4 -11 -4h-16v90h-2v-90h-4v90h-3v-90h-3v90h-4v-90h-2v90h-4v-90h-1v90h-6zM720 187v-76q0 -10 -6 -15q-5 -5 -15 -5h-75v-4h75q11 0 18 7q7 6 7 17v76h-4zM727 187v-76q0 -12 -8 -20q-8 -7 -20 -7h-75v-3h75q14 0 22 8q9 9 9 22
v76h-3zM734 187v-76q0 -14 -10 -24t-25 -10h-75v-2h75q15 -1 26 10q12 11 11 26v76h-2zM740 187v-76q1 -17 -11 -30q-13 -11 -30 -10h-75v-2h75q18 0 31 12q12 13 12 30v76h-2zM490 187v-1h68q16 0 28 -12q11 -11 11 -28v-34q0 -8 -2 -15h-5q3 7 3 15v34q0 15 -10 25
q-11 10 -25 10h-68v-2h68q14 0 23 -9t9 -24v-34q0 -8 -2 -15h-4q3 7 3 15v34q0 13 -8 22q-9 7 -21 7h-68v-3h68q11 0 18 -7q8 -7 8 -19v-34q0 -8 -4 -15h-3q4 7 4 15v34q0 11 -7 18q-6 6 -16 6h-68v-5h68q8 0 14 -4q5 -6 5 -15v-34q0 -9 -5 -15h-2v0q6 5 6 15v34q0 9 -6 13
q-4 5 -12 5h-68v-5h68q6 -1 9 -4q3 -2 3 -9v-34q0 -8 -4 -11q-2 -4 -10 -4h-66v-5h118v5h-12q3 7 2 15v34q1 18 -12 30q-12 11 -28 11h-68zM490 91v-4h118v4h-118zM490 84v-3h118v3h-118zM490 77v-2h118v2h-118zM490 71v-2h118v2h-118zM356 187v-1h78q15 0 28 -11
q11 -12 11 -28v-78h1v78q0 17 -11 29q-13 12 -29 11h-78zM356 181v-2h78q13 0 23 -9q9 -9 9 -23v-78h3v78q0 14 -11 24q-10 10 -24 10h-78zM356 175v-3h78q11 0 18 -7t7 -18v-78h4v78q0 12 -9 21q-8 8 -20 7h-78zM356 170v-5h78q8 0 13 -4q5 -6 5 -14v-78h5v78q0 10 -7 17
q-6 6 -16 6h-78zM356 164v-5h78q5 0 8 -4q4 -2 4 -8v-78h5v78q0 8 -5 12q-4 5 -12 5h-78zM315 131h2v56h-2v-56zM321 131h1v56h-1v-56zM326 131h3v56h-3v-56zM331 131h4v56h-4v-56zM336 131h5v56h-5v-56zM152 97v-1h19q4 0 5 1q2 0 3 2q3 4 4 13v35q0 15 11 27q12 12 28 12
h35q17 0 30 -12q12 -12 11 -30v-75h2v75q0 18 -12 31q-13 13 -31 12h-35q-17 0 -29 -13q-11 -11 -11 -27v-35q-1 -9 -4 -12q-1 -2 -3 -3h-4h-19zM152 91v-2h19q4 0 8 2q3 1 6 4q4 6 5 17v35q0 13 8 22q10 10 24 10h35q15 0 25 -9q10 -10 10 -26v-75h2v75q1 17 -11 27
q-11 10 -26 10h-35q-14 0 -24 -10t-10 -24v-35q0 -11 -5 -15q-2 -3 -5 -5q-3 -1 -7 -1h-19zM152 85v-3h19q6 0 10 2q5 3 9 7q6 8 6 21v35q0 11 8 17q7 8 18 8h35q12 0 21 -8q7 -6 7 -20v-75h3v75q0 14 -8 23q-9 9 -23 8h-35q-12 1 -21 -8q-8 -8 -8 -20v-35q0 -12 -6 -19
q-2 -4 -7 -6q-4 -1 -9 -2h-19zM152 80v-4h19q7 0 14 3q6 2 10 8q8 10 8 25v35q0 8 5 13q6 6 14 6h35q11 0 16 -6q5 -5 5 -16v-75h5v75q0 13 -8 19q-7 7 -18 7h-35q-11 0 -17 -7q-6 -6 -6 -16v-35q0 -14 -8 -23q-3 -5 -8 -7t-12 -2h-19zM152 74v-5h19q8 0 17 4q7 3 12 9
q10 14 10 30v35q0 6 3 8q3 4 9 4h35q8 0 11 -4q4 -3 4 -11v-75h5v75q0 10 -5 15t-15 5h-35q-8 0 -13 -5q-4 -5 -4 -12v-35q0 -15 -9 -26q-5 -5 -11 -9q-7 -3 -14 -3h-19z" />
    <glyph glyph-name=".null" horiz-adv-x="0" 
 />
    <glyph glyph-name="nonmarkingreturn" horiz-adv-x="219" 
 />
    <glyph glyph-name="space" unicode=" " horiz-adv-x="219" 
 />
    <glyph glyph-name="exclam" unicode="!" horiz-adv-x="165" 
d="M40 501v-283h20v283h-20zM65 501v-283h16v283h-16zM91 501v-283h11v283h-11zM116 501v-283h8v283h-8zM141 501v-283h3v283h-3zM61 175q-9 0 -15 -6q-7 -7 -7 -16v-62q0 -9 7 -15q6 -7 15 -7h62q9 0 16 7q7 6 7 15v62q0 9 -7 16q-7 6 -16 6h-62zM123 171q8 0 13 -5t5 -13
v-62q0 -7 -5 -12t-13 -5h-62q-7 0 -12 5t-5 12v62q0 8 5 13t12 5h62zM69 161q-16 0 -16 -15v-47q0 -16 16 -16h47q15 0 15 16v47q0 15 -15 15h-47zM109 150q11 0 11 -11v-33q0 -11 -11 -11h-33q-11 0 -11 11v33q0 11 11 11h33zM81 142q-8 0 -8 -8v-23q0 -8 8 -8h23q8 0 8 8
v23q0 8 -8 8h-23z" />
    <glyph glyph-name="quotedbl" unicode="&#x22;" horiz-adv-x="103" 
d="M-79 751v-175h4v175h-4zM-57 751v-175h7v175h-7zM-37 751v-175h12v175h-12zM-15 751v-175h15v175h-15zM6 751v-175h20v175h-20zM81 751v-175h4v175h-4zM103 751v-175h7v175h-7zM124 751v-175h12v175h-12zM145 751v-175h15v175h-15zM166 751v-175h20v175h-20z" />
    <glyph glyph-name="numbersign" unicode="#" horiz-adv-x="355" 
d="M336 162v4h-297v-4h297zM336 183v8h-297v-8h297zM336 204v12h-297v-12h297zM336 225v16h-297v-16h297zM336 246v19h-297v-19h297zM39 410v-4h297v4h-297zM39 389v-7h297v7h-297zM39 368v-12h297v12h-297zM39 347v-15h297v15h-297zM39 326v-19h297v19h-297zM64 138h3v297
h-3v-297zM84 138h8v297h-8v-297zM105 138h13v297h-13v-297zM127 138h15v297h-15v-297zM148 138h19v297h-19v-297zM312 435h-4v-297h4v297zM291 435h-8v-297h8v297zM269 435h-11v-297h11v297zM248 435h-15v-297h15v297zM228 435h-20v-297h20v297z" />
    <glyph glyph-name="dollar" unicode="$" horiz-adv-x="429" 
d="M174 600v-100q-26 -1 -50 -11q-26 -10 -46 -30q-38 -38 -39 -92q0 -54 38 -93q21 -21 47 -31q29 -11 59 -10h82q15 -1 22 -4q8 -3 11 -7q8 -7 8 -20q0 -12 -8 -19q-3 -4 -10 -7q-5 -2 -11 -3v57q-1 1 -4 1v-58q-4 0 -8 -1h-9v59h-8v-59h-13v59h-12v-59h-9v59h-16v-59h-5
v59h-10h-9v-59h-50v-19h141q18 1 30 5q10 4 17 11q13 13 13 33q0 21 -13 34q-7 7 -18 12q-11 4 -29 4h-82q-27 0 -52 10q-23 8 -40 26q-33 33 -33 79q1 45 33 79q17 17 40 26q25 9 52 9h142v19h-48v100h-4v-100h-17v100h-8v-100h-13v100h-12v-100h-9v100h-16v-100h-5v100
h-19zM183 476q-26 0 -50 -10q-22 -8 -38 -24q-31 -31 -31 -75q0 -45 30 -75q17 -17 39 -25q24 -9 50 -9h82q19 0 31 -6q12 -4 19 -12q16 -15 16 -38q0 -22 -15 -37q-7 -7 -20 -12q-12 -5 -31 -5h-141v-16h141q21 0 37 6q15 6 25 16q19 20 19 49q0 28 -20 48q-10 11 -24 16
q-16 6 -37 6h-82q-24 0 -45 8q-18 7 -32 21q-26 26 -26 64t26 65q14 14 32 21q21 8 45 8h142v16h-142zM183 450q-22 0 -41 -7q-17 -7 -29 -19q-24 -23 -24 -58q0 -34 23 -58q12 -12 30 -18q19 -8 41 -8h82q23 0 40 -6q17 -7 28 -18q22 -23 22 -55q1 -33 -22 -55
q-11 -12 -28 -18q-17 -7 -40 -7h-141v-12h141q24 0 44 8q20 7 33 20q26 26 25 64q0 37 -25 63q-14 13 -33 21q-20 8 -44 8h-82q-21 0 -37 6q-15 5 -25 16q-20 20 -20 49q0 30 20 50q10 10 25 16q16 7 37 7h142v11h-142zM183 426q-18 0 -32 -6q-13 -5 -20 -14
q-17 -15 -17 -40q0 -24 16 -40q8 -8 21 -13q14 -5 32 -5h82q27 0 49 -9q21 -8 37 -24q30 -30 30 -72q0 -43 -30 -73q-16 -16 -36 -23q-23 -10 -50 -10h-141v-7h141q27 0 52 9q22 9 39 25q33 34 33 79t-33 78q-17 17 -39 25q-25 9 -52 9h-82q-18 0 -29 5q-12 5 -19 12
q-14 13 -14 34q0 22 15 35q7 8 18 11q11 6 29 6h142v8h-142zM183 401q-15 -1 -23 -4q-8 -4 -12 -8q-9 -8 -9 -23q-1 -14 9 -22q4 -5 12 -8t23 -4h82q30 1 58 -10q26 -10 46 -29q37 -38 37 -90t-37 -91q-20 -19 -46 -29q-28 -10 -58 -10h-141v-4h141q30 -1 60 11q26 10 47 30
q37 39 37 93t-38 92q-20 20 -46 30q-23 10 -48 11v59h-4v-59h-8h-9v59h-8v-59h-13v59h-12v-59h-9v59h-16v-59h-5v59q-11 0 -19 -1v-57q-8 1 -13 3q-7 3 -10 7q-8 7 -8 19q0 13 8 20q4 4 10 7q8 3 22 4h142v4h-142zM277 67h-4v-98h4v98zM174 67v-98h19v98h-19zM198 67v-98h16
v98h-16zM223 67v-98h12v98h-12zM248 67v-98h8v98h-8z" />
    <glyph glyph-name="percent" unicode="%" horiz-adv-x="490" 
d="M402 501l-363 -364v-6l369 370h-6zM432 501l-393 -394v-11l404 405h-11zM463 501l-424 -424v-8h8l424 424v8h-8zM471 479l-410 -410h22l388 388v22zM102 470q-9 0 -15 -7q-7 -6 -7 -15v-61q0 -9 7 -16q6 -6 15 -6h62q9 0 15 6q7 7 7 16v61q0 9 -7 15q-6 7 -15 7h-62z
M164 466q7 0 12 -6q5 -4 5 -12v-61q0 -8 -5 -13t-12 -5h-62q-7 0 -12 5q-6 5 -6 13v61q0 8 6 12q5 6 12 6h62zM110 456q-16 0 -16 -15v-47q0 -15 16 -15h46q15 0 15 15v47q0 15 -15 15h-46zM471 449l-380 -380h27l353 353v27zM149 445q11 0 11 -11v-33q0 -11 -11 -11h-32
q-11 0 -11 11v33q0 9 9 11h34zM121 437q-8 0 -8 -8v-24q0 -7 8 -7h23q8 0 8 7v24q0 8 -8 8h-23zM353 208q-9 0 -16 -6q-6 -7 -6 -16v-61q0 -9 6 -16q7 -6 16 -6h61q9 0 16 6q6 7 6 16v61q0 9 -6 16q-7 6 -16 6h-61zM414 204q8 0 12 -6q6 -4 6 -12v-61q0 -7 -6 -13
q-4 -4 -12 -4h-61q-8 0 -13 4q-5 6 -5 13v61q0 8 5 12q5 6 13 6h61zM360 195q-15 0 -15 -16v-47q0 -15 15 -15h47q15 0 15 15v47q0 16 -15 16h-47zM400 183q11 0 11 -11v-33q0 -11 -11 -11h-33q-11 0 -11 11v33q0 11 11 11h33zM372 175q-8 0 -8 -7v-24q0 -8 8 -8h24q7 0 7 8
v24q0 7 -7 7h-24z" />
    <glyph glyph-name="ampersand" unicode="&#x26;" horiz-adv-x="412" 
d="M121 486q-25 -14 -41 -37l3 -3q15 23 40 37t54 14q41 0 73 -26q32 -28 37 -70q2 -22 -3 -42q-2 -4 -3 -8q-8 -23 -22 -40q-6 -8 -13 -14l-12 11q7 7 12 14q12 15 19 34q2 3 3 8q4 17 3 35q-5 36 -32 59t-62 22q-25 0 -46 -11q-21 -12 -35 -33l-1 -1v0q-12 -20 -14 -44
q-1 -25 9 -47q10 -20 20 -29v0v0l246 -229h11l-251 233v0v0q-12 13 -19 28q-10 21 -9 44q2 21 13 38q1 3 2 3q11 19 31 30q21 11 43 11q32 0 57 -21t29 -54q2 -16 -2 -32q-2 -4 -3 -7q-6 -18 -18 -33q-5 -7 -12 -13l-9 9q6 6 11 12q11 14 16 29q1 2 2 6q4 14 2 28
q-3 27 -24 45t-49 18q-19 0 -36 -9t-27 -25q-2 -3 -3 -5v0q-8 -15 -10 -32q-1 -19 7 -36t18 -25v0l1 -1l258 -241h7v8l-258 241v0q-10 12 -16 23q-7 14 -5 31q1 13 6 23l2 4q1 3 2 3q8 14 23 22t32 8q23 0 40 -15q18 -15 21 -39q2 -11 -2 -23l-2 -6q-4 -13 -14 -25l-10 -12
l-7 6q6 6 10 11q9 12 13 23q1 3 1 5q4 11 2 21q-2 19 -18 32q-14 13 -34 12q-15 0 -27 -6q-13 -7 -20 -19q-3 -3 -4 -7h-1q-4 -9 -4 -18q-1 -15 5 -27q6 -13 15 -22v0l250 -234v21l-237 222l-7 -7l7 6q-11 12 -14 20q-5 9 -4 19q0 4 1 8v0q2 6 5 11q5 9 15 13q9 6 20 6
q14 0 25 -9q11 -10 12 -24q1 -6 -1 -13l-1 -4q-3 -10 -11 -20q-4 -4 -9 -10l-4 4q6 6 9 10q7 10 10 17v3q3 8 2 13q-2 11 -11 20q-8 7 -21 7q-10 0 -17 -4q-9 -4 -13 -12q-4 -5 -5 -11v0v-1q-1 -2 -1 -4q-1 -9 3 -17q3 -6 13 -18l17 10h-1l-16 -9l234 -219v26l-181 168
l71 -63l-17 14l1 2v1v6h-4v-5v-1l-13 13q6 7 13 13q14 18 23 41q1 5 3 10q5 20 3 42q-6 44 -39 72t-75 28q-29 0 -56 -15zM288 258q1 13 2 24q0 -2 0 6h-8v-6v-17zM61 392q-2 -30 10 -57q7 -13 23 -33v0l234 -216h4l-237 220q-11 14 -20 31q-12 26 -11 55q3 29 20 55
q-3 -1 -1 2q-2 -2 -2 0q-18 -27 -20 -57zM187 397q4 -3 4 -7v-5q0 -1 -1 -3q-2 -4 -7 -11q-2 -4 -8 -9v0l-1 2q-11 12 -12 14q-1 4 -1 7q0 4 2 8q2 3 6 6q4 2 9 2q6 0 9 -4zM47 226q-8 -41 9 -78q16 -35 48 -56t69 -23q35 -2 69 12q30 12 53 34l-13 13q-22 -20 -48 -31
q-29 -11 -59 -9q-33 2 -60 20q-28 18 -42 48q-15 32 -7 65q9 41 41 67l-14 13q-34 -29 -46 -75zM303 282q-1 -18 -4 -34l18 -17l-8 8q4 20 5 42q0 5 1 7h-12v-6zM329 221q8 27 10 59v8h-16v-7q-1 -26 -6 -50zM344 280q-2 -33 -10 -64l15 -14q13 37 13 77v9h-18v-8zM111 285
q-31 -27 -40 -64q-7 -33 7 -63q13 -29 40 -46q26 -17 57 -18q30 -3 57 9q25 10 46 28l-12 11q-18 -17 -39 -25q-26 -10 -51 -9q-28 2 -50 16q-23 16 -35 40q-11 26 -5 54q7 30 35 56v0v1l-10 10v0zM128 268l-1 -1q-26 -24 -33 -52q-5 -24 6 -47q10 -22 31 -36q20 -13 45 -14
q24 -2 47 7q20 8 37 23l-8 8q-16 -14 -33 -20q-21 -8 -42 -7q-22 1 -40 12q-19 13 -27 32q-9 20 -5 40q5 23 29 45l3 3l-9 7v0zM143 249q-22 -21 -25 -38q-4 -16 3 -33q7 -15 23 -26q14 -9 34 -11q18 0 37 7q13 5 27 16l-6 5q-11 -10 -25 -15q-16 -6 -33 -5q-17 2 -30 10
q-14 9 -20 22q-6 14 -3 28t23 35l3 3l-5 5zM159 231q-17 -18 -18 -26q-1 -7 3 -17q4 -9 14 -15q8 -6 21 -8q12 -1 26 5q10 3 19 11l-3 2q-9 -7 -17 -9q-13 -6 -24 -5q-12 2 -21 7q-8 6 -11 14q-4 8 -3 15q0 6 16 23q3 2 6 5l-3 2q-3 -2 -5 -4z" />
    <glyph glyph-name="quotesingle" unicode="'" horiz-adv-x="57" 
d="M-23 751v-175h4v175h-4zM-1 751v-175h7v175h-7zM19 751v-175h12v175h-12zM41 751v-175h15v175h-15zM62 751v-175h20v175h-20z" />
    <glyph glyph-name="parenleft" unicode="(" horiz-adv-x="280" 
d="M261 69v19h-3q-57 1 -104 33q-48 30 -71 82q-24 52 -17 108q10 74 67 123q55 48 128 48v19q-80 0 -140 -52q-63 -54 -74 -136q-8 -62 18 -118q26 -57 78 -91t115 -35h3zM261 94v15h-3q-50 1 -93 29q-42 27 -64 73q-20 47 -14 97q9 67 60 111q49 41 114 42v15
q-70 0 -124 -46q-56 -48 -66 -120q-7 -55 17 -105q23 -50 69 -80q46 -31 101 -31h3zM261 119v12h-3q-44 0 -81 24q-38 25 -56 66q-19 40 -13 84q7 59 53 97q43 37 100 37v12q-62 0 -108 -39q-49 -42 -57 -105q-6 -48 14 -92q20 -43 61 -69q40 -26 87 -27h3zM261 144v7h-2
q-38 1 -71 22q-32 21 -48 56t-12 73q7 51 47 84q36 33 86 33v7q-53 0 -92 -34q-41 -35 -48 -89q-6 -40 12 -77q17 -38 51 -59q34 -23 75 -23h2zM261 168v4h-2q-32 1 -59 19q-28 17 -41 47q-14 30 -10 62q6 42 39 71q31 27 73 27v4q-43 0 -76 -28q-34 -29 -40 -74
q-4 -33 10 -64q14 -30 43 -48q28 -19 61 -20h2z" />
    <glyph glyph-name="parenright" unicode=")" horiz-adv-x="280" 
d="M42 69q62 1 115 35q52 34 78 91q26 56 18 118q-11 82 -74 136q-61 52 -140 52v-19q72 0 128 -48q57 -49 67 -123q7 -56 -16 -108q-24 -52 -72 -82q-48 -32 -104 -33h-3v-19h3zM42 94q55 0 101 31q46 30 69 80t16 105q-10 72 -65 120q-53 46 -124 46v-15q65 -1 114 -42
q51 -44 60 -111q6 -50 -15 -97q-21 -46 -64 -73q-42 -28 -93 -29h-2v-15h3zM41 119q48 1 89 27q40 26 60 69q20 44 14 92q-9 63 -57 105q-46 39 -108 39v-12q57 0 100 -37q46 -38 53 -97q6 -44 -13 -84q-18 -41 -56 -66q-37 -24 -82 -24h-2v-12h2zM41 144q41 0 75 23
q34 21 52 59q17 37 11 77q-7 54 -48 89q-40 34 -92 34v-7q49 0 87 -33q39 -33 45 -84q5 -38 -11 -73t-48 -56t-71 -22h-2v-7h2zM41 168q33 1 61 20q29 18 42 48q15 31 11 64q-7 45 -41 74q-32 28 -75 28v-4q42 0 73 -27q33 -29 39 -71q4 -32 -10 -62q-13 -30 -40 -47
q-28 -18 -60 -19h-2v-4h2z" />
    <glyph glyph-name="asterisk" unicode="*" horiz-adv-x="351" 
d="M324 426l-140 -139h1v-9h7l140 140v8h-8zM48 422h-9v-6l137 -138h8v9v0zM289 426l-105 -104h1v-21l126 125h-22zM184 322v0l-101 100h-22l122 -121zM255 426l-71 -70h1v-26l97 96h-27zM184 356v0l-66 66h-27l92 -92zM39 386l108 -108h11l-119 119v-11zM39 357l79 -79h5
l-84 84v-5zM44 198l79 79h-5l-74 -74v-5zM44 163l114 114h-11l-103 -103v-11zM44 138h10l130 130v0v9h-8l-132 -133v-6zM319 134h8v8l-135 135h-7v-9h-1zM88 138l96 96l-1 21l-116 -117h21zM184 234l100 -100h21l-120 121zM123 138l61 61v0l-1 26l-87 -87h27zM185 199h-1
l64 -65h28l-91 91v-26zM327 171l-106 106h-10l116 -116v10zM327 201l-76 76h-6l82 -82v6zM332 365l-87 -87h6l81 81v6zM332 399l-121 -121h10l111 111v10z" />
    <glyph glyph-name="plus" unicode="+" horiz-adv-x="355" 
d="M138 430v-95h-99v-4h297v4h-95v95h-20v-95h-5v95h-15v-95h-10v95h-12v-95h-13v95h-8v-95h-17v95h-3zM39 314v-9h297v9h-297zM39 292v-11h297v11h-297zM39 272v-16h297v16h-297zM39 250v-19h297v19h-297zM138 230v-97h3v97h-3zM158 230v-97h8v97h-8zM179 230v-97h12v97
h-12zM201 230v-97h15v97h-15zM221 230v-97h20v97h-20z" />
    <glyph glyph-name="comma" unicode="," horiz-adv-x="163" 
d="M39 174v-176h20v176h-20zM64 174v-176h16v176h-16zM90 174v-176h11v176h-11zM114 174v-176h9v176h-9zM140 174v-176h4v176h-4z" />
    <glyph glyph-name="hyphen" unicode="-" horiz-adv-x="355" 
d="M39 501v-4h297v4h-297zM39 480v-8h297v8h-297zM39 459v-12h297v12h-297zM39 438v-16h297v16h-297zM39 417v-20h297v20h-297z" />
    <glyph glyph-name="hyphen" unicode="&#x2010;" horiz-adv-x="355" 
d="M39 501v-4h297v4h-297zM39 480v-8h297v8h-297zM39 459v-12h297v12h-297zM39 438v-16h297v16h-297zM39 417v-20h297v20h-297z" />
    <glyph glyph-name="period" unicode="." horiz-adv-x="165" 
d="M61 175q-9 0 -15 -6q-7 -7 -7 -16v-62q0 -9 7 -15q6 -7 15 -7h62q9 0 16 7q6 6 6 15v62q0 9 -6 16q-7 6 -16 6h-62zM123 171q8 0 13 -5t5 -13v-62q0 -7 -5 -12t-13 -5h-62q-7 0 -12 5t-5 12v62q0 8 5 13t12 5h62zM69 161q-16 0 -16 -15v-47q0 -16 16 -16h47q15 0 15 16
v47q0 15 -15 15h-47zM109 150q11 0 11 -11v-33q0 -11 -11 -11h-33q-11 0 -11 11v33q0 11 11 11h33zM81 142q-9 0 -9 -8v-23q0 -9 9 -9h23q8 0 8 9v23q0 8 -8 8h-23z" />
    <glyph glyph-name="slash" unicode="/" horiz-adv-x="489" 
d="M39 131l369 369h-6l-363 -363v-6zM39 96l404 404h-11l-393 -393v-11zM39 69h8l423 423v8h-8l-423 -423v-8zM83 69l387 387v23l-409 -410h22zM118 69l352 352v28l-379 -380h27z" />
    <glyph glyph-name="zero" unicode="0" horiz-adv-x="502" 
d="M144 466q-53 -34 -79 -91q-26 -56 -18 -118q11 -82 74 -136t146 -52q82 2 143 59q60 57 67 139q6 61 -22 116q-29 56 -81 87q-53 33 -116 32q-62 -1 -114 -36zM372 467q52 -31 79 -85q28 -54 22 -114q-7 -81 -66 -137t-140 -58q-82 -2 -143 51q-63 53 -73 134
q-8 60 17 116q26 56 77 89q52 34 113 35t114 -31zM155 449q-47 -30 -71 -82q-23 -51 -16 -107q10 -74 66 -123q57 -49 132 -47t130 53q54 52 60 126q5 56 -20 105t-73 78q-48 30 -105 29q-56 -1 -103 -32zM359 446q46 -28 70 -76q24 -47 20 -100q-7 -72 -59 -121t-124 -52
q-71 -1 -126 46t-64 118q-8 54 15 103t68 78q46 30 99 31q55 1 101 -27zM166 432q-42 -28 -63 -73q-21 -47 -14 -97q9 -66 59 -109q51 -43 117 -42q67 2 116 47q49 46 55 113q3 49 -19 94q-22 44 -65 70t-93 25q-51 -1 -93 -28zM346 425q40 -25 61 -66t17 -87
q-5 -62 -51 -105q-45 -43 -108 -44q-62 -2 -109 38q-48 41 -55 103q-7 47 13 89q20 43 59 69q39 25 86 26t87 -23zM178 414q-37 -24 -56 -65q-18 -40 -12 -84q8 -58 52 -96q45 -38 103 -37q59 2 102 42q42 40 48 98q3 44 -16 83q-20 39 -57 61q-38 23 -83 23q-44 -1 -81 -25
zM333 403q34 -20 52 -55q17 -35 14 -74q-4 -53 -43 -89q-38 -37 -91 -37q-53 -2 -93 33q-41 34 -47 87q-5 39 11 75q17 36 50 58q34 21 73 22q40 1 74 -20zM189 396q-31 -21 -48 -55q-16 -35 -10 -73q6 -50 44 -83q39 -34 90 -32q50 1 87 36t41 86q4 37 -14 70
q-17 34 -49 54t-71 19q-38 -1 -70 -22zM320 382q28 -17 42 -45q15 -29 12 -61q-3 -43 -35 -73q-31 -30 -74 -31q-44 -1 -77 28q-33 28 -38 71q-5 32 9 61q13 30 41 48q27 18 60 19q32 0 60 -17zM225 341q-16 -11 -24 -28q-7 -18 -5 -36q3 -26 22 -42q20 -17 45 -16t44 18v0
v0q18 18 21 43q1 18 -7 35v0q-9 17 -25 27t-35 10q-19 -1 -36 -11zM261 338q15 0 28 -8t20 -21q6 -13 5 -28q-2 -20 -16 -34q-15 -14 -35 -14q-20 -1 -35 12v0q-16 13 -19 33v0q-1 15 5 29v0q6 14 19 22q12 9 28 9v0zM238 321q-10 -6 -15 -18q-5 -11 -4 -23q2 -16 15 -27
q12 -11 28 -11q17 1 29 12t14 28q0 12 -5 23q-5 10 -16 17q-11 6 -23 6q-13 0 -23 -7zM261 319q10 0 18 -4q9 -6 13 -14q4 -9 3 -19q0 -13 -10 -21v0q-10 -10 -23 -10v0q-13 0 -23 8q-9 9 -11 22v0q-1 10 3 18v0q4 9 12 15q9 5 18 5v0z" />
    <glyph glyph-name="one" unicode="1" horiz-adv-x="217" 
d="M39 502v-4h9q59 1 102 -40q44 -44 43 -105v-284h4v284q1 63 -44 108q-45 42 -105 41h-9zM39 481v-8h9q50 0 85 -33q35 -35 35 -87v-284h8v284q0 55 -38 93q-37 35 -90 35h-9zM39 460v-11h9q40 -1 67 -27q28 -27 28 -69v-284h12v284q0 47 -31 78q-31 29 -76 29h-9zM39 439
v-16h9q31 0 50 -19q20 -18 20 -51v-284h16v284q0 39 -25 63q-24 23 -61 23h-9zM39 418v-19h9q23 -1 33 -13q12 -9 13 -33v-284h19v284q-1 31 -19 47q-16 18 -46 18h-9z" />
    <glyph glyph-name="two" unicode="2" horiz-adv-x="429" 
d="M146 501v-19h120q27 0 53 -10q22 -8 39 -26q33 -32 33 -79q0 -46 -32 -79q-18 -17 -40 -26q-26 -10 -53 -10l-83 1q-17 -1 -28 -5t-18 -11q-13 -13 -13 -34t13 -34q7 -7 18 -11q10 -4 28 -4h226v19h-226q-15 0 -22 3t-10 7q-8 7 -8 20q0 12 8 20q4 4 11 7t21 3h83
q30 0 59 11q27 10 47 30q38 39 38 94q0 54 -38 92q-20 20 -47 31q-29 11 -59 10h-120zM146 476v-15h120q24 0 45 -8q18 -7 32 -21q26 -27 27 -65q0 -38 -27 -64q-14 -14 -32 -21q-21 -8 -45 -8h-83q-20 0 -36 -6q-15 -6 -25 -17q-20 -20 -20 -48q0 -29 20 -49q10 -10 25 -16
t36 -6h226v16h-226q-18 0 -31 5q-11 5 -19 12q-15 15 -15 38q0 22 15 38q8 7 20 12t30 5h83q26 0 50 9q22 8 39 25q31 31 31 75q0 45 -32 75q-16 17 -38 25q-24 9 -50 9h-120zM146 452v-13h120q21 0 37 -6q15 -6 26 -16q20 -20 20 -50q0 -29 -20 -49q-11 -11 -26 -16
q-16 -7 -37 -7h-83q-23 0 -44 -8q-18 -7 -31 -21q-27 -26 -27 -63t26 -63q14 -14 32 -21q20 -8 44 -8h226v12h-226q-22 0 -39 7q-17 6 -29 18q-22 23 -22 55t22 55q13 12 29 18q17 7 39 7h83q22 0 42 7q17 7 29 19q23 24 23 58q0 35 -24 58q-12 12 -29 19q-19 8 -41 8h-120z
M146 426v-7h120q18 0 29 -5t18 -12q15 -13 15 -35q0 -21 -14 -35q-7 -7 -19 -11q-11 -5 -29 -5h-83q-27 0 -52 -9q-22 -9 -39 -25q-31 -34 -31 -79q-1 -45 31 -79q17 -16 39 -25q25 -9 52 -9h226v7h-226q-25 0 -49 10q-21 7 -36 24q-31 30 -30 72q0 42 30 72q16 17 36 24
q24 9 49 9h83q19 0 32 6q13 4 21 13q16 16 16 40q0 25 -16 40q-8 9 -21 14t-32 5h-120zM146 402v-4h120q14 -1 22 -4q7 -3 10 -7q9 -7 8 -20q1 -12 -8 -19q-3 -4 -10 -7q-7 -4 -22 -4h-83q-30 1 -59 -11q-26 -10 -46 -30q-38 -39 -39 -93q0 -54 39 -93q20 -20 46 -30
q29 -11 59 -11h226v4h-226q-29 0 -58 10q-25 10 -45 30q-37 38 -37 90q1 52 38 90q19 20 44 30q29 10 58 10h83q16 0 23 4q8 3 13 8q9 8 8 22q1 15 -8 23q-5 4 -13 8q-8 3 -23 4h-120z" />
    <glyph glyph-name="three" unicode="3" horiz-adv-x="386" 
d="M41 500v-19h181q27 0 52 -9q23 -10 40 -26q32 -34 32 -80q0 -37 -22 -67l4 -4q4 -4 9 -10q28 36 28 81q1 54 -37 93q-21 20 -46 30q-30 11 -60 11h-181zM41 475v-16h181q24 0 45 -7q18 -7 32 -21q26 -27 26 -65q0 -30 -17 -54q6 -4 12 -9q21 28 21 63q0 44 -31 76
q-16 16 -38 24q-24 10 -50 9h-181zM41 450v-11h181q21 0 37 -7q15 -6 26 -16q20 -21 20 -50q0 -24 -16 -44q6 -2 10 -5q17 22 17 49q0 34 -24 58q-12 12 -29 19q-18 7 -41 7h-181zM41 426v-8h181q18 -1 30 -6q10 -4 17 -11q14 -13 14 -35q0 -21 -14 -34q-1 -1 -1 -2
q3 -1 8 -2q15 15 15 38q1 25 -16 40q-8 9 -21 14q-13 6 -32 6h-181zM41 400v-4h181q15 0 22 -3t11 -7q7 -7 7 -20q0 -12 -7 -19q-4 -4 -12 -7q-7 -3 -21 -4h-60v-19h59q27 0 52 -9q22 -9 40 -26q32 -34 32 -80t-33 -78q-17 -17 -40 -27q-24 -9 -51 -9h-182v-19h182
q30 0 59 11q25 10 46 30q38 38 39 92q0 54 -39 93q-20 20 -46 30q-25 10 -52 11q7 0 14 -1q2 0 3 1q8 3 12 8q9 8 9 22q0 15 -8 23q-5 4 -13 8q-8 3 -23 3h-181zM162 296h59q24 0 44 -8q19 -7 33 -21q26 -26 26 -65q0 -38 -26 -64q-14 -14 -33 -20q-20 -9 -44 -9h-182v-15
h182q26 0 50 9q21 8 38 25q30 30 30 74q0 45 -30 76q-17 17 -38 24q-24 10 -50 10h-59v-16zM162 275h59q21 0 37 -7q14 -6 25 -16q20 -20 20 -49q0 -30 -21 -50q-10 -10 -24 -16q-16 -6 -37 -6h-182v-12h182q22 0 41 7q16 7 29 19q24 23 24 58q0 34 -23 57q-13 13 -30 19
q-19 7 -41 7h-59v-11zM162 254h59q17 0 29 -5q12 -4 18 -11q14 -14 14 -35q0 -22 -14 -35q-7 -7 -18 -12q-12 -5 -29 -5h-182v-7h182q18 0 31 5t21 13q17 16 17 41q0 24 -16 40q-9 8 -21 13q-14 6 -32 6h-59v-8zM162 233h59q14 -1 21 -4q8 -3 11 -7q8 -7 8 -19q0 -13 -8 -20
q-4 -4 -11 -7t-21 -4h-182v-4h182q14 1 22 4q9 3 12 8q10 8 10 23q0 14 -9 22q-4 5 -12 8t-23 4h-59v-4z" />
    <glyph glyph-name="four" unicode="4" horiz-adv-x="398" 
d="M275 502h19h-19zM299 502h16h-16zM325 502h11h-11zM349 502h8h-8zM374 502h5h-5zM40 499v-94q-1 -60 41 -103q45 -46 107 -45h87v-188h19v430h-19v-139h-87q-23 1 -33 13q-11 10 -12 32v94h-4v-94q1 -23 13 -35q11 -13 36 -14h87v-17h-87q-31 1 -48 20q-18 16 -18 46v94
h-8v-94q0 -32 20 -52q20 -21 54 -21h87v-14h-87q-39 0 -64 26q-23 24 -23 61v94h-12v-94q0 -41 27 -70q28 -28 72 -28h87v-10h-87q-47 0 -78 32q-30 32 -30 76v94h-16v-94q0 -50 34 -87q37 -36 90 -36h87v-6h-87q-55 0 -94 39q-36 38 -35 90v94h-19zM299 499v-430h16v430
h-16zM325 499v-430h11v430h-11zM349 499v-430h8v430h-8zM374 499v-430h5v430h-5z" />
    <glyph glyph-name="five" unicode="5" horiz-adv-x="430" 
d="M304 502v-20h-121q-27 0 -52 -10q-22 -8 -40 -25q-32 -33 -33 -79q0 -46 33 -80q17 -17 40 -26q25 -10 52 -9h83q18 -1 29 -5q10 -4 17 -11q14 -13 14 -34t-13 -33q-7 -8 -18 -12t-29 -4h-225v19h225q15 0 22 3t11 7q8 7 8 20t-9 20q-3 4 -10 7t-22 3h-83q-30 0 -59 11
q-26 10 -46 31q-39 39 -39 93q1 54 39 93q20 20 46 30q30 11 59 11h121zM304 476v-15h-121q-24 0 -44 -8q-18 -7 -33 -21q-26 -27 -26 -64q0 -39 26 -65q14 -14 32 -21q21 -8 45 -8h83q21 0 36 -6t26 -17q19 -19 19 -48t-19 -49q-10 -10 -25 -16q-16 -6 -37 -6h-225v16h225
q19 0 31 5t20 12q15 16 15 38q0 23 -16 38q-7 7 -19 12t-31 5h-83q-26 0 -50 9q-22 8 -38 25q-31 31 -31 76q0 44 31 75q16 16 38 25q24 9 50 8h121zM304 452v-12h-121q-20 0 -36 -7q-16 -5 -26 -16q-20 -20 -20 -49q0 -30 20 -50q10 -11 25 -16q16 -7 37 -7h83q24 0 44 -7
q19 -8 32 -22q27 -25 27 -63q0 -37 -27 -63q-13 -14 -31 -21q-21 -8 -45 -8h-225v12h225q22 0 40 7q16 6 29 18q22 23 22 55q-1 33 -23 55q-12 12 -28 18q-18 7 -40 7h-83q-22 0 -41 8q-17 6 -29 18q-24 24 -24 59q0 34 24 58q12 12 29 18q19 8 41 8h121zM304 426v-7h-121
q-17 0 -28 -5q-12 -5 -19 -12q-14 -13 -14 -35q-1 -21 14 -35q7 -7 18 -11q11 -5 29 -5h83q27 0 52 -9q22 -9 39 -25q32 -33 32 -79q0 -45 -31 -79q-18 -16 -40 -25q-25 -9 -52 -9h-225v8h225q26 -1 49 9q21 7 37 24q30 30 30 72t-30 73q-17 16 -37 24q-23 8 -49 8h-83
q-18 0 -32 6q-13 4 -20 13q-17 16 -17 40q0 25 17 41q8 8 20 13q14 5 32 5h121zM304 402v-4h-121q-14 -1 -21 -4t-11 -7q-8 -7 -8 -20q0 -12 8 -19q4 -4 10 -7q8 -3 22 -4h83q30 1 59 -10q27 -11 47 -31q38 -38 39 -93q0 -54 -39 -93q-20 -20 -47 -30q-29 -11 -59 -11h-225
v4h225q30 0 59 10q25 10 45 30q37 38 36 90q0 53 -37 91q-20 19 -45 29q-29 11 -58 10h-83q-15 1 -23 4t-12 8q-9 8 -9 22q0 15 9 23q4 5 13 8q7 4 22 4h121z" />
    <glyph glyph-name="six" unicode="6" horiz-adv-x="424" 
d="M195 500q-56 -1 -101 -34q-24 -17 -39 -45q-15 -31 -14 -64v-140q-2 -64 46 -109q48 -41 109 -39h66q30 0 59 11q26 10 46 30q38 38 38 92t-38 93q-21 20 -46 30q-29 10 -59 10h-118v-4h118q29 1 57 -10q26 -10 45 -29q37 -38 37 -90t-36 -90q-20 -19 -46 -29
q-27 -10 -57 -10h-66q-59 -2 -106 37q-47 44 -46 107v140q0 32 14 62q15 27 39 44q44 33 98 33q2 0 1 0h15h7h84v4h-107zM218 479h-7h-15q1 0 -1 0q-50 -1 -88 -30q-21 -15 -33 -38q-13 -26 -13 -54v-140q0 -56 40 -94q40 -34 95 -33h66q26 0 51 9q22 9 39 25q32 33 32 78
q0 46 -32 78q-17 16 -39 25q-25 10 -51 9h-118v-8h118q26 0 48 -8q21 -8 36 -24q30 -29 30 -72q0 -42 -29 -72q-15 -16 -36 -24q-23 -9 -49 -9h-66q-52 0 -90 32q-38 35 -37 88v140q-1 27 12 51q11 21 30 35q37 27 84 29h7h9h91v7h-84zM196 458q-45 -1 -77 -25
q-17 -13 -27 -31q-10 -21 -10 -45v-140q-1 -49 32 -79q33 -27 82 -27h66q23 0 43 7q19 8 33 21q25 26 25 63t-26 63q-13 13 -32 20q-20 8 -43 8h-118v-11h118q22 0 40 -7q16 -7 27 -18q23 -22 23 -55q0 -32 -23 -54q-11 -12 -27 -19q-18 -7 -40 -7h-66q-46 1 -74 26t-28 69
v140q0 22 9 39q8 16 23 28q29 22 70 22l106 1v12h-84zM196 437q-38 -1 -64 -21q-14 -11 -21 -24q-8 -15 -8 -35v-140q0 -41 25 -63t68 -22h66q20 0 36 6q14 6 25 16q19 19 19 48t-20 48q-10 10 -24 16q-16 6 -36 6h-118v-15h118q18 0 30 -6q12 -4 20 -12q15 -14 15 -37
t-15 -38q-7 -7 -20 -12q-12 -4 -30 -4h-66q-39 0 -57 18q-20 16 -21 51v140q0 17 6 28q6 10 17 19q20 16 56 18h105v15h-106zM211 416h-9h-5q-34 -1 -53 -17q-10 -7 -15 -17t-5 -25v-140q0 -31 18 -47q19 -16 54 -17h66q17 0 29 5q11 3 17 10q14 13 14 34q0 20 -14 33
q-7 7 -18 12q-11 4 -28 4h-118v-19h118q14 -1 21 -4q8 -3 11 -7q8 -6 8 -19t-7 -20q-4 -4 -11 -7q-8 -3 -22 -3h-66q-29 2 -41 13q-11 9 -12 32v140q1 12 4 16q2 6 9 11q12 11 41 13h14h7h84v19h-91z" />
    <glyph glyph-name="seven" unicode="7" horiz-adv-x="392" 
d="M39 501v-4h190q29 0 58 -11q25 -9 45 -29q37 -38 37 -90t-37 -90q-20 -20 -45 -29q-29 -11 -58 -11h-3q-19 -1 -27 -5t-14 -11q-10 -10 -11 -38v-114h4v114q1 27 10 36q5 6 13 9q7 4 25 5h3q30 0 59 11q27 10 47 30q38 39 38 93t-38 93q-21 20 -47 30q-29 11 -59 11h-190
zM39 479v-7h190q26 0 49 -9q20 -7 37 -24q29 -30 29 -72q1 -42 -29 -72q-16 -17 -37 -24q-23 -9 -49 -9h-3q-23 0 -37 -7t-23 -17q-17 -20 -18 -55v-114h9v114q1 33 15 50q8 9 20 15q13 6 34 7h3q27 -1 52 8q22 9 39 26q32 33 32 78t-32 79q-17 16 -39 25q-25 9 -52 8h-190z
M39 459v-12h190q22 0 39 -7q17 -6 29 -18q22 -23 22 -55t-22 -55q-12 -12 -28 -18q-17 -7 -40 -7h-3q-27 0 -48 -9q-18 -9 -31 -25q-23 -28 -23 -70v-114h11v114q0 38 21 63q11 14 27 21q18 8 43 8h3q24 0 44 8q19 7 32 21q26 26 26 63t-26 63q-13 14 -32 21q-20 8 -44 8
h-190zM39 438v-16h190q18 0 30 -5q13 -5 20 -12q16 -16 16 -38q0 -23 -16 -38q-7 -7 -19 -12t-31 -5h-3q-31 0 -58 -12q-24 -11 -40 -31q-30 -37 -29 -86v-114h15v114q0 45 26 76q14 18 35 27q23 10 51 10h3q21 0 36 6t25 16q20 21 20 49t-20 49q-10 10 -25 16t-36 6h-190z
M39 416v-19h190q15 0 22 -3t11 -7q7 -8 7 -20q0 -13 -7 -20q-4 -4 -11 -7t-22 -3h-3q-35 1 -68 -14q-30 -13 -50 -38q-35 -46 -34 -102v-114h19v114q-1 51 30 89q18 22 43 33q29 13 60 13h3q18 0 29 4q10 5 17 12q14 12 13 33q0 20 -13 34q-7 7 -17 11q-12 4 -29 4h-190z
" />
    <glyph glyph-name="eight" unicode="8" horiz-adv-x="423" 
d="M148 480q-32 -21 -48 -57q-13 -28 -12 -59v1q-17 -20 -27 -43q-22 -47 -15 -98q8 -68 61 -112q51 -45 120 -43q68 2 118 49q49 46 55 114q4 51 -18 96q-23 45 -67 71q-44 27 -95 27q-52 -1 -95 -30q-19 -12 -34 -29v1v1q0 27 12 53q16 34 48 54q31 21 69 22t70 -19
t49 -53q13 -27 13 -57q3 -2 4 -4q1 34 -14 64q-17 33 -50 53q-34 21 -72 20q-39 -1 -72 -22zM160 462q-28 -17 -41 -47q-6 -14 -9 -29q4 4 10 7q2 10 6 19q12 27 39 44q25 16 55 17q31 0 57 -15q25 -16 39 -42q6 -11 8 -22q5 -4 10 -7q-3 16 -11 32q-14 28 -42 45t-61 17
q-32 -1 -60 -19zM171 445q-22 -15 -33 -39v-1v-1q8 5 17 8q10 14 23 23q20 13 43 13q23 1 43 -12q14 -8 24 -23l18 -8l-2 4q-12 23 -34 37q-23 14 -49 13q-27 0 -50 -14zM183 427q-5 -3 -11 -8q23 7 47 7q26 0 52 -7q-6 6 -12 10q-17 10 -38 10t-38 -12zM313 396
q42 -25 65 -70q22 -44 18 -94q-6 -66 -54 -111q-49 -47 -115 -48q-67 -2 -118 41q-51 44 -59 111q-7 50 14 95q21 46 64 73q41 28 92 29q50 0 93 -26zM137 379q-39 -25 -57 -66q-19 -41 -13 -86q7 -60 53 -99t106 -38t104 43q44 41 49 101q4 44 -17 84q-20 41 -58 64
q-39 23 -84 23q-45 -1 -83 -26zM300 375q36 -22 55 -60q20 -38 17 -80q-6 -57 -47 -97q-42 -39 -99 -41q-58 0 -101 37q-44 37 -51 94q-6 43 13 82q17 39 54 62q36 24 79 25t80 -22zM148 362q-33 -22 -50 -58q-16 -36 -10 -75q6 -51 46 -85t91 -33q53 1 90 37q39 36 44 88
q3 39 -15 73q-18 35 -51 55t-73 19q-39 0 -72 -21zM287 354q31 -19 47 -50q15 -32 13 -67q-5 -48 -39 -80q-35 -33 -83 -34q-47 -2 -84 30q-36 31 -42 78q-5 36 10 68q15 33 46 53q30 20 66 20q35 0 66 -18zM159 344q-28 -19 -41 -49q-14 -30 -10 -63q6 -44 40 -72
q33 -29 77 -28t77 31q32 31 35 75q3 32 -12 61t-43 46q-28 18 -61 17q-33 0 -62 -18zM275 332q23 -14 37 -40q12 -25 10 -53q-3 -38 -31 -65q-28 -26 -66 -26q-39 -1 -67 23q-30 25 -34 64q-4 28 8 54t36 42t53 16q29 1 54 -15zM171 326q-23 -14 -34 -39q-12 -25 -8 -52
q5 -36 32 -59q27 -24 64 -23q36 1 62 25q26 25 29 61q3 27 -10 51q-11 24 -34 38q-24 14 -51 14q-27 -1 -50 -16zM262 312q17 -12 27 -30q10 -20 8 -41q-2 -29 -23 -48q-21 -20 -49 -21q-30 -1 -51 19q-23 18 -26 47q-3 21 7 40q8 20 26 32t40 12t41 -10z" />
    <glyph glyph-name="nine" unicode="9" horiz-adv-x="424" 
d="M234 69h8h6q-1 0 2 0q55 1 100 34q24 18 39 45q15 31 15 64v140q1 64 -47 110q-48 40 -109 38h-66q-30 0 -59 -11q-25 -10 -46 -30q-38 -38 -38 -92t39 -92q20 -20 46 -30q28 -11 58 -10h118v3h-118q-29 0 -58 10q-24 10 -44 30q-37 37 -37 89t37 90q19 19 44 29
q29 10 58 10h66q60 2 107 -37q46 -44 45 -107v-140q0 -32 -14 -62q-14 -26 -38 -44q-45 -32 -99 -33q-2 0 -1 0h-107v-4h93zM225 90q-4 0 17 0h6h1q49 1 88 29q21 16 33 39q13 26 13 54v140q1 57 -40 94q-41 34 -95 33h-66q-27 0 -51 -9q-23 -8 -40 -25q-31 -33 -31 -78
q1 -45 32 -78q17 -16 39 -25q24 -9 51 -9h118v8h-118q-25 -1 -48 9q-21 7 -36 23q-30 30 -31 72q0 42 30 72q16 16 37 23q23 10 48 10h66q53 0 90 -32q37 -35 37 -88v-140q0 -27 -12 -51q-11 -21 -31 -36q-36 -26 -84 -28h-14h-9h-84v-7h84zM248 111q44 1 77 25q17 13 27 32
q10 20 10 44v140q0 49 -33 78q-32 29 -81 28h-66q-24 1 -44 -7q-18 -8 -31 -21q-26 -26 -26 -63t26 -62q14 -14 31 -21q20 -8 44 -8h118v12h-118q-21 0 -39 7q-16 6 -28 17q-22 23 -23 55q0 32 22 55q12 11 29 18q17 6 39 6h66q46 0 74 -24q29 -26 29 -70v-140q0 -21 -9 -39
q-9 -16 -24 -28q-29 -21 -70 -23h-6h-8h-93v-11h84h23zM234 132h8h6q39 1 64 21q14 10 21 25q8 14 8 34v140q0 41 -26 63q-23 22 -67 22h-66q-21 0 -36 -6q-15 -5 -25 -15q-19 -21 -19 -49t19 -48q10 -10 25 -16q16 -6 36 -6h118v15h-118q-17 0 -30 6q-12 4 -20 12
q-14 15 -14 37q0 23 14 37q8 8 19 13q13 5 31 5h66q39 -1 57 -19q20 -16 20 -51v-140q0 -17 -6 -27q-5 -11 -16 -20q-21 -16 -55 -17h-107v-17zM234 153h8h6q33 1 51 16q11 9 16 18q5 10 5 25v140q-1 31 -18 47q-19 17 -54 17h-66q-17 0 -28 -4q-11 -5 -18 -12
q-13 -12 -13 -33q0 -20 13 -33q7 -7 18 -12q11 -4 28 -4h118v19h-118q-14 1 -21 4t-11 7q-8 7 -8 19q0 13 8 20q3 4 11 7q7 3 21 3h66q29 -2 40 -12q12 -10 13 -33v-140q0 -11 -3 -16t-10 -11q-13 -11 -41 -13h-106v-19h93z" />
    <glyph glyph-name="colon" unicode=":" horiz-adv-x="165" 
d="M61 399q-9 0 -15 -7q-7 -7 -7 -16v-61q0 -10 7 -17q6 -6 15 -6h62q9 0 16 6q6 7 6 17v61q0 9 -6 16q-7 7 -16 7h-62zM123 394q8 0 13 -5t5 -13v-61q0 -8 -5 -13t-13 -5h-62q-7 0 -12 5t-5 13v61q0 8 5 13t12 5h62zM69 385q-7 0 -12 -5q-4 -5 -4 -11v-47q0 -7 4 -11
q5 -5 12 -5h47q6 0 11 5q4 4 4 11v47q0 6 -4 11q-5 5 -11 5h-47zM109 372q11 0 11 -10v-34q0 -10 -11 -10h-33q-11 0 -11 10v34q0 10 9 10h35zM81 365q-9 0 -9 -8v-24q0 -8 9 -8h23q8 0 8 8v24q0 8 -8 8h-23zM61 175q-9 0 -15 -6q-7 -7 -7 -16v-62q0 -9 7 -15q6 -7 15 -7h62
q9 0 16 7q6 6 6 15v62q0 9 -6 16q-7 6 -16 6h-62zM123 171q8 0 13 -5t5 -13v-62q0 -7 -5 -12t-13 -5h-62q-7 0 -12 5t-5 12v62q0 8 5 13t12 5h62zM69 161q-7 0 -12 -4q-4 -5 -4 -11v-47q0 -7 4 -12q5 -4 12 -4h47q6 0 11 4q4 5 4 12v47q0 6 -4 11q-5 4 -11 4h-47zM109 150
q11 0 11 -11v-33q0 -11 -11 -11h-33q-11 0 -11 11v33q0 11 11 11h33zM81 142q-9 0 -9 -8v-23q0 -9 9 -9h23q8 0 8 9v23q0 8 -8 8h-23z" />
    <glyph glyph-name="semicolon" unicode=";" horiz-adv-x="165" 
d="M40 174v-176h19v176h-19zM64 174v-176h17v176h-17zM90 174v-176h11v176h-11zM115 174v-176h8v176h-8zM141 174v-176h3v176h-3zM61 399q-9 0 -15 -7q-7 -7 -7 -16v-61q0 -10 7 -17q6 -6 15 -6h62q9 0 16 6q6 7 6 17v61q0 9 -6 16q-7 7 -16 7h-62zM123 394q8 0 13 -5t5 -13
v-61q0 -8 -5 -13t-13 -5h-62q-7 0 -12 5t-5 13v61q0 8 5 13t12 5h62zM69 385q-7 0 -12 -5q-4 -5 -4 -11v-47q0 -7 4 -11q5 -5 12 -5h47q6 0 11 5q4 4 4 11v47q0 6 -4 11q-5 5 -11 5h-47zM109 372q11 0 11 -10v-34q0 -10 -11 -10h-33q-11 0 -11 10v34q0 10 9 10h35zM81 365
q-9 0 -9 -8v-24q0 -8 9 -8h23q8 0 8 8v24q0 8 -8 8h-23z" />
    <glyph glyph-name="less" unicode="&#x3c;" horiz-adv-x="356" 
d="M191 501q-65 -65 -70 -69q-7 -8 -23 -23q-4 -5 -6 -7l-1 -1v-1h-1v0q-49 -48 -51 -118q1 -72 51 -122l91 -91h5l-93 93q-50 49 -50 120q2 68 50 115v0v0v1l2 1l6 6l23 24q10 10 36 35q21 22 35 35l1 2h-5zM221 69l-110 111q-44 43 -44 102q2 57 43 97v0h1v1v1l1 1
q2 1 4 3t3 4l23 23l70 70l20 19h-11l-14 -14q-12 -11 -36 -35q-23 -23 -34 -35l-12 -12l-11 -11l-7 -7l-2 -2v0h-1v0v0q-43 -43 -44 -103q0 -63 45 -108l106 -105h10zM257 69l-129 129q-36 36 -35 84q1 46 35 80v0v0l1 1l1 1l7 7l23 23l35 35l35 35l37 37h-17l-29 -29
l-70 -70l-23 -23q0 -1 -3 -4q-2 -1 -3 -3q-3 -2 -2 -1v-1v0q-38 -38 -39 -88q0 -53 39 -93l120 -120h17zM292 69l-146 146q-30 30 -28 66q0 35 27 64v0v0h1l2 1l7 7l23 23l70 70l54 55h-22l-44 -44q-46 -47 -70 -70l-23 -23l-6 -6q0 -1 -1 -1q-1 -1 -1 -2h-1v0
q-32 -32 -32 -73q-1 -44 32 -78l136 -135h22zM327 69l-163 163q-23 25 -22 49q-1 24 21 46v0v0h1q0 1 1 1v1l6 6q5 4 12 12l12 12q10 9 35 35l35 35l72 72h-27l-58 -59l-71 -70l-23 -23l-7 -7l-1 -1h-1q1 0 0 0q-26 -27 -26 -60q-2 -33 27 -62l149 -150h28z" />
    <glyph glyph-name="equal" unicode="=" horiz-adv-x="355" 
d="M39 409v-4h297v4h-297zM39 388v-8h297v8h-297zM39 366v-11h297v11h-297zM39 345v-15h297v15h-297zM39 325v-20h297v20h-297zM39 264v-19h297v19h-297zM39 239v-15h297v15h-297zM39 214v-12h297v12h-297zM39 189v-8h297v8h-297zM39 164v-3h297v3h-297z" />
    <glyph glyph-name="greater" unicode="&#x3e;" horiz-adv-x="356" 
d="M180 501l1 -2q14 -13 36 -35l35 -35l23 -24l7 -6l1 -1v-1h1v0q48 -47 49 -115q0 -71 -50 -120l-93 -93h5l91 91q51 50 51 122q-2 70 -51 118v0h-1v1q0 1 -1 1q-2 2 -6 7q-16 15 -23 23q-5 4 -70 69h-5zM166 69l106 105q44 45 44 108q-1 60 -44 103v0v0h-1v0l-2 2l-7 7
l-11 11l-12 12q-11 12 -34 35q-24 24 -36 35l-14 14h-11l20 -19l70 -70l23 -23q1 -2 4 -4q1 -2 3 -3l1 -1v-1l1 -1v0v0q41 -40 43 -97q0 -59 -44 -102l-110 -111h11zM136 69l120 120q39 40 39 93q-1 50 -38 88h-1v1q1 -1 -1 1t-4 3q-3 3 -3 4l-23 23l-70 70l-29 29h-17
l37 -37l35 -35l35 -35l23 -23l7 -7l1 -1l1 -1v0v0q35 -34 35 -80q1 -48 -35 -84l-128 -129h16zM106 69l136 135q33 34 32 78q0 41 -32 73v0v0l-2 2l-1 1l-6 6l-23 23l-70 70l-44 44h-22l55 -55l70 -70l23 -23l6 -7l2 -1h1v0v0q27 -29 27 -64q2 -36 -27 -66l-147 -146h22z
M77 69l149 150q29 29 27 62q0 33 -26 60q-1 0 0 0h-1l-1 1l-7 7l-23 23l-70 70l-58 59h-28l72 -72l35 -35l35 -35l12 -12q7 -8 12 -12l6 -6v-1q1 0 1 -1h1v0v0q22 -22 21 -46q1 -24 -21 -49l-164 -163h28z" />
    <glyph glyph-name="question" unicode="?" horiz-adv-x="262" 
d="M40 500v-4h77q28 1 55 -13q24 -13 39 -34t21 -44t6 -46q-1 -24 -7 -46q-7 -23 -22 -43q-14 -21 -38 -34q-26 -14 -54 -13h-77v-5h77q29 0 56 15q24 14 39 35q16 20 23 44q7 23 7 47q0 23 -6 47q-7 23 -21 45q-16 22 -41 36q-28 14 -57 13h-77zM40 479v-8h77q23 1 43 -10
q19 -10 31 -27q11 -16 17 -36q5 -19 4 -39q0 -20 -6 -39q-5 -19 -17 -35q-12 -17 -30 -27q-20 -10 -42 -10h-77v-8h77q24 0 45 11q20 11 33 30q13 17 19 37t6 41q1 21 -5 41q-5 21 -17 39q-13 18 -34 29q-23 11 -47 11h-77zM40 458v-12h77q17 0 31 -7q13 -7 23 -20
q8 -12 12 -27q5 -16 4 -33q0 -16 -5 -31q-4 -16 -14 -28q-9 -13 -21 -19q-14 -8 -30 -8h-77v-11h77q19 0 35 8t26 23q10 14 16 32q4 17 5 34q0 19 -4 36q-5 17 -15 31q-11 15 -26 23q-17 9 -37 9h-77zM40 436v-15h77q12 0 20 -5q7 -4 13 -11q5 -8 9 -20q3 -12 3 -25
q-1 -13 -4 -25q-4 -12 -10 -20q-7 -9 -14 -12q-6 -5 -17 -5h-77v-15h77q14 0 25 6q10 6 19 16q7 11 12 26q5 14 5 29t-3 29q-5 14 -12 25q-8 11 -19 16q-11 6 -27 6h-77zM40 416v-21h77q7 0 8 -1q2 -1 4 -5q3 -3 5 -10q3 -8 3 -18t-3 -19q-3 -8 -6 -12q-4 -5 -5 -5
q-2 -1 -6 -1h-77v-20h77q9 0 15 4q6 3 12 10q5 7 9 19q3 11 3 23q1 13 -2 23q-4 12 -9 18q-5 8 -11 11t-17 4h-77zM61 175q-9 0 -15 -6q-7 -7 -7 -16v-62q0 -9 7 -15q6 -7 15 -7h62q9 0 16 7q6 6 6 15v62q0 9 -6 16q-7 6 -16 6h-62zM123 171q8 0 13 -5t5 -13v-62
q0 -7 -5 -12t-13 -5h-62q-7 0 -12 5t-5 12v62q0 8 5 13t12 5h62zM69 161q-16 0 -16 -15v-47q0 -16 16 -16h47q15 0 15 16v47q0 15 -15 15h-47zM109 150q11 0 11 -11v-33q0 -11 -11 -11h-33q-11 0 -11 11v33q0 11 11 11h33zM81 142q-9 0 -9 -8v-23q0 -9 9 -9h23q8 0 8 9v23
q0 8 -8 8h-23z" />
    <glyph glyph-name="at" unicode="@" horiz-adv-x="593" 
d="M262 553q-35 -12 -60 -37q-12 -13 -38 -39l-38 -38l-28 -27q-4 -5 -8 -8l-2 -2v-1v0v0q-47 -46 -49 -111q0 -69 49 -116l103 -103q47 -50 114 -56q33 -1 64 11q32 13 56 38l111 111q37 36 37 89t-37 90t-91 35q-23 -2 -43 -10l-10 -1l-3 -16l-3 3q-23 20 -53 25
q-31 5 -59 -7v0q-29 -11 -46 -37v0q-18 -25 -20 -56v0q-2 -41 24 -73v0v0q26 -32 66 -39q31 -4 60 8l17 -3l11 54l45 45q9 10 19 10q9 1 17 -7q10 -10 9 -21q1 -10 -9 -20l-112 -112q-12 -11 -23 -16q-10 -4 -21 -3q-21 -1 -51 26l-103 104q-23 22 -20 45q-1 23 19 44v0h1v0
l2 3l8 7q4 5 14 14l14 14q15 15 38 39q32 31 38 37q11 11 21 14t23 2q24 -3 41 -20q2 -1 7 -6l8 -8l12 13l-14 15q-21 21 -53 24q-16 2 -29 -2q-15 -6 -29 -19l-76 -76l-14 -14q-9 -9 -13 -14l-9 -7l-2 -3v0v0q-26 -26 -26 -57q-1 -30 26 -58l104 -104q32 -31 62 -32
q15 0 29 5q15 6 30 21l111 111q15 15 14 33q1 18 -15 34q-13 13 -30 11q-17 0 -31 -14l-27 -27l1 10l22 21q15 15 35 16t34 -13q17 -17 16 -38q1 -20 -15 -36l-112 -112q-15 -15 -31 -22q-16 -6 -32 -5q-31 2 -65 34l-104 103q-29 29 -27 62q0 34 27 61v0v0v0h1l1 3q3 2 9 7
l27 28q13 12 38 38q26 25 39 38q14 14 30 19q14 5 32 4q33 -4 55 -27q3 -2 8 -7l7 -7l11 10q-2 2 -8 7q-4 5 -7 7q-27 27 -64 31q-21 3 -39 -4q-19 -6 -36 -23q-12 -12 -38 -37q-25 -26 -38 -39l-28 -28q-4 -4 -8 -7l-2 -3h-1v0v0q-30 -31 -31 -70q0 -41 32 -73l103 -104
q36 -35 76 -37q19 -1 37 6q19 7 36 24l112 112q20 21 20 47q0 27 -20 48q-19 19 -46 17q-26 -1 -44 -20l-7 -6l3 15q21 19 48 21q30 1 52 -21q23 -23 23 -53q0 -31 -23 -54l-111 -112q-18 -18 -40 -26q-20 -9 -41 -7q-43 2 -81 40l-104 104q-34 35 -33 79q1 43 33 76v0
q1 0 0 0h1l2 3q3 4 8 8l27 27q15 16 39 39q32 31 38 37q17 18 40 26q20 7 41 4q41 -4 70 -33l15 -15l8 8q-3 3 -8 7l-7 7q-32 33 -77 37q-24 3 -46 -5q-25 -8 -44 -28l-38 -38q-25 -25 -38 -37l-28 -28q-5 -5 -8 -9l-2 -2h-1v0q-35 -36 -36 -84q-1 -50 36 -87l104 -104
q39 -40 88 -43q25 -1 47 8q23 9 42 28l112 112q25 25 26 61q-1 36 -26 61q-25 26 -61 24q-24 -1 -44 -15l3 17q20 9 40 11q41 1 70 -27q30 -30 30 -71t-29 -69l-111 -112q-21 -22 -47 -32t-53 -8q-54 4 -95 47l-104 103q-41 41 -41 96q1 54 40 93h1v0h1l1 3l9 7q4 5 13 14
l14 14l76 76q21 22 49 31q25 9 52 6q49 -6 84 -40q2 -3 7 -8q5 -4 7 -7l6 5l-7 7q-6 5 -8 8q-37 36 -89 41q-27 4 -54 -5q-30 -10 -52 -32q-13 -13 -38 -39q-26 -25 -38 -37l-28 -28q-5 -6 -8 -9l-2 -1l-1 -1v0q-40 -41 -42 -97q-1 -59 42 -102l104 -104q43 -44 101 -49
q29 -1 55 9q28 12 49 33l112 112q31 31 31 75t-31 75q-32 32 -76 30q-20 -1 -38 -10l4 20q16 5 33 6q52 2 88 -34t37 -86q0 -52 -37 -87l-111 -112q-23 -24 -55 -37q-30 -12 -62 -10q-66 6 -111 54l-104 104q-47 46 -47 113q1 64 47 108v1v0h1l2 2l8 8q18 19 27 28
q33 32 77 76q24 25 57 36q31 10 62 7q58 -7 98 -47q10 -10 15 -14l2 2l-7 7q-4 5 -7 8q-42 41 -100 47q-8 1 -16 1q-24 0 -47 -7zM329 369q25 -5 43 -21q7 -6 13 -14l-5 -25q-6 16 -18 27q-16 13 -35 17q-20 3 -39 -4q-18 -8 -30 -24q-11 -17 -12 -37q-1 -26 15 -47
q17 -21 43 -25v0q26 -5 48 10q9 5 15 12l-5 -24v-1q-28 -18 -60 -13q-33 5 -53 31v0q-21 25 -19 57q2 25 15 45q15 20 37 30q16 6 33 6h14zM325 339q15 -3 27 -14q12 -10 16 -25t1 -30q-6 -21 -24 -32v0q-18 -11 -39 -8t-34 20v0q-13 16 -12 37q1 16 10 29v0q9 13 24 19
q11 5 23 4h8z" />
    <glyph glyph-name="A" unicode="A" horiz-adv-x="477" 
 />
    <glyph glyph-name="B" unicode="B" horiz-adv-x="418" 
 />
    <glyph glyph-name="C" unicode="C" horiz-adv-x="470" 
 />
    <glyph glyph-name="D" unicode="D" horiz-adv-x="464" 
 />
    <glyph glyph-name="E" unicode="E" horiz-adv-x="354" 
 />
    <glyph glyph-name="F" unicode="F" horiz-adv-x="351" 
 />
    <glyph glyph-name="G" unicode="G" horiz-adv-x="490" 
 />
    <glyph glyph-name="H" unicode="H" horiz-adv-x="440" 
 />
    <glyph glyph-name="I" unicode="I" horiz-adv-x="152" 
 />
    <glyph glyph-name="J" unicode="J" horiz-adv-x="304" 
 />
    <glyph glyph-name="K" unicode="K" horiz-adv-x="451" 
 />
    <glyph glyph-name="L" unicode="L" horiz-adv-x="370" 
 />
    <glyph glyph-name="M" unicode="M" horiz-adv-x="515" 
 />
    <glyph glyph-name="N" unicode="N" horiz-adv-x="447" 
 />
    <glyph glyph-name="O" unicode="O" 
 />
    <glyph glyph-name="P" unicode="P" horiz-adv-x="421" 
 />
    <glyph glyph-name="Q" unicode="Q" 
 />
    <glyph glyph-name="R" unicode="R" horiz-adv-x="420" 
 />
    <glyph glyph-name="S" unicode="S" horiz-adv-x="397" 
 />
    <glyph glyph-name="T" unicode="T" horiz-adv-x="488" 
 />
    <glyph glyph-name="U" unicode="U" horiz-adv-x="437" 
 />
    <glyph glyph-name="V" unicode="V" horiz-adv-x="494" 
 />
    <glyph glyph-name="W" unicode="W" horiz-adv-x="681" 
 />
    <glyph glyph-name="X" unicode="X" horiz-adv-x="620" 
d="M462 517q66 -40 101 -108q34 -69 28 -146q-8 -103 -84 -175q-75 -71 -179 -73t-183 65q-78 68 -92 170q-10 78 22 149q33 71 99 114q65 42 143 43q79 2 145 -39l2 3q-68 41 -147 40t-146 -44q-66 -44 -99 -116t-23 -150q14 -104 94 -173q80 -68 185 -66q104 3 181 75
t86 176q6 78 -29 148q-36 69 -102 110zM449 497q60 -37 93 -99q31 -63 26 -133q-8 -94 -77 -159t-164 -67t-166 59q-72 62 -84 156q-10 70 20 135t89 104q60 39 132 40q71 1 131 -36l4 6q-62 38 -136 37q-73 -1 -135 -41q-61 -40 -92 -107q-30 -67 -21 -140q13 -96 87 -160
q74 -63 171 -61q98 3 169 70q70 67 79 164q6 71 -27 136q-32 65 -95 102zM437 476q55 -32 83 -89q30 -57 24 -120q-7 -86 -69 -144q-63 -59 -149 -61q-85 -1 -150 54t-76 141q-9 64 18 122q27 59 81 94t119 36q64 1 119 -33l6 10q-57 35 -125 34t-125 -38q-56 -36 -85 -98
q-28 -62 -19 -129q12 -89 80 -147q68 -59 158 -57q89 3 155 64q65 62 73 151q5 66 -25 126t-87 94zM426 456q48 -29 73 -80q27 -51 21 -107q-6 -77 -61 -129q-57 -53 -133 -54q-77 -2 -135 48t-68 126q-7 57 17 109q24 53 72 84q49 32 107 33q57 0 107 -30l6 13
q-52 32 -114 31t-113 -34q-53 -34 -78 -91q-26 -56 -19 -117q11 -82 73 -135q64 -54 145 -52q83 2 143 58q59 57 66 139q5 60 -22 115q-28 54 -81 86zM413 436q43 -26 66 -71q22 -44 18 -94q-5 -67 -55 -113q-49 -47 -117 -48q-67 -2 -118 42q-52 44 -60 111q-7 50 14 96
t64 74t94 29q50 0 94 -26l9 16q-47 29 -103 28q-57 -1 -104 -31q-47 -31 -71 -82q-23 -51 -16 -107q10 -74 67 -122q57 -49 131 -47t129 53q54 51 61 125q4 56 -21 105q-26 49 -73 78z" />
    <glyph glyph-name="Y" unicode="Y" horiz-adv-x="481" 
 />
    <glyph glyph-name="Z" unicode="Z" horiz-adv-x="413" 
 />
    <glyph glyph-name="bracketleft" unicode="[" horiz-adv-x="220" 
d="M201 452v4h-13q-23 0 -35 -13q-13 -11 -14 -35v-235q1 -30 15 -42q11 -13 41 -15h6v4h-6q-29 1 -38 14q-13 10 -14 39v235q1 24 12 33q11 11 33 11h13zM201 473v8h-13q-33 0 -53 -20q-21 -19 -21 -53v-235q1 -38 22 -59q20 -22 59 -23h6v8h-6q-36 1 -54 21q-18 18 -19 53
v235q0 31 19 48q17 17 47 17h13zM201 494v12h-13q-41 0 -70 -27q-28 -28 -28 -71v-235q0 -46 28 -76q30 -30 77 -30h6v11h-6q-44 1 -68 27q-26 26 -26 68v235q0 39 26 63q24 23 61 23h13zM201 515v15h-13q-50 1 -87 -33q-37 -37 -36 -89v-235q-1 -55 36 -93q38 -39 94 -38h6
v15h-6q-51 0 -84 34q-31 33 -30 82v235q-1 47 31 78q31 30 76 29h13zM201 536v20h-13q-60 0 -104 -41q-44 -46 -44 -107v-235q-1 -62 43 -110q47 -46 112 -46h6v20h-6q-58 -1 -98 39q-38 41 -38 97v235q0 54 39 93q37 35 90 35h13z" />
    <glyph glyph-name="backslash" unicode="\" horiz-adv-x="489" 
d="M470 137l-363 363h-6l369 -369v6zM470 107l-393 393h-11l404 -404v11zM470 77l-423 423h-8v-8l422 -423h9v8zM448 69l-409 410v-23l387 -387h22zM418 69l-379 380v-28l352 -352h27z" />
    <glyph glyph-name="bracketright" unicode="]" horiz-adv-x="220" 
d="M52 452q22 0 32 -11q12 -9 13 -33v-235q-2 -29 -14 -39q-9 -13 -38 -14h-6v-4h6q29 2 41 15q13 12 15 42v235q-1 24 -14 35q-12 13 -35 13h-13v-4h13zM52 473q29 0 46 -17q20 -17 20 -48v-235q-1 -35 -20 -53q-17 -20 -53 -21h-6v-8h6q39 1 59 23q20 21 21 59v235
q0 34 -21 53q-20 20 -52 20h-13v-8h13zM52 494q37 0 61 -23q25 -24 25 -63v-235q0 -42 -25 -68t-68 -27h-6v-11h6q47 0 76 30t29 76v235q0 43 -29 71q-28 27 -69 27h-13v-12h13zM52 515q45 1 76 -29q31 -31 31 -78v-235q1 -49 -31 -82q-33 -34 -83 -34h-6v-15h6q56 -1 94 38
q36 38 36 93v235q0 52 -37 89q-36 34 -86 33h-13v-15h13zM52 536q52 0 90 -35q39 -39 38 -93v-235q1 -56 -37 -97q-40 -40 -98 -39h-6v-20h6q65 0 112 46q44 48 42 110v235q1 61 -44 107q-44 41 -103 41h-13v-20h13z" />
    <glyph glyph-name="asciicircum" unicode="^" horiz-adv-x="490" 
d="M39 344l2 1q13 14 35 35q25 26 35 36l23 23l7 6l1 2v0h1v0q47 48 115 50q70 -1 119 -50l94 -93v5l-91 91q-50 50 -122 51q-70 -2 -118 -51v0l-1 -1h-1v-1q-3 -2 -7 -6q-15 -16 -23 -23q-4 -5 -69 -70v-5zM471 329l-106 106q-45 45 -107 45q-60 -1 -103 -44v0v-1v0v0
l-3 -2l-6 -7q-4 -4 -12 -11q-7 -8 -11 -12q-12 -11 -35 -34q-24 -24 -35 -36l-14 -14v-11l19 20l70 70l23 23q2 1 4 3t3 4l1 1h1v0h1v1q40 41 97 42q59 0 102 -43l111 -111v11zM471 300l-120 120q-40 39 -93 39q-51 -1 -88 -39v0h-1q1 1 -1 -2q-2 -1 -3 -3l-4 -3l-23 -23
l-71 -71l-28 -28v-17l37 37l35 35q23 24 35 35l23 23l6 7q1 0 2 1q0 1 1 1v0v0q34 34 80 35q47 1 84 -35l129 -129v17zM471 270l-136 135q-33 34 -77 33q-41 0 -73 -33v0h-1l-1 -1l-1 -1l-6 -6l-23 -23l-70 -70l-44 -44v-22l55 54l70 70l23 23l6 7l2 2v1v0v0q29 27 63 27
q37 2 67 -28l146 -146v22zM471 241l-150 149q-29 29 -63 27q-32 0 -59 -26v0q-1 -1 0 -1l-2 -1l-6 -7l-23 -23l-70 -71l-59 -58v-27l72 72l35 35q26 25 35 35l12 12l12 12l6 6v0l1 1l1 1v0v0q22 22 46 21q24 1 48 -22l164 -163v28z" />
    <glyph glyph-name="underscore" unicode="_" horiz-adv-x="355" 
d="M39 173v-4h297v4h-297zM39 152v-8h297v8h-297zM39 131v-12h297v12h-297zM39 110v-16h297v16h-297zM39 89v-20h297v20h-297z" />
    <glyph glyph-name="grave" unicode="`" horiz-adv-x="163" 
d="M39 751v-175h4v175h-4zM61 751v-175h7v175h-7zM81 751v-175h12v175h-12zM103 751v-175h15v175h-15zM124 751v-175h20v175h-20z" />
    <glyph glyph-name="braceleft" unicode="{" horiz-adv-x="351" 
d="M319 553q-60 1 -104 -40q-37 -37 -43 -88h-11q-28 0 -55 -14q-25 -13 -40 -35q-15 -21 -21 -44t-5 -47q0 -23 7 -45q7 -23 21 -43q15 -21 39 -35q26 -14 54 -13h11q6 -50 41 -88q48 -46 112 -45h7v19h-7q-57 -1 -98 39q-29 32 -36 75h6q7 -41 35 -71q37 -38 93 -37h7v15
h-7q-50 0 -83 33q-23 24 -29 60h9q6 -32 27 -54q29 -30 76 -30h7v12h-7q-43 0 -68 27q-17 17 -23 45h14q5 -23 19 -36q20 -22 58 -23h7v7h-7q-36 1 -53 21q-11 11 -17 31h18q4 -13 12 -19q10 -14 40 -16h7v4h-7q-28 2 -38 14q-6 6 -9 17v0v19h-117q-23 0 -45 11
q-20 12 -32 29q-13 17 -19 37t-6 41q-1 21 5 41q5 21 17 38q13 18 33 29q24 11 47 11h117v20h-1q3 10 9 14q10 11 33 12h12v4h-12q-24 -1 -36 -13q-6 -6 -10 -17h-18q5 18 17 29q17 18 47 18h12v7h-12q-33 0 -53 -20q-14 -13 -19 -34h-13q5 27 23 44q25 24 62 24h12v11h-12
q-42 0 -70 -27q-21 -21 -27 -52h-10q6 35 30 59q32 29 77 29h12v16h-12q-51 0 -87 -34q-29 -29 -35 -70h-6q6 43 37 74q38 36 91 35h12v19h-12zM161 400q-23 0 -43 -11q-20 -10 -32 -27t-17 -37q-5 -19 -5 -39t7 -39q5 -19 17 -36q13 -16 31 -26q20 -11 42 -11h117v15h-117
q-19 0 -35 9q-15 8 -25 23q-10 14 -16 30q-5 17 -5 35q-1 19 4 36q4 17 14 31q11 15 26 22q17 10 37 10h117v15h-117zM161 375q-17 0 -32 -7q-14 -8 -23 -21q-8 -12 -13 -28q-5 -15 -4 -32q0 -17 5 -32q5 -17 14 -29q10 -13 23 -20q13 -8 30 -8h117v12h-117q-13 0 -25 6
q-11 5 -18 17q-8 10 -13 25q-4 14 -4 29t3 29q4 15 11 25q9 11 19 16q12 7 27 7h117v11h-117zM161 351q-12 -1 -20 -6q-9 -3 -15 -12q-6 -8 -9 -21q-3 -11 -3 -25q0 -13 4 -25q3 -13 10 -21q6 -10 14 -13q9 -5 19 -5h117v8h-117q-9 0 -15 4q-6 3 -12 10q-5 7 -9 19
q-4 11 -4 24q0 12 3 23q4 11 8 17q6 7 12 11q7 3 17 4h117v8h-117zM161 325q-7 0 -9 -1t-6 -6q-3 -3 -5 -12q-3 -8 -3 -18t3 -19t7 -14t7 -6q1 -1 6 -1h117v3h-117q-4 0 -5 2q-1 0 -5 5q-3 4 -6 12t-3 18t2 17q3 8 5 11q3 4 5 4q1 2 7 2h117v3h-117z" />
    <glyph glyph-name="bar" unicode="|" horiz-adv-x="159" 
d="M39 -16h4v609h-4v-609zM60 -16h7v609h-7v-609zM80 -16h11v609h-11v-609zM101 -16h15v609h-15v-609zM121 -16h19v609h-19v-609z" />
    <glyph glyph-name="braceright" unicode="}" horiz-adv-x="351" 
d="M39 553v-19h13q52 1 90 -35q31 -31 37 -74h-5q-6 41 -36 70q-36 34 -86 34h-13v-16h13q45 0 76 -29q24 -24 30 -59h-10q-5 31 -27 52q-28 27 -69 27h-13v-11h13q37 0 61 -24q18 -17 24 -44h-14q-5 21 -19 34q-20 20 -52 20h-13v-7h13q29 0 46 -18q13 -11 17 -29h-17
q-4 11 -11 17q-12 12 -35 13h-13v-4h13q22 -1 32 -12q6 -4 10 -14h-1v-20h115q25 0 47 -11q20 -11 33 -29q13 -17 18 -38q6 -20 6 -41q-1 -21 -7 -41t-18 -37q-13 -17 -33 -29q-22 -11 -46 -11h-115v-19v0q-4 -11 -10 -17q-9 -12 -38 -14h-6v-4h6q29 2 41 16q7 6 11 19h17
q-4 -20 -16 -31q-17 -20 -53 -21h-6v-7h6q39 1 59 23q14 13 18 36h14q-5 -28 -23 -45q-25 -27 -68 -27h-6v-12h6q47 0 76 30q21 22 27 54h10q-7 -36 -30 -60q-33 -33 -83 -33h-6v-15h6q56 -1 94 37q28 30 34 71h5q-6 -43 -35 -75q-40 -40 -98 -39h-6v-19h6q65 -1 112 45
q34 38 41 88h10q29 -1 55 13q24 14 39 35q15 20 21 43q7 22 8 45q1 24 -6 47q-6 23 -20 44q-16 22 -40 35q-28 14 -57 14h-10q-6 51 -43 88q-44 41 -103 40h-13zM93 400v-15h115q20 0 37 -10q17 -7 27 -22q10 -14 14 -31q5 -17 5 -36q-1 -18 -6 -35q-5 -16 -15 -30
q-11 -15 -26 -23q-16 -9 -36 -9h-115v-15h115q24 0 44 11q18 10 30 26q12 17 18 36q5 19 6 39q0 20 -4 39q-6 20 -18 37t-31 27q-21 11 -45 11h-115zM93 375v-11h115q16 0 28 -7q11 -5 19 -16q7 -10 11 -25q4 -14 4 -29q-1 -15 -5 -29q-4 -15 -12 -25q-8 -12 -19 -17
q-11 -6 -26 -6h-115v-12h115q17 0 32 8q13 7 22 20q10 12 14 29q5 15 6 32q0 17 -4 32q-5 16 -14 28q-9 13 -22 21q-15 7 -34 7h-115zM93 351v-8h115q12 -1 18 -4q6 -4 12 -11q5 -6 8 -17t3 -23q-1 -13 -4 -24q-3 -12 -9 -19t-12 -10q-6 -4 -16 -4h-115v-8h115q12 0 20 5
q7 3 14 13q6 8 10 21q4 12 5 25q0 14 -3 25q-4 13 -10 21q-6 9 -14 12q-9 5 -22 6h-115zM93 325v-3h115q7 0 8 -2q2 0 5 -4q3 -3 5 -11q2 -7 2 -17t-3 -18t-6 -12q-3 -5 -4 -5q-2 -2 -7 -2h-115v-3h115q6 0 8 1t6 6t7 14t3 19t-2 18q-3 9 -6 12q-3 5 -6 6q-2 1 -10 1h-115z
" />
    <glyph glyph-name="asciitilde" unicode="~" horiz-adv-x="410" 
d="M43 422q7 16 18 31q10 13 25 25q15 10 32 15q16 4 32 3q29 -1 51 -11q17 -7 40 -19t30 -15q12 -5 11 -4.5t-0.5 0.5t0.5 0.5t4 7.5l-4 2q-4 -7 -4 -8l-1 -1l1 1q6 3 7 3q0 -1 -13 4q-7 2 -30 14q-22 12 -39 19q-22 10 -52 12q-17 1 -34 -4q-19 -4 -33 -15
q-17 -13 -27 -26q-11 -16 -18 -32zM70 410q5 14 14 26q8 10 19 18t23 11t23 3q21 -2 42 -10q14 -6 36 -18q24 -12 32 -15q17 -7 24 -7q9 0 14 3l7 7q4 5 8 14l-8 4q-4 -8 -7 -12q-4 -5 -5 -5q-2 -2 -8 -2q-5 0 -21 6q-8 3 -31 15q-24 12 -38 18q-21 10 -45 11q-12 0 -25 -3
q-15 -4 -26 -12q-13 -10 -21 -21q-10 -12 -16 -27zM96 399q5 11 12 19q5 8 12 13q6 5 14 6q6 2 14 2q13 0 32 -8q11 -5 34 -16q23 -13 34 -17q19 -8 34 -9q17 -1 31 8q7 5 13 13q7 9 13 20l-13 6q-4 -10 -10 -17q-5 -7 -11 -10q-9 -7 -23 -7q-10 1 -28 8q-11 5 -34 16
q-22 13 -35 17q-20 9 -37 9q-9 0 -18 -2t-18 -8t-15 -16q-8 -10 -13 -22zM122 386q5 10 9 15q3 4 6 6q2 2 4 2q2 1 6 1q6 0 22 -6q9 -3 32 -15t36 -18q21 -9 43 -11q26 -1 49 13q12 9 20 19q10 12 16 26l-16 8q-7 -13 -14 -23q-7 -8 -16 -15q-17 -11 -38 -9q-17 0 -37 9
q-12 4 -35 17q-23 11 -33 16q-18 7 -28 7q-7 0 -12 -1t-10 -5q-5 -3 -10 -10t-10 -18zM148 375q4 7 6 8l1 1q0 1 -1 0q-2 -2 -5 -2l-3 -1l12 -4q7 -2 30 -14q22 -12 38 -18q23 -11 52 -13q35 -3 67 17q17 12 27 26q12 15 19 30l-20 11q-7 -15 -17 -27q-9 -12 -22 -21
q-24 -16 -52 -14q-24 1 -45 11q-14 6 -37 18t-31 15q-16 6 -20 5h-4t-2 -1q-2 -1 -6 -5q-3 -4 -7 -13z" />
    <glyph glyph-name="dotlessi" unicode="&#x131;" horiz-adv-x="151" 
d="M131 67h-92v328h92v-328z" />
    <glyph glyph-name="circumflex" unicode="&#x2c6;" horiz-adv-x="490" 
d="M39 344l2 1q13 14 35 35q25 26 35 36l23 23l7 6l1 2v0h1v0q47 48 115 50q70 -1 119 -50l94 -93v5l-91 91q-50 50 -122 51q-70 -2 -118 -51v0l-1 -1h-1v-1q-3 -2 -7 -6q-15 -16 -23 -23q-4 -5 -69 -70v-5zM471 329l-106 106q-45 45 -107 45q-60 -1 -103 -44v0v-1v0v0
l-3 -2l-6 -7q-4 -4 -12 -11q-7 -8 -11 -12q-12 -11 -35 -34q-24 -24 -35 -36l-14 -14v-11l19 20l70 70l23 23q2 1 4 3t3 4l1 1h1v0h1v1q40 41 97 42q59 0 102 -43l111 -111v11zM471 300l-120 120q-40 39 -93 39q-51 -1 -88 -39v0h-1q1 1 -1 -2q-2 -1 -3 -3l-4 -3l-23 -23
l-71 -71l-28 -28v-17l37 37l35 35q23 24 35 35l23 23l6 7q1 0 2 1q0 1 1 1v0v0q34 34 80 35q47 1 84 -35l129 -129v17zM471 270l-136 135q-33 34 -77 33q-41 0 -73 -33v0h-1l-1 -1l-1 -1l-6 -6l-23 -23l-70 -70l-44 -44v-22l55 54l70 70l23 23l6 7l2 2v1v0v0q29 27 63 27
q37 2 67 -28l146 -146v22zM471 241l-150 149q-29 29 -63 27q-32 0 -59 -26v0q-1 -1 0 -1l-2 -1l-6 -7l-23 -23l-70 -71l-59 -58v-27l72 72l35 35q26 25 35 35l12 12l12 12l6 6v0l1 1l1 1v0v0q22 22 46 21q24 1 48 -22l164 -163v28z" />
    <glyph glyph-name="caron" unicode="&#x2c7;" horiz-adv-x="490" 
d="M471 360l-2 -1q-13 -14 -35 -36l-35 -35l-24 -23l-6 -7l-1 -1h-1v-1v0q-47 -48 -115 -49q-71 0 -120 50l-93 93v-5l91 -91q50 -51 122 -51q70 2 118 51v0v1h1q1 0 1 1q2 2 7 6q15 16 23 23q4 5 69 70v5zM39 374l105 -106q45 -44 108 -44q60 1 103 44v0v0v1v0l2 2l7 6
q4 5 11 11q8 9 12 12l35 35q24 24 35 36l14 14v10l-19 -19l-70 -70l-23 -23q-2 -1 -4 -4q-2 -1 -3 -3l-1 -1h-1l-1 -1v0v0q-40 -41 -97 -43q-59 0 -102 43l-111 111v-11zM39 404l120 -120q40 -39 93 -39q50 1 88 38v1h1q-1 -1 1 1t3 4q3 3 4 3l23 23l70 70l29 29v16l-37 -36
l-35 -35q-24 -24 -35 -36l-23 -23l-7 -6l-1 -1l-1 -1v0v0q-34 -35 -80 -36q-48 -1 -84 36l-129 128v-16zM39 433l135 -135q34 -33 78 -32q41 0 73 32v0v0l2 2l1 1l6 6l23 23l70 70l44 44v22l-55 -55l-70 -70l-23 -23l-7 -6l-1 -2v-1v0v0q-29 -27 -64 -27q-36 -2 -66 27
l-146 147v-23zM39 463l150 -150q29 -28 62 -26q33 0 59 26q1 1 1 0v1l1 1l7 7l23 23l70 70l59 58v28l-72 -72l-35 -35l-35 -35l-12 -12l-12 -12l-6 -6l-1 -1h-1v-1v0v0q-22 -22 -46 -21q-24 -1 -49 21l-163 164v-28z" />
    <glyph glyph-name="tilde" unicode="&#x2dc;" horiz-adv-x="410" 
d="M43 422q7 16 18 31q10 13 25 25q15 10 32 15q16 4 32 3q29 -1 51 -11q17 -7 40 -19t30 -15q12 -5 11 -4.5t-0.5 0.5t0.5 0.5t4 7.5l-4 2q-4 -7 -4 -8l-1 -1l1 1q6 3 7 3q0 -1 -13 4q-7 2 -30 14q-22 12 -39 19q-22 10 -52 12q-17 1 -34 -4q-19 -4 -33 -15
q-17 -13 -27 -26q-11 -16 -18 -32zM70 410q5 14 14 26q8 10 19 18t23 11t23 3q21 -2 42 -10q14 -6 36 -18q24 -12 32 -15q17 -7 24 -7q9 0 14 3l7 7q4 5 8 14l-8 4q-4 -8 -7 -12q-4 -5 -5 -5q-2 -2 -8 -2q-5 0 -21 6q-8 3 -31 15q-24 12 -38 18q-21 10 -45 11q-12 0 -25 -3
q-15 -4 -26 -12q-13 -10 -21 -21q-10 -12 -16 -27zM96 399q5 11 12 19q5 8 12 13q6 5 14 6q6 2 14 2q13 0 32 -8q11 -5 34 -16q23 -13 34 -17q19 -8 34 -9q17 -1 31 8q7 5 13 13q7 9 13 20l-13 6q-4 -10 -10 -17q-5 -7 -11 -10q-9 -7 -23 -7q-10 1 -28 8q-11 5 -34 16
q-22 13 -35 17q-20 9 -37 9q-9 0 -18 -2t-18 -8t-15 -16q-8 -10 -13 -22zM122 386q5 10 9 15q3 4 6 6q2 2 4 2q2 1 6 1q6 0 22 -6q9 -3 32 -15t36 -18q21 -9 43 -11q26 -1 49 13q12 9 20 19q10 12 16 26l-16 8q-7 -13 -14 -23q-7 -8 -16 -15q-17 -11 -38 -9q-17 0 -37 9
q-12 4 -35 17q-23 11 -33 16q-18 7 -28 7q-7 0 -12 -1t-10 -5q-5 -3 -10 -10t-10 -18zM148 375q4 7 6 8l1 1q0 1 -1 0q-2 -2 -5 -2l-3 -1l12 -4q7 -2 30 -14q22 -12 38 -18q23 -11 52 -13q35 -3 67 17q17 12 27 26q12 15 19 30l-20 11q-7 -15 -17 -27q-9 -12 -22 -21
q-24 -16 -52 -14q-24 1 -45 11q-14 6 -37 18t-31 15q-16 6 -20 5h-4t-2 -1q-2 -1 -6 -5q-3 -4 -7 -13z" />
    <glyph glyph-name="quoteleft" unicode="&#x2018;" horiz-adv-x="176" 
d="M96 751v-175h4v175h-4zM118 751v-175h7v175h-7zM138 751v-175h12v175h-12zM160 751v-175h15v175h-15zM181 751v-175h20v175h-20z" />
    <glyph glyph-name="quoteright" unicode="&#x2019;" horiz-adv-x="57" 
d="M-23 751v-175h4v175h-4zM-1 751v-175h7v175h-7zM19 751v-175h12v175h-12zM41 751v-175h15v175h-15zM62 751v-175h20v175h-20z" />
    <glyph glyph-name="quotedblleft" unicode="&#x201c;" horiz-adv-x="103" 
d="M-79 751v-175h4v175h-4zM-57 751v-175h7v175h-7zM-37 751v-175h12v175h-12zM-15 751v-175h15v175h-15zM6 751v-175h20v175h-20zM81 751v-175h4v175h-4zM103 751v-175h7v175h-7zM124 751v-175h12v175h-12zM145 751v-175h15v175h-15zM166 751v-175h20v175h-20z" />
    <glyph glyph-name="quotedblright" unicode="&#x201d;" horiz-adv-x="103" 
d="M-79 751v-175h4v175h-4zM-57 751v-175h7v175h-7zM-37 751v-175h12v175h-12zM-15 751v-175h15v175h-15zM6 751v-175h20v175h-20zM81 751v-175h4v175h-4zM103 751v-175h7v175h-7zM124 751v-175h12v175h-12zM145 751v-175h15v175h-15zM166 751v-175h20v175h-20z" />
    <glyph glyph-name="maqaf" unicode="&#x5be;" horiz-adv-x="355" 
d="M39 501v-4h297v4h-297zM39 480v-8h297v8h-297zM39 459v-12h297v12h-297zM39 438v-16h297v16h-297zM39 417v-20h297v20h-297z" />
    <glyph glyph-name="sofpasuq" unicode="&#x5c3;" horiz-adv-x="165" 
d="M61 399q-9 0 -15 -7q-7 -7 -7 -16v-61q0 -10 7 -17q6 -6 15 -6h62q9 0 16 6q6 7 6 17v61q0 9 -6 16q-7 7 -16 7h-62zM123 394q8 0 13 -5t5 -13v-61q0 -8 -5 -13t-13 -5h-62q-7 0 -12 5t-5 13v61q0 8 5 13t12 5h62zM69 385q-7 0 -12 -5q-4 -5 -4 -11v-47q0 -7 4 -11
q5 -5 12 -5h47q6 0 11 5q4 4 4 11v47q0 6 -4 11q-5 5 -11 5h-47zM109 372q11 0 11 -10v-34q0 -10 -11 -10h-33q-11 0 -11 10v34q0 10 9 10h35zM81 365q-9 0 -9 -8v-24q0 -8 9 -8h23q8 0 8 8v24q0 8 -8 8h-23zM61 175q-9 0 -15 -6q-7 -7 -7 -16v-62q0 -9 7 -15q6 -7 15 -7h62
q9 0 16 7q6 6 6 15v62q0 9 -6 16q-7 6 -16 6h-62zM123 171q8 0 13 -5t5 -13v-62q0 -7 -5 -12t-13 -5h-62q-7 0 -12 5t-5 12v62q0 8 5 13t12 5h62zM69 161q-7 0 -12 -4q-4 -5 -4 -11v-47q0 -7 4 -12q5 -4 12 -4h47q6 0 11 4q4 5 4 12v47q0 6 -4 11q-5 4 -11 4h-47zM109 150
q11 0 11 -11v-33q0 -11 -11 -11h-33q-11 0 -11 11v33q0 11 11 11h33zM81 142q-9 0 -9 -8v-23q0 -9 9 -9h23q8 0 8 9v23q0 8 -8 8h-23z" />
    <glyph glyph-name="alef" unicode="&#x5d0;" horiz-adv-x="491" 
d="M369 502v-29v-27v-64q0 -13 -4 -20q-3 -7 -9 -12q-10 -11 -42 -12h-32l20 -20h12q38 1 55 18q9 8 13 19q6 10 6 27v64v27v29h-19zM393 502v-29v-27v-64q0 -18 -5 -30q-6 -12 -16 -20q-19 -18 -58 -19h-7l15 -15q38 2 60 22q13 11 20 26q7 16 7 36v64v28v28h-16zM418 502
v-28v-28v-64q0 -22 -8 -40q-8 -17 -21 -29q-23 -20 -59 -24l11 -10q32 6 55 25q16 14 25 34q8 20 8 44v64v28v28h-11zM442 502v-28q1 -18 1 -28v-64q0 -27 -10 -50q-10 -22 -28 -38q-23 -19 -53 -26l6 -6q29 8 51 26q20 17 31 41q11 25 11 53v64q0 10 -1 28v28h-8zM467 502
q0 -9 1 -28v-28v-64q0 -31 -12 -60q-13 -27 -35 -47q-22 -17 -49 -27l3 -3q26 10 48 27q23 20 36 49t13 61v64v28q-1 19 -1 28h-4zM39 501v-8l424 -424h9v8l-425 424h-8zM61 501l411 -410v21l-390 389h-21zM91 501l381 -381v28l-354 353h-27zM39 464l395 -395h11l-406 406
v-11zM39 434l105 -105q-30 -10 -55 -30q-23 -20 -35 -48q-13 -30 -13 -61v-64v-29v-27h20v27q-1 19 -1 29v64q0 28 11 53q10 24 30 42q26 20 59 28l5 -5q-34 -6 -60 -28q-19 -16 -29 -39q-11 -24 -10 -51v-64v-29v-27h15v27v29v64q0 24 9 45q9 20 25 33q26 22 63 27l8 -8
q-39 -3 -65 -25q-14 -14 -23 -31q-7 -19 -7 -41v-64v-29v-27h11v27v29v64q0 20 7 36q7 15 20 27q25 22 69 22l13 -13h-13q-40 0 -60 -19q-11 -9 -17 -22t-6 -31v-64v-28v-28h8v28v28v64q0 17 5 28t14 19q18 17 56 18h20l17 -17h-37q-33 -2 -44 -14q-7 -6 -10 -13
q-4 -7 -4 -21v-64v-28v-28h4v28v28v64q0 13 4 19q2 7 8 12q10 11 42 13q11 0 41 1l165 -166h5l-370 370v-5z" />
    <glyph glyph-name="bet" unicode="&#x5d1;" horiz-adv-x="492" 
d="M39 501v-4h249q58 1 101 -40q44 -44 43 -105v-127q1 -27 -8 -53h-18q10 26 10 53v127q0 55 -38 93q-38 35 -90 35h-249v-8h249q50 0 84 -33q36 -35 36 -87v-127q0 -27 -11 -53h-14q12 25 12 53v127q0 47 -32 78q-31 29 -75 29h-249v-11h249q41 -1 67 -26q28 -27 28 -70
v-127q0 -29 -13 -53h-11q14 23 15 53v127q-1 40 -25 63t-61 23h-249v-16h249q31 0 50 -18q20 -19 20 -52v-127q0 -33 -18 -53h-8h1v1q19 18 19 52v127q0 32 -18 47q-17 18 -46 18h-249v-19h249q22 -1 33 -13q11 -9 12 -33v-127q-1 -28 -14 -39q-10 -13 -37 -14h-243v-19h434
v19h-45q9 26 8 53v127q1 63 -44 108q-44 42 -104 41h-249zM39 148v-16h434v16h-434zM39 123v-12h434v12h-434zM39 97v-7h434v7h-434zM39 73v-4h434v4h-434z" />
    <glyph glyph-name="gimel" unicode="&#x5d2;" horiz-adv-x="398" 
d="M145 502v-4h85q58 1 102 -40q43 -44 43 -105v-284h4v284q0 63 -45 108q-45 42 -104 41h-85zM145 481v-8h85q49 0 84 -33q36 -35 35 -87v-284h8v284q1 55 -38 93q-37 35 -89 35h-85zM145 460v-12h85q40 0 67 -26q28 -27 28 -69v-284h11v284q0 47 -31 78q-31 29 -75 29h-85
zM145 439v-16h85q31 0 49 -19q20 -18 20 -51v-284h16v284q0 39 -25 63q-24 23 -60 23h-85zM145 418v-19h85q22 -1 32 -13q12 -9 13 -33v-41h-87q-62 0 -107 -44q-42 -45 -41 -104v-95h19v95q-1 52 35 90q39 39 94 38h87v-5h-87q-53 1 -90 -36q-34 -37 -34 -87v-95h16v95
q0 44 30 76q31 32 78 32h87v-10h-87q-44 0 -72 -29q-27 -28 -27 -69v-95h12v95q0 37 23 61q25 26 64 26h87v-14h-87q-34 0 -54 -21q-20 -20 -20 -52v-95h8v95q0 29 18 47q17 18 48 18h87v-17h-87q-25 -1 -36 -14q-12 -11 -13 -34v-95h4v95q1 21 12 32q10 12 33 12h87v-139
h19v284q0 31 -19 47q-17 18 -45 18h-85z" />
    <glyph glyph-name="dalet" unicode="&#x5d3;" horiz-adv-x="490" 
d="M39 501v-4h432v4h-432zM39 480v-8h432v8h-432zM39 459v-11h432v11h-432zM39 438v-16h432v16h-432zM39 417v-19h159v-329h4v329h17v-329h8v329h13v-329h12v329h10v-329h15v329h5v-329h20v329h169v19h-432z" />
    <glyph glyph-name="he" unicode="&#x5d4;" horiz-adv-x="491" 
d="M39 501v-4h284q58 1 101 -40q44 -44 43 -105v-283h4v283q1 63 -44 108q-45 42 -104 41h-284zM39 480v-8h284q49 0 84 -33q35 -35 35 -87v-283h8v283q1 55 -38 93q-37 35 -89 35h-284zM39 459v-12h284q40 0 67 -25q28 -27 28 -70v-283h11v283q0 47 -31 78q-31 29 -75 29
h-284zM39 438v-16h284q31 0 49 -18q20 -19 20 -52v-283h17v283q-1 39 -26 63q-24 23 -60 23h-284zM39 417v-19h284q22 -1 32 -13q12 -9 13 -33v-283h19v283q0 31 -18 47q-17 18 -46 18h-284zM39 265v-196h4v196h-4zM60 265v-196h7v196h-7zM81 265v-196h12v196h-12zM102 265
v-196h16v196h-16zM123 265v-196h19v196h-19z" />
    <glyph glyph-name="vav" unicode="&#x5d5;" horiz-adv-x="161" 
d="M39 69h4v432h-4v-432zM60 69h7v432h-7v-432zM81 69h12v432h-12v-432zM102 69h16v432h-16v-432zM123 69h19v432h-19v-432z" />
    <glyph glyph-name="zayin" unicode="&#x5d6;" horiz-adv-x="312" 
d="M39 502v-4h124q32 1 62 -15q26 -14 42 -37q14 -20 20 -43q1 -2 1 -5h4q0 5 -1 7q-6 23 -20 43q-17 24 -43 38q-30 16 -61 16h-4h-124zM39 481v-8h124q28 0 51 -12q20 -11 33 -29q11 -16 15 -34h9v1v0q-6 20 -18 37q-14 20 -35 32q-27 13 -55 13h-124zM39 460v-12h124
q22 0 39 -9q15 -7 24 -22q6 -8 10 -19h12q-4 14 -12 26q-11 16 -28 25q-20 11 -45 11h-124zM39 439v-16h124q18 0 28 -6q8 -5 15 -14q2 -2 3 -5h17q-3 8 -8 14q-8 13 -20 19q-14 8 -35 8h-124zM39 418v-20h164l-2 2q-6 9 -13 12q-8 5 -25 6h-124zM117 398v-329h19v329h-19z
M141 398v-329h16v329h-16zM167 398v-329h11v329h-11zM191 398v-329h8v329h-8zM216 398v-329h4v329h-4z" />
    <glyph glyph-name="het" unicode="&#x5d7;" 
d="M40 69h4v284q-1 59 40 102q44 44 104 43h128q62 1 109 -42q45 -47 44 -110v-277h4v277q1 65 -46 113q-48 44 -111 43h-128q-62 1 -107 -45q-42 -44 -41 -104v-284zM61 69h7v284q0 49 33 84q36 36 87 35h128q53 1 91 -34q38 -37 37 -92v-277h8v277q0 57 -40 98
q-40 37 -96 37h-128q-54 0 -92 -39q-35 -37 -35 -89v-284zM81 69h12v284q0 40 26 67q27 28 69 28h128q46 0 74 -28q29 -28 29 -74v-277h12v277q0 50 -33 83q-33 31 -82 30h-128q-47 0 -77 -31t-30 -75v-284zM103 69h15v284q0 31 19 49q18 20 51 21h128q37 -1 56 -21
q21 -19 22 -56v-277h15v277q0 43 -26 67q-24 26 -67 26h-128q-39 0 -62 -26q-23 -24 -23 -60v-284zM124 69h19v284q1 22 12 32q10 12 33 13h128q29 -1 39 -14q13 -9 14 -38v-277h20v277q-1 36 -20 53q-17 18 -53 19h-128q-30 -1 -47 -19q-17 -17 -17 -46v-284z" />
    <glyph glyph-name="tet" unicode="&#x5d8;" 
d="M248 501v-4h76q58 -1 98 -41q45 -42 45 -104v-127q2 -59 -37 -107q-44 -46 -107 -45h-141q-31 0 -61 14q-27 15 -45 38q-32 45 -33 99v128v74v75h-4v-276v-1q1 -56 34 -101q18 -24 45 -39q32 -15 64 -15h141q64 -1 110 47q40 48 38 109v127q0 64 -45 107q-43 40 -102 42
h-76zM248 480v-8h76q47 0 82 -33q36 -36 36 -87v-127q1 -52 -30 -90q-36 -38 -89 -38h-141q-27 0 -51 13q-20 11 -35 31q-27 36 -29 84v11v15v250h-7v-236v-29v-11q1 -51 30 -89q15 -21 38 -33q26 -13 54 -13h141q56 -1 94 40q35 41 33 95v127q0 54 -39 92q-37 35 -87 36
h-76zM248 459v-12h76q37 0 65 -27q29 -28 29 -68v-127q0 -46 -25 -74q-26 -28 -70 -28h-141q-21 0 -39 8q-15 9 -28 24q-21 29 -22 70v276h-12v-149v-127q1 -44 25 -77q13 -17 32 -27q20 -10 44 -10h141q49 0 79 33q27 32 27 81v127q0 46 -33 77q-31 30 -72 30h-76zM248 438
v-16h76q26 0 48 -20q21 -20 21 -50v-127q-1 -39 -19 -57q-15 -20 -51 -20h-141q-16 0 -27 6q-11 5 -20 17q-16 20 -17 55v275h-16v-275q2 -39 21 -65q11 -13 25 -21q15 -8 35 -8h140q41 0 63 26q22 24 23 67v127q0 37 -27 61q-26 25 -58 25h-76zM248 417v-19h75q16 1 31 -13
t14 -33v-127q-2 -32 -13 -40q-6 -11 -32 -13h-141q-11 1 -16 4q-5 2 -11 9q-11 13 -13 42v38v87v149h-19v-275q1 -34 17 -52q8 -10 17 -16q10 -5 25 -5h141q33 1 47 18q16 17 18 54v127q0 27 -20 47q-20 18 -44 18h-76z" />
    <glyph glyph-name="yod" unicode="&#x5d9;" horiz-adv-x="149" 
d="M39 298h3v203h-3v-203zM57 298h7v203h-7v-203zM76 298h10v203h-10v-203zM94 298h14v203h-14v-203zM113 298h17v203h-17v-203z" />
    <glyph glyph-name="kaffinal" unicode="&#x5da;" horiz-adv-x="489" 
d="M39 501v-4h283q58 1 101 -40q43 -44 43 -104v-527h3v527q1 62 -43 107q-44 42 -104 41h-283zM39 480v-8h283q49 0 84 -33q36 -35 35 -86v-527h8v527q0 54 -38 93q-37 34 -89 34h-283zM39 459v-11h283q40 0 67 -26q27 -27 27 -69v-527h12v527q0 46 -32 77q-30 29 -74 29
h-283zM39 439v-16h283q31 -1 50 -19t20 -51v-527h15v527q0 39 -25 62q-23 23 -60 24h-283zM39 417v-19h283q22 0 32 -12q12 -9 13 -33v-527h19v527q0 31 -18 47q-17 17 -46 17h-283z" />
    <glyph glyph-name="kaf" unicode="&#x5db;" horiz-adv-x="491" 
d="M39 502v-4h283q59 1 102 -40q44 -44 43 -105v-128q1 -61 -41 -107q-47 -46 -111 -45h-276v-4h276q65 -1 113 45q44 48 43 111v128q1 63 -45 108q-44 42 -104 41h-283zM39 481v-8h283q50 0 84 -33q36 -35 36 -87v-128q0 -53 -35 -91q-37 -37 -92 -37h-276v-7h276
q58 -1 98 39q37 40 36 96v128q1 55 -37 93q-37 35 -90 35h-283zM39 459v-11h283q40 0 67 -26q28 -27 28 -69v-128q0 -45 -28 -74q-27 -28 -74 -28h-276v-12h276q50 0 83 33q31 32 31 81v128q0 46 -32 78q-30 29 -75 28h-283zM39 439v-16h283q31 0 50 -19q20 -18 20 -51v-128
q0 -37 -20 -56q-20 -21 -57 -21h-276v-16h276q43 0 67 26q26 26 26 67v128q0 39 -26 63q-23 23 -60 23h-283zM39 418v-19h283q23 -1 33 -13q11 -9 12 -33v-128q-1 -28 -13 -39q-10 -12 -39 -14h-276v-19h276q36 1 53 20q18 18 19 52v128q-1 31 -18 47q-17 17 -47 18h-283z
" />
    <glyph glyph-name="lamed" unicode="&#x5dc;" horiz-adv-x="492" 
d="M221 172v-4h95q26 1 40 17q16 13 16 40v128q0 26 -13 36q-12 13 -36 13h-143q-58 0 -98 41q-38 42 -38 97v91q-1 46 28 84q18 22 42 33q29 12 59 12h47v4h-47q-30 0 -60 -13q-25 -11 -44 -34q-30 -38 -29 -86v-91q0 -57 39 -99q42 -42 101 -42h143q22 -1 32 -13
q13 -9 14 -33v-128q-1 -25 -16 -38q-13 -14 -37 -15h-95zM221 151v-7h95q36 0 58 23q23 22 23 58v128q0 35 -22 54q-20 20 -52 20h-143q-47 0 -80 34q-32 33 -32 79v91q0 39 23 69q14 16 34 25q23 10 48 10h47v8h-47q-27 0 -51 -11q-21 -9 -36 -28q-25 -32 -25 -73v-91
q0 -49 33 -84q36 -37 86 -37h143q30 0 47 -17q19 -17 19 -49v-128q0 -33 -20 -53q-20 -21 -53 -21h-95zM221 131v-12h95q45 0 76 30q30 31 30 76v128q0 44 -29 72q-28 27 -70 27h-143q-37 0 -62 26q-24 25 -24 62v91q0 31 17 52q10 13 24 20q16 7 38 7h47v12h-47
q-23 0 -42 -9q-17 -8 -29 -22q-21 -25 -21 -60v-91q0 -41 28 -70q29 -30 71 -30h143q38 0 62 -24q25 -24 25 -63v-128q0 -41 -27 -67q-27 -27 -67 -27h-95zM221 109v-15h95q55 0 93 37q38 40 38 94v128q0 53 -37 90q-36 34 -87 34h-143q-27 0 -44 19q-18 17 -18 44v91
q0 23 13 37q6 8 15 12q10 5 27 5h47v15h-47q-20 0 -34 -6q-12 -6 -21 -16q-15 -19 -15 -47v-91q0 -33 21 -55q23 -23 56 -23h143q46 0 76 -30q33 -32 32 -79v-128q1 -49 -33 -83q-33 -33 -82 -33h-95zM221 88v-19h95q64 0 110 45q46 47 46 111v128q1 63 -45 108
q-44 42 -104 41h-143q-17 0 -26 11q-11 10 -11 27v91q1 16 7 21q2 4 6 5q4 3 17 3h47v20h-47q-16 0 -25 -5q-8 -4 -14 -11q-10 -11 -10 -33v-91q0 -25 16 -41q15 -17 40 -17h143q53 0 91 -35q38 -39 38 -94v-128q0 -57 -39 -97q-40 -40 -97 -40h-95z" />
    <glyph glyph-name="memfinal" unicode="&#x5dd;" 
d="M39 69h434l-1 276q1 65 -46 113q-47 43 -109 43l-278 1v-433zM317 497q61 0 106 -42q46 -46 45 -110l1 -272h-426v425zM61 91h390l-1 254q0 57 -40 97q-39 37 -93 37h-256v-388zM69 472l248 -1q51 0 88 -35q37 -37 37 -91v-246h-373v373zM83 113h346l-1 232q0 49 -33 81
q-32 31 -78 31l-234 1v-345zM95 446l222 -1q42 0 70 -27q29 -29 29 -73v-220h-321v321zM105 135h301v210q0 40 -26 65q-25 25 -63 25l-212 1v-301zM121 419h196q32 0 52 -20q20 -19 21 -54v-194h-269v268zM128 158h257l-1 187q-1 33 -19 50t-48 18h-189v-255zM148 393
l169 -1q22 0 34 -12q12 -10 13 -35v-167h-216v215z" />
    <glyph glyph-name="mem" unicode="&#x5de;" 
d="M39 69h4v149v128q1 54 33 99q18 23 45 37q30 15 61 15h141q63 1 107 -46q39 -47 37 -106v-127q0 -62 -45 -104q-40 -40 -98 -41h-76v-4h76q59 2 102 42q45 43 45 107v127q2 60 -38 109q-46 48 -110 47h-141q-32 0 -64 -15q-27 -15 -45 -39q-33 -46 -34 -101q0 -3 0 -1
v-11v-15v-250zM60 69h7v236v29v11q2 48 29 84q15 20 36 31q23 12 50 12h141q53 0 89 -37q31 -38 30 -90v-127q0 -51 -36 -87q-35 -33 -82 -34h-76v-7h76q50 1 87 36q39 37 39 92v127q2 54 -33 95q-38 41 -94 40h-141q-28 0 -54 -13q-23 -12 -38 -33q-29 -39 -30 -89v-40v-87
v-149zM93 69v275v1q1 41 22 70q13 15 28 23q18 9 39 9h141q44 0 70 -28q25 -29 25 -74v-127q0 -40 -29 -68q-28 -27 -65 -27h-76v-12h76q41 0 72 30q33 31 33 77v127q0 49 -27 81q-30 33 -79 33h-141q-24 0 -44 -10q-19 -10 -32 -27q-24 -33 -25 -77v-201v-75h12zM102 69h16
v275q1 35 17 55q9 12 20 17q11 6 27 6h141q36 0 51 -20q18 -18 19 -57v-127q0 -30 -21 -50q-22 -20 -48 -20h-76v-16h76q32 0 58 24q27 25 27 62v127q-1 43 -23 67q-22 26 -63 26h-141q-19 0 -34 -8q-14 -8 -25 -21q-19 -26 -21 -65v-275zM123 69h19v149v44v81q2 29 13 42
q6 7 11 9q5 3 16 4h141q26 -2 32 -13q11 -8 13 -40v-127q1 -19 -14 -33t-31 -13h-1h-74v-19h76q24 0 44 18q20 20 20 47v127q-2 37 -18 54q-14 17 -47 18h-141q-15 0 -25 -6q-9 -5 -17 -15q-16 -19 -17 -53q0 2 0 1v-11v-14v-250z" />
    <glyph glyph-name="nunfinal" unicode="&#x5df;" horiz-adv-x="285" 
d="M39 501v-4h82q57 0 98 -38q43 -43 43 -102v-514h3v514q0 60 -43 104q-43 40 -101 40h-82zM39 480v-7h82q47 0 82 -32q35 -35 34 -84v-514h8v514q0 52 -37 89q-37 35 -87 34h-82zM39 460v-11h82q39 0 65 -25q27 -26 27 -67v-514h12v514q0 45 -31 75q-30 28 -73 28h-82z
M39 439v-14h82q30 0 48 -19q19 -17 20 -49v-514h15v514q0 37 -24 60q-23 22 -59 22h-82zM39 419v-18h82q21 -1 31 -12q12 -9 13 -32v-514h19v514q-1 30 -19 45q-16 17 -44 17h-82z" />
    <glyph glyph-name="nun" unicode="&#x5e0;" horiz-adv-x="402" 
d="M148 502v-4h85q59 1 102 -40q44 -44 43 -105v-128q1 -61 -42 -107q-46 -46 -109 -45h-188v-4h188q64 -1 112 45q43 48 43 111v128q0 63 -44 108q-45 42 -105 41h-85zM148 481v-8h85q49 0 85 -33q35 -35 35 -87v-128q0 -53 -34 -91q-38 -37 -92 -37h-188v-7h188
q57 -1 97 39q38 40 37 96v128q0 55 -38 93q-38 35 -90 35h-85zM148 459v-11h85q40 0 67 -26q28 -27 28 -69v-128q0 -45 -28 -74q-28 -28 -73 -28h-188v-12h188q49 0 82 33q31 32 30 81v128q1 46 -30 78q-31 29 -76 28h-85zM148 439v-16h85q32 0 50 -19q20 -18 20 -51v-128
q-1 -37 -21 -56q-18 -21 -55 -21h-188v-16h188q42 0 67 26t25 67v128q0 39 -25 63q-24 23 -61 23h-85zM148 418v-19h85q22 -1 32 -13q13 -9 13 -33v-128q-1 -28 -13 -39q-10 -12 -38 -14h-188v-19h188q35 1 51 20q19 18 20 52v128q-1 31 -19 47q-17 17 -46 18h-85z" />
    <glyph glyph-name="samekh" unicode="&#x5e1;" horiz-adv-x="500" 
d="M371 466q51 -31 79 -85q27 -54 23 -114q-7 -81 -67 -136q-59 -56 -140 -58t-143 51t-72 133q-8 61 17 116q26 56 77 89q52 34 113 35t113 -31l2 3q-53 33 -115 32q-63 -2 -115 -35q-52 -34 -78 -91t-18 -118q11 -83 74 -136q63 -54 145 -52q83 2 143 59t67 139
q5 61 -23 115q-27 55 -80 87zM359 445q45 -28 69 -76q24 -47 20 -100q-6 -71 -59 -121q-52 -48 -124 -51q-71 -1 -126 46q-54 46 -64 118q-7 53 16 102t68 79q45 29 99 30q54 0 101 -27l3 7q-48 28 -104 27q-57 0 -103 -31q-47 -31 -71 -82q-23 -51 -17 -107q11 -74 67 -122
q57 -49 131 -47q75 2 130 53q54 51 61 125q4 56 -21 105q-26 49 -73 79zM345 423q40 -24 61 -64q20 -42 16 -87q-4 -63 -50 -105q-45 -43 -107 -44q-62 -2 -110 38q-47 41 -55 103q-6 46 14 88q19 43 58 69q39 25 86 26t87 -24l7 10q-43 26 -94 26q-50 -1 -92 -29
q-42 -27 -63 -72q-21 -46 -15 -96q10 -66 60 -109t117 -42q67 2 115 47q49 46 54 112q5 49 -18 94q-22 44 -64 69zM332 402q34 -20 52 -55t14 -74q-4 -52 -43 -88q-38 -37 -90 -37q-54 -2 -94 33q-40 34 -47 86q-4 39 12 75q17 37 50 58q33 22 73 22q39 1 73 -20l9 14
q-38 23 -83 22q-43 -1 -80 -25t-56 -64q-18 -41 -13 -84q8 -58 52 -97q45 -37 104 -36q58 1 101 42q43 40 47 98q4 43 -16 82q-19 39 -56 62zM319 381q28 -16 43 -45q14 -29 11 -61q-3 -43 -34 -72q-32 -30 -75 -31t-76 27t-39 71q-4 32 9 62q14 30 41 47q28 18 60 19
q33 0 60 -17l10 17q-32 20 -70 19t-70 -22q-32 -20 -48 -55t-11 -72q7 -50 45 -83q39 -34 89 -32q51 1 88 35q37 35 40 86q4 38 -13 71q-17 34 -50 53z" />
    <glyph glyph-name="ayin" unicode="&#x5e2;" horiz-adv-x="492" 
d="M149 502v-330h-110v-19h276q35 1 52 19q19 17 20 53v276h-19v-276q-2 -29 -14 -39q-11 -12 -39 -14h-62v330h-4v-330h-17v330h-8v-330h-13v330h-12v-330h-9v330h-15v-330h-7v330h-19zM392 501v-276q0 -37 -21 -57q-19 -20 -56 -20h-276v-16h276q42 0 67 26q26 24 26 67
v276h-16zM418 501v-276q0 -47 -29 -74q-29 -28 -74 -28h-276v-12h276q49 0 81 31q33 32 33 83v276h-11zM442 501v-276q1 -55 -36 -92q-37 -36 -91 -36h-276v-7h276q56 -1 96 37q40 40 39 98v276h-8zM467 501v-276q2 -64 -44 -111q-47 -42 -108 -41h-276v-4h276q63 -1 111 43
q47 48 45 113v276h-4z" />
    <glyph glyph-name="pefinal" unicode="&#x5e3;" 
d="M40 253h4v99q-1 59 40 104q42 41 101 41h140q62 -1 104 -46q41 -46 41 -107v-523h4v523q0 62 -42 109q-43 46 -107 48h-140q-61 0 -104 -42q-42 -47 -41 -107v-99zM61 253h8v99q-1 50 33 87q34 33 83 33h140q50 0 85 -38t35 -90v-523h7v523q1 55 -36 95t-91 40h-140
q-52 1 -88 -35q-36 -39 -36 -92v-99zM82 253h12v99q0 42 26 69q25 26 65 26h140q40 0 67 -30q28 -30 28 -73v-523h12v523q0 47 -31 81q-32 34 -76 34h-140q-44 0 -74 -30q-29 -31 -29 -77v-99zM103 253h16v99q0 34 19 51q17 19 47 19h140q28 0 49 -22t22 -56v-523h15v523
q0 39 -25 67q-26 27 -61 27h-140q-36 0 -58 -24q-23 -23 -24 -62v-99zM124 253h20v99q1 26 11 34q10 11 30 11h140q17 2 30 -14q15 -14 15 -39v-523h19v523q0 31 -19 52q-20 21 -45 20h-140q-28 0 -44 -17q-16 -15 -17 -47v-99z" />
    <glyph glyph-name="pe" unicode="&#x5e4;" 
d="M40 254h4v98q-1 60 40 104q42 41 100 41h141q57 1 101 -40q43 -44 43 -105v-127q0 -61 -42 -108q-46 -45 -109 -44h-277v-4h277q64 -1 111 45q44 48 44 111v127q0 63 -44 108q-45 42 -104 41h-141q-60 0 -103 -42q-42 -47 -41 -107v-98zM61 254h8v98q-1 51 33 87
q33 33 82 33h141q48 0 84 -33q35 -35 35 -87v-127q0 -53 -35 -91q-37 -37 -91 -37h-277v-7h277q57 -1 97 39q37 40 37 96v127q0 55 -38 93q-38 35 -89 35h-141q-52 0 -88 -36q-35 -39 -35 -92v-98zM82 254h12v98q0 43 26 70q25 25 64 25h141q40 0 66 -25q28 -27 28 -70v-127
q0 -45 -28 -74q-28 -28 -73 -28h-277v-12h277q49 0 81 33q32 32 31 81v127q1 47 -31 78q-30 29 -74 29h-141q-43 0 -73 -30q-29 -30 -29 -77v-98zM103 254h15v98q1 34 20 52q17 18 46 18h141q30 0 49 -18q20 -19 20 -52v-127q-1 -37 -21 -56q-18 -21 -55 -21h-277v-16h277
q42 0 67 26q24 25 24 67v127q0 40 -24 63t-60 23h-141q-36 0 -58 -23q-23 -23 -23 -63v-98zM124 254h19v98q1 27 12 35q9 10 29 11h141q21 -1 31 -13q13 -9 13 -33v-127q-1 -28 -14 -39q-10 -12 -37 -14h-277v-19h277q34 1 51 20q19 17 20 52v127q-1 32 -19 47
q-17 18 -45 18h-141q-27 0 -43 -17q-17 -15 -17 -48v-98z" />
    <glyph glyph-name="tsadifinal" unicode="&#x5e5;" horiz-adv-x="490" 
d="M39 501v-8l316 -316q27 -31 40 -56q15 -32 14 -62v-232h11v231q2 34 -14 67q-14 29 -42 60l-317 316h-8zM61 501l310 -310q28 -32 43 -61q17 -36 15 -72v-231h16v230q1 41 -17 79q-16 33 -46 65l-300 300h-21zM90 501l296 -296q30 -33 46 -66q20 -39 18 -82v-230h19v230
q2 48 -19 90q-19 38 -51 71l-25 27q26 10 48 27q23 20 35 48q13 29 13 61l-1 92v28h-3v-28v-27v-65q0 -31 -12 -59q-12 -27 -35 -47q-22 -18 -48 -27l-14 14q29 7 52 26q19 17 30 40q10 25 10 53v92v28h-8v-28v-27v-65q1 -26 -9 -49t-29 -38q-22 -19 -52 -26l-11 10
q32 7 55 26q16 14 24 33q9 20 9 44v92v28h-12v-28v-92q0 -22 -7 -39q-8 -17 -22 -30q-22 -19 -58 -24l-8 10q38 2 60 21q12 11 19 26q7 16 7 36v92v28h-15v-29v-91q0 -17 -6 -29q-5 -12 -15 -21q-19 -18 -59 -19q4 0 -6 0l-6 6h12q38 1 55 17q9 8 14 19t5 27v65v26v29h-19
v-29v-26v-65q0 -12 -4 -19q-2 -7 -8 -12q-10 -11 -43 -13h-30l-164 164h-28zM39 463l301 -301q26 -29 36 -51q13 -27 12 -52v-232h8v232q1 27 -13 55q-11 24 -38 54l-306 306v-11zM39 434l286 -286q24 -28 33 -46q11 -24 9 -42v-233h4v233q1 20 -10 44q-9 19 -33 47
l-289 288v-5z" />
    <glyph glyph-name="tsadi" unicode="&#x5e6;" horiz-adv-x="490" 
d="M366 501v-29v-26v-65q0 -12 -3 -19t-9 -12q-9 -11 -42 -13h-31l-163 164h-28l381 -381v28l-98 97q26 10 48 27q23 20 36 48q12 30 12 61v65v27v28h-4q0 -8 1 -28v-27v-65q0 -30 -13 -59q-12 -27 -34 -47q-23 -17 -49 -27l-13 14q28 8 51 26q19 17 30 40q11 26 11 53v65
q0 9 -1 27v28h-8v-28q1 -18 1 -27v-65q0 -26 -10 -49q-10 -22 -29 -38q-22 -19 -52 -26l-11 10q33 7 55 26q16 14 25 33q9 21 8 44v65v27v28h-11v-28v-27v-65q0 -22 -8 -39q-7 -17 -22 -30q-22 -19 -57 -23l-9 9q39 2 60 22q13 11 19 25q7 16 7 36v65v27v28h-15v-28v-27v-65
q0 -17 -5 -29q-6 -12 -16 -20q-19 -18 -58 -20q1 0 -7 0l-5 6h12q37 1 54 17q9 8 14 19q6 11 6 27v65v27v28h-20zM39 501v-8l424 -424h8v8l-424 424h-8zM61 501l410 -410v21l-389 389h-21zM39 463l394 -394h11l-405 405v-11zM39 434l262 -263h-262v-19h281l5 -5h-286v-16
h302l10 -9h-312v-11h323l13 -14h-336v-7h344l17 -17h-361v-4h370v0v0l-4 4h1l-17 17h-1l-8 7h1l-13 14h-1l-12 11h1l-9 9h-1l-15 16h1l-7 5v0l-19 19v0l-267 268v-5z" />
    <glyph glyph-name="qof" unicode="&#x5e7;" horiz-adv-x="492" 
d="M39 501v-4h284q59 0 102 -40q43 -44 42 -105v-84q1 -43 -15 -83q-15 -34 -43 -58q-23 -19 -53 -33q-8 -3 -25 -11q-15 -7 -22 -11l2 -3q7 3 21 10q17 8 26 12q29 13 53 33q29 24 45 59q17 41 16 85v84q0 63 -45 108q-44 41 -104 41h-284zM39 480v-8h284q49 0 84 -33
q36 -35 35 -87v-84q1 -40 -13 -73q-13 -29 -37 -50q-19 -15 -47 -28q-7 -4 -24 -12q-16 -7 -23 -11l4 -7q7 4 22 11q17 8 25 12q28 13 48 30q25 21 39 51q15 36 14 77v84q1 55 -38 93q-37 35 -89 35h-284zM39 459v-12h284q40 0 67 -25q28 -27 28 -70v-84q0 -37 -12 -63
q-10 -24 -30 -41q-15 -12 -41 -25q-8 -4 -24 -11t-24 -11l5 -10q8 4 23 11q17 7 24 10q28 13 45 28q22 18 33 44q12 29 12 68v84q0 47 -31 78q-30 29 -75 29h-284zM39 438v-16h284q31 0 49 -19q20 -18 21 -51v-84q-1 -34 -10 -53q-7 -18 -23 -31q-11 -10 -36 -23
q-7 -3 -23 -10t-25 -12l7 -14q9 5 24 12q16 7 23 11q26 12 40 24q19 15 28 36q10 24 11 60v84q0 39 -26 63q-24 23 -60 23h-284zM39 417v-19h284q22 -1 32 -13q12 -9 13 -33v-84q-1 -31 -7 -44q-6 -12 -16 -21q-9 -8 -32 -19q-6 -3 -23 -11q-15 -7 -25 -12l8 -17q9 4 25 11
q17 8 24 11q24 12 35 22q15 12 22 28q8 19 9 52v84q-1 31 -19 47q-17 17 -46 18h-284zM100 265v-442h4v442h-4zM121 265v-442h7v442h-7zM142 265v-442h11v442h-11zM163 265v-442h15v442h-15zM184 265v-442h19v442h-19z" />
    <glyph glyph-name="resh" unicode="&#x5e8;" horiz-adv-x="492" 
d="M39 502v-4h285q58 1 101 -40q44 -44 43 -105v-284h4v284q1 63 -44 108q-45 42 -104 41h-285zM39 481v-8h285q48 0 84 -33q35 -35 35 -87v-284h8v284q1 55 -38 93q-38 35 -89 35h-285zM39 459v-11h285q40 0 66 -26q29 -27 29 -69v-284h11v284q0 46 -31 77q-31 30 -75 29
h-285zM39 439v-16h285q31 0 49 -19q20 -18 20 -51v-284h16v284q0 39 -25 63q-24 23 -60 23h-285zM39 418v-19h285q21 -1 31 -13q13 -9 14 -33v-284h19v284q0 31 -19 47q-17 17 -45 18h-285z" />
    <glyph glyph-name="shin" unicode="&#x5e9;" 
d="M198 501v-329h-10q-23 1 -33 13q-12 10 -12 33v283h-19v-283q0 -30 17 -47q16 -17 47 -18h127q36 1 53 19q19 17 20 53v276h-19v-276q-2 -29 -14 -39q-11 -12 -40 -14h-13v329h-20v-329h-5v329h-15v-329h-10v329h-12v-329h-13v329h-8v-329h-17v329h-4zM40 501v-283
q-1 -60 41 -104q45 -46 107 -45h127q64 -1 111 43q47 48 46 113v276h-4v-276q1 -64 -44 -111q-47 -42 -109 -41h-127q-60 -1 -105 43q-40 43 -39 102v283h-4zM61 501v-283q-1 -53 34 -90q39 -38 93 -38h127q57 -1 97 37q40 40 39 98v276h-8v-276q1 -55 -37 -92
q-37 -36 -91 -36h-127q-51 0 -87 36q-33 35 -33 85v283h-7zM81 501v-283q0 -45 30 -76t77 -31h127q50 0 82 31q33 32 33 83v276h-11v-276q0 -47 -30 -74q-28 -28 -74 -28h-127q-42 0 -69 28q-26 27 -26 67v283h-12zM102 501v-283q1 -37 24 -61q23 -25 62 -25h127q43 0 67 26
q27 23 27 67v276h-16v-276q0 -37 -21 -57q-20 -20 -57 -20h-127q-33 0 -51 20q-19 19 -19 50v283h-16z" />
    <glyph glyph-name="tav" unicode="&#x5ea;" horiz-adv-x="562" 
d="M0 170v-4h69q12 1 19 4q6 3 12 10q12 11 13 46v127q0 59 40 101q44 44 105 43h128q61 2 108 -41q45 -47 44 -110v-278h4v278q1 65 -45 113q-48 44 -111 42h-128q-62 1 -108 -44q-41 -45 -41 -104v-127q-1 -34 -12 -44q-5 -6 -12 -8q-5 -3 -16 -4h-69zM0 149v-8h69
q16 1 29 7q12 5 21 16q18 21 19 62v127q0 49 33 84q35 36 87 35h128q54 1 91 -34q37 -37 37 -92v-278h7v278q1 58 -39 97q-40 38 -96 37h-128q-55 1 -92 -38q-36 -37 -36 -89v-127q-1 -39 -17 -57q-8 -10 -18 -15q-11 -4 -26 -5h-69zM0 128v-10h69q21 0 40 7q17 9 29 23
q24 31 24 78v127q0 40 27 67q27 29 69 29h128q45 0 74 -29q29 -28 29 -74v-278h12v278q0 50 -33 83q-33 31 -82 30h-128q-47 1 -78 -30q-29 -31 -29 -76v-127q0 -44 -22 -70q-11 -13 -26 -20t-34 -8h-69zM0 108v-15h69q26 0 50 11q22 10 37 29q32 40 31 93v127q0 32 19 50
q19 20 52 21h128q38 -1 57 -21q21 -19 21 -57v-278h16v278q0 43 -26 68t-68 25h-128q-39 0 -63 -25q-23 -24 -23 -61v-127q0 -49 -27 -83q-14 -17 -33 -25q-20 -10 -43 -10h-69zM0 87v-19h69q31 0 60 13q27 13 47 37q37 49 36 108v127q0 22 12 33q9 13 34 13h128
q29 -1 40 -14q13 -10 14 -39v-278h19v278q0 36 -20 53q-18 19 -53 20h-128q-32 -1 -48 -20q-17 -17 -17 -46v-127q0 -55 -32 -96q-16 -20 -40 -32q-25 -11 -52 -11h-69z" />
    <glyph glyph-name="geresh" unicode="&#x5f3;" horiz-adv-x="163" 
d="M39 751v-175h4v175h-4zM61 751v-175h7v175h-7zM81 751v-175h12v175h-12zM103 751v-175h15v175h-15zM124 751v-175h20v175h-20z" />
    <glyph glyph-name="gershayim" unicode="&#x5f4;" horiz-adv-x="323" 
d="M39 751v-175h4v175h-4zM61 751v-175h7v175h-7zM81 751v-175h12v175h-12zM103 751v-175h15v175h-15zM124 751v-175h20v175h-20zM199 751v-175h4v175h-4zM221 751v-175h7v175h-7zM242 751v-175h12v175h-12zM263 751v-175h15v175h-15zM284 751v-175h20v175h-20z" />
    <glyph glyph-name="newsheqel" unicode="&#x20aa;" horiz-adv-x="732" 
d="M151 499q-63 1 -107 -43q-42 -44 -41 -104v-283h3v283q0 58 40 101q44 43 105 43h127q61 1 108 -42q45 -46 44 -109v-63h4v63q1 64 -45 112q-48 44 -111 42h-127zM496 499v-275q0 -29 -14 -38q-10 -12 -39 -14h-126q-24 1 -33 13q-12 10 -12 32v67h-20v-67q0 -29 17 -46
q16 -18 48 -18h126q36 1 53 19q20 17 20 52v275h-20zM522 499v-275q-1 -37 -22 -56q-19 -20 -57 -20h-126q-33 0 -52 20q-18 18 -18 49v67h-16v-67q0 -36 24 -60q23 -25 62 -25h126q43 0 68 25q25 24 26 67v275h-15zM546 499v-275q0 -46 -29 -74q-28 -27 -74 -27h-126
q-42 0 -69 28q-26 26 -26 66v67h-11v-67q-1 -44 28 -75q31 -31 78 -31h126q49 0 83 31q32 32 32 82v275h-12zM571 499v-275q1 -55 -36 -92q-38 -35 -92 -35h-126q-52 0 -87 36q-33 35 -33 84v67h-8v-67q0 -52 36 -89q37 -38 92 -38h126q56 -1 97 37q40 40 39 97v275h-8z
M596 499v-275q1 -63 -44 -110q-46 -42 -109 -41h-126q-61 -1 -105 43q-40 43 -40 101v67h-4v-67q0 -59 41 -104q46 -45 108 -44h126q63 -1 112 43q46 47 45 112v275h-4zM151 479q-54 0 -93 -38q-35 -38 -34 -89v-283h7v283q0 49 33 84q35 35 87 35h127q54 1 91 -35
q36 -37 36 -91v-63h8v63q0 57 -39 97q-40 37 -96 37h-127zM151 458q-47 0 -77 -32q-30 -30 -30 -74v-283h12v283q0 40 26 67t69 27h127q45 0 74 -27q28 -28 28 -74v-63h12v63q0 50 -33 82q-32 31 -81 31h-127zM151 437q-39 -1 -63 -25q-23 -23 -23 -60v-283h16v283
q0 30 19 49q18 20 51 21h127q37 -1 56 -21q21 -19 21 -56v-63h16v63q0 42 -26 67q-25 24 -67 25h-127zM151 416q-31 0 -47 -19q-17 -16 -18 -45v-283h19v283q1 22 13 32q9 11 33 12h127q28 -1 39 -13q12 -10 14 -38v-63h19v63q-1 35 -20 52q-17 18 -52 19h-127z" />
    </font>
</defs>
</svg>
