<?xml version="1.0" standalone="no"?>
<!DOCTYPE svg PUBLIC "-//W3C//DTD SVG 1.1//EN" "http://www.w3.org/Graphics/SVG/1.1/DTD/svg11.dtd" >
<svg xmlns="http://www.w3.org/2000/svg" xmlns:xlink="http://www.w3.org/1999/xlink" version="1.1">
<metadata>
Created by FontForge 20170910 at Tue Jan 22 16:21:20 2008
 By Jimmy Wärting
Created by Raphael Finkel,,, with FontForge 1.0 (http://fontforge.sf.net)
</metadata>
<defs>
<font id="Refoyl" horiz-adv-x="0" >
  <font-face 
    font-family="Refoyl"
    font-weight="500"
    font-stretch="normal"
    units-per-em="1024"
    panose-1="2 0 6 3 0 0 0 0 0 0"
    ascent="819"
    descent="-205"
    bbox="-187.122 -465.556 941.8 1185"
    underline-thickness="50"
    underline-position="-150"
    unicode-range="U+0020-FB4E"
  />
<missing-glyph horiz-adv-x="374" 
d="M34 0v682h272v-682h-272zM68 34h204v614h-204v-614z" />
    <glyph glyph-name="uniFB1D" unicode="&#x5d9;&#x5b4;" horiz-adv-x="355" 
d="M-17.709 509.079q1.0127 10.9131 3.03711 22.3223q2.02441 11.4102 4.04883 19.8428q2.02344 8.43359 6.07227 20.3389t5.56738 17.8584q1.51758 5.95215 7.08496 18.3545q5.56641 12.4014 7.08496 15.874q1.51758 3.47168 8.09668 17.3623
q6.5791 13.8896 7.5918 16.8662q3.03613 6.94434 19.2305 54.0703t35.4248 73.9131q14.1699 19.8428 47.0645 26.292q32.8955 6.44824 59.2109 -3.96875t24.292 -34.2285q-3.03711 -27.7793 -12.6523 -54.0703q-9.61523 -26.292 -24.7979 -57.5439
q-15.1816 -31.252 -20.2422 -43.1572q-5.06152 -11.9053 -14.6768 -40.6777q-9.61523 -28.7715 -19.7363 -49.1094q-10.1221 -20.3389 -26.3164 -44.1504q-19.2305 -27.7793 -68.8252 -18.3535q-49.5957 9.4248 -46.5596 42.165zM71 297q13 26 39.5 35t52.5 -3
q24 -12 31.5 -39t-5.5 -51q-12 -24 -37 -33t-49 3q-25 12 -34.5 37.5t2.5 50.5z" />
    <glyph glyph-name="uniFB1F" unicode="&#x5f2;&#x5b7;" horiz-adv-x="592" 
d="M235 498q1 11 3 22.5t4 20t6 20.5t5.5 18t7 18.5t7 16t8 17.5t7.5 17q3 7 19 54.5t35 74.5q14 20 46.5 26.5t58.5 -4t24 -34.5q-3 -28 -12.5 -54.5t-24.5 -58t-20 -43.5t-14.5 -41t-19.5 -49.5t-26 -44.5q-19 -28 -68 -18.5t-46 42.5zM-6 501q1 11 3 22.5t4 20t6 20.5
t5.5 18t7 18.5t7 16t8 17.5t7.5 17q3 7 19 54.5t35 74.5q14 20 46.5 26.5t58.5 -4t24 -34.5q-3 -28 -12.5 -54.5t-24.5 -58t-20 -43.5t-14.5 -41t-19.5 -49.5t-26 -44.5q-19 -28 -68 -18.5t-46 42.5zM57.418 337q25.7363 7 53.7432 10q28.0078 3 46.9316 3.5t48.4453 0
t43.9033 -0.5q10.5977 0 45.418 1.5t51.8516 1.5t47.3096 -3t57.5293 -10q21.9512 -5 22.3301 -47q0.37793 -42 -20.0596 -55q-24.9795 -16 -51.8516 -23.5t-44.2822 -8t-51.8516 1.5t-53.3652 2t-52.6084 -2.5t-51.0947 -2.5t-43.5254 7t-51.0947 23
q-20.4375 13 -20.0596 54.5q0.378906 41.5 22.3311 47.5z" />
    <glyph glyph-name=".notdef" horiz-adv-x="374" 
d="M34 0v682h272v-682h-272zM68 34h204v614h-204v-614z" />
    <glyph glyph-name=".null" 
 />
    <glyph glyph-name="nonmarkingreturn" horiz-adv-x="341" 
 />
    <glyph glyph-name="space" unicode=" " horiz-adv-x="445" 
 />
    <glyph glyph-name="exclam" unicode="!" horiz-adv-x="490" 
d="M8.5 1q-3.5 31 16 53t50.5 22t55.5 -22t28 -53t-16 -53t-50.5 -22t-55.5 22t-28 53zM299 630q-2 -6 1 -5q3 2 3 1q-1 -5 -15 -38l-77 -399q-5 -30 -31 -44.5t-56.5 -5.5t-48.5 36.5t-12 56.5l78 406q1 7 11 32t10 35q-3 18 3 34l34 98q10 28 38 39t58 -2t43.5 -42.5
t3.5 -57.5l-11 -30q-8 2 -16 -60l-4 -12q-10 -42 -12 -42z" />
    <glyph glyph-name="quotedbl" unicode="&#x22;" horiz-adv-x="673" 
d="M539 780l-48 -77q-2 -5 -4.5 -11.5t-3 -8.5t-2 -5.5t-2.5 -4.5t-2.5 -3.5t-3.5 -5.5t-5 -7t-7.5 -10.5t-9.5 -13.5l-37 -44q-20 -24 -51 -27t-55 17t-26.5 51t17.5 55l33 39q20 29 20 31q4 16 11 26l52 84q3 6 8 10l56 63q20 24 51 25.5t54.5 -19t25 -51.5t-18.5 -54z
M263 791l-48 -77q-2 -5 -4 -11.5t-3 -8.5t-2.5 -5.5t-2 -5t-2 -4t-4 -5t-5 -6.5t-7.5 -10.5t-10 -13.5l-37 -45q-20 -24 -51 -26.5t-54.5 17t-26.5 50.5t17 55l33 40q20 29 21 30q3 16 10 27l52 84l8 10l56 63q21 23 52 25t54 -18.5t25 -51.5t-19 -55z" />
    <glyph glyph-name="quotesingle" unicode="'" horiz-adv-x="393" 
d="M264 828l-48 -77q-2 -5 -4.5 -12t-3 -8.5t-2 -5t-2.5 -5t-2.5 -4t-3.5 -5t-5 -6.5t-7.5 -10.5t-9.5 -13.5l-37 -45q-20 -24 -51 -26.5t-55 17t-26.5 50.5t17.5 55l33 40q20 29 20 30q4 16 11 27l52 84q3 5 8 10l56 63q20 23 51 25t54.5 -18.5t25 -52t-18.5 -54.5z" />
    <glyph glyph-name="parenleft" unicode="(" horiz-adv-x="496" 
d="M422 786l-24 -27q-16 -8 -22.5 -12.5t-16 -13t-24.5 -19.5q-11 -8 -16 -16q-11 -19 -37 -47t-33 -43q-2 -3 -5.5 -10.5t-8 -15.5t-8.5 -15l-31 -58l-19 -53l-19 -120l13 -102l28 -135l88 -112q15 -26 5.5 -56.5t-36.5 -48.5q-29 -17 -57 -11.5t-46 29.5l-70 97l-25 68
q-1 2 -3 7t-3 8l-29 102l-2 10l-14 117q-1 10 0 20l21 138q2 8 4 15l24 66q2 6 5 12l37 68q2 3 8.5 15.5t10.5 20.5q18 34 45.5 64.5t28.5 31.5q10 18 23 33t21.5 22t19 14.5t13.5 10.5q17 14 26.5 21.5t13 10t12 6.5t15.5 8t23.5 9t22.5 5q37 0 55.5 -26.5t8.5 -60.5
l-2 -14q3 2 0 4q-3 3 -21 -17z" />
    <glyph glyph-name="parenright" unicode=")" horiz-adv-x="584" 
d="M152 867l14 -33q13 -13 18 -19.5t11 -17.5t17 -25q8 -12 10 -20q4 -23 19.5 -57.5t18.5 -50.5q1 -3 2 -11.5t2.5 -17.5t2.5 -17l12 -65l1 -56l-20 -120l-45 -93l-69 -119l-119 -79q-22 -19 -23 -51t20 -58q20 -25 49.5 -29t53.5 14l97 70l45 56q3 4 6 7l5 5l59 88
q3 4 5 9l51 106q4 9 6 20l23 137q2 8 1 16l-1 70q0 6 -1 13l-14 76q-1 4 -3 17.5t-3 22.5q-7 38 -23.5 75.5t-16.5 39.5q-4 20 -11.5 38t-13.5 27.5t-13.5 20.5t-9.5 13q-11 20 -18 30t-9.5 13.5t-9.5 10t-12 12t-19 16t-20 12.5q-35 12 -61 -7.5t-27 -55.5l-3 -14q-1 5 2 4
q4 0 14 -23z" />
    <glyph glyph-name="comma" unicode="," horiz-adv-x="463" 
d="M176 -52q-33 -28 -33 -21q-3 -2 -4 2q-1 8 3 12q7 8 15 1l-9 -13q-18 -26 -48.5 -32t-56 11t-31.5 47.5t11 56.5l9 14q6 8 14 15t15.5 11.5t12 7t5.5 2.5q0 1 5.5 5.5t9.5 7.5t11.5 10t13.5 13t13.5 15t14.5 18.5t14 20t13 23t10 25.5q11 29 39 42.5t57 3t42.5 -39
t2.5 -57.5q-14 -41 -37.5 -78.5t-48.5 -63.5t-37.5 -37.5t-24.5 -20.5z" />
    <glyph glyph-name="hyphen" unicode="-" horiz-adv-x="824" 
d="M89 737q10 0 20 -3l93 -6l64 -5l236 6l80 3q31 1 54 -20t24 -52t-20 -54t-52 -24l-81 -3l-241 -6h-8l-75 6q-7 1 -13 2l-89 -2l-37 3q-14 0 -22.5 7t-11.5 22t-3.5 25.5t-0.5 31.5v10q0 30 18 45.5t50 15.5z" />
    <glyph glyph-name="period" unicode="." horiz-adv-x="275" 
d="M-1 77q0 31 22 53t53 22t53 -22t22 -53t-22 -53t-53 -22t-53 22t-22 53z" />
    <glyph glyph-name="zero" unicode="0" horiz-adv-x="922" 
d="M414 711l-11 -2q-9 -3 -19 -2l-50 2l-62 -30l-85 -140q-3 -6 -8 -11q-10 -11 -13 -27q-4 -15 -5 -46q0 -6 0.5 -25.5t0.5 -20.5v-6v-42q0 -34 3.5 -51t17.5 -41q8 -15 14 -23q4 -5 10 -10q16 -12 31 -27q9 -10 11 -11q13 -6 19 -9t8.5 -4.5t10 -6.5l16.5 -11q7 0 17 2
q4 0 15 1h1q2 0 4 1q22 4 70 25q22 10 34 18q26 17 38 24q7 4 14 7l1 1q3 1 15 9q7 5 13 18q9 17 15 47l3 110l-8 66l-28 121l-13 37l-56 47q-10 4 -18 9q-1 0 -2 1h-4zM433 860h14q29 -1 48 -20l6 -2q14 -5 25 -14l81 -69q15 -13 22 -32l21 -60l2 -8l30 -129q1 -4 1 -8
l9 -75q1 -6 1 -11l-3 -123q0 -8 -2 -13q-13 -59 -28 -89q-23 -48 -62 -75q-21 -14 -30 -19q-4 -2 -12 -5q-9 -5 -28 -18q-25 -17 -56 -30q-66 -29 -101 -36q-7 -2 -14 -3q-6 -1 -11 -1h-5q-13 -3 -44 -3q-12 0 -42 11t-42 19q-6 4 -11 8q-3 2 -5 2q-3 1 -9 4q-16 7 -29 17
q-12 9 -31 29q-3 3 -10 8q-25 18 -43 43q-11 16 -24 39q-23 41 -31 77t-8 87v44v4q0 8 -0.5 22t-0.5 24q1 51 9 82q12 49 42 85l93 154q11 19 31 28l99 48q17 9 36 8l26 -1q14 4 28 4l26 -1q16 3 32 -2z" />
    <glyph glyph-name="one" unicode="1" horiz-adv-x="714" 
d="M99 434l49 37q10 8 23 12q1 0 5.5 4.5t8 8.5l3.5 4q6 9 10.5 16.5t6.5 11t3.5 6t2 3t1 1.5t2.5 2.5t4 4t7 8t11 13.5q3 2 4 4t2 3v1q3 8 7 15l45 72q6 10 15 17q2 2 20.5 28t32.5 40q-2 -1 -3 -3q1 1 2.5 7.5t4 15t4.5 15.5l5 21q8 31 33.5 46.5t57.5 7.5q31 -7 47.5 -33
t7.5 -56q-4 -15 -7.5 -25t-5 -15.5t-3 -8.5l-2 -4t-1 -1.5t-0.5 -1.5q0 -4 -1 -8l-12 -77l-15 -70l-81 -478q-5 -31 -30.5 -49t-56 -12.5t-48.5 30.5t-13 56l81 482l15 68l12 72q1 12 2 17q3 13 9.5 29t10.5 29q9 31 35 47t55 9q31 -8 47 -34.5t9 -56.5l-6 -24q-1 -4 -3 -8
q-1 -2 -5.5 -20t-8.5 -28q-2 -5 -8 -13.5t-13 -18.5t-9 -12q-8 -9 -24 -32t-27 -35l-37 -59q-4 -8 -6 -13q-5 -9 -12 -18q-5 -7 -11 -15q-6 -7 -12 -13t-9 -10t-6 -9q-12 -24 -38 -51t-56 -41l-39 -28l-49 -41q-24 -20 -55 -17t-51 27t-17 55t27 50z" />
    <glyph glyph-name="two" unicode="2" horiz-adv-x="942" 
d="M122 812l-5 -3q3 2 6 5q22 18 82 54q63 38 136 38h3h2q18 0 57.5 6t92.5 6q3 -2 28.5 -9t31.5 -10q35 -22 72 -67q29 -36 41 -57q8 -16 14 -33q16 -45 17 -130v-6q0 -54 -6.5 -102.5t-12.5 -65.5q-1 -4 -8 -19t-7 -16q-1 0 -4 -8.5t-4 -11t-5 -11.5t-6.5 -12.5t-8 -12
t-10.5 -14t-12.5 -13.5t-15.5 -13.5t-19 -12.5t-22 -13q-16 -9 -36.5 -17.5t-59.5 -30.5t-47 -26q-22 -10 -40 -19l-25 -12.5t-15 -5.5q-23 -6 -52 -20q-12 -5 -40 -26t-45 -43q-9 -13 -9 6l1 8l-36 32q-40 41 -2 37h6q29 -5 54 -12l118 -6l224 -5l87 -3q32 -2 53 -24.5
t20 -53.5t-24 -52t-54 -20l-86 3l-226 6l-130 6q-17 0 -32 9q-1 0 -26 3q-10 2 -25 3.5t-22 2t-17 3t-14.5 7.5t-9.5 13t-6.5 20.5t-1.5 30.5q0 13 3 23t5.5 14.5t13 17t16.5 20.5q24 32 60.5 61.5t54.5 40t27 15.5q40 18 74 28q0 2 59 29q3 1 21.5 12t43 24t44.5 21
q16 7 26 13q14 7 20 12t8 9t7 19q5 11 8 18t4.5 9.5t2.5 3.5q11 34 11 121v5q0 60 -8 81q-2 5 -5 10q-6 12 -23 32q-25 30 -38 38l5 -1l10 -2l5 -1q-42 0 -83.5 -6t-66.5 -6h-4h-1q-31 0 -58 -17q-52 -31 -66 -42q-1 0 -1 -1q-6 -5 -12 -9q-8 -6 -27.5 -24.5t-33.5 -27.5
q-27 -17 -57 -10t-46.5 33.5t-9.5 57t33 46.5q1 1 22.5 20.5t36.5 29.5z" />
    <glyph glyph-name="three" unicode="3" horiz-adv-x="793" 
d="M418 769q-8 6 -20 13t-17 7q-49 0 -79 -8q-19 -4 -22 -5l18 4q-8 -3 -16 -8.5t-18 -15.5l-16 -16t-19 -21t-18 -20q-3 -3 -6 -6.5t-5 -5.5l-3 -3q-12 -17 -14 -18l-23 -46q-14 -28 -43.5 -37.5t-57 4t-37.5 43t4 57.5l33 66q16 33 53 40l-35 -26q-7 -4 -2 4q7 10 32 36
l8 9.5t17.5 20t25 25.5t31.5 27t37.5 23t41.5 16q47 11 113 11q8 0 22 -2t49.5 -16t63.5 -39q12 -11 43.5 -58.5t43.5 -80.5q15 -38 15 -86q0 -51 -4.5 -84t-8.5 -43.5t-14 -28.5q-15 -29 -34 -50t-37 -32.5t-32 -18t-29 -11t-17 -5.5l42 66l-3 19l-14 20q1 0 6 -6
q13 -12 29 -35l1.5 -1.5t4 -4.5t6 -6.5t7.5 -8t8 -10t8 -12t7.5 -13t7 -14t5.5 -14.5q1 0 7 -17t9 -28t6 -39t3 -63q0 -85 -45 -152.5t-91 -77.5l-63 -15q-6 -2 -12 -2l-93 -6q-4 -1 -8 0l-78 3q-25 1 -65.5 23t-53.5 38l-24 30q-19 24 -15.5 55t27.5 50.5t55 16t51 -28.5
l17 -21q12 -8 26 -14l62 -2l83 5l42 10l2 2t3.5 4l4.5 6t5.5 8.5t5.5 9.5t5.5 11.5t4.5 14t3 16t1 16.5q0 12 -0.5 22t-0.5 17t-1.5 14.5t-2.5 11.5t-3 10.5t-2.5 8.5t-3.5 9.5t-4 8.5q-24 28 -34 43l-10.5 12t-4.5 4.5t-3 3t-7 11t-14 25.5q-2 2 -17 15t-15 17q0 9 28 27.5
t44 26.5q3 1 15.5 14t15.5 14q14 5 19 7.5t12.5 10t15.5 22.5l1.5 2.5t2 3.5t1.5 4.5t1.5 6.5t1 9.5t1 14t0.5 19v25.5v4.5v6t-1 8t-3.5 12t-6.5 15t-10 19.5t-15.5 24.5t-21.5 31.5z" />
    <glyph glyph-name="four" unicode="4" horiz-adv-x="892" 
d="M680 488q38 2 60 -19t24 -52q1 -31 -19.5 -54t-51.5 -24l-27 -2l-28 -311q-3 -31 -27 -51t-55 -17t-50.5 26.5t-17.5 54.5l27 293h-91l-152 -5q-22 -1 -39 8h-3q-63 0 -155 46q-27 4 -45.5 25t-18.5 50q0 27 17 47l15 18q12 14 28 21q15 7 68.5 47t66.5 48q62 37 74 47
t41 53q14 19 31 35t27 22.5t41 25.5q1 -2 43 34q3 3 8.5 6.5t11.5 6.5l12 6t11.5 5.5t10 4.5t7.5 3l3 1q18 14 41 15l63 3q33 2 56.5 -21t22.5 -56v-10zM582 724q-31 -26 -61 -45t-35 -24q-5 -4 -10 -12q-30 -42 -52 -67q-13 -15 -32 -28.5t-77 -47.5q-8 -5 -32 -23
q27 -1 42 -8l127 5h108z" />
    <glyph glyph-name="five" unicode="5" horiz-adv-x="798" 
d="M519 711l-185 5l-26 1v1l-11 -48l-10 -53l-13 -52q-3 -12 -11 -23v-1.5t-1.5 -7t-4.5 -13.5q-2 -3 -3.5 -9.5t-3.5 -11t-6 -7.5q-20 -14 -44.5 -6t-36.5 30t-5 46t29 36q17 -3 49 -6.5t58.5 -7.5t49.5 -9q49 -10 69 -18t44 -29q23 -21 36 -50q1 -2 0 -1l-4 6
q31 -43 47.5 -116t15.5 -132q0 -45 -7 -75q-3 -10 -6 -19q-3 -10 -7 -19q-6 -13 -10 -19q-1 0 -6.5 -8t-9 -12t-10 -11.5t-14.5 -14.5t-17 -14q-71 -51 -177 -51q-48 0 -99 12.5t-88 35.5q-7 4 -15.5 6.5t-14 7.5t-13.5 19l-8 7q-22 22 -22 53.5t22 53t53.5 21.5t52.5 -22
l15 -15q9 -8 14 -18l-15 17q-1 4 9 -2q1 0 2 -1q16 -10 41.5 -16t40.5 -7.5t25 -1.5q58 0 89 23q10 7 18 19l1 1q0 1 1 3l2 6q3 16 3 41q1 43 -10.5 93t-23.5 66q-5 7 -12 23v-1q0 1 -1.5 2.5t-2 1.5t-4 1t-9.5 2.5t-16 3.5q-23 4 -49.5 8t-58.5 8t-50 6q-37 6 -55 38.5
t-2 66.5l12 28q1 2 4 12t6 17l10 39l10 52l14 57l18 57q8 25 27.5 39t46.5 13l82 -2l190 -5l57 -5q31 -3 51 -27t17 -55t-26.5 -51t-54.5 -17z" />
    <glyph glyph-name="six" unicode="6" horiz-adv-x="909" 
d="M387 773q-20 -10 -27 -20q-1 -2 -9 -14q-10 -18 -21 -28l-77 -109l-29 -42l-47 -139l-8 -38v-5q0 -41 17 -94t50 -90q28 -31 91.5 -54t130.5 -23h3q12 0 52 14q35 12 52 25q11 9 19 23q1 4 5 12q24 30 32 45q5 20 6 22q0 112 -61 186q-37 46 -50 57q-15 12 -24 12
q-31 0 -77.5 7.5t-48.5 7.5h8q-40 -4 -92 -11l-65 -18l-35 -25q-25 -19 -55.5 -14t-49 30t-13.5 55.5t30 48.5l45 33q10 8 23 12l84 24q5 2 10 2q37 6 102 13h8q9 0 63.5 -7.5t62.5 -7.5q63 0 120 -47q24 -20 70 -76q38 -47 61 -106.5t28.5 -99t5.5 -76.5q0 -20 -12 -62
q-3 -13 -10 -26q-22 -45 -30 -43q-5 -10 -8 -17q-23 -43 -60 -72q-23 -18 -41.5 -27t-54.5 -22q-23 -9 -34.5 -12.5t-28 -6.5t-35.5 -3h-5q-85 0 -180.5 31t-153.5 96q-40 45 -65.5 106.5t-32.5 103t-7 74.5q0 22 4 37l9 42l2 8l51 153q3 10 10 19l36 51l84 120q12 17 31 26
l-6 -5t-12 -9.5l-6 -4.5q11 18 18 28q27 38 81 64q14 7 21 13t17 17t21 20q13 13 29 23q16 9 40 19q28 13 57 0.5t40 -41.5q12 -28 0 -56.5t-41 -40.5q-11 -5 -16 -9q-5 -3 -9 -7q-2 -1 -17 -17t-33 -29.5t-43 -25.5z" />
    <glyph glyph-name="seven" unicode="7" horiz-adv-x="862" 
d="M306 425q21 4 39 4q13 0 24 -1.5t24.5 -4.5t24.5 -4l212 -24l27 -3q31 -3 50.5 -27.5t16 -55.5t-28 -50.5t-55.5 -15.5l-27 3l-214 24q-16 2 -27.5 4.5t-17 3.5t-9.5 1q-6 0 -18 -2q-7 -2 -14 -2h-21q-31 0 -53 22t-22 53.5t22 53t53 21.5h14zM136 862q6 2 13 2
q4 0 12 -4l424 -15q36 -1 57.5 -29.5t12.5 -63.5l-186 -741q-7 -30 -33.5 -46t-57 -8.5t-46.5 34.5t-8 57l163 651l-336 12q-51 1 -68 49l16.5 -11.5l33 -23l16.5 -11.5h2.5h5.5h3q-15 -2 -29 1l-66 15q-30 7 -46.5 33.5t-10 56.5t33 46.5t56.5 10.5l66 -15q0 -6 -4.5 -10.5
t-10.5 -4t-10 5t-3 9.5z" />
    <glyph glyph-name="eight" unicode="8" horiz-adv-x="837" 
d="M444 978q35 1 69 -11q7 -2 15 -6q7 -3 15.5 -7t10.5 -5q2 -2 13.5 -8.5t22 -16.5t21.5 -27q22 -37 28 -74q7 -40 -4 -115q-1 -11 -1.5 -18t0 -8.5t0.5 -3v-3.5q0 -1 -1.5 -9t-3 -14.5t-4.5 -18t-7.5 -22.5t-11 -23.5t-15.5 -26t-20 -25.5q-1 -2 -4 -4q-2 -2 -10.5 -11.5
t-11.5 -12t-12 -9t-19.5 -10.5t-24.5 -8q-73 -21 -164 -76q-3 0 -16.5 -5.5t-36 -16.5t-33.5 -20q-4 -3 -7 -6l-5 -5l1 1l10 17q-2 -2 -14 -23q-36 -61 -42 -76l-6 -14q-1 -7 -4 -29q-1 -1 -2 -1.5t0 -1.5t5 -7l5.5 -17.5t11.5 -35.5l6 -18l-2.5 2t-4.5 4l-3 2l35 -19
q1 -1 3 -2l26 -8q11 -4 33 -4h18t26 0.5t24 0.5q22 1 28 1q14 1 29 9q30 17 37 21l-1 1l9 13.5t12.5 20.5t7.5 17l5 20q4 25 4 26q0 6 1 6v0q-21 52 -28 63q0 1 -0.5 1t-1.5 2q0 1 -4.5 9t-9.5 16t-12 18.5t-16.5 21t-19.5 19.5l-29 23q-4 4 -14 7q-8 3 -28 9l-3.5 0.5
t-9.5 1.5t-14 2t-17.5 3.5t-19.5 5.5t-21.5 7t-22 9t-21 11.5t-19.5 14.5q-13 10 -22 26.5t-12.5 29t-6.5 26t-4 15.5q-21 54 -25 81q-4 23 -1 44q1 7 2 10q0 1 2.5 11t5 18.5t8.5 23t13.5 27.5t20 29.5t28.5 31.5q31 28 103 65q39 24 65 32q19 6 36 6h7l47 -3q31 -2 48 -25
t10.5 -54t-32.5 -52t-57 -19l-44 3l-1 1l13 1q-4 -1 -26 -12.5t-30 -16.5q-32 -17 -43 -28q-6 -6 -10 -10.5t-6.5 -10t-3.5 -7.5t-2.5 -8t-1.5 -7q-1 -2 -2 -6v1q0 -1 1 -4q2 -17 15 -47q20 -46 12 -53q12 -10 31.5 -15.5t42 -8.5t30.5 -6q23 -7 34 -11q29 -10 49 -26
l30 -25q16 -13 30 -27.5t24 -29t16.5 -25t13 -21.5t6.5 -12q1 0 5 -8q7 -12 34 -76q2 -6 5 -14q2 -7 3 -12t1 -11.5v-10t-1 -13.5t-1 -17l-4 -26q0 -3 -8 -36q-4 -16 -11.5 -33t-13.5 -27.5t-13 -21t-8 -11.5q-25 -44 -61 -67l-45 -25q-49 -27 -100 -31q-10 0 -35 -1
q-8 0 -33.5 -0.5t-37.5 -0.5q-45 0 -78 11q-24 8 -28 9q-12 4 -21 9l-34 19q-26 14 -42 44q-25 47 -12 54q-11 14 -16 22t-10.5 33t-0.5 55q4 28 6 40q3 13 12 37q12 30 56 104q8 13 18 26q9 11 19 21t21 18q67 54 106 57q141 75 207 94q9 2 -9 -10l-9 -6q4 5 15 18
q4 3 6 6.5t3.5 6t3 7.5t2 6.5t2.5 10t3 11.5v20q0 6 1 13q8 52 5 72q-3 12 -11 26l-1 4q-6 2 -15 6.5t-12 6.5q-4 1 -7 2q-5 2 -16 3h-2h-29q-31 0 -49.5 22t-14.5 53t29.5 53t56.5 22h25z" />
    <glyph glyph-name="nine" unicode="9" horiz-adv-x="709" 
d="M304 401q-11 -1 -21 1l-57 12q-47 6 -74 22l-8.5 5t-10.5 6.5t-10.5 7t-12.5 9t-12 10t-13.5 12.5t-12.5 13.5t-13 16t-11 18.5q-18 30 -22 54q-10 54 -9 89q1 38 5 57q13 77 57.5 118.5t96.5 51.5q26 4 111 23q27 6 45 5h7.5t12.5 -0.5t16 -2.5t20.5 -4.5t23 -8
t26.5 -13.5q73 -41 107 -116l41 -79q10 -20 8 -42l-12 -116l-16 -95q-1 -5 -2 -11l-14 -44q-11 -54 -17 -69l-8 -16q-2 -4 -12 -19q-47 -70 -80 -105l-45 -50q-15 -16 -32 -28l-19 -14q-11 -8 -41.5 -33t-53.5 -48q-8 -9 -19 -14l-36 -18q-28 -14 -57.5 -4t-43.5 37.5t-4 57
t38 43.5l25 13q59 56 106 89l18 13q4 3 9 8l45 50q24 26 65 87q4 6 6 10v-2q1 4 10 46q1 4 2 7l13 43l14 86l9 89l-32 63q-15 33 -46 51q-13 7 -32 9q-4 0 -13 -1q-88 -20 -116 -25q-26 -5 -34 -48q-1 -8 -2 -31q-1 -22 6 -61l-1 2q1 -1 5 -9q6 -9 12.5 -16t11.5 -10.5
t19 -12.5q12 -7 20 -7q6 0 12 -2l49 -10l56 6q30 2 54 -17.5t27 -50.5t-17 -55t-51 -27z" />
    <glyph glyph-name="colon" unicode=":" horiz-adv-x="385" 
d="M8 212.5q0 31.5 21.5 53.5t53 22t53.5 -22t22 -53.5t-22 -53t-53.5 -21.5t-53 21.5t-21.5 53zM82 545q0 31 22 53t53.5 22t53 -22t21.5 -53t-21.5 -53t-53 -22t-53.5 22t-22 53z" />
    <glyph glyph-name="semicolon" unicode=";" horiz-adv-x="433" 
d="M148 569q0 31 21.5 53t53 22t53.5 -22t22 -53t-22 -53t-53.5 -22t-53 22t-21.5 53zM191 115l-12 -50q-4 -18 -15 -31l-9 -28q-10 -30 -38 -43.5t-57 -4t-43 37.5t-4 57l12 38q4 12 11 22l10 41l21 69q9 30 36 45t57 6t44.5 -36t6.5 -57z" />
    <glyph glyph-name="question" unicode="?" horiz-adv-x="657" 
d="M70 23q0 31 21.5 53t53 22t53.5 -22t22 -53t-22 -53t-53.5 -22t-53 22t-21.5 53zM109 839q9 5 33 17t66.5 26t73.5 14h1q77 -1 99 -3q59 -5 86.5 -32t41.5 -75q17 -55 18 -60q2 -9 2 -18q0 -1 -0.5 -4.5t-0.5 -4.5q0 -4 2 -19q2 -20 2 -27q-6 -58 -26.5 -104.5
t-51.5 -78.5t-61.5 -55.5t-65.5 -50t-54 -46.5q-2 -2 -2 0q1 2 2 3l-3 -5q-3 -8 -4 -9q0 -13 -6 -26l-18 -42q-12 -28 -40.5 -39.5t-57.5 0.5t-40.5 41t1.5 57l14 35q7 31 18 51q9 19 26 37q22 22 62.5 53.5t71 54.5t56 56.5t29.5 67.5q0 2 -1 9q-3 24 -3 37q0 1 0.5 4.5
t0.5 4.5q0 -7 1 -13l-14 47v2q-14 1 -85 2q-12 0 -47 -13.5t-43 -19.5q-37 -24 -46 -32q-22 -22 -53 -22t-53 22t-21.5 53t22.5 53q4 5 30.5 24.5t37.5 27.5z" />
    <glyph glyph-name="afii57793" unicode="&#x5b4;" 
d="M50 -66q13 26 39.5 35t52.5 -3q24 -12 31.5 -39t-5.5 -51q-12 -24 -37 -33t-49 3q-25 12 -34.5 37.5t2.5 50.5z" />
    <glyph glyph-name="afii57798" unicode="&#x5b7;" 
d="M60 -35q34 7 71 10t62 3.5t64 0t58 -0.5q14 0 60 1.5t68.5 1.5t62.5 -3t76 -10q29 -5 29.5 -47t-26.5 -55q-33 -16 -68.5 -23.5t-58.5 -8t-68.5 1.5t-70.5 2t-69.5 -2.5t-67.5 -2.5t-57.5 7t-67.5 23q-27 13 -26.5 54.5t29.5 47.5z" />
    <glyph glyph-name="afii57797" unicode="&#x5b8;" 
d="M42 -54q36 17 73.5 22.5t70 3.5t78.5 1q97 5 168 -6q8 -1 28.5 -3t29.5 -4t21 -9.5t20 -19.5q10 -21 1 -41t-31 -34q-17 -8 -26.5 -7t-27.5 4.5t-30 2.5q-10 -1 -24.5 -1t-23.5 -0.5t-20.5 -4t-21.5 -11.5q-11 -9 -11 -29t-4 -35q-7 -16 -12.5 -52t-16 -54.5t-34.5 -18.5
q-18 0 -27.5 13.5t-11 29.5t-2.5 42t-4 40q-2 13 8.5 44.5t-2.5 39.5q-8 11 -20 12t-30 -3t-28 -3q-13 1 -32.5 -3.5t-34 -4.5t-26.5 11q-18 15 -17.5 42t20.5 36z" />
    <glyph glyph-name="afii57807" unicode="&#x5bc;" horiz-adv-x="4" 
d="M66 364q13 26 39.5 35t52.5 -3q24 -12 31.5 -39t-5.5 -51q-12 -24 -37 -33t-49 3q-25 12 -34.5 37.5t2.5 50.5z" />
    <glyph glyph-name="afii57645" unicode="&#x5be;" horiz-adv-x="824" 
d="M89 737q10 0 20 -3l93 -6l64 -5l236 6l80 3q31 1 54 -20t24 -52t-20 -54t-52 -24l-81 -3l-241 -6h-8l-75 6q-7 1 -13 2l-89 -2l-37 3q-14 0 -22.5 7t-11.5 22t-3.5 25.5t-0.5 31.5v10q0 30 18 45.5t50 15.5z" />
    <glyph glyph-name="afii57841" unicode="&#x5bf;" 
d="M141 981q1 3 80 0t88 -3h62t65 -0.5t62 -2.5q25 -1 67.5 0.5t73 -2t63.5 -16.5q31 -13 21 -72q-7 -38 -42 -48q-22 -6 -42 -7t-46.5 1.5t-43.5 2.5q-41 0 -101 1.5t-91 1.5q-13 0 -65 -1.5t-64 1.5q-19 2 -55.5 -1.5t-59.5 2t-41 26.5q-14 16 -15.5 40.5t12.5 40.5
q9 9 34.5 22t37.5 14z" />
    <glyph glyph-name="afii57804" unicode="&#x5c1;" 
d="M280 796q13 26 39.5 35t52.5 -3q24 -12 31.5 -39t-5.5 -51q-12 -24 -37 -33t-49 3q-25 12 -34.5 37.5t2.5 50.5z" />
    <glyph glyph-name="afii57803" unicode="&#x5c2;" 
d="M22 940q13 26 39.5 35t52.5 -3q24 -12 31.5 -39t-5.5 -51q-12 -24 -37 -33t-49 3q-25 12 -34.5 37.5t2.5 50.5z" />
    <glyph glyph-name="afii57664" unicode="&#x5d0;" horiz-adv-x="1012" 
d="M903 195q-5 -8 -19.5 -33.5t-20 -34t-19 -29t-21.5 -28.5l-22.5 -22.5t-27.5 -21t-31 -13.5t-37 -10q-91 -15 -163.5 13t-139.5 98q-28 30 -44.5 63t-21.5 66t-6.5 72.5t0.5 80.5q1 67 18.5 116.5t59.5 114.5q32 51 67.5 81t94.5 63q42 23 76.5 30.5t79.5 2.5
q74 -9 123 -66q18 -21 21.5 -43.5t-12.5 -43.5q-8 -8 -18 -9.5t-19.5 1.5t-23 7t-23.5 4q-15 0 -38 3.5t-33.5 3.5t-36.5 -4q-72 -17 -114 -57q-28 -27 -43 -52t-35 -71q-20 -47 -30 -129q-1 -6 -3 -19.5t-2.5 -20t-0.5 -16.5t2.5 -19t6.5 -18q31 -67 93 -111q38 -27 99 -27
q50 0 99 27q19 10 46 41.5t53 39.5q15 3 32.5 1.5t29 -11t4.5 -20.5zM12 63q61 247 104.5 402t111.5 363q9 27 42 21q5 -1 15.5 -2.5t17 -3t15.5 -4t14.5 -5t10.5 -7t7 -10.5t1 -13q-13 -93 -54.5 -234.5t-44.5 -152.5q-5 -20 -75 -261q-2 -8 -8.5 -33t-12.5 -44.5
t-12 -33.5q-5 -12 -13.5 -18t-22 -6.5t-23.5 0.5t-28.5 4.5t-26.5 4.5q-11 1 -16 11.5t-2 21.5z" />
    <glyph glyph-name="afii57665" unicode="&#x5d1;" horiz-adv-x="826" 
d="M15 525q11 47 29.5 78.5t54.5 68.5q40 40 75.5 63.5t92.5 47.5q52 22 85.5 29.5t76.5 0.5q58 -10 97.5 -29t82.5 -58q44 -41 67.5 -80t52.5 -109q10 -24 13.5 -46t4.5 -53t3 -51q5 -43 6.5 -63.5t0 -60.5t-15.5 -72.5t-39 -61.5q-11 -13 -24.5 -17t-21.5 -3.5t-27.5 6.5
t-25.5 8q-27 7 -67.5 32.5t-70.5 30.5q-43 7 -75 -27q-7 -7 -7.5 -18t2 -20.5t-0.5 -21.5q-2 -8 -4.5 -21.5t-4.5 -20.5t-7.5 -16.5t-13.5 -16.5q-13 -11 -29 -11t-28 11q-30 29 -30 84q0 67 30 132q15 31 28 48t38 27q10 4 19.5 7t20 4t17 1.5t19 -0.5t18 -1.5t20.5 -2
t21 -2.5q19 -2 59.5 -25t66.5 -11q16 7 20 22t-0.5 45t-4.5 32q-1 24 -4 39t-5 20.5t-9.5 19t-11.5 20.5q-8 15 -28 32.5t-29 36.5q-32 65 -93 84q-45 14 -81.5 13.5t-80.5 -16.5q-28 -10 -47.5 -24.5t-46 -42t-38.5 -38.5q-10 -9 -25.5 -32.5t-31.5 -33.5q-36 -22 -60 -6
q-42 29 -33 69z" />
    <glyph glyph-name="afii57666" unicode="&#x5d2;" horiz-adv-x="822" 
d="M644 -96q-38 -55 -90 -77.5t-130 -26.5q-80 -5 -139.5 12.5t-128.5 63.5q-61 41 -94 85t-46 111q-8 39 -8 72.5t7.5 67t18.5 63t30 69.5q8 18 19.5 33.5t19.5 26t25 24.5t24.5 19t30 20.5t29.5 20.5q22 15 54 26t60 17t53 12t38.5 15t11.5 22q-10 58 -49.5 122.5
t-46.5 111.5q-10 42 -1.5 92t44.5 42q38 -9 57.5 -30.5t41 -70t38.5 -75.5q6 -9 20 -30.5t20 -31.5t15.5 -27t16 -33t12.5 -34q30 -97 -16 -140q-28 -26 -57 -37.5t-77.5 -18.5t-69.5 -12q-73 -18 -119.5 -49t-80.5 -91q-50 -88 15 -186q45 -69 90 -104t111 -38
q37 -2 82.5 14.5t73.5 41.5q15 13 26 30.5t18 27.5t15 10q29 0 44.5 -29t12.5 -67t-21 -64z" />
    <glyph glyph-name="afii57667" unicode="&#x5d3;" horiz-adv-x="754" 
d="M18 570q19 45 42.5 74.5t65.5 66.5q8 7 30 27.5t32 28t28 19.5t35.5 17t39.5 7q75 5 130.5 -10.5t121.5 -58.5q42 -28 62.5 -64t30.5 -92q3 -15 -2 -30.5t-8 -22t-19.5 -27t-18.5 -22.5q-11 -15 -35 -28.5t-34 -22.5q-5 -5 -20.5 -14.5t-21 -17.5t-0.5 -19
q7 -17 37.5 -21.5t40.5 -11.5q29 -20 45 -51q20 -39 24 -84q3 -36 -9 -84q-3 -10 -6 -28.5t-5.5 -28t-9.5 -22.5t-18 -23q-32 -29 -75 -3q-9 6 -15 14.5t-8 14t-5.5 20.5t-4.5 20q-4 14 -3 33t0 33q-4 34 -12 54q-2 4 -5.5 15t-5.5 15.5t-7 11.5t-12 12q-13 10 -45.5 14.5
t-44.5 21.5q-25 36 -6 99q4 12 10.5 22t11.5 15.5t17 16t18 15.5q9 9 31.5 20t31.5 25q25 36 15 69q-3 12 -11.5 20.5t-14.5 12.5t-22 12q-19 10 -60 12q-39 2 -60 -6q-17 -7 -42 -33q-11 -11 -27 -35t-30 -37q-36 -32 -69 -42q-5 -1 -24.5 -8t-27 -8t-20.5 0.5t-24 9.5
q-37 28 -12 87z" />
    <glyph glyph-name="afii57668" unicode="&#x5d4;" horiz-adv-x="1024" 
d="M237 184q-1 8 1 16t4.5 14t9 12.5l10 10t14 9.5t14 8.5t16 8.5t15.5 8q39 20 93 5q13 -4 21.5 -9.5t23 -21t16.5 -17.5q12 -13 32 -44q3 -5 4.5 -10t2 -11t1 -10t-1 -12.5t-2 -11.5t-2.5 -13.5t-2 -12.5q-2 -7 -4.5 -13t-4.5 -9t-7.5 -10t-7.5 -10q-4 -5 -9.5 -17
t-11.5 -18t-15 -7q-27 -6 -51 -2t-44 21q-6 4 -3 9.5t9 9.5t12.5 10.5t9.5 12.5q0 3 3 10.5t4 10.5t2 8.5t-0.5 10t-4.5 8.5q-5 9 -13 13t-21.5 7t-19.5 6q-13 5 -38 4.5t-39.5 4t-15.5 21.5zM36 411q3 7 10.5 22t10 21t8.5 18t10 18.5t10 17t11 18.5t12 18t15 20
q17 23 42.5 60.5t41 58t43 45t62.5 40.5q67 31 134 31.5t139 -19.5q14 -3 27 -8t22.5 -8.5t22 -12.5t18 -12.5t19.5 -15.5t17 -15.5t19.5 -19.5t19.5 -19q50 -49 79 -87t56 -96q40 -84 39 -183q0 -56 -9.5 -97t-32.5 -95q-11 -25 -15 -33t-14.5 -25t-22.5 -24.5t-29 -10.5
q-30 -6 -53 11t-25 52q-3 52 20 125t25 115q3 61 -27 123q-35 72 -93 123q-6 5 -24 21.5t-24.5 21.5t-21.5 16.5t-25 16t-25.5 9.5t-32.5 8q-28 4 -54.5 -2t-43.5 -15.5t-49 -30.5q-15 -10 -27.5 -23t-18 -21t-18 -29.5t-17.5 -28.5q-14 -22 -29.5 -61t-30.5 -62
q-4 -5 -14 -22t-15 -23t-16 -14t-24 -10q-60 -10 -114 39q-6 5 -6 12t2.5 12.5t8 15.5t7.5 14z" />
    <glyph glyph-name="afii57669" unicode="&#x5d5;" horiz-adv-x="475" 
d="M10 40q61 247 104.5 402t111.5 362q4 13 16 18.5t26 3.5q5 -1 15.5 -3t17 -3.5t15.5 -3.5t14.5 -5t10.5 -7t7 -10t1 -14q-13 -93 -54.5 -234t-44.5 -152q-10 -39 -21 -78.5t-28 -95.5t-26 -88q-2 -8 -8.5 -32.5t-12.5 -44t-12 -33.5q-5 -12 -13.5 -18.5t-22 -7t-23.5 0.5
t-28.5 4.5t-26.5 4.5q-11 2 -16 12t-2 22z" />
    <glyph glyph-name="afii57670" unicode="&#x5d6;" horiz-adv-x="794" 
d="M29 -104q38 -55 90 -77.5t130 -26.5q80 -5 139.5 12.5t128.5 63.5q61 41 94 85t46 111q8 39 8 72.5t-7.5 67t-18.5 63t-30 69.5q-8 18 -19.5 33.5t-19.5 26t-25 24.5t-24.5 19t-30 20.5t-29.5 20.5q-22 15 -54 26t-60 17t-53 12t-38.5 15t-11.5 22q10 58 49.5 122.5
t46.5 111.5q10 42 1.5 92t-44.5 42q-38 -9 -57.5 -30.5t-41 -70t-38.5 -75.5q-6 -9 -20 -30.5t-20 -31.5t-15.5 -27t-16 -33t-12.5 -34q-30 -97 16 -140q28 -26 57 -37.5t77.5 -18.5t69.5 -12q73 -18 119.5 -49t80.5 -91q50 -88 -15 -186q-45 -69 -90 -104t-111 -38
q-37 -2 -82.5 14.5t-73.5 41.5q-15 13 -26 30.5t-18 27.5t-15 10q-29 0 -44.5 -29t-12.5 -67t21 -64z" />
    <glyph glyph-name="afii57671" unicode="&#x5d7;" horiz-adv-x="872" 
d="M107 30q-7 38 -7 71.5t3.5 75.5t3.5 73q0 47 4 99.5t5 80.5q0 16 -3.5 37t-6.5 35t-1 31.5t11 34.5q16 28 45.5 39.5t53.5 -7.5q20 -18 26 -43.5t3 -50t1 -56.5q4 -30 3 -120q0 -24 0.5 -75.5t-0.5 -85.5t-6 -75q-1 -7 -1.5 -20t-2 -20t-4 -16t-8 -15t-14.5 -11
q-15 -7 -31 -10.5t-32 -3.5t-27.5 8t-14.5 24zM26 648q15 38 33.5 61.5t50.5 44.5q58 37 95.5 52.5t90.5 15.5q95 1 160 -12.5t143 -53.5q59 -30 94.5 -68.5t70.5 -105.5q15 -27 23.5 -57t11 -48t5.5 -58t5 -59q2 -39 2 -48t-3.5 -43.5t-4.5 -48.5q-5 -72 -12 -108
q-1 -8 -2 -25.5t-5 -27t-14 -17.5q-45 -32 -96 -14q-5 1 -8.5 4.5t-5.5 7t-3 10t-1 9.5v11.5v11.5q0 31 7 76.5t8 67.5q1 10 2.5 29t2 28.5t0.5 25t-2 31.5q-3 21 -5 54.5t-3.5 52.5t-10 45.5t-23.5 51.5q-28 44 -62.5 67t-93.5 43q-54 19 -96.5 21.5t-98.5 -9.5
q-19 -4 -32.5 -14.5t-28.5 -29t-26 -28.5q-12 -10 -25 -28t-25.5 -29.5t-30.5 -16.5q-54 -15 -84 30q-27 39 -3 98z" />
    <glyph glyph-name="afii57672" unicode="&#x5d8;" horiz-adv-x="727" 
d="M421 541q6 -16 15 -39t15.5 -41.5t11.5 -39.5q6 -27 8 -35t5 -31.5t-1 -35.5q-5 -49 -30 -84q-14 -20 -22.5 -30t-23 -21t-32.5 -16q-39 -13 -66 -14t-66 12q-54 21 -72 81q-5 15 -6.5 28.5t-0.5 29t2 24.5t5 29l6 30t7 40.5t6.5 40t6.5 33t9.5 37t11.5 34t16 40.5
q19 44 62.5 100t57.5 79q5 7 16 21t16 24.5t4 24.5q-1 18 -2.5 30t-6 26.5t-13.5 22.5t-23 11q-13 2 -24.5 0.5t-23 -10t-17 -13.5t-19.5 -20.5t-18 -20.5q-6 -6 -21.5 -22t-21 -22t-17.5 -19.5t-17.5 -21t-15 -20.5t-15 -24t-12 -25t-12.5 -29q-40 -110 -57 -195t-30 -219
q-4 -43 3.5 -75t29.5 -75q16 -31 35 -50t52 -37q44 -24 75.5 -34t74.5 -9q48 0 83.5 10.5t81.5 35.5q39 22 61.5 43.5t40.5 57.5q33 66 45 110t6 102q-9 85 -31.5 146t-70.5 139q-14 22 -39.5 28t-47.5 -8q-10 -6 -14 -16.5t-3.5 -19t3 -24.5t2.5 -24q0 -9 3 -16.5t8 -17
t7 -16.5z" />
    <glyph glyph-name="afii57673" unicode="&#x5d9;" horiz-adv-x="412" 
d="M24 498q1 11 3 22.5t4 20t6 20.5t5.5 18t7 18.5t7 16t8 17.5t7.5 17q3 7 19 54.5t35 74.5q14 20 46.5 26.5t58.5 -4t24 -34.5q-3 -28 -12.5 -54.5t-24.5 -58t-20 -43.5t-14.5 -41t-19.5 -49.5t-26 -44.5q-19 -28 -68 -18.5t-46 42.5z" />
    <glyph glyph-name="afii57674" unicode="&#x5da;" horiz-adv-x="769" 
d="M152 435q4 15 11 55t17 64t32 46q37 35 76 48t92 9q49 -4 82.5 -23t58.5 -58t27.5 -81t-9.5 -87q-9 -48 -27 -81.5t-54 -77.5q-25 -32 -75.5 -67t-62.5 -44q-8 -8 -23 -18t-26 -19.5t-20 -22.5q-3 -6 -6 -11.5t-5.5 -11.5t-4 -10t-2.5 -11.5t-1.5 -11t-2 -13t-2.5 -12.5
q-3 -20 -7.5 -47.5t-7 -42t-6 -40.5t-2.5 -42t2 -47q1 -5 3.5 -78.5t11 -112t26.5 -42.5q10 -1 26 -5.5t23.5 -5t24.5 3.5q22 9 28.5 47t7.5 103.5t5 98.5q4 22 6 93.5t18 116.5q7 19 20.5 31.5t32.5 26t30 25.5q23 26 54 53.5t51.5 45t43.5 50.5t39 76q20 57 21.5 122.5
t-7.5 133.5q-3 38 -12.5 65.5t-31.5 60.5q-17 26 -36 41t-52 30q-3 2 -10 5q-32 16 -48 22.5t-41.5 12t-52.5 4.5q-70 -2 -117 -13t-103 -41q-17 -9 -31.5 -21t-22.5 -19.5t-21 -27t-17 -26t-19 -32.5q-19 -32 -27 -59.5t-12 -67.5q0 -5 -1 -13q-2 -32 -3 -58.5t10 -48
t35 -32.5q33 -15 57 14t37 78z" />
    <glyph glyph-name="afii57675" unicode="&#x5db;" horiz-adv-x="796" 
d="M48 512q-42 29 -27 78q6 20 16.5 33.5t32 30.5t29.5 26q12 11 29.5 30t28 29t27.5 23.5t37 23.5q52 26 88.5 35.5t85.5 6.5q15 -2 29.5 -5.5t24 -6.5t24 -11.5t20.5 -12.5l24 -16l24 -16q29 -20 46.5 -38.5t35.5 -47.5q32 -54 48 -91t28 -89q12 -54 13 -94.5t-7 -95.5
t-20.5 -92.5t-39.5 -83.5q-11 -20 -25.5 -34t-34.5 -29t-33 -27q-72 -30 -197 -32.5t-224 16.5t-110 46q-4 9 -7 31.5t2 48.5t23 30q6 4 27.5 2.5t37.5 -3.5t44 -7.5t47.5 -9.5t48.5 -10.5t47 -9.5q15 0 56.5 -1.5t69.5 3t57 18.5q24 12 41 31t24.5 35t21.5 48q19 47 25 81
t1 79q-5 40 -18.5 68.5t-43.5 69.5q-5 7 -17 23.5t-17 24t-15.5 19.5t-19.5 18.5t-21.5 13t-27.5 11.5q-48 12 -86.5 5t-79.5 -35q-26 -18 -62 -63t-65 -65q-41 -30 -66 -12z" />
    <glyph glyph-name="afii57676" unicode="&#x5dc;" horiz-adv-x="607" 
d="M237 396q-22 12 -44.5 13.5t-38.5 -2.5t-38 -20t-33.5 -26.5t-34.5 -33.5q-28 -28 -33.5 -68.5t0.5 -81.5q1 -32 11.5 -55t33.5 -50q30 -36 90 -57q43 -15 117 -15h24.5h23.5t20 0.5t22 2t21 4.5t24 8q8 3 14.5 7t10.5 7.5t10 10.5t8 10t8.5 12.5t8.5 12.5q9 13 15 26
t12.5 30t11.5 28l-6 105l-39 114q-26 69 -45 105q-9 18 -63 105q-7 12 -29 44t-34 55q-9 18 -24.5 44t-24 41t-18 39t-14.5 50q-11 53 27 93q6 6 12 9.5t14 4t13.5 0.5t16.5 -1t16 -1q15 -1 49 -15.5t56 -5.5q45 19 36 81q-5 36 -57 60q-73 34 -153 39q-55 3 -99 -24
q-52 -32 -72 -81q-26 -63 -18 -138q3 -27 10.5 -52.5t14 -39.5t23.5 -49q22 -44 43.5 -82t50 -84.5t47.5 -79.5q12 -21 30 -48.5t32 -50.5t25 -51q2 -5 8 -19.5t8 -19.5t6.5 -16.5t5.5 -18.5t2.5 -17t1.5 -20t-2 -21q-8 -57 -60 -78q-47 -19 -102 12q-23 13 -27 60
q-3 31 15 75q5 12 18 26.5t25 25.5t21.5 22.5t9.5 21.5t-14 18z" />
    <glyph glyph-name="afii57677" unicode="&#x5dd;" horiz-adv-x="976" 
d="M26 -94q-9 28 -3 46.5t26.5 41.5t42 41.5t43.5 45.5t32 53q15 40 19.5 77t5.5 85.5t5 80.5q2 14 4 75t14 99q21 70 75 135q30 36 52.5 55t58.5 35q55 24 92.5 32.5t87.5 3.5q62 -6 105 -21.5t93 -50.5q39 -28 60.5 -58.5t38.5 -79.5q20 -58 25 -104.5t2 -120.5
q-2 -46 -3.5 -66t-11 -50t-27.5 -58q-48 -72 -88.5 -112t-106.5 -71q-33 -15 -68 -17.5t-58.5 1.5t-71.5 16q-30 7 -48 23.5t-42 48.5q-2 2 -11 14.5t-11 15.5t-8.5 13.5t-8 15.5t-4 14t-2 17.5t2.5 17.5q6 25 29.5 37.5t48.5 4.5q21 -6 38 -22.5t27.5 -32.5t27.5 -31
t39 -19q8 -2 15.5 -2t14.5 1.5t13 3.5t13 6t11.5 7t11.5 9.5t11 10l12 10.5t12 11q36 33 55.5 60.5t34.5 68.5q24 68 9 153q-17 95 -60 138q-29 28 -126 54q-44 -4 -74.5 -17.5t-66.5 -42.5q-13 -11 -23 -24.5t-14.5 -21.5t-13.5 -30t-12 -29q-21 -47 -23 -102t2.5 -103
t-12.5 -131q-5 -24 -11 -45t-14 -38.5t-13.5 -29t-14.5 -25t-13.5 -19t-14.5 -17.5t-12 -15q-30 -37 -57 -60q-5 -5 -18.5 -19t-23.5 -19.5t-24 -6.5q-79 -6 -96 33z" />
    <glyph glyph-name="afii57678" unicode="&#x5de;" horiz-adv-x="997" 
d="M10 55q24 69 86.5 175.5t84.5 154.5l168 354q5 9 10.5 32t13 33.5t22.5 9.5q12 -1 21 -5.5t15.5 -15t10 -17.5t9.5 -24t8 -22q37 -92 79 -230t60 -193q4 -10 7 -36.5t8.5 -38t17.5 -3.5q23 14 33 33.5t16.5 55t10.5 49.5q22 70 46.5 174.5t41.5 161.5q2 9 6 26t6.5 25
t8.5 21t14 24q22 29 52 24q29 -5 46.5 -14.5t24.5 -30.5q6 -12 4.5 -30.5t-4 -27.5t-9 -28t-9.5 -31q-8 -37 -25 -90.5t-23 -71.5q-7 -25 -33.5 -127.5t-50.5 -169.5q-26 -74 -67 -132q-16 -22 -28.5 -33t-32.5 -15q-28 -7 -55 -4.5t-49 19.5q-10 8 -18.5 17t-13.5 16
t-10.5 20t-8 18.5t-8.5 22.5t-8 23q-16 45 -29.5 114.5t-25.5 107.5q-1 5 -3.5 15t-4.5 15t-5 12t-8 12t-12 9q-12 7 -24 2t-21 -17q-17 -26 -31 -70t-22 -62q-11 -23 -29.5 -55t-25.5 -44q-4 -7 -16.5 -35.5t-25.5 -45.5q-8 -12 -25.5 -42t-32.5 -44.5t-39 -21.5
q-34 -10 -70.5 6t-27.5 45z" />
    <glyph glyph-name="afii57679" unicode="&#x5df;" horiz-adv-x="535" 
d="M327 804q-51 -126 -135 -402q-4 -13 -51.5 -164t-81.5 -267.5t-50 -189.5q-5 -23 23 -36.5t61 -8.5t42 27q37 91 90 274t54 188q113 355 156 555q4 20 -19.5 33.5t-52 11.5t-36.5 -21z" />
    <glyph glyph-name="afii57680" unicode="&#x5e0;" horiz-adv-x="709" 
d="M480 680q-5 142 90 142q19 0 29.5 -9t12.5 -20t4 -30t6 -29.5t5.5 -21.5t1.5 -18t-0.5 -20.5t-0.5 -21.5q0 -22 -2.5 -55t-3.5 -49q-2 -42 1 -99t1.5 -104t-11.5 -97q-19 -91 -39 -144t-66 -112q-22 -27 -51 -45t-51 -25.5t-66 -19.5q-17 -4 -41 -10.5t-43.5 -12
t-41.5 -9.5q-19 -5 -35.5 -8t-37.5 -6t-36 -6q-20 -4 -54.5 -12.5t-60.5 -15.5t-57.5 -11t-53 -1t-39.5 17t-24 41q-8 27 4.5 44.5t39.5 26t57 13t67.5 11.5t61.5 17q15 7 40 12t32 6q25 7 63.5 11.5t67 12.5t55.5 28q62 45 97 88t59 110q8 21 13.5 40t8 39.5t4 33t1 37.5
t-1.5 36.5t-3.5 45t-3.5 50.5q-3 0 -0.5 72t2.5 78z" />
    <glyph glyph-name="afii57681" unicode="&#x5e1;" horiz-adv-x="859" 
d="M177 723q53 44 100 64.5t113 28.5q57 7 101 -3.5t97 -41.5q44 -26 69.5 -56t44.5 -79q30 -77 39.5 -138.5t8.5 -149.5q-1 -52 -12.5 -89t-41.5 -79q-35 -49 -69 -77.5t-87 -51.5q-56 -24 -101.5 -30t-105.5 3q-16 2 -30 5t-29 9t-24 9.5t-25 12.5t-22.5 12.5t-26 16
t-26.5 16.5q-15 9 -27.5 21.5t-18.5 21t-20 29.5q-3 4 -12 17.5t-11.5 17.5t-9.5 15t-9.5 17t-7 16t-7.5 19.5t-6 20.5q-4 15 -6 28t-2 29t0.5 23.5t2 29t2.5 28.5q4 60 21 102q11 27 39 51q7 6 25 22t26 22t24 14.5t33 13.5q63 18 85 14t35 -23q10 -14 1 -26.5t-29.5 -27.5
t-28.5 -27t-22.5 -30t-23.5 -32.5t-14 -33.5q-12 -46 -13 -75.5t10 -74.5q13 -48 30 -76.5t51 -52.5q23 -16 47.5 -23t48 -7h54.5q59 1 111 33q46 29 66 78q5 12 8.5 24t5.5 20.5t3 22t1.5 20.5t1.5 23.5t1 24.5q6 123 -54 186q-40 42 -84 51q-66 14 -129 -6
q-16 -5 -30.5 -12.5t-24 -14.5t-22 -20t-18.5 -20t-20 -25t-20 -25q-11 -13 -16 -36t-6.5 -41t-10.5 -32t-27 -14q-49 -1 -85 35t-32 85q2 32 11 56.5t32.5 51.5t34 36.5t49.5 41.5q9 8 14 12z" />
    <glyph glyph-name="afii57682" unicode="&#x5e2;" horiz-adv-x="913" 
d="M10 752q21 16 46.5 19.5t46.5 -1.5t51 -18q33 -13 63.5 -31t46 -29.5t52.5 -41.5t51 -42q51 -39 85.5 -72t88.5 -90q10 -10 30 -29t29.5 -29.5t22 -28.5t20.5 -39q17 -42 20 -75t-8 -77q-13 -49 -32.5 -80t-57.5 -58q-29 -21 -61 -25t-68 3q-53 10 -81 58
q-25 42 -35 75.5t-10 80.5q0 59 10 103t35 109q10 28 25 52t25 36.5t37 43.5q5 6 25.5 30.5t25 29.5t22 25t23 26.5t21 23.5t23.5 24.5t23 22.5t26.5 25.5t26 24t30.5 26.5q27 24 72 16q26 -5 42 -14t27 -28q17 -30 -9 -64q-24 -30 -69 -64.5t-60 -49.5q-4 -3 -15 -13.5
t-15 -14t-12 -12t-13 -14t-12 -13.5t-14 -17q-59 -74 -105 -152q-9 -16 -24.5 -39.5t-24 -37t-17 -35t-12.5 -44.5q-4 -25 7 -43.5t35 -38.5q10 -7 22 -3t20 15q22 33 12 66q-16 52 -30.5 81t-44.5 57q-47 46 -95 80.5t-108 73.5t-103 72q-13 9 -35.5 23.5t-37.5 27
t-29 29.5q-2 4 -9.5 12.5t-11 13t-9 12.5t-7.5 13.5t-3 12t1.5 11.5t8.5 9z" />
    <glyph glyph-name="afii57683" unicode="&#x5e3;" horiz-adv-x="942" 
d="M40 -39q-13 -10 -19.5 -19t-7 -13t1 -15.5t1.5 -16.5q0 -15 4 -27t12 -28t12 -25q3 -7 8 -23t10 -25.5t14 -19.5q1 -2 4 -5q13 -15 20.5 -22t20 -13.5t27.5 -7.5q71 -5 96 36q38 62 53.5 115.5t22.5 132.5q11 122 12 253.5t-2.5 225.5t-0.5 223t18 254q5 39 30.5 64.5
t67.5 35.5q73 17 134 -44q55 -56 37 -128q-5 -22 -16.5 -40t-21.5 -28t-31.5 -28t-31.5 -28q-9 -9 -26.5 -12.5t-29.5 -9t-14 -18.5q-3 -14 5 -23.5t24.5 -19.5t23.5 -17q34 -35 57 -56q16 -14 43 -28t45 -29t27 -39q10 -31 -3.5 -58.5t-43.5 -45.5q-22 -13 -43 -16t-54 0.5
t-48 3.5q-11 0 -30 1t-29 1.5t-24.5 -3t-27.5 -11.5q-19 -12 -26 -31.5t0 -41.5q4 -14 15 -23.5t21 -13.5t29 -10q26 -8 52 -8.5t53 2.5q10 1 39.5 2.5t40.5 3t32 6.5t41 13q39 16 59.5 31.5t30.5 45.5q22 66 26 118t-9 120q-3 19 -13.5 31.5t-31 27t-29.5 23t-28 14t-30 13
t-9 24.5q1 11 8 16.5t17.5 9.5t16.5 9q9 10 17 18.5t18 20t17 19.5l10 108q-6 17 -10.5 43t-10.5 46t-18 40q-20 37 -39.5 59.5t-51.5 44.5q-30 21 -55.5 29.5t-60.5 9.5q-36 0 -63.5 -8t-65.5 -27q-34 -18 -47 -25t-32.5 -24.5t-33.5 -39.5q-18 -31 -29 -62.5t-14.5 -53
t-9.5 -68.5q-6 -46 -6.5 -86.5t1.5 -91.5t1 -86l-1 -188l4 -176q1 -44 6.5 -124.5t5.5 -139.5q0 -8 0.5 -24.5t0.5 -26t-1.5 -23t-5.5 -21t-11.5 -15t-18.5 -10.5q-19 -6 -30 9.5t-21.5 41.5t-24.5 37q-4 3 -10 9.5t-9.5 9t-12 0.5t-20.5 -11z" />
    <glyph glyph-name="afii57684" unicode="&#x5e4;" horiz-adv-x="865" 
d="M421 291q-15 -10 -32.5 -10.5t-38.5 3t-37 1.5q-9 -1 -24 -2t-23.5 -1.5t-20 -4t-22.5 -10.5q-39 -24 -42 -63q-2 -38 3.5 -63.5t26.5 -50.5q26 -30 54 -43.5t69 -19.5q55 -6 90.5 -0.5t86.5 24.5q29 11 47 27.5t34 44.5q13 23 20.5 47t9.5 37.5t6 50.5q7 57 7.5 83
t-7.5 82q-1 7 -5 27.5t-5 27t-5 22.5t-7.5 24t-9.5 20.5t-13.5 23t-17.5 20.5q-33 37 -68.5 53.5t-90.5 24.5q-22 4 -41 4.5t-39 -2.5t-34 -5.5t-39.5 -8.5t-40.5 -10q-22 -4 -46.5 -17.5t-40 -24t-40 -16.5t-45.5 3q-21 7 -27.5 28t-1.5 45t17 45q9 16 23.5 27t25.5 16
t34 12t34 12q6 2 23.5 9t23 9t19.5 7t21.5 6.5l20 4t24 3.5t24.5 2q44 0 77.5 -0.5t68.5 -8.5t72 -26q9 -5 34 -17t34 -16.5t29.5 -15.5t29.5 -18t24 -20t23.5 -24.5t18 -27.5t15.5 -35q23 -64 31.5 -113.5t13.5 -132.5q3 -46 -0.5 -80.5t-15.5 -89.5q-16 -72 -51 -138
q-3 -4 -10 -18t-9.5 -18.5t-9 -15.5t-10.5 -16.5t-11 -13.5t-14.5 -14.5t-16.5 -13.5q-6 -5 -12.5 -8.5t-11.5 -6.5t-12 -6t-11 -4.5t-12 -4t-11.5 -3.5t-13 -2.5t-12.5 -2t-14.5 -2.5t-14.5 -2q-48 -8 -65.5 -10.5t-50 -2.5t-66.5 5q-19 3 -50.5 7t-50 7t-42 10t-43 20
t-36.5 33q-47 52 -59.5 109.5t-1.5 134.5q8 50 21 84.5t43 67.5q25 28 51 39.5t74 21.5q36 8 62 6.5t61 -12.5q33 -10 52.5 -22t33.5 -36q11 -18 8.5 -39t-19.5 -32z" />
    <glyph glyph-name="afii57685" unicode="&#x5e5;" horiz-adv-x="904" 
d="M232 73q12 -16 12 -45t2 -54t18 -36q17 -11 36 -6l12 3t11.5 3t10 3t10 4.5t7.5 7t7 9.5q12 23 13.5 48t-1.5 51q-7 89 -34 201q-16 71 -62.5 217.5t-63.5 250.5q-12 63 -11 114.5t17 113.5q9 32 15.5 50t17.5 40t27 37.5t38 28.5q90 49 186 0q16 -8 28 -16t23.5 -20.5
t18 -19.5t17 -24.5t14 -23.5t15.5 -29.5t14 -28.5q15 -28 17.5 -56.5t-1.5 -60.5q-1 -4 -2.5 -23t-2 -23t-2 -20t-3 -21t-3.5 -18t-5 -20.5t-6.5 -18.5t-8 -21t-9.5 -21q-19 -36 -42.5 -57.5t-65.5 -47.5q-46 -28 -81.5 -41t-86.5 -21q-54 -8 -81 -11t-66 -0.5t-79 13.5
q-32 9 -51.5 29t-34.5 55q-16 34 -18 66t4 69q2 8 4.5 28l3.5 28t5 23.5t8.5 24.5t12.5 20.5t20 20.5q11 10 23 18t26 13t23 8.5t26.5 6.5t25 4t30 3t30.5 3q72 8 132 10t149 0.5t133 -1.5q13 0 35.5 3.5t38 2t30.5 -11.5q25 -17 36.5 -40.5t-0.5 -46.5q-4 -9 -11 -15.5
t-12.5 -10t-17 -6t-17 -3.5t-20 -2t-20.5 -2q-75 -8 -169.5 -7.5t-170.5 -1.5q-21 -1 -54 1.5t-57 0.5t-49 -14q-43 -20 -48 -84q-4 -37 36 -52q32 -10 52.5 -10t55.5 8q38 9 57 14.5t45 17.5t50 31q24 18 34 37.5t22 57.5q7 26 1.5 75t-21.5 97q-9 28 -32 42t-48 6
q-30 -9 -45 -34.5t-11 -57.5q9 -98 28.5 -186t47 -190t44.5 -184q4 -25 13.5 -68t14 -65t9 -58t7.5 -73q5 -44 2 -86.5t-22 -81.5q-17 -33 -41 -51.5t-63 -32.5q-46 -16 -78 -17.5t-78 12.5q-49 18 -77.5 40t-38.5 62q-12 43 0.5 79.5t45.5 76.5q15 16 37.5 11t36.5 -23z
" />
    <glyph glyph-name="afii57686" unicode="&#x5e6;" horiz-adv-x="730" 
d="M27 82q23 -29 42 -45.5t49 -29.5q8 -4 16 -7t14.5 -5.5t15 -4.5t13.5 -3.5t14.5 -3t13.5 -2t15 -2t14.5 -2t16.5 -2t17 -1.5q78 -8 159 0q33 3 48.5 5.5t38 8.5t45.5 16t35.5 16.5t26 19.5t22.5 30q15 28 17.5 58t-0.5 62q0 7 -0.5 24t-1 23t-1.5 20t-3 21.5t-5 19
t-7 21.5t-10 21q-8 14 -18.5 24.5t-19 15.5t-26 14.5t-25.5 14.5q-20 12 -52.5 24t-44.5 18q-5 2 -16.5 4.5t-17 5.5t-4.5 11q1 10 19 13t24 8q2 2 10 8.5t10.5 8.5t9 7.5t9 8l7.5 7.5t8 8.5t7.5 8.5t8.5 10t8 11q24 36 32.5 49.5t20.5 39.5t19 55q2 9 2.5 17t-2 17t-4 14
t-7 17t-7.5 16q-3 8 -8 23t-8.5 23t-11.5 16.5t-20 12.5q-54 18 -102.5 20t-105.5 -8q-18 -3 -31 -10t-30.5 -22.5t-26.5 -21.5q-3 -2 -11 -8t-11 -8t-9 -7t-9.5 -8.5t-8 -8.5t-9.5 -11q-12 -17 -23.5 -45.5t-16.5 -38.5q-5 -11 -18.5 -24.5t-20 -25t-2.5 -25.5
q10 -38 70 -39q21 0 36 8.5t34 27.5q15 15 29.5 46.5t30.5 46.5q5 4 17.5 17.5t18.5 18t17 12t21.5 9t22.5 0.5q27 -3 42.5 -25t14.5 -50q0 -17 -6 -31t-12.5 -22t-21 -24t-23.5 -28q-15 -19 -32 -33t-44 -32t-41 -28q-7 -5 -21.5 -9t-23 -9t-6.5 -15q1 -14 5.5 -24
t16.5 -20.5t17.5 -14.5t23.5 -16q31 -20 90.5 -40.5t92.5 -46.5q27 -21 40 -43.5t17 -55.5q6 -49 -36 -81q-22 -17 -43.5 -21t-58.5 -3q-35 1 -61 7.5t-68 22.5q-30 12 -71.5 36.5t-66.5 35.5q-5 2 -12.5 6t-12 6.5t-11 4.5t-12.5 1.5t-12 -3.5q-39 -18 -52 -66
q-7 -30 18 -63z" />
    <glyph glyph-name="afii57687" unicode="&#x5e7;" horiz-adv-x="874" 
d="M176 284q19 26 58.5 20.5t49.5 -35.5q6 -31 6 -46t-3.5 -46.5t-2.5 -51.5q0 -22 1 -60.5t1 -65.5q0 -26 -6.5 -158.5t-7.5 -147.5q-1 -6 -2 -18t-1.5 -18.5t-3.5 -15t-9 -14.5q-23 -29 -56.5 -31t-57.5 22q-15 15 -15 34t7.5 46t7.5 43q1 25 3.5 63.5t2.5 62.5
q1 31 0.5 112.5t3.5 112.5q1 23 -2.5 65.5t1 71t25.5 55.5zM22 494q17 36 37.5 60.5t60.5 57.5t56 47q8 8 28 27.5t28.5 27t24.5 20.5t31.5 22.5t33.5 19.5q41 21 74 28.5t80 7.5q42 0 71 -7.5t61 -28.5q45 -31 73 -62t59 -82q27 -46 38.5 -81.5t11.5 -83.5q2 -67 -8 -115
t-36 -110q-9 -21 -22 -39t-22 -27t-31 -29t-31 -28q-9 -9 -18 -16.5t-19.5 -15t-16.5 -11.5t-20.5 -13t-21.5 -13q-11 -7 -28.5 -24.5t-32 -24.5t-31.5 -2q-30 8 -45.5 34t-12.5 59q2 19 13 31t32 25t31 22q14 13 57.5 45.5t64.5 62.5q24 31 35 58.5t17 67.5q3 39 0 59
t-16 58q-7 24 -10.5 33.5t-13 23.5t-24.5 24q-29 21 -56.5 28.5t-69.5 10.5q-28 2 -49 -3.5t-49 -20.5q-25 -13 -46 -28t-32 -25.5t-40 -36.5q-15 -15 -38 -49t-46 -50q-17 -12 -24 -16.5t-21.5 -11t-26 -6t-24.5 6.5q-26 13 -36.5 39.5t0.5 53.5z" />
    <glyph glyph-name="afii57688" unicode="&#x5e8;" horiz-adv-x="883" 
d="M17 574q16 31 33 53.5t47 45.5t43 31.5t60 37.5q68 42 111.5 59.5t104.5 18.5q77 1 132 -13.5t117 -55.5q46 -30 69.5 -68t41.5 -100q23 -77 27.5 -142t-3.5 -146q-1 -14 -3 -26.5t-6.5 -26t-7 -21.5t-10 -23t-10.5 -20.5t-13 -23.5t-13 -24q-6 -10 -19 -37t-20 -38
t-22 -26.5t-35 -24.5q-97 -47 -141 12q-7 13 -7 21.5t8 20t16.5 20t19.5 21t17 22.5q8 15 27 45.5t30 53.5q7 15 19 38t18 36t13 33.5t10 42.5q5 45 1.5 71t-16.5 70q-1 4 -4 14t-4.5 14t-4 12.5t-4.5 12t-5 11t-5.5 11.5t-6.5 10t-8 10.5t-9.5 9t-11.5 9.5q-66 50 -153 48
q-51 -1 -89 -13t-91 -41q-20 -11 -35 -25.5t-32.5 -36.5t-25.5 -31q-21 -23 -32.5 -33.5t-32 -19t-40.5 -1.5q-31 10 -45.5 41.5t0.5 60.5z" />
    <glyph glyph-name="afii57689" unicode="&#x5e9;" horiz-adv-x="823" 
d="M749 408q-19 -70 -46.5 -117.5t-82.5 -112.5q-37 -44 -72.5 -69t-95.5 -55q-23 -11 -29 -13.5t-24.5 -11t-27.5 -10t-24.5 -5t-29.5 -2.5t-29 4q-60 10 -101.5 32.5t-95.5 69.5q-32 27 -48 56t-20 70q-10 92 -5.5 158t26.5 156q11 48 31 79.5t62 80.5q30 34 56.5 54
t66.5 36q45 17 80.5 22.5t84.5 1.5q33 -3 57 -14t51 -34q35 -31 39 -78q3 -36 -2.5 -62.5t-21.5 -61.5q-28 -60 -41.5 -87.5t-38.5 -66.5t-58 -76q-47 -55 -90 -88t-117 -78q-44 -26 -75.5 -37.5t-75.5 -12.5q-22 -1 -40 12.5t-12 31.5q6 20 17.5 35.5t22 23.5t30.5 23
t31 24q30 24 89.5 59t93.5 67q15 14 27.5 29.5t20 27t19.5 32.5t20 33q3 5 11.5 18t11.5 18t7 15.5t6 20.5q5 20 4.5 39.5t-13.5 32.5q-20 22 -66 10q-1 -1 -4 -2q-17 -4 -26.5 -7.5t-27.5 -16.5t-33 -33t-34.5 -58t-39.5 -91q-10 -25 -16.5 -61t-5 -83.5t15.5 -83.5
q13 -32 26 -50t37 -30q29 -16 58 -18.5t62 2.5q19 3 35.5 10t26.5 13.5t31 22.5q12 9 23.5 19.5t17.5 17.5t18 21.5t19 21.5q13 16 37 49.5t44 52.5q7 7 22 23t22 22.5t21.5 14t30.5 10.5q22 3 42 -11.5t15 -34.5z" />
    <glyph glyph-name="afii57690" unicode="&#x5ea;" horiz-adv-x="961" 
d="M16 71q15 30 41 43t49.5 13t48 5t35.5 20q14 18 18.5 41.5t5.5 62.5t4 58q2 24 3 59.5t3 54.5q1 19 5.5 49t6.5 50q2 28 -0.5 45.5t-1.5 41t8 45.5q7 25 35.5 36t48.5 -6q19 -17 26 -35.5t9 -54.5t3 -48q4 -19 4 -35.5t-1.5 -39.5t-2.5 -36q-4 -179 -15.5 -258
t-46.5 -120q-12 -13 -26 -20.5t-33 -14t-31 -13.5q-29 -18 -148 -18h-2q-7 4 -17 8.5t-17 9t-12 12.5q-12 20 0 45zM98 695q11 19 25 32.5t33 23.5t32 15t40 14t40 14q26 9 38 13.5t32.5 10t34.5 7.5t33 2t40 -3q69 -10 117 -28.5t105 -58.5q20 -14 34.5 -28.5t28.5 -37
t19.5 -33.5t21.5 -45q8 -17 14.5 -33.5t10.5 -28t9 -30t7 -27.5t6.5 -33t6.5 -34q20 -95 28 -201q4 -69 -6 -111q-2 -6 -5 -20t-5 -20t-6 -15.5t-10.5 -15.5t-15.5 -10q-20 -8 -33 -12t-29.5 -5t-30 7t-25.5 25q-8 13 -9.5 26t1.5 22.5t7 24t5 26.5q0 15 4 42t4 45
q3 92 -2 132q-6 36 -9 54.5t-10 43.5t-17 52q-13 30 -20 45t-20.5 33.5t-31.5 35.5q-41 36 -70 52.5t-72 22.5q-24 1 -37 1.5t-33 -4t-31.5 -8t-32.5 -11t-36 -11.5q-21 -6 -44.5 -23t-44 -27t-43.5 -4q-32 7 -48.5 38.5t0.5 57.5z" />
    <glyph glyph-name="afii57716" unicode="&#x5f0;" horiz-adv-x="788" 
d="M359 43q61 247 104.5 402t111.5 362q4 13 16 18.5t26 3.5q5 -1 15.5 -3t17 -3.5t15.5 -3.5t14.5 -5t10.5 -7t7 -10t1 -14q-13 -93 -54.5 -234t-44.5 -152q-10 -39 -21 -78.5t-28 -95.5t-26 -88q-2 -8 -8.5 -32.5t-12.5 -44t-12 -33.5q-5 -12 -13.5 -18.5t-22 -7
t-23.5 0.5t-28.5 4.5t-26.5 4.5q-11 2 -16 12t-2 22zM10 40q61 247 104.5 402t111.5 362q4 13 16 18.5t26 3.5q5 -1 15.5 -3t17 -3.5t15.5 -3.5t14.5 -5t10.5 -7t7 -10t1 -14q-13 -93 -54.5 -234t-44.5 -152q-10 -39 -21 -78.5t-28 -95.5t-26 -88q-2 -8 -8.5 -32.5
t-12.5 -44t-12 -33.5q-5 -12 -13.5 -18.5t-22 -7t-23.5 0.5t-28.5 4.5t-26.5 4.5q-11 2 -16 12t-2 22z" />
    <glyph glyph-name="afii57717" unicode="&#x5f1;" horiz-adv-x="629" 
d="M167 43q61 247 104.5 402t111.5 362q4 13 16 18.5t26 3.5q5 -1 15.5 -3t17 -3.5t15.5 -3.5t14.5 -5t10.5 -7t7 -10t1 -14q-13 -93 -54.5 -234t-44.5 -152q-10 -39 -21 -78.5t-28 -95.5t-26 -88q-2 -8 -8.5 -32.5t-12.5 -44t-12 -33.5q-5 -12 -13.5 -18.5t-22 -7
t-23.5 0.5t-28.5 4.5t-26.5 4.5q-11 2 -16 12t-2 22zM15 519q1 11 3 22.5t4 20t6 20.5t5.5 18t7 18.5t7 16t8 17.5t7.5 17q3 7 19 54.5t35 74.5q14 20 46.5 26.5t58.5 -4t24 -34.5q-3 -28 -12.5 -54.5t-24.5 -58t-20 -43.5t-14.5 -41t-19.5 -49.5t-26 -44.5
q-19 -28 -68 -18.5t-46 42.5z" />
    <glyph glyph-name="afii57718" unicode="&#x5f2;" horiz-adv-x="611" 
d="M235 498q1 11 3 22.5t4 20t6 20.5t5.5 18t7 18.5t7 16t8 17.5t7.5 17q3 7 19 54.5t35 74.5q14 20 46.5 26.5t58.5 -4t24 -34.5q-3 -28 -12.5 -54.5t-24.5 -58t-20 -43.5t-14.5 -41t-19.5 -49.5t-26 -44.5q-19 -28 -68 -18.5t-46 42.5zM-6 501q1 11 3 22.5t4 20t6 20.5
t5.5 18t7 18.5t7 16t8 17.5t7.5 17q3 7 19 54.5t35 74.5q14 20 46.5 26.5t58.5 -4t24 -34.5q-3 -28 -12.5 -54.5t-24.5 -58t-20 -43.5t-14.5 -41t-19.5 -49.5t-26 -44.5q-19 -28 -68 -18.5t-46 42.5z" />
    <glyph glyph-name="uni2010" unicode="&#x2010;" horiz-adv-x="824" 
d="M89 737q10 0 20 -3l93 -6l64 -5l236 6l80 3q31 1 54 -20t24 -52t-20 -54t-52 -24l-81 -3l-241 -6h-8l-75 6q-7 1 -13 2l-89 -2l-37 3q-14 0 -22.5 7t-11.5 22t-3.5 25.5t-0.5 31.5v10q0 30 18 45.5t50 15.5z" />
    <glyph glyph-name="uni2011" unicode="&#x2011;" horiz-adv-x="824" 
d="M89 737q10 0 20 -3l93 -6l64 -5l236 6l80 3q31 1 54 -20t24 -52t-20 -54t-52 -24l-81 -3l-241 -6h-8l-75 6q-7 1 -13 2l-89 -2l-37 3q-14 0 -22.5 7t-11.5 22t-3.5 25.5t-0.5 31.5v10q0 30 18 45.5t50 15.5z" />
    <glyph glyph-name="figuredash" unicode="&#x2012;" horiz-adv-x="824" 
d="M89 737q10 0 20 -3l93 -6l64 -5l236 6l80 3q31 1 54 -20t24 -52t-20 -54t-52 -24l-81 -3l-241 -6h-8l-75 6q-7 1 -13 2l-89 -2l-37 3q-14 0 -22.5 7t-11.5 22t-3.5 25.5t-0.5 31.5v10q0 30 18 45.5t50 15.5z" />
    <glyph glyph-name="endash" unicode="&#x2013;" horiz-adv-x="824" 
d="M89 737q10 0 20 -3l93 -6l64 -5l236 6l80 3q31 1 54 -20t24 -52t-20 -54t-52 -24l-81 -3l-241 -6h-8l-75 6q-7 1 -13 2l-89 -2l-37 3q-14 0 -22.5 7t-11.5 22t-3.5 25.5t-0.5 31.5v10q0 30 18 45.5t50 15.5z" />
    <glyph glyph-name="emdash" unicode="&#x2014;" horiz-adv-x="965" 
d="M89 737q10 0 20 -3l93 -6l64 -5l236 6h299q31 1 54 -20t24 -52t-20 -54t-52 -24h-300l-241 -6h-8l-75 6q-7 1 -13 2l-89 -2l-37 3q-14 0 -22.5 7t-11.5 22t-3.5 25.5t-0.5 31.5v10q0 30 18 45.5t50 15.5z" />
    <glyph glyph-name="afii00208" unicode="&#x2015;" horiz-adv-x="965" 
d="M89 737q10 0 20 -3l93 -6l64 -5l236 6h299q31 1 54 -20t24 -52t-20 -54t-52 -24h-300l-241 -6h-8l-75 6q-7 1 -13 2l-89 -2l-37 3q-14 0 -22.5 7t-11.5 22t-3.5 25.5t-0.5 31.5v10q0 30 18 45.5t50 15.5z" />
    <glyph glyph-name="quoteright" unicode="&#x2019;" horiz-adv-x="393" 
d="M264 828l-48 -77q-2 -5 -4.5 -12t-3 -8.5t-2 -5t-2.5 -5t-2.5 -4t-3.5 -5t-5 -6.5t-7.5 -10.5t-9.5 -13.5l-37 -45q-20 -24 -51 -26.5t-55 17t-26.5 50.5t17.5 55l33 40q20 29 20 30q4 16 11 27l52 84q3 5 8 10l56 63q20 23 51 25t54.5 -18.5t25 -52t-18.5 -54.5z" />
    <glyph glyph-name="quotedblleft" unicode="&#x201c;" horiz-adv-x="880" 
d="M494 790q2 0 7 1t10 2.5t7 1.5q8 2 8 4q0 1 12 1h7.5t5.5 -1t4 -2t4.5 -4t6.5 -5q22 -18 28 -23q1 -1 0.5 -2.5t2.5 -8.5q8 -7 12 -16q1 -4 3 -8l16 -121q5 -30 29.5 -49t55.5 -14.5t49.5 29t14.5 55.5l-18 126q0 5 -1 10q-5 17 -11 31q-11 24 -16 24v1q9 10 -33 51
q-11 10 -41 34q-15 12 -23.5 18t-36.5 15.5t-59 9.5h-15t-9.5 -0.5t-7 -1.5t-9.5 -3t-15 -4h4l19 -1h-11q7 0 13 -2q-1 1 -2 1q-31 5 -56 -13t-30 -49t13 -56t49 -30q6 -1 13 -1zM144 781q2 0 7 1t10 3t7 2q8 2 8 4q0 1 12 1h7.5t5.5 -1.5l4 -2t4.5 -4t6.5 -5.5
q22 -17 28 -23q1 -1 0.5 -2t2.5 -8l5 -5q4 -4 5 -6q0 -2 2 -6q1 -3 3 -7l16 -121q5 -31 29.5 -49.5t55.5 -14.5t49.5 29t14.5 56l-18 126q0 4 -1 9q-5 18 -11 32q-11 23 -16 24v0q9 11 -33 51q-11 11 -41 34q-15 12 -23.5 18t-36.5 16t-59 10h-15t-9.5 -1t-7 -1.5t-9.5 -2.5
t-15 -4l4 -1l19 -1h-11q7 0 13 -1h-2q-31 5 -56 -13t-30 -48.5t13 -56t49 -30.5q6 -1 13 -1z" />
    <glyph glyph-name="quotedblright" unicode="&#x201d;" horiz-adv-x="880" 
d="M432 789q-2 0 -6.5 1t-10 2.5t-6.5 1.5q-8 2 -9 4q0 1 -12 1h-7.5t-5 -1t-3.5 -2t-5 -4t-7 -5q-22 -18 -27 -23q-2 -1 -1.5 -2.5t-2.5 -8.5q-8 -7 -11 -16q-2 -4 -3 -8l-17 -121q-4 -30 -29 -49t-55.5 -14.5t-49.5 29t-15 55.5l18 126l2 10q5 17 11 31q10 24 15 24v1
q-9 10 33 51q11 10 41 34q15 12 23.5 18t36.5 15.5t59 9.5h16t9.5 -0.5t6.5 -1.5t9 -3t16 -4h-5l-18 -1h10q-6 0 -12 -2q0 1 2 1q30 5 55.5 -13t30.5 -49t-13 -56t-49 -30q-7 -1 -14 -1zM782 780q-2 0 -6.5 1t-10 3t-6.5 2q-8 2 -9 4q0 1 -12 1h-7.5t-5 -1.5t-3.5 -2t-5 -4
t-7 -5.5q-22 -17 -27 -23q-2 -1 -1.5 -2t-2.5 -8q-2 -2 -4 -5q-5 -4 -5 -6q-1 -2 -2 -6q-2 -3 -3 -7l-17 -121q-4 -31 -29 -49.5t-55.5 -14.5t-49.5 29t-15 56l18 126q1 4 2 9q5 18 11 32q10 23 15 24v0q-9 11 33 51q11 11 41 34q15 12 23.5 18t36.5 16t59 10h16t9.5 -1
t6.5 -1.5t9 -2.5t16 -4l-5 -1l-18 -1h10q-6 0 -12 -1h2q30 5 55.5 -13t30.5 -48.5t-13 -56t-49 -30.5q-7 -1 -14 -1z" />
    <glyph glyph-name="quotedblbase" unicode="&#x201e;" horiz-adv-x="795" 
d="M416 -178q2 0 6.5 -1t10 -2.5t6.5 -1.5q8 -2 9 -4q0 -1 12 -1q5 1 7.5 1t5 1t3.5 2t5 4.5t7 5.5q21 18 27 24q1 1 0.5 2t2.5 8q7 8 11 17q1 3 2 8l14 121q3 31 27.5 50.5t55 16t50 -28t16.5 -55.5l-14 -126l-2 -10q-4 -17 -10 -32q-9 -24 -14 -24v0q9 -11 -32 -52
q-11 -11 -40 -36q-14 -12 -22.5 -18t-36.5 -17t-59 -11q-9 -1 -18 -0.5t-10 0.5t-10 2.5t-18 4.5h4l18 2h-10q6 0 13 2q-1 -1 -2 -1q-31 -6 -56.5 11.5t-31.5 48t11.5 56t47.5 31.5q7 2 14 2zM66 -179q2 0 6.5 -1t10 -2.5t6.5 -2.5q8 -1 9 -3q0 -1 12 -1q5 0 7.5 0.5t5 1.5
t3.5 1.5t5 4t6 5.5q22 18 28 24q1 1 0.5 2t2.5 9l4 4q4 4 5 6q0 3 2 6l2 8l14 121q3 31 27.5 50.5t55 16t50 -27.5t16.5 -55l-14 -126l-2 -10q-4 -18 -10 -32q-9 -24 -14 -24l-1 -1h1q9 -10 -32 -52q-11 -10 -40 -35q-15 -12 -23 -18.5t-36 -17t-59 -11.5q-9 -1 -18 0
t-10.5 1t-10 2.5t-18.5 4.5h5l18 2h-10q7 0 13 1h-3q-30 -6 -55.5 11.5t-31.5 48t11.5 56t47.5 31.5z" />
    <glyph glyph-name="minute" unicode="&#x2032;" horiz-adv-x="393" 
d="M264 828l-48 -77q-2 -5 -4.5 -12t-3 -8.5t-2 -5t-2.5 -5t-2.5 -4t-3.5 -5t-5 -6.5t-7.5 -10.5t-9.5 -13.5l-37 -45q-20 -24 -51 -26.5t-55 17t-26.5 50.5t17.5 55l33 40q20 29 20 30q4 16 11 27l52 84q3 5 8 10l56 63q20 23 51 25t54.5 -18.5t25 -52t-18.5 -54.5z" />
    <glyph glyph-name="uniFB2A" unicode="&#xfb2a;" horiz-adv-x="885" 
d="M788 402q-19 -70 -46.5 -117.5t-82.5 -112.5q-37 -44 -72.5 -69t-95.5 -55q-23 -11 -29 -13.5t-24.5 -11t-27.5 -10t-24.5 -5t-29.5 -2.5t-29 4q-60 10 -101.5 32.5t-95.5 69.5q-32 27 -48 56t-20 70q-10 92 -5.5 158t26.5 156q11 48 31 79.5t62 80.5q30 34 56.5 54
t66.5 36q45 17 80.5 22.5t84.5 1.5q33 -3 57 -14t51 -34q35 -31 39 -78q3 -36 -2.5 -62.5t-21.5 -61.5q-28 -60 -41.5 -87.5t-38.5 -66.5t-58 -76q-47 -55 -90 -88t-117 -78q-44 -26 -75.5 -37.5t-75.5 -12.5q-22 -1 -40 12.5t-12 31.5q6 20 17.5 35.5t22 23.5t30.5 23
t31 24q30 24 89.5 59t93.5 67q15 14 27.5 29.5t20 27t19.5 32.5t20 33q3 5 11.5 18t11.5 18t7 15.5t6 20.5q5 20 4.5 39.5t-13.5 32.5q-20 22 -66 10q-1 -1 -4 -2q-17 -4 -26.5 -7.5t-27.5 -16.5t-33 -33t-34.5 -58t-39.5 -91q-10 -25 -16.5 -61t-5 -83.5t15.5 -83.5
q13 -32 26 -50t37 -30q29 -16 58 -18.5t62 2.5q19 3 35.5 10t26.5 13.5t31 22.5q12 9 23.5 19.5t17.5 17.5t18 21.5t19 21.5q13 16 37 49.5t44 52.5q7 7 22 23t22 22.5t21.5 14t30.5 10.5q22 3 42 -11.5t15 -34.5zM682 913q13 26 39.5 35t52.5 -3q24 -12 31.5 -39t-5.5 -51
q-12 -24 -37 -33t-49 3q-25 12 -34.5 37.5t2.5 50.5z" />
    <glyph glyph-name="uniFB2B" unicode="&#xfb2b;" horiz-adv-x="863" 
d="M761 408q-19 -70 -46.5 -117.5t-82.5 -112.5q-37 -44 -72.5 -69t-95.5 -55q-23 -11 -29 -13.5t-24.5 -11t-27.5 -10t-24.5 -5t-29.5 -2.5t-29 4q-60 10 -101.5 32.5t-95.5 69.5q-32 27 -48 56t-20 70q-10 92 -5.5 158t26.5 156q11 48 31 79.5t62 80.5q30 34 56.5 54
t66.5 36q45 17 80.5 22.5t84.5 1.5q33 -3 57 -14t51 -34q35 -31 39 -78q3 -36 -2.5 -62.5t-21.5 -61.5q-28 -60 -41.5 -87.5t-38.5 -66.5t-58 -76q-47 -55 -90 -88t-117 -78q-44 -26 -75.5 -37.5t-75.5 -12.5q-22 -1 -40 12.5t-12 31.5q6 20 17.5 35.5t22 23.5t30.5 23
t31 24q30 24 89.5 59t93.5 67q15 14 27.5 29.5t20 27t19.5 32.5t20 33q3 5 11.5 18t11.5 18t7 15.5t6 20.5q5 20 4.5 39.5t-13.5 32.5q-20 22 -66 10q-1 -1 -4 -2q-17 -4 -26.5 -7.5t-27.5 -16.5t-33 -33t-34.5 -58t-39.5 -91q-10 -25 -16.5 -61t-5 -83.5t15.5 -83.5
q13 -32 26 -50t37 -30q29 -16 58 -18.5t62 2.5q19 3 35.5 10t26.5 13.5t31 22.5q12 9 23.5 19.5t17.5 17.5t18 21.5t19 21.5q13 16 37 49.5t44 52.5q7 7 22 23t22 22.5t21.5 14t30.5 10.5q22 3 42 -11.5t15 -34.5zM22 940q13 26 39.5 35t52.5 -3q24 -12 31.5 -39t-5.5 -51
q-12 -24 -37 -33t-49 3q-25 12 -34.5 37.5t2.5 50.5z" />
    <glyph glyph-name="uniFB2E" unicode="&#xfb2e;" horiz-adv-x="967" 
d="M879 189q-5 -8 -19.5 -33.5t-20 -34t-19 -29t-21.5 -28.5l-22.5 -22.5t-27.5 -21t-31 -13.5t-37 -10q-91 -15 -163.5 13t-139.5 98q-28 30 -44.5 63t-21.5 66t-6.5 72.5t0.5 80.5q1 67 18.5 116.5t59.5 114.5q32 51 67.5 81t94.5 63q42 23 76.5 30.5t79.5 2.5
q74 -9 123 -66q18 -21 21.5 -43.5t-12.5 -43.5q-8 -8 -18 -9.5t-19.5 1.5t-23 7t-23.5 4q-15 0 -38 3.5t-33.5 3.5t-36.5 -4q-72 -17 -114 -57q-28 -27 -43 -52t-35 -71q-20 -47 -30 -129q-1 -6 -3 -19.5t-2.5 -20t-0.5 -16.5t2.5 -19t6.5 -18q31 -67 93 -111q38 -27 99 -27
q50 0 99 27q19 10 46 41.5t53 39.5q15 3 32.5 1.5t29 -11t4.5 -20.5zM-12 57q61 247 104.5 402t111.5 363q9 27 42 21q5 -1 15.5 -2.5t17 -3t15.5 -4t14.5 -5t10.5 -7t7 -10.5t1 -13q-13 -93 -54.5 -234.5t-44.5 -152.5q-5 -20 -75 -261q-2 -8 -8.5 -33t-12.5 -44.5
t-12 -33.5q-5 -12 -13.5 -18t-22 -6.5t-23.5 0.5t-28.5 4.5t-26.5 4.5q-11 1 -16 11.5t-2 21.5zM117 -71q34 7 71 10t62 3.5t64 0t58 -0.5q14 0 60 1.5t68.5 1.5t62.5 -3t76 -10q29 -5 29.5 -47t-26.5 -55q-33 -16 -68.5 -23.5t-58.5 -8t-68.5 1.5t-70.5 2t-69.5 -2.5
t-67.5 -2.5t-57.5 7t-67.5 23q-27 13 -26.5 54.5t29.5 47.5z" />
    <glyph glyph-name="uniFB2F" unicode="&#xfb2f;" horiz-adv-x="964" 
d="M888 195q-5 -8 -19.5 -33.5t-20 -34t-19 -29t-21.5 -28.5l-22.5 -22.5t-27.5 -21t-31 -13.5t-37 -10q-91 -15 -163.5 13t-139.5 98q-28 30 -44.5 63t-21.5 66t-6.5 72.5t0.5 80.5q1 67 18.5 116.5t59.5 114.5q32 51 67.5 81t94.5 63q42 23 76.5 30.5t79.5 2.5
q74 -9 123 -66q18 -21 21.5 -43.5t-12.5 -43.5q-8 -8 -18 -9.5t-19.5 1.5t-23 7t-23.5 4q-15 0 -38 3.5t-33.5 3.5t-36.5 -4q-72 -17 -114 -57q-28 -27 -43 -52t-35 -71q-20 -47 -30 -129q-1 -6 -3 -19.5t-2.5 -20t-0.5 -16.5t2.5 -19t6.5 -18q31 -67 93 -111q38 -27 99 -27
q50 0 99 27q19 10 46 41.5t53 39.5q15 3 32.5 1.5t29 -11t4.5 -20.5zM-3 63q61 247 104.5 402t111.5 363q9 27 42 21q5 -1 15.5 -2.5t17 -3t15.5 -4t14.5 -5t10.5 -7t7 -10.5t1 -13q-13 -93 -54.5 -234.5t-44.5 -152.5q-5 -20 -75 -261q-2 -8 -8.5 -33t-12.5 -44.5
t-12 -33.5q-5 -12 -13.5 -18t-22 -6.5t-23.5 0.5t-28.5 4.5t-26.5 4.5q-11 1 -16 11.5t-2 21.5zM162 -96q36 17 73.5 22.5t70 3.5t78.5 1q97 5 168 -6q8 -1 28.5 -3t29.5 -4t21 -9.5t20 -19.5q10 -21 1 -41t-31 -34q-17 -8 -26.5 -7t-27.5 4.5t-30 2.5q-10 -1 -24.5 -1
t-23.5 -0.5t-20.5 -4t-21.5 -11.5q-11 -9 -11 -29t-4 -35q-7 -16 -12.5 -52t-16 -54.5t-34.5 -18.5q-18 0 -27.5 13.5t-11 29.5t-2.5 42t-4 40q-2 13 8.5 44.5t-2.5 39.5q-8 11 -20 12t-30 -3t-28 -3q-13 1 -32.5 -3.5t-34 -4.5t-26.5 11q-18 15 -17.5 42t20.5 36z" />
    <glyph glyph-name="uniFB35" unicode="&#xfb35;" horiz-adv-x="532" 
d="M97 43q61 247 104.5 402t111.5 362q4 13 16 18.5t26 3.5q5 -1 15.5 -3t17 -3.5t15.5 -3.5t14.5 -5t10.5 -7t7 -10t1 -14q-13 -93 -54.5 -234t-44.5 -152q-10 -39 -21 -78.5t-28 -95.5t-26 -88q-2 -8 -8.5 -32.5t-12.5 -44t-12 -33.5q-5 -12 -13.5 -18.5t-22 -7t-23.5 0.5
t-28.5 4.5t-26.5 4.5q-11 2 -16 12t-2 22zM57 526q13 26 39.5 35t52.5 -3q24 -12 31.5 -39t-5.5 -51q-12 -24 -37 -33t-49 3q-25 12 -34.5 37.5t2.5 50.5z" />
    <glyph glyph-name="uniFB3B" unicode="&#xfb3b;" horiz-adv-x="802" 
d="M48 512q-42 29 -27 78q6 20 16.5 33.5t32 30.5t29.5 26q12 11 29.5 30t28 29t27.5 23.5t37 23.5q52 26 88.5 35.5t85.5 6.5q15 -2 29.5 -5.5t24 -6.5t24 -11.5t20.5 -12.5l24 -16l24 -16q29 -20 46.5 -38.5t35.5 -47.5q32 -54 48 -91t28 -89q12 -54 13 -94.5t-7 -95.5
t-20.5 -92.5t-39.5 -83.5q-11 -20 -25.5 -34t-34.5 -29t-33 -27q-72 -30 -197 -32.5t-224 16.5t-110 46q-4 9 -7 31.5t2 48.5t23 30q6 4 27.5 2.5t37.5 -3.5t44 -7.5t47.5 -9.5t48.5 -10.5t47 -9.5q15 0 56.5 -1.5t69.5 3t57 18.5q24 12 41 31t24.5 35t21.5 48q19 47 25 81
t1 79q-5 40 -18.5 68.5t-43.5 69.5q-5 7 -17 23.5t-17 24t-15.5 19.5t-19.5 18.5t-21.5 13t-27.5 11.5q-48 12 -86.5 5t-79.5 -35q-26 -18 -62 -63t-65 -65q-41 -30 -66 -12zM315 412q13 26 39.5 35t52.5 -3q24 -12 31.5 -39t-5.5 -51q-12 -24 -37 -33t-49 3
q-25 12 -34.5 37.5t2.5 50.5z" />
    <glyph glyph-name="uniFB44" unicode="&#xfb44;" horiz-adv-x="844" 
d="M421 309q-15 -10 -32.5 -10.5t-38.5 3t-37 1.5q-9 -1 -24 -2t-23.5 -1.5t-20 -4t-22.5 -10.5q-39 -24 -42 -63q-2 -38 3.5 -63.5t26.5 -50.5q26 -30 54 -43.5t69 -19.5q55 -6 90.5 -0.5t86.5 24.5q29 11 47 27.5t34 44.5q13 23 20.5 47t9.5 37.5t6 50.5q7 57 7.5 83
t-7.5 82q-1 7 -5 27.5t-5 27t-5 22.5t-7.5 24t-9.5 20.5t-13.5 23t-17.5 20.5q-33 37 -68.5 53.5t-90.5 24.5q-22 4 -41 4.5t-39 -2.5t-34 -5.5t-39.5 -8.5t-40.5 -10q-22 -4 -46.5 -17.5t-40 -24t-40 -16.5t-45.5 3q-21 7 -27.5 28t-1.5 45t17 45q9 16 23.5 27t25.5 16
t34 12t34 12q6 2 23.5 9t23 9t19.5 7t21.5 6.5l20 4t24 3.5t24.5 2q44 0 77.5 -0.5t68.5 -8.5t72 -26q9 -5 34 -17t34 -16.5t29.5 -15.5t29.5 -18t24 -20t23.5 -24.5t18 -27.5t15.5 -35q23 -64 31.5 -113.5t13.5 -132.5q3 -46 -0.5 -80.5t-15.5 -89.5q-16 -72 -51 -138
q-3 -4 -10 -18t-9.5 -18.5t-9 -15.5t-10.5 -16.5t-11 -13.5t-14.5 -14.5t-16.5 -13.5q-6 -5 -12.5 -8.5t-11.5 -6.5t-12 -6t-11 -4.5t-12 -4t-11.5 -3.5t-13 -2.5t-12.5 -2t-14.5 -2.5t-14.5 -2q-48 -8 -65.5 -10.5t-50 -2.5t-66.5 5q-19 3 -50.5 7t-50 7t-42 10t-43 20
t-36.5 33q-47 52 -59.5 109.5t-1.5 134.5q8 50 21 84.5t43 67.5q25 28 51 39.5t74 21.5q36 8 62 6.5t61 -12.5q33 -10 52.5 -22t33.5 -36q11 -18 8.5 -39t-19.5 -32zM465.579 505q12.5234 26 38.0508 35q25.5283 9 50.5742 -3q23.1201 -12 30.3447 -39t-5.29883 -51
q-11.5596 -24 -35.6426 -33t-47.2021 3q-24.083 12 -33.2344 37.5t2.4082 50.5z" />
    <glyph glyph-name="uniFB4A" unicode="&#xfb4a;" horiz-adv-x="905" 
d="M-5 71q15 30 41 43t49.5 13t48 5t35.5 20q14 18 18.5 41.5t5.5 62.5t4 58q2 24 3 59.5t3 54.5q1 19 5.5 49t6.5 50q2 28 -0.5 45.5t-1.5 41t8 45.5q7 25 35.5 36t48.5 -6q19 -17 26 -35.5t9 -54.5t3 -48q4 -19 4 -35.5t-1.5 -39.5t-2.5 -36q-4 -179 -15.5 -258
t-46.5 -120q-12 -13 -26 -20.5t-33 -14t-31 -13.5q-29 -18 -148 -18h-2q-7 4 -17 8.5t-17 9t-12 12.5q-12 20 0 45zM77 695q11 19 25 32.5t33 23.5t32 15t40 14t40 14q26 9 38 13.5t32.5 10t34.5 7.5t33 2t40 -3q69 -10 117 -28.5t105 -58.5q20 -14 34.5 -28.5t28.5 -37
t19.5 -33.5t21.5 -45q8 -17 14.5 -33.5t10.5 -28t9 -30t7 -27.5t6.5 -33t6.5 -34q20 -95 28 -201q4 -69 -6 -111q-2 -6 -5 -20t-5 -20t-6 -15.5t-10.5 -15.5t-15.5 -10q-20 -8 -33 -12t-29.5 -5t-30 7t-25.5 25q-8 13 -9.5 26t1.5 22.5t7 24t5 26.5q0 15 4 42t4 45
q3 92 -2 132q-6 36 -9 54.5t-10 43.5t-17 52q-13 30 -20 45t-20.5 33.5t-31.5 35.5q-41 36 -70 52.5t-72 22.5q-24 1 -37 1.5t-33 -4t-31.5 -8t-32.5 -11t-36 -11.5q-21 -6 -44.5 -23t-44 -27t-43.5 -4q-32 7 -48.5 38.5t0.5 57.5zM459 352q13 26 39.5 35t52.5 -3
q24 -12 31.5 -39t-5.5 -51q-12 -24 -37 -33t-49 3q-25 12 -34.5 37.5t2.5 50.5z" />
    <glyph glyph-name="uniFB4C" unicode="&#xfb4c;" horiz-adv-x="887" 
d="M7 522q11 47 29.5 78.5t54.5 68.5q40 40 75.5 63.5t92.5 47.5q52 22 85.5 29.5t76.5 0.5q58 -10 97.5 -29t82.5 -58q44 -41 67.5 -80t52.5 -109q10 -24 13.5 -46t4.5 -53t3 -51q5 -43 6.5 -63.5t0 -60.5t-15.5 -72.5t-39 -61.5q-11 -13 -24.5 -17t-21.5 -3.5t-27.5 6.5
t-25.5 8q-27 7 -67.5 32.5t-70.5 30.5q-43 7 -75 -27q-7 -7 -7.5 -18t2 -20.5t-0.5 -21.5q-2 -8 -4.5 -21.5t-4.5 -20.5t-7.5 -16.5t-13.5 -16.5q-13 -11 -29 -11t-28 11q-30 29 -30 84q0 67 30 132q15 31 28 48t38 27q10 4 19.5 7t20 4t17 1.5t19 -0.5t18 -1.5t20.5 -2
t21 -2.5q19 -2 59.5 -25t66.5 -11q16 7 20 22t-0.5 45t-4.5 32q-1 24 -4 39t-5 20.5t-9.5 19t-11.5 20.5q-8 15 -28 32.5t-29 36.5q-32 65 -93 84q-45 14 -81.5 13.5t-80.5 -16.5q-28 -10 -47.5 -24.5t-46 -42t-38.5 -38.5q-10 -9 -25.5 -32.5t-31.5 -33.5q-36 -22 -60 -6
q-42 29 -33 69zM177.551 1011q1.00391 3 80.3125 0t88.3438 -3h62.2422t65.2539 -0.5t62.2422 -2.5q25.0977 -1 67.7637 0.5t73.2852 -2t63.748 -16.5q31.1211 -13 21.082 -72q-7.02734 -38 -42.1641 -48q-22.0859 -6 -42.1641 -7t-46.6816 1.5t-43.6699 2.5
q-41.1602 0 -101.395 1.5t-91.3555 1.5q-13.0508 0 -65.2539 -1.5t-64.25 1.5q-19.0742 2 -55.7168 -1.5t-59.7324 2t-41.1602 26.5q-14.0547 16 -15.5605 40.5t12.5488 40.5q9.03516 9 34.6348 22t37.6465 14z" />
    <glyph glyph-name="uniFB4E" unicode="&#xfb4e;" horiz-adv-x="833" 
d="M419 297q-15 -10 -32.5 -10.5t-38.5 3t-37 1.5q-9 -1 -24 -2t-23.5 -1.5t-20 -4t-22.5 -10.5q-39 -24 -42 -63q-2 -38 3.5 -63.5t26.5 -50.5q26 -30 54 -43.5t69 -19.5q55 -6 90.5 -0.5t86.5 24.5q29 11 47 27.5t34 44.5q13 23 20.5 47t9.5 37.5t6 50.5q7 57 7.5 83
t-7.5 82q-1 7 -5 27.5t-5 27t-5 22.5t-7.5 24t-9.5 20.5t-13.5 23t-17.5 20.5q-33 37 -68.5 53.5t-90.5 24.5q-22 4 -41 4.5t-39 -2.5t-34 -5.5t-39.5 -8.5t-40.5 -10q-22 -4 -46.5 -17.5t-40 -24t-40 -16.5t-45.5 3q-21 7 -27.5 28t-1.5 45t17 45q9 16 23.5 27t25.5 16
t34 12t34 12q6 2 23.5 9t23 9t19.5 7t21.5 6.5l20 4t24 3.5t24.5 2q44 0 77.5 -0.5t68.5 -8.5t72 -26q9 -5 34 -17t34 -16.5t29.5 -15.5t29.5 -18t24 -20t23.5 -24.5t18 -27.5t15.5 -35q23 -64 31.5 -113.5t13.5 -132.5q3 -46 -0.5 -80.5t-15.5 -89.5q-16 -72 -51 -138
q-3 -4 -10 -18t-9.5 -18.5t-9 -15.5t-10.5 -16.5t-11 -13.5t-14.5 -14.5t-16.5 -13.5q-6 -5 -12.5 -8.5t-11.5 -6.5t-12 -6t-11 -4.5t-12 -4t-11.5 -3.5t-13 -2.5t-12.5 -2t-14.5 -2.5t-14.5 -2q-48 -8 -65.5 -10.5t-50 -2.5t-66.5 5q-19 3 -50.5 7t-50 7t-42 10t-43 20
t-36.5 33q-47 52 -59.5 109.5t-1.5 134.5q8 50 21 84.5t43 67.5q25 28 51 39.5t74 21.5q36 8 62 6.5t61 -12.5q33 -10 52.5 -22t33.5 -36q11 -18 8.5 -39t-19.5 -32zM159 1011q1 3 80 0t88 -3h62t65 -0.5t62 -2.5q25 -1 67.5 0.5t73 -2t63.5 -16.5q31 -13 21 -72
q-7 -38 -42 -48q-22 -6 -42 -7t-46.5 1.5t-43.5 2.5q-41 0 -101 1.5t-91 1.5q-13 0 -65 -1.5t-64 1.5q-19 2 -55.5 -1.5t-59.5 2t-41 26.5q-14 16 -15.5 40.5t12.5 40.5q9 9 34.5 22t37.5 14z" />
  </font>
</defs>
</svg>
