<?xml version="1.0" standalone="no"?>
<!DOCTYPE svg PUBLIC "-//W3C//DTD SVG 1.1//EN" "http://www.w3.org/Graphics/SVG/1.1/DTD/svg11.dtd" >
<svg xmlns="http://www.w3.org/2000/svg" xmlns:xlink="http://www.w3.org/1999/xlink" version="1.1">
<metadata>
Created by FontForge 20170910 at Fri Sep  1 16:30:02 2017
 By Jimmy Wärting
BaruchSienna
</metadata>
<defs>
<font id="ShArpie" horiz-adv-x="181" >
  <font-face 
    font-family="ShArpie"
    font-weight="500"
    font-stretch="normal"
    units-per-em="1000"
    panose-1="2 0 6 3 0 0 0 0 0 0"
    ascent="800"
    descent="-200"
    cap-height="503"
    bbox="-186 -210 633 779"
    underline-thickness="50"
    underline-position="-150"
    unicode-range="U+0020-F8FE"
  />
<missing-glyph horiz-adv-x="364" 
d="M66 33h199v600h-199v-600zM33 0v666h265v-666h-265z" />
    <glyph glyph-name=".notdef" horiz-adv-x="364" 
d="M66 33h199v600h-199v-600zM33 0v666h265v-666h-265z" />
    <glyph glyph-name=".null" horiz-adv-x="0" 
 />
    <glyph glyph-name="nonmarkingreturn" horiz-adv-x="333" 
 />
    <glyph glyph-name="space" unicode=" " horiz-adv-x="300" 
 />
    <glyph glyph-name="quotesingle" unicode="'" horiz-adv-x="232" 
d="M162 602q0 -1 -1 -2q-2 -4 -4 -7q-6 -12 -14 -24q-24 -40 -54 -73q-40 -45 -84 -72l-16 26q40 24 78 66q27 31 51 69q7 11 13 22q2 3 3 6q1 1 1 2z" />
    <glyph glyph-name="comma" unicode="," horiz-adv-x="247" 
d="M178 86q-1 -1 -2 -3q-1 -3 -3 -7q-6 -12 -14 -24q-25 -40 -55 -73q-40 -45 -84 -72l-15 26q40 24 77 66q28 31 51 69q8 12 14 22q1 4 3 7q0 1 1 1v1z" />
    <glyph glyph-name="period" unicode="." 
d="M57 55l55 -21l-24 -60l-55 21z" />
    <glyph glyph-name="colon" unicode=":" horiz-adv-x="189" 
d="M64 384l55 -22l-23 -59l-55 21zM62 199l54 -22l-23 -60l-55 22z" />
    <glyph glyph-name="A" unicode="A" horiz-adv-x="651" 
d="M573 491q0 -1 -1 -3q-1 -3 -3 -6q-5 -11 -11 -22q-19 -38 -38 -68q-11 -17 -21 -31q-3 -4 -5 -7q-14 -18 -31 -38q-22 -25 -48 -51l-16 -16q-1 0 -1 -1q48 -62 101 -129q31 -40 60 -77q9 -12 17 -21q2 -4 4 -6l2 -2l-24 -19q0 1 -1 2q-2 3 -5 6q-8 10 -17 21
q-29 37 -60 77q-100 127 -183 235q-5 8 -11 15q-42 54 -77 101q-9 12 -16 16q-1 2 -2 2q-1 -1 -1 -2q-4 -6 -6 -18q-13 -64 -46 -198q-3 -12 -6 -25q-19 -73 -41 -158q-7 -26 -13 -50q-2 -8 -4 -14q0 -2 -1 -4v-1l-29 7v2q1 1 1 3l4 14q6 25 13 51q22 84 41 158l6 24
q33 133 45 196q4 18 9 28q8 14 21 17t27 -7q10 -8 22 -23q35 -47 77 -101q5 -7 11 -14q30 -40 63 -82q7 7 15 14q25 26 46 50q17 19 30 36q2 3 5 6q9 14 19 30q19 29 37 65q6 11 11 22q1 3 3 6v1v1z" />
    <glyph glyph-name="afii57664" unicode="&#x5d0;" horiz-adv-x="585" 
d="M507 492q-1 -1 -1 -2q-2 -3 -3 -7l-11 -22q-19 -37 -38 -68q-11 -17 -21 -31q-3 -3 -6 -7q-13 -18 -30 -37q-22 -25 -48 -52q-9 -8 -16 -15q-1 -1 -2 -1q49 -63 101 -130q32 -40 61 -77q9 -11 17 -21l4 -6q1 -1 1 -2l-23 -18l-2 2q-2 2 -4 5q-8 10 -17 22q-29 37 -60 77
q-100 127 -183 235q-6 7 -11 14q-42 54 -77 101q-9 12 -16 17q-1 1 -3 1l-1 -1q-3 -6 -5 -19q-13 -64 -46 -198l-6 -24q-19 -74 -41 -158q-7 -27 -13 -51q-2 -8 -4 -14q-1 -2 -1 -4v-1l-29 8v1q0 2 1 4q2 6 4 14q6 24 13 50q22 85 41 158q3 12 6 25q33 133 45 196q4 17 9 27
q8 15 21 17.5t27 -7.5q10 -7 22 -23q35 -46 77 -101q5 -7 11 -14q30 -39 63 -82q7 7 14 15q26 25 47 49q17 19 29 36q3 3 5 7q10 13 20 29q19 30 37 65l11 22l2 6q1 1 1 2z" />
    <glyph glyph-name="afii57665" unicode="&#x5d1;" horiz-adv-x="703" 
d="M75 517h1h3q3 -1 10 -1q17 -3 37 -5q61 -8 112 -14h1q95 -12 135 -17q23 -3 35 -33q9 -21 14 -61q7 -50 11 -184q2 -56 3 -81q1 -26 2 -48l126 43l2 1h2l1 1h2l1 1h2l1 1h1l2 1h1h1l1 1h1l1 1h1h1l1 1h1h1h1l1 1h1l1 1h1h1h1v1h1h1l1 1h1h1h1v1h1h1l1 1h1h1q8 3 12 4
q4 2 5 2l9 -29q-1 0 -4 -1h-1l-1 -1h-1h-1l-1 -1h-1h-1l-1 -1h-1h-1l-1 -1h-1h-1l-1 -1h-1l-1 -1h-1h-1l-1 -1h-1h-1h-1l-1 -1h-1h-1l-1 -1h-1h-1l-1 -1h-1h-1v-1h-1h-1h-1l-1 -1h-1h-1l-1 -1h-1h-1l-1 -1h-1l-1 -1h-1h-1h-1l-1 -1h-1l-1 -1h-1h-1l-1 -1h-2l-129 -44
l-128 -43l-42 -15l-12 -4q-3 -1 -4 -1h-1q0 -1 -3 -1q-4 -1 -9 -3l-33 -9l-100 -29l-100 -29l-32 -9q-6 -2 -10 -3q-2 -1 -3 -1l-8 29l3 1h1l1 1h1h1h1l1 1h1l2 1l33 9l100 29l100 28l32 10h2l1 1h2h1v1h1h1h2q1 1 2 1v0q1 0 4 2l12 4l43 14l100 34q-1 26 -2 57q-1 25 -3 81
q-4 132 -11 181q-4 36 -12 54q-5 14 -10 14q-40 5 -135 17h-2q-51 7 -112 14q-19 2 -37 5q-7 1 -10 1h-3h-1z" />
    <glyph glyph-name="afii57666" unicode="&#x5d2;" horiz-adv-x="352" 
d="M172 506q32 -77 60 -203q21 -96 38 -211q5 -36 9 -70q2 -10 3 -19v-5v-2l-29 -3l-1 1v5q-1 9 -3 20q-4 33 -9 69q-4 27 -8 53l-2 -1l-1 -1h-1h-1l-1 -1l-1 -1h-1v-1h-1h-1v-1h-1h-1v-1h-1l-1 -1h-1l-1 -1h-1l-1 -1h-1l-1 -1h-1l-1 -1h-1l-1 -1h-1l-2 -2l-88 -48l-89 -49
l-29 -16l-8 -4q-3 -1 -3 -2l-15 27q1 0 3 1l9 5l29 16l88 48l89 49l29 16q3 1 6 3q-11 66 -24 125q-27 123 -58 197z" />
    <glyph glyph-name="afii57667" unicode="&#x5d3;" horiz-adv-x="495" 
d="M-47 489h5h15h26h28h162h1h2h1h1h1h2h1h1h1h2h1h1h1h1h2h1h1h1h1h1h2h1h1h1h1h1h1h1h2h1h1h1h1h1h1h1h1h1h1h1h1h1h1h1h1h1h2h1h1h1h1h1h2h1h1h1h1h1h1h1h1h1h1h1h2h1h1h1h1h1h1h1h1h1h2q-1 28 -1 60q-1 11 -1 18v7h30v-6q0 -7 1 -18v-27q0 -3 1 -34h19h29h27.5h25.5h15
h6v-30h-6h-15h-25.5h-27.5h-48v-2v-1v-1v-1v-2v-1v-1v-2v-1v-1v-1v-1v-2v-1v-1l1 -1v-1v-1v-2v-1v-1v-1v-1v-1v-1v-1v-2v-1v-1v-1v-1v-1v-1v-1v-1v-1v-1v-1v-1v-1v-1v-1v-1v-1v-1v-1v-1v-1v-1v-1v-1v-1v-1v-1v-1v-1v-1v-1v-1v-1v-1v-1v-1v-1v-1v-1v-2v-1v-1l1 -1v-1v-1v-1
v-1v-1v-1v-1v-1v-1v-1v-1v-1v-1v-1v-1v-1v-1v-1v-1v-1v-1v-1v-1v-1v-1v-1v-1v-1v-1v-1v-1v-1v-1v-1v-1v-1v-1v-1v-1v-1v-1v-1v-1v-1v-1v-1v-1v-1v-1v-1v-1v-1v-1v-1v-1v-1v-1v-1h1v-1v-1v-1v-1v-1v-1v-1v-1v-1v-1v-1v-1v-1v-1v-1v-1v-1v-1v-1v-1v-1v-1v-1v-1v-1v-1v-1v-1v-1
v-1v-1v-1v-1v-1v-2q2 -108 4 -197q0 -38 1 -65v-18v-7h-30v6v18q-1 27 -1 65q-2 90 -4 197q-1 87 -3 172h-85h-162h-28h-26h-15h-5v30z" />
    <glyph glyph-name="afii57668" unicode="&#x5d4;" horiz-adv-x="522" 
d="M50 281v-4v-8l1 -31l4 -94v-2v-1v-2v-1v-2v-1v-2v-1v-2v-1v-2v-1v-1v-2v-1v-1v-1l1 -2v-1v-1v-1v-1v-1v-1v-1v-2v-1v-1v-1v-1v-1v-1v-1v-1v-1v-1v-1v-1v-1v-1v-1v-1v-1h1v-1v-1v-1v-1v-1v-1v-1v-1v-1v-1v-1v-1v-1v-1v-1v-1v-1v-1v-1v-1v-1v-1v-1v-1v-1v-1v-1v-1l1 -1v-1
v-1v-1v-1v-1v-1v-1v-1v-1v-1v-1v-1v-1l1 -31v-9q1 -2 1 -3l-30 -1q0 1 -1 3v9v1v1v1v1v1v1v1v1v1v1v1v1v1v1v1v1v1v1h-1v1v1v1v1v1v1v1v1v1v1v1v1v1l-3 94v1v2l-1 2v1v2v1v2v1v2v1v1v2v1v1v2v1v1v1v1v2v1v1l-1 1v1v1v1v1v1v1v1v1v1v1v1v1v1v1v1v1v1v1v1v1v1v1v1v1v1v1l-1 1
v1v1v1v1v1v1v1v1v1v1v1v1v1v1v1v1v1v1v1v1v1v1v1v1v1v1v1l-1 1v1v1v1v1v1v1v1v1l-1 31v8v3zM-5 489h5q6 0 15 -1q21 0 51 -1l158 -5q59 -2 118 -3q-1 38 -1 65v18q-1 5 -1 6h30q0 -1 1 -6v-18q0 -27 1 -64v-2q5 0 9 -1q30 0 52 -1q9 0 14 -1h6l-1 -30h-6q-5 1 -14 1
q-21 1 -52 1q-5 1 -7 1q0 -52 2 -163q2 -106 4 -195q1 -38 1 -64v-18v-7h-30v6v18q0 27 -1 64q-2 89 -4 195v2v1v2v2v1v2v1v2v1v2v1v2v1v2v1v1v2v1v2v1v2v1v1v2v1v2v1v1v2v1v1v2v1v1v2v1v1l-1 1v2v1v1v1v2v1v1v1v1v2v1v1v1v1v1v2v1v1v1v1v1v1v1v2v1v1v1v1v1v1v1v1v1v1v1v1v1
v1v1v1v1v1v1v1v1v1v1v1v1v1v1l-1 1v1v1v1v1v1v1v1v1v1v1v1v1v1v1v1v1v1v1v1v1v1v1v1v1v1v1v1v1v1v1v1v1v1v1v1v1v1v1v1v1v1v1v1v1v1v1v1v1v1v1v1v1v2h-2h-1h-1h-1h-1h-1h-1h-1h-2h-1h-1h-1h-1h-1h-1h-1h-1h-1h-1h-1h-1h-1h-1h-1h-1h-1h-1h-1h-1h-1l-1 1h-1h-1h-1h-1h-1h-1
h-1h-1h-1h-1h-2h-1h-1h-1h-1h-1h-1h-1h-1h-1h-1h-1h-1h-1h-1h-1h-1h-1h-1h-1h-1h-1h-1v1h-1h-1h-1h-1h-1h-1h-1h-1h-1h-1h-1h-1h-1h-1h-1h-1h-1h-1h-1h-1h-1h-1h-1h-1h-1h-1h-1h-1h-1h-1h-1h-1h-1l-1 1h-1h-1h-1h-1h-1h-1h-1h-1h-1h-1h-1h-1h-1h-1h-1h-1h-1h-2l-157 5
q-31 1 -52 1q-9 1 -15 1h-5z" />
    <glyph glyph-name="afii57669" unicode="&#x5d5;" 
d="M91 498q8 -73 13 -185q4 -98 6 -216q1 -36 1 -71v-20v-5v-2h-30v2v5v20q0 34 -1 71q-2 117 -6 215q-5 111 -12 183z" />
    <glyph glyph-name="afii57670" unicode="&#x5d6;" horiz-adv-x="369" 
d="M-2 523q0 -1 3 -1q4 -1 10 -3h1l1 -1h1h1h1l1 -1h1h1h1l1 -1h1h1h1l1 -1h1h1l1 -1h1h1h1l1 -1h1h1h1l1 -1h1h1l1 -1h1h1h1l1 -1h1h1l64 -17q-1 29 -1 55q0 11 -1 18v7h30v-6q1 -8 1 -19q0 -22 1 -64l10 -2l104 -28q20 -6 34 -10q6 -1 9 -2t4 -1l-8 -29q-1 0 -3 1
q-4 1 -10 2l-1 1h-1h-1l-1 1h-1h-1h-1l-1 1h-1h-1h-1l-1 1h-1h-1h-1v1h-1h-1h-1l-1 1h-1h-1h-1v1h-1h-1h-1h-1l-1 1h-1h-1l-1 1h-1h-1h-1l-1 1l-104 28h-2v-1v-1v-1v-2l1 -1v-1v-1v-1v-1v-2v-1v-1v-1v-1v-1v-1v-1v-1v-1v-1v-2v-1v-1v-1v-1v-1v-1v-1v-1v-1v-1v-1v-1v-1v-1v-1
v-1v-1v-1v-1v-1v-1v-1v-1v-1v-1v-1v-1v-1v-1v-1v-1v-1v-1v-1v-1v-1v-1v-1v-1l1 -1v-1v-1v-1v-1v-1v-1v-1v-1v-1v-1v-1v-1v-1v-1v-1v-1v-1v-1v-1v-1v-1v-1v-1v-1v-1v-1v-1v-1v-1v-1v-1v-1v-1v-1v-1v-1v-1v-1v-1v-1v-1v-1v-1v-1v-1v-1v-1v-1v-2v-1v-1v-1v-1v-1v-1l1 -1v-1v-1
v-1v-1v-1v-1v-1v-1v-1v-1v-1v-1v-1v-1v-1v-1v-1v-1v-1v-1v-1v-1v-1v-1v-1v-1v-1v-1v-1v-1v-1v-1v-1v-1v-1v-1v-1v-1v-1v-1v-1v-1v-1v-1v-1q2 -108 4 -197q0 -38 1 -65v-18v-7h-30v6v18q-1 27 -1 65q-2 89 -4 197q-1 93 -3 175l-72 20q-20 5 -34 9l-10 3q-2 1 -3 1z" />
    <glyph glyph-name="afii57671" unicode="&#x5d7;" horiz-adv-x="563" 
d="M-20 481q1 -1 6 -1h16q24 -1 58 -2h2v4l-1 65v18q-1 5 -1 6l30 1q0 -1 1 -7v-18v-1v-1v-1v-2v-1v-1v-1v-1v-1v-1v-1v-1v-1v-1v-1v-1v-1v-1v-1v-1v-1v-1v-1v-1v-1v-1v-1v-1v-1v-1v-1v-1v-1v-1l1 -1v-1v-1v-1v-1v-1v-1v-1v-1v-1v-1v-1v-1v-1v-1v-1v-1v-1v-1v-1v-1v-1v-1v-1
v-1v-1v-1v-1v-2v-4q72 -2 145 -4l176 -5q34 -1 58 -1q10 -1 16 -1h6l-1 -30h-5q-7 0 -17 1q-24 0 -58 1h-1v-1q1 -5 1 -14q0 -21 1 -51q1 -70 3 -154.5t4 -155.5q0 -30 1 -51v-14v-5l-30 -1v5v15q-1 21 -1 51q-2 70 -4 154.5t-3 154.5q-1 30 -1 52q0 8 -1 14v2q-72 2 -145 4
l-143 4l2 -163l4 -197v-1v-2v-2v-1v-2v-2v-1v-2v-1v-1v-2v-1v-1v-2v-1v-1v-1v-1v-2v-1v-1v-1v-1v-1v-1v-1v-1v-1l1 -1v-1v-1v-1v-1v-1v-1v-1v-1v-1v-1v-1v-1v-1v-1v-1v-1v-1v-1v-1v-1v-1v-1v-1v-1v-1v-1v-2v-18v-6l-30 -1v7v18q0 27 -1 65l-4 197q-1 82 -2 163h-4
q-34 1 -58 2h-16q-5 0 -6 1z" />
    <glyph glyph-name="afii57672" unicode="&#x5d8;" horiz-adv-x="509" 
d="M6 491v-2q1 -1 1 -4q2 -7 4 -15q6 -28 14 -57q22 -93 43 -171q13 -47 25 -85q23 -78 40 -118q65 41 142 116q102 99 135 172v1q0 2 -1 5q-2 7 -8 17q-15 24 -43 50q-72 64 -158 78l4 29q95 -14 174 -85q34 -31 50.5 -60t8.5 -48q-35 -77 -141 -181q-100 -97 -174 -135
l-4 8l-2 -1q-21 40 -52 144q-12 38 -24 85q-22 78 -45 172q-7 29 -13 57l-4 16q0 2 -1 4v1z" />
    <glyph glyph-name="afii57673" unicode="&#x5d9;" horiz-adv-x="220" 
d="M9 515q85 -22 112 -40q38 -24 27 -89q-9 -55 -51 -134l-27 14q39 73 48 122t-13 62q-23 15 -103 36z" />
    <glyph glyph-name="afii57674" unicode="&#x5da;" horiz-adv-x="373" 
d="M-57 501h2h2.5h2.5h19q33 -1 65 -1q29 0 55 -1h124q21 0 36 -19q13 -16 22 -45q16 -51 24 -150q12 -157 5 -495l-30 1q7 337 -5 492q-7 95 -23 143q-13 43 -29 43h-124q-26 1 -56 1q-31 0 -64 1h-19h-3h-3h-1v30z" />
    <glyph glyph-name="afii57675" unicode="&#x5db;" horiz-adv-x="495" 
d="M9 502h1h2h3.5h3.5h28q46 -1 90 -1q34 0 65 -1h170q26 0 40 -25q12 -20 13 -53q2 -70 -37 -155q-47 -99 -133 -173q-104 -90 -248 -128l-8 29q138 37 236 121q82 71 125 164q37 78 35 141q-1 26 -9 39q-5 10 -14 10h-171q-30 1 -64 1q-44 0 -91 1h-27h-3.5h-4.5h-2v30z
" />
    <glyph glyph-name="afii57676" unicode="&#x5dc;" horiz-adv-x="404" 
d="M19 779q3 -209 7 -246q1 -13 3 -19q1 -3 2 -5v-1q1 -1 2 -1h3q115 -18 244 -44q42 -8 52 -60q8 -44 -9 -110q-19 -69 -61 -144.5t-101 -143.5l-23 20q57 65 97.5 137.5t58.5 137.5q16 60 9 97q-6 32 -29 37q-129 26 -243 43q-7 1 -11 3q-8 3 -13 10q-8 11 -11 39
q-4 39 -7 249z" />
    <glyph glyph-name="afii57677" unicode="&#x5dd;" horiz-adv-x="552" 
d="M59 34h17.5h24.5h155h94v11q0 26 -1 64q-2 88 -4 193q-2 118 -2 157l-175 2q-110 2 -118 2v-15q1 -21 1 -52l4 -158l3 -159v-2v-1v-2v-2v-1v-2v-1v-2v-1v-2v-1v-1v-1v-2l1 -1v-1v-1v-1v-1v-1v-1v-1v-1v-1v-1v-1v-1v-1v-1v-1v-1v-1v-1v-1v-2v-1v-1zM-120 495h7h1h1h1h1h1
h1h1h1h1h1h1h1h1h1h1h1h1h1q27 -1 65 -1q90 -1 198 -3q116 -1 174 -2v3v4q-1 37 -1 63v18q-1 5 -1 6l30 1l1 -6v-18q0 -27 1 -64v-7h2h1h2h1h2h1h1h2h1h1h2h1h1h1h2h1h1h1h1h1h1h1h1h1l1 -1h1h1h2h1h1h1h1h1h1h1h1h1h1h1h1h1h1h1h1h1h1h1h1h1h1h1h2h18h6v-30h-6h-19
q-27 0 -58 1q1 -53 2 -156q2 -106 4 -194q1 -37 1 -64v-11h31h27h25h14h5v-30h-5h-14h-25h-27h-155h-1h-2h-2h-1h-2h-1h-2h-1h-2h-1h-2h-1h-2h-1h-2h-1h-1h-2h-1h-2h-1h-1h-1h-2h-1h-1h-2h-1h-1h-1h-1h-2h-1h-1h-1h-1h-1h-1h-1h-2h-1h-1h-1h-1h-1h-1h-1h-1h-1h-1h-1h-1h-1
h-1h-1h-1h-1h-1h-1h-1h-1h-1h-1h-1h-1h-1h-1h-1h-1h-1h-1h-1h-1h-1h-1h-1h-1h-1h-1h-1h-1h-1h-1h-1h-1h-1h-1h-1h-1h-1h-1h-1h-1h-1h-1h-1h-1h-1h-1h-1h-1h-1h-1h-1h-1h-1h-1h-1h-1h-1h-1h-1h-1h-1h-1h-1h-1h-1h-1h-1h-1h-1h-1h-1h-1h-1h-1h-1h-1h-1h-1h-1h-1h-1h-1h-1h-1
h-1h-1h-1h-1h-26.5h-24.5h-14h-6v3l-1 5v14v2v1v1v1v1v1v1v1v1v1v1v1v1v1v1v1v1v1v1v1v1v1v1v1v1v1v1v1v1v1l-1 1v1v1v1v1v1v1v1v1v1v1v1v1v1v1v1v1v1v1v1v1v1l-3 158l-4 158q0 31 -1 53v1v2v1v2v1v1v1v1v1v1v1v1v1h-1h-1h-1h-1h-1h-1h-1h-1h-1h-1l-1 1h-1h-1h-1h-1h-1h-1
h-1h-1h-1h-1h-1h-1h-1h-1h-1h-1h-1h-1h-1h-1h-1h-1h-1h-1h-1h-1h-1h-1h-1h-1h-1h-1h-1h-1h-1h-1h-1h-1h-1q-39 0 -66 1h-18h-6v30z" />
    <glyph glyph-name="afii57678" unicode="&#x5de;" horiz-adv-x="519" 
d="M329 477q-41 -16 -122 -64q-18 -10 -35 -20q9 -36 14 -77q2 -17 3 -34q0 -5 1 -10v-3l-30 -1v1v2q-1 5 -1 9q-1 16 -3 33q-3 33 -11 63q-58 -37 -87 -62l-18 22q32 27 98 69q-1 3 -2 7q-22 68 -60 103l20 22q44 -40 68 -116q121 73 168 86q8 2 11 0t7 -9l5 -10
q5 -12 13 -33q16 -47 33 -106q47 -161 48 -229q0 -17 -2 -23q-3 -11 -15 -16l-4 -1l-10 -4t-7 -3q-82 -37 -186 -63.5t-283 -54.5l-5 27q177 29 280 54.5t182 61.5l22 9v2v11q-1 64 -47 221q-17 59 -33 104q-7 20 -12 32z" />
    <glyph glyph-name="afii57679" unicode="&#x5df;" 
d="M91 501q8 -105 13 -263q4 -140 6 -307q1 -53 1 -101v-29v-7v-3h-30v3v7v28q0 49 -1 101q-2 168 -6 307q-5 158 -13 261z" />
    <glyph glyph-name="afii57680" unicode="&#x5e0;" horiz-adv-x="336" 
d="M105 509q74 -75 117 -220q26 -91 38 -200q3 -34 5 -66q0 -10 1 -19q0 -1 1 -3h-1v-2v-1h-12q-9 -3 -19 -6q-39 -12 -79 -21q-72 -17 -133 -25q-25 -3 -48 -5l-2 30q22 2 46 5q60 7 130 24q39 9 78 21l8 2q-2 30 -5 63q-11 106 -37 194q-40 138 -110 208z" />
    <glyph glyph-name="afii57681" unicode="&#x5e1;" horiz-adv-x="600" 
d="M209 23q29 23 84 73.5t79 76.5q123 130 128 262q0 4 -4 8q-8 6 -25 12q-36 10 -110 14q-65 4 -173 3q-45 -1 -100 -2q23 -110 49 -213q28 -116 49 -179q12 -36 21 -52q1 -2 2 -3zM51 499q-11 59 -15 83l30 4q4 -25 16 -86q59 1 106 2q108 1 174 -3q79 -4 118 -16
q23 -7 35 -17q16 -14 15 -32q-3 -77 -43 -155q-34 -65 -93 -127q-27 -29 -88.5 -85t-86.5 -74q-13 -10 -27 2q-6 5 -12 17q-9 18 -22 56q-22 65 -51 182q-26 106 -49 220q-32 -1 -89 -3l-1 30q53 2 83 2z" />
    <glyph glyph-name="afii57682" unicode="&#x5e2;" horiz-adv-x="482" 
d="M24 499v-2q1 -1 1 -3q2 -6 5 -13q8 -22 17 -46q30 -76 61 -140q48 -100 92 -151q122 140 184 361l29 -9q-70 -248 -217 -400q-60 -62 -140 -116q-54 -37 -149 -90l-15 26q94 53 147 88q78 53 135 113q3 2 5 5q-47 53 -98 160q-32 65 -62 142q-9 24 -18 47q-2 7 -4 13
q-1 2 -1 4l-1 1z" />
    <glyph glyph-name="afii57683" unicode="&#x5e3;" horiz-adv-x="441" 
d="M-57 501h1h1h3h3h24q31 -1 62 -1q3 47 11 88l29 -6q-7 -38 -10 -82q27 0 51 -1h148q23 0 41 -18q15 -16 26 -45q19 -51 29 -151q15 -157 6 -495l-30 1q8 336 -6 491q-18 187 -65 187h-149q-25 1 -52 1q-2 -42 1 -86q4 -84 14 -121l-29 -8q-11 40 -15 127q-3 46 -1 88
q-31 0 -62 1h-23h-3h-3h-2v30z" />
    <glyph glyph-name="afii57684" unicode="&#x5e4;" horiz-adv-x="457" 
d="M-57 501h1h3h5.5h5.5h40h39q3 46 11 87l29 -6q-7 -38 -10 -82h51q72 0 115 -1h34q18 0 36 -10q11 -6 29 -19q1 -1 2 -1.5t2 -1.5l4 -2q21 -15 37 -67q20 -65 4 -131q-20 -86 -100 -158q-96 -85 -273 -143l-9 29q171 55 262 137q73 65 91 142q14 58 -4 115q-7 21 -16 37
q-7 12 -10 14q-2 1 -4 3q0 1 -1 1.5t-2 1.5q-17 12 -26 16q-12 7 -23 7h-34q-42 1 -114 1h-52q-2 -41 1 -86q4 -84 14 -121l-29 -8q-11 40 -15 127q-3 46 -1 89h-39h-39h-6h-5h-3h-1v30z" />
    <glyph glyph-name="afii57685" unicode="&#x5e5;" horiz-adv-x="414" 
d="M104 245q-5 154 -12 256l30 2q7 -96 12 -237q29 22 56 45q120 107 126 191l28 -2q-7 -95 -135 -210q-35 -31 -74 -59q4 -136 6 -298v-101q1 -26 1 -28v-8v-2h-30v2v8q0 1 -1 28v101q-2 150 -6 278q-75 -49 -145 -75l-10 27q75 28 154 82z" />
    <glyph glyph-name="afii57686" unicode="&#x5e6;" horiz-adv-x="518" 
d="M-186 -54q0 1 1 1h4q7 1 15 3q27 5 58 11q98 21 196 52q208 66 320 121q-53 79 -143 165q-55 -60 -108 -87l-13 26q48 25 100 80q-96 88 -208 163l16 23q113 -75 211 -164q38 44 64.5 92.5t33.5 87.5l28 -5q-8 -43 -36.5 -95t-68.5 -100q94 -89 149 -172l15 -24
q-33 -21 -136 -62t-215 -76q-99 -31 -199 -53q-31 -6 -59 -11q-8 -2 -16 -3q-2 0 -4 -1h-1z" />
    <glyph glyph-name="afii57687" unicode="&#x5e7;" horiz-adv-x="361" 
d="M-9 506q118 -16 251 -39q44 -8 49 -65q4 -45 -19 -112q-22 -68 -63.5 -132.5t-90.5 -106.5l-19 23q45 39 84 100.5t61 125.5q20 60 17 99q-3 34 -24 38q-132 24 -250 39zM32 311q8 -73 13 -185q4 -98 6 -216q0 -37 1 -71v-20v-5v-2h-30v2v5v20q-1 34 -1 71q-2 117 -6 215
q-5 110 -13 183z" />
    <glyph glyph-name="afii57688" unicode="&#x5e8;" horiz-adv-x="375" 
d="M-17 498h3h4h4h31h91h96q35 -1 69 -36q23 -24 25 -89q1 -55 -11 -132q-11 -72 -30 -141t-39 -108l-27 13q19 37 37.5 104t29.5 136q11 75 10 127q-2 54 -17 69q-25 26 -47 27h-96h-90h-31h-5h-4h-2h-1v30z" />
    <glyph glyph-name="afii57689" unicode="&#x5e9;" horiz-adv-x="629" 
d="M336 461q-30 -107 -161 -219q-28 -25 -61 -49q8 -34 16 -62q20 -70 35 -104q6 2 16 7q25 12 65 38q86 55 133 99q62 58 108 131q36 56 43 85l29 -8q-8 -34 -47 -93q-48 -76 -112 -137q-49 -45 -137 -103q-42 -27 -69 -39q-16 -8 -26 -10q-7 -1 -13 0q-10 1 -14 10
q-18 36 -40 116q-6 24 -13 51q-61 -41 -121 -73l-14 26q64 34 127 79q-5 19 -10 40q-19 82 -39 180q-6 31 -12 60q-1 9 -3 16q0 3 -1 5v1l29 6q1 -1 1 -2q0 -2 1 -4q1 -8 3 -17q5 -28 11 -59q20 -98 39 -179q4 -15 7 -28q26 19 50 39q124 107 151 205z" />
    <glyph glyph-name="afii57690" unicode="&#x5ea;" horiz-adv-x="592" 
d="M-39 499h6h18q26 -1 64 -2h1h1h2h1h1h2h1h1h1h2h1h1h1h2h1h1h1h1h2h1h1h1h1h1h1h1h1l1 -1h2h1h1h1h1h1h1h1h1h1h1h1h1h1h1h1h1h1h1h1h1h1h1h1h1h1h1h1h1h1h1h1h1h1h1h1h1h1h1h1l1 -1h1h1h1h1h1h1h1h1h1h1h1h1h1h1h1h1h1h1h1h1h1h1h1h1h1h1h1h1h1h1h1h1h1h1h1h1h1h1h1h1
l1 -1h1h1h1h1h1h1h1h1h1h1h1h1h1h1h1h1h1h1h1h1h1h1h1h1h1h1h1h1h1h1h1h1h1h1h1h1h1h1h1h1h1l1 -1h1h1h1h1h1h1h1h1h1h1h1h1h1h1h1h1h1h1h1h1h1h1h1h1h1h1h1h1h1h1h1h1h1h1h1l170 -4v1q0 37 -1 64v18v6l30 1v-2v-4v-18q1 -27 1 -65v-2q33 -1 57 -2h17h7l-1 -30h-6h-18
q-31 1 -55 2q1 -54 3 -163q2 -106 3 -194q1 -38 1 -65q1 -11 1 -18v-6l-30 -1v7q0 7 -1 18q0 26 -1 64q-1 89 -3 195q-2 100 -3 164l-172 4h-1h-2h-1h-1h-1h-2h-1h-1h-1h-2h-1h-1h-1h-2h-1h-1h-1h-1h-2h-1h-1h-1h-1h-2h-1h-1h-1h-1l-1 1h-2h-1h-1h-1h-1h-1h-1h-2h-1h-1h-1
h-1h-1h-1h-1h-1h-1h-1h-1h-1h-1h-2h-1h-1h-1h-1h-1h-1h-1h-1h-1h-1h-1h-2h-1h-1h-1l-1 1h-1h-1h-2h-1h-1h-1h-1h-1h-1h-1h-1h-1h-1h-1h-1h-1h-1h-1h-1h-2h-1h-1h-1h-1h-1h-1h-1h-1h-1h-1h-1h-1h-1h-1h-1h-1h-1h-1h-1l-1 1h-1h-1h-1h-1h-1h-1v-9q2 -25 4 -51l11 -154
q1 -10 2 -19q8 -106 12 -158q2 -18 -1 -29q-4 -19 -21 -26q-24 -9 -86 -23q-72 -15 -120 -19l-2 30q45 3 115 19q61 13 82 21q5 2 4 24q-5 52 -13 158q-1 9 -1 19q-6 71 -12 155q-2 26 -4 51v11q-6 1 -19.5 1h-18.5q-37 1 -64 2h-18h-6z" />
    <glyph glyph-name="quoteright" unicode="&#x2019;" horiz-adv-x="232" 
d="M162 602q0 -1 -1 -2q-2 -4 -4 -7q-6 -12 -14 -24q-24 -40 -54 -73q-40 -45 -84 -72l-16 26q40 24 78 66q27 31 51 69q7 11 13 22q2 3 3 6q1 1 1 2z" />
    <glyph glyph-name="uni3000" unicode="&#x3000;" horiz-adv-x="1000" 
 />
    <glyph glyph-name="uniF8FE" unicode="&#xf8fe;" horiz-adv-x="300" 
 />
  </font>
</defs>
</svg>
