<svg xmlns="http://www.w3.org/2000/svg">
<defs>
<font id="ShmulikCLM" horiz-adv-x="0" >
  <font-face 
    font-family="Shmulik CLM"
    font-weight="400"
    font-stretch="normal"
    units-per-em="2048"
    panose-1="2 0 6 3 0 0 0 0 0 0"
    ascent="1638"
    descent="-410"
    bbox="-365.923 -603.691 2267.6 1712"
    underline-thickness="184"
    underline-position="-1228"
    unicode-range="U+0020-U+FB4F"
  />
<missing-glyph horiz-adv-x="814" 
d="M280 200c0 20 7.33301 38.832 22 56.499s29 26.5 43 26.5h9c15.333 0 27.833 -5.66699 37.5 -17s14.5 -24.666 14.5 -39.999c0 -21.333 -7.83301 -40.5 -23.5 -57.5s-32.5 -25.5 -50.5 -25.5c-12.667 0 -24.5 5 -35.5 15s-16.5 24 -16.5 42zM323 776.999
c-18.667 0 -34.8311 -2.16699 -48.498 -6.5s-23.334 -9.33301 -29.001 -15s-11 -10.667 -16 -15s-9.5 -6.5 -13.5 -6.5c-6.66699 0 -13.167 1.83301 -19.5 5.5s-9.5 7.83398 -9.5 12.501c0 2 1.66699 5.33301 5 10l8 10c27.333 32.667 54 57.167 80 73.5
s58.667 24.5 98 24.5c59.333 0 110.666 -17.833 153.999 -53.5s65 -82.834 65 -141.501c0 -32.667 -6.83301 -63.667 -20.5 -93s-28.834 -52.833 -45.501 -70.5l-58 -60.5c-22 -22.667 -38 -41.667 -48 -57l-9 -14c-2 -4 -5.33301 -6 -10 -6
c-0.666992 0 -7.16699 -0.666992 -19.5 -2s-22.5 -2 -30.5 -2c-20 0 -30 2.66699 -30 8c0 3.33301 2.66699 9.33301 8 18c8.66699 16 21 33.333 37 52s30.333 34.334 43 47.001s23.834 27.667 33.501 45s14.5 34.666 14.5 51.999c0 54 -13.5 98.333 -40.5 133
s-59.833 52 -98.5 52zM92.0029 965.999v-900h630v900h-630zM20.0029 1044h774v-1044h-774v1044z" />
    <glyph glyph-name=".notdef" horiz-adv-x="814" 
d="M280 200c0 20 7.33301 38.832 22 56.499s29 26.5 43 26.5h9c15.333 0 27.833 -5.66699 37.5 -17s14.5 -24.666 14.5 -39.999c0 -21.333 -7.83301 -40.5 -23.5 -57.5s-32.5 -25.5 -50.5 -25.5c-12.667 0 -24.5 5 -35.5 15s-16.5 24 -16.5 42zM323 776.999
c-18.667 0 -34.8311 -2.16699 -48.498 -6.5s-23.334 -9.33301 -29.001 -15s-11 -10.667 -16 -15s-9.5 -6.5 -13.5 -6.5c-6.66699 0 -13.167 1.83301 -19.5 5.5s-9.5 7.83398 -9.5 12.501c0 2 1.66699 5.33301 5 10l8 10c27.333 32.667 54 57.167 80 73.5
s58.667 24.5 98 24.5c59.333 0 110.666 -17.833 153.999 -53.5s65 -82.834 65 -141.501c0 -32.667 -6.83301 -63.667 -20.5 -93s-28.834 -52.833 -45.501 -70.5l-58 -60.5c-22 -22.667 -38 -41.667 -48 -57l-9 -14c-2 -4 -5.33301 -6 -10 -6
c-0.666992 0 -7.16699 -0.666992 -19.5 -2s-22.5 -2 -30.5 -2c-20 0 -30 2.66699 -30 8c0 3.33301 2.66699 9.33301 8 18c8.66699 16 21 33.333 37 52s30.333 34.334 43 47.001s23.834 27.667 33.501 45s14.5 34.666 14.5 51.999c0 54 -13.5 98.333 -40.5 133
s-59.833 52 -98.5 52zM92.0029 965.999v-900h630v900h-630zM20.0029 1044h774v-1044h-774v1044z" />
    <glyph glyph-name="uni0000" horiz-adv-x="814" 
d="M344 685l-12 -24c-6.66699 -13.333 -11.667 -23.666 -15 -30.999s-7.5 -17 -12.5 -29s-8.66699 -22.5 -11 -31.5s-3.5 -17.167 -3.5 -24.5v-5c0 -42 13.333 -78.833 40 -110.5s57.334 -47.5 92.001 -47.5h5c22 0 41.5 10.167 58.5 30.5s25.5 38.833 25.5 55.5
c0 28 -0.833008 52 -2.5 72s-6.33398 42 -14.001 66s-18.167 43.5 -31.5 58.5s-32.5 27.667 -57.5 38s-54.833 15.5 -89.5 15.5l64 83c38 0 72 -7 102 -21s53.5 -32.333 70.5 -55s29.833 -46.667 38.5 -72s13 -51 13 -77c0 -60.667 -28.333 -122.5 -85 -185.5
s-114.334 -94.5 -173.001 -94.5c-35.333 0 -67.666 18.167 -96.999 54.5s-48.333 78.166 -57 125.499v8c0 24 7.33301 53 22 87s29.667 58.667 45 74zM92 966v-900h630v900h-630zM20 1044h774v-1044h-774v1044z" />
    <glyph glyph-name="uni0000" horiz-adv-x="814" 
d="M344 685l-12 -24c-6.66699 -13.333 -11.667 -23.666 -15 -30.999s-7.5 -17 -12.5 -29s-8.66699 -22.5 -11 -31.5s-3.5 -17.167 -3.5 -24.5v-5c0 -42 13.333 -78.833 40 -110.5s57.334 -47.5 92.001 -47.5h5c22 0 41.5 10.167 58.5 30.5s25.5 38.833 25.5 55.5
c0 28 -0.833008 52 -2.5 72s-6.33398 42 -14.001 66s-18.167 43.5 -31.5 58.5s-32.5 27.667 -57.5 38s-54.833 15.5 -89.5 15.5l64 83c38 0 72 -7 102 -21s53.5 -32.333 70.5 -55s29.833 -46.667 38.5 -72s13 -51 13 -77c0 -60.667 -28.333 -122.5 -85 -185.5
s-114.334 -94.5 -173.001 -94.5c-35.333 0 -67.666 18.167 -96.999 54.5s-48.333 78.166 -57 125.499v8c0 24 7.33301 53 22 87s29.667 58.667 45 74zM92 966v-900h630v900h-630zM20 1044h774v-1044h-774v1044z" />
    <glyph glyph-name="space" unicode=" " horiz-adv-x="650" 
 />
    <glyph glyph-name="exclam" unicode="!" horiz-adv-x="500" 
d="M139 1086c0 10 1.83496 22 5.50195 36s8.16699 23.667 13.5 29l162 162c7.33301 9.33301 16.666 14 27.999 14c5.33301 0 9.16602 -1.66699 11.499 -5s4.33301 -13.5 6 -30.5s2.5 -43.833 2.5 -80.5v-591c0 -20 -3.66699 -33.667 -11 -41l-168 -164
c-8 -10 -17.333 -15 -28 -15c-6 0 -10.167 1.5 -12.5 4.5s-4.5 13.167 -6.5 30.5s-3 44.333 -3 81v570zM139.002 96c0 44 12.167 80.998 36.5 110.998s54.5 45 90.5 45c24.667 0 48 -11.167 70 -33.5s33 -52.166 33 -89.499c0 -41.333 -11.5 -76.166 -34.5 -104.499
s-53.833 -42.5 -92.5 -42.5c-23.333 0 -46.333 10 -69 30s-34 48 -34 84z" />
    <glyph glyph-name="quotedbl" unicode="&#x22;" horiz-adv-x="693" 
d="M417 820c-4 0 -7.16797 1.83105 -9.50098 5.49805s-4.16602 14.167 -5.49902 31.5s-2 43.666 -2 78.999v252c0 4 0.833008 8.16699 2.5 12.5s3.5 7.66602 5.5 9.99902l8.5 9.5c3.66699 4 6.16699 6.66699 7.5 8l116 146c10 10 19.333 15 28 15
c4 0 6.66699 -0.666992 8 -2s2.83301 -5.66602 4.5 -12.999s2.66699 -18.666 3 -33.999s0.5 -37.666 0.5 -66.999v-253c0 -4 -0.833008 -8.16699 -2.5 -12.5s-3.33398 -7.66602 -5.00098 -9.99902s-4.5 -5.5 -8.5 -9.5s-6.33301 -6.66699 -7 -8l-116 -146
c-9.33301 -9.33301 -18.666 -14 -27.999 -14zM140.999 819.998c-4 0 -7.16895 1.83398 -9.50195 5.50098s-4.16602 14.167 -5.49902 31.5s-2 43.666 -2 78.999v252c0 4 0.833008 8.16699 2.5 12.5s3.5 7.66602 5.5 9.99902l8.5 9.5c3.66699 4 6.16699 6.66699 7.5 8l116 146
c10 10 19.333 15 28 15c3.33301 0 5.83301 -0.666992 7.5 -2s3.33398 -5.66602 5.00098 -12.999s2.66699 -18.833 3 -34.5s0.5 -37.834 0.5 -66.501v-253c0 -4 -0.833008 -8.16699 -2.5 -12.5s-3.5 -7.66602 -5.5 -9.99902l-8.5 -9.5c-3.66699 -4 -6.16699 -6.66699 -7.5 -8
l-116 -146c-9.33301 -9.33301 -18.333 -14 -27 -14z" />
    <glyph glyph-name="numbersign" unicode="#" horiz-adv-x="1370" 
d="M920 403l0.00292969 -154.999c0 -10.667 -6.33301 -23.667 -19 -39l-102 -140c-10 -10 -17.667 -15 -23 -15h-3c-3.33301 0 -5.83301 1.83301 -7.5 5.5s-3 13.834 -4 30.501s-1.5 42.334 -1.5 77.001v236h-183v-166c0 -14 -6 -27 -18 -39l-103 -140
c-6 -9.33301 -13.667 -14 -23 -14h-3c-2.66699 0 -4.5 0.833008 -5.5 2.5s-2 6.33398 -3 14.001s-1.66699 18.667 -2 33s-0.5 35.166 -0.5 62.499v247h-253c-27.333 0 -48.666 0.166992 -63.999 0.5s-26.5 1.33301 -33.5 3s-11.167 3.16699 -12.5 4.5s-2 3.66602 -2 6.99902
c0 7.33301 5 15 15 23l139 104c13.333 10.667 26.333 16 39 16h172v205h-225c-29.333 0 -51 0.166992 -65 0.5s-25 1.16602 -33 2.49902s-12.5 2.66602 -13.5 3.99902s-1.5 4 -1.5 8c0 5.33301 5.33301 13.333 16 24l139 103c18 11.333 31 17 39 17h144v149
c0 12.667 5.33301 25.667 16 39l104 139c10.667 10.667 18.667 16 24 16c3.33301 0 5.66602 -0.666992 6.99902 -2s2.66602 -5.66602 3.99902 -12.999s2.16602 -18.5 2.49902 -33.5s0.5 -36.5 0.5 -64.5v-229h183v159c0 14 6 27 18 39l104 140
c7.33301 9.33301 15.333 14 24 14c3.33301 0 5.66602 -0.666992 6.99902 -2s2.66602 -5.5 3.99902 -12.5s2.16602 -18 2.49902 -33s0.5 -36.5 0.5 -64.5v-241h273c26.667 0 47.5 -0.166992 62.5 -0.5s26.167 -1 33.5 -2s11.833 -2.16699 13.5 -3.5s2.5 -3.33301 2.5 -6v-4
c0 -8 -4.66699 -15.667 -14 -23l-140 -104c-14 -10.667 -27 -16 -39 -16h-192v-205h245c27.333 0 48.333 -0.166992 63 -0.5s25.834 -1 33.501 -2s12.334 -2 14.001 -3s2.5 -2.83301 2.5 -5.5v-3c0 -8.66699 -5 -16.334 -15 -23.001l-140 -102
c-15.333 -12.667 -28.333 -19 -39 -19h-164zM760.003 561.001v205h-183v-205h183z" />
    <glyph glyph-name="dollar" unicode="$" horiz-adv-x="1123" 
d="M779 356c0 44 -13 81.668 -39 113.001s-62.333 50.333 -109 57v-339c50.667 13.333 88 31.666 112 54.999s36 61.333 36 114zM467 1172c-35.333 0 -67.166 -19.832 -95.499 -59.499s-42.5 -83.834 -42.5 -132.501c0 -37.333 12.667 -73.833 38 -109.5
s58.666 -53.5 99.999 -53.5v355zM467 589.002c-125.333 38 -201.334 62.333 -228.001 73c-76.667 30.667 -125 68.334 -145 113.001c-9.33301 20.667 -14 44.334 -14 71.001c0 46 8 89 24 129s35.667 74.167 59 102.5s53.5 55.833 90.5 82.5s71.333 48.167 103 64.5
s68.5 33.833 110.5 52.5v96c0 30 15.5 56.5 46.5 79.5s59.833 34.5 86.5 34.5c21.333 0 32 -7 32 -21v-144c12 0 27.167 1.16699 45.5 3.5s31.833 3.5 40.5 3.5c40.667 0 76.5 -3.16699 107.5 -9.5s54.5 -13.333 70.5 -21s29.833 -18 41.5 -31s18.834 -22.667 21.501 -29
s5.66699 -14.833 9 -25.5c0.666992 -2.66699 1.33398 -4.66699 2.00098 -6c2.66699 -9.33301 4 -16 4 -20l-195 -136c-19.333 0 -35.333 6.33301 -48 19l-13 16c-6.66699 8 -14 17.333 -22 28s-14 18.167 -18 22.5s-10 9.83301 -18 16.5s-17.667 13 -29 19v-380
c128.667 -37.333 237 -75.333 325 -114c20.667 -16.667 37.167 -31.334 49.5 -44.001s24 -30.334 35 -53.001s16.5 -47.334 16.5 -74.001c0 -45.333 -14.833 -92.833 -44.5 -142.5s-67.334 -95.167 -113.001 -136.5s-91.334 -78.166 -137.001 -110.499
s-89.5 -58.833 -131.5 -79.5v-114c0 -28 -14.333 -53 -43 -75s-56 -33 -82 -33s-39 5.33301 -39 16v163h-27h-94c-22 0 -48.167 3.5 -78.5 10.5s-61 17 -92 30s-57.167 30.833 -78.5 53.5s-32 47.667 -32 75l218 214c22 0 36.667 -8 44 -24l11 -28
c10 -28.667 20.5 -52 31.5 -70s22.5 -30.833 34.5 -38.5s22.333 -12.5 31 -14.5s19.334 -3 32.001 -3v389z" />
    <glyph glyph-name="percent" unicode="%" horiz-adv-x="1861" 
d="M1306 717c-3.33301 -3.33301 -11.666 -5.00098 -24.999 -5.00098c-23.333 0 -35 6.66699 -35 20c0 8 10 23 30 45c36.667 40.667 69.167 68.667 97.5 84s68.5 23 120.5 23c52.667 0 101.667 -19.167 147 -57.5s80.5 -85.833 105.5 -142.5s37.5 -113.667 37.5 -171
c0 -68 -22.667 -139.833 -68 -215.5s-103.333 -139.167 -174 -190.5s-139.334 -77 -206.001 -77c-62.667 0 -120.167 30.833 -172.5 92.5s-85.833 132.834 -100.5 213.501v17c0 119.333 71 222.333 213 309c19.333 12.667 30 13.334 32 2.00098s-1 -22.333 -9 -33
c-17.333 -34.667 -28.666 -62 -33.999 -82s-8 -46 -8 -78v-9c0 -76.667 20.167 -144.167 60.5 -202.5s89.5 -87.5 147.5 -87.5h10c36.667 0 67 18.167 91 54.5s36 69.833 36 100.5c0 51.333 -11.167 109.166 -33.5 173.499s-52.5 120.333 -90.5 168s-76 71.5 -114 71.5
c-6.66699 0 -14.834 -2 -24.501 -6s-17.5 -8 -23.5 -12zM323 1145c-4.66699 -4.66699 -13.999 -7 -27.999 -7c-23.333 0 -35 6.66699 -35 20c0 10 10.333 25.333 31 46c36.667 40 69.167 67.5 97.5 82.5s69.166 22.5 122.499 22.5c52.667 0 101.5 -19 146.5 -57
s79.667 -85.333 104 -142s36.5 -113.667 36.5 -171c0 -68 -22.667 -139.833 -68 -215.5s-103.333 -139.167 -174 -190.5s-139.334 -77 -206.001 -77c-63.333 0 -121 31.167 -173 93.5s-84.667 133.833 -98 214.5v14c0 120 70.667 223.333 212 310
c14.667 9.33301 24 12.166 28 8.49902s5.33301 -9.16699 4 -16.5s-4 -14.666 -8 -21.999c-18 -34.667 -30 -62.334 -36 -83.001s-9 -47 -9 -79v-9c0 -76 20.667 -143 62 -201s91 -87 149 -87h7c37.333 0 68.166 18.167 92.499 54.5s36.5 69.833 36.5 100.5
c0 51.333 -11.333 109 -34 173s-53.167 119.667 -91.5 167s-76.166 71 -113.499 71c-6.66699 0 -14.667 -1.66699 -24 -5s-16.666 -6.66602 -21.999 -9.99902zM1353 1285c17.333 0 32.334 -5.83203 45.001 -17.499s19 -25.834 19 -42.501
c0 -15.333 -4.33301 -29.333 -13 -42l-849 -1153c-12.667 -18 -30.667 -27 -54 -27c-17.333 0 -32 6 -44 18s-18 26.667 -18 44c0 16 4 29.333 12 40l850 1150c13.333 20 30.666 30 51.999 30z" />
    <glyph glyph-name="ampersand" unicode="&#x26;" horiz-adv-x="1475" 
d="M646 584c-121.333 0 -206 -11.832 -254 -35.499s-72 -68.834 -72 -135.501c0 -45.333 19.167 -86 57.5 -122s81.833 -62.167 130.5 -78.5s94.667 -24.5 138 -24.5h65c52 6 90.833 17.5 116.5 34.5s38.5 44.833 38.5 83.5v278h-220zM670 1236
c43.333 0 80.668 -2.66113 112.001 -7.99414s54.5 -11.333 69.5 -18s26.667 -14.834 35 -24.501s13.166 -17 14.499 -22s2 -10.167 2 -15.5v-15c-5.33301 -10.667 -18 -25.334 -38 -44.001l-70 -63l-54 -48c-20 0 -35.333 9.33301 -46 28l-12 18
c-20 28.667 -44 47.834 -72 57.501s-68.667 14.5 -122 14.5c-15.333 0 -31.833 -2.5 -49.5 -7.5s-36.167 -12.833 -55.5 -23.5s-35.166 -26.834 -47.499 -48.501s-18.5 -46.834 -18.5 -75.501c0 -10.667 1.16699 -21.834 3.5 -33.501s7 -26 14 -43s19.167 -32.667 36.5 -47
s38.666 -25.166 63.999 -32.499c34.667 -10 65.5 -16.167 92.5 -18.5s76.167 -3.5 147.5 -3.5h199v14l212 171c18 0 27 -9.33301 27 -28v-156h271c31.333 0 47 -8 47 -24l-148 -138c-34 -12 -69 -18 -105 -18h-76v-51c0 -40.667 -1.5 -73.834 -4.5 -99.501
s-10.167 -55.167 -21.5 -88.5s-29.666 -66.333 -54.999 -99s-58.666 -67.667 -99.999 -105c-65.333 -58 -128.833 -98.833 -190.5 -122.5s-125.834 -35.5 -192.501 -35.5c-37.333 0 -80.166 6.16699 -128.499 18.5s-96.833 30.333 -145.5 54s-89.667 56.334 -123 98.001
s-50 88.167 -50 139.5s16 98.333 48 141s78.667 85.334 140 128.001l30 22l-40 22c-14 8 -23.667 13.667 -29 17s-17 11.166 -35 23.499s-32 24.166 -42 35.499s-21.5 25.166 -34.5 41.499s-22.5 34.5 -28.5 54.5s-9 40.667 -9 62c0 31.333 9.5 63.166 28.5 95.499
s41 60.333 66 84s52 46 81 67s51.667 36.167 68 45.5s27.166 15.333 32.499 18l112 49c71.333 24.667 134.666 37 189.999 37z" />
    <glyph glyph-name="quotesingle" unicode="'" horiz-adv-x="417" 
d="M141 820c-4 0 -7.00195 1.66699 -9.00195 5s-3.83301 13.833 -5.5 31.5s-2.5 44.167 -2.5 79.5v252c0 5.33301 1.16699 10.166 3.5 14.499s6.33301 9.5 12 15.5l9.50098 10l116 146c9.33301 10 18.666 15 27.999 15c3.33301 0 5.83301 -0.666992 7.5 -2
s3.33398 -5.66602 5.00098 -12.999s2.66699 -18.833 3 -34.5s0.5 -37.834 0.5 -66.501v-253c0 -4 -0.833008 -8.16699 -2.5 -12.5s-3.5 -7.66602 -5.5 -9.99902l-8.5 -9.5c-3.66699 -4 -6.16699 -6.66699 -7.5 -8l-116 -146c-9.33301 -9.33301 -18.666 -14 -27.999 -14z" />
    <glyph glyph-name="parenleft" unicode="(" horiz-adv-x="564" 
d="M323 707c0 -80 5.16699 -154.003 15.5 -222.003s25.833 -129.667 46.5 -185s37.667 -96.666 51 -123.999s32 -62 56 -104c4 -7.33301 7 -12.666 9 -15.999c17.333 -23.333 26 -48.333 26 -75c-1.33301 0 -23.666 -25.167 -66.999 -75.5s-67 -75.5 -71 -75.5
c-30 0 -54.333 14 -73 42l-16 24c-74.667 118.667 -124.334 229.5 -149.001 332.5s-37 220.833 -37 353.5c0 142 10.667 260.333 32 355s58 193.667 110 297c21.333 50.667 54.5 94.667 99.5 132s82.167 56 111.5 56c18 0 27 -10.333 27 -31c0 -10 -3.66699 -26 -11 -48
l-33 -65c-45.333 -91.333 -77.833 -177.666 -97.5 -258.999s-29.5 -185.333 -29.5 -312z" />
    <glyph glyph-name="parenright" unicode=")" horiz-adv-x="576" 
d="M256 545c0 89.333 -7.00098 172.332 -21.001 248.999s-31 139.334 -51 188.001s-40.167 91.667 -60.5 129l-51.5 96c-14 26.667 -21 48 -21 64l139 151c30 0 54.333 -14 73 -42l15 -24c74.667 -118.667 124.334 -229.5 149.001 -332.5s37 -220.833 37 -353.5
c0 -142.667 -10.667 -262.5 -32 -359.5s-58 -197.167 -110 -300.5c-21.333 -50 -54 -92.5 -98 -127.5s-80.667 -52.5 -110 -52.5c-20 0 -30 10.333 -30 31c0 8 4 24 12 48l32 65c46 92 78.833 178.667 98.5 260s29.5 185 29.5 311z" />
    <glyph glyph-name="asterisk" unicode="*" horiz-adv-x="775" 
d="M260 698l-0.000976562 22.0029c0 18 17.833 32.833 53.5 44.5s71.5 17.5 107.5 17.5c34.667 0 52 -6 52 -18v-3l-17 -42c-18 -48 -27 -93 -27 -135l34 36.5c6.66699 7 17.334 15.667 32.001 26s30.667 19.166 48 26.499l20 9c2 1.33301 7 2 15 2
c24 0 49 -20.167 75 -60.5s39 -73.833 39 -100.5c0 -14.667 -5.66699 -22 -17 -22h-81c-25.333 0 -57.666 -5.33301 -96.999 -16c52.667 -24 96 -55.667 130 -95l15 -16c4 -8 6 -14.333 6 -19c0 -23.333 -17.333 -49.333 -52 -78s-64 -43 -88 -43
c-14.667 0 -23 5.66699 -25 17l-10 44c-8 28.667 -26 61 -54 97c0 -50.667 -14 -99.334 -42 -146.001l-13 -20c-6 -6.66699 -15.333 -10 -28 -10c-30 0 -66.667 11.333 -110 34s-65 41.667 -65 57c0 5.33301 2.33301 9 7 11l37 26c42 27.333 76 58 102 92
c-41.333 -7.33301 -67 -11 -77 -11c-30.667 0 -55.334 2 -74.001 6l-23 3c-20.667 6.66699 -31 29 -31 67c0 32.667 6.16699 66 18.5 100s24.166 51 35.499 51c2 -1.33301 3.66699 -2 5 -2l34 -28c42.667 -34.667 81.334 -57.334 116.001 -68.001
c-34 54.667 -51 102.667 -51 144z" />
    <glyph glyph-name="plus" unicode="+" horiz-adv-x="924" 
d="M392 445h-255.999c-15.333 0 -27.333 7.66699 -36 23s-13 33.333 -13 54c0 21.333 4.33301 39.666 13 54.999s20.667 23 36 23h256v259c0 15.333 7.5 27.333 22.5 36s33.167 13 54.5 13s39.666 -4.33301 54.999 -13s23 -20.667 23 -36v-259h258
c15.333 0 27.166 -7.66699 35.499 -23s12.5 -33.666 12.5 -54.999c0 -20.667 -4.16699 -38.667 -12.5 -54s-20.166 -23 -35.499 -23h-257v-253c0 -15.333 -7.83301 -27.5 -23.5 -36.5s-34.167 -13.5 -55.5 -13.5c-20.667 0 -38.667 4.5 -54 13.5s-23 21.167 -23 36.5v253z
" />
    <glyph glyph-name="comma" unicode="," horiz-adv-x="436" 
d="M109 -202c0 12.667 7.33301 26.333 22 41l129 146c10 10 20 15 30 15c4 -0 7 -0.666992 9 -2s3.83301 -5.83301 5.5 -13.5s2.66699 -19.334 3 -35.001s0.5 -37.834 0.5 -66.501v-166c0 -12 -7.33301 -25.333 -22 -40l-129 -146c-10 -10 -20 -15 -30 -15h-4
c-2.66699 0 -4.83398 0.833008 -6.50098 2.5s-3.16699 6.33398 -4.5 14.001s-2.16602 19.334 -2.49902 35.001s-0.5 37.167 -0.5 64.5v166z" />
    <glyph glyph-name="hyphen" unicode="-" horiz-adv-x="1056" 
d="M936 634c18 0 28.5 -5.66699 31.5 -17s-3.16699 -24 -18.5 -38l-155 -155c-1.33301 -0.666992 -4.83301 -3.33398 -10.5 -8.00098s-9.5 -7.66699 -11.5 -9s-5.66699 -2.83301 -11 -4.5s-11 -2.5 -17 -2.5h-619c-18 0 -28.5 5.83301 -31.5 17.5s3.16699 24.5 18.5 38.5
l154 155c0.666992 0.666992 4.16699 3.33398 10.5 8.00098s10.5 7.5 12.5 8.5s5.66699 2.33301 11 4s11 2.5 17 2.5h619z" />
    <glyph glyph-name="period" unicode="." horiz-adv-x="429" 
d="M83 -112c0 41.333 14.832 79.333 44.499 114s64.167 52 103.5 52c31.333 0 56.333 -11.333 75 -34s28 -49.667 28 -81c0 -43.333 -15.667 -81.5 -47 -114.5s-65.333 -49.5 -102 -49.5c-31.333 0 -56.166 10.833 -74.499 32.5s-27.5 48.5 -27.5 80.5z" />
    <glyph glyph-name="slash" unicode="/" horiz-adv-x="1055" 
d="M158 28c-25.333 0 -51.001 10.999 -77.001 32.999s-39 44.667 -39 68c0 12.667 3.66699 24.334 11 35.001l787 1124c12.667 17.333 29.667 26 51 26c26.667 0 52.834 -11 78.501 -33s38.5 -45.333 38.5 -70c0 -11.333 -3.66699 -22.333 -11 -33l-787 -1124
c-12.667 -17.333 -30 -26 -52 -26z" />
    <glyph glyph-name="zero" unicode="0" horiz-adv-x="1207" 
d="M465 974c-4 -8.66699 -14.334 -29.1699 -31.001 -61.5029s-29.5 -58.166 -38.5 -77.499s-19.5 -43.333 -31.5 -72s-21 -54.5 -27 -77.5s-9 -43.5 -9 -61.5v-13c0 -104.667 33.667 -196.667 101 -276s143.666 -119 228.999 -119h13c54.667 0 103.334 25.667 146.001 77
s64 97.666 64 138.999c0 48.667 -1 91.334 -3 128.001s-6.83301 77.834 -14.5 123.501s-18.167 85 -31.5 118s-32.166 66.333 -56.499 100s-53.333 61 -87 82s-75.5 38.167 -125.5 51.5s-106.667 20 -170 20l160 208c77.333 0 148 -11.667 212 -35s117.167 -54 159.5 -92
s78.166 -81.833 107.499 -131.5s50.333 -100 63 -151s19 -101.833 19 -152.5c0 -58 -12.5 -120.167 -37.5 -186.5s-59.5 -129.333 -103.5 -189s-92.833 -114.167 -146.5 -163.5s-112 -88.666 -175 -117.999s-123.5 -44 -181.5 -44c-59.333 0 -116.833 22.167 -172.5 66.5
s-101.667 100.5 -138 168.5s-61.166 139.667 -74.499 215v22c0 60 18.333 132 55 216s73.667 146 111 186z" />
    <glyph glyph-name="one" unicode="1" horiz-adv-x="570" 
d="M50 915c0 8 16.6689 27.5 50.002 58.5s80 72 140 123l134 116.5c3.33301 3.33301 6.16602 6 8.49902 8l6.5 5.5c2 1.66699 3.5 2.83398 4.5 3.50098s2.16699 1.16699 3.5 1.5s2.16602 0.5 2.49902 0.5h3h3.5c16 0 24 -10.667 24 -32v-1015
c0 -5.33301 -1.83301 -10.5 -5.5 -15.5s-8.66699 -10 -15 -15s-10.5 -8.5 -12.5 -10.5l-169 -164c-8 -10 -17 -15 -27 -15c-3.33301 0 -5.33301 0.666992 -6 2s-1 5.66602 -1 12.999v894v2v5v5.5c0 2.33301 -0.333008 4.33301 -1 6s-1.33398 3.5 -2.00098 5.5
s-1.66699 3.66699 -3 5s-3 2.33301 -5 3s-4.5 0.666992 -7.5 0s-6.16699 -1.66699 -9.5 -3l-56 -20h-3c-9.33301 0 -21.166 4.5 -35.499 13.5s-21.5 15.167 -21.5 18.5z" />
    <glyph glyph-name="two" unicode="2" horiz-adv-x="959" 
d="M39 62c0 8.66699 6.00098 18.998 18.001 30.998l12 17c20 25.333 53.667 57.833 101 97.5l142 119c47.333 39.667 94.166 82.5 140.499 128.5s84 95.833 113 149.5s43.5 106.5 43.5 158.5v21c0 38.667 -4.66699 72.167 -14 100.5s-21 50.166 -35 65.499
s-31.833 27.333 -53.5 36s-41.5 14.167 -59.5 16.5s-39 3.5 -63 3.5c-23.333 0 -47.166 -4.16699 -71.499 -12.5s-44.5 -17.666 -60.5 -27.999s-31.333 -19.666 -46 -27.999s-25.334 -12.5 -32.001 -12.5c-17.333 0 -33.333 7.83301 -48 23.5s-22 32.834 -22 51.501
c0 12 3.66699 22.667 11 32l14 18c24 39.333 74.167 81.5 150.5 126.5s149.833 67.5 220.5 67.5c47.333 0 90 -7 128 -21s69.333 -32.167 94 -54.5s45.167 -48.333 61.5 -78s28 -59.167 35 -88.5s10.5 -58.666 10.5 -87.999v-8c0 -46 -5.5 -87.333 -16.5 -124
s-30.167 -74.167 -57.5 -112.5s-55.333 -73.833 -84 -106.5l-123.5 -140c-53.667 -60.667 -103.167 -120.334 -148.5 -179.001h513l-161 -244h-540c-30 0 -66.167 7 -108.5 21s-63.5 27.667 -63.5 41z" />
    <glyph glyph-name="three" unicode="3" horiz-adv-x="831" 
d="M682 1006c0 -31.333 -6.16406 -61.335 -18.4971 -90.002s-27.333 -52.667 -45 -72s-35.334 -36.666 -53.001 -51.999l-45 -40c-12.333 -11.333 -18.5 -20.333 -18.5 -27c0 -4 2.16699 -7 6.5 -9s10.666 -3.83301 18.999 -5.5s12.833 -2.5 13.5 -2.5
c68.667 -16 121.334 -46.167 158.001 -90.5s55 -101.166 55 -170.499c0 -44.667 -8.83301 -86.667 -26.5 -126s-39 -72.333 -64 -99s-57.5 -53.167 -97.5 -79.5s-76.167 -47.333 -108.5 -63l-115.5 -56c-44.667 -21.667 -78.334 -38.834 -101.001 -51.501
c-19.333 -9.33301 -37.666 -14 -54.999 -14c-21.333 0 -32 6.66699 -32 20c0 20 17.333 38 52 54c98 56.667 166 100.334 204 131.001c74.667 59.333 112 115.333 112 168v21c0 26.667 -4.33301 50.834 -13 72.501s-21.5 39.834 -38.5 54.501s-35 27.167 -54 37.5
s-42 19 -69 26s-51.167 12.5 -72.5 16.5s-46.333 7.66699 -75 11c-23.333 0 -41.5 3.16699 -54.5 9.5s-19.5 14.166 -19.5 23.499c0 21.333 23 41 69 59c147.333 64.667 228.333 137.667 243 219v9c0 41.333 -19 78.166 -57 110.499s-80.667 48.5 -128 48.5
c-18 0 -52 -10.5 -102 -31.5s-77.333 -31.5 -82 -31.5c-16.667 0 -25 8 -25 24c0 20.667 12 41 36 61l30 24c20 16 33.5 26.5 40.5 31.5l41 29c20.333 14.333 37.166 24.666 50.499 30.999l49.5 22.5c19.667 8.66699 39 14.834 58 18.501s37.833 5.5 56.5 5.5
c77.333 0 142.666 -21.333 195.999 -64s80 -97 80 -163z" />
    <glyph glyph-name="four" unicode="4" horiz-adv-x="1153" 
d="M656 1134c0 -15.333 -11.835 -36.5029 -35.502 -63.5029s-52.334 -56.667 -86.001 -89l-101.5 -102c-34 -35.667 -62.833 -74.5 -86.5 -116.5s-35.5 -81.667 -35.5 -119c0 -20 8.5 -36.333 25.5 -49s41.833 -21.834 74.5 -27.501s64.5 -9.5 95.5 -11.5
s69.167 -3 114.5 -3v165c0 3.33301 0.5 6.83301 1.5 10.5s1.83301 6.5 2.5 8.5s2.16699 4.83301 4.5 8.5s4 6 5 7s3 3.33301 6 7s4.83301 5.83398 5.5 6.50098l129 174c10.667 12.667 20.667 19 30 19c4.66699 0 7.83398 -0.666992 9.50098 -2
s3.33398 -6.83301 5.00098 -16.5s2.66699 -23.5 3 -41.5s0.5 -44.667 0.5 -80v-264l255 61h5c14.667 0 22 -9.33301 22 -28c-2 -9.33301 -10 -23.666 -24 -42.999s-33.333 -44.166 -58 -74.499s-42 -52.5 -52 -66.5c-9.33301 -6.66699 -19 -12.167 -29 -16.5
s-21.333 -7.83301 -34 -10.5s-22.667 -4.66699 -30 -6s-18.166 -2.5 -32.499 -3.5s-23.5 -1.83301 -27.5 -2.5v-160c0 -4 -0.333008 -7.66699 -1 -11s-1.5 -6.16602 -2.5 -8.49902s-2.66699 -5.16602 -5 -8.49902l-5 -7c-1 -1.33301 -3 -3.5 -6 -6.5
s-4.83301 -5.16699 -5.5 -6.5l-128 -175c-10 -12 -20 -18 -30 -18h-4c-4.66699 0 -7.5 6.5 -8.5 19.5s-1.5 53.167 -1.5 120.5v243h-345c-28 0 -51.667 1 -71 3s-40 6.5 -62 13.5s-38.833 18.5 -50.5 34.5s-17.5 36.667 -17.5 62c0 44 15.833 97.833 47.5 161.5
s69 124.667 112 183s90 117.166 141 176.499s92.167 105.166 123.5 137.499l71 71.5c8.66699 6.66699 18 10 28 10c15.333 0 28.833 -6.66699 40.5 -20s17.5 -28.666 17.5 -45.999z" />
    <glyph glyph-name="five" unicode="5" horiz-adv-x="1013" 
d="M744 460c0 -49.333 -11.4971 -97.501 -34.4971 -144.501s-52.667 -88 -89 -123s-76.333 -67.5 -120 -97.5s-86.834 -54.5 -129.501 -73.5s-81 -33.667 -115 -44s-60.333 -15.5 -79 -15.5c-22 0 -39.167 3.5 -51.5 10.5s-18.5 16.167 -18.5 27.5
c0 19.333 18.333 37.333 55 54l45 23c8 4 25.167 13.167 51.5 27.5s46.166 26 59.499 35s30.666 21.5 51.999 37.5s37.5 30.5 48.5 43.5s20.833 27.667 29.5 44s13 32.166 13 47.499c0 30 -2.33301 57.5 -7 82.5s-10.334 46.5 -17.001 64.5s-16.667 35.333 -30 52
s-25.833 30.167 -37.5 40.5s-27.5 21.666 -47.5 33.999s-37.167 22.166 -51.5 29.499l-59.5 30l-62 32l-22 13c-49.333 26.667 -74 47.334 -74 62.001l329 489h560c18 0 28.5 -5.66699 31.5 -17s-3.16699 -24 -18.5 -38l-155 -155
c-1.33301 -1.33301 -4.83301 -4.16602 -10.5 -8.49902s-9.5 -7.16602 -11.5 -8.49902s-5.5 -2.83301 -10.5 -4.5s-10.5 -2.5 -16.5 -2.5h-296c-15.333 0 -35.666 -15 -60.999 -45s-38 -51.333 -38 -64c0 -16.667 12 -25 36 -25c42 -10.667 83.667 -28.667 125 -54
s79 -55.666 113 -90.999s61.5 -76.5 82.5 -123.5s31.5 -95.167 31.5 -144.5z" />
    <glyph glyph-name="six" unicode="6" horiz-adv-x="1058" 
d="M672 876c46 0 93.6719 -22.1631 143.005 -66.4961s89.166 -95.666 119.499 -153.999s45.5 -109.166 45.5 -152.499c0 -162.667 -47.167 -287.167 -141.5 -373.5s-220.5 -129.5 -378.5 -129.5c-96.667 0 -183.334 41.5 -260.001 124.5s-115 180.833 -115 293.5
c0 51.333 8.66699 104 26 158s40 104 68 150s59.833 91.333 95.5 136s72 85 109 121s72.833 68.833 107.5 98.5s65.167 54.667 91.5 75s46.5 35.5 60.5 45.5l13 9c13.333 7.33301 25.666 11 36.999 11c16.667 0 30.667 -6.33301 42 -19s17 -27.334 17 -44.001
c0 -22.667 -10 -39.667 -30 -51l-37 -25c-30 -19.333 -52.833 -34.5 -68.5 -45.5s-37.5 -27.333 -65.5 -49s-49.833 -40.834 -65.5 -57.501s-33.834 -37.834 -54.501 -63.501s-36.334 -50.834 -47.001 -75.501s-20 -53.167 -28 -85.5s-12 -65.833 -12 -100.5
c0 -36.667 7.5 -78.334 22.5 -125.001s35 -91.334 60 -134.001s56.5 -78.667 94.5 -108s77.333 -44 118 -44c28 0 51 9.33301 69 28s27 41 27 67c0 46.667 -9.16699 92 -27.5 136s-42.333 82.5 -72 115.5s-58 60.667 -85 83s-54.5 41.5 -82.5 57.5z" />
    <glyph glyph-name="seven" unicode="7" horiz-adv-x="901" 
d="M792 1220c19.333 0 35.6689 -5.33496 49.002 -16.002s20 -23.667 20 -39c0 -9.33301 -7 -25.333 -21 -48l-99.5 -164c-26.333 -44 -60.333 -104.333 -102 -181s-75.167 -143.167 -100.5 -199.5s-47.666 -116.166 -66.999 -179.499s-29 -117 -29 -161v-14
c-4.66699 -18.667 -36.334 -55 -95.001 -109s-110 -96.333 -154 -127c-30.667 0 -46 15.333 -46 46c0 28 11 62 33 102l421 856h-528c-18 0 -28.333 5.66699 -31 17s3.66602 24 18.999 38l155 155c1.33301 1.33301 3.16602 3 5.49902 5s4.16602 3.5 5.49902 4.5
s3 2.33301 5 4s3.83301 2.83398 5.5 3.50098s3.5 1.5 5.5 2.5s4.16699 1.83301 6.5 2.5s4.83301 1.16699 7.5 1.5s5.33398 0.5 8.00098 0.5h527z" />
    <glyph glyph-name="eight" unicode="8" horiz-adv-x="1033" 
d="M661 342c0 58 -24 110.332 -72 156.999s-100 77.334 -156 92.001c-56 -53.333 -84 -119 -84 -197c0 -56 10.5 -102 31.5 -138s55.167 -54 102.5 -54c38.667 0 78 15.167 118 45.5s60 61.833 60 94.5zM494 1030c-6 0 -14.167 -1.33398 -24.5 -4.00098
s-18.166 -4 -23.499 -4c-8 0 -14.833 2.33301 -20.5 7s-8.5 11 -8.5 19l296 186c49.333 0 97 -16.833 143 -50.5s69 -70.834 69 -111.501c0 -79.333 -89.667 -190 -269 -332l53 -19.5c13.333 -5 30.666 -12.333 51.999 -22s38.833 -18.667 52.5 -27s28.5 -19 44.5 -32
s28.667 -26.333 38 -40s17.166 -29.5 23.499 -47.5s9.5 -37.333 9.5 -58c0 -51.333 -13.167 -102 -39.5 -152s-61.166 -94.333 -104.499 -133s-91.666 -73 -144.999 -103s-108.333 -52.833 -165 -68.5s-110 -23.5 -160 -23.5c-70 0 -124.833 18.5 -164.5 55.5
s-59.5 86.5 -59.5 148.5c0 32.667 4 63.5 12 92.5s17.333 53.5 28 73.5s25.834 41.333 45.501 64s36.834 40.667 51.501 54l59.5 52.5c25 21.667 44.167 38.834 57.5 51.501c-30.667 11.333 -57.334 22.666 -80.001 33.999s-48.667 26.833 -78 46.5
s-52.166 42.834 -68.499 69.501s-24.5 56 -24.5 88c0 41.333 24 90.166 72 146.499s98.333 103.833 151 142.5s92 62.334 118 71.001c3.33301 0 13.166 -8.33301 29.499 -25s24.5 -28.667 24.5 -36c0 -2.66699 -0.666992 -4.33398 -2 -5.00098
c-36 -24 -67.5 -53.167 -94.5 -87.5s-40.5 -62.833 -40.5 -85.5c0 -45.333 22 -87.833 66 -127.5s95 -64.167 153 -73.5c5.33301 7.33301 14.666 18.833 27.999 34.5s23.666 28.334 30.999 38.001s14.333 20.834 21 33.501s10 24 10 34c0 32 -19.833 61 -59.5 87
s-75.5 39 -107.5 39z" />
    <glyph glyph-name="nine" unicode="9" horiz-adv-x="1082" 
d="M369 164l19.0059 13.001c5.33301 4 17.333 12.5 36 25.5l42.5 29.5c9.66699 6.66699 24.167 17.334 43.5 32.001s34.666 27 45.999 37l43 39c17.333 16 31.166 30.667 41.499 44s21.666 28.833 33.999 46.5s21.833 34.834 28.5 51.501s12.334 34.667 17.001 54
s7 38.666 7 57.999c0 68.667 -12 137.5 -36 206.5s-59.167 128 -105.5 177s-97.5 73.5 -153.5 73.5c-34 0 -58.833 -11.833 -74.5 -35.5s-23.5 -48.834 -23.5 -75.501c0 -36.667 8.33301 -78.5 25 -125.5s40.667 -89.167 72 -126.5s64.333 -56 99 -56c16 0 39 6 69 18
l-19 -106l-44 -24.5c-20.667 -11.667 -36.834 -20.334 -48.501 -26.001s-26.834 -12.334 -45.501 -20.001s-37.334 -13.167 -56.001 -16.5s-38.334 -5 -59.001 -5c-38 0 -72.833 11 -104.5 33s-56.667 49.667 -75 83s-32.333 67.333 -42 102s-14.5 67 -14.5 97
c0 145.333 42.833 261 128.5 347s214.834 129 387.501 129c52.667 0 103 -13.5 151 -40.5s88.5 -61.667 121.5 -104s59.333 -90 79 -143s29.5 -105.5 29.5 -157.5c0 -62 -8.16699 -122.167 -24.5 -180.5s-36 -109.333 -59 -153s-52.5 -86.667 -88.5 -129
s-68.333 -76.5 -97 -102.5s-62.5 -52.667 -101.5 -80s-67.167 -46.166 -84.5 -56.499l-62 -35.5l-25 -13c-14.667 -4.66699 -35.834 -9 -63.501 -13s-47.5 -6 -59.5 -6z" />
    <glyph glyph-name="colon" unicode=":" horiz-adv-x="649" 
d="M528 356c18 0 28.668 -5.66992 32.001 -17.0029s-2.66699 -24 -18 -38l-155 -155c-1.33301 -1.33301 -4.16602 -3.66602 -8.49902 -6.99902s-7.5 -5.66602 -9.5 -6.99902s-4.83301 -3 -8.5 -5s-7.5 -3.33301 -11.5 -4s-8.33301 -1 -13 -1h-215
c-18 0 -28.333 5.83301 -31 17.5s3.66602 24.5 18.999 38.5l155 154c1.33301 1.33301 3.16602 3 5.49902 5s4.16602 3.5 5.49902 4.5s3 2.33301 5 4s3.83301 2.83398 5.5 3.50098s3.5 1.5 5.5 2.5s4.16699 1.83301 6.5 2.5s4.83301 1.16699 7.5 1.5s5.33398 0.5 8.00098 0.5
h215zM523.001 963.997c18 0 28.5029 -5.66699 31.5029 -17s-3.16699 -24 -18.5 -38l-155 -155c-2 -1.33301 -5 -3.66602 -9 -6.99902s-7 -5.66602 -9 -6.99902s-4.83301 -3 -8.5 -5s-7.33398 -3.33301 -11.001 -4s-7.83398 -1 -12.501 -1h-215c-18 0 -28.667 5.66699 -32 17
s2.66699 24 18 38l155 155c1.33301 1.33301 4.16602 3.66602 8.49902 6.99902s7.5 5.66602 9.5 6.99902s4.83301 3 8.5 5s7.5 3.33301 11.5 4s8.33301 1 13 1h215z" />
    <glyph glyph-name="semicolon" unicode=";" horiz-adv-x="428" 
d="M113 -178c0 12.667 7.33203 26.332 21.999 40.999l129 145c10 10 20 15 30 15c4 0 7 -0.666992 9 -2s3.83301 -5.83301 5.5 -13.5s2.66699 -19.167 3 -34.5s0.5 -37.333 0.5 -66v-166c0 -12 -7.33301 -25.333 -22 -40l-129 -146c-10 -10 -20 -15 -30 -15h-3
c-3.33301 0 -5.66602 0.833008 -6.99902 2.5s-2.83301 6.33398 -4.5 14.001s-2.66699 19.167 -3 34.5s-0.5 37 -0.5 65v166zM89.999 275.998c0 44 14.667 81.167 44 111.5s61.333 45.5 96 45.5c29.333 0 52.833 -10.333 70.5 -31s26.5 -46 26.5 -76
c0 -44.667 -14.5 -82 -43.5 -112s-61.167 -45 -96.5 -45c-30 0 -53.667 10 -71 30s-26 45.667 -26 77z" />
    <glyph glyph-name="less" unicode="&#x3c;" horiz-adv-x="1099" 
d="M304 460l667.998 -289.001c12 -4 21.167 -16.833 27.5 -38.5s9.5 -45.167 9.5 -70.5c0 -20 -2.5 -37.333 -7.5 -52s-11.833 -22 -20.5 -22c-0.666992 0 -2.16699 1 -4.5 3s-3.83301 3 -4.5 3l-874 378c-17.333 8.66699 -26 36.334 -26 83.001c0 53.333 10 84.333 30 93
l874 382c0.666992 0 1.83398 0.333008 3.50098 1s2.83398 1 3.50098 1c20 0 30 -24.333 30 -73c0 -24.667 -3.33301 -48 -10 -70s-15.667 -35 -27 -39z" />
    <glyph glyph-name="equal" unicode="=" horiz-adv-x="1220" 
d="M187 175c-19.333 0 -34.666 10 -45.999 30s-17 43.333 -17 70c0 27.333 5.66699 51.166 17 71.499s26.666 30.5 45.999 30.5h868c20 0 35.333 -10.167 46 -30.5s16 -44.166 16 -71.499s-5.33301 -50.833 -16 -70.5s-26 -29.5 -46 -29.5h-868zM181 543
c-18.667 0 -33.667 10.167 -45 30.5s-17 43.833 -17 70.5s5.5 50 16.5 70s26.167 30 45.5 30h869c20 0 35.333 -9.83301 46 -29.5s16 -43.167 16 -70.5c0 -26.667 -5.33301 -50.167 -16 -70.5s-26 -30.5 -46 -30.5h-869z" />
    <glyph glyph-name="greater" unicode="&#x3e;" horiz-adv-x="1095" 
d="M795 460l-672 290c-11.333 4 -20.333 17 -27 39s-10 45.333 -10 70c0 48.667 9.33301 73 28 73c0.666992 0 2.16699 -0.333008 4.5 -1s3.83301 -1 4.5 -1l872 -382c10 -4 17.833 -15.167 23.5 -33.5s8.5 -38.166 8.5 -59.499c0 -46.667 -8.66699 -74.334 -26 -83.001
l-874 -378c-0.666992 0 -2.16699 -1 -4.5 -3s-3.83301 -3 -4.5 -3c-8.66699 0 -15.5 7.33301 -20.5 22s-7.5 32 -7.5 52c0 25.333 3.16699 48.833 9.5 70.5s15.5 34.5 27.5 38.5z" />
    <glyph glyph-name="question" unicode="?" horiz-adv-x="940" 
d="M225 -6c0 40 14.833 78.167 44.5 114.5s58.167 54.5 85.5 54.5c6 0 12 -1 18 -3c31.333 0 56.333 -11.333 75 -34s28 -49.667 28 -81c0 -43.333 -15.5 -81.666 -46.5 -114.999s-64.833 -50 -101.5 -50c-26 0 -49.667 9.66699 -71 29s-32 47.666 -32 84.999zM311 1148
c-37.333 0 -69.5 -4.5 -96.5 -13.5s-46.167 -18.833 -57.5 -29.5l-32.5 -29.5c-10.333 -9 -19.833 -13.5 -28.5 -13.5c-13.333 0 -26.166 3.5 -38.499 10.5s-18.5 15.5 -18.5 25.5c0 5.33301 3.33301 12 10 20l16 20c27.333 31.333 51.333 57 72 77s45.5 40 74.5 60
s60.667 34.833 95 44.5s72.166 14.5 113.499 14.5c76.667 0 148 -15.167 214 -45.5s120 -75.666 162 -135.999s63 -129.833 63 -208.5c0 -53.333 -8.33301 -103.666 -25 -150.999s-39 -89.333 -67 -126s-56.5 -69.834 -85.5 -99.501l-92 -95.5
c-32.333 -34 -57.166 -64.333 -74.499 -91l-17 -26c-6 -9.33301 -12.667 -14 -20 -14c-2 0 -15.5 -1.16699 -40.5 -3.5s-45.5 -3.5 -61.5 -3.5c-38.667 0 -58 5.66699 -58 17c0 4 4.66699 15.333 14 34c14.667 27.333 34 55.666 58 84.999s46.833 55.333 68.5 78
s42.667 46.167 63 70.5s36.666 49.833 48.999 76.5s18.5 54 18.5 82c0 108.667 -27 197.667 -81 267s-119.667 104 -197 104z" />
    <glyph glyph-name="at" unicode="@" horiz-adv-x="1563" 
d="M589 607c0 -46.667 13.001 -86 39.001 -118s61 -48 105 -48c60.667 0 111 29.5 151 88.5s60 122.833 60 191.5c0 45.333 -12 82.833 -36 112.5s-55.333 44.5 -94 44.5c-62.667 0 -115.834 -26.833 -159.501 -80.5s-65.5 -117.167 -65.5 -190.5zM834.001 139
c63.333 0 118.828 5.33008 166.495 15.9971s84.667 23.5 111 38.5s49.5 30.167 69.5 45.5s40.167 28.333 60.5 39s41.833 16 64.5 16c20 0 36.667 -3.83301 50 -11.5s20 -16.834 20 -27.501c0 -6 -1.33301 -10.333 -4 -13l-29 -35c-49.333 -58 -119 -108.833 -209 -152.5
s-193.667 -65.5 -311 -65.5c-205.333 0 -377.333 65.667 -516 197c-138 131.333 -207 295 -207 491c0 126.667 32.333 242.667 97 348s151.834 188 261.501 248s228.834 90 357.501 90c89.333 0 173.166 -11.5 251.499 -34.5s148 -56.5 209 -100.5s109.167 -101 144.5 -171
s53 -148.667 53 -236c0 -179.333 -53.333 -316 -160 -410c-105.333 -92.667 -213.666 -139 -324.999 -139c-26.667 0 -50.5 7.5 -71.5 22.5s-31.5 39.833 -31.5 74.5c-24 -25.333 -53.5 -47.833 -88.5 -67.5s-70.5 -29.5 -106.5 -29.5c-78 0 -144.667 30.333 -200 91
s-83 134 -83 220c0 84.667 17.333 162.834 52 234.501s81.834 128.334 141.501 170.001s124.834 62.5 195.501 62.5c94.667 0 165 -40.667 211 -122l19 53c14.667 37.333 42 56 82 56c18.667 0 34.667 -4.33301 48 -13s20 -20 20 -34v-9l-122 -505c0 -29.333 16 -44 48 -44
c24 0 48.667 7.16699 74 21.5s49 34.666 71 60.999s40.167 61.333 54.5 105s21.5 91.5 21.5 143.5c0 142.667 -46.167 253.334 -138.5 332.001s-216.166 118 -371.499 118c-114 0 -212.5 -24.5 -295.5 -73.5s-144.833 -113.667 -185.5 -194s-61 -171.166 -61 -272.499
c0 -161.333 50.5 -290.666 151.5 -387.999s237.833 -146 410.5 -146z" />
    <glyph glyph-name="bracketleft" unicode="[" horiz-adv-x="608" 
d="M530 -210l-315.002 0.000976562c-18 0 -32.667 5.16699 -44 15.5s-17 23.166 -17 38.499v1426c0 16 5.33301 29.833 16 41.5s22.667 17.5 36 17.5h324c10.667 0 18.834 -5.33301 24.501 -16s8.5 -23.667 8.5 -39c0 -16 -3 -29.833 -9 -41.5s-14 -17.5 -24 -17.5h-158
v-1313h158c10.667 0 18.834 -5.16699 24.501 -15.5s8.5 -22.833 8.5 -37.5c0 -16 -3 -29.833 -9 -41.5s-14 -17.5 -24 -17.5z" />
    <glyph glyph-name="backslash" unicode="\" horiz-adv-x="1068" 
d="M52 1211c0 25.333 13 48.834 39 70.501s51.667 32.5 77 32.5c22 0 39.333 -8.66699 52 -26l787 -1124c7.33301 -10.667 11 -22.334 11 -35.001c0 -24 -13 -46.833 -39 -68.5s-52 -32.5 -78 -32.5c-21.333 0 -38.333 8.66699 -51 26l-787 1124
c-7.33301 10.667 -11 21.667 -11 33z" />
    <glyph glyph-name="bracketright" unicode="]" horiz-adv-x="613" 
d="M84 -210c-10 0 -18 5.83203 -24 17.499s-9 25.5 -9 41.5c0 14.667 2.83301 27.167 8.5 37.5s13.834 15.5 24.501 15.5h158v1313h-160c-9.33301 0 -16.833 5.83301 -22.5 17.5s-8.5 25.5 -8.5 41.5c0 36.667 10.333 55 31 55h327c13.333 0 25.166 -5.83301 35.499 -17.5
s15.5 -25.5 15.5 -41.5v-1426c0 -15.333 -5.66699 -28.166 -17 -38.499s-26 -15.5 -44 -15.5h-315z" />
    <glyph glyph-name="asciicircum" unicode="^" horiz-adv-x="861" 
d="M765 843c0 -0.666992 0.166992 -1.83203 0.5 -3.49902s0.5 -2.83398 0.5 -3.50098c0 -10 -7.33301 -17.667 -22 -23s-32.334 -8 -53.001 -8c-25.333 0 -48.5 3.33301 -69.5 10s-34.167 16 -39.5 28l-155 331l-155 -331c-5.33301 -12 -18.666 -21.333 -39.999 -28
s-44.333 -10 -69 -10c-48.667 0 -73 9.66699 -73 29v9l256 498c8.66699 20.667 34.667 31 78 31c48 0 77.333 -10.333 88 -31z" />
    <glyph glyph-name="underscore" unicode="_" horiz-adv-x="1383" 
d="M238 -487c-20 0 -35.833 5.83301 -47.5 17.5s-17.5 25.834 -17.5 42.501c0 17.333 5.83301 32.166 17.5 44.499s27.5 18.5 47.5 18.5h904c20.667 0 36.5 -6.16699 47.5 -18.5s16.5 -27.166 16.5 -44.499c0 -16.667 -5.5 -30.834 -16.5 -42.501s-26.833 -17.5 -47.5 -17.5
h-904z" />
    <glyph glyph-name="grave" unicode="`" horiz-adv-x="447" 
d="M311 757c-4 -18 -11.335 -27.001 -22.002 -27.001c-8.66699 0 -31 31 -67 93l-127 218c-6 10.667 -6 26.667 0 48l29 184c2 6.66699 4.83301 12.5 8.5 17.5s6.83398 8.33301 9.50098 10s5 2.5 7 2.5c6 0 27.333 -32 64 -96l127 -220
c2 -3.33301 3.33301 -7.16602 4 -11.499s0.833984 -7.83301 0.500977 -10.5s-1.33301 -7 -3 -13s-2.5 -9.66699 -2.5 -11z" />
    <glyph glyph-name="braceleft" unicode="{" horiz-adv-x="697" 
d="M544 -80h71.999c20 0 30 -21.333 30 -64c0 -20 -2.66699 -37 -8 -51s-12.666 -21 -21.999 -21h-150c-20.667 0 -43 4.66699 -67 14s-47.667 23.333 -71 42s-42.666 44.834 -57.999 78.501s-23 71.834 -23 114.501v276c0 50 -12.667 91 -38 123s-51.666 49.667 -78.999 53
h-22c-11.333 0 -20.333 7.5 -27 22.5s-10 32.5 -10 52.5c0 19.333 3.16699 36.166 9.5 50.499s15.5 21.5 27.5 21.5h22c27.333 3.33301 53.666 20.166 78.999 50.499s38 70.5 38 120.5v277c0 42.667 7.5 80.667 22.5 114s34 59.166 57 77.499s46.5 32 70.5 41
s47 13.5 69 13.5h147c10.667 0 19.167 -6.5 25.5 -19.5s9.5 -28.833 9.5 -47.5c0 -18 -3 -33.667 -9 -47s-14.667 -20 -26 -20h-69c-63.333 0 -95 -48 -95 -144v-265c0 -73.333 -18.333 -126.333 -55 -159c-34 -32 -72.667 -54 -116 -66
c53.333 -19.333 95.166 -46.666 125.499 -81.999s45.5 -84.333 45.5 -147v-265c0 -52 8.16699 -89 24.5 -111s39.833 -33 70.5 -33z" />
    <glyph glyph-name="bar" unicode="|" horiz-adv-x="496" 
d="M151 1189c0 14.667 7.66699 30.332 23 46.999l128 175c10.667 12.667 20.667 19 30 19c4 0 7 -0.833008 9 -2.5s3.83301 -7 5.5 -16s2.66699 -22.833 3 -41.5s0.5 -45.334 0.5 -80.001v-1149c0 -15.333 -7.33301 -31 -22 -47l-128 -175
c-10.667 -12.667 -20.667 -19 -30 -19h-4c-4 0 -6.83301 2.33301 -8.5 7s-3.16699 17.334 -4.5 38.001s-2 52.334 -2 95.001v1149z" />
    <glyph glyph-name="braceright" unicode="}" horiz-adv-x="686" 
d="M426 558c-114 32.667 -171.001 105.67 -171.001 219.003v6v265c0 96 -31.667 144 -95 144h-72c-22 0 -33 22.333 -33 67c0 18.667 2.83301 34.5 8.5 47.5s13.834 19.5 24.501 19.5h150c22 0 45 -4.5 69 -13.5s47.5 -22.667 70.5 -41s42 -44.166 57 -77.499
s22.5 -71.333 22.5 -114v-277c0 -50 12.667 -90.5 38 -121.5s51.333 -48.167 78 -51.5h20c12 0 21.5 -7 28.5 -21s10.5 -30.333 10.5 -49c0 -20 -3.5 -37.5 -10.5 -52.5s-16.5 -22.5 -28.5 -22.5h-20c-26.667 -3.33301 -52.667 -21 -78 -53s-38 -73 -38 -123v-276
c0 -42.667 -7.66699 -80.834 -23 -114.501s-34.666 -59.834 -57.999 -78.501s-47 -32.667 -71 -42s-46.333 -14 -67 -14h-150c-9.33301 0 -16.833 7.16699 -22.5 21.5s-8.5 31.166 -8.5 50.499c0 42.667 10.333 64 31 64h72c30.667 0 54.167 11 70.5 33s24.5 59 24.5 111
v265c0 62.667 15.167 111.667 45.5 147s72.166 62.666 125.499 81.999z" />
    <glyph glyph-name="asciitilde" unicode="~" horiz-adv-x="1033" 
d="M319 604c44.667 0 91.668 -10.333 141.001 -31s95.833 -41.167 139.5 -61.5s80.834 -30.5 111.501 -30.5c14 0 24.5 0.5 31.5 1.5s16.167 3.5 27.5 7.5s22.5 11.167 33.5 21.5s22.833 24.166 35.5 41.499l25 34c6 8.66699 12.333 13 19 13c12 0 23 -11.5 33 -34.5
s15 -47.167 15 -72.5c0 -16 -3 -30.667 -9 -44c-30 -54 -60.167 -89.667 -90.5 -107s-70.833 -26 -121.5 -26c-34.667 0 -71.5 6.5 -110.5 19.5s-72.833 27.167 -101.5 42.5s-59.834 29.5 -93.501 42.5s-62.834 19.5 -87.501 19.5c-16.667 0 -29.334 -0.833008 -38.001 -2.5
s-20.167 -8 -34.5 -19s-30.166 -27.833 -47.499 -50.5l-26 -33c-3.33301 -6 -7.33301 -9 -12 -9c-12 0 -24.333 11.667 -37 35s-19 47 -19 71c0 12.667 2.66699 25 8 37c30 54.667 59.667 90.834 89 108.501s69 26.5 119 26.5z" />
    <glyph glyph-name="cgj" unicode="&#x34f;" 
 />
    <glyph glyph-name="atnah" unicode="&#x591;" 
 />
    <glyph glyph-name="segolta" unicode="&#x592;" 
 />
    <glyph glyph-name="shalshelet" unicode="&#x593;" 
 />
    <glyph glyph-name="zaqefqatan" unicode="&#x594;" 
 />
    <glyph glyph-name="zaqefgadol" unicode="&#x595;" 
 />
    <glyph glyph-name="tipeha" unicode="&#x596;" 
 />
    <glyph glyph-name="revia" unicode="&#x597;" 
 />
    <glyph glyph-name="zarqa" unicode="&#x598;" 
 />
    <glyph glyph-name="pashta" unicode="&#x599;" 
 />
    <glyph glyph-name="yetiv" unicode="&#x59a;" 
 />
    <glyph glyph-name="tevir" unicode="&#x59b;" 
 />
    <glyph glyph-name="gereshaccent" unicode="&#x59c;" 
 />
    <glyph glyph-name="gereshmuqdam" unicode="&#x59d;" 
 />
    <glyph glyph-name="gershayimaccent" unicode="&#x59e;" 
 />
    <glyph glyph-name="qarneypara" unicode="&#x59f;" 
 />
    <glyph glyph-name="telishagedola" unicode="&#x5a0;" 
 />
    <glyph glyph-name="pazer" unicode="&#x5a1;" 
 />
    <glyph glyph-name="atnahhafukh" unicode="&#x5a2;" 
 />
    <glyph glyph-name="munah" unicode="&#x5a3;" 
 />
    <glyph glyph-name="mahapakh" unicode="&#x5a4;" 
 />
    <glyph glyph-name="merkha" unicode="&#x5a5;" 
 />
    <glyph glyph-name="merkhakefula" unicode="&#x5a6;" 
 />
    <glyph glyph-name="darga" unicode="&#x5a7;" 
 />
    <glyph glyph-name="qadma" unicode="&#x5a8;" 
 />
    <glyph glyph-name="telishaqetana" unicode="&#x5a9;" 
 />
    <glyph glyph-name="yerahbenyomo" unicode="&#x5aa;" 
 />
    <glyph glyph-name="ole" unicode="&#x5ab;" 
 />
    <glyph glyph-name="iluy" unicode="&#x5ac;" 
 />
    <glyph glyph-name="dehi" unicode="&#x5ad;" 
 />
    <glyph glyph-name="tsinor" unicode="&#x5ae;" 
 />
    <glyph glyph-name="masoracircle" unicode="&#x5af;" 
 />
    <glyph glyph-name="sheva" unicode="&#x5b0;" 
d="M70 -363c12 0 19.333 -1.66699 22 -5s1.66699 -11.333 -3 -24l-34 -90c-7.33301 -16 -17 -24 -29 -24h-110c-24 0 -30.667 9.66699 -20 29l38 89l5.5 13.5c1 2.33301 3.16699 4.83301 6.5 7.5s7.33301 4 12 4h112zM85 -148c12 0 19.333 -1.66699 22 -5
s1.66699 -11.333 -3 -24l-34 -90c-7.33301 -16 -17 -24 -29 -24h-110c-24 0 -30.667 9.66699 -20 29l38 89l5.5 13.5c1 2.33301 3.16699 4.83301 6.5 7.5s7.33301 4 12 4h19h93z" />
    <glyph glyph-name="hatafsegol" unicode="&#x5b1;" 
d="M327 -363c12 0 19.333 -1.66699 22 -5s1.66699 -11.333 -3 -24l-34 -90c-7.33301 -16 -17 -24 -29 -24h-111c-24 0 -30.667 9.66699 -20 29l39 89l5.5 13.5c1 2.33301 3.16699 4.83301 6.5 7.5s7.33301 4 12 4h112zM342 -148c12 0 19.333 -1.66699 22 -5
s1.66699 -11.333 -3 -24l-34 -90c-7.33301 -16 -17 -24 -29 -24h-111c-24 0 -30.667 9.66699 -20 29l39 89l5.5 13.5c1 2.33301 3.16699 4.83301 6.5 7.5s7.33301 4 12 4h20h92zM-79 -363c12 0 19.333 -1.66699 22 -5s1.66699 -11.333 -3 -24l-34 -90
c-7.33301 -16 -17 -24 -29 -24h-111c-24 0 -30.667 9.66699 -20 29l39 89l5.5 13.5c1 2.33301 3.16699 4.83301 6.5 7.5s7.33301 4 12 4h20h92zM-186 -148c12 0 19.333 -1.66699 22 -5s1.66699 -11 -3 -23l-34 -91c-7.33301 -16 -17 -24 -29 -24h-111
c-24 0 -30.667 10 -20 30l39 89c2.66699 6.66699 4.5 11 5.5 13s3.16699 4.33301 6.5 7s7.33301 4 12 4h20h92zM81 -148c12 0 19.333 -1.66699 22 -5s1.66699 -11.333 -3 -24l-34 -90c-7.33301 -16 -17 -24 -29 -24h-111c-24 0 -30.667 9.66699 -20 29l39 89l5.5 13.5
c1 2.33301 3.16699 4.83301 6.5 7.5s7.33301 4 12 4h20h92z" />
    <glyph glyph-name="hatafpatah" unicode="&#x5b2;" 
d="M327 -363c12 0 19.333 -1.66699 22 -5s1.66699 -11.333 -3 -24l-34 -90c-7.33301 -16 -17 -24 -29 -24h-111c-24 0 -30.667 9.66699 -20 29l39 89l5.5 13.5c1 2.33301 3.16699 4.83301 6.5 7.5s7.33301 4 12 4h112zM342 -148c12 0 19.333 -1.66699 22 -5
s1.66699 -11.333 -3 -24l-34 -90c-7.33301 -16 -17 -24 -29 -24h-111c-24 0 -30.667 9.66699 -20 29l39 89l5.5 13.5c1 2.33301 3.16699 4.83301 6.5 7.5s7.33301 4 12 4h20h92zM-341 -291c-24 0 -30.667 10 -20 30l39 89c2.66699 6.66699 4.5 11 5.5 13
s3.16699 4.33301 6.5 7s7.33301 4 12 4h379c12 0 19.333 -1.66699 22 -5s1.66699 -11.333 -3 -24l-34 -90c-7.33301 -16 -17 -24 -29 -24h-378z" />
    <glyph glyph-name="hatafqamats" unicode="&#x5b3;" 
d="M327 -363c12 0 19.333 -1.66699 22 -5s1.66699 -11.333 -3 -24l-34 -90c-7.33301 -16 -17 -24 -29 -24h-111c-24 0 -30.667 9.66699 -20 29l39 89l5.5 13.5c1 2.33301 3.16699 4.83301 6.5 7.5s7.33301 4 12 4h112zM342 -148c12 0 19.333 -1.66699 22 -5
s1.66699 -11.333 -3 -24l-34 -90c-7.33301 -16 -17 -24 -29 -24h-111c-24 0 -30.667 9.66699 -20 29l39 89l5.5 13.5c1 2.33301 3.16699 4.83301 6.5 7.5s7.33301 4 12 4h20h92zM-78 -291v-122c0 -7.33301 -3.33301 -15.333 -10 -24l-74 -74
c-6.66699 -8 -13.167 -11.333 -19.5 -10s-9.5 6.33301 -9.5 15v171c0 10 -8 19.833 -24 29.5s-32.333 14.5 -49 14.5h-77c-24 0 -30.667 10 -20 30l39 89c2.66699 6.66699 4.5 11 5.5 13s3.16699 4.33301 6.5 7s7.33301 4 12 4h379c12 0 19.333 -1.66699 22 -5
s1.66699 -11.333 -3 -24l-34 -90c-7.33301 -16 -17 -24 -29 -24h-115z" />
    <glyph glyph-name="hiriq" unicode="&#x5b4;" 
d="M78 -148c12 0 19.333 -1.66699 22 -5s1.66699 -11.333 -3 -24l-34 -90c-7.33301 -16 -17 -24 -29 -24h-110c-24 0 -30.667 9.66699 -20 29l38 89l5.5 13.5c1 2.33301 3.16699 4.83301 6.5 7.5s7.33301 4 12 4h20h92z" />
    <glyph glyph-name="tsere" unicode="&#x5b5;" 
d="M-56 -148c12 0 19.333 -1.66699 22 -5s1.66699 -11 -3 -23l-34 -91c-7.33301 -16 -17 -24 -29 -24h-110c-24 0 -30.667 10 -20 30l38 89c2.66699 6.66699 4.5 11 5.5 13s3.16699 4.33301 6.5 7s7.33301 4 12 4h20h92zM211 -148c12 0 19.333 -1.66699 22 -5
s1.66699 -11.333 -3 -24l-34 -90c-7.33301 -16 -17 -24 -29 -24h-110c-24 0 -30.667 9.66699 -20 29l38 89l5.5 13.5c1 2.33301 3.16699 4.83301 6.5 7.5s7.33301 4 12 4h20h92z" />
    <glyph glyph-name="segol" unicode="&#x5b6;" 
d="M51 -363c12 0 19.333 -1.66699 22 -5s1.66699 -11.333 -3 -24l-34 -90c-7.33301 -16 -17 -24 -29 -24h-110c-24 0 -30.667 9.66699 -20 29l38 89l5.5 13.5c1 2.33301 3.16699 4.83301 6.5 7.5s7.33301 4 12 4h20h92zM-56 -148c12 0 19.333 -1.66699 22 -5
s1.66699 -11 -3 -23l-34 -91c-7.33301 -16 -17 -24 -29 -24h-110c-24 0 -30.667 10 -20 30l38 89c2.66699 6.66699 4.5 11 5.5 13s3.16699 4.33301 6.5 7s7.33301 4 12 4h20h92zM211 -148c12 0 19.333 -1.66699 22 -5s1.66699 -11.333 -3 -24l-34 -90
c-7.33301 -16 -17 -24 -29 -24h-110c-24 0 -30.667 9.66699 -20 29l38 89l5.5 13.5c1 2.33301 3.16699 4.83301 6.5 7.5s7.33301 4 12 4h20h92z" />
    <glyph glyph-name="patah" unicode="&#x5b7;" 
d="M-210 -291c-24 0 -30.667 9.99902 -20 29.999l38 89c0.666992 1.33301 1.66699 3.5 3 6.5s2.33301 5 3 6l3 4.5c1.33301 2 2.66602 3.33301 3.99902 4s2.83301 1.33398 4.5 2.00098s3.83398 1 6.50098 1h379c12 0 19.333 -1.66699 22 -5s1.66699 -11.333 -3 -24l-34 -90
c-7.33301 -16 -17 -24 -29 -24h-377z" />
    <glyph glyph-name="qamats" unicode="&#x5b8;" 
d="M52 -291v-122.001c0 -7.33301 -3.33301 -15.333 -10 -24l-74 -74c-6.66699 -8 -13.167 -11.167 -19.5 -9.5s-9.5 6.83398 -9.5 15.501v170c0 10 -8 19.833 -24 29.5s-32.333 14.5 -49 14.5h-76c-24 0 -30.667 10 -20 30l38 89c2.66699 6.66699 4.5 11 5.5 13
s3.16699 4.33301 6.5 7s7.33301 4 12 4h379c12 0 19.333 -1.66699 22 -5s1.66699 -11.333 -3 -24l-34 -90c-7.33301 -16 -17 -24 -29 -24h-115z" />
    <glyph glyph-name="holam" unicode="&#x5b9;" 
d="M78 1422c12 0 19.333 -1.66699 22 -5s1.66699 -11.333 -3 -24l-34 -90c-7.33301 -16 -17 -24 -29 -24h-111c-24 0 -30.667 9.66699 -20 29l39 89l5.5 13.5c1 2.33301 3.16699 4.83301 6.5 7.5s7.33301 4 12 4h20h92z" />
    <glyph glyph-name="holamhaser" unicode="&#x5ba;" 
d="M78 1422c12 0 19.333 -1.66699 22 -5s1.66699 -11.333 -3 -24l-34 -90c-7.33301 -16 -17 -24 -29 -24h-111c-24 0 -30.667 9.66699 -20 29l39 89l5.5 13.5c1 2.33301 3.16699 4.83301 6.5 7.5s7.33301 4 12 4h20h92z" />
    <glyph glyph-name="qubuts" unicode="&#x5bb;" 
d="M-99 -148c12 0 19.333 -1.66699 22 -5s1.66699 -11.333 -3 -24l-34 -90c-7.33301 -16 -17 -24 -29 -24h-110c-24 0 -30.667 9.66699 -20 29l38 89c0.666992 1.33301 1.5 3.33301 2.5 6s1.83301 4.5 2.5 5.5s1.5 2.5 2.5 4.5s2 3.33301 3 4s2.16699 1.5 3.5 2.5
s2.83301 1.66699 4.5 2s3.5 0.5 5.5 0.5h20h92zM254 -368c12 0 19.333 -1.66699 22 -5s1.66699 -11.333 -3 -24l-34 -90c-7.33301 -16 -17 -24 -29 -24h-110c-24 0 -30.667 9.66699 -20 29l38 89c0.666992 1.33301 1.5 3.33301 2.5 6s1.83301 4.5 2.5 5.5s1.5 2.5 2.5 4.5
s2 3.33301 3 4s2.16699 1.5 3.5 2.5s2.83301 1.66699 4.5 2s3.5 0.5 5.5 0.5h20h92zM82 -259c12 0 19.333 -1.66699 22 -5s1.66699 -11.333 -3 -24l-34 -90c-7.33301 -16 -17 -24 -29 -24h-110c-24 0 -30.667 9.66699 -20 29l38 89c0.666992 1.33301 1.5 3.33301 2.5 6
s1.83301 4.5 2.5 5.5s1.5 2.5 2.5 4.5s2 3.33301 3 4s2.16699 1.5 3.5 2.5s2.83301 1.66699 4.5 2s3.5 0.5 5.5 0.5h20h92z" />
    <glyph glyph-name="dagesh" unicode="&#x5bc;" 
d="M78 594c12 0 19.333 -1.66699 22 -5s1.66699 -11.333 -3 -24l-34 -90c-7.33301 -16 -17 -24 -29 -24h-111c-24 0 -30.667 9.66699 -20 29l39 89l5.5 13.5c1 2.33301 3.16699 4.83301 6.5 7.5s7.33301 4 12 4h20h92z" />
    <glyph glyph-name="meteg" unicode="&#x5bd;" 
d="M-61 -498l-0.00195312 251.998c0 4.66699 0.666992 8.33398 2 11.001s3.66602 6 6.99902 10s5.33301 6.66699 6 8l74 77c8.66699 9.33301 16.334 13 23.001 11s10 -8 10 -18v-253c0 -4 -0.666992 -7.5 -2 -10.5s-3.66602 -6.5 -6.99902 -10.5
s-5.66602 -6.66699 -6.99902 -8l-75 -77c-7.33301 -8.66699 -14.333 -12.167 -21 -10.5s-10 7.83398 -10 18.501z" />
    <glyph glyph-name="makaf" unicode="&#x5be;" horiz-adv-x="1058" 
d="M939 975c18 0 28.5 -5.66699 31.5 -17s-3.16699 -24 -18.5 -38l-155 -155c-1.33301 -0.666992 -4.83301 -3.33398 -10.5 -8.00098s-9.5 -7.66699 -11.5 -9s-5.66699 -2.83301 -11 -4.5s-11 -2.5 -17 -2.5h-619c-18 0 -28.5 5.83301 -31.5 17.5s3.16699 24.5 18.5 38.5
l154 155c0.666992 0.666992 4.16699 3.33398 10.5 8.00098s10.5 7.5 12.5 8.5s5.66699 2.33301 11 4s11 2.5 17 2.5h619z" />
    <glyph glyph-name="rafe" unicode="&#x5bf;" 
d="M-210 1193c-24 0 -30.667 9.99902 -20 29.999l38 89c0.666992 1.33301 1.66699 3.5 3 6.5s2.33301 5 3 6l3 4.5c1.33301 2 2.66602 3.33301 3.99902 4s2.83301 1.33398 4.5 2.00098s3.83398 1 6.50098 1h379c12 0 19.333 -1.66699 22 -5s1.66699 -11.333 -3 -24l-34 -90
c-7.33301 -16 -17 -24 -29 -24h-377z" />
    <glyph glyph-name="paseq" unicode="&#x5c0;" horiz-adv-x="460" 
d="M147 911c0 14 7.66602 29.999 22.999 47.999l128 175c10 12 20 18 30 18c4 0 7 -0.833008 9 -2.5s3.83301 -6.83398 5.5 -15.501s2.83398 -22.5 3.50098 -41.5s1 -45.833 1 -80.5v-875c0 -14.667 -7.66699 -31 -23 -49l-128 -174c-10.667 -12.667 -20.667 -19 -30 -19h-4
c-4 0 -6.83301 2.33301 -8.5 7s-3.16699 17.334 -4.5 38.001s-2 52.334 -2 95.001v876z" />
    <glyph glyph-name="shindot" unicode="&#x5c1;" 
d="M78 1422c12 0 19.333 -1.66699 22 -5s1.66699 -11.333 -3 -24l-34 -90c-7.33301 -16 -17 -24 -29 -24h-111c-24 0 -30.667 9.66699 -20 29l39 89l5.5 13.5c1 2.33301 3.16699 4.83301 6.5 7.5s7.33301 4 12 4h20h92z" />
    <glyph glyph-name="sindot" unicode="&#x5c2;" 
d="M78 1422c12 0 19.333 -1.66699 22 -5s1.66699 -11.333 -3 -24l-34 -90c-7.33301 -16 -17 -24 -29 -24h-111c-24 0 -30.667 9.66699 -20 29l39 89l5.5 13.5c1 2.33301 3.16699 4.83301 6.5 7.5s7.33301 4 12 4h20h92z" />
    <glyph glyph-name="sofpasuq" unicode="&#x5c3;" horiz-adv-x="652" 
d="M546 356c18 0 28.668 -5.66992 32.001 -17.0029s-2.66699 -24 -18 -38l-155 -155c-1.33301 -1.33301 -4.16602 -3.66602 -8.49902 -6.99902s-7.5 -5.66602 -9.5 -6.99902s-4.83301 -3 -8.5 -5s-7.5 -3.33301 -11.5 -4s-8.33301 -1 -13 -1h-215
c-18 0 -28.333 5.83301 -31 17.5s3.66602 24.5 18.999 38.5l155 154c1.33301 1.33301 3.16602 3 5.49902 5s4.16602 3.5 5.49902 4.5s3 2.33301 5 4s3.83301 2.83398 5.5 3.50098s3.5 1.5 5.5 2.5s4.16699 1.83301 6.5 2.5s4.83301 1.16699 7.5 1.5s5.33398 0.5 8.00098 0.5
h215zM541.001 963.997c18 0 28.5029 -5.66699 31.5029 -17s-3.16699 -24 -18.5 -38l-155 -155c-2 -1.33301 -5 -3.66602 -9 -6.99902s-7 -5.66602 -9 -6.99902s-4.83301 -3 -8.5 -5s-7.33398 -3.33301 -11.001 -4s-7.83398 -1 -12.501 -1h-215c-18 0 -28.667 5.66699 -32 17
s2.66699 24 18 38l155 155c1.33301 1.33301 4.16602 3.66602 8.49902 6.99902s7.5 5.66602 9.5 6.99902s4.83301 3 8.5 5s7.5 3.33301 11.5 4s8.33301 1 13 1h215z" />
    <glyph glyph-name="upperdot" unicode="&#x5c4;" 
 />
    <glyph glyph-name="lowerdot" unicode="&#x5c5;" 
 />
    <glyph glyph-name="nunhapukha" unicode="&#x5c6;" horiz-adv-x="765" 
d="M424 784l-52 -469.998c-2 -16 -3 -28.333 -3 -37c0 -14 2.66699 -23 8 -27s17 -7.33301 35 -10l120 -22c9.33301 -2 24.333 -12.667 45 -32l125 -179c12.667 -16.667 16.5 -30.334 11.5 -41.001s-16.167 -14.334 -33.5 -11.001c-2 0 -22.5 2.83301 -61.5 8.5
s-86.5 13.167 -142.5 22.5s-101.333 17.333 -136 24c-34 7.33301 -55.833 14.333 -65.5 21s-24.5 25 -44.5 55l-103 149c-10.667 15.333 -14.667 30 -12 44l73 471c2.66699 18.667 4 30 4 34c0 12.667 -4 20.5 -12 23.5s-25 4.5 -51 4.5c-18 0 -28.5 5.83301 -31.5 17.5
s3.16699 24.5 18.5 38.5l154 155c0.666992 0.666992 4.16699 3.33398 10.5 8.00098s10.5 7.5 12.5 8.5s5.66699 2.33301 11 4s11 2.5 17 2.5h328c18 0 28.5 -5.66699 31.5 -17s-3.16699 -24 -18.5 -38l-155 -155c-1.33301 -0.666992 -4.83301 -3.33398 -10.5 -8.00098
s-9.5 -7.66699 -11.5 -9s-5.66699 -2.83301 -11 -4.5s-11 -2.5 -17 -2.5c-14 0 -23 -1.66699 -27 -5s-6 -11 -6 -23z" />
    <glyph glyph-name="qamatsqatan" unicode="&#x5c7;" 
d="M42 -263v-169c0 -2.66699 -3.66699 -9 -11 -19l-59 -59c-5.33301 -6 -10 -8.5 -14 -7.5s-6 5.16699 -6 12.5v207c0 8 -6.5 15.833 -19.5 23.5s-26.167 11.5 -39.5 11.5h-61c-20 0 -25.333 8.33301 -16 25l31 71c5.33301 11.333 10 17.333 14 18c1.33301 0.666992 3 1 5 1
h303c10 0 16 -1.33301 18 -4s1 -9 -3 -19l-27 -72c-6 -13.333 -13.667 -20 -23 -20h-92z" />
    <glyph glyph-name="alef" unicode="&#x5d0;" horiz-adv-x="1559" 
d="M1058 780c0 -20 -7.49707 -51.8369 -22.4971 -95.5039s-32.5 -81.834 -52.5 -114.501c-4 -6.66699 -8.83301 -14 -14.5 -22s-9.66699 -14 -12 -18s-3.5 -7.66699 -3.5 -11c0 -6.66699 5.66699 -15.667 17 -27l362 -361c0 -15.333 -5.33301 -28.333 -16 -39l-166 -163
c-9.33301 -6.66699 -16.166 -9.16699 -20.499 -7.5s-12.833 8.83398 -25.5 21.501l-6 6l-533 537c-26 24.667 -44.667 37 -56 37c-13.333 0 -30.333 -17.667 -51 -53l-356 -596c-6 -10 -11.5 -15.167 -16.5 -15.5s-11.167 2.5 -18.5 8.5l-32 25
c-7.33301 8.66699 -8 18 -2 28c188.667 360 283 615.667 283 767c0 34 -6 58 -18 72l-95 113c0 16.667 7.66699 32.667 23 48l155 157c17.333 18 31.666 27 42.999 27c8.66699 0 16.667 -4.83301 24 -14.5s13.666 -21 18.999 -34s12.833 -28.167 22.5 -45.5
s19.834 -31.333 30.501 -42l293 -296c5.33301 -4.66699 11 -10.167 17 -16.5l13.5 -14.5c3 -3.33301 6.16699 -6.16602 9.5 -8.49902s6.33301 -3.5 9 -3.5c7.33301 0 18 11.333 32 34c16 26 29.167 59.5 39.5 100.5s15.5 80.833 15.5 119.5
c-1.33301 0.666992 -3.66602 2.33398 -6.99902 5.00098s-5.5 4.33398 -6.5 5.00098s-2.83301 2.16699 -5.5 4.5s-4.16699 3.83301 -4.5 4.5s-1.16602 2.16699 -2.49902 4.5s-2 4.16602 -2 5.49902s0.166992 3 0.5 5s1.16602 4 2.49902 6s3 4.33301 5 7
s4.33301 5.33398 7 8.00098l157 153c4 4.66699 6.66699 7.66699 8 9s3.83301 3.5 7.5 6.5s6.66699 5 9 6s5.66602 2 9.99902 3s8.83301 1.5 13.5 1.5l309 -203l9.5 -6.5c4.33301 -3 7.16602 -5 8.49902 -6l6.5 -5c3 -2.33301 4.83301 -4.16602 5.5 -5.49902
s1.5 -3.33301 2.5 -6s1.16699 -5 0.5 -7s-1.83398 -4.33301 -3.50098 -7s-3.83398 -5.33398 -6.50098 -8.00098l-167 -166c-9.33301 -11.333 -22.333 -17 -39 -17l-182 125c-18 12.667 -27 4.33398 -27 -24.999z" />
    <glyph glyph-name="bet" unicode="&#x5d1;" horiz-adv-x="1301" 
d="M434 1050l548.999 -0.00195312c30.667 0 53.167 -9 67.5 -27s21.5 -49.667 21.5 -95v-524c0 -32.667 2.83301 -55.167 8.5 -67.5s17.5 -18.5 35.5 -18.5c4 0 14.667 1.33301 32 4l94 18c17.333 3.33301 29.166 0.166016 35.499 -9.50098s4.16602 -22.5 -6.50098 -38.5
l-132 -195c-6 -10.667 -18 -18 -36 -22l-1036 -186c-16.667 -2.66699 -27.5 1 -32.5 11s-1.5 23.667 10.5 41l128 179c1.33301 1.33301 3.5 4 6.5 8s5.33301 6.83301 7 8.5s4.16699 3.83398 7.5 6.50098s6.66602 4.83398 9.99902 6.50098s7.33301 2.83398 12 3.50098l546 99
c38 8.66699 62.5 21.167 73.5 37.5s16.5 43.833 16.5 82.5v348c0 20.667 -0.666992 35.5 -2 44.5s-5.16602 18 -11.499 27s-16.166 14.833 -29.499 17.5s-32 4 -56 4h-539c-40.667 14.667 -61 47.667 -61 99l255 268c4.66699 6 13.334 9 26.001 9
c5.33301 0 9.33301 -1 12 -3s3.33398 -4.33301 2.00098 -7l-50 -103c-4 -13.333 -4.5 -21 -1.5 -23s12.167 -3 27.5 -3h10z" />
    <glyph glyph-name="gimel" unicode="&#x5d2;" horiz-adv-x="1173" 
d="M105 -58c-19.333 0 -37.6631 2.49805 -54.9961 7.49805s-26 11.167 -26 18.5c0 3.33301 3 7 9 11c106 68.667 207.667 144.167 305 226.5s166.666 160.833 207.999 235.5c10.667 18.667 16 34.667 16 48c0 14.667 -8 35 -24 61l-256 412c-9.33301 15.333 -3 34 19 56
l155 155c6.66699 7.33301 13 12 19 14s11.5 0.833008 16.5 -3.5s8.5 -7.66602 10.5 -9.99902s5 -6.5 9 -12.5l639 -1027c0 -14.667 -5.66699 -27.667 -17 -39l-167 -164c-5.33301 -6 -10.333 -9.83301 -15 -11.5s-8.83398 -1 -12.501 2l-9 7.5
c-2.33301 2 -5.16602 6.16699 -8.49902 12.5s-5.33301 9.83301 -6 10.5l-202 321c-16 26 -30.333 39 -43 39c-2 0 -4 -0.166992 -6 -0.5s-4.16699 -1.16602 -6.5 -2.49902s-4.33301 -2.33301 -6 -3s-4 -2.16699 -7 -4.5l-7 -5.5
c-1.66699 -1.33301 -4.33398 -3.66602 -8.00098 -6.99902s-6.33398 -5.83301 -8.00098 -7.5s-4.83398 -4.66699 -9.50098 -9s-8 -7.5 -10 -9.5c-76 -72.667 -167.667 -144.334 -275 -215.001s-181.333 -106 -222 -106z" />
    <glyph glyph-name="dalet" unicode="&#x5d3;" horiz-adv-x="1295" 
d="M1085 1202l0.00292969 -98.002c0 -26.667 5.16699 -43.334 15.5 -50.001s30.166 -10 59.499 -10h79c18.667 0 30 -5 34 -15s-0.666992 -22.333 -14 -37l-120 -126c-26 -27.333 -41.5 -47.333 -46.5 -60s-7.5 -38.667 -7.5 -78v-578c0 -4 -1.33301 -8.16699 -4 -12.5
s-5.16699 -7.66602 -7.5 -9.99902s-6 -5.5 -11 -9.5s-8.16699 -6.66699 -9.5 -8l-165 -164c-14.667 -13.333 -24.5 -18 -29.5 -14s-7.5 15.333 -7.5 34v750c0 45.333 -4.5 72.333 -13.5 81s-33.833 13 -74.5 13h-588c-40 14.667 -60 47.667 -60 99l254 269
c5.33301 5.33301 13.333 8 24 8c5.33301 0 9.66602 -0.833008 12.999 -2.5s4.33301 -4.16699 3 -7.5l-49 -102c-2 -5.33301 -3.33301 -9.66602 -4 -12.999s-0.833984 -5.83301 -0.500977 -7.5s1.83301 -2.83398 4.5 -3.50098s5.16699 -1 7.5 -1s6.33301 0.166992 12 0.5
s10.5 0.5 14.5 0.5h394h7c33.333 0 55.833 2.5 67.5 7.5s30.5 20.5 56.5 46.5l110 112c14 14.667 26.833 20.334 38.5 17.001s17.5 -13.666 17.5 -30.999z" />
    <glyph glyph-name="he" unicode="&#x5d4;" horiz-adv-x="1449" 
d="M1239 1202l0.00195312 -98.001c0 -26.667 5.16699 -43.334 15.5 -50.001s30.166 -10 59.499 -10h79c18.667 0 30 -5 34 -15s-0.666992 -22.333 -14 -37l-120 -126c-26 -26.667 -41.5 -46.334 -46.5 -59.001s-7.5 -39 -7.5 -79v-562c0 -10 -9.33301 -23.333 -28 -40
l-165 -164c-27.333 -27.333 -41 -20.666 -41 20.001v734c0 45.333 -4.5 72.333 -13.5 81s-33.833 13 -74.5 13h-743c-40 14.667 -60 47.667 -60 99l254 269c5.33301 5.33301 13.666 8 24.999 8c5.33301 0 9.5 -0.833008 12.5 -2.5s3.83301 -4.16699 2.5 -7.5l-49 -102
c-2 -5.33301 -3.33301 -9.66602 -4 -12.999s-0.833984 -5.83301 -0.500977 -7.5s2 -2.83398 5 -3.50098s5.66699 -1 8 -1s6.33301 0.166992 12 0.5s10.5 0.5 14.5 0.5h549h7c32.667 0 54.834 2.5 66.501 7.5s30.5 20.5 56.5 46.5l110 112
c14 14.667 26.833 20.334 38.5 17.001s17.5 -13.666 17.5 -30.999zM191.002 -11.001v417.001c0 18 7.66699 34.667 23 50l156 156c14.667 14.667 27.5 20.5 38.5 17.5s16.5 -13.5 16.5 -31.5v-427c0 -5.33301 -2 -10.333 -6 -15s-9.33301 -9.5 -16 -14.5
s-10.667 -8.16699 -12 -9.5l-169 -165c-13.333 -13.333 -21.833 -17.833 -25.5 -13.5s-5.5 16.166 -5.5 35.499z" />
    <glyph glyph-name="vav" unicode="&#x5d5;" horiz-adv-x="611" 
d="M501 1163v-991.004c0 -14.667 -6 -28 -18 -40l-168 -165c-7.33301 -9.33301 -16.333 -14 -27 -14c-5.33301 0 -9.33301 1.5 -12 4.5s-4.83398 13.167 -6.50098 30.5s-2.5 44.333 -2.5 81v781c0 2 -1 3.66699 -3 5s-5.5 2.33301 -10.5 3s-11.5 -0.666016 -19.5 -3.99902
c-30 -12 -54.667 -23.5 -74 -34.5s-31.666 -19.167 -36.999 -24.5s-11 -9.66602 -17 -12.999s-13.667 -5 -23 -5c-10.667 0 -17.167 2.83301 -19.5 8.5s0.166992 11.834 7.5 18.501l374 368c7.33301 8 15.333 13.333 24 16s16.167 1.83398 22.5 -2.49902
s9.5 -11.833 9.5 -22.5z" />
    <glyph glyph-name="zain" unicode="&#x5d6;" horiz-adv-x="896" 
d="M373 122c0 88 -0.669922 164.505 -2.00293 229.505s-4.33301 123.5 -9 175.5s-9 95.167 -13 129.5s-11.167 65.166 -21.5 92.499s-19.666 48.666 -27.999 63.999s-21.166 30 -38.499 44s-32.5 24.667 -45.5 32s-32.167 17 -57.5 29l-33 16
c-1.33301 0.666992 -4.16602 2 -8.49902 4s-7.16602 3.5 -8.49902 4.5s-3.66602 2.33301 -6.99902 4s-5.33301 3.16699 -6 4.5s-1.83398 3 -3.50098 5s-2.33398 3.83301 -2.00098 5.5s0.666016 3.83398 0.999023 6.50098s1.5 5.5 3.5 8.5s4.33301 6.16699 7 9.5l107 135
c2 2 6.16699 6.66699 12.5 14s12 13 17 17s9.16699 5.33301 12.5 4l536 -212c23.333 -10.667 36.333 -18.667 39 -24c3.33301 -6 1 -14 -7 -24l-113 -150c-7.33301 -12.667 -19 -20.334 -35 -23.001l-73 35c-15.333 12.667 -28.5 17.5 -39.5 14.5s-16.5 -17.833 -16.5 -44.5
c0 -182 -4 -310.333 -12 -385s-24.667 -148.334 -50 -221.001c-13.333 -36.667 -31.666 -78.334 -54.999 -125.001s-38.333 -70.334 -45 -71.001c-2 -1.33301 -4 0 -6 4v192z" />
    <glyph glyph-name="het" unicode="&#x5d7;" horiz-adv-x="1498" 
d="M1287 1204l0.00195312 -104.002c0 -25.333 2.5 -40.666 7.5 -45.999s20.833 -8 47.5 -8h100c17.333 0 28.5 -4.83301 33.5 -14.5s0.833008 -21.834 -12.5 -36.501l-176 -183v-638c0 -6.66699 -1.66699 -13.167 -5 -19.5s-6 -10.5 -8 -12.5s-7.66699 -7.33301 -17 -16
l-170 -164c-22.667 -25.333 -34 -18.333 -34 21v731c0 41.333 -5.83301 68 -17.5 80s-39.834 18 -84.501 18h-372c-36.667 0 -60.667 -5.66699 -72 -17s-17 -37.666 -17 -78.999v-562c0 -16.667 -4.66699 -29.667 -14 -39l-167 -164
c-14.667 -14 -26.834 -18.667 -36.501 -14s-14.5 16 -14.5 34v841h-94c-40.667 13.333 -61 46.666 -61 99.999l332 289c14.667 15.333 27.5 21.5 38.5 18.5s16.5 -13.5 16.5 -31.5v-98c0 -17.333 2.66699 -29 8 -35s18.333 -9 39 -9h462c27.333 0 47 2.5 59 7.5
s27.667 17.167 47 36.5l126 128c15.333 14.667 28.5 20.334 39.5 17.001s16.5 -13.666 16.5 -30.999z" />
    <glyph glyph-name="tet" unicode="&#x5d8;" horiz-adv-x="1484" 
d="M1148 791c0 81.333 -17.333 122.004 -52 122.004h-203c-23.333 0 -41.5 -18 -54.5 -54s-19.5 -72 -19.5 -108c0 -4.66699 -4.66699 -7 -14 -7c-8.66699 0 -15 3.33301 -19 10c-6.66699 13.333 -10 43.333 -10 90c0 75.333 6.66699 124 20 146
c18 32 34.5 57.833 49.5 77.5s36.167 37.5 63.5 53.5s57.666 24 90.999 24h166c69.333 0 122.333 -15.5 159 -46.5s55 -74.5 55 -130.5c0 -86.667 -1 -159.834 -3 -219.501s-9.33301 -117.334 -22 -173.001s-23.667 -100.167 -33 -133.5s-30.166 -68.833 -62.499 -106.5
s-59.833 -66.5 -82.5 -86.5s-63.334 -46.667 -122.001 -80s-109.167 -60 -151.5 -80l-199.5 -93l-93 -43c-16 0 -29.167 3.16699 -39.5 9.5s-15.5 15.166 -15.5 26.499c0 210.667 -71.667 489.334 -215 836.001c-6.66699 15.333 -12 27.166 -16 35.499
s-9.66699 16.5 -17 24.5s-14.666 12 -21.999 12c-5.33301 0 -11 -2 -17 -6l-104 -70c-6 -5.33301 -13 -8 -21 -8c-11.333 0 -21 5.66699 -29 17s-12 24.333 -12 39c0 15.333 4.66699 27.666 14 36.999c93.333 90.667 146.333 141 159 151l131 108c15.333 16.667 32 25 50 25
c15.333 0 25.666 -7 30.999 -21c126.667 -301.333 210.667 -614.666 252 -939.999l84 42l72 38.5c27.333 15 48.5 27.833 63.5 38.5s32.333 24 52 40s34.5 31 44.5 45s21.167 30.5 33.5 49.5s21.333 38.667 27 59s11.334 43.5 17.001 69.5s9.5 53.667 11.5 83
s3 61.666 3 96.999z" />
    <glyph glyph-name="yod" unicode="&#x5d9;" horiz-adv-x="629" 
d="M514 1162v-563.999c0 -13.333 -7 -27 -21 -41l-169 -164c-8 -10 -16.667 -15 -26 -15c-6 0 -10.167 1.66699 -12.5 5s-4.33301 13.333 -6 30s-2.5 43.667 -2.5 81v343c0 2 -1.16699 3.83301 -3.5 5.5s-6.16602 2.66699 -11.499 3s-12 -1.16699 -20 -4.5
c-22 -10 -41.833 -19.833 -59.5 -29.5s-30 -16.667 -37 -21s-14.667 -7.83301 -23 -10.5s-17.5 -4 -27.5 -4c-10.667 0 -17.167 2.66699 -19.5 8s0.166992 11.666 7.5 18.999l374 368c11.333 12.667 23.666 18.667 36.999 18s20 -9.66699 20 -27z" />
    <glyph glyph-name="finalkaf" unicode="&#x5da;" horiz-adv-x="1119" 
d="M828 -587c-10 -14.667 -22.498 -19.668 -37.498 -15.001s-22.5 16.667 -22.5 36v1296c0 34.667 -7.66699 57 -23 67s-46 15 -92 15h-482c-40 14.667 -60 47 -60 97l254 269c5.33301 5.33301 13.666 8 24.999 8c5.33301 0 9.5 -0.833008 12.5 -2.5
s3.83301 -4.16699 2.5 -7.5l-49 -102c-2 -4.66699 -3.33301 -8.5 -4 -11.5s-0.666992 -5.5 0 -7.5s1.5 -3.33301 2.5 -4s3 -1.16699 6 -1.5s5.83301 -0.5 8.5 -0.5s6.33398 0.166992 11.001 0.5s9 0.5 13 0.5h509c30.667 0 52.667 -9 66 -27s20 -50 20 -96v-1297
c0 -7.33301 1.66699 -15.166 5 -23.499s5.66602 -14 6.99902 -17s0.666016 -6.83301 -2.00098 -11.5z" />
    <glyph glyph-name="kaf" unicode="&#x5db;" horiz-adv-x="1203" 
d="M1096 928l0.00390625 -602.999c0 -26.667 -9.16699 -60.5 -27.5 -101.5s-39.333 -77 -63 -108s-42.834 -47.833 -57.501 -50.5l-884 -155c-17.333 -3.33301 -28.333 0.333984 -33 11.001s-1 24.334 11 41.001l126 179c1.33301 2 3.33301 4.5 6 7.5
s4.83398 5.33301 6.50098 7l6 6c2.33301 2.33301 4.66602 4.16602 6.99902 5.49902s5.16602 2.66602 8.49902 3.99902s7 2.33301 11 3l515 89c22.667 4 38.834 7 48.501 9s21.667 5.5 36 10.5s24.166 10.5 29.499 16.5s11.166 14.167 17.499 24.5s10.333 23 12 38
s2.5 33.167 2.5 54.5v284c0 52 -6.16699 83.833 -18.5 95.5s-45.166 17.5 -98.499 17.5h-552c-40 14.667 -60 47 -60 97l254 268c5.33301 6 13.666 9 24.999 9c5.33301 0 9.5 -0.833008 12.5 -2.5s3.83301 -4.16699 2.5 -7.5l-49 -103c-1.33301 -4 -2.5 -7.33301 -3.5 -10
s-1.5 -4.83398 -1.5 -6.50098s0.5 -3 1.5 -4s2.16699 -1.83301 3.5 -2.5s3.33301 -1.16699 6 -1.5s5.16699 -0.333008 7.5 0s5.66602 0.5 9.99902 0.5h11.5h583c30.667 0 53 -9 67 -27s21 -49.667 21 -95z" />
    <glyph glyph-name="lamed" unicode="&#x5dc;" horiz-adv-x="1216" 
d="M236 812c-44 0 -66.0039 16.668 -66.0039 50.001v530l-110 -86c-1.33301 0 -5.33301 0.166992 -12 0.5s-11.667 1 -15 2s-7.16602 2.5 -11.499 4.5s-6.16602 5 -5.49902 9s3.66699 9 9 15c10.667 13.333 32 37 64 71l128 135l121 128c14 15.333 26.667 21.5 38 18.5
s17 -13.5 17 -31.5v-526v-5c0 -36.667 3.5 -58.667 10.5 -66s29.5 -11 67.5 -11h31h503c40 0 70.167 -10.833 90.5 -32.5s30.5 -48.5 30.5 -80.5c0 -40.667 -11 -82.334 -33 -125.001c-78.667 -155.333 -162.167 -296.5 -250.5 -423.5s-189.166 -248.833 -302.499 -365.5
c-25.333 -25.333 -46.666 -38 -63.999 -38h-7c-1.33301 0 -2.83301 0.5 -4.5 1.5s-2.66699 2.33301 -3 4s-0.5 3.83398 -0.5 6.50098c0 14.667 5.33301 29 16 43c71.333 102 136.833 207.5 196.5 316.5s122.167 240.833 187.5 395.5c7.33301 15.333 9.5 29.166 6.5 41.499
s-12.5 18.5 -28.5 18.5h-603z" />
    <glyph glyph-name="finalmem" unicode="&#x5dd;" horiz-adv-x="1383" 
d="M1039 384v364c0 29.333 -3.83301 47.333 -11.5 54s-26.834 10 -57.501 10h-432c-28 0 -45.5 -3.33301 -52.5 -10s-10.5 -23.334 -10.5 -50.001v-470c0 -30 2 -49.833 6 -59.5s14.333 -14.5 31 -14.5c12 0 29 2 51 6l396 70c15.333 2.66699 26.333 4.66699 33 6
s13.834 3.83301 21.501 7.5s12.5 6.83398 14.5 9.50098s4.33301 8.16699 7 16.5s4 16.5 4 24.5v36zM1286 342c10.667 0 17.668 -1.8291 21.001 -5.49609s3.83301 -8.83398 1.5 -15.501s-7.5 -16 -15.5 -28l-134 -194c-6.66699 -10.667 -31.334 -20 -74.001 -28l-892 -177
c0 6 3.16699 13.667 9.5 23s13.333 19 21 29s14.667 24 21 42s9.5 37.333 9.5 58v722c0 18.667 -2.33301 30.667 -7 36s-16.667 8 -36 8h-48c-40 13.333 -60 46.666 -60 99.999l332 288c15.333 15.333 28.333 21.666 39 18.999s16 -13 16 -31v-92
c0 -23.333 2.16699 -37.5 6.5 -42.5s17.833 -7.5 40.5 -7.5h635c21.333 0 39.5 -4 54.5 -12s26.333 -17.5 34 -28.5s13.5 -26.667 17.5 -47s6.33301 -38.333 7 -54s1 -36.834 1 -63.501v-499z" />
    <glyph glyph-name="mem" unicode="&#x5de;" horiz-adv-x="1446" 
d="M312 845c-0.666992 2 -2.83594 3.83398 -6.50293 5.50098s-8.66699 2.66699 -15 3s-13.5 -1.16699 -21.5 -4.5c-37.333 -14.667 -68.5 -28.167 -93.5 -40.5s-41 -21 -48 -26s-13.667 -8.66699 -20 -11s-14.5 -3.5 -24.5 -3.5c-10.667 0 -17.167 2.66699 -19.5 8
s0.166992 11.666 7.5 18.999l374 368c7.33301 8 14.5 13.333 21.5 16s13.667 2 20 -2s11.166 -11.667 14.499 -23l113 -359l293 299c30.667 28.667 64.334 51.667 101.001 69s69.334 26 98.001 26c25.333 0 44.333 -7 57 -21c40.667 -46.667 74.834 -92.5 102.501 -137.5
s49.167 -85.833 64.5 -122.5s27 -77.834 35 -123.501s12.833 -85.334 14.5 -119.001s2.5 -77.5 2.5 -131.5v-93c0 -33.333 -4.66699 -57.333 -14 -72l-155 -251c-6.66699 -11.333 -18.334 -18.333 -35.001 -21l-1003 -175c-17.333 -3.33301 -28.666 0.333984 -33.999 11.001
s-2 24.667 10 42l127 177c2 2 4.33301 4.83301 7 8.5s5 6.66699 7 9s4.33301 4.66602 7 6.99902s5.83398 4.33301 9.50098 6s7.83398 2.83398 12.501 3.50098l817 141v74c0 122.667 -6.66699 222.334 -20 299.001s-44.333 152.667 -93 228c-26 40.667 -50 61 -72 61
c-14.667 0 -30.334 -8.66699 -47.001 -26l-255 -282l11 -33c2 -13.333 -3 -28 -15 -44l-149 -129c-20 -16 -37 -6.33301 -51 29z" />
    <glyph glyph-name="finalnun" unicode="&#x5df;" horiz-adv-x="613" 
d="M483 1163l0.000976562 -1491c0 -8 1.66699 -16 5 -24l7 -16.5c1.33301 -3 0.666016 -6.83301 -2.00098 -11.5l-188 -193c-10 -14.667 -22.167 -19.334 -36.5 -14.001s-21.5 17 -21.5 35v1393c0 2 -1.16699 3.66699 -3.5 5s-6 2.33301 -11 3
s-11.5 -0.666016 -19.5 -3.99902c-66.667 -31.333 -105.334 -47 -116.001 -47c-1.33301 0 -3.16602 0.166992 -5.49902 0.5s-4.5 0.5 -6.5 0.5c-10.667 0 -17.167 2.83301 -19.5 8.5s0.166992 11.834 7.5 18.501l355 346c7.33301 8 15.333 13.5 24 16.5s16 2.5 22 -1.5
s9 -12 9 -24z" />
    <glyph glyph-name="nun" unicode="&#x5e0;" horiz-adv-x="675" 
d="M95 775c-10.667 0 -17.167 2.83398 -19.5 8.50098s0.166992 11.834 7.5 18.501l374 368c10 14 21.167 20.167 33.5 18.5s19.833 -11.834 22.5 -30.501l135 -879c2.66699 -14 -1.33301 -28.667 -12 -44l-143 -207c-4 -6 -71 -19.667 -201 -41s-199.667 -32 -209 -32
c-17.333 -3.33301 -28.333 0.166992 -33 10.5s-1 24.166 11 41.499l125 179c20.667 19.333 35.667 30 45 32l167 30l-66 608c0 2.66699 -11.667 4 -35 4c-36.667 -14.667 -68.5 -28.5 -95.5 -41.5s-45 -22 -54 -27s-17.5 -9 -25.5 -12s-17 -4.5 -27 -4.5z" />
    <glyph glyph-name="samekh" unicode="&#x5e1;" horiz-adv-x="1391" 
d="M1014 634l-0.000976562 51c0 30 -2.16699 53.833 -6.5 71.5s-12.166 30.167 -23.499 37.5s-21.833 11.833 -31.5 13.5s-24.167 2.5 -43.5 2.5h-6h-338c-34.667 0 -57.167 -2 -67.5 -6s-15.5 -14.333 -15.5 -31c0 -9.33301 1 -21 3 -35l71 -526
c3.33301 -27.333 8.83301 -44.333 16.5 -51s28.167 -10 61.5 -10c253.333 92 380 253 380 483zM535.999 1050l634.002 0.000976562c21.333 0 39.5 -4.16699 54.5 -12.5s26.5 -18.333 34.5 -30s14 -27.834 18 -48.501s6.5 -39.167 7.5 -55.5s1.5 -37.5 1.5 -63.5v-30
c0 -208.667 -52.333 -374.334 -157 -497.001c-109.333 -127.333 -267.666 -249 -474.999 -365c-34.667 -19.333 -68.334 -31.5 -101.001 -36.5s-74.667 -7.5 -126 -7.5c-16.667 0 -27.667 2.33301 -33 7s-9 15.334 -11 32.001l-116 825c-2.66699 20 -6.33398 32 -11.001 36
s-16.334 6 -35.001 6h-58c-40 14 -60 47.333 -60 100l331 289c14.667 15.333 27.667 21.666 39 18.999s17 -13 17 -31v-95c0 -21.333 1.83301 -33.666 5.5 -36.999s17.167 -5 40.5 -5z" />
    <glyph glyph-name="ayin" unicode="&#x5e2;" horiz-adv-x="1630" 
d="M483 1160c39.333 -84.667 73.3359 -162.339 102.003 -233.006s51.334 -129.5 68.001 -176.5l87 -252.5c16.667 -49.333 33.667 -74 51 -74c14 0 36.333 18.667 67 56c64.667 78.667 107.834 147.334 129.501 206.001s32.5 130.334 32.5 215.001
c-9.33301 6.66699 -15 10.834 -17 12.501s-4.66699 5.16699 -8 10.5s-3.83301 10.333 -1.5 15s7.16602 10.667 14.499 18l156 153l5 5c2.66699 2.66699 4.5 4.33398 5.5 5.00098s2.66699 2 5 4s4.16602 3.33301 5.49902 4s3.16602 1.66699 5.49902 3
s4.5 2.16602 6.5 2.49902s4.33301 0.666016 7 0.999023s5.33398 0.5 8.00098 0.5l309 -202c1.33301 -1.33301 3.83301 -3.16602 7.5 -5.49902s6.16699 -3.83301 7.5 -4.5s3.33301 -2 6 -4s4.5 -3.5 5.5 -4.5s2.33301 -2.5 4 -4.5s2.5 -3.66699 2.5 -5s0.166992 -3 0.5 -5
s0 -4 -1 -6s-2.16699 -4 -3.5 -6s-3.33301 -4.33301 -6 -7l-166 -166c-8.66699 -10.667 -21.334 -16 -38.001 -16l-106 56c-6.66699 6.66699 -13 10 -19 10c-18.667 0 -36.667 -34 -54 -102c-15.333 -58 -34.5 -112.5 -57.5 -163.5s-46.167 -96 -69.5 -135
s-53.333 -76.5 -90 -112.5s-68.834 -66.167 -96.501 -90.5s-65.334 -49.333 -113.001 -75s-86.167 -45.667 -115.5 -60s-72 -31.5 -128 -51.5s-98.167 -34.333 -126.5 -43l-133.5 -41l-95 -29c-51.333 -16 -83 -24 -95 -24c-9.33301 0 -14 3.33301 -14 10
c0 10.667 10.667 33.334 32 68.001l72 120c22.667 37.333 40.667 61.833 54 73.5s40.333 25.5 81 41.5c56.667 20.667 121.334 47.334 194.001 80.001c24 10.667 41.333 21.834 52 33.501s16 26.5 16 44.5c0 17.333 -6.33301 43 -19 77l-186 486
c0 1.33301 -2.66699 3.5 -8 6.5s-11.833 5.16699 -19.5 6.5s-15.834 0.333008 -24.501 -3l-51.5 -27l-35 -19c-6.33301 -3.33301 -13.5 -6.16602 -21.5 -8.49902s-16.667 -3.5 -26 -3.5c-10.667 0 -17.167 2.66699 -19.5 8s0.166992 11.666 7.5 18.999l276 289
c22.667 24.667 42 37 58 37c10.667 0 18.667 -5.66699 24 -17z" />
    <glyph glyph-name="finalpe" unicode="&#x5e3;" horiz-adv-x="1213" 
d="M124 317l0.00390625 499.999c0 13.333 8.66699 29.333 26 48l122 124c20 19.333 33.833 32 41.5 38s19.5 11.333 35.5 16s37 7 63 7h576c31.333 0 54.333 -9.16699 69 -27.5s22 -50.166 22 -95.499v-1310c0 -4 1.5 -9 4.5 -15s5.16699 -10.5 6.5 -13.5
s0.666016 -6.5 -2.00098 -10.5l-170 -165c-8 -10.667 -17.667 -16 -29 -16c-8.66699 0 -16.167 3.33301 -22.5 10s-9.5 15.667 -9.5 27v1263c0 53.333 -6.33301 85.5 -19 96.5s-47.334 16.5 -104.001 16.5h-310c-36.667 0 -59.334 -5.66699 -68.001 -17s-13 -36 -13 -74
v-256l128 44c14 4 23.5 1.16699 28.5 -8.5s2.16699 -24.167 -8.5 -43.5l-107 -170c-12.667 -16.667 -27.334 -27.667 -44.001 -33c-46.667 -18 -86 -27 -118 -27c-20 0 -41.333 10.833 -64 32.5s-34 41.5 -34 59.5z" />
    <glyph glyph-name="pe" unicode="&#x5e4;" horiz-adv-x="1223" 
d="M1024 1048c29.333 0 50.001 -7.83203 62.001 -23.499s20.667 -46.5 26 -92.5l74 -602c0 -26 -18.167 -75.333 -54.5 -148s-65.166 -111 -86.499 -115l-984 -180c-17.333 -3.33301 -28.333 0.333984 -33 11.001s-1 24.334 11 41.001l126 180
c1.33301 1.33301 3.5 3.66602 6.5 6.99902s5.16699 5.66602 6.5 6.99902s3.33301 3.16602 6 5.49902s5.16699 4.16602 7.5 5.49902s5 2.66602 8 3.99902s6.5 2.33301 10.5 3l634 117c46.667 8 77.167 17.333 91.5 28s21.5 33.334 21.5 68.001c0 16 -1.66699 40 -5 72
l-29 258c-2.66699 22 -4.83398 38.833 -6.50098 50.5s-5.16699 22.667 -10.5 33s-10 17.5 -14 21.5s-12.5 7.33301 -25.5 10s-24.833 4.16699 -35.5 4.5s-28.334 0.5 -53.001 0.5h-255c-48 0 -77.333 -4.5 -88 -13.5s-16 -32.833 -16 -71.5v-123
c0 -28 2.16699 -47.167 6.5 -57.5s14.5 -15.5 30.5 -15.5c8.66699 0 18.334 1 29.001 3l108 20c15.333 3.33301 25.5 -0.333984 30.5 -11.001s1.5 -24 -10.5 -40l-142 -181c-8 -10 -21 -16 -39 -18l-138 -21c-18 0 -38.833 11.167 -62.5 33.5s-35.5 42.166 -35.5 59.499v445
c0 6.66699 0.5 12.834 1.5 18.501s2.83301 11.334 5.5 17.001l6.5 14c1.66699 3.66699 4.66699 8 9 13s7.16602 8.33301 8.49902 10s4.33301 4.83398 9 9.50098l8 7l242 257c11.333 12.667 24 19 38 19c13.333 0 16 -7.66699 8 -23l-40 -79
c-8 -18 -11.167 -28.833 -9.5 -32.5s11.5 -5.5 29.5 -5.5h512z" />
    <glyph glyph-name="finaltsadi" unicode="&#x5e5;" horiz-adv-x="1380" 
d="M599 516c0 -7.33301 3.16602 -34.3398 9.49902 -81.0068s12.666 -117.667 18.999 -213s9.5 -205.666 9.5 -330.999c0 -25.333 -0.166992 -64.666 -0.5 -117.999s-0.5 -94.333 -0.5 -123c0 -11.333 -6.33301 -24.666 -19 -39.999l-128 -157
c-7.33301 -9.33301 -16.333 -14 -27 -14c-8 0 -13.5 8.33301 -16.5 25s-4.5 47 -4.5 91v139c0 117.333 -1.5 218.5 -4.5 303.5s-9 181.333 -18 289s-24.167 210.334 -45.5 308.001s-48.666 190.167 -81.999 277.5c0 1.33301 -2.33301 3 -7 5s-10.5 3.33301 -17.5 4
s-14.833 -0.666016 -23.5 -3.99902l-57 -23l-38 -16c-8 -3.33301 -14.833 -6.33301 -20.5 -9s-9.66699 -4.33398 -12 -5.00098s-4.16602 -1 -5.49902 -1h-21c-10.667 0 -17.167 3.16699 -19.5 9.5s0.166992 12.833 7.5 19.5l300 304c21.333 23.333 45.333 35 72 35
c17.333 0 27.333 -6.33301 30 -19l25 -123l35 -174.5c10.667 -54.333 17.667 -92.5 21 -114.5c4 -25.333 8 -42.666 12 -51.999s10 -14 18 -14c12.667 0 29.5 7 50.5 21s42.167 32.5 63.5 55.5s39.666 52.167 54.999 87.5s23 71.333 23 108
c0 3.33301 -0.333008 8.83301 -1 16.5s-1 13.834 -1 18.501s0.666992 7.66699 2 9l157 153c0.666992 0.666992 2.5 2.66699 5.5 6s4.83301 5.16602 5.5 5.49902s2.5 1.83301 5.5 4.5s5.16699 4.16699 6.5 4.5s3.5 1.16602 6.5 2.49902s5.83301 2.16602 8.5 2.49902
s5.66699 0.5 9 0.5l310 -202c1.33301 -0.666992 4 -2.5 8 -5.5l8 -6l6.5 -5c3 -2.33301 4.83301 -4 5.5 -5l3.5 -5c1.66699 -2.33301 2.33398 -4.33301 2.00098 -6s-0.666016 -3.66699 -0.999023 -6s-1.33301 -4.66602 -3 -6.99902s-3.83398 -4.83301 -6.50098 -7.5
l-166 -165c-8.66699 -10.667 -21.667 -16 -39 -16l-188 112c0 -22 -17.667 -51.833 -53 -89.5s-72.5 -71.667 -111.5 -102s-78.5 -58.833 -118.5 -85.5c-11.333 -7.33301 -19.333 -13.166 -24 -17.499s-9.16699 -11.166 -13.5 -20.499s-6.5 -20.666 -6.5 -33.999z" />
    <glyph glyph-name="tsadi" unicode="&#x5e6;" horiz-adv-x="1609" 
d="M429 1130l358.999 -365.999c32 -34 56.333 -51 73 -51c10.667 0 23 11 37 33c15.333 26.667 27.166 60 35.499 100s12.5 76.333 12.5 109c-17.333 12 -26.666 20.667 -27.999 26c-2.66699 8 2.33301 17.667 15 29l157 153c0.666992 0.666992 2.5 2.66699 5.5 6
s4.83301 5.16602 5.5 5.49902s2.5 1.83301 5.5 4.5s5.16699 4.16699 6.5 4.5s3.5 1.16602 6.5 2.49902s5.83301 2.16602 8.5 2.49902s5.66699 0.5 9 0.5l367 -249c20 -13.333 30.667 -22.666 32 -27.999c2 -7.33301 -1.33301 -15.333 -10 -24l-166 -165
c-9.33301 -11.333 -22 -17 -38 -17l-264 187c0 -30.667 -5.66699 -67.667 -17 -111s-26.333 -80.666 -45 -111.999l-9.5 -16l-9 -15.5l-6.5 -12c-2.66699 -5 -4.5 -9 -5.5 -12s-2 -6.33301 -3 -10s-1.5 -7.16699 -1.5 -10.5c0 -15.333 12.333 -36.333 37 -63l250 -271
c3.33301 -3.33301 5 -8.33301 5 -15c0 -25.333 -22.167 -61.166 -66.5 -107.499s-84.833 -73.5 -121.5 -81.5c-10 -2.66699 -65.833 -13.5 -167.5 -32.5l-419 -78.5l-402.5 -76c16 34.667 50.667 93.334 104 176.001s88.666 129 105.999 139l498 76
c28 7.33301 42 18.666 42 33.999c0 2.66699 -0.5 5.66699 -1.5 9s-2.16699 6.33301 -3.5 9s-3.5 6 -6.5 10s-5.5 7.16699 -7.5 9.5l-9 10c-4 4.33301 -7 7.5 -9 9.5l-10.5 10.5l-9.5 9.5l-485 484c0 2 -1.16699 3.83301 -3.5 5.5s-6.16602 2.66699 -11.499 3
s-12 -1.16699 -20 -4.5l-57 -23l-38 -16c-8 -3.33301 -14.833 -6.33301 -20.5 -9s-9.66699 -4.33398 -12 -5.00098s-4.16602 -1 -5.49902 -1h-21c-10.667 0 -17.167 3.16699 -19.5 9.5s0.166992 12.833 7.5 19.5l264 276c22 23.333 39.667 35 53 35c9.33301 0 19 -5 29 -15z
" />
    <glyph glyph-name="kof" unicode="&#x5e7;" horiz-adv-x="1488" 
d="M565 -312c0 -10.667 -7.67188 -23.667 -23.0049 -39l-165 -164c-15.333 -13.333 -26.5 -18 -33.5 -14s-10.5 15.333 -10.5 34v1211c0 38 -4.83301 63.167 -14.5 75.5s-33.167 18.5 -70.5 18.5h-91c-40 14 -60 47.333 -60 100l412 289c15.333 15.333 28.5 21.5 39.5 18.5
s16.5 -13.5 16.5 -31.5v-74c0 -27.333 3.83301 -44.5 11.5 -51.5s21.834 -10.5 42.501 -10.5h22h711c36.667 0 55 -22.667 55 -68c0 -68 -16.333 -125.333 -49 -172l-461 -669c-15.333 -18 -42.166 -34.5 -80.499 -49.5s-68.833 -22.5 -91.5 -22.5
c-11.333 0 -15.666 4.33301 -12.999 13c26 30.667 52.333 64.5 79 101.5s49.334 69.667 68.001 98s41.667 66.5 69 114.5l59.5 106l64 119l58.5 110c6 11.333 9 21.666 9 30.999c0 14.667 -6.5 26.334 -19.5 35.001s-31.167 13 -54.5 13h-381
c-45.333 0 -73.166 -5.66699 -83.499 -17s-15.5 -39 -15.5 -83v-1022z" />
    <glyph glyph-name="resh" unicode="&#x5e8;" horiz-adv-x="1173" 
d="M1064 928l-0.00195312 -711.998c0 -30.667 -6.33301 -53 -19 -67l-157 -177c-9.33301 -11.333 -18 -17 -26 -17c-10.667 0 -16 19.667 -16 59v670v42c0 9.33301 -0.833008 19.666 -2.5 30.999s-3 19.166 -4 23.499s-4.33301 9.16602 -10 14.499s-10.167 8.5 -13.5 9.5
s-10.666 2.33301 -21.999 4s-21 2.5 -29 2.5h-39h-550c-40 14.667 -60 47.334 -60 98.001l254 269c5.33301 5.33301 14 8 26 8s16.667 -3.33301 14 -10l-49 -102c-2 -4.66699 -3.33301 -8.5 -4 -11.5s-0.833984 -5.5 -0.500977 -7.5s0.833008 -3.33301 1.5 -4
s2.33398 -1.16699 5.00098 -1.5s5.16699 -0.5 7.5 -0.5s5.83301 0.166992 10.5 0.5s9 0.5 13 0.5h580c30.667 0 53.334 -9 68.001 -27s22 -49.667 22 -95z" />
    <glyph glyph-name="shin" unicode="&#x5e9;" horiz-adv-x="2064" 
d="M1611 766c-13.333 0 -27.8301 -11.3359 -43.4971 -34.0029s-25.834 -44.667 -30.501 -66l-71.5 -106.5l-77 -116.5c-21 -32 -47.667 -69.833 -80 -113.5s-61.833 -80.5 -88.5 -110.5s-57.834 -61.5 -93.501 -94.5s-70.167 -59.333 -103.5 -79s-70.5 -36 -111.5 -49
s-82.167 -19.5 -123.5 -19.5c-4.66699 0 -8.5 0.166992 -11.5 0.5s-6 1.16602 -9 2.49902s-5.33301 2.33301 -7 3s-4 2.5 -7 5.5s-5 5.16699 -6 6.5l-6.5 9c-3.33301 4.66699 -6 8 -8 10c-0.666992 0.666992 -16.167 35 -46.5 103l-85 188l-94.5 203l-105 216.5
c-33.333 66.333 -62.333 120.166 -87 161.499c-4 6.66699 -8 11.334 -12 14.001s-8 3.5 -12 2.5s-7.16699 -2.33301 -9.5 -4s-4.83301 -3.83398 -7.5 -6.50098l-5 -5l-103 -70c-6.66699 -4.66699 -13.667 -7 -21 -7c-12 0 -22 5.5 -30 16.5s-12 23.833 -12 38.5s5 27 15 37
c93.333 90 146 140.333 158 151l115 100c12.667 16 29 24 49 24c15.333 0 26 -6.66699 32 -20c28.667 -67.333 74.167 -166 136.5 -296l110.5 -231l10 -22l8.5 -18.5c1.66699 -3.66699 3.66699 -7.66699 6 -12s4.5 -7.33301 6.5 -9s4 -2.5 6 -2.5c6.66699 0 20.667 14 42 42
c12.667 16.667 24.167 54.167 34.5 112.5s15.5 108.166 15.5 149.499c-0.666992 0.666992 -5.5 4.83398 -14.5 12.501s-15.667 13.834 -20 18.501s-8.83301 10.667 -13.5 18s-7 14 -7 20c0 8 3 14.667 9 20l156 153l3 3c15.333 15.333 30.333 23 45 23l310 -203l9.5 -6.5
c4.33301 -3 7.16602 -5 8.49902 -6l6.5 -5c3 -2.33301 4.83301 -4.16602 5.5 -5.49902s1.5 -3.33301 2.5 -6s1.16699 -5 0.5 -7s-1.83398 -4.33301 -3.50098 -7s-4.16699 -5.33398 -7.5 -8.00098l-166 -167c-9.33301 -10.667 -22.333 -16 -39 -16l-206 142
c0 -43.333 -9.83301 -110.666 -29.5 -201.999s-36.167 -147 -49.5 -167c-18.667 -30 -28 -49.667 -28 -59s6.66699 -28.333 20 -57l40 -86c7.33301 -16 13.833 -27.333 19.5 -34s12.5 -10 20.5 -10c8.66699 0 23 4.66699 43 14c58.667 28 127 80.333 205 157
s145 156.834 201 240.501s84 148.167 84 193.5c0 12.667 -1.33301 30.334 -4 53.001c-16.667 12.667 -25.667 21 -27 25c-4 8 0.333008 18 13 30l157 153c6.66699 6.66699 11.334 11.167 14.001 13.5s7.16699 5 13.5 8s13.5 4.5 21.5 4.5l309 -204l8.5 -5.5
c3.66699 -2.33301 6.16699 -4.16602 7.5 -5.49902s3.5 -3 6.5 -5s4.83301 -3.66699 5.5 -5s1.66699 -3 3 -5s1.83301 -3.83301 1.5 -5.5s-0.666016 -3.5 -0.999023 -5.5s-1.33301 -4.16699 -3 -6.5s-3.83398 -4.83301 -6.50098 -7.5l-166 -166
c-10 -11.333 -22.667 -17 -38 -17l-139 74c-6.66699 6.66699 -12.667 10 -18 10z" />
    <glyph glyph-name="tav" unicode="&#x5ea;" horiz-adv-x="1611" 
d="M369 747c0 24 -2.83105 39.5 -8.49805 46.5s-21.167 10.5 -46.5 10.5h-39c-40.667 14.667 -61 49.667 -61 105l332 289c14.667 15.333 27.5 21.666 38.5 18.999s16.5 -13 16.5 -31v-86c0 -22.667 2.83301 -36.667 8.5 -42s17.167 -8 34.5 -8h21h426h16
c34 0 57.5 2.5 70.5 7.5s30.833 19.167 53.5 42.5l112 115c14.667 15.333 27.5 21.333 38.5 18s16.5 -13.666 16.5 -30.999v-158h154c18 0 29.667 -5 35 -15s1.33301 -22.333 -12 -37l-118 -120c-25.333 -30 -41.5 -53.667 -48.5 -71s-10.5 -45 -10.5 -83v-556
c0 -4.66699 -1.33301 -9 -4 -13s-7.33398 -8.83301 -14.001 -14.5s-10.667 -9.16699 -12 -10.5l-169 -164c-12.667 -13.333 -21.834 -17.833 -27.501 -13.5s-8.5 15.833 -8.5 34.5v717c0 50.667 -5.16699 82 -15.5 94s-36.833 18 -79.5 18h-405
c-29.333 0 -47.166 -3.5 -53.499 -10.5s-9.5 -23.833 -9.5 -50.5v-534c0 -12 -7 -25 -21 -39l-184 -179h-336c-18 0 -28.333 5.33301 -31 16s3.66602 23.667 18.999 39l154 155l14 10c6.66699 4.66699 12.5 8.16699 17.5 10.5s11.167 3.5 18.5 3.5h53
c29.333 0 47.5 4 54.5 12s10.5 29 10.5 63v441z" />
    <glyph glyph-name="vavvav" unicode="&#x5f0;" horiz-adv-x="1097" 
d="M987 1161v-991.004c0 -14.667 -6 -28 -18 -40l-168 -165c-7.33301 -9.33301 -16.333 -14 -27 -14c-5.33301 0 -9.33301 1.5 -12 4.5s-4.83398 13.167 -6.50098 30.5s-2.5 44.333 -2.5 81v781c0 2 -1 3.66699 -3 5s-5.5 2.33301 -10.5 3s-11.5 -0.666016 -19.5 -3.99902
c-30 -12 -54.667 -23.5 -74 -34.5s-31.666 -19.167 -36.999 -24.5s-11 -9.66602 -17 -12.999s-13.667 -5 -23 -5c-10.667 0 -17.167 2.83301 -19.5 8.5s0.166992 11.834 7.5 18.501l374 368c7.33301 8 15.333 13.333 24 16s16.167 1.83398 22.5 -2.49902
s9.5 -11.833 9.5 -22.5zM501 1163v-991.004c0 -14.667 -6 -28 -18 -40l-168 -165c-7.33301 -9.33301 -16.333 -14 -27 -14c-5.33301 0 -9.33301 1.5 -12 4.5s-4.83398 13.167 -6.50098 30.5s-2.5 44.333 -2.5 81v781c0 2 -1 3.66699 -3 5s-5.5 2.33301 -10.5 3
s-11.5 -0.666016 -19.5 -3.99902c-30 -12 -54.667 -23.5 -74 -34.5s-31.666 -19.167 -36.999 -24.5s-11 -9.66602 -17 -12.999s-13.667 -5 -23 -5c-10.667 0 -17.167 2.83301 -19.5 8.5s0.166992 11.834 7.5 18.501l374 368c7.33301 8 15.333 13.333 24 16
s16.167 1.83398 22.5 -2.49902s9.5 -11.833 9.5 -22.5z" />
    <glyph glyph-name="vavyod" unicode="&#x5f1;" horiz-adv-x="1106" 
d="M514 1166v-563.999c0 -13.333 -7 -27 -21 -41l-169 -164c-8 -10 -16.667 -15 -26 -15c-6 0 -10.167 1.66699 -12.5 5s-4.33301 13.333 -6 30s-2.5 43.667 -2.5 81v343c0 2 -1.16699 3.83301 -3.5 5.5s-6.16602 2.66699 -11.499 3s-12 -1.16699 -20 -4.5
c-22 -10 -41.833 -19.833 -59.5 -29.5s-30 -16.667 -37 -21s-14.667 -7.83301 -23 -10.5s-17.5 -4 -27.5 -4c-10.667 0 -17.167 2.66699 -19.5 8s0.166992 11.666 7.5 18.999l374 368c11.333 12.667 23.666 18.667 36.999 18s20 -9.66699 20 -27zM996 1168v-991.004
c0 -14.667 -6 -28 -18 -40l-168 -165c-7.33301 -9.33301 -16.333 -14 -27 -14c-5.33301 0 -9.33301 1.5 -12 4.5s-4.83398 13.167 -6.50098 30.5s-2.5 44.333 -2.5 81v781c0 2 -1 3.66699 -3 5s-5.5 2.33301 -10.5 3s-11.5 -0.666016 -19.5 -3.99902
c-30 -12 -54.667 -23.5 -74 -34.5s-31.666 -19.167 -36.999 -24.5s-11 -9.66602 -17 -12.999s-13.667 -5 -23 -5c-10.667 0 -17.167 2.83301 -19.5 8.5s0.166992 11.834 7.5 18.501l374 368c7.33301 8 15.333 13.333 24 16s16.167 1.83398 22.5 -2.49902
s9.5 -11.833 9.5 -22.5z" />
    <glyph glyph-name="yodyod" unicode="&#x5f2;" horiz-adv-x="1122" 
d="M1007 1182v-563.999c0 -13.333 -7 -27 -21 -41l-169 -164c-8 -10 -16.667 -15 -26 -15c-6 0 -10.167 1.66699 -12.5 5s-4.33301 13.333 -6 30s-2.5 43.667 -2.5 81v343c0 2 -1.16699 3.83301 -3.5 5.5s-6.16602 2.66699 -11.499 3s-12 -1.16699 -20 -4.5
c-22 -10 -41.833 -19.833 -59.5 -29.5s-30 -16.667 -37 -21s-14.667 -7.83301 -23 -10.5s-17.5 -4 -27.5 -4c-10.667 0 -17.167 2.66699 -19.5 8s0.166992 11.666 7.5 18.999l374 368c11.333 12.667 23.666 18.667 36.999 18s20 -9.66699 20 -27zM514 1162v-563.999
c0 -13.333 -7 -27 -21 -41l-169 -164c-8 -10 -16.667 -15 -26 -15c-6 0 -10.167 1.66699 -12.5 5s-4.33301 13.333 -6 30s-2.5 43.667 -2.5 81v343c0 2 -1.16699 3.83301 -3.5 5.5s-6.16602 2.66699 -11.499 3s-12 -1.16699 -20 -4.5c-22 -10 -41.833 -19.833 -59.5 -29.5
s-30 -16.667 -37 -21s-14.667 -7.83301 -23 -10.5s-17.5 -4 -27.5 -4c-10.667 0 -17.167 2.66699 -19.5 8s0.166992 11.666 7.5 18.999l374 368c11.333 12.667 23.666 18.667 36.999 18s20 -9.66699 20 -27z" />
    <glyph glyph-name="geresh" unicode="&#x5f3;" horiz-adv-x="417" 
d="M141 820c-4 0 -7.00195 1.66699 -9.00195 5s-3.83301 13.833 -5.5 31.5s-2.5 44.167 -2.5 79.5v252c0 5.33301 1.16699 10.166 3.5 14.499s6.33301 9.5 12 15.5l9.50098 10l116 146c9.33301 10 18.666 15 27.999 15c3.33301 0 5.83301 -0.666992 7.5 -2
s3.33398 -5.66602 5.00098 -12.999s2.66699 -18.833 3 -34.5s0.5 -37.834 0.5 -66.501v-253c0 -4 -0.833008 -8.16699 -2.5 -12.5s-3.5 -7.66602 -5.5 -9.99902l-8.5 -9.5c-3.66699 -4 -6.16699 -6.66699 -7.5 -8l-116 -146c-9.33301 -9.33301 -18.666 -14 -27.999 -14z" />
    <glyph glyph-name="gershayim" unicode="&#x5f4;" horiz-adv-x="693" 
d="M417 820c-4 0 -7.16797 1.83105 -9.50098 5.49805s-4.16602 14.167 -5.49902 31.5s-2 43.666 -2 78.999v252c0 4 0.833008 8.16699 2.5 12.5s3.5 7.66602 5.5 9.99902l8.5 9.5c3.66699 4 6.16699 6.66699 7.5 8l116 146c10 10 19.333 15 28 15
c4 0 6.66699 -0.666992 8 -2s2.83301 -5.66602 4.5 -12.999s2.66699 -18.666 3 -33.999s0.5 -37.666 0.5 -66.999v-253c0 -4 -0.833008 -8.16699 -2.5 -12.5s-3.33398 -7.66602 -5.00098 -9.99902s-4.5 -5.5 -8.5 -9.5s-6.33301 -6.66699 -7 -8l-116 -146
c-9.33301 -9.33301 -18.666 -14 -27.999 -14zM140.999 819.998c-4 0 -7.16895 1.83398 -9.50195 5.50098s-4.16602 14.167 -5.49902 31.5s-2 43.666 -2 78.999v252c0 4 0.833008 8.16699 2.5 12.5s3.5 7.66602 5.5 9.99902l8.5 9.5c3.66699 4 6.16699 6.66699 7.5 8l116 146
c10 10 19.333 15 28 15c3.33301 0 5.83301 -0.666992 7.5 -2s3.33398 -5.66602 5.00098 -12.999s2.66699 -18.833 3 -34.5s0.5 -37.834 0.5 -66.501v-253c0 -4 -0.833008 -8.16699 -2.5 -12.5s-3.5 -7.66602 -5.5 -9.99902l-8.5 -9.5c-3.66699 -4 -6.16699 -6.66699 -7.5 -8
l-116 -146c-9.33301 -9.33301 -18.333 -14 -27 -14z" />
    <glyph glyph-name="thinspace" unicode="&#x2009;" horiz-adv-x="150" 
 />
    <glyph glyph-name="zerononjoin" unicode="&#x200c;" horiz-adv-x="1228" 
 />
    <glyph glyph-name="zerojoin" unicode="&#x200d;" horiz-adv-x="1228" 
 />
    <glyph glyph-name="lrm" unicode="&#x200e;" horiz-adv-x="1228" 
 />
    <glyph glyph-name="rlm" unicode="&#x200f;" horiz-adv-x="1228" 
 />
    <glyph glyph-name="quoteleft" unicode="&#x2018;" horiz-adv-x="417" 
d="M141 820c-4 0 -7.00195 1.66699 -9.00195 5s-3.83301 13.833 -5.5 31.5s-2.5 44.167 -2.5 79.5v252c0 5.33301 1.16699 10.166 3.5 14.499s6.33301 9.5 12 15.5l9.50098 10l116 146c9.33301 10 18.666 15 27.999 15c3.33301 0 5.83301 -0.666992 7.5 -2
s3.33398 -5.66602 5.00098 -12.999s2.66699 -18.833 3 -34.5s0.5 -37.834 0.5 -66.501v-253c0 -4 -0.833008 -8.16699 -2.5 -12.5s-3.5 -7.66602 -5.5 -9.99902l-8.5 -9.5c-3.66699 -4 -6.16699 -6.66699 -7.5 -8l-116 -146c-9.33301 -9.33301 -18.666 -14 -27.999 -14z" />
    <glyph glyph-name="quoteright" unicode="&#x2019;" horiz-adv-x="417" 
d="M141 820c-4 0 -7.00195 1.66699 -9.00195 5s-3.83301 13.833 -5.5 31.5s-2.5 44.167 -2.5 79.5v252c0 5.33301 1.16699 10.166 3.5 14.499s6.33301 9.5 12 15.5l9.50098 10l116 146c9.33301 10 18.666 15 27.999 15c3.33301 0 5.83301 -0.666992 7.5 -2
s3.33398 -5.66602 5.00098 -12.999s2.66699 -18.833 3 -34.5s0.5 -37.834 0.5 -66.501v-253c0 -4 -0.833008 -8.16699 -2.5 -12.5s-3.5 -7.66602 -5.5 -9.99902l-8.5 -9.5c-3.66699 -4 -6.16699 -6.66699 -7.5 -8l-116 -146c-9.33301 -9.33301 -18.666 -14 -27.999 -14z" />
    <glyph glyph-name="quotesinglbase" unicode="&#x201a;" horiz-adv-x="436" 
d="M109 -202c0 12.667 7.33301 26.333 22 41l129 146c10 10 20 15 30 15c4 -0 7 -0.666992 9 -2s3.83301 -5.83301 5.5 -13.5s2.66699 -19.334 3 -35.001s0.5 -37.834 0.5 -66.501v-166c0 -12 -7.33301 -25.333 -22 -40l-129 -146c-10 -10 -20 -15 -30 -15h-4
c-2.66699 0 -4.83398 0.833008 -6.50098 2.5s-3.16699 6.33398 -4.5 14.001s-2.16602 19.334 -2.49902 35.001s-0.5 37.167 -0.5 64.5v166z" />
    <glyph glyph-name="quotedblleft" unicode="&#x201c;" horiz-adv-x="693" 
d="M417 820c-4 0 -7.16797 1.83105 -9.50098 5.49805s-4.16602 14.167 -5.49902 31.5s-2 43.666 -2 78.999v252c0 4 0.833008 8.16699 2.5 12.5s3.5 7.66602 5.5 9.99902l8.5 9.5c3.66699 4 6.16699 6.66699 7.5 8l116 146c10 10 19.333 15 28 15
c4 0 6.66699 -0.666992 8 -2s2.83301 -5.66602 4.5 -12.999s2.66699 -18.666 3 -33.999s0.5 -37.666 0.5 -66.999v-253c0 -4 -0.833008 -8.16699 -2.5 -12.5s-3.33398 -7.66602 -5.00098 -9.99902s-4.5 -5.5 -8.5 -9.5s-6.33301 -6.66699 -7 -8l-116 -146
c-9.33301 -9.33301 -18.666 -14 -27.999 -14zM140.999 819.998c-4 0 -7.16895 1.83398 -9.50195 5.50098s-4.16602 14.167 -5.49902 31.5s-2 43.666 -2 78.999v252c0 4 0.833008 8.16699 2.5 12.5s3.5 7.66602 5.5 9.99902l8.5 9.5c3.66699 4 6.16699 6.66699 7.5 8l116 146
c10 10 19.333 15 28 15c3.33301 0 5.83301 -0.666992 7.5 -2s3.33398 -5.66602 5.00098 -12.999s2.66699 -18.833 3 -34.5s0.5 -37.834 0.5 -66.501v-253c0 -4 -0.833008 -8.16699 -2.5 -12.5s-3.5 -7.66602 -5.5 -9.99902l-8.5 -9.5c-3.66699 -4 -6.16699 -6.66699 -7.5 -8
l-116 -146c-9.33301 -9.33301 -18.333 -14 -27 -14z" />
    <glyph glyph-name="quotedblright" unicode="&#x201d;" horiz-adv-x="693" 
d="M417 820c-4 0 -7.16797 1.83105 -9.50098 5.49805s-4.16602 14.167 -5.49902 31.5s-2 43.666 -2 78.999v252c0 4 0.833008 8.16699 2.5 12.5s3.5 7.66602 5.5 9.99902l8.5 9.5c3.66699 4 6.16699 6.66699 7.5 8l116 146c10 10 19.333 15 28 15
c4 0 6.66699 -0.666992 8 -2s2.83301 -5.66602 4.5 -12.999s2.66699 -18.666 3 -33.999s0.5 -37.666 0.5 -66.999v-253c0 -4 -0.833008 -8.16699 -2.5 -12.5s-3.33398 -7.66602 -5.00098 -9.99902s-4.5 -5.5 -8.5 -9.5s-6.33301 -6.66699 -7 -8l-116 -146
c-9.33301 -9.33301 -18.666 -14 -27.999 -14zM140.999 819.998c-4 0 -7.16895 1.83398 -9.50195 5.50098s-4.16602 14.167 -5.49902 31.5s-2 43.666 -2 78.999v252c0 4 0.833008 8.16699 2.5 12.5s3.5 7.66602 5.5 9.99902l8.5 9.5c3.66699 4 6.16699 6.66699 7.5 8l116 146
c10 10 19.333 15 28 15c3.33301 0 5.83301 -0.666992 7.5 -2s3.33398 -5.66602 5.00098 -12.999s2.66699 -18.833 3 -34.5s0.5 -37.834 0.5 -66.501v-253c0 -4 -0.833008 -8.16699 -2.5 -12.5s-3.5 -7.66602 -5.5 -9.99902l-8.5 -9.5c-3.66699 -4 -6.16699 -6.66699 -7.5 -8
l-116 -146c-9.33301 -9.33301 -18.333 -14 -27 -14z" />
    <glyph glyph-name="quotedblbase" unicode="&#x201e;" horiz-adv-x="680" 
d="M403 -413c-4 0 -7.16797 1.83105 -9.50098 5.49805s-4.16602 14.167 -5.49902 31.5s-2 43.666 -2 78.999v252c0 4 0.833008 8.16699 2.5 12.5s3.5 7.66602 5.5 9.99902l8.5 9.5c3.66699 4 6.16699 6.66699 7.5 8l116 146c10 10 19.333 15 28 15
c4 0 6.66699 -0.666992 8 -2s2.83301 -5.66602 4.5 -12.999s2.66699 -18.666 3 -33.999s0.5 -37.666 0.5 -66.999v-253c0 -4 -0.833008 -8.16699 -2.5 -12.5s-3.33398 -7.66602 -5.00098 -9.99902s-4.5 -5.5 -8.5 -9.5s-6.33301 -6.66699 -7 -8l-116 -146
c-9.33301 -9.33301 -18.666 -14 -27.999 -14zM126.999 -413.002c-4 0 -7.16895 1.83398 -9.50195 5.50098s-4.16602 14.167 -5.49902 31.5s-2 43.666 -2 78.999v252c0 4 0.833008 8.16699 2.5 12.5s3.5 7.66602 5.5 9.99902l8.5 9.5c3.66699 4 6.16699 6.66699 7.5 8
l116 146c10 10 19.333 15 28 15c3.33301 0 5.83301 -0.666992 7.5 -2s3.33398 -5.66602 5.00098 -12.999s2.66699 -18.833 3 -34.5s0.5 -37.834 0.5 -66.501v-253c0 -4 -0.833008 -8.16699 -2.5 -12.5s-3.5 -7.66602 -5.5 -9.99902l-8.5 -9.5
c-3.66699 -4 -6.16699 -6.66699 -7.5 -8l-116 -146c-9.33301 -9.33301 -18.333 -14 -27 -14z" />
    <glyph glyph-name="newshekel" unicode="&#x20aa;" horiz-adv-x="2325" 
d="M397 1200c14.667 15.333 27.502 21.499 38.502 18.499s16.5 -13.5 16.5 -31.5v-132h717l169 172c9.33301 10 18.5 15.833 27.5 17.5s16 -0.333008 21 -6s7.5 -14.167 7.5 -25.5v-158h155c17.333 0 28.666 -5.16699 33.999 -15.5s1 -22.166 -13 -35.499l-176 -183v-296
c0 -4.66699 -2 -9.33398 -6 -14.001s-9.33301 -9.5 -16 -14.5s-11 -8.5 -13 -10.5l-170 -164c-12.667 -12 -20.667 -16.167 -24 -12.5s-5 14.834 -5 33.501v478h-708v-668c0 -18.667 -4.66699 -31.667 -14 -39l-167 -164c-14.667 -14 -26.834 -18.667 -36.501 -14
s-14.5 16 -14.5 34v841h-94c-20 6 -35.167 16.5 -45.5 31.5s-15.5 32.5 -15.5 52.5v16zM1164 204.999c36 0 87.1689 25.6689 153.502 77.002s130.166 110.833 191.499 178.5s114.833 136.334 160.5 206.001s68.5 121.167 68.5 154.5v12c0 12.667 -1.33301 30.334 -4 53.001
c-16.667 12.667 -25.667 21 -27 25c-4 8 0.333008 18 13 30l157 153c6.66699 6.66699 11.334 11.167 14.001 13.5s7.16699 5 13.5 8s13.5 4.5 21.5 4.5l309 -204l8.5 -5.5c3.66699 -2.33301 6.16699 -4.16602 7.5 -5.49902s3.5 -3 6.5 -5s4.83301 -3.66699 5.5 -5
s1.66699 -3 3 -5s1.83301 -3.83301 1.5 -5.5s-0.666016 -3.5 -1 -5.5c-0.333008 -2 -1.33301 -4.16699 -3 -6.5s-3.83398 -4.83301 -6.50098 -7.5l-166 -166c-10 -11.333 -22.667 -17 -38 -17l-139 74c-6.66699 6.66699 -12.667 10 -18 10
c-13.333 0 -27.833 -11.333 -43.5 -34s-25.834 -44.667 -30.501 -66l-58 -85l-64 -94l-66.5 -93.5c-28.333 -39 -52.833 -71 -73.5 -96l-76 -88c-30 -33.667 -57.5 -61.334 -82.5 -83.001s-53.333 -44.5 -85 -68.5s-62.167 -42.667 -91.5 -56s-61 -24.5 -95 -33.5
s-67.667 -13.5 -101 -13.5c-4.66699 0 -8.5 0.166992 -11.5 0.5s-6 1.16602 -9 2.49902s-5.33301 2.33301 -7 3s-4 2.5 -7 5.5s-5 5.16699 -6 6.5l-6.5 9c-3.33301 4.66699 -6 8 -8 10c-63.333 139.333 -156.333 308 -279 506c-2.66699 6 -5.66699 10.333 -9 13
s-6.33301 4.16699 -9 4.5s-5.66699 -0.333984 -9 -2.00098s-6 -3.33398 -8 -5.00098s-4.33301 -3.83398 -7 -6.50098l-4 -3l-103 -70c-7.33301 -4.66699 -14.666 -7 -21.999 -7c-11.333 0 -21 5.5 -29 16.5s-12 23.833 -12 38.5s5 27 15 37l137 124l137 102
c11.333 15.333 27 23 47 23c15.333 0 26.666 -6.33301 33.999 -19c38.667 -83.333 99.167 -192 181.5 -326s125.5 -205 129.5 -213z" />
    <glyph glyph-name="dottedcircle" unicode="&#x25cc;" horiz-adv-x="1276" 
d="M1024 869c18.667 0 34.832 -6.83301 48.499 -20.5s20.5 -30.167 20.5 -49.5s-6.66699 -35.833 -20 -49.5s-29.666 -20.5 -48.999 -20.5s-35.833 6.83301 -49.5 20.5s-20.5 30.167 -20.5 49.5s6.83301 35.833 20.5 49.5s30.167 20.5 49.5 20.5zM860.998 260
c19.333 0 35.833 -6.83105 49.5 -20.498s20.5 -30.167 20.5 -49.5c0 -18.667 -6.83301 -34.834 -20.5 -48.501s-30.167 -20.5 -49.5 -20.5s-35.833 6.66699 -49.5 20s-20.5 29.666 -20.5 48.999s6.83301 35.833 20.5 49.5s30.167 20.5 49.5 20.5zM251.998 423.002
c19.333 0 35.835 -6.83301 49.502 -20.5s20.5 -30.167 20.5 -49.5s-6.83301 -35.833 -20.5 -49.5s-30.167 -20.5 -49.5 -20.5c-18.667 0 -34.834 6.83301 -48.501 20.5s-20.5 30.167 -20.5 49.5s6.66699 35.833 20 49.5s29.666 20.5 48.999 20.5zM415 1031
c19.333 0 35.833 -6.66895 49.5 -20.002s20.5 -29.666 20.5 -48.999s-6.83301 -35.833 -20.5 -49.5s-30.167 -20.5 -49.5 -20.5s-35.833 6.83301 -49.5 20.5s-20.5 30.167 -20.5 49.5c0 18.667 6.83301 34.834 20.5 48.501s30.167 20.5 49.5 20.5zM252 869
c19.333 0 35.8311 -6.83301 49.498 -20.5s20.5 -30.167 20.5 -49.5s-6.83301 -35.833 -20.5 -49.5s-30.167 -20.5 -49.5 -20.5s-35.666 6.83301 -48.999 20.5s-20 30.167 -20 49.5s6.83301 35.833 20.5 49.5s29.834 20.5 48.501 20.5zM414.998 260
c19.333 0 35.833 -6.83496 49.5 -20.502s20.5 -30.167 20.5 -49.5s-6.83301 -35.666 -20.5 -48.999s-30.167 -20 -49.5 -20s-35.833 6.83301 -49.5 20.5s-20.5 29.834 -20.5 48.501c0 19.333 6.83301 35.833 20.5 49.5s30.167 20.5 49.5 20.5zM1024 422.998
c19.333 0 35.668 -6.83301 49.001 -20.5s20 -30.167 20 -49.5s-6.83301 -35.833 -20.5 -49.5s-29.834 -20.5 -48.501 -20.5c-19.333 0 -35.833 6.83301 -49.5 20.5s-20.5 30.167 -20.5 49.5s6.83301 35.833 20.5 49.5s30.167 20.5 49.5 20.5zM861 1031
c19.333 0 35.833 -6.83105 49.5 -20.498s20.5 -29.834 20.5 -48.501c0 -19.333 -6.83301 -35.833 -20.5 -49.5s-30.167 -20.5 -49.5 -20.5s-35.833 6.83301 -49.5 20.5s-20.5 30.167 -20.5 49.5s6.83301 35.666 20.5 48.999s30.167 20 49.5 20zM638 200
c19.333 0 35.833 -6.83301 49.5 -20.5s20.5 -30.167 20.5 -49.5s-6.83301 -35.666 -20.5 -48.999s-30.167 -20 -49.5 -20s-35.833 6.66699 -49.5 20s-20.5 29.666 -20.5 48.999s6.83301 35.833 20.5 49.5s30.167 20.5 49.5 20.5zM1084 646
c19.333 0 35.666 -6.83301 48.999 -20.5s20 -30.167 20 -49.5s-6.66699 -35.833 -20 -49.5s-29.666 -20.5 -48.999 -20.5s-35.833 6.83301 -49.5 20.5s-20.5 30.167 -20.5 49.5s6.83301 35.833 20.5 49.5s30.167 20.5 49.5 20.5zM638 1093c19.333 0 35.833 -7 49.5 -21
s20.5 -30.667 20.5 -50s-6.83301 -35.833 -20.5 -49.5s-30.167 -20.5 -49.5 -20.5s-35.833 6.83301 -49.5 20.5s-20.5 30.167 -20.5 49.5s6.83301 36 20.5 50s30.167 21 49.5 21zM192 646c19.333 0 35.833 -6.83301 49.5 -20.5s20.5 -30.167 20.5 -49.5
s-6.83301 -35.833 -20.5 -49.5s-30.167 -20.5 -49.5 -20.5s-35.666 6.83301 -48.999 20.5s-20 30.167 -20 49.5s6.66699 35.833 20 49.5s29.666 20.5 48.999 20.5z" />
    <glyph glyph-name="finalkafsheva" unicode="&#xe802;" horiz-adv-x="1119" 
d="M828 -587c-10 -14.667 -22.498 -19.668 -37.498 -15.001s-22.5 16.667 -22.5 36v1296c0 34.667 -7.66699 57 -23 67s-46 15 -92 15h-482c-40 14.667 -60 47 -60 97l254 269c5.33301 5.33301 13.666 8 24.999 8c5.33301 0 9.5 -0.833008 12.5 -2.5
s3.83301 -4.16699 2.5 -7.5l-49 -102c-2 -4.66699 -3.33301 -8.5 -4 -11.5s-0.666992 -5.5 0 -7.5s1.5 -3.33301 2.5 -4s3 -1.16699 6 -1.5s5.83301 -0.5 8.5 -0.5s6.33398 0.166992 11.001 0.5s9 0.5 13 0.5h509c30.667 0 52.667 -9 66 -27s20 -50 20 -96v-1297
c0 -7.33301 1.66699 -15.166 5 -23.499s5.66602 -14 6.99902 -17s0.666016 -6.83301 -2.00098 -11.5zM570.002 407.999c12 0 19.333 -1.66699 22 -5s1.66699 -11.333 -3 -24l-34 -90c-7.33301 -16 -17 -24 -29 -24h-110c-24 0 -30.667 9.66699 -20 29l38 89l5.5 13.5
c1 2.33301 3.16699 4.83301 6.5 7.5s7.33301 4 12 4h112zM585.002 622.999c12 0 19.333 -1.66699 22 -5s1.66699 -11.333 -3 -24l-34 -90c-7.33301 -16 -17 -24 -29 -24h-110c-24 0 -30.667 9.66699 -20 29l38 89l5.5 13.5c1 2.33301 3.16699 4.83301 6.5 7.5
s7.33301 4 12 4h19h93z" />
    <glyph glyph-name="finalkafqamats" unicode="&#xe803;" horiz-adv-x="1119" 
d="M828 -587c-10 -14.667 -22.498 -19.668 -37.498 -15.001s-22.5 16.667 -22.5 36v1296c0 34.667 -7.66699 57 -23 67s-46 15 -92 15h-482c-40 14.667 -60 47 -60 97l254 269c5.33301 5.33301 13.666 8 24.999 8c5.33301 0 9.5 -0.833008 12.5 -2.5
s3.83301 -4.16699 2.5 -7.5l-49 -102c-2 -4.66699 -3.33301 -8.5 -4 -11.5s-0.666992 -5.5 0 -7.5s1.5 -3.33301 2.5 -4s3 -1.16699 6 -1.5s5.83301 -0.5 8.5 -0.5s6.33398 0.166992 11.001 0.5s9 0.5 13 0.5h509c30.667 0 52.667 -9 66 -27s20 -50 20 -96v-1297
c0 -7.33301 1.66699 -15.166 5 -23.499s5.66602 -14 6.99902 -17s0.666016 -6.83301 -2.00098 -11.5zM479.002 506.999v-169c0 -2.66699 -3.66699 -9 -11 -19l-59 -59c-5.33301 -6 -10 -8.5 -14 -7.5s-6 5.16699 -6 12.5v207c0 8 -6.5 15.833 -19.5 23.5
s-26.167 11.5 -39.5 11.5h-61c-20 0 -25.333 8.33301 -16 25l31 71c5.33301 11.333 10 17.333 14 18c1.33301 0.666992 3 1 5 1h303c10 0 16 -1.33301 18 -4s1 -9 -3 -19l-27 -72c-6 -13.333 -13.667 -20 -23 -20h-92z" />
    <glyph glyph-name="yodhiriq" unicode="&#xfb1d;" horiz-adv-x="629" 
d="M514 1162v-563.999c0 -13.333 -7 -27 -21 -41l-169 -164c-8 -10 -16.667 -15 -26 -15c-6 0 -10.167 1.66699 -12.5 5s-4.33301 13.333 -6 30s-2.5 43.667 -2.5 81v343c0 2 -1.16699 3.83301 -3.5 5.5s-6.16602 2.66699 -11.499 3s-12 -1.16699 -20 -4.5
c-22 -10 -41.833 -19.833 -59.5 -29.5s-30 -16.667 -37 -21s-14.667 -7.83301 -23 -10.5s-17.5 -4 -27.5 -4c-10.667 0 -17.167 2.66699 -19.5 8s0.166992 11.666 7.5 18.999l374 368c11.333 12.667 23.666 18.667 36.999 18s20 -9.66699 20 -27zM464 263.001
c12 0 19.333 -1.66699 22 -5s1.66699 -11.333 -3 -24l-34 -90c-7.33301 -16 -17 -24 -29 -24h-110c-24 0 -30.667 9.66699 -20 29l38 89l5.5 13.5c1 2.33301 3.16699 4.83301 6.5 7.5s7.33301 4 12 4h20h92z" />
    <glyph glyph-name="varika" unicode="&#xfb1e;" 
 />
    </font>
</defs>
</svg>
