<svg xmlns="http://www.w3.org/2000/svg">
<defs>
<font id="TaameyFrankCLM-Medium" horiz-adv-x="0" >
  <font-face 
    font-family="Taamey Frank CLM"
    font-weight="500"
    font-stretch="normal"
    units-per-em="2048"
    panose-1="2 0 0 0 0 0 0 0 0 0"
    ascent="1638"
    descent="-410"
    x-height="795"
    cap-height="1232"
    bbox="-388 -895 1670 1895"
    underline-thickness="70"
    underline-position="-170"
    unicode-range="U+0020-U+FB4F"
  />
<missing-glyph horiz-adv-x="942" 
d="M438 1160c-51.333 0 -92.999 -9.83203 -124.999 -29.499s-48 -45.5 -48 -77.5c0 -16 8.5 -31.333 25.5 -46s25.5 -28.667 25.5 -42c0 -15.333 -5.33301 -27.5 -16 -36.5s-24.334 -13.5 -41.001 -13.5c-17.333 0 -30.5 8.16699 -39.5 24.5s-13.5 36.166 -13.5 59.499
c0 62.667 21.5 110.5 64.5 143.5s100.5 49.5 172.5 49.5c74.667 0 134.167 -19.833 178.5 -59.5s66.5 -93.834 66.5 -162.501c0 -30 -5.5 -58.333 -16.5 -85s-22.333 -47.167 -34 -61.5s-28.5 -32.5 -50.5 -54.5l-29 -33c-20 -22.667 -36.5 -43 -49.5 -61
s-26 -43.5 -39 -76.5s-19.5 -65.5 -19.5 -97.5h-24c0 59.333 8.33301 108.833 25 148.5s46 87.834 88 144.501c43.333 62 65 125.667 65 191c0 49.333 -16 90.833 -48 124.5s-71.333 50.5 -118 50.5zM494.001 328.001c0 -16 -5.66602 -30.332 -16.999 -42.999
s-26 -19 -44 -19c-16 0 -29.5 5.83301 -40.5 17.5s-16.5 26.5 -16.5 44.5s5.16699 33 15.5 45s24.166 18 41.499 18c18 0 32.667 -6.33301 44 -19s17 -27.334 17 -44.001zM799.002 98.002v1215h-689v-1215h689zM882.002 1412v-1412h-855v1412h855z" />
    <glyph glyph-name="aleflamed" unicode="&#x5d0;&#x200d;&#x5dc;" horiz-adv-x="1038" 
d="M789 1052c62.667 -6 107.329 -23.166 133.996 -51.499s40 -60.166 40 -95.499c0 -61.333 -19.667 -117.333 -59 -168h-19v25v12c0 9.33301 -9.16699 18.333 -27.5 27s-36.166 13 -53.499 13l-30 -114c-1.33301 -6 -5.16602 -19.333 -11.499 -40
s-10.833 -38.5 -13.5 -53.5s-4 -30.167 -4 -45.5c0 -48.667 15.667 -93.667 47 -135l86 -110c56.667 -72.667 85 -133 85 -181c0 -58 -23 -108.333 -69 -151h-27c-2.66699 39.333 -20 81 -52 125l-404 561l-81 89c-25.333 33.333 -58.666 50 -99.999 50h-30
c-34.667 0 -62.334 16.167 -83.001 48.5s-31 72.166 -31 119.499c0 67.333 11 134.666 33 201.999l29 85c4.66699 14 7 25.333 7 34c0 19.333 -12 35 -36 47l-56 27c-28.667 14 -43 33.667 -43 59c0 15.333 6.33301 41.5 19 78.5s24.667 63.833 36 80.5h25
c6 -22 19 -37 39 -45l41 -16c42 -16.667 63 -42.334 63 -77.001c0 -2 -2.66699 -12.333 -8 -31l-21 -75l-21 -78l-14 -51c-6.66699 -24 -10 -50 -10 -78c0 -54.667 20 -82 60 -82h48c30.667 0 63 -22.667 97 -68l302 -409c3.33301 30.667 6 52.834 8 66.501
s8.83301 37.5 20.5 71.5s27.5 68.333 47.5 103c-51.333 10 -86.5 30 -105.5 60s-28.5 69.333 -28.5 118c0 52.667 13.667 98.667 41 138h27c4.66699 -20 16.834 -38.5 36.501 -55.5s41.834 -26.833 66.501 -29.5z" />
    <glyph glyph-name=".notdef" horiz-adv-x="942" 
d="M438 1160c-51.333 0 -92.999 -9.83203 -124.999 -29.499s-48 -45.5 -48 -77.5c0 -16 8.5 -31.333 25.5 -46s25.5 -28.667 25.5 -42c0 -15.333 -5.33301 -27.5 -16 -36.5s-24.334 -13.5 -41.001 -13.5c-17.333 0 -30.5 8.16699 -39.5 24.5s-13.5 36.166 -13.5 59.499
c0 62.667 21.5 110.5 64.5 143.5s100.5 49.5 172.5 49.5c74.667 0 134.167 -19.833 178.5 -59.5s66.5 -93.834 66.5 -162.501c0 -30 -5.5 -58.333 -16.5 -85s-22.333 -47.167 -34 -61.5s-28.5 -32.5 -50.5 -54.5l-29 -33c-20 -22.667 -36.5 -43 -49.5 -61
s-26 -43.5 -39 -76.5s-19.5 -65.5 -19.5 -97.5h-24c0 59.333 8.33301 108.833 25 148.5s46 87.834 88 144.501c43.333 62 65 125.667 65 191c0 49.333 -16 90.833 -48 124.5s-71.333 50.5 -118 50.5zM494.001 328.001c0 -16 -5.66602 -30.332 -16.999 -42.999
s-26 -19 -44 -19c-16 0 -29.5 5.83301 -40.5 17.5s-16.5 26.5 -16.5 44.5s5.16699 33 15.5 45s24.166 18 41.499 18c18 0 32.667 -6.33301 44 -19s17 -27.334 17 -44.001zM799.002 98.002v1215h-689v-1215h689zM882.002 1412v-1412h-855v1412h855z" />
    <glyph glyph-name=".null" 
 />
    <glyph glyph-name=".null" 
 />
    <glyph glyph-name="space" unicode=" " horiz-adv-x="682" 
 />
    <glyph glyph-name="exclam" unicode="!" horiz-adv-x="494" 
d="M285 444c-2.66699 -15.333 -9.16699 -29.5 -19.5 -42.5s-18.166 -19.5 -23.499 -19.5c-4.66699 0 -12.834 7.83301 -24.501 23.5s-17.5 28.5 -17.5 38.5l-69 491c-5.33301 48 -8 83.333 -8 106c0 106.667 40.333 160 121 160c80 0 120 -54 120 -162
c0 -20 -3.66699 -54 -11 -102zM131 164l87.001 121c10.667 13.333 20 20 28 20c7.33301 0 15.666 -6.66699 24.999 -20l87 -121c7.33301 -10.667 11 -19.667 11 -27c0 -8 -3.66699 -17.333 -11 -28l-87 -121c-10 -14.667 -18.333 -22 -25 -22s-16 7.33301 -28 22l-87 121
c-5.33301 10.667 -8 20 -8 28c0 7.33301 2.66699 16.333 8 27z" />
    <glyph glyph-name="quotedbl" unicode="&#x22;" horiz-adv-x="730" 
d="M577 1188c35.333 0 59.833 -6.83301 73.5 -20.5s20.5 -29.5 20.5 -47.5c0 -12.667 -5.66699 -35.667 -17 -69l-202 -420h-46v45c0 110.667 8.66699 235.667 26 375c0 9.33301 1.83301 20.5 5.5 33.5s10.167 27.833 19.5 44.5s24.5 30.667 45.5 42s45.833 17 74.5 17z
M258 1201c62.667 0 94 -22.667 94 -68c0 -5.33301 -1.33301 -13.666 -4 -24.999s-5.33398 -21.333 -8.00098 -30l-5 -13l-202 -420h-46v44c0 111.333 8.66699 236.666 26 375.999c0 11.333 2 23.666 6 36.999s10.667 27.833 20 43.5s24.333 28.834 45 39.501
s45.334 16 74.001 16z" />
    <glyph glyph-name="numbersign" unicode="#" horiz-adv-x="972" 
d="M229 372h-173v113h188l32 225h-174v113h190l51 348h123l-51 -348h210l51 348h123l-51 -348h170v-113h-186l-32 -225h172v-113h-188l-54 -372h-123l54 372h-209l-55 -372h-123zM399 710l-32 -225h210l32 225h-210z" />
    <glyph glyph-name="dollar" unicode="$" horiz-adv-x="948" 
d="M99 865c0 92 28.5039 165.006 85.5039 219.006s133.833 88 230.5 102v181h107v-179c82.667 0 154.334 -27.333 215.001 -82c54.667 -44 82 -99.667 82 -167c0 -80 -38.667 -120 -116 -120c-36 0 -63.667 10.167 -83 30.5s-29 45.5 -29 75.5c0 18 3.66699 33.5 11 46.5
s15.166 22.333 23.499 28s16.166 11.334 23.499 17.001s11 11.167 11 16.5c0 29.333 -46 49.666 -138 60.999v-393l26 -6c56 -16.667 104.5 -36.334 145.5 -59.001s72.5 -45.334 94.5 -68.001s39.5 -48 52.5 -76s21.167 -52.833 24.5 -74.5s5 -45.834 5 -72.501
c0 -61.333 -11 -116.333 -33 -165s-50.5 -87 -85.5 -115s-72.167 -49 -111.5 -63s-78.666 -21 -117.999 -21v-203h-107v203c-28 0 -57 3.16699 -87 9.5s-60.167 16.833 -90.5 31.5s-57.333 32.167 -81 52.5s-42.834 46 -57.501 77s-22 64.833 -22 101.5
c0 16 2 31.833 6 47.5s10.667 31.167 20 46.5s23.166 27.833 41.499 37.5s40.166 14.5 65.499 14.5c33.333 0 59.5 -10.333 78.5 -31s28.5 -45.334 28.5 -74.001c0 -21.333 -4.5 -40.333 -13.5 -57s-18.667 -28.834 -29 -36.501s-20 -15.167 -29 -22.5
s-13.5 -13.333 -13.5 -18c0 -20 20.167 -39.5 60.5 -58.5s81.166 -28.5 122.499 -28.5v446c-210.667 61.333 -316 176.666 -316 345.999zM415.004 1094.01c-42.667 0 -83.167 -17.668 -121.5 -53.001s-57.5 -75.666 -57.5 -120.999c0 -85.333 59.667 -147.333 179 -186v360z
M522.004 75.0049c64.667 8 115.501 29.668 152.501 65.001s55.5 83.666 55.5 144.999c0 103.333 -67.667 172 -203 206c-2.66699 0.666992 -4.33398 1 -5.00098 1v-417z" />
    <glyph glyph-name="percent" unicode="%" horiz-adv-x="1447" 
d="M77 759c0 33.333 6.33301 70 19 110s31 79.833 55 119.5s51.833 76 83.5 109s68.5 59.667 110.5 80s85 30.5 129 30.5c62.667 0 114.667 -26.667 156 -80c43.333 -24.667 84.666 -37 123.999 -37c114.667 0 207 47 277 141h104l-707 -1232h-111l605 1058
c-58 -32.667 -115.667 -49 -173 -49c-25.333 0 -53.666 4.33301 -84.999 13c1.33301 -10 2 -19.667 2 -29c0 -44.667 -8.83301 -92.5 -26.5 -143.5s-42 -99 -73 -144s-70.5 -82.5 -118.5 -112.5s-99 -45 -153 -45c-63.333 0 -115.5 19.5 -156.5 58.5
s-61.5 89.833 -61.5 152.5zM329 638c62 0 119.999 37.333 173.999 112s81 154.667 81 240c0 18 -3 39 -9 63c-40 14 -71.333 35 -94 63c-34 -12.667 -58.667 -27 -74 -43s-37.666 -49.333 -66.999 -100c-20 -34.667 -35.333 -62 -46 -82s-21.667 -46 -33 -78
s-17 -59.667 -17 -83c0 -26 7.83301 -47.833 23.5 -65.5s36.167 -26.5 61.5 -26.5zM784.999 232c0 67.333 17.001 135.669 51.001 205.002s82 127.833 144 175.5s128 71.5 198 71.5c59.333 0 107.333 -18.833 144 -56.5s55 -86.5 55 -146.5
c0 -29.333 -4.83301 -63 -14.5 -101s-24.834 -77.833 -45.501 -119.5s-45 -79.834 -73 -114.501s-62.833 -63.334 -104.5 -86.001s-85.834 -34 -132.501 -34c-65.333 0 -118.666 19.333 -159.999 58s-62 88 -62 148zM1294 466.003c0 33.333 -9.33203 62.498 -27.999 87.498
s-41.334 37.5 -68.001 37.5c-44 0 -89 -37.667 -135 -113c-76 -121.333 -114 -211.666 -114 -270.999c0 -26.667 8.5 -48.167 25.5 -64.5s37.5 -24.5 61.5 -24.5c62 0 120.5 36.333 175.5 109s82.5 152.334 82.5 239.001z" />
    <glyph glyph-name="ampersand" unicode="&#x26;" horiz-adv-x="1390" 
d="M1096 116c41.333 0 74.501 16.665 99.501 49.998s42.5 74 52.5 122l75 -10c-12.667 -91.333 -45.167 -163.666 -97.5 -216.999s-119.5 -80 -201.5 -80c-48 0 -90.667 9 -128 27s-75.333 47.333 -114 88c-104.667 -81.333 -214 -122 -328 -122
c-62 0 -117.5 10.667 -166.5 32s-87.5 49.333 -115.5 84s-49.167 71.834 -63.5 111.501s-21.5 80.167 -21.5 121.5c0 75.333 25.5 145.833 76.5 211.5s123.833 121.167 218.5 166.5c-47.333 102 -71 187 -71 255c0 90 27 162.833 81 218.5s126.333 83.5 217 83.5
c79.333 0 143.666 -21 192.999 -63s74 -98 74 -168c0 -46.667 -12 -91.167 -36 -133.5s-55.333 -77.5 -94 -105.5c-34.667 -24 -90 -53 -166 -87c105.333 -192 197 -333 275 -423c80 92 120 178 120 258c0 53.333 -51.333 80 -154 80h-17v73h481v-73h-19
c-17.333 0 -33.166 -1.5 -47.499 -4.5s-26.833 -6.16699 -37.5 -9.5s-21.334 -10 -32.001 -20l-26 -24.5c-6.66699 -6.33301 -15 -17.666 -25 -33.999l-23 -38.5c-5.33301 -9.33301 -14 -25.5 -26 -48.5l-28 -52.5c-28.667 -50.667 -66.334 -105.334 -113.001 -164.001
c64.667 -69.333 127.334 -104 188.001 -104zM604.001 1184c-39.333 0 -71.334 -15.832 -96.001 -47.499s-37 -72.167 -37 -121.5c0 -61.333 24.333 -142 73 -242c0.666992 0 6.33398 2.33301 17.001 7s21 9.66699 31 15s22.333 12.666 37 21.999s28 20.5 40 33.5
s23.5 27.5 34.5 43.5s19.667 35.333 26 58s9.5 46.667 9.5 72c0 47.333 -12.5 85.833 -37.5 115.5s-57.5 44.5 -97.5 44.5zM729 153.999c-68 78.667 -123.168 150.167 -165.501 214.5s-91.833 151.833 -148.5 262.5c-44.667 -25.333 -80 -54.5 -106 -87.5
s-39 -75.833 -39 -128.5c0 -88 29 -164.167 87 -228.5s124.333 -96.5 199 -96.5c48.667 0 106.334 21.333 173.001 64z" />
    <glyph glyph-name="quotesingle" unicode="'" horiz-adv-x="382" 
d="M258 1201c62.667 0 94 -22.667 94 -68c0 -5.33301 -1.33301 -13.666 -4 -24.999s-5.33398 -21.333 -8.00098 -30l-5 -13l-202 -420h-46v44c0 111.333 8.66699 236.666 26 375.999c0 11.333 2 23.666 6 36.999s10.667 27.833 20 43.5s24.333 28.834 45 39.501
s45.334 16 74.001 16z" />
    <glyph glyph-name="parenleft" unicode="(" horiz-adv-x="593" 
d="M263 519c0 -162.667 18.167 -296.332 54.5 -400.999s97.833 -194.667 184.5 -270l-26 -58c-98 60 -177.667 128.333 -239 205c-117.333 154 -176 330.333 -176 529c0 212 66.667 397.333 200 556c53.333 63.333 125 122.666 215 177.999l26 -70
c-86.667 -75.333 -148.167 -165 -184.5 -269s-54.5 -237.333 -54.5 -400z" />
    <glyph glyph-name="parenright" unicode=")" horiz-adv-x="593" 
d="M118 1258c52 -31.333 99.168 -66.001 141.501 -104.001s77.5 -75.667 105.5 -113s52.667 -76.833 74 -118.5s37.666 -80.167 48.999 -115.5s20.5 -71.833 27.5 -109.5s11.5 -69.5 13.5 -95.5s3 -52 3 -78c0 -160 -36.5 -302.5 -109.5 -427.5
s-174.5 -227.167 -304.5 -306.5l-26 63c86.667 76.667 148.167 167 184.5 271s54.5 237.333 54.5 400s-18.167 295.834 -54.5 399.501s-97.833 193.5 -184.5 269.5z" />
    <glyph glyph-name="asterisk" unicode="*" horiz-adv-x="882" 
d="M370 568c0 17.333 3.66406 33.668 10.9971 49.001s14.833 35.5 22.5 60.5s11.5 58.167 11.5 99.5v61l-53 -31l-41 -22c-4 -2.66699 -9.83301 -7.16699 -17.5 -13.5l-16.5 -13.5l-34 -49c-21.333 -32 -45.666 -48 -72.999 -48c-25.333 0 -43.666 7 -54.999 21
s-17 28.667 -17 44c0 59.333 42.667 89 128 89c20.667 0 53.667 12.667 99 38l52 31l-52 31c-28.667 16 -46.834 25.667 -54.501 29s-18.167 6 -31.5 8c-19.333 8 -41 12 -65 12c-26 0 -47.167 7.83301 -63.5 23.5s-24.5 34.167 -24.5 55.5c0 24.667 8.16699 42.5 24.5 53.5
s31.833 16.5 46.5 16.5c16.667 0 31 -4.83301 43 -14.5s25.167 -23.667 39.5 -42s26.833 -32.166 37.5 -41.499c12.667 -12.667 21.334 -20.667 26.001 -24s11 -6.83301 19 -10.5s18 -9.16699 30 -16.5l53 -32v130c0 6 -7.5 27.167 -22.5 63.5s-22.5 61.5 -22.5 75.5
c0 20.667 7.5 37.834 22.5 51.501s31.5 20.5 49.5 20.5c19.333 -3.33301 34.666 -10.333 45.999 -21s18.166 -20.334 20.499 -29.001s3.5 -17 3.5 -25c0 -14 -6.83301 -38.333 -20.5 -73s-20.5 -62.667 -20.5 -84c-2 -8 -3 -24.333 -3 -49v-62l54 34c6 4 11.5 7 16.5 9
s9.83301 4.33301 14.5 7c22.667 14 40.334 28.667 53.001 44c6.66699 6.66699 17.167 19.167 31.5 37.5s27 31.5 38 39.5s23.167 12 36.5 12c6 0 14 -1.16699 24 -3.5s21.167 -9 33.5 -20s18.5 -25.5 18.5 -43.5c0 -25.333 -9.66699 -45.333 -29 -60s-39 -22 -59 -22
c-10.667 0 -27.167 -2 -49.5 -6s-36.5 -8.33301 -42.5 -13c-11.333 -3.33301 -31.333 -13.333 -60 -30l-53 -31l53 -31c32.667 -18.667 53.667 -28.667 63 -30c20 -9.33301 37.667 -14 53 -14l26 -3c16.667 -2.66699 31 -5.83398 43 -9.50098s24 -11.5 36 -23.5
s18 -27.333 18 -46c0 -26 -8.33301 -44.5 -25 -55.5s-32.334 -16.5 -47.001 -16.5c-14 0 -27.333 4.33301 -40 13s-23.167 19 -31.5 31s-19.666 26.167 -33.999 42.5s-29.166 29.833 -44.499 40.5c-6.66699 3.33301 -21.334 11.666 -44.001 24.999l-52 31v-61
c0 -4.66699 -0.166992 -10 -0.5 -16s-0.5 -10.333 -0.5 -13c0 -28.667 7.66699 -63 23 -103s23 -65.667 23 -77c0 -20 -7.66699 -37.167 -23 -51.5s-31.666 -21.5 -48.999 -21.5s-33.666 6.33301 -48.999 19s-23 30.667 -23 54z" />
    <glyph glyph-name="plus" unicode="+" horiz-adv-x="1034" 
d="M449 500v362h136v-362h362v-136h-362v-364h-136v364h-362v136h362z" />
    <glyph glyph-name="comma" unicode="," horiz-adv-x="496" 
d="M201 -208l-4.99902 -0.000976562h-5.5c-1 0 -2.83301 0.333008 -5.5 1s-4.5 1.5 -5.5 2.5s-2.16699 2.5 -3.5 4.5s-2.33301 4.66699 -3 8s-1 7 -1 11c0 6.66699 0.666992 11.667 2 15l41 159v22c0 14 -4 25 -12 33l-51 61c-8 8.66699 -12 18 -12 28
c0 9.33301 4 18.333 12 27l95 116c11.333 13.333 21.666 20 30.999 20c8 0 17.667 -6.66699 29 -20l96 -116c5.33301 -5.33301 8 -13.333 8 -24c0 -13.333 -2.66699 -23.666 -8 -30.999l-174 -300c-10 -11.333 -19.333 -17 -28 -17z" />
    <glyph glyph-name="hyphen" unicode="-" horiz-adv-x="665" 
d="M594 573l-32.9971 -126c0 -10.667 -2.5 -17.5 -7.5 -20.5s-13.167 -4.5 -24.5 -4.5h-449c-28.667 0 -38.334 11.333 -29.001 34l36 126c2 10 5 16.833 9 20.5s11.333 5.5 22 5.5h450c13.333 0 22.166 -2 26.499 -6s4.16602 -13.667 -0.500977 -29z" />
    <glyph glyph-name="period" unicode="." horiz-adv-x="494" 
d="M152 164l95.001 115.999c11.333 13.333 21.666 20 30.999 20c8 0 17.667 -6.66699 29 -20l96 -116c8 -11.333 12 -20.333 12 -27c0 -7.33301 -4 -16.666 -12 -27.999l-96 -116c-12 -14.667 -21.667 -22 -29 -22c-8.66699 0 -19 7.33301 -31 22l-95 116
c-8 8.66699 -12 18 -12 28c0 9.33301 4 18.333 12 27z" />
    <glyph glyph-name="slash" unicode="/" horiz-adv-x="500" 
d="M416 1258h125l-456 -1282h-124z" />
    <glyph glyph-name="zero" unicode="0" horiz-adv-x="972" 
d="M67 584c0 116.667 17.666 221.832 52.999 315.499s85.833 167.334 151.5 221.001s140.834 80.5 225.501 80.5c80.667 0 152.167 -26.167 214.5 -78.5s110.333 -125.666 144 -219.999s50.5 -202.166 50.5 -323.499c0 -180 -39.333 -325.833 -118 -437.5
s-180.334 -167.5 -305.001 -167.5c-82 0 -154.667 26.667 -218 80s-112.166 126.166 -146.499 218.499s-51.5 196.166 -51.5 311.499zM485.999 64.998c27.333 0 52.334 9.33301 75.001 28s45.667 45.667 69 81c34 81.333 51 199 51 353v82v32c0 50.667 -0.666992 93 -2 127
s-6.5 75.167 -15.5 123.5s-21.833 87.5 -38.5 117.5c-40 68 -86.667 102 -140 102c-60.667 0 -111.334 -43.667 -152.001 -131c-28.667 -64 -43 -184.667 -43 -362c0 -129.333 4 -227 12 -293s22.667 -118.667 44 -158c40 -68 86.667 -102 140 -102z" />
    <glyph glyph-name="one" unicode="1" horiz-adv-x="972" 
d="M189 1075c70.667 0 142.833 12 216.5 36s125.5 54 155.5 90h88c0 -40 -2 -91.833 -6 -155.5s-6 -107.167 -6 -130.5v-697v-48c0 -31.333 4 -50.333 12 -57c11.333 -16 58.333 -24 141 -24h68v-89h-675v89h85c67.333 0 109.5 4.5 126.5 13.5s25.5 31.167 25.5 66.5v717
c0 50 -5.33301 80 -16 90c-9.33301 11.333 -39.333 17 -90 17h-125v82z" />
    <glyph glyph-name="two" unicode="2" horiz-adv-x="972" 
d="M483 1201c126 0 224.333 -30.4951 295 -91.4951s106 -141.167 106 -240.5c0 -36.667 -5.33301 -71.834 -16 -105.501s-24.334 -64.167 -41.001 -91.5s-40.667 -57 -72 -89s-62 -60.5 -92 -85.5l-117 -93.5c-72 -56.667 -149.333 -126.334 -232 -209.001h335
c54.667 0 89.834 6 105.501 18s28.167 40 37.5 84l15 72h84v-369h-819v48l167 210l234 249c122.667 127.333 184 257.666 184 390.999c0 66 -20.167 117.667 -60.5 155s-95.833 56 -166.5 56c-49.333 0 -95 -16.5 -137 -49.5s-63 -68.833 -63 -107.5
c0 -3.33301 0.833008 -6.66602 2.5 -9.99902s4 -6.33301 7 -9s5.66699 -4.83398 8 -6.50098s5.33301 -3.33398 9 -5.00098s5.83398 -2.83398 6.50098 -3.50098c28 -6.66699 52.333 -19.167 73 -37.5s31 -43.833 31 -76.5c0 -31.333 -11 -56.5 -33 -75.5s-51 -28.5 -87 -28.5
c-48 0 -84.667 16.5 -110 49.5s-38 76.833 -38 131.5c0 89.333 36.167 165 108.5 227s164.166 93 275.499 93z" />
    <glyph glyph-name="three" unicode="3" horiz-adv-x="972" 
d="M857 908c0 -40 -7.50098 -76.8369 -22.501 -110.504s-33.333 -60.167 -55 -79.5s-43.334 -35.666 -65.001 -48.999s-39.834 -22.333 -54.501 -27l-23 -7c-2.66699 -2 -9 -4.33301 -19 -7c82.667 -14 148.834 -47.5 198.501 -100.5s74.5 -121.833 74.5 -206.5
c0 -108 -39.833 -192.833 -119.5 -254.5s-183.167 -92.5 -310.5 -92.5c-116 0 -209.833 25.667 -281.5 77s-107.5 119 -107.5 203c0 43.333 12.667 79.166 38 107.499s57 42.5 95 42.5s68.5 -9.16699 91.5 -27.5s34.5 -44.833 34.5 -79.5c0 -18 -4.66699 -34.667 -14 -50
s-19 -26.666 -29 -33.999s-21.5 -14.833 -34.5 -22.5s-20.167 -12.167 -21.5 -13.5c-3.33301 -5.33301 -5 -11.333 -5 -18c0 -26 23.5 -48.167 70.5 -66.5s92.167 -27.5 135.5 -27.5c73.333 0 131 23.167 173 69.5s63 109.5 63 189.5c0 31.333 -3 60.833 -9 88.5
s-15.667 54.167 -29 79.5s-33 45.5 -59 60.5s-57.333 22.5 -94 22.5h-121c-35.333 0 -53 16 -53 48c0 36.667 18 55 54 55c6 0 13.167 -0.333008 21.5 -1s13.833 -1 16.5 -1c13.333 0 27.5 -0.666992 42.5 -2s23.5 -2 25.5 -2c34.667 0 64.5 6.83301 89.5 20.5
s44 32.334 57 56.001s22.333 48.334 28 74.001s8.5 53.5 8.5 83.5c0 24.667 -2.83301 48.167 -8.5 70.5s-15 44 -28 65s-32 37.833 -57 50.5s-54.833 19 -89.5 19c-45.333 0 -86.5 -8.66699 -123.5 -26s-55.5 -36 -55.5 -56c0 -6.66699 3.83301 -13.834 11.5 -21.501
s16.334 -15 26.001 -22s18.334 -17 26.001 -30s11.5 -27.833 11.5 -44.5c0 -27.333 -9.16699 -51.166 -27.5 -71.499s-48.5 -30.5 -90.5 -30.5c-44 0 -75.5 12.167 -94.5 36.5s-28.5 51.833 -28.5 82.5c0 80.667 35.667 146.334 107 197.001s159.333 76 264 76
c112.667 0 202 -26.667 268 -80s99 -124.333 99 -213z" />
    <glyph glyph-name="four" unicode="4" horiz-adv-x="972" 
d="M386 89c39.333 0 67.833 2.33398 85.5 7.00098s29.167 12.167 34.5 22.5s8 27.166 8 50.499v130h-454v95l580 807h99c0 -23.333 -1.5 -73 -4.5 -149s-4.5 -140 -4.5 -192v-466h181v-95h-181v-130c0 -36 7.16699 -58.333 21.5 -67s49.833 -13 106.5 -13h7v-89h-498v89h19z
M514 394.001v453l-331 -453h331z" />
    <glyph glyph-name="five" unicode="5" horiz-adv-x="972" 
d="M831 1186c0 -22 -7.66895 -46.501 -23.002 -73.501s-36.333 -53.167 -63 -78.5s-62 -46.5 -106 -63.5s-91 -25.5 -141 -25.5c-54.667 0 -124.667 10 -210 30v-256c9.33301 3.33301 22 9 38 17s29 13.833 39 17.5s25.5 7.33398 46.5 11.001s44.833 5.5 71.5 5.5
c122 0 219.667 -35.667 293 -107s110 -165 110 -281c0 -126.667 -41.167 -226.334 -123.5 -299.001s-193.166 -109 -332.499 -109c-64 0 -120.5 9.33301 -169.5 28s-86.5 42.667 -112.5 72s-45.167 59.166 -57.5 89.499s-18.5 60.5 -18.5 90.5
c0 42.667 12.833 77.334 38.5 104.001s59.5 40 101.5 40c38 0 68.167 -9.66699 90.5 -29s33.5 -45 33.5 -77c0 -22 -5.16699 -40.667 -15.5 -56s-21.666 -26.333 -33.999 -33s-23.666 -14.167 -33.999 -22.5s-15.5 -17.166 -15.5 -26.499
c0 -26.667 21.167 -48.167 63.5 -64.5s84.833 -24.5 127.5 -24.5c74.667 0 133 24.833 175 74.5s63 127.167 63 232.5c0 56.667 -7.33301 105.5 -22 146.5s-34 71.667 -58 92s-48 34.833 -72 43.5s-49 13 -75 13h-6c-50.667 0 -104 -16.333 -160 -49
c-8 -4 -19 -17.833 -33 -41.5s-27.333 -35.5 -40 -35.5c-19.333 0 -33.5 3.16699 -42.5 9.5s-14.833 18.5 -17.5 36.5v7l14 73l13 120.5l13.5 122c3 26.333 6.33301 59.333 10 99s6.16699 74.667 7.5 105s2 59.5 2 87.5c143.333 -34 266 -51 368 -51c44 0 85 4.33301 123 13
s67.667 17.167 89 25.5s33.666 12.5 36.999 12.5c9.33301 0 14 -5 14 -15z" />
    <glyph glyph-name="six" unicode="6" horiz-adv-x="972" 
d="M628 975c0 18 4.83496 37.334 14.502 58.001s14.5 33 14.5 37c0 26 -28.333 39 -85 39c-45.333 0 -88.833 -16.5 -130.5 -49.5s-73.834 -76.833 -96.501 -131.5c-18 -39.333 -33 -91.833 -45 -157.5s-18 -125.5 -18 -179.5c73.333 95.333 164.333 143 273 143
c98 0 181.667 -34.333 251 -103c69.333 -65.333 104 -148.333 104 -249c0 -46 -8.5 -92.333 -25.5 -139s-41.5 -90.334 -73.5 -131.001s-75.167 -73.834 -129.5 -99.501s-114.833 -38.5 -181.5 -38.5c-130.667 0 -235.5 49.667 -314.5 149s-118.5 233.666 -118.5 402.999
c0 64.667 6.16699 128.334 18.5 191.001s32.333 123.334 60 182.001s61.167 110.334 100.5 155.001s88.166 80.334 146.499 107.001s122.5 40 192.5 40c87.333 0 157.833 -19.333 211.5 -58s80.5 -87.334 80.5 -146.001c0 -36.667 -11.5 -66.334 -34.5 -89.001
s-54.167 -34 -93.5 -34c-34 0 -62.667 7.66699 -86 23s-35 41.333 -35 78zM689.002 369.001c0 73.333 -15.333 132.335 -46 177.002s-76 67 -136 67c-66 0 -116.667 -25 -152 -75s-53 -114 -53 -192c0 -44.667 7.16699 -87.834 21.5 -129.501s37.333 -77.334 69 -107.001
s68.5 -44.5 110.5 -44.5c32 0 60.333 8.5 85 25.5s44.167 40.167 58.5 69.5s25 61.5 32 96.5s10.5 72.5 10.5 112.5z" />
    <glyph glyph-name="seven" unicode="7" horiz-adv-x="972" 
d="M597 179c0 -67.333 -9.00098 -118 -27.001 -152s-52 -51 -102 -51c-83.333 0 -125 42 -125 126c0 54 12.833 118.667 38.5 194s51.167 139 76.5 191s68 135.333 128 250l30 58l99 200h-106c-12.667 0 -50.167 2 -112.5 6s-118.5 6 -168.5 6h-38
c-24.667 0 -42.667 -8.33301 -54 -25s-22.333 -51.667 -33 -105l-24 -100l-83 11l52 413c63.333 0 146.666 -2.83301 249.999 -8.5s175 -8.5 215 -8.5c32 0 77.5 1.83301 136.5 5.5s102.167 5.5 129.5 5.5v-91l-77 -160c-65.333 -144.667 -112.166 -258.5 -140.499 -341.5
s-46.166 -151.333 -53.499 -205s-11 -126.5 -11 -218.5z" />
    <glyph glyph-name="eight" unicode="8" horiz-adv-x="972" 
d="M498 1201c103.333 0 188.331 -25 254.998 -75s100 -115.333 100 -196c0 -108 -65.333 -196 -196 -264c34 -15.333 63.333 -30.666 88 -45.999s50.334 -35.5 77.001 -60.5s47.167 -55.833 61.5 -92.5s21.5 -78 21.5 -124c0 -32 -4 -63.833 -12 -95.5
s-22.5 -64.334 -43.5 -98.001s-47.5 -63.167 -79.5 -88.5s-74 -46.166 -126 -62.499s-110.667 -24.5 -176 -24.5c-92.667 0 -170.5 15.5 -233.5 46.5s-108.167 75.5 -135.5 133.5c-22.667 39.333 -34 83.666 -34 132.999c0 37.333 6 71.333 18 102s26 55.667 42 75
s37.333 37.833 64 55.5s48.834 30.667 66.501 39s40.5 17.833 68.5 28.5c-27.333 14 -50.5 27.667 -69.5 41s-39.667 31.333 -62 54s-39.5 50.5 -51.5 83.5s-18 69.833 -18 110.5c0 90.667 33.5 167.5 100.5 230.5s158.5 94.5 274.5 94.5zM492.998 1111
c-64 0 -114.333 -15.833 -151 -47.5s-55 -73.167 -55 -124.5c0 -28 5 -53.167 15 -75.5s24.5 -41.5 43.5 -57.5s37.667 -29 56 -39s40.833 -20.333 67.5 -31l104 -38c43.333 36 74.5 70 93.5 102s28.5 69.667 28.5 113c0 60 -19 108 -57 144s-86.333 54 -145 54zM475.998 65
c77.333 0 139.666 18.834 186.999 56.501s71 90.5 71 158.5c0 48.667 -12 90.5 -36 125.5s-69.667 64.833 -137 89.5l-146 53c-57.333 -26.667 -100.666 -58.834 -129.999 -96.501s-44 -90.167 -44 -157.5c0 -72 20.667 -128.167 62 -168.5s99 -60.5 173 -60.5z" />
    <glyph glyph-name="nine" unicode="9" horiz-adv-x="972" 
d="M343 195c0 -15.333 -5.33203 -34.832 -15.999 -58.499s-16 -36.834 -16 -39.501c0 -21.333 31 -32 93 -32c48 0 93.167 17.667 135.5 53s74.166 84.333 95.499 147c32.667 100 49 202.667 49 308c-35.333 -44 -73.166 -77.667 -113.499 -101s-92.833 -35 -157.5 -35
c-102.667 0 -187 33.667 -253 101s-99 151.333 -99 252c0 114.667 40 212 120 292c77.333 79.333 173.333 119 288 119c132 0 237.667 -50.5 317 -151.5s119 -238.167 119 -411.5c0 -66.667 -6.33301 -131.5 -19 -194.5s-33 -123 -61 -180s-62 -106.833 -102 -149.5
s-89.333 -76.667 -148 -102s-123 -38 -193 -38c-80.667 0 -148.834 18.5 -204.501 55.5s-83.5 84.5 -83.5 142.5c0 34 11.5 63 34.5 87s55.167 36 96.5 36c40 0 69.667 -10 89 -30s29 -43.333 29 -70zM669.001 812.001c0 92 -17.499 164.833 -52.499 218.5
s-81.833 80.5 -140.5 80.5c-67.333 0 -116.333 -29.667 -147 -89c-31.333 -48 -47 -115 -47 -201c0 -52.667 6 -97.667 18 -135s28 -64.833 48 -82.5s39.667 -30 59 -37s39.666 -10.5 60.999 -10.5c16 0 32 1.83301 48 5.5s33.5 11.167 52.5 22.5s35.667 25.833 50 43.5
s26.333 42.5 36 74.5s14.5 68.667 14.5 110z" />
    <glyph glyph-name="colon" unicode=":" horiz-adv-x="494" 
d="M152 761l94.999 116c12 14 22.333 21 31 21c7.33301 0 17 -7 29 -21l96 -116c8 -11.333 12 -20.333 12 -27s-4 -15.667 -12 -27l-96 -116c-11.333 -15.333 -21 -23 -29 -23c-9.33301 0 -19.666 7.66699 -30.999 23l-95 116c-8 8.66699 -12 17.667 -12 27s4 18.333 12 27z
M151.999 164l95.001 115.999c11.333 13.333 21.666 20 30.999 20c8 0 17.667 -6.66699 29 -20l96 -116c8 -11.333 12 -20.333 12 -27c0 -7.33301 -4 -16.666 -12 -27.999l-96 -116c-12 -14.667 -21.667 -22 -29 -22c-8.66699 0 -19 7.33301 -31 22l-95 116
c-8 8.66699 -12 18 -12 28c0 9.33301 4 18.333 12 27z" />
    <glyph glyph-name="semicolon" unicode=";" horiz-adv-x="496" 
d="M201 -208c-19.333 0 -28.999 8.99902 -28.999 26.999c0 6.66699 0.666992 11.667 2 15l41 159v22c0 14 -4 25 -12 33l-51 61c-8 8.66699 -12 18 -12 28c0 9.33301 4 18.333 12 27l95 116c11.333 13.333 21.666 20 30.999 20c8 0 17.667 -6.66699 29 -20l96 -116
c5.33301 -5.33301 8 -13.333 8 -24c0 -13.333 -2.66699 -23.666 -8 -30.999l-174 -300c-10 -11.333 -19.333 -17 -28 -17zM152.001 760.999l94.999 116c12 14 22.333 21 31 21c7.33301 0 17 -7 29 -21l96 -116c8 -11.333 12 -20.333 12 -27s-4 -15.667 -12 -27l-96 -116
c-11.333 -15.333 -21 -23 -29 -23c-9.33301 0 -19.666 7.66699 -30.999 23l-95 116c-8 8.66699 -12 17.667 -12 27s4 18.333 12 27z" />
    <glyph glyph-name="less" unicode="&#x3c;" horiz-adv-x="1034" 
d="M952 748l-679 -316l679 -316v-145l-868 396v130l868 396v-145z" />
    <glyph glyph-name="equal" unicode="=" horiz-adv-x="1034" 
d="M87 191v137h860v-137h-860zM87 536v136h860v-136h-860z" />
    <glyph glyph-name="greater" unicode="&#x3e;" horiz-adv-x="1034" 
d="M82 748v145l869 -396v-130l-869 -396v145l679 316z" />
    <glyph glyph-name="question" unicode="?" horiz-adv-x="826" 
d="M410 1201c109.333 0 196.668 -25.499 262.001 -76.499s98 -118.5 98 -202.5c0 -36 -6.33301 -68.667 -19 -98s-30.334 -55.333 -53.001 -78s-46.167 -43.334 -70.5 -62.001l-83 -65.5c-31 -25 -57.167 -49.167 -78.5 -72.5c-22 -26 -37.333 -53 -46 -81
s-17.334 -47.667 -26.001 -59c-12 -16.667 -20.333 -25 -25 -25c-6.66699 0 -15.834 7.83301 -27.501 23.5s-17.5 28.167 -17.5 37.5c0 57.333 17 112.666 51 165.999c42.667 58 85 108 127 150c36 42 54 100 54 174c0 24 -4.16699 45.5 -12.5 64.5s-19 34.167 -32 45.5
s-28.167 20.666 -45.5 27.999s-34.166 12.333 -50.499 15s-33.166 4 -50.499 4c-42 0 -70.667 -8.66699 -86 -26s-23 -49.666 -23 -96.999c0 -8 -0.5 -17.667 -1.5 -29s-1.5 -18.666 -1.5 -21.999c0 -50 -29.667 -75 -89 -75c-44 0 -75.167 11.833 -93.5 35.5
s-27.5 53.167 -27.5 88.5c0 70 34.833 127 104.5 171s157.167 66 262.5 66zM254.002 164.001l86.001 121c11.333 13.333 21 20 29 20c7.33301 0 15.666 -6.66699 24.999 -20l86 -121c6.66699 -11.333 10 -20.333 10 -27c0 -7.33301 -3.33301 -16.666 -10 -27.999l-86 -121
c-12 -14.667 -21 -22 -27 -22s-15 7.33301 -27 22l-86 121c-6.66699 9.33301 -10 18.666 -10 27.999c0 8.66699 3.33301 17.667 10 27z" />
    <glyph glyph-name="at" unicode="@" horiz-adv-x="1257" 
d="M672 1169c-147.333 0 -268.005 -51.832 -362.005 -155.499s-141 -236.167 -141 -397.5c0 -160.667 48.333 -293.334 145 -398.001c95.333 -103.333 217.666 -155 366.999 -155c174 0 309.333 86 406 258h104c-10 -24 -23.667 -49.667 -41 -77s-41.5 -57.333 -72.5 -90
s-65.167 -61.834 -102.5 -87.501s-83.166 -47.167 -137.499 -64.5s-111.166 -26 -170.499 -26c-111.333 0 -212.166 27.167 -302.499 81.5s-161.5 129.833 -213.5 226.5s-78 204.667 -78 324c0 88.667 12.833 170.167 38.5 244.5s58.834 135.833 99.501 184.5
s87.334 90.167 140.001 124.5s105.334 59 158.001 74s104.334 22.5 155.001 22.5c97.333 0 187.5 -23.167 270.5 -69.5s148.5 -109 196.5 -188s72 -165.167 72 -258.5c0 -65.333 -12 -128.833 -36 -190.5s-54.833 -114.167 -92.5 -157.5s-79.5 -78 -125.5 -104
s-91 -39 -135 -39c-35.333 0 -63.833 10.333 -85.5 31s-32.5 47.334 -32.5 80.001v34c-29.333 -46.667 -57.833 -80.834 -85.5 -102.501s-59.834 -32.5 -96.501 -32.5c-59.333 0 -109.833 23 -151.5 69s-62.5 107.667 -62.5 185c0 62 11.833 119.833 35.5 173.5
s53.167 97.334 88.5 131.001s72.333 60 111 79s74.667 28.5 108 28.5c66 0 110.667 -37 134 -111l27 95h150l-125 -493c-4 -15.333 -6 -32.333 -6 -51c0 -12 4.16699 -21.833 12.5 -29.5s18.833 -11.5 31.5 -11.5c22 0 47 10.5 75 31.5s54.833 48.667 80.5 83
s47.334 77.5 65.001 129.5s26.5 105.333 26.5 160c0 53.333 -10.333 105.833 -31 157.5s-49.334 98.5 -86.001 140.5s-83.5 76 -140.5 102s-118.5 39 -184.5 39zM743.995 734.001c0 35.333 -6.33301 64.6689 -19 88.002s-32 35 -58 35c-42 0 -77.667 -24 -107 -72
c-34 -50.667 -60.167 -105.834 -78.5 -165.501s-27.5 -111.834 -27.5 -156.501c0 -50.667 8.16699 -85.667 24.5 -105s35.5 -29 57.5 -29c36 0 70.5 23.333 103.5 70s58.667 101.167 77 163.5s27.5 119.5 27.5 171.5z" />
    <glyph glyph-name="A" unicode="A" horiz-adv-x="1232" 
d="M645 1258l435 -1069c18 -44.667 35.5 -74 52.5 -88s47.5 -21 91.5 -21h24v-80h-529v80h71c70.667 0 106 15 106 45c0 6.66699 -4.66699 22 -14 46l-92 228h-452l-56 -150c-10.667 -26 -16 -50 -16 -72c0 -64.667 46 -97 138 -97h35v-80h-453v80h7
c48.667 0 85.667 13.833 111 41.5s51 74.167 77 139.5l392 997h72zM561 976l-189 -484h382z" />
    <glyph glyph-name="B" unicode="B" horiz-adv-x="1232" 
d="M1143 335c0 -75.333 -21.332 -138.668 -63.999 -190.001s-98.5 -88.333 -167.5 -111s-149.167 -34 -240.5 -34h-620v80h31c67.333 0 110.666 4 129.999 12c16 10.667 24 33.334 24 68.001v912c0 34.667 -8 57.334 -24 68.001c-19.333 8 -62.666 12 -129.999 12h-31v80
h613c95.333 0 172.166 -11.333 230.499 -34s103.833 -60.334 136.5 -113.001c32 -47.333 48 -98.333 48 -153c0 -152 -92.333 -248.333 -277 -289c109.333 -19.333 193.5 -53.5 252.5 -102.5s88.5 -117.5 88.5 -205.5zM539.001 1152
c-42.667 0 -71.999 -5.83301 -87.999 -17.5s-24 -34.167 -24 -67.5v-389h152c103.333 0 179.5 16.833 228.5 50.5s73.5 94.167 73.5 181.5c0 50 -7.33301 91.833 -22 125.5s-35.834 58.5 -63.501 74.5s-56 27 -85 33s-63.167 9 -102.5 9h-69zM597.002 79.998
c117.333 0 202.833 18.501 256.5 55.501s80.5 105.167 80.5 204.5c0 110.667 -41 185.667 -123 225c-48.667 21.333 -126.667 32 -234 32h-150v-409c0 -44.667 6 -73.834 18 -87.501s39 -20.5 81 -20.5h71z" />
    <glyph glyph-name="C" unicode="C" horiz-adv-x="1232" 
d="M655 1258c56 0 107.169 -9.16602 153.502 -27.499s95.833 -47.5 148.5 -87.5l69 101h65c0 -54.667 4.16699 -136.834 12.5 -246.501s12.5 -191.834 12.5 -246.501h-75c-36 116.667 -68.833 201.5 -98.5 254.5s-70.834 95.5 -123.501 127.5
c-52.667 30 -107.667 45 -165 45s-110.333 -14.5 -159 -43.5s-85 -66.5 -109 -112.5c-56 -95.333 -84 -237 -84 -425c0 -99.333 8.83301 -184.5 26.5 -255.5s43.167 -127.167 76.5 -168.5s72 -71.333 116 -90s95 -28 153 -28c42.667 0 82 5.5 118 16.5
s66.167 24.5 90.5 40.5s46.666 36.333 66.999 61s36.333 47.667 48 69s22.167 46 31.5 74s15.833 49.833 19.5 65.5s7.5 33.5 11.5 53.5l80 -13c-18.667 -138.667 -69.167 -248 -151.5 -328s-193.833 -120 -334.5 -120c-112 0 -212 26.833 -300 80.5
s-156.167 128.334 -204.5 224.001s-72.5 204.167 -72.5 325.5c0 172 53.333 321.667 160 449c114.667 136.667 254 205 418 205z" />
    <glyph glyph-name="D" unicode="D" horiz-adv-x="1327" 
d="M234 160l-0.000976562 912c0 35.333 -8.66699 58 -26 68c-17.333 8 -59.333 12 -126 12h-33v80h543c163.333 0 290.833 -23 382.5 -69s162.834 -122.333 213.501 -229c40.667 -90 61 -193.667 61 -311c0 -128 -22.833 -238.667 -68.5 -332s-112.167 -165.333 -199.5 -216
c-90 -50 -209.333 -75 -358 -75h-574v80h33c66.667 0 108.667 4 126 12c17.333 10 26 32.667 26 68zM1024 616c0 69.333 -3.99707 130.669 -11.9971 184.002s-21.667 102.666 -41 147.999s-44.5 82.666 -75.5 111.999s-70.333 52 -118 68s-103.167 24 -166.5 24h-89
c-41.333 0 -68 -5 -80 -15c-11.333 -11.333 -17 -38.333 -17 -81v-882c0 -42 5 -68 15 -78c11.333 -10.667 38.666 -16 81.999 -16h116c49.333 0 92.666 4.66699 129.999 14s72.5 26 105.5 50s60.167 55.833 81.5 95.5s38.166 91 50.499 154s18.5 137.167 18.5 222.5z" />
    <glyph glyph-name="E" unicode="E" horiz-adv-x="1232" 
d="M660 80c127.333 0 219 27.334 275 82.001s96.333 152.667 121 294h76v-456h-1083v80h31c68 0 110.667 4 128 12c17.333 10 26 32.667 26 68v912c0 35.333 -8.66699 58 -26 68c-17.333 8 -60 12 -128 12h-31v80h1026c0 -150.667 8 -296.334 24 -437.001h-73
c-9.33301 53.333 -19.5 98.833 -30.5 136.5s-25 69.834 -42 96.501s-35 48 -54 64s-43.167 28.5 -72.5 37.5s-59.5 15 -90.5 18s-69.5 4.5 -115.5 4.5h-89c-44.667 0 -73.667 -5.16699 -87 -15.5s-20 -33.5 -20 -69.5v-389h41c159.333 0 239 77.667 239 233h80v-559h-80
c0 67.333 -12.333 121.5 -37 162.5s-55 65.167 -91 72.5c-26 6.66699 -65.333 10 -118 10h-34v-435c0 -14 1 -25 3 -33s6.83301 -16.333 14.5 -25s20.167 -14.834 37.5 -18.501s40 -5.5 68 -5.5h112z" />
    <glyph glyph-name="F" unicode="F" horiz-adv-x="1138" 
d="M466 678c159.333 0 239 77.667 239 233h80v-559h-80c0 68.667 -12.333 123.167 -37 163.5s-55 64.166 -91 71.499c-24.667 6.66699 -64 10 -118 10h-34v-437c0 -36 8.66699 -58.667 26 -68c17.333 -8 60 -12 128 -12h56v-80h-586v80h31c68 0 110.667 4 128 12
c17.333 10 26 32.667 26 68v912c0 35.333 -8.66699 58 -26 68c-17.333 8 -60 12 -128 12h-31v80h1016v-437h-66c-13.333 81.333 -27 144.333 -41 189s-33 77.334 -57 98.001c-51.333 46.667 -148 70 -290 70h-79c-44.667 0 -73.667 -5.16699 -87 -15.5s-20 -33.5 -20 -69.5
v-389h41z" />
    <glyph glyph-name="G" unicode="G" horiz-adv-x="1327" 
d="M667 1258c61.333 0 114.33 -8.50098 158.997 -25.501s95.334 -47.833 152.001 -92.5l66 104h65v-223v-256h-61c-35.333 138.667 -84.5 242.167 -147.5 310.5s-143.167 102.5 -240.5 102.5c-33.333 0 -64.833 -3.83301 -94.5 -11.5s-61.5 -24.167 -95.5 -49.5
s-63.167 -58.333 -87.5 -99s-44.666 -97.5 -60.999 -170.5s-24.5 -157.5 -24.5 -253.5c0 -71.333 5.16699 -135.333 15.5 -192s22.5 -101.834 36.5 -135.501s31.667 -63.167 53 -88.5s39.5 -43.333 54.5 -54s31.833 -20.667 50.5 -30c51.333 -26 104.333 -39 159 -39
c56 0 108 12.833 156 38.5s83.333 59.834 106 102.501c23.333 46.667 35 107.667 35 183c0 46 -8 74.333 -24 85c-15.333 11.333 -59.333 17 -132 17h-32v80h543v-80h-26c-80 0 -127.667 -8 -143 -24c-7.33301 -8.66699 -11 -43.667 -11 -105v-378h-71l-63 156
c-56 -56 -111.333 -96 -166 -120s-117.667 -36 -189 -36c-57.333 0 -113.5 8.16699 -168.5 24.5s-107.167 41.5 -156.5 75.5s-92.666 75 -129.999 123s-67 106.167 -89 174.5s-33 142.5 -33 222.5c0 226.667 82.333 406.334 247 539.001c102 83.333 218 125 348 125z" />
    <glyph glyph-name="H" unicode="H" horiz-adv-x="1421" 
d="M579 1152c-48 0 -82.5 -2.33496 -103.5 -7.00195s-34.667 -12 -41 -22s-9.5 -27 -9.5 -51v-388h572v388c0 34.667 -8 57.334 -24 68.001c-19.333 8 -62.666 12 -129.999 12h-24v80h553v-80h-31c-66.667 0 -109.667 -4 -129 -12c-16 -10 -24 -32.667 -24 -68v-912
c0 -35.333 8 -58 24 -68c19.333 -8 62.333 -12 129 -12h31v-80h-560v80h31c67.333 0 110.666 4 129.999 12c16 10.667 24 33.334 24 68.001v432h-572v-432c0 -36 8.66699 -58.667 26 -68c17.333 -8 60 -12 128 -12h32v-80h-562v80h31c68 0 110.667 4 128 12
c17.333 10 26 32.667 26 68v912c0 35.333 -8.66699 58 -26 68c-17.333 8 -60 12 -128 12h-31v80h562v-80h-32z" />
    <glyph glyph-name="I" unicode="I" horiz-adv-x="694" 
d="M444 1072v-912.002c0 -35.333 8 -58 24 -68c19.333 -8 62 -12 128 -12h34v-80h-565v80h34c67.333 0 110.666 4 129.999 12c16 10.667 24 33.334 24 68.001v912c0 34.667 -8 57.334 -24 68.001c-19.333 8 -62.666 12 -129.999 12h-34v80h565v-80h-34
c-66 0 -108.667 -4 -128 -12c-16 -10 -24 -32.667 -24 -68z" />
    <glyph glyph-name="J" unicode="J" horiz-adv-x="948" 
d="M111 208c0 -14.667 3.99707 -30.3301 11.9971 -46.9971s19.833 -33.167 35.5 -49.5s37.334 -29.833 65.001 -40.5s58.834 -16 93.501 -16c102 0 169.333 49.333 202 148c14.667 43.333 22 133.333 22 270v599c0 35.333 -8.66699 58 -26 68c-17.333 8 -59.333 12 -126 12
h-32v80h559v-80h-32c-67.333 0 -110.666 -4 -129.999 -12c-16 -10.667 -24 -33.334 -24 -68.001v-615c0 -59.333 -2.5 -110.833 -7.5 -154.5s-15.333 -87.334 -31 -131.001s-37.167 -79 -64.5 -106s-64.5 -49 -111.5 -66s-102.833 -25.5 -167.5 -25.5
c-104.667 0 -184.667 24.667 -240 74c-66 53.333 -99 125.666 -99 216.999c0 60.667 15.833 110.5 47.5 149.5s72.5 58.5 122.5 58.5c37.333 0 68 -11.333 92 -34s36 -52.334 36 -89.001c0 -37.333 -10.667 -67.166 -32 -89.499s-46.333 -33.5 -75 -33.5
c-18.667 0 -39.667 3 -63 9h-6c-13.333 0 -20 -9.33301 -20 -28z" />
    <glyph glyph-name="K" unicode="K" horiz-adv-x="1327" 
d="M427 558l418 419.998c55.333 55.333 83 96.333 83 123c0 34 -37 51 -111 51h-42v80h525v-80c-106.667 0 -202.667 -45.667 -288 -137l-254 -254l413 -595c24.667 -35.333 47.167 -58.5 67.5 -69.5s53.5 -16.5 99.5 -16.5h32v-80h-583v80h53c77.333 0 116 13 116 39
c0 12.667 -11.333 36.667 -34 72l-297 435l-198 -199v-267c0 -35.333 8 -58 24 -68c19.333 -8 62.333 -12 129 -12h33v-80h-562v80h31c67.333 0 110.666 4 129.999 12c16 10.667 24 33.334 24 68.001v912c0 34.667 -8 57.334 -24 68.001c-19.333 8 -62.666 12 -129.999 12
h-31v80h562v-80h-33c-66.667 0 -109.667 -4 -129 -12c-16 -10 -24 -32.667 -24 -68v-514z" />
    <glyph glyph-name="L" unicode="L" horiz-adv-x="1138" 
d="M435 162c0 -14 1 -24.998 3 -32.998s6.83301 -16.333 14.5 -25s20.167 -14.834 37.5 -18.501s40 -5.5 68 -5.5h72c144 0 242.333 33 295 99c50 63.333 84 159.666 102 288.999h76v-468h-1043v80h30c68 0 110.667 4 128 12c17.333 9.33301 26 32 26 68v912
c0 36 -8.66699 58.667 -26 68c-17.333 8 -60 12 -128 12h-30v80h560v-80h-31c-68 0 -110.667 -4 -128 -12c-17.333 -10 -26 -32.667 -26 -68v-910z" />
    <glyph glyph-name="M" unicode="M" horiz-adv-x="1611" 
d="M490 1232l326.999 -909.001l313 909h428v-80h-31c-67.333 0 -110 -4 -128 -12c-16.667 -10 -25 -32.667 -25 -68v-912c0 -35.333 8.33301 -58 25 -68c18 -8 60.667 -12 128 -12h31v-80h-560v80h31c68 0 110.667 4 128 12c17.333 10 26 32.667 26 68v963l-381 -1123h-68
l-406 1123v-754c0 -117.333 12.333 -193.666 37 -228.999c28.667 -40 81.667 -60 159 -60v-80h-486v80c78 0 131.333 20 160 60c25.333 35.333 38 111.666 38 228.999v703c0 34.667 -8 57.334 -24 68.001c-19.333 8 -62.666 12 -129.999 12h-33v80h441z" />
    <glyph glyph-name="N" unicode="N" horiz-adv-x="1390" 
d="M232 1096c-14.667 21.333 -33.832 36 -57.499 44s-56.834 12 -99.501 12h-43v80h352l681 -906v536c0 44.667 -1.5 81.834 -4.5 111.501s-8.5 56.667 -16.5 81s-19.5 43.166 -34.5 56.499s-33.833 23.5 -56.5 30.5s-50.667 10.5 -84 10.5v80h486v-80
c-80.667 0 -133.834 -20.667 -159.501 -62s-38.5 -117.333 -38.5 -228v-886h-72l-761 1028v-634c0 -110.667 12.833 -186.667 38.5 -228s78.5 -62 158.5 -62v-80h-487v80c78.667 0 132.334 20 161.001 60c24.667 35.333 37 112 37 230v726z" />
    <glyph glyph-name="O" unicode="O" horiz-adv-x="1327" 
d="M77 614c0 87.333 14.167 170.169 42.5 248.502s67.833 146.666 118.5 204.999s113.5 104.666 188.5 138.999s156.5 51.5 244.5 51.5c164 0 301.667 -62 413 -186c111.333 -123.333 167 -275.333 167 -456c0 -183.333 -56.333 -336.333 -169 -459
c-112 -122 -251.333 -183 -418 -183c-110 0 -209.833 27.5 -299.5 82.5s-160 131.5 -211 229.5s-76.5 207.333 -76.5 328zM669 1178c-38 0 -73.333 -5.00195 -106 -15.002s-60.167 -22.333 -82.5 -37s-42.833 -32.667 -61.5 -54s-33.167 -41.166 -43.5 -59.499
s-19.833 -38.833 -28.5 -61.5s-14.5 -39.667 -17.5 -51s-5.83301 -23.333 -8.5 -36c-12.667 -63.333 -19 -144.666 -19 -243.999c0 -96 5.66699 -175.667 17 -239s34 -123.333 68 -180c64 -97.333 156.333 -146 277 -146c37.333 0 72.166 5 104.499 15s59.5 22.5 81.5 37.5
s42.167 33.333 60.5 55s32.666 41.667 42.999 60s19.833 38.833 28.5 61.5s14.334 39.5 17.001 50.5l8 34.5c12.667 64.667 19 147 19 247c0 117.333 -7.5 205.5 -22.5 264.5s-36.167 109.167 -63.5 150.5c-63.333 98 -153.666 147 -270.999 147z" />
    <glyph glyph-name="P" unicode="P" horiz-adv-x="1138" 
d="M645 1232c77.333 0 145.002 -7.66797 203.002 -23.001s103 -34.166 135 -56.499s57.833 -49.5 77.5 -81.5s32.5 -61.667 38.5 -89s9 -56.666 9 -87.999c0 -23.333 -2.5 -46.833 -7.5 -70.5s-13.667 -50 -26 -79s-31.833 -57 -58.5 -84s-59.334 -49.833 -98.001 -68.5
c-64 -29.333 -164.667 -44 -302 -44h-193v-388c0 -34.667 8 -57.334 24 -68.001c19.333 -8 62.666 -12 129.999 -12h44v-80h-573v80h31c66.667 0 109.667 4 129 12c16 10 24 32.667 24 68v912c0 35.333 -8 58 -24 68c-19.333 8 -62.333 12 -129 12h-31v80h597zM527.002 1152
c-46 0 -74.833 -5.33496 -86.5 -16.002s-17.5 -34.334 -17.5 -71.001v-437h207c178.667 0 268 86.333 268 259c0 38.667 -4 72.834 -12 102.501s-21.333 57.334 -40 83.001s-45.5 45.334 -80.5 59.001s-77.833 20.5 -128.5 20.5h-110z" />
    <glyph glyph-name="Q" unicode="Q" horiz-adv-x="1327" 
d="M1132 -184c24 0 41.3301 15.6641 51.9971 46.9971s16 65.666 16 102.999h77c0 -46 -4.83301 -86.667 -14.5 -122s-22 -63.333 -37 -84s-32.667 -37.5 -53 -50.5s-39.666 -21.667 -57.999 -26s-37.166 -6.5 -56.499 -6.5c-75.333 0 -132.833 31.167 -172.5 93.5
s-59.5 138.833 -59.5 229.5c-52 -17.333 -102.667 -26 -152 -26c-166 0 -307 62 -423 186c-116 125.333 -174 276.666 -174 453.999c0 82.667 14.333 162.834 43 240.501s68.167 146.334 118.5 206.001s112.5 107.5 186.5 143.5s153 54 237 54
c108 0 207.167 -27.167 297.5 -81.5s161.833 -129.666 214.5 -225.999s79 -203.166 79 -320.499c0 -221.333 -90 -407 -270 -557c14.667 -46.667 28.667 -86.667 42 -120s24.833 -58.666 34.5 -75.999s19.334 -30.833 29.001 -40.5s17.5 -15.5 23.5 -17.5s12.667 -3 20 -3z
M646.997 451.997c65.333 0 124 -19.667 176 -59s90.667 -102.666 116 -189.999c30 50.667 52.167 104.667 66.5 162s21.5 142.333 21.5 255c0 72 -4.33301 136.667 -13 194s-19.167 103.333 -31.5 138s-27.666 65.167 -45.999 91.5s-34.5 45.333 -48.5 57s-30 22.5 -48 32.5
c-54 30 -112 45 -174 45c-128.667 0 -221 -50.333 -277 -151c-58 -104 -87 -241.667 -87 -413c0 -194.667 33 -336.334 99 -425.001v31c0 70 23.167 126.167 69.5 168.5s105.166 63.5 176.499 63.5zM479.997 202.997c0 -53.333 17.333 -91.333 52 -114s77 -34 127 -34
c58 0 111.333 12.333 160 37v17c0 78.667 -14.667 142.167 -44 190.5s-75 72.5 -137 72.5c-47.333 0 -85.5 -15.667 -114.5 -47s-43.5 -72 -43.5 -122z" />
    <glyph glyph-name="R" unicode="R" horiz-adv-x="1232" 
d="M778 333c-4.66699 40 -11.501 74.3311 -20.501 102.998s-22.667 56 -41 82s-44 45.667 -77 59s-73.167 20 -120.5 20h-99v-437c0 -35.333 8 -58 24 -68c19.333 -8 62.333 -12 129 -12h31v-80h-560v80h31c67.333 0 110.666 4 129.999 12c16 10.667 24 33.334 24 68.001
v912c0 34.667 -8 57.334 -24 68.001c-19.333 8 -62.666 12 -129.999 12h-31v80h591c63.333 0 121.333 -5.66699 174 -17s100 -28.666 142 -51.999s74.833 -55 98.5 -95s35.5 -87 35.5 -141c0 -170 -121 -272 -363 -306c63.333 -16.667 113.833 -44.334 151.5 -83.001
s66.167 -98.667 85.5 -180l27 -107c14 -54 26.5 -92 37.5 -114s27.167 -33 48.5 -33c26 0 44.667 17.167 56 51.5s17 73.5 17 117.5h72c0 -31.333 -1.83301 -60.666 -5.5 -87.999s-10.5 -54.333 -20.5 -81s-22.667 -49.334 -38 -68.001s-35.666 -33.667 -60.999 -45
s-54.333 -17 -87 -17c-38 0 -71.333 7.66699 -100 23s-51.5 36.5 -68.5 63.5s-30 55.5 -39 85.5s-15.5 63.333 -19.5 100v87zM537.999 1152c-39.333 0 -68.333 -2.33203 -87 -6.99902s-28 -14.334 -28 -29.001c-2 -4.66699 -3 -25.667 -3 -63v-375h188
c98 0 167.167 21.167 207.5 63.5s60.5 103.5 60.5 183.5c0 78.667 -20.5 136.167 -61.5 172.5s-102.5 54.5 -184.5 54.5h-92z" />
    <glyph glyph-name="S" unicode="S" horiz-adv-x="1075" 
d="M116 901c0 108 33.8301 194.497 101.497 259.497s158.5 97.5 272.5 97.5c126 0 229.333 -39.333 310 -118l69 102h63v-447h-53c-13.333 51.333 -29.666 98 -48.999 140s-44.166 82 -74.499 120s-68 67.667 -113 89s-95.167 32 -150.5 32
c-73.333 0 -132.166 -18.5 -176.499 -55.5s-66.5 -85.5 -66.5 -145.5c0 -100.667 74.667 -170.667 224 -210l182 -46c123.333 -30.667 206.666 -66.667 249.999 -108c68 -67.333 102 -154.333 102 -261c0 -115.333 -37.333 -206.833 -112 -274.5
s-174.334 -101.5 -299.001 -101.5c-81.333 0 -146.166 8.83301 -194.499 26.5s-103.166 51.5 -164.499 101.5l-77 -116h-73v487h73c3.33301 -16.667 6.66602 -32.167 9.99902 -46.5s10.333 -36.666 21 -66.999s22.5 -57.666 35.5 -81.999s31.167 -51.166 54.5 -80.499
s48.666 -53.833 75.999 -73.5s61.333 -36.334 102 -50.001s84.667 -20.5 132 -20.5c92 0 162.167 23.833 210.5 71.5s72.5 103.5 72.5 167.5c0 22 -2.66699 42.333 -8 61s-11.666 34.5 -18.999 47.5s-17.666 25.167 -30.999 36.5s-25.166 20.333 -35.499 27
s-24.5 13.334 -42.5 20.001s-31.5 11.334 -40.5 14.001s-22.833 6.16699 -41.5 10.5s-30.334 7.16602 -35.001 8.49902l-162 41c-118 31.333 -204.667 72 -260 122s-83 123.667 -83 221z" />
    <glyph glyph-name="T" unicode="T" horiz-adv-x="1138" 
d="M394 1152c-37.333 0 -70.002 -6.16504 -98.002 -18.498s-51.5 -29 -70.5 -50s-35.667 -48.833 -50 -83.5s-25.666 -70.334 -33.999 -107.001s-16.5 -81.334 -24.5 -134.001h-59v473h1022v-474h-60c-3.33301 25.333 -6.33301 45.833 -9 61.5s-6.5 35.834 -11.5 60.501
s-10 45 -15 61s-11.5 34.333 -19.5 55s-16.5 37.834 -25.5 51.501s-20.167 27.667 -33.5 42s-27.5 25.666 -42.5 33.999s-32.5 15.166 -52.5 20.499s-41.667 8 -65 8c-53.333 0 -80 -20.333 -80 -61v-931c0 -35.333 7.66699 -58 23 -68c20.667 -8 63.334 -12 128.001 -12h45
v-80h-586v80h45c66 0 109.333 4 130 12c15.333 10 23 32.667 23 68v931c0 40.667 -26.667 61 -80 61z" />
    <glyph glyph-name="U" unicode="U" horiz-adv-x="1390" 
d="M1073 862c0 114.667 -12.668 191.67 -38.001 231.003s-78 59 -158 59v80h487v-80c-78.667 0 -132.334 -20 -161.001 -60c-24.667 -35.333 -37 -112 -37 -230v-388c0 -56.667 -4.33301 -108.334 -13 -155.001s-24.167 -91.834 -46.5 -135.501
s-51.166 -80.5 -86.499 -110.5s-81.666 -54 -138.999 -72s-123.333 -27 -198 -27c-200 0 -340.667 58.667 -422 176c-34 50.667 -51 115 -51 193v729c0 35.333 -8.66699 58 -26 68c-17.333 8 -59.333 12 -126 12h-29v80h558v-80h-32c-68 0 -110.667 -4 -128 -12
c-17.333 -10 -26 -32.667 -26 -68v-621c0 -80 3.33301 -135.833 10 -167.5s21.667 -63.5 45 -95.5c59.333 -80.667 150.333 -121 273 -121c49.333 0 94 7.16699 134 21.5s71.667 31.666 95 51.999s43.333 43.5 60 69.5s28.167 48.5 34.5 67.5s10.5 36.833 12.5 53.5
c5.33301 36 8 87.333 8 154v377z" />
    <glyph glyph-name="V" unicode="V" horiz-adv-x="1232" 
d="M956 1063c0 30 -13.501 52.332 -40.501 66.999s-59.833 22 -98.5 22h-32v80h463v-80h-17c-47.333 0 -84.333 -10.667 -111 -32c-25.333 -25.333 -50.666 -70.333 -75.999 -135l-392 -1011h-68l-432 1082c-14.667 40 -31.5 66 -50.5 78s-46.167 18 -81.5 18h-34v80h533
v-80h-68c-70.667 0 -106 -14.333 -106 -43c0 -10 4.33301 -27 13 -51l313 -793l264 703c14 36.667 21 68.334 21 95.001z" />
    <glyph glyph-name="W" unicode="W" horiz-adv-x="1674" 
d="M1068 1152c-46 0 -78 -3.16992 -96 -9.50293s-27 -18.5 -27 -36.5c0 -6 4 -22 12 -48l236 -747l205 693c6.66699 17.333 10 37 10 59c0 59.333 -49 89 -147 89h-13v80h418v-80h-7c-27.333 0 -50.833 -4.16699 -70.5 -12.5s-35.834 -21.666 -48.501 -39.999
s-22.5 -36.166 -29.5 -53.499s-14.833 -40.666 -23.5 -69.999l-301 -1002h-70l-276 849l-253 -849h-73l-369 1111c-10 28.667 -20.667 47 -32 55s-34.666 12 -69.999 12h-33v80h482v-80h-77c-49.333 0 -74 -11.333 -74 -34c0 -8 3 -22.333 9 -43l246 -764l198 655l-45 133
c-7.33301 21.333 -19 35.5 -35 42.5s-40 10.5 -72 10.5h-40v80h494v-80h-28z" />
    <glyph glyph-name="X" unicode="X" horiz-adv-x="1201" 
d="M323 162c0 -21.333 8.33203 -40.332 24.999 -56.999s45 -25 85 -25h43v-80h-485v80h9c84.667 0 158.667 45.667 222 137l276 384l-336 486c-18 28 -36.167 45.833 -54.5 53.5s-47.833 11.5 -88.5 11.5h-29v80h527v-80h-65c-54.667 0 -82 -7.33301 -82 -22
c0 -8.66699 6.33301 -23 19 -43l227 -328l184 268c16 23.333 24 42.666 24 57.999c0 44.667 -39 67 -117 67h-24v80h469v-80h-27c-45.333 0 -83.5 -10.667 -114.5 -32s-70.833 -64 -119.5 -128l-227 -309l358 -514c28 -41.333 51.167 -66.5 69.5 -75.5
s54.833 -13.5 109.5 -13.5h21v-80h-560v80h48c50.667 0 82.334 1.5 95.001 4.5s19 11.833 19 26.5c0 14 -7.33301 31.667 -22 53l-254 360l-198 -287c-18 -25.333 -27 -50.333 -27 -75z" />
    <glyph glyph-name="Y" unicode="Y" horiz-adv-x="1201" 
d="M905 1075c0 29.333 -11.332 49.5 -33.999 60.5s-56 16.5 -100 16.5h-39v80h485v-80h-14c-26 0 -50 -4 -72 -12s-40 -16.667 -54 -26s-28.833 -24 -44.5 -44s-26.834 -35.667 -33.501 -47l-31 -54l-255 -459v-350c0 -34.667 8 -57.334 24 -68.001
c18 -8 60.667 -12 128 -12h45v-80h-586v80h45c66.667 0 109.667 4 129 12c16 10 24 32.667 24 68v330l-368 583c-18 30.667 -36.5 51.5 -55.5 62.5s-46.833 16.5 -83.5 16.5h-37v80h544v-80h-97c-44.667 0 -67 -10.667 -67 -32c0 -12 6.33301 -28 19 -48l287 -463l212 377
c19.333 38.667 29 68.334 29 89.001z" />
    <glyph glyph-name="Z" unicode="Z" horiz-adv-x="1042" 
d="M517 1152c-61.333 0 -111.33 -5.66699 -149.997 -17s-71 -32 -97 -62s-46.167 -65.333 -60.5 -106s-28.5 -96.334 -42.5 -167.001h-42v432h846v-61l-701 -1091h283c75.333 0 135.166 11.833 179.499 35.5s79.666 63.334 105.999 119.001s47.166 135.5 62.499 239.5h80
v-474h-940v61l698 1091h-222z" />
    <glyph glyph-name="bracketleft" unicode="[" horiz-adv-x="568" 
d="M266 -123h241v-61h-394v1416h394v-63h-241v-1292z" />
    <glyph glyph-name="backslash" unicode="\" horiz-adv-x="1034" 
d="M225 1258l683 -1258h-99l-683 1258h99z" />
    <glyph glyph-name="bracketright" unicode="]" horiz-adv-x="568" 
d="M300 1171h-239v61h393v-1416h-393v63h239v1292z" />
    <glyph glyph-name="asciicircum" unicode="^" horiz-adv-x="1034" 
d="M945 543h-148l-278 530l-282 -530h-148l356 689h146z" />
    <glyph glyph-name="underscore" unicode="_" horiz-adv-x="853" 
d="M0 -125h853v-104h-853v104z" />
    <glyph glyph-name="grave" unicode="`" horiz-adv-x="568" 
d="M29 1145c0 18 5.66895 32.5 17.002 43.5s25.666 16.5 42.999 16.5c21.333 0 49.666 -17.667 84.999 -53l239 -239h-70l-271 166c-28.667 18 -43 40 -43 66z" />
    <glyph glyph-name="a" unicode="a" horiz-adv-x="948" 
d="M121 608c0 62.667 31.8311 113.831 95.498 153.498s142.834 59.5 237.501 59.5c108.667 0 191.667 -22.667 249 -68c45.333 -37.333 68 -105 68 -203v-343c0 -46 5.33301 -77.167 16 -93.5s27 -24.5 49 -24.5c10.667 0 24.334 3.16699 41.001 9.5s27.667 9.5 33 9.5
c11.333 0 17 -7 17 -21c0 -24.667 -16 -47.334 -48 -68.001s-68.333 -31 -109 -31c-21.333 0 -39.833 2.16699 -55.5 6.5s-32.667 16 -51 35s-32.833 45.5 -43.5 79.5c-77.333 -90 -176.333 -135 -297 -135c-72.667 0 -132.167 17.667 -178.5 53s-69.5 84.333 -69.5 147
c0 36.667 7.33301 70.167 22 100.5s39 56.333 73 78s63.833 39.5 89.5 53.5s64.834 27.333 117.501 40s88.167 20.834 106.5 24.501s53.5 9.83398 105.5 18.501c10 2 17.333 3.33301 22 4v67c0 62.667 -13.333 109.667 -40 141s-74.667 47 -144 47
c-37.333 0 -72 -6.33301 -104 -19s-48 -28.667 -48 -48c0 -2.66699 6.16699 -13.5 18.5 -32.5s18.5 -38.833 18.5 -59.5c0 -31.333 -9.66699 -53.666 -29 -66.999s-40.333 -20 -63 -20c-24.667 0 -47.334 8.16699 -68.001 24.5s-31 43.5 -31 81.5zM246.998 197.997
c0 -39.333 12.832 -71.333 38.499 -96s57.834 -37 96.501 -37c54 0 103 18.167 147 54.5s69 75.166 75 116.499c4.66699 16.667 7 51.667 7 105v79c-131.333 -21.333 -224.833 -47.666 -280.5 -78.999s-83.5 -79 -83.5 -143z" />
    <glyph glyph-name="b" unicode="b" horiz-adv-x="948" 
d="M147 1080c0 36.667 -4.66992 60.168 -14.0029 70.501s-29.333 15.5 -60 15.5h-59v92h293v-570c34.667 51.333 67.334 86.333 98.001 105s75.334 28 134.001 28c104 0 188 -39 252 -117s96 -178.333 96 -301c0 -124.667 -34.667 -227.334 -104 -308.001
s-156.666 -121 -261.999 -121c-102.667 0 -188 45 -256 135l-84 -135h-65c20.667 92.667 31 240 31 442v664zM707.997 386.001c0 55.333 -4.50195 104.502 -13.502 147.502s-20.167 76.833 -33.5 101.5s-29.166 44.667 -47.499 60s-35.833 25.666 -52.5 30.999s-34 8 -52 8
c-19.333 0 -37.5 -2.33301 -54.5 -7s-35.5 -14.5 -55.5 -29.5s-37 -34.833 -51 -59.5s-25.667 -59 -35 -103s-14 -95 -14 -153c0 -53.333 4.83301 -100.333 14.5 -141s21.834 -73 36.501 -97s31.834 -43.5 51.501 -58.5s38.5 -25 56.5 -30s36.667 -7.5 56 -7.5
c36 0 67 9.33301 93 28s46.167 44.5 60.5 77.5s24.666 68.667 30.999 107s9.5 80.166 9.5 125.499z" />
    <glyph glyph-name="c" unicode="c" horiz-adv-x="757" 
d="M459 79c43.333 0 80.833 12.833 112.5 38.5s61.167 70.167 88.5 133.5l67 -26c-34 -85.333 -74.167 -148.5 -120.5 -189.5s-110.166 -61.5 -191.499 -61.5c-106.667 0 -192.834 37.833 -258.501 113.5s-98.5 174.5 -98.5 296.5c0 126.667 35.333 231.167 106 313.5
s162.334 123.5 275.001 123.5c78 0 141 -20 189 -60c51.333 -37.333 77 -85 77 -143c0 -34 -9.66699 -61.833 -29 -83.5s-44.333 -32.5 -75 -32.5c-31.333 0 -56.333 9.33301 -75 28s-28 41 -28 67c0 20 7.5 41.167 22.5 63.5s22.5 34.166 22.5 35.499
c0 12.667 -9.33301 24.5 -28 35.5s-41.334 16.5 -68.001 16.5c-63.333 0 -114.166 -31.5 -152.499 -94.5s-57.5 -146.5 -57.5 -250.5c0 -93.333 18.667 -170.666 56 -231.999s92.666 -92 165.999 -92z" />
    <glyph glyph-name="d" unicode="d" horiz-adv-x="979" 
d="M809 198c0 -52.667 6.99902 -86.667 20.999 -102s42.333 -23 85 -23h30v-73h-296v123c-53.333 -99.333 -132 -149 -236 -149c-100.667 0 -182.5 39.333 -245.5 118s-94.5 177.667 -94.5 297c0 78 14 149.667 42 215s68.167 117.833 120.5 157.5s111.5 59.5 177.5 59.5
c94.667 0 173.334 -42 236.001 -126v385c0 36 -5.16699 59.333 -15.5 70s-29.833 16 -58.5 16h-101v92h335v-1060zM648.999 394c0 62.667 -6.49902 116.999 -19.499 162.999s-30.167 80.833 -51.5 104.5s-42.833 40.834 -64.5 51.501s-43.834 16 -66.501 16
c-38 0 -71.167 -12.167 -99.5 -36.5s-49.166 -53.833 -62.499 -88.5c-21.333 -54 -32 -132.333 -32 -235c0 -58.667 6.16699 -109 18.5 -151s28.666 -73.333 48.999 -94s40.666 -35.334 60.999 -44.001s41.5 -13 63.5 -13c45.333 0 83.833 16.5 115.5 49.5
s54.334 73.333 68.001 121s20.5 99.834 20.5 156.501z" />
    <glyph glyph-name="e" unicode="e" horiz-adv-x="853" 
d="M442 821c104.667 0 189.5 -40.166 254.5 -120.499s97.5 -182.5 97.5 -306.5v-10h-553v-14c0 -47.333 5.33301 -89.333 16 -126s24 -65.834 40 -87.501s35 -39.5 57 -53.5s43 -23.5 63 -28.5s40.333 -7.5 61 -7.5c54 0 100.833 13.167 140.5 39.5
s78.167 73.833 115.5 142.5l60 -32c-70 -162 -186.333 -243 -349 -243c-114.667 0 -207.5 36.833 -278.5 110.5s-106.5 170.5 -106.5 290.5c0 128 36 234.333 108 319s163.333 127 274 127zM611 521.001c0 68.667 -15.665 123.667 -46.998 165s-73 62 -125 62
c-36.667 0 -68.834 -10.833 -96.501 -32.5s-48.334 -49 -62.001 -82s-23.5 -64.333 -29.5 -94s-9 -57.167 -9 -82.5h299c26.667 0 45 4.33301 55 13s15 25.667 15 51z" />
    <glyph glyph-name="f" unicode="f" horiz-adv-x="568" 
d="M550 1084c0 17.333 4.16699 33.8301 12.5 49.4971s12.5 24.834 12.5 27.501c0 19.333 -19.333 29 -58 29c-36.667 0 -68.667 -11.667 -96 -35s-47 -52.333 -59 -87c-12.667 -34 -19 -92.333 -19 -175v-98h188v-73h-188v-580c0 -33.333 7.33301 -55.666 22 -66.999
c20 -9.33301 56 -14 108 -14h30v-61h-455v61h7c50 0 85 4.66699 105 14c15.333 10.667 23 33 23 67v580h-151v73h151v53c0 66 4.66699 120.667 14 164s27.333 83.333 54 120c60.667 84 148.667 126 264 126c43.333 0 80.5 -5.16699 111.5 -15.5s54.167 -24.166 69.5 -41.499
s26.333 -34.5 33 -51.5s10 -34.5 10 -52.5c0 -30.667 -9 -55.667 -27 -75s-41 -29 -69 -29c-22 0 -43 7.5 -63 22.5s-30 37.833 -30 68.5z" />
    <glyph glyph-name="g" unicode="g" horiz-adv-x="916" 
d="M195 186c0 -23.333 8.99316 -39.166 26.9932 -47.499s55.667 -12.5 113 -12.5h174c66 0 118 -3 156 -9s66.833 -15.333 86.5 -28s35.834 -31 48.501 -55c18.667 -30.667 28 -67.667 28 -111c0 -90 -36 -158.167 -108 -204.5s-179 -69.5 -321 -69.5c-44 0 -86 3 -126 9
s-78.167 15.333 -114.5 28s-65.333 31.334 -87 56.001s-32.5 53.667 -32.5 87c0 70.667 52.333 124.667 157 162c-76 25.333 -114 74.333 -114 147c0 49.333 13.833 87.333 41.5 114s67.834 45.667 120.501 57c-42.667 19.333 -77.167 49.166 -103.5 89.499
s-39.5 86.833 -39.5 139.5c0 24.667 2.33301 48.334 7 71.001s14.334 47.5 29.001 74.5s33.667 50.167 57 69.5s56 35.5 98 48.5s90.333 19.5 145 19.5c76 0 146.667 -21.667 212 -65c38.667 36 68.834 59.833 90.501 71.5s45.834 17.5 72.501 17.5
c31.333 0 58 -8.66699 80 -26s33 -40 33 -68c0 -25.333 -7.33301 -46.166 -22 -62.499s-33 -24.5 -55 -24.5c-21.333 0 -38 4.5 -50 13.5s-19.167 19 -21.5 30s-5.16602 21 -8.49902 30s-8 13.5 -14 13.5c-12.667 0 -32 -13.667 -58 -41c42 -48.667 63 -104.334 63 -167.001
c0 -18.667 -1 -36.334 -3 -53.001s-7.83301 -37.334 -17.5 -62.001s-22.667 -46.5 -39 -65.5s-40.333 -37.167 -72 -54.5s-69.167 -30 -112.5 -38c-29.333 -4.66699 -82.666 -7 -159.999 -7c-106.667 0 -160 -25.667 -160 -77zM601.993 541
c0 41.333 -5.33496 76.668 -16.002 106.001s-25 50.833 -43 64.5s-35.667 23.167 -53 28.5s-35.666 8 -54.999 8c-58 0 -102.333 -19 -133 -57s-46 -89.667 -46 -155c0 -63.333 15 -113.833 45 -151.5s72.333 -56.5 127 -56.5c56.667 0 99.834 19.167 129.501 57.5
s44.5 90.166 44.5 155.499zM707.991 -122.998c0 32 -12.5 57.166 -37.5 75.499s-49.5 27.5 -73.5 27.5h-303c-43.333 -24 -73 -45.833 -89 -65.5s-24 -43.5 -24 -71.5c0 -22.667 6.5 -42.167 19.5 -58.5s30.667 -28.666 53 -36.999s46 -14.333 71 -18s52.167 -5.5 81.5 -5.5
c48.667 0 91.5 3.5 128.5 10.5s66.167 15.667 87.5 26s38.833 22.5 52.5 36.5s22.667 27.5 27 40.5s6.5 26.167 6.5 39.5z" />
    <glyph glyph-name="h" unicode="h" horiz-adv-x="1042" 
d="M181 1080c0 36 -4.66504 59.332 -13.998 69.999s-29 16 -59 16h-82v92h315v-603c74 110.667 164 166 270 166c68 0 125.333 -20.167 172 -60.5s75.667 -91.166 87 -152.499c4.66699 -18.667 7 -62 7 -130v-336c0 -32.667 7.66699 -54.334 23 -65.001s50.333 -16 105 -16
h7v-61h-432v61h7c56 0 91.667 5.33301 107 16s23 32.334 23 65.001v343c0 39.333 -2.83301 72.833 -8.5 100.5s-14 49 -25 64s-20.333 25.5 -28 31.5s-17.834 12.333 -30.501 19c-22 11.333 -44.333 17 -67 17c-32.667 0 -66.334 -10.333 -101.001 -31s-63 -53.667 -85 -99
c-20.667 -44.667 -31 -111.667 -31 -201v-244c0 -32.667 7.83301 -54.334 23.5 -65.001s51.167 -16 106.5 -16h7v-61h-432v61h7c54.667 0 89.667 5.33301 105 16s23 32.334 23 65.001v938z" />
    <glyph glyph-name="i" unicode="i" horiz-adv-x="537" 
d="M191 618c0 35.333 -4.33301 58.333 -13 69s-28.667 16 -60 16h-87v92h321v-653c0 -32.667 7.5 -54.334 22.5 -65.001s50.5 -16 106.5 -16h12v-61h-442v61h12c54.667 0 89.667 5.33301 105 16s23 32.334 23 65.001v476zM172 1121c0 27.333 9.5 50.6641 28.5 69.9971
s42.5 29 70.5 29s51.5 -9.66699 70.5 -29s28.5 -42.666 28.5 -69.999s-9.66699 -50.666 -29 -69.999s-43 -29 -71 -29s-51.333 10.333 -70 31s-28 43.334 -28 68.001z" />
    <glyph glyph-name="j" unicode="j" horiz-adv-x="505" 
d="M67 -273c26 0 47.666 7.50195 64.999 22.502s30.333 37.5 39 67.5s14.5 62.167 17.5 96.5s4.5 76.166 4.5 125.499v579c0 35.333 -4 58.666 -12 69.999c-10 10 -30.667 15 -62 15h-99v92h333v-674c0 -88 -4.33301 -158.333 -13 -211s-27.667 -100.667 -57 -144
c-54 -74 -131.333 -111 -232 -111c-54 0 -99.333 12.333 -136 37s-55 59 -55 103c0 30.667 9.33301 55.5 28 74.5s41.334 28.5 68.001 28.5c21.333 0 41.333 -7.5 60 -22.5s28 -34.5 28 -58.5c0 -9.33301 -3.33301 -22 -10 -38s-10 -26 -10 -30c0 -14.667 14.333 -22 43 -22
zM173.999 1121c0 28 9.83105 51.499 29.498 70.499s42.834 28.5 69.501 28.5s49.834 -9.5 69.501 -28.5s29.5 -42.5 29.5 -70.5s-9.83301 -51.5 -29.5 -70.5s-43.5 -28.5 -71.5 -28.5c-26 0 -48.667 9.83301 -68 29.5s-29 42.834 -29 69.501z" />
    <glyph glyph-name="k" unicode="k" horiz-adv-x="1012" 
d="M179 1080c0 36.667 -4.66504 60.167 -13.998 70.5s-29 15.5 -59 15.5h-82v92h316v-845l230 222c26 24.667 39 46.667 39 66c0 22 -26.667 33 -80 33h-53v61h449v-61c-59.333 -7.33301 -110.833 -22.5 -154.5 -45.5s-88.167 -57.5 -133.5 -103.5l-77 -75l242 -331
c37.333 -45.333 67.666 -74.833 90.999 -88.5s59.666 -23.5 108.999 -29.5v-61h-451v61h33c50 0 75 9.66699 75 29c0 8 -4 18.333 -12 31l-203 285l-104 -99v-165c0 -34 7.33301 -56.333 22 -67c20 -9.33301 55.667 -14 107 -14h7v-61h-432v61h7c50.667 0 86 4.66699 106 14
c14.667 10.667 22 33 22 67v938z" />
    <glyph glyph-name="l" unicode="l" horiz-adv-x="537" 
d="M188 1080c0 36 -4.66797 59.334 -14.001 70.001s-28.666 16 -57.999 16h-84v92h316v-1116c0 -32.667 7.83301 -54.334 23.5 -65.001s51.167 -16 106.5 -16h12v-61h-442v61h12c54.667 0 89.667 5.5 105 16.5s23 32.5 23 64.5v938z" />
    <glyph glyph-name="m" unicode="m" horiz-adv-x="1517" 
d="M538 717c-57.333 0 -104.168 -25.3359 -140.501 -76.0029s-54.5 -113.667 -54.5 -189v-309c0 -34 7.33301 -56.667 22 -68c20 -9.33301 55.333 -14 106 -14h7v-61h-430v61h7c50 0 85 4.66699 105 14c12.667 9.33301 19 32.333 19 69v475c0 37.333 -2.66699 60.333 -8 69
c-11.333 10 -32 15 -62 15h-70v92h304v-131c65.333 104.667 147.333 157 246 157c58 0 107.833 -15.667 149.5 -47s70.167 -72.666 85.5 -123.999c69.333 114 158.333 171 267 171c37.333 0 71.333 -6.5 102 -19.5s55.5 -29.5 74.5 -49.5s34 -39.167 45 -57.5
s18.833 -35.833 23.5 -52.5c7.33301 -29.333 11 -68.666 11 -117.999v-381c0 -34.667 7.33301 -57.334 22 -68.001c20 -9.33301 55.333 -14 106 -14h6v-61h-431v61h6c52 0 88 4.66699 108 14c14.667 10.667 22 33 22 67v348c0 33.333 -2.16699 62.833 -6.5 88.5
s-11.666 49.334 -21.999 71.001s-25.333 38.334 -45 50.001s-43.5 17.5 -71.5 17.5c-61.333 0 -109.333 -25.167 -144 -75.5s-52 -118.5 -52 -204.5v-295c0 -34 7.33301 -56.333 22 -67c20 -9.33301 55.333 -14 106 -14h7v-61h-432v61h7c51.333 0 87 4.66699 107 14
c14.667 10.667 22 33 22 67v367c0 138.667 -48.667 208 -146 208z" />
    <glyph glyph-name="n" unicode="n" horiz-adv-x="1042" 
d="M181 618c0 36 -4.66602 59.1689 -13.999 69.502s-29 15.5 -59 15.5h-62v92h295v-138c74 109.333 164 164 270 164c67.333 0 124.333 -19.833 171 -59.5s76 -90.834 88 -153.501c4.66699 -18.667 7 -62 7 -130v-336c0 -32.667 7.66699 -54.334 23 -65.001
s50.333 -16 105 -16h7v-61h-432v61h7c56 0 91.667 5.33301 107 16s23 32.334 23 65.001v344c0 154 -53 231 -159 231c-32.667 0 -66.334 -10.333 -101.001 -31s-63 -53.667 -85 -99c-20.667 -44.667 -31 -111.334 -31 -200.001v-245c0 -32.667 7.83301 -54.334 23.5 -65.001
s51.167 -16 106.5 -16h7v-61h-432v61h7c54.667 0 89.667 5.33301 105 16s23 32.334 23 65.001v476z" />
    <glyph glyph-name="o" unicode="o" horiz-adv-x="853" 
d="M58 396c0 119.333 35.501 220 106.501 302s159.5 123 265.5 123c102.667 0 189.167 -41.167 259.5 -123.5s105.5 -182.166 105.5 -299.499c0 -118 -35.5 -218.167 -106.5 -300.5s-158.167 -123.5 -261.5 -123.5c-68.667 0 -131.334 18.833 -188.001 56.5
s-101 88.667 -133 153s-48 135.166 -48 212.499zM616.001 398c0 70.667 -6.00293 130.666 -18.0029 179.999s-28 85.5 -48 108.5s-39.667 39 -59 48s-39.666 13.5 -60.999 13.5c-128.667 0 -193 -117.333 -193 -352c0 -56.667 4.33301 -106.667 13 -150
s19.334 -77.166 32.001 -101.499s27.834 -44 45.501 -59s34.334 -25 50.001 -30s32.167 -7.5 49.5 -7.5s33.666 2.33301 48.999 7s32 14.5 50 29.5s33.333 34.667 46 59s23.167 58.333 31.5 102s12.5 94.5 12.5 152.5z" />
    <glyph glyph-name="p" unicode="p" horiz-adv-x="979" 
d="M568 -26c-56 0 -101.001 12.002 -135.001 36.002s-64 58.333 -90 103v-316c0 -32 7.33301 -54.333 22 -67c18.667 -8.66699 54.667 -13 108 -13h19v-62h-444v62h7c51.333 0 86.333 4.33301 105 13c15.333 12 23 34.333 23 67v821c0 33.333 -4 56.666 -12 69.999
c-11.333 10 -32 15 -62 15h-61v92h295v-121c56.667 98 135.334 147 236.001 147c98 0 178.167 -40.333 240.5 -121s93.5 -180.334 93.5 -299.001c0 -122 -32 -223.667 -96 -305s-147 -122 -249 -122zM733.999 411.002c0 42.667 -3.16504 82 -9.49805 118
s-16.333 69.5 -30 100.5s-33 55.333 -58 73s-54.5 26.5 -88.5 26.5c-36.667 0 -68.667 -9.5 -96 -28.5s-48.833 -44.833 -64.5 -77.5s-27.334 -68.5 -35.001 -107.5s-11.5 -81.167 -11.5 -126.5c0 -98.667 18.5 -177 55.5 -235s85.833 -87 146.5 -87
c22 0 43 4.83301 63 14.5s40.167 26 60.5 49s36.666 58.5 48.999 106.5s18.5 106 18.5 174z" />
    <glyph glyph-name="q" unicode="q" horiz-adv-x="948" 
d="M61 379c0 128 35 233.666 105 316.999s157 125 261 125c106 0 192.333 -47.333 259 -142l80 116h63c-18 -90 -27 -138.333 -27 -145c0 -1.33301 -0.333008 -15.666 -1 -42.999s-1 -54 -1 -80v-730c0 -32.667 7.66699 -55 23 -67c18.667 -8.66699 53.667 -13 105 -13h7
v-62h-443v62h18c53.333 0 89.333 4.33301 108 13c14.667 12.667 22 35 22 67v302c-36 -49.333 -70 -82.5 -102 -99.5s-75.333 -25.5 -130 -25.5c-102.667 0 -186.167 38.5 -250.5 115.5s-96.5 173.5 -96.5 289.5zM640 415.999c0 53.333 -4.5 100.332 -13.5 140.999
s-20.167 72.834 -33.5 96.501s-29.166 42.834 -47.499 57.501s-35.833 24.5 -52.5 29.5s-33.667 7.5 -51 7.5c-134 0 -201 -119.667 -201 -359c0 -51.333 4.5 -96.833 13.5 -136.5s20.167 -70.834 33.5 -93.501s29.166 -41.167 47.499 -55.5s35.833 -24 52.5 -29
s34 -7.5 52 -7.5c133.333 0 200 116.333 200 349z" />
    <glyph glyph-name="r" unicode="r" horiz-adv-x="757" 
d="M338 142c0 -32.667 7.83301 -54.332 23.5 -64.999s50.5 -16 104.5 -16h32v-61h-455v61h6c52 0 88 4.66699 108 14c14.667 10.667 22 33 22 67v476c0 35.333 -4 58.666 -12 69.999c-10 10 -30.333 15 -61 15h-70v92h302v-211c27.333 75.333 63.833 133.666 109.5 174.999
s94.5 62 146.5 62c45.333 0 81.333 -12.333 108 -37s40 -58 40 -100c0 -34 -9.66699 -61.833 -29 -83.5s-44.333 -32.5 -75 -32.5c-28 0 -50.667 8.83301 -68 26.5s-26 40.167 -26 67.5c0 26.667 10.333 52.334 31 77.001c-42 -5.33301 -79 -25.333 -111 -60
s-56.833 -78 -74.5 -130s-30.667 -105.167 -39 -159.5s-12.5 -108.5 -12.5 -162.5v-85z" />
    <glyph glyph-name="s" unicode="s" horiz-adv-x="790" 
d="M99 573c0 74.667 22.5029 134.665 67.5029 179.998s105.5 68 181.5 68c81.333 0 150.666 -22.667 207.999 -68l50 61h60v-287h-60c-8 23.333 -16.5 44.333 -25.5 63s-20.667 38.167 -35 58.5s-30 37.333 -47 51s-37.667 24.834 -62 33.501s-50.833 13 -79.5 13
c-46 0 -84 -10.833 -114 -32.5s-45 -50.167 -45 -85.5c0 -36 13.667 -62.5 41 -79.5s75 -33.167 143 -48.5l86 -19c62.667 -14.667 106.334 -27.667 131.001 -39c80 -39.333 120 -107.666 120 -204.999c0 -79.333 -25.333 -143 -76 -191s-118.334 -72 -203.001 -72
c-86.667 0 -164.334 28 -233.001 84l-60 -70h-60v323h68c19.333 -79.333 52.666 -143 99.999 -191s109.666 -72 186.999 -72c50 0 91 12.5 123 37.5s48 57.833 48 98.5c0 36 -14.667 64 -44 84s-75.666 37 -138.999 51l-90 21c-85.333 19.333 -146.833 46 -184.5 80
s-56.5 85 -56.5 153z" />
    <glyph glyph-name="t" unicode="t" horiz-adv-x="663" 
d="M386 -26c-22.667 0 -43.501 1.83301 -62.501 5.5s-35.333 8.33398 -49 14.001s-26 13.667 -37 24s-20.167 20.5 -27.5 30.5s-13.5 23 -18.5 39s-8.83301 30.333 -11.5 43s-4.66699 29.167 -6 49.5s-2.16602 37.666 -2.49902 51.999s-0.5 32.833 -0.5 55.5v435h-140v66
c69.333 0 125 30.5 167 91.5s63 145.5 63 253.5h70v-338h251v-73h-251v-466c0 -66 6.66699 -112 20 -138s40.333 -39 81 -39c42 0 74.667 19.5 98 58.5s35 96.833 35 173.5h72c0 -3.33301 0.166992 -9.33301 0.5 -18s0.5 -16 0.5 -22c0 -88 -21.5 -159.5 -64.5 -214.5
s-105.5 -82.5 -187.5 -82.5z" />
    <glyph glyph-name="u" unicode="u" horiz-adv-x="1042" 
d="M864 198c0 -53.333 6.5 -87.5 19.5 -102.5s42.167 -22.5 87.5 -22.5h43v-73h-311v130c-21.333 -31.333 -42.666 -57.5 -63.999 -78.5s-49.5 -39.167 -84.5 -54.5s-74.167 -23 -117.5 -23c-106.667 0 -183.334 36.667 -230.001 110c-22 30.667 -33 85.667 -33 165v369
c0 35.333 -4.33301 58.333 -13 69s-28.667 16 -60 16h-65v92h299v-520c0 -48.667 1.33301 -81 4 -97s9.66699 -31.667 21 -47c22 -34.667 62 -52 120 -52c148.667 0 223 109.667 223 329v210c0 35.333 -4.33301 58.333 -13 69s-28.667 16 -60 16h-87v92h321v-597z" />
    <glyph glyph-name="v" unicode="v" horiz-adv-x="916" 
d="M393 734c-36 0 -60.5 -3.33203 -73.5 -9.99902s-19.5 -16.334 -19.5 -29.001c0 -9.33301 3 -21.333 9 -36l194 -452l157 395c10.667 30 16 54 16 72c0 40 -30.667 60 -92 60h-24v61h341v-61h-7c-63.333 0 -116 -53.667 -158 -161l-243 -599h-60l-293 686
c-12 28.667 -25.333 48.167 -40 58.5s-39 15.5 -73 15.5h-13v61h402v-61h-23z" />
    <glyph glyph-name="w" unicode="w" horiz-adv-x="1327" 
d="M831 734c-26.667 0 -45.333 -2.83203 -56 -8.49902s-16 -15.834 -16 -30.501s2.33301 -26.667 7 -36l168 -439l145 389c8.66699 24 13 45 13 63c0 41.333 -27.667 62 -83 62h-29v61h322v-61h-12c-31.333 0 -55.666 -9.83301 -72.999 -29.5s-35 -53.167 -53 -100.5
l-239 -630h-53l-208 540l-203 -540h-60l-256 676c-12 32.667 -23.667 54.834 -35 66.501s-29.333 17.5 -54 17.5h-30v61h375v-61h-31c-46.667 0 -70 -13 -70 -39c0 -11.333 2.33301 -24 7 -38l166 -428l150 397l-15 45c-8.66699 23.333 -18.834 39.666 -30.501 48.999
s-31.167 14 -58.5 14h-29v61h382v-61h-41z" />
    <glyph glyph-name="x" unicode="x" horiz-adv-x="916" 
d="M266 108c0 -14 4.16699 -24.5 12.5 -31.5s17.666 -11.333 27.999 -13s24.833 -2.5 43.5 -2.5h25v-61h-360v61h11c53.333 0 104.333 29.667 153 89l196 229l-208 263c-30 37.333 -53.5 62 -70.5 74s-40.5 18 -70.5 18v61h404v-61h-24c-50 0 -75 -10.333 -75 -31
c0 -12.667 5.66699 -25 17 -37l132 -168l107 128c22.667 30 34 53.333 34 70c0 25.333 -25.667 38 -77 38h-32v61h353v-61h-15c-44 0 -86.667 -24 -128 -72l-195 -227l215 -290c40.667 -56 90.334 -84 149.001 -84h12v-61h-430v61h12c60 0 90 10.333 90 31
c0 12.667 -7.33301 29.667 -22 51l-130 173l-143 -173c-9.33301 -8 -14 -19.667 -14 -35z" />
    <glyph glyph-name="y" unicode="y" horiz-adv-x="916" 
d="M195 -191c0 -7.33301 -1.99902 -18.332 -5.99902 -32.999s-6 -23.667 -6 -27c0 -11.333 9 -17 27 -17c28 0 60.333 21.167 97 63.5s69.667 94.5 99 156.5l29 60l-278 630c-12.667 28.667 -27.334 51.167 -44.001 67.5s-40.667 24.5 -72 24.5h-19v61h406v-61h-35
c-52.667 0 -79 -14.333 -79 -43c0 -8.66699 3.33301 -20.667 10 -36l188 -438l155 385c11.333 26.667 17 49.667 17 69c0 42 -30.667 63 -92 63h-27v61h341v-61h-10c-34 0 -61.167 -10.833 -81.5 -32.5s-40.833 -56.834 -61.5 -105.501l-195 -482
c-26 -65.333 -49.5 -120.5 -70.5 -165.5s-44 -87.667 -69 -128s-50 -72.333 -75 -96s-52.833 -42.334 -83.5 -56.001s-64 -20.5 -100 -20.5c-46 0 -83.333 12.833 -112 38.5s-43 56.834 -43 93.501c0 32 9.83301 57.667 29.5 77s44.167 29 73.5 29c28 0 49.5 -8 64.5 -24
s22.5 -33.667 22.5 -53z" />
    <glyph glyph-name="z" unicode="z" horiz-adv-x="820" 
d="M384 722c-72 0 -124 -17.333 -156 -52s-52.333 -89 -61 -163h-53v288h616v-61l-465 -661h174c81.333 0 140.833 19.167 178.5 57.5s56.5 96.5 56.5 174.5h68v-305h-675v61l465 661h-148z" />
    <glyph glyph-name="braceleft" unicode="{" horiz-adv-x="568" 
d="M242 382c0 16.667 -9.83105 35.8252 -29.498 57.4922s-52.834 40.834 -99.501 57.501v54c24.667 8 43.334 15.167 56.001 21.5s24.667 14.5 36 24.5s19.166 22.833 23.499 38.5s7.66602 34.334 9.99902 56.001s3.5 50.5 3.5 86.5v198c0 52.667 5 96.334 15 131.001
s25.5 60.834 46.5 78.501s43.833 29.834 68.5 36.501s55 10 91 10h44v-58c-55.333 0 -92.166 -16.5 -110.499 -49.5s-27.5 -88.167 -27.5 -165.5v-222c0 -59.333 -7.83301 -102.5 -23.5 -129.5s-46.167 -54.833 -91.5 -83.5c45.333 -28.667 75.833 -56.667 91.5 -84
s23.5 -70.333 23.5 -129v-222c0 -78.667 9.16699 -134.167 27.5 -166.5s55.166 -48.5 110.499 -48.5v-58h-44c-36 0 -66.333 3.33301 -91 10s-47.5 18.834 -68.5 36.501s-36.5 43.834 -46.5 78.501s-15 78.334 -15 131.001v310z" />
    <glyph glyph-name="bar" unicode="|" horiz-adv-x="1034" 
d="M584 1232v-1232h-133v1232h133z" />
    <glyph glyph-name="braceright" unicode="}" horiz-adv-x="568" 
d="M328 666c0 -7.33301 1.5 -14.999 4.5 -22.999s8.5 -17.5 16.5 -28.5s21.167 -22.167 39.5 -33.5s40.833 -21.333 67.5 -30v-54c-31.333 -10.667 -54.166 -19.667 -68.499 -27s-27.166 -19.333 -38.499 -36s-18.333 -37 -21 -61s-4 -58.333 -4 -103v-198
c0 -92.667 -15.667 -158.5 -47 -197.5s-89 -58.5 -173 -58.5h-43v58c54 0 90.333 16 109 48s28 87.667 28 167v222c0 60 7.66699 103.5 23 130.5s45.666 54.5 90.999 82.5c-44.667 28 -74.834 55.667 -90.501 83s-23.5 70.666 -23.5 129.999v222
c0 79.333 -9.5 135 -28.5 167s-55.167 48 -108.5 48v58h43c84 0 141.667 -19.5 173 -58.5s47 -104.833 47 -197.5v-198c0 -21.333 0.666992 -44.333 2 -69s2 -39 2 -43z" />
    <glyph glyph-name="asciitilde" unicode="~" horiz-adv-x="1034" 
d="M947 464c-29.333 -51.333 -65.333 -94.502 -108 -129.502s-86.334 -52.5 -131.001 -52.5c-37.333 0 -93.666 17.667 -168.999 53l-78 39c-48 22.667 -78.667 36.334 -92 41.001s-28.333 7 -45 7c-47.333 0 -96.333 -37 -147 -111l-90 64
c28 50.667 63.667 93.834 107 129.501s87.333 53.5 132 53.5c34 0 90.333 -18.333 169 -55l78 -37c58 -29.333 103.667 -44 137 -44c49.333 0 98.333 35.667 147 107z" />
    <glyph glyph-name="dotnosp" unicode="&#x307;" 
d="M0 1308c-26 0 -47.833 10.335 -65.5 31.002s-26.5 46.667 -26.5 78s8.83301 57.166 26.5 77.499s39.5 30.5 65.5 30.5c26.667 0 48.667 -10.333 66 -31s26 -46.334 26 -77.001c0 -31.333 -8.83301 -57.333 -26.5 -78s-39.5 -31 -65.5 -31z" />
    <glyph glyph-name="dieresisnosp" unicode="&#x308;" 
d="M-212 1310c-26.667 0 -48.501 10.333 -65.501 31s-25.5 46 -25.5 76c0 31.333 8.66699 56.833 26 76.5s39 29.5 65 29.5s47.5 -10.167 64.5 -30.5s25.5 -45.5 25.5 -75.5c0 -30.667 -8.66699 -56.167 -26 -76.5s-38.666 -30.5 -63.999 -30.5zM211.999 1310
c-26.667 0 -48.332 10.333 -64.999 31s-25 46 -25 76c0 31.333 8.66699 56.833 26 76.5s38.666 29.5 63.999 29.5c26.667 0 48.5 -10.167 65.5 -30.5s25.5 -45.5 25.5 -75.5c0 -30.667 -8.66699 -56.167 -26 -76.5s-39 -30.5 -65 -30.5z" />
    <glyph glyph-name="ringnosp" unicode="&#x30a;" 
d="M0 1229c-48 0 -86.333 18.5 -115 55.5s-43 80.833 -43 131.5s14.5 93.834 43.5 129.501s67.167 53.5 114.5 53.5c45.333 0 83 -17.333 113 -52s45 -78.334 45 -131.001c0 -50 -15 -93.667 -45 -131s-67.667 -56 -113 -56zM0 1533c-31.333 0 -55.5 -11.333 -72.5 -34
s-25.5 -50.334 -25.5 -83.001c0 -31.333 8.33301 -58.5 25 -81.5s41 -34.5 73 -34.5c31.333 0 55.166 11.5 71.499 34.5s24.5 50.167 24.5 81.5c0 32.667 -8.16699 60.334 -24.5 83.001s-40.166 34 -71.499 34z" />
    <glyph glyph-name="cgj" unicode="&#x34f;" 
 />
    <glyph glyph-name="atnah" unicode="&#x591;" 
d="M-152 -511c0 127.333 37.334 200.332 112.001 218.999v130l78 -1v-130c41.333 -9.33301 70.666 -31.5 87.999 -66.5s26 -82.833 26 -143.5l-4 -82h-72c0 3.33301 0.666992 11.833 2 25.5s2 27.834 2 42.501c0 44.667 -5.66699 79.834 -17 105.501s-32.333 38.5 -63 38.5
c-53.333 0 -80 -46 -80 -138c0 -24.667 1.33301 -49.334 4 -74.001h-72z" />
    <glyph glyph-name="segolta" unicode="&#x592;" 
d="M-118 1222c-20.667 0 -37.5 7.83301 -50.5 23.5s-19.5 35.167 -19.5 58.5c0 24 6.66699 43.667 20 59s30 23 50 23c20.667 0 37.5 -7.83301 50.5 -23.5s19.5 -35.167 19.5 -58.5c0 -24 -6.66699 -43.667 -20 -59s-30 -23 -50 -23zM0 1466
c-20.667 0 -37.5 7.83301 -50.5 23.5s-19.5 35.167 -19.5 58.5c0 24 6.66699 43.667 20 59s30 23 50 23c20.667 0 37.5 -7.83301 50.5 -23.5s19.5 -35.167 19.5 -58.5c0 -24 -6.66699 -43.667 -20 -59s-30 -23 -50 -23zM118 1222c-20.667 0 -37.5 7.83301 -50.5 23.5
s-19.5 35.167 -19.5 58.5c0 24 6.66699 43.667 20 59s30 23 50 23c20.667 0 37.5 -7.83301 50.5 -23.5s19.5 -35.167 19.5 -58.5c0 -24 -6.66699 -43.667 -20 -59s-30 -23 -50 -23z" />
    <glyph glyph-name="shalshelet" unicode="&#x593;" 
d="M110 1475l-134 -87l138 -87l-140 -94h-84l140 94l-140 87l134 87l-138 87l140 94h84l-138 -94z" />
    <glyph glyph-name="zaqefqatan" unicode="&#x594;" 
d="M0 1222c-20.667 0 -37.5 7.83301 -50.5 23.5s-19.5 35.167 -19.5 58.5c0 24 6.66699 43.667 20 59s30 23 50 23c20.667 0 37.5 -7.83301 50.5 -23.5s19.5 -35.167 19.5 -58.5c0 -24 -6.66699 -43.667 -20 -59s-30 -23 -50 -23zM0 1476
c-20.667 0 -37.5 7.83301 -50.5 23.5s-19.5 35.167 -19.5 58.5c0 24 6.66699 43.667 20 59s30 23 50 23c20.667 0 37.5 -7.83301 50.5 -23.5s19.5 -35.167 19.5 -58.5c0 -24 -6.66699 -43.667 -20 -59s-30 -23 -50 -23z" />
    <glyph glyph-name="zaqefgadol" unicode="&#x595;" 
d="M70 1222c-20.667 0 -37.5 7.83301 -50.5 23.5s-19.5 35.167 -19.5 58.5c-0 24 6.83301 43.667 20.5 59s30.167 23 49.5 23c20.667 0 37.5 -7.83301 50.5 -23.5s19.5 -35.167 19.5 -58.5c0 -24 -6.66699 -43.667 -20 -59s-30 -23 -50 -23zM70 1476
c-20.667 0 -37.5 7.83301 -50.5 23.5s-19.5 35.167 -19.5 58.5c-0 24 6.83301 43.667 20.5 59s30.167 23 49.5 23c20.667 0 37.5 -7.83301 50.5 -23.5s19.5 -35.167 19.5 -58.5c0 -24 -6.66699 -43.667 -20 -59s-30 -23 -50 -23zM-68 1237h-72v398h72v-398z" />
    <glyph glyph-name="tipeha" unicode="&#x596;" 
d="M-12 -353c0 -42 8.16699 -73.999 24.5 -95.999s41.5 -39 75.5 -51v-87c-117.333 28 -176 107 -176 237c0 47.333 4 105 12 173h76c-8 -100.667 -12 -159.334 -12 -176.001z" />
    <glyph glyph-name="revia" unicode="&#x597;" 
d="M-4 1501l108 -148l-100 -140l-108 143z" />
    <glyph glyph-name="zarqa" unicode="&#x598;" 
d="M154 1394c0 28.667 -14.0039 49.666 -42.0039 62.999v89c28 -9.33301 53.833 -27.5 77.5 -54.5s35.5 -59.167 35.5 -96.5c0 -43.333 -12 -78.5 -36 -105.5s-52 -40.5 -84 -40.5c-17.333 0 -33.166 3.33301 -47.499 10s-27 16.5 -38 29.5s-19.5 24.5 -25.5 34.5
s-13 23 -21 39l-15 30c-18.667 36.667 -38.667 55 -60 55c-14.667 0 -27 -6.16699 -37 -18.5s-15 -28.166 -15 -47.499c0 -30 15.333 -51.333 46 -64v-85c-35.333 12 -63.666 31.5 -84.999 58.5s-32 56.833 -32 89.5c0 42.667 11.833 77.5 35.5 104.5s52.167 40.5 85.5 40.5
c29.333 0 54 -9.33301 74 -28s39.333 -46.667 58 -84l16 -31c10.667 -18 20.334 -31.333 29.001 -40s18.334 -13 29.001 -13c14.667 0 27 6.16699 37 18.5s15 27.833 15 46.5z" />
    <glyph glyph-name="pashta" unicode="&#x599;" 
d="M12 1408c0 42 -8.16699 73.999 -24.5 95.999s-41.5 39 -75.5 51v87c117.333 -28 176 -107 176 -237c0 -47.333 -4 -105 -12 -173h-76c8 100.667 12 159.334 12 176.001z" />
    <glyph glyph-name="yetiv" unicode="&#x59a;" 
d="M138 -515l-50 -72l-226 208l226 208l50 -72l-162 -133z" />
    <glyph glyph-name="tevir" unicode="&#x59b;" 
d="M66 -353l-12 176.001h76c6.66699 -56.667 10 -114.334 10 -173.001c0 -129.333 -58 -208.333 -174 -237v87c34 12 59.167 29 75.5 51s24.5 54 24.5 96zM-74 -410.999c-19.333 0 -35.1689 7.5 -47.502 22.5s-18.5 33.167 -18.5 54.5s6.33301 39.5 19 54.5
s28.334 22.5 47.001 22.5s34.334 -7.66699 47.001 -23s19 -33.333 19 -54c0 -22 -6.5 -40.333 -19.5 -55s-28.5 -22 -46.5 -22z" />
    <glyph glyph-name="gereshaccent" unicode="&#x59c;" 
d="M-12 1409l12 -173h-78c-6.66699 60 -10 116.667 -10 170c0 130 58.667 209 176 237v-87c-34 -12 -59.167 -29 -75.5 -51s-24.5 -54 -24.5 -96z" />
    <glyph glyph-name="gereshmuqdam" unicode="&#x59d;" 
d="M-12 1407l12 -172h-78c-6.66699 56.667 -10 113 -10 169c0 130 58.667 209 176 237v-87c-34 -12 -59.167 -29 -75.5 -51s-24.5 -54 -24.5 -96z" />
    <glyph glyph-name="gershayimaccent" unicode="&#x59e;" 
d="M-110 1407l9 -169.999h-76c-5.33301 45.333 -8 101 -8 167c0 130 58.333 209 175 237v-87c-34.667 -12 -60 -28.833 -76 -50.5s-24 -53.834 -24 -96.501zM85 1408l10 -170.999h-77c0 0.666992 -1.33301 22 -4 64s-4 76.333 -4 103c0 129.333 58.333 208.666 175 237.999
v-88c-34 -12 -59.167 -28.833 -75.5 -50.5s-24.5 -53.5 -24.5 -95.5z" />
    <glyph glyph-name="qarneypara" unicode="&#x59f;" 
d="M388 1503c0 -52.667 -15.333 -97.834 -46 -135.501s-70 -56.5 -118 -56.5c-36.667 0 -68 12 -94 36l-130 -148l-130 148c-26 -24 -57.333 -36 -94 -36c-48 0 -87.333 18.833 -118 56.5s-46 82.834 -46 135.501c0 52 15.333 97.167 46 135.5s70 57.5 118 57.5
s87.333 -18.667 118 -56s46 -83 46 -137c0 -40.667 -10 -76.667 -30 -108l90 -100l90 100c-20 30.667 -30 66.667 -30 108c0 54 15.333 99.667 46 137s70 56 118 56s87.333 -19.167 118 -57.5s46 -83.5 46 -135.5zM-224 1379c30.667 0 55.334 12.167 74.001 36.5
s28 53.5 28 87.5s-9.33301 63.167 -28 87.5s-43.334 36.5 -74.001 36.5s-55.334 -12.167 -74.001 -36.5s-28 -53.5 -28 -87.5s9.33301 -63.167 28 -87.5s43.334 -36.5 74.001 -36.5zM224 1627c-30.667 0 -55.334 -12.167 -74.001 -36.5s-28 -53.5 -28 -87.5
s9.33301 -63.167 28 -87.5s43.334 -36.5 74.001 -36.5s55.334 12.167 74.001 36.5s28 53.5 28 87.5s-9.33301 63.167 -28 87.5s-43.334 36.5 -74.001 36.5z" />
    <glyph glyph-name="telishagedola" unicode="&#x5a0;" 
d="M8 1627c-30.667 0 -55.334 -12.167 -74.001 -36.5s-28 -53.5 -28 -87.5s9.33301 -63.167 28 -87.5s43.334 -36.5 74.001 -36.5s55.334 12.167 74.001 36.5s28 53.5 28 87.5s-9.33301 63.167 -28 87.5s-43.334 36.5 -74.001 36.5zM-98 1358
c-38.667 42.667 -58 91.001 -58 145.001s15.333 99.667 46 137s70 56 118 56s87.333 -19.167 118 -57.5s46 -83.5 46 -135.5c0 -52.667 -15.333 -97.834 -46 -135.501s-70 -56.5 -118 -56.5c-13.333 0 -32 4.33301 -56 13l-66 -146l-58 39z" />
    <glyph glyph-name="pazer" unicode="&#x5a1;" 
d="M126 1551c0 -62 -10.668 -112.668 -32.001 -152.001s-55.333 -59 -102 -59c-12.667 0 -28 2 -46 6v-109h-72v398h72v-213c8.66699 -2.66699 19.334 -4 32.001 -4c50.667 0 76 44 76 132c0 19.333 -2 47 -6 83h74c2.66699 -33.333 4 -60.666 4 -81.999z" />
    <glyph glyph-name="atnahhafukh" unicode="&#x5a2;" 
d="M152 -248c0 -126.667 -38.667 -198.999 -116 -216.999v-130h-72v130c-41.333 9.33301 -71 31.5 -89 66.5s-27 82.5 -27 142.5l4 82h72c0 -3.33301 -0.666992 -11.833 -2 -25.5s-2 -27.834 -2 -42.501c0 -44.667 5.66699 -79.834 17 -105.501s32.333 -38.5 63 -38.5
c53.333 0 80 46 80 138c0 24.667 -1.33301 49.334 -4 74.001h72z" />
    <glyph glyph-name="munah" unicode="&#x5a3;" 
d="M121 -572h-242v85h169v304h73v-389z" />
    <glyph glyph-name="mahapakh" unicode="&#x5a4;" 
d="M138 -515l-50 -72l-226 208l226 208l50 -72l-162 -133z" />
    <glyph glyph-name="merkha" unicode="&#x5a5;" 
d="M12 -350l-12 175.998h76c7.33301 -66 11 -124 11 -174c0 -130 -58 -208.667 -174 -236v86c34 12.667 59 29.834 75 51.501s24 53.834 24 96.501z" />
    <glyph glyph-name="merkhakefula" unicode="&#x5a6;" 
d="M-86 -353l-10 175.999h74c6.66699 -60 10 -118 10 -174c0 -130.667 -57.333 -209.334 -172 -236.001v86c33.333 12.667 58 29.834 74 51.501s24 53.834 24 96.501zM110 -354.001l-10 175.998h74c6.66699 -60 10 -118 10 -174c0 -130 -57.333 -208.333 -172 -235v85
c33.333 12.667 58 29.834 74 51.501s24 53.834 24 96.501z" />
    <glyph glyph-name="darga" unicode="&#x5a7;" 
d="M58 -247c-20.667 -4 -36.332 -7.83301 -46.999 -11.5s-20.834 -10.334 -30.501 -20.001s-14.5 -22.167 -14.5 -37.5c0 -2 10.5 -6.33301 31.5 -13s42.667 -16.167 65 -28.5s35.166 -26.5 38.499 -42.5c2 -9.33301 3 -20 3 -32c0 -52 -14.667 -89 -44 -111
s-80.333 -38.667 -153 -50v81c10.667 2.66699 25.167 5.66699 43.5 9s30.833 6 37.5 8s14.5 5.33301 23.5 10s15 10.834 18 18.501s4.5 17.5 4.5 29.5c0 2.66699 -10.5 7.16699 -31.5 13.5s-42.667 15.666 -65 27.999s-35.166 26.5 -38.499 42.5
c-2 8.66699 -3 19.334 -3 32.001c0 53.333 14 90.5 42 111.5s76 36.833 144 47.5v-82c-2 -0.666992 -4.83301 -1.16699 -8.5 -1.5s-6.5 -0.833008 -8.5 -1.5h-7z" />
    <glyph glyph-name="qadma" unicode="&#x5a8;" 
d="M12 1406c0 42 -8.16699 74 -24.5 96s-41.5 39 -75.5 51v87c117.333 -28 176 -107 176 -237c0 -57.333 -3.33301 -114.333 -10 -171h-78c8 99.333 12 157.333 12 174z" />
    <glyph glyph-name="telishaqetana" unicode="&#x5a9;" 
d="M-8 1379c30.667 0 55.334 12.167 74.001 36.5s28 53.5 28 87.5s-9.33301 63.167 -28 87.5s-43.334 36.5 -74.001 36.5s-55.334 -12.167 -74.001 -36.5s-28 -53.5 -28 -87.5s9.33301 -63.167 28 -87.5s43.334 -36.5 74.001 -36.5zM-8 1696
c48 0 87.333 -18.668 118 -56.001s46 -83 46 -137c0 -54.667 -19.333 -103 -58 -145l74 -141l-58 -39l-66 146c-24 -8.66699 -42.667 -13 -56 -13c-48 0 -87.333 18.833 -118 56.5s-46 82.834 -46 135.501c0 52 15.333 97.167 46 135.5s70 57.5 118 57.5z" />
    <glyph glyph-name="yerahbenyomo" unicode="&#x5aa;" 
d="M152 -249c0 -127.333 -38.001 -199.665 -114.001 -216.998v-130h-76v131c-41.333 9.33301 -70.666 31.166 -87.999 65.499s-26 81.833 -26 142.5l4 82h72c0 -3.33301 -0.666992 -11.833 -2 -25.5s-2 -27.834 -2 -42.501c0 -44.667 5.66699 -79.834 17 -105.501
s32.333 -38.5 63 -38.5c53.333 0 80 46 80 138c0 24.667 -1.33301 49.334 -4 74.001h72z" />
    <glyph glyph-name="ole" unicode="&#x5ab;" 
d="M138 1295l-50 -72l-226 208l226 208l50 -72l-162 -133z" />
    <glyph glyph-name="iluy" unicode="&#x5ac;" 
d="M125 1203h-250v85h178v304h72v-389z" />
    <glyph glyph-name="dehi" unicode="&#x5ad;" 
d="M-12 -356c0 -42 8.16699 -73.999 24.5 -95.999s41.5 -39 75.5 -51v-87c-117.333 28 -176 107 -176 237c0 47.333 4 105 12 173h76c-8 -100.667 -12 -159.334 -12 -176.001z" />
    <glyph glyph-name="tsinor" unicode="&#x5ae;" 
d="M154 1392c0 28.667 -14.0039 49.665 -42.0039 62.998v89c28 -9.33301 53.833 -27.5 77.5 -54.5s35.5 -59.167 35.5 -96.5c0 -43.333 -12 -78.5 -36 -105.5s-52 -40.5 -84 -40.5c-17.333 0 -33.166 3.33301 -47.499 10s-27 16.5 -38 29.5s-19.5 24.5 -25.5 34.5
s-13 23 -21 39l-16 30c-18 36.667 -37.667 55 -59 55c-14.667 0 -27 -6.16699 -37 -18.5s-15 -28.166 -15 -47.499c0 -30 15.333 -51.333 46 -64v-87c-35.333 12 -63.666 31.833 -84.999 59.5s-32 57.834 -32 90.501c0 42.667 11.833 77.5 35.5 104.5s52.167 40.5 85.5 40.5
c29.333 0 54 -9.33301 74 -28s39.333 -46.667 58 -84l16 -31c10.667 -18 20.334 -31.333 29.001 -40s18.334 -13 29.001 -13c14.667 0 27 6.16699 37 18.5s15 27.833 15 46.5z" />
    <glyph glyph-name="masoracircle" unicode="&#x5af;" 
d="M0 1306c-46 0 -85.167 19.001 -117.5 57.001s-48.5 84 -48.5 138c0 52 16 97.5 48 136.5s71.333 58.5 118 58.5c45.333 0 84.333 -18.833 117 -56.5s49 -83.834 49 -138.501c0 -54 -16.167 -100 -48.5 -138s-71.5 -57 -117.5 -57zM0 1643c-32 0 -59.333 -13.5 -82 -40.5
s-34 -60.833 -34 -101.5c0 -40 11.5 -73.667 34.5 -101s50.167 -41 81.5 -41s58.5 13.333 81.5 40s34.5 60.667 34.5 102s-11.5 75.333 -34.5 102s-50.167 40 -81.5 40z" />
    <glyph glyph-name="sheva" unicode="&#x5b0;" 
d="M0 -587c-20.667 0 -37.5 7.83301 -50.5 23.5s-19.5 35.167 -19.5 58.5c0 24 6.66699 43.667 20 59s30 23 50 23c20.667 0 37.5 -7.83301 50.5 -23.5s19.5 -35.167 19.5 -58.5c0 -24 -6.66699 -43.667 -20 -59s-30 -23 -50 -23zM0 -333
c-20.667 0 -37.5 7.83301 -50.5 23.5s-19.5 35.167 -19.5 58.5c0 24 6.66699 43.667 20 59s30 23 50 23c20.667 0 37.5 -7.83301 50.5 -23.5s19.5 -35.167 19.5 -58.5c0 -24 -6.66699 -43.667 -20 -59s-30 -23 -50 -23z" />
    <glyph glyph-name="hatafsegol" unicode="&#x5b1;" 
d="M234 -587c-20.667 0 -37.5 7.83301 -50.5 23.5s-19.5 35.167 -19.5 58.5c0 24 6.83301 43.667 20.5 59s30.167 23 49.5 23c20.667 0 37.5 -7.83301 50.5 -23.5s19.5 -35.167 19.5 -58.5c0 -24 -6.66699 -43.667 -20 -59s-30 -23 -50 -23zM234 -333
c-20.667 0 -37.5 7.83301 -50.5 23.5s-19.5 35.167 -19.5 58.5c0 24 6.83301 43.667 20.5 59s30.167 23 49.5 23c20.667 0 37.5 -7.83301 50.5 -23.5s19.5 -35.167 19.5 -58.5c0 -24 -6.66699 -43.667 -20 -59s-30 -23 -50 -23zM0 -169
c20.667 0 37.834 -7.83301 51.501 -23.5s20.5 -35.167 20.5 -58.5c0 -24 -6.83301 -43.667 -20.5 -59s-30.834 -23 -51.501 -23s-37.167 7.83301 -49.5 23.5s-18.5 35.167 -18.5 58.5c0 24 6.5 43.667 19.5 59s29.167 23 48.5 23zM-116 -423
c20.667 0 37.5 -7.83301 50.5 -23.5s19.5 -35.167 19.5 -58.5c0 -24 -6.66699 -43.667 -20 -59s-30 -23 -50 -23c-20.667 0 -37.5 7.83301 -50.5 23.5s-19.5 35.167 -19.5 58.5c0 24 6.66699 43.667 20 59s30 23 50 23zM-234 -169c20.667 0 37.5 -7.83301 50.5 -23.5
s19.5 -35.167 19.5 -58.5c0 -24 -6.83301 -43.667 -20.5 -59s-30.167 -23 -49.5 -23c-20.667 0 -37.5 7.83301 -50.5 23.5s-19.5 35.167 -19.5 58.5c0 24 6.66699 43.667 20 59s30 23 50 23z" />
    <glyph glyph-name="hatafpatah" unicode="&#x5b2;" 
d="M31 -288h-298v94h298v-94zM197 -587c-20 0 -36.5 7.83301 -49.5 23.5s-19.5 35.167 -19.5 58.5c0 24 6.5 43.667 19.5 59s29.5 23 49.5 23c20.667 0 37.5 -7.83301 50.5 -23.5s19.5 -35.167 19.5 -58.5c0 -24 -6.66699 -43.667 -20 -59s-30 -23 -50 -23zM197 -333
c-20 0 -36.5 7.83301 -49.5 23.5s-19.5 35.167 -19.5 58.5c0 24 6.5 43.667 19.5 59s29.5 23 49.5 23c20.667 0 37.5 -7.83301 50.5 -23.5s19.5 -35.167 19.5 -58.5c0 -24 -6.66699 -43.667 -20 -59s-30 -23 -50 -23z" />
    <glyph glyph-name="hatafqamats" unicode="&#x5b3;" 
d="M-140 -288l-126 0.000976562v94h296v-94h-128v-34v-2c0 -34.667 4.66699 -63.334 14 -86.001l36 -90c-15.333 -38 -32 -66 -50 -84c-16 -4 -30 -4 -42 0c-20 16.667 -36 44.667 -48 84l36 90c8 18 12 46 12 84v4v34zM196 -586.999c-20 0 -36.333 7.83301 -49 23.5
s-19 35.167 -19 58.5c0 24 6.5 43.667 19.5 59s29.167 23 48.5 23c20.667 0 37.5 -7.83301 50.5 -23.5s19.5 -35.167 19.5 -58.5c0 -24 -6.66699 -43.667 -20 -59s-30 -23 -50 -23zM196 -332.999c-20 0 -36.333 7.83301 -49 23.5s-19 35.167 -19 58.5
c0 24 6.5 43.667 19.5 59s29.167 23 48.5 23c20.667 0 37.5 -7.83301 50.5 -23.5s19.5 -35.167 19.5 -58.5c0 -24 -6.66699 -43.667 -20 -59s-30 -23 -50 -23z" />
    <glyph glyph-name="hiriq" unicode="&#x5b4;" 
d="M0 -333c-20.667 0 -37.5 7.83301 -50.5 23.5s-19.5 35.167 -19.5 58.5c0 24 6.66699 43.667 20 59s30 23 50 23c20.667 0 37.5 -7.83301 50.5 -23.5s19.5 -35.167 19.5 -58.5c0 -24 -6.66699 -43.667 -20 -59s-30 -23 -50 -23z" />
    <glyph glyph-name="tsere" unicode="&#x5b5;" 
d="M178 -251c0 -24 -6.66699 -43.667 -20 -59s-30 -23 -50 -23c-20.667 0 -37.5 7.83301 -50.5 23.5s-19.5 35.167 -19.5 58.5c0 24 6.66699 43.667 20 59s30 23 50 23c20.667 0 37.5 -7.83301 50.5 -23.5s19.5 -35.167 19.5 -58.5zM-38 -251
c0 -24 -6.66699 -43.667 -20 -59s-30 -23 -50 -23c-20.667 0 -37.5 7.83301 -50.5 23.5s-19.5 35.167 -19.5 58.5c0 24 6.66699 43.667 20 59s30 23 50 23c20.667 0 37.5 -7.83301 50.5 -23.5s19.5 -35.167 19.5 -58.5z" />
    <glyph glyph-name="segol" unicode="&#x5b6;" 
d="M118 -169c20.667 0 37.5 -7.83301 50.5 -23.5s19.5 -35.167 19.5 -58.5c0 -24 -6.66699 -43.667 -20 -59s-30 -23 -50 -23c-20.667 0 -37.5 7.83301 -50.5 23.5s-19.5 35.167 -19.5 58.5c0 24 6.66699 43.667 20 59s30 23 50 23zM0 -413
c20.667 0 37.5 -7.83301 50.5 -23.5s19.5 -35.167 19.5 -58.5c0 -24 -6.66699 -43.667 -20 -59s-30 -23 -50 -23c-20.667 0 -37.5 7.83301 -50.5 23.5s-19.5 35.167 -19.5 58.5c0 24 6.66699 43.667 20 59s30 23 50 23zM-118 -169c20.667 0 37.5 -7.83301 50.5 -23.5
s19.5 -35.167 19.5 -58.5c0 -24 -6.66699 -43.667 -20 -59s-30 -23 -50 -23c-20.667 0 -37.5 7.83301 -50.5 23.5s-19.5 35.167 -19.5 58.5c0 24 6.66699 43.667 20 59s30 23 50 23z" />
    <glyph glyph-name="patah" unicode="&#x5b7;" 
d="M150 -288h-300v94h300v-94z" />
    <glyph glyph-name="qamats" unicode="&#x5b8;" 
d="M-22 -288h-126v94h296v-94h-128v-34v-3c0 -28.667 4.66699 -57 14 -85l36 -90c-15.333 -38.667 -32 -67 -50 -85c-14.667 -3.33301 -28.667 -3 -42 1c-20 16.667 -36 44.667 -48 84l36 90c8 17.333 12 45.333 12 84v3v35z" />
    <glyph glyph-name="holam" unicode="&#x5b9;" 
d="M-230 1222c-20.667 0 -37.5 7.83301 -50.5 23.5s-19.5 35.167 -19.5 58.5c0 24 6.66699 43.667 20 59s30 23 50 23c20.667 0 37.5 -7.83301 50.5 -23.5s19.5 -35.167 19.5 -58.5c0 -24 -6.66699 -43.667 -20 -59s-30 -23 -50 -23z" />
    <glyph glyph-name="holamhaser" unicode="&#x5ba;" 
d="M-230 1222c-20.667 0 -37.5 7.83301 -50.5 23.5s-19.5 35.167 -19.5 58.5c0 24 6.66699 43.667 20 59s30 23 50 23c20.667 0 37.5 -7.83301 50.5 -23.5s19.5 -35.167 19.5 -58.5c0 -24 -6.66699 -43.667 -20 -59s-30 -23 -50 -23z" />
    <glyph glyph-name="qubuts" unicode="&#x5bb;" 
d="M-154 -323c-19.333 0 -35.5 7.66699 -48.5 23s-19.5 34 -19.5 56c0 22.667 6.33301 41.667 19 57s29 23 49 23s36.333 -7.66699 49 -23s19 -34.333 19 -57s-6.66699 -41.5 -20 -56.5s-29.333 -22.5 -48 -22.5zM154 -591c-19.333 0 -35.5 7.66699 -48.5 23
s-19.5 34 -19.5 56c0 22.667 6.33301 41.667 19 57s29 23 49 23s36.333 -7.66699 49 -23s19 -34.333 19 -57c0 -23.333 -6.5 -42.333 -19.5 -57s-29.167 -22 -48.5 -22zM-4 -453c-19.333 0 -35.166 7.66699 -47.499 23s-18.5 34 -18.5 56c0 22.667 6.16699 41.667 18.5 57
s28.166 23 47.499 23c20 0 36.333 -7.66699 49 -23s19 -34.333 19 -57c0 -23.333 -6.5 -42.333 -19.5 -57s-29.167 -22 -48.5 -22z" />
    <glyph glyph-name="dagesh" unicode="&#x5bc;" 
d="M0 437c-20.667 0 -37.5 7.83301 -50.5 23.5s-19.5 35.167 -19.5 58.5c0 24 6.66699 43.667 20 59s30 23 50 23c20.667 0 37.5 -7.83301 50.5 -23.5s19.5 -35.167 19.5 -58.5c0 -24 -6.66699 -43.667 -20 -59s-30 -23 -50 -23z" />
    <glyph glyph-name="meteg" unicode="&#x5bd;" 
d="M36 -572h-72v390h72v-390z" />
    <glyph glyph-name="makaf" unicode="&#x5be;" horiz-adv-x="631" 
d="M78 830c-2.66699 0 -4 2.33301 -4 7c0 7.33301 8 42.333 24 105l27 104c2 4.66699 4.66699 7 8 7h429c3.33301 0 5 -2.33301 5 -7l-28 -104l-20 -83c-4 -19.333 -8 -29 -12 -29h-429z" />
    <glyph glyph-name="rafe" unicode="&#x5bf;" 
d="M194 1224h-388v94h388v-94z" />
    <glyph glyph-name="paseq" unicode="&#x5c0;" horiz-adv-x="600" 
d="M342 -164h-84v1393h84v-1393z" />
    <glyph glyph-name="shindot" unicode="&#x5c1;" 
d="M0 1222c-20.667 0 -37.5 7.83301 -50.5 23.5s-19.5 35.167 -19.5 58.5c0 24 6.66699 43.667 20 59s30 23 50 23c20.667 0 37.5 -7.83301 50.5 -23.5s19.5 -35.167 19.5 -58.5c0 -24 -6.66699 -43.667 -20 -59s-30 -23 -50 -23z" />
    <glyph glyph-name="sindot" unicode="&#x5c2;" 
d="M0 1222c-20.667 0 -37.5 7.83301 -50.5 23.5s-19.5 35.167 -19.5 58.5c0 24 6.66699 43.667 20 59s30 23 50 23c20.667 0 37.5 -7.83301 50.5 -23.5s19.5 -35.167 19.5 -58.5c0 -24 -6.66699 -43.667 -20 -59s-30 -23 -50 -23z" />
    <glyph glyph-name="sofpasuq" unicode="&#x5c3;" horiz-adv-x="490" 
d="M197 973c28.667 -30.667 55.833 -55.667 81.5 -75s43.167 -31.833 52.5 -37.5s14 -11.167 14 -16.5c0 -6 -0.666992 -10 -2 -12l-50 -81l-46 -83c-2 -3.33301 -5 -5 -9 -5c-14 0 -38.833 14.333 -74.5 43s-63.5 54.334 -83.5 77.001c-4 5.33301 -4 11.666 0 18.999
c40 74 72.667 130 98 168c4.66699 8 11 9 19 3zM196.999 292c18.667 -20 36.666 -37.6689 53.999 -53.002s31.333 -26.666 42 -33.999l28 -19c8 -5.33301 13.833 -9.5 17.5 -12.5s5.83398 -6.16699 6.50098 -9.5c0.666992 -5.33301 0 -9.66602 -2 -12.999l-50 -81l-46 -83
c-2 -3.33301 -5 -5 -9 -5c-14 0 -38.833 14.333 -74.5 43s-63.5 54.334 -83.5 77.001c-4 5.33301 -4 11.666 0 18.999c40 74 72.667 130 98 168c4.66699 8 11 9 19 3z" />
    <glyph glyph-name="upperdot" unicode="&#x5c4;" 
d="M133 1622l-132 -157l-134 161l130 162z" />
    <glyph glyph-name="lowerdot" unicode="&#x5c5;" 
d="M133 -738l-132 -157l-134 161l130 162z" />
    <glyph glyph-name="nunhapukha" unicode="&#x5c6;" horiz-adv-x="637" 
d="M218 556c0 27.333 -4.16797 61.1689 -12.501 101.502s-12.5 71.5 -12.5 93.5c0 23.333 2.66699 46 8 68c-29.333 4 -51 18 -65 42s-21 53 -21 87c0 42 14 103.333 42 184h43c12.667 -32 30.667 -53.5 54 -64.5s52.333 -16.5 87 -16.5c11.333 0 28.333 0.666992 51 2
s39.334 2 50.001 2c22.667 0 43 -2.33301 61 -7l-59 -234c-23.333 3.33301 -43.333 5 -60 5c-77.333 0 -116 -29.667 -116 -89c0 -34 3.83301 -87.5 11.5 -160.5s11.5 -127.167 11.5 -162.5c0 -17.333 -0.333008 -30 -1 -38l-22 -128l240 -1l66 -240h-407
c-7.33301 29.333 -11 71.666 -11 126.999c0 29.333 10.333 91.166 31 185.499s31 175.5 31 243.5z" />
    <glyph glyph-name="qamatsqatan" unicode="&#x5c7;" 
d="M-23 -278l-125 -0.000976562v94h296v-94h-124v-42v-4c0 -71.333 3.66699 -116.666 11 -135.999l36 -90c-14 -38 -30.667 -66.667 -50 -86c-17.333 -2.66699 -32 -2 -44 2c-18.667 16 -33.667 44 -45 84l35 90c6.66699 13.333 10 58 10 134v4v44z" />
    <glyph glyph-name="alef" unicode="&#x5d0;" horiz-adv-x="1048" 
d="M875 1039c70.667 -25.333 105.999 -70.999 105.999 -136.999c0 -54.667 -22 -110.334 -66 -167.001h-19v25v12c0 12 -2.16699 20.833 -6.5 26.5s-14.166 8.5 -29.499 8.5c-34.667 -54 -59 -99.5 -73 -136.5s-21 -72.833 -21 -107.5c0 -50.667 17.667 -96.667 53 -138
l93 -107c52 -58.667 78 -120 78 -184c0 -58 -23.333 -108.333 -70 -151h-27c0 46.667 -17.333 89.667 -52 129l-434 498c-74 -37.333 -111 -85.333 -111 -144c0 -22.667 6.33301 -45.667 19 -69s28.167 -45.166 46.5 -65.499l55 -61c18.333 -20.333 33.833 -42.5 46.5 -66.5
s19 -47.333 19 -70c0 -31.333 -11.167 -61.5 -33.5 -90.5s-45.5 -43.5 -69.5 -43.5h-3h-189v28c40 10.667 60 33.667 60 69c0 18 -14.5 61.5 -43.5 130.5s-43.5 119.167 -43.5 150.5c0 103.333 69.667 194.666 209 273.999l-122 139c-50.667 58.667 -76 119.667 -76 183
c0 58.667 22.667 112.667 68 162h26c0 -54 17.333 -100.667 52 -140l376 -427c17.333 88 51 169.667 101 245c-99.333 16 -149 77.333 -149 184c0 52.667 13.667 98.667 41 138h26c11.333 -41.333 37 -67 77 -77z" />
    <glyph glyph-name="bet" unicode="&#x5d1;" horiz-adv-x="967" 
d="M561 814l-226.999 -0.000976562c-48 0 -85.167 14.333 -111.5 43s-39.5 65 -39.5 109c0 62.667 20.333 117.334 61 164.001h26c11.333 -49.333 44.666 -74 99.999 -74h146c53.333 0 98.333 -2.33301 135 -7s68.167 -13.5 94.5 -26.5s47 -27.667 62 -44
s26.667 -39.5 35 -69.5s13.833 -60.833 16.5 -92.5s4 -72.834 4 -123.501v-141c0 -78 -4.5 -139.167 -13.5 -183.5s-26.167 -87.166 -51.5 -128.499h146c0 -94 -12.667 -174 -38 -240h-769c-3.33301 16.667 -5 32 -5 46c0 26 3.83301 57.833 11.5 95.5s18.5 70.5 32.5 98.5
h568c16.667 85.333 25 180.333 25 285c0 121.333 -10.333 203.666 -31 246.999c-9.33301 18.667 -27.333 30.334 -54 35.001s-67.667 7 -123 7z" />
    <glyph glyph-name="gimel" unicode="&#x5d2;" horiz-adv-x="665" 
d="M468 599c0 -36 9.00391 -76.168 27.0039 -120.501s37.833 -84.166 59.5 -119.499s41.5 -76 59.5 -122s27 -88.333 27 -127c0 -48.667 -12.333 -91.334 -37 -128.001h-24l-144 344h-14l-134 -326l-212 -18l52 242c9.33301 1.33301 25.833 3.83301 49.5 7.5
s39.834 6.5 48.501 8.5s20.667 5.33301 36 10s28.166 10.667 38.499 18s20.166 16.666 29.499 27.999c48 54.667 72 155.334 72 302.001c0 37.333 -1.5 68.5 -4.5 93.5s-6 44.333 -9 58s-9.16699 24.5 -18.5 32.5s-16.833 13 -22.5 15s-15.834 4.66699 -30.501 8l-39 9
c-46 10.667 -76 27.334 -90 50.001s-21.333 55.667 -22 99c0 58 21 111.333 63 160h27c1.33301 -6.66699 2.16602 -14.334 2.49902 -23.001s0.666016 -15 0.999023 -19s1.5 -8.16699 3.5 -12.5s6 -7.66602 12 -9.99902s14 -3.83301 24 -4.5l73 -7
c74.667 -6.66699 112 -54 112 -142c0 -26 -2.66699 -77 -8 -153s-8 -127 -8 -153z" />
    <glyph glyph-name="dalet" unicode="&#x5d3;" horiz-adv-x="879" 
d="M671 596c0 -37.333 3.66699 -107.5 11 -210.5s11 -173.167 11 -210.5c0 -117.333 -48.333 -184 -145 -200l-17 25c17.333 26.667 26 60.334 26 101.001c0 46 -1.5 103.833 -4.5 173.5s-4.5 119.167 -4.5 148.5c0 95.333 11.5 173.333 34.5 234s62.833 113 119.5 157h-448
c-50 0 -88.167 13.667 -114.5 41s-39.5 63 -39.5 107c0 66 20.333 120.667 61 164h26c11.333 -46.667 44.666 -70 99.999 -70h414c46.667 0 78.834 -8.66699 96.501 -26s26.5 -48.333 26.5 -93c0 -24.667 -2 -44.5 -6 -59.5s-9.83301 -27.167 -17.5 -36.5
s-16 -17.5 -25 -24.5s-20 -17.5 -33 -31.5s-25.167 -30.333 -36.5 -49c-23.333 -36.667 -35 -83.334 -35 -140.001z" />
    <glyph glyph-name="he" unicode="&#x5d4;" horiz-adv-x="1071" 
d="M922 607c0 -44.667 7.66992 -116.67 23.0029 -216.003s23 -171.333 23 -216c0 -118 -47.667 -184.667 -143 -200l-16 21c17.333 30.667 26 65.667 26 105c0 29.333 -2.66699 88.833 -8 178.5s-8 148.5 -8 176.5c0 85.333 6.83301 155.333 20.5 210s39.167 104 76.5 148
h-570c-48.667 0 -85.834 13.667 -111.501 41s-38.5 63 -38.5 107c0 66 20.333 120.667 61 164h27c11.333 -46.667 42.666 -70 93.999 -70h488c51.333 0 85.666 -9.33301 102.999 -28s26 -49 26 -91v-49c0 -17.333 -3.83301 -34.166 -11.5 -50.499s-16 -31.166 -25 -44.499
s-17.333 -36.166 -25 -68.499s-11.5 -71.5 -11.5 -117.5zM361.003 292.997c0 -12.667 1.33203 -45.001 3.99902 -97.001s4 -84.667 4 -98c0 -81.333 -50 -125 -150 -131l-14 22c17.333 18.667 26 43 26 73c0 12.667 -1 44 -3 94s-3 81.333 -3 94c0 72 13.333 131 40 177
s64.334 69 113.001 69c13.333 0 24.666 -2.66699 33.999 -8v-27c-15.333 -10 -27.666 -31.667 -36.999 -65s-14 -67.666 -14 -102.999z" />
    <glyph glyph-name="vav" unicode="&#x5d5;" horiz-adv-x="484" 
d="M266 1056c50.667 0 89 -17.835 115 -53.502s39 -95.167 39 -178.5v-717c0 -59.333 -22.667 -100.666 -68 -123.999l-22 7v673c0 46.667 -7.33301 82.334 -22 107.001c-8 12.667 -16 21.667 -24 27s-23.333 11 -46 17c-54.667 14 -93.5 29.167 -116.5 45.5
s-38.167 44.5 -45.5 84.5c-1.33301 6 -2 14.667 -2 26c0 24 5.66699 49.667 17 77s25.333 49 42 65c4 -1.33301 13 -1.33301 27 0c4.66699 -37.333 40 -56 106 -56z" />
    <glyph glyph-name="zain" unicode="&#x5d6;" horiz-adv-x="549" 
d="M461 736l-16.999 -0.000976562c-3.33301 17.333 -15.833 32.5 -37.5 45.5s-43.834 21.833 -66.501 26.5c-12 -57.333 -18 -108.666 -18 -153.999c0 -54.667 10.333 -133.334 31 -236.001s31 -177.667 31 -225c0 -130.667 -47.333 -203.334 -142 -218.001l-19 20
c21.333 30.667 32 67.334 32 110.001c0 32.667 -5.33301 93.667 -16 183s-16 150.666 -16 183.999c0 118.667 24.667 230.667 74 336c-67.333 0 -118 14.833 -152 44.5s-51 69.167 -51 118.5c0 62.667 18.333 117.334 55 164.001h27c8 -38 30 -61 66 -69
c100.667 -3.33301 178 -22.666 232 -57.999c28 -18 42 -55.667 42 -113c0 -58.667 -18.333 -111.667 -55 -159z" />
    <glyph glyph-name="het" unicode="&#x5d7;" horiz-adv-x="1065" 
d="M913 607c0 -38 7.83496 -108.335 23.502 -211.002s23.5 -176.334 23.5 -221.001c0 -119.333 -46.667 -186 -140 -200l-16 21c17.333 26.667 26 61.667 26 105c0 29.333 -2.66699 88.833 -8 178.5s-8 148.5 -8 176.5c0 86.667 6.5 157 19.5 211s37.833 103 74.5 147h-506
c-30.667 -22.667 -51 -49.5 -61 -80.5s-15 -76.5 -15 -136.5c0 -42 6.66699 -109.5 20 -202.5s20 -160.833 20 -203.5c0 -130 -49.667 -202 -149 -216l-13 21c20.667 32.667 31 80.667 31 144l1 16c0 11.333 -0.333008 17 -1 17l-15 253v17.5v20.5v17
c0 74.667 9.33301 138.167 28 190.5s50.667 99.833 96 142.5c-60.667 0.666992 -101.334 12.834 -122.001 36.501s-31 60.834 -31 111.501c0 66 20.333 120.667 61 164h27c11.333 -46.667 44.333 -70 99 -70h483c47.333 0 80.666 -8.16699 99.999 -24.5s29 -46.5 29 -90.5
v-4c0 -34 -4 -63.667 -12 -89s-16.833 -45.166 -26.5 -59.499s-18.5 -37 -26.5 -68s-12 -68.833 -12 -113.5z" />
    <glyph glyph-name="tet" unicode="&#x5d8;" horiz-adv-x="1015" 
d="M262 814c-46.667 8.66699 -79.665 25.0029 -98.998 49.0029s-29 59.333 -29 106c0 54 14 109.333 42 166h27c4.66699 -48.667 40.667 -74.667 108 -78c79.333 -2 119 -44.667 119 -128c0 -14.667 -2.83301 -41.834 -8.5 -81.501s-10.834 -66.5 -15.501 -80.5
c-8.66699 -3.33301 -13.667 -3.5 -15 -0.5s-4.5 9 -9.5 18s-11.5 15.167 -19.5 18.5c-2.66699 0.666992 -10 2.66699 -22 6s-22 5 -30 5c-22 -72 -33 -132.667 -33 -182c0 -61.333 8 -120.833 24 -178.5s42.333 -128.834 79 -213.501h414c27.333 58 46 116 56 174
s15 129.667 15 215c0 67.333 -15 115 -45 143s-67.333 42 -112 42c-96 0 -160.333 -53 -193 -159l-32 8c56 270 146.667 405 272 405c124.667 0 187 -146 187 -438c0 -180 -42.667 -390 -128 -630h-530c-0.666992 45.333 -12.834 135.166 -36.501 269.499
s-35.5 232.833 -35.5 295.5c0 80 16.667 163 50 249z" />
    <glyph glyph-name="yod" unicode="&#x5d9;" horiz-adv-x="454" 
d="M247 480l-28.001 31.998c35.333 26.667 59.666 53.834 72.999 81.501s20 64.834 20 111.501v36c0 25.333 -5.16699 43.5 -15.5 54.5s-34.166 17.167 -71.499 18.5c-53.333 2 -93.166 18 -119.499 48s-39.5 68.667 -39.5 116c0 48 15.667 100.333 47 157h27
c6 -44.667 36.333 -69.667 91 -75l35 -4c89.333 -7.33301 134 -69 134 -185v-76c0 -156.667 -51 -261.667 -153 -315z" />
    <glyph glyph-name="finalkaf" unicode="&#x5da;" horiz-adv-x="846" 
d="M737 800c-11.333 -13.333 -17.001 -37.001 -17.001 -71.001v-9l32 -897c0 -3.33301 0.166992 -7.66602 0.5 -12.999s0.5 -9.33301 0.5 -12c0 -42.667 -7.16699 -75.334 -21.5 -98.001s-39.166 -40.667 -74.499 -54l-18 9l-3 1160h-387c-46 0 -81 13.667 -105 41
s-36 63 -36 107c0 62.667 20.333 117.334 61 164.001h26c10 -46.667 45.667 -70 107 -70l361 -1c84.667 0 127 -36.667 127 -110v-31c0 -28.667 -7 -51 -21 -67z" />
    <glyph glyph-name="kaf" unicode="&#x5db;" horiz-adv-x="942" 
d="M774 507l-0.00292969 9.99805c0 52.667 -2.66699 95.834 -8 129.501s-15.166 64 -29.499 91s-35.333 46.5 -63 58.5s-63.167 18 -106.5 18h-275c-45.333 0 -79.333 13.5 -102 40.5s-34 62.833 -34 107.5c0 62.667 20.333 117.334 61 164.001h26
c10.667 -46.667 44 -70 100 -70h206c211.333 0 317 -173 317 -519c0 -82.667 -4 -153.167 -12 -211.5s-19.833 -105 -35.5 -140s-32.167 -62.167 -49.5 -81.5s-38.666 -36 -63.999 -50c-63.333 -36 -147 -54 -251 -54h-329l45 240h379c80.667 0 138.334 20 173.001 60
s52 109 52 207z" />
    <glyph glyph-name="lamed" unicode="&#x5dc;" horiz-adv-x="901" 
d="M227 1137c0 -32 9.16895 -53.498 27.502 -64.498s48.5 -16.5 90.5 -16.5h326c61.333 0 109 -15 143 -45c32.667 -30.667 49 -104 49 -220v-108c0 -87.333 -19.333 -152.333 -58 -195l-190 -213c-46 -51.333 -69 -101.666 -69 -150.999c0 -10 1.16699 -22.833 3.5 -38.5
s3.5 -26.834 3.5 -33.501c0 -49.333 -22.333 -74 -67 -74c-22 0 -40.5 10.667 -55.5 32s-22.5 46 -22.5 74c0 36 12.167 71.5 36.5 106.5s65.166 81.5 122.499 139.5l146 151c41.333 43.333 62 98.666 62 165.999v60c0 48 -11.167 77.833 -33.5 89.5s-72.5 17.5 -150.5 17.5
h-290c-50.667 0 -89.5 14.833 -116.5 44.5s-40.5 68.5 -40.5 116.5c0 60.667 12.333 128 37 202l29 85c4.66699 14 7 25.333 7 34c0 19.333 -12 35 -36 47l-56 27c-28.667 14 -43 33.667 -43 59c0 16 5.16699 39.667 15.5 71s21.166 55.333 32.499 72h25
c2.66699 -20.667 16.667 -36 42 -46l38 -15c42 -16.667 63 -42.334 63 -77.001c0 -4.66699 -14.333 -60.667 -43 -168l-14 -51c-9.33301 -36 -14 -62 -14 -78z" />
    <glyph glyph-name="finalmem" unicode="&#x5dd;" horiz-adv-x="1004" 
d="M172 0v537c0 54 20.333 103.667 61 149l115 128h-52c-46.667 0 -82.334 13.5 -107.001 40.5s-37 62.833 -37 107.5c0 63.333 20.333 117.333 61 162h26c10.667 -45.333 42.334 -68 95.001 -68h221c154 0 253.667 -22.333 299 -67c45.333 -45.333 68 -142.333 68 -291
v-698h-750zM416 814l-109.999 -157.999c-29.333 -42 -44 -93.667 -44 -155l1 -261h573v234c-0.666992 138 -13.334 233 -38.001 285c-12 23.333 -30.833 38.166 -56.5 44.499s-64.5 9.83301 -116.5 10.5h-209z" />
    <glyph glyph-name="mem" unicode="&#x5de;" horiz-adv-x="1094" 
d="M681 1069c59.333 -10 110.834 -32.998 154.501 -68.998s77.5 -81.333 101.5 -136s41.667 -112.834 53 -174.501s17 -128.167 17 -199.5c0 -92 -12.333 -198.333 -37 -319l-34 -171h-499l58 240h408c8.66699 33.333 14 64.666 16 93.999s3 74 3 134v3
c0 92 -20.833 166.667 -62.5 224s-96.167 86.666 -163.5 87.999h-7c-115.333 0 -211.666 -57.667 -288.999 -173c-90 -134 -135.333 -337.333 -136 -610h-67c-2.66699 30 -4 59 -4 87c0 140.667 16.667 261.834 50 363.501s88.333 194.5 165 278.5c3.33301 20 5 34 5 42
c0 7.33301 -0.833008 13 -2.5 17s-5.33398 7.16699 -11.001 9.5s-11.334 4 -17.001 5s-15 2.5 -28 4.5s-25.167 4.33301 -36.5 7c-40 8.66699 -72 29 -96 61s-36 66.667 -36 104c0 55.333 14 107.333 42 156h27c12 -40.667 37.667 -64 77 -70l62 -9c56 -8 84 -36.333 84 -85
c0 -12 -1.5 -27.167 -4.5 -45.5s-4.5 -31.5 -4.5 -39.5c0 -28 10.333 -48.333 31 -61c110.667 62 171 143.333 181 244z" />
    <glyph glyph-name="finalnun" unicode="&#x5df;" horiz-adv-x="459" 
d="M243 542c0.666992 30.667 6.83301 59.999 18.5 87.999s23.167 53 34.5 75s17 41 17 57v6c0 17.333 -3.33301 29.333 -10 36s-23.667 10.334 -51 11.001c-61.333 0.666992 -103.666 15.334 -126.999 44.001s-35 68 -35 118c0 62 18 115.333 54 160h27
c0.666992 -2.66699 1.5 -7.33398 2.5 -14.001s1.66699 -11 2 -13s1 -5.66699 2 -11s2 -8.83301 3 -10.5s2.33301 -4.5 4 -8.5s3.5 -6.66699 5.5 -8s4.33301 -3.33301 7 -6s5.66699 -4.5 9 -5.5s7.16602 -2 11.499 -3s9.16602 -1.5 14.499 -1.5h24
c102 -6 153 -60.667 153 -164c0 -18.667 -6.16699 -45.5 -18.5 -80.5s-24.666 -77.5 -36.999 -127.5s-18.5 -103.333 -18.5 -160c0 -16.667 0.333008 -29.667 1 -39l32 -573c0.666992 -9.33301 1 -22.333 1 -39c0 -123.333 -35.667 -198.333 -107 -225l-19 7v887z" />
    <glyph glyph-name="nun" unicode="&#x5e0;" horiz-adv-x="614" 
d="M487 559c0 -68 10.334 -149.167 31.001 -243.5s31 -156.166 31 -185.499c0 -60 -3.33301 -103.333 -10 -130h-470l37 239l303 1l-3 132v26c0 34.667 3.16699 89.167 9.5 163.5s9.5 128.166 9.5 161.499v7c-1.33301 26 -7 45.833 -17 59.5s-29 20.834 -57 21.501
c-104.667 1.33301 -158 57.666 -160 168.999v4c0 63.333 20.333 115.333 61 156h27c2.66699 -15.333 4.66699 -25.666 6 -30.999s4.16602 -12.5 8.49902 -21.5s10.5 -15.333 18.5 -19s18.333 -5.83398 31 -6.50098l44 -5c90.667 -10 136 -56 136 -138
c0 -32.667 -6 -92.667 -18 -180s-18 -147.333 -18 -180z" />
    <glyph glyph-name="samekh" unicode="&#x5e1;" horiz-adv-x="1038" 
d="M962 537c0 -87.333 -5.49707 -163.166 -16.4971 -227.499s-29.5 -122.333 -55.5 -174s-63.167 -90.834 -111.5 -117.501s-107.5 -40 -177.5 -40h-37c-60 0 -115 13 -165 39s-90.833 60.5 -122.5 103.5s-56.334 91.667 -74.001 146s-26.5 110.833 -26.5 169.5
c0 81.333 9 150.833 27 208.5s46.333 115.167 85 172.5c-33.333 0 -60.333 16.833 -81 50.5s-31 65.167 -31 94.5c0 62 21 116.667 63 164h26c11.333 -46.667 44.333 -70 99 -70h244c56 0 104.667 -8.16699 146 -24.5s78.166 -43.5 110.499 -81.5
s56.666 -91.5 72.999 -160.5s24.5 -153.167 24.5 -252.5zM872.003 502c0 57.333 -3.16895 104.333 -9.50195 141s-18.166 68.5 -35.499 95.5s-41.5 46.333 -72.5 58s-71.167 17.5 -120.5 17.5h-287c-28 -47.333 -47.833 -94 -59.5 -140s-17.5 -98.333 -17.5 -157
c0 -105.333 25 -183.833 75 -235.5s114.333 -77.5 193 -77.5h88c82.667 0 144.334 24 185.001 72s61 123.333 61 226z" />
    <glyph glyph-name="ayin" unicode="&#x5e2;" horiz-adv-x="920" 
d="M693 282c0 -161.333 -92.668 -252.999 -278.001 -274.999l-345 -40l44 235l254 28c0 109.333 -25.333 184.666 -76 225.999c-34.667 28.667 -56.334 54.5 -65.001 77.5s-13 60.167 -13 111.5c0 39.333 6.33301 95.666 19 168.999
c-50.667 9.33301 -89.167 27.5 -115.5 54.5s-39.5 59.833 -39.5 98.5c0 56.667 13.333 111.334 40 164.001h27c12 -48 40.667 -74.333 86 -79h47c32 0 58.833 -14 80.5 -42s32.5 -62 32.5 -102c0 -50 -17.333 -97 -52 -141h-17c-4 19.333 -9.16699 32 -15.5 38
s-17.166 9 -32.499 9c0 -74 3 -121 9 -141s23 -39.333 51 -58c26.667 -17.333 45.334 -31.5 56.001 -42.5s19 -26.667 25 -47s9 -49.5 9 -87.5v-198l62 8c6 0.666992 14 1.66699 24 3s16.833 2.33301 20.5 3s9 1.83398 16 3.50098s11.5 3.5 13.5 5.5l10 10
c4.66699 4.66699 8 9.66699 10 15l8 21.5c3.33301 9 6.33301 19 9 30s5.66699 24.167 9 39.5c14 60.667 39 132.5 75 215.5s54 133.5 54 151.5c0 38.667 -17 61.334 -51 68.001c-46 10.667 -79.833 30.5 -101.5 59.5s-32.5 62.833 -32.5 101.5
c0 49.333 16.333 101.333 49 156h27c6 -27.333 17.333 -46.666 34 -57.999c12.667 -8 32 -14.833 58 -20.5s49.167 -10.334 69.5 -14.001s38.5 -14 54.5 -31s24 -40.5 24 -70.5c0 -26 -6 -55.333 -18 -88s-26.333 -67 -43 -103s-33.5 -75.333 -50.5 -118
s-31.5 -94.334 -43.5 -155.001s-18 -124.334 -18 -191.001z" />
    <glyph glyph-name="finalpe" unicode="&#x5e3;" horiz-adv-x="886" 
d="M408 390c-8 0 -21.501 1.50391 -40.501 4.50391s-34.833 4.5 -47.5 4.5c-48 0 -86 -17.667 -114 -53h-33c-21.333 44 -32 87 -32 129c0 116 40.333 229 121 339c-28.667 6 -51.167 22.833 -67.5 50.5s-24.5 60.167 -24.5 97.5c0 63.333 21 118 63 164h26
c12 -46.667 44.667 -70 98 -70h151h28c127.333 0 207 -34.333 239 -103c19.333 -39.333 31.333 -115.333 36 -228l20 -450c8 -186.667 12 -345.334 12 -476.001c0 -50.667 -6.33301 -84.834 -19 -102.501s-36.667 -33.167 -72 -46.5l-23 8v837c0 58 -2.5 107.167 -7.5 147.5
s-11.333 71.666 -19 93.999s-18.667 39.333 -33 51s-28.166 19 -41.499 22s-30.666 4.5 -51.999 4.5h-267l-35.5 -57.5c-6.33301 -10.333 -12.333 -23.5 -18 -39.5s-8.5 -31.333 -8.5 -46c0 -29.333 7.16699 -49.833 21.5 -61.5s43.166 -21.834 86.499 -30.501
c58 -10 87 -37.667 87 -83v-68c0 -25.333 -11.333 -38 -34 -38z" />
    <glyph glyph-name="pe" unicode="&#x5e4;" horiz-adv-x="912" 
d="M382 459c-6 0 -20.666 1.33691 -43.999 4.00391s-38 4 -44 4c-48.667 0 -86.667 -17.667 -114 -53h-32c-25.333 57.333 -38 111.666 -38 162.999c0 54 6.66699 98.667 20 134s38 69.666 74 102.999l-40 45c-7.33301 8 -13.5 22.333 -18.5 43s-7.5 40.667 -7.5 60
c0 64 20.333 118.667 61 164h26c10.667 -46.667 44 -70 100 -70h190c208.667 0 313 -173 313 -519c0 -224.667 -33.333 -370.334 -100 -437.001s-169.334 -100 -308.001 -100h-310l58 240h330c32.667 0 60.167 1.33301 82.5 4s45.333 9.16699 69 19.5
s42.5 24.666 56.5 42.999s25.667 44 35 77s14 72.833 14 119.5c0 55.333 -3.33301 102.166 -10 140.499s-15.5 68.5 -26.5 90.5s-26.167 39 -45.5 51s-38.5 19.833 -57.5 23.5s-43.167 5.5 -72.5 5.5h-262c-43.333 -27.333 -65 -62.666 -65 -105.999
c0 -20 6.5 -34.833 19.5 -44.5s29 -16 48 -19l56.5 -9c18.667 -3 34.5 -10 47.5 -21s19.5 -27.167 19.5 -48.5v-55c0 -34.667 -8.33301 -52 -25 -52z" />
    <glyph glyph-name="finaltsadi" unicode="&#x5e5;" horiz-adv-x="990" 
d="M887 754l-17.002 0.00390625c-4 18.667 -9.66699 30.667 -17 36s-20.666 8 -39.999 8c-58 -44.667 -104 -84.667 -138 -120l-89 -91c-75.333 -77.333 -126 -145 -152 -203s-39 -115.667 -39 -173c0 -36 4.83301 -97 14.5 -183s14.5 -149.333 14.5 -190
c0 -103.333 -33.667 -168 -101 -194l-23 8l-21 823v4c0 28.667 10 74.167 30 136.5s30 106.166 30 131.499c0 28 -14 47.667 -42 59c-67.333 12.667 -116.833 31.667 -148.5 57s-47.5 62 -47.5 110c0 57.333 15.333 110.666 46 159.999h27
c10.667 -42 37.334 -65.333 80.001 -70l64 -7c94 -9.33301 141 -56 141 -140c0 -37.333 -19.333 -103 -58 -197c-28.667 -71.333 -43 -126 -43 -164v-10l4 -83h16c122 142 245.667 258 371 348c-95.333 15.333 -143 69.666 -143 162.999c0 56 15.333 109.333 46 160h26
c5.33301 -42 33.333 -65.333 84 -70l63 -7c31.333 -7.33301 49.5 -12 54.5 -14s14.833 -8.33301 29.5 -19c25.333 -18.667 38 -51.667 38 -99c0 -62.667 -20 -119.334 -60 -170.001z" />
    <glyph glyph-name="tsadi" unicode="&#x5e6;" horiz-adv-x="968" 
d="M273 814c-49.333 0 -86.167 14.502 -110.5 43.502s-36.5 66.833 -36.5 113.5c0 62 14.667 116.667 44 164h27c10.667 -48 38 -73.667 82 -77l35 -2c47.333 -3.33301 79.333 -14.333 96 -33s25 -53 25 -103c0 -16 -2.66699 -48 -8 -96s-8 -80 -8 -96
c0 -53.333 18.667 -95.666 56 -126.999l95 -79c43.333 116.667 92 211.334 146 284.001c-73.333 16.667 -110 71.667 -110 165c0 55.333 14 110 42 164h28c6 -46.667 35.333 -72.334 88 -77.001l55 -4c32.667 -2.66699 58 -17.834 76 -45.501s27 -61.834 27 -102.501
c0 -62 -19 -117 -57 -165h-17c-2.66699 12 -4.5 20 -5.5 24s-3.33301 9.5 -7 16.5s-8.5 11.667 -14.5 14s-13.667 3.5 -23 3.5c-6.66699 0 -11.667 -0.333008 -15 -1c-32.667 -30.667 -60 -71 -82 -121s-33.333 -97.333 -34 -142c0 -61.333 29 -116 87 -164l133 -110
l-57 -261h-625l42 240h452l-281 228c-41.333 33.333 -62 70.666 -62 111.999v3l5 144v7c0 29.333 -6.66699 50 -20 62s-36 18 -68 18z" />
    <glyph glyph-name="kof" unicode="&#x5e7;" horiz-adv-x="997" 
d="M692 1056c90 0 153.167 -21.832 189.5 -65.499s54.5 -113.834 54.5 -210.501v-97c0 -74 -7.83301 -130.333 -23.5 -169s-43.167 -71.334 -82.5 -98.001l-220 -146c-52 -34 -78 -84.667 -78 -152c0 -3.33301 0.5 -13.333 1.5 -30s1.5 -30.334 1.5 -41.001
c0 -46 -23 -69 -69 -69c-22 0 -43.667 9 -65 27s-32 39.333 -32 64c0 51.333 18 97.833 54 139.5s87.667 84.834 155 129.501l191 128c52 34.667 78 87 78 157v72c0 48 -11.167 79.833 -33.5 95.5s-66.5 23.5 -132.5 23.5h-372c-46.667 0 -82.167 13.667 -106.5 41
s-36.5 63 -36.5 107c0 62.667 20.333 117.334 61 164.001h26c10 -46.667 43.333 -70 100 -70h339zM225 -344.999l-21 6v860c0 58 24 108 72 150l36 6v-944c0 -17.333 -29 -43.333 -87 -78z" />
    <glyph glyph-name="resh" unicode="&#x5e8;" horiz-adv-x="883" 
d="M757 -19l-20.999 6.99902v486c0 109.333 -5.66699 183.333 -17 222s-37 69 -77 91c-32 18 -74 27 -126 27h-275c-46 0 -81.333 13.667 -106 41s-37 63 -37 107c0 62.667 20.333 117.334 61 164.001h26c11.333 -46.667 44.666 -70 99.999 -70h175
c154 0 253.333 -22.333 298 -67c46 -44 69 -141 69 -291v-618c0 -41.333 -23.333 -74.333 -70 -99z" />
    <glyph glyph-name="shin" unicode="&#x5e9;" horiz-adv-x="1292" 
d="M897 0l-559.003 -0.00195312c-14 73.333 -31 149.166 -51 227.499s-35 141.666 -45 189.999s-15 96.166 -15 143.499c0 92.667 11.667 173.667 35 243c-39.333 12 -69 33 -89 63s-30 63 -30 99c0 62 16.667 118.333 50 169h27c6 -22.667 16.167 -39.667 30.5 -51
s43.833 -21.333 88.5 -30c29.333 -5.33301 52.833 -22.166 70.5 -50.499s26.5 -61.5 26.5 -99.5c0 -55.333 -18 -105.333 -54 -150h-17c-4 18.667 -9.66699 30.667 -17 36s-20.333 8 -39 8c-11.333 -52 -17 -120 -17 -204c0 -54 8 -107.333 24 -160
s43.667 -117.334 83 -194.001l50 1c46.667 86 87.334 172.833 122.001 260.5s68.667 192.834 102 315.501c-39.333 14.667 -68.833 36.667 -88.5 66s-29.5 61.666 -29.5 96.999c0 57.333 17 109 51 155h27c8 -37.333 26.667 -59.666 56 -66.999l63 -14
c38.667 -11.333 65 -27.333 79 -48s21 -47.334 21 -80.001v-6c0 -50.667 -22 -104 -66 -160h-17c-1.33301 5.33301 -2.5 12 -3.5 20s-1.83301 13.333 -2.5 16s-2.16699 5.83398 -4.5 9.50098s-6.16602 6 -11.499 7s-12.333 1.5 -21 1.5
c-24.667 -112.667 -52.334 -212.667 -83.001 -300s-70 -178.666 -118 -273.999h318c14.667 47.333 40 100.5 76 159.5s92 141.833 168 248.5l10.5 15c4.33301 6 7.33301 10 9 12s3.83398 5.16699 6.50098 9.5l5.5 9c1 1.66699 2.33301 4.16699 4 7.5s2.66699 5.83301 3 7.5
l1.5 7.5c0.666992 3.33301 1 6.33301 1 9v10c0 18.667 -5.66699 34.167 -17 46.5s-25 22 -41 29s-32.167 14.667 -48.5 23s-30.166 21 -41.499 38s-17 38.5 -17 64.5c0 31.333 6.5 66 19.5 104s29.167 69.667 48.5 95h26c4.66699 -31.333 21.667 -52.666 51 -63.999l56 -19
c63.333 -22 95 -67.667 95 -137c0 -34 -9.16699 -71.5 -27.5 -112.5s-42.333 -85.833 -72 -134.5s-60.5 -102.167 -92.5 -160.5s-63.833 -132.166 -95.5 -221.499s-56.5 -184.666 -74.5 -285.999z" />
    <glyph glyph-name="tav" unicode="&#x5ea;" horiz-adv-x="1026" 
d="M896 -17l-21.001 7.00293v484c0 74.667 -2.83301 131.167 -8.5 169.5s-13.167 65.166 -22.5 80.499s-25.333 32.666 -48 51.999c-32.667 25.333 -80 38 -142 38h-224l-29 -68c-41.333 -98.667 -62 -174.334 -62 -227.001c0 -57.333 4.33301 -113.666 13 -168.999
c23.333 -114 35 -189 35 -225v-7l-6 -118h-291l42 240h126l-6 160v28c0 121.333 24.667 224.666 74 309.999l45 76h-39c-48.667 0 -84.167 13.333 -106.5 40s-33.5 62.667 -33.5 108c0 63.333 20 118 60 164h29c12 -46.667 45.333 -70 100 -70h223
c154.667 0 254.334 -22 299.001 -66c44.667 -44.667 67 -142 67 -292v-591c0 -58 -24.667 -99.333 -74 -124z" />
    <glyph glyph-name="vavvav" unicode="&#x5f0;" horiz-adv-x="1058" 
d="M266 1056c50.667 0 89 -17.835 115 -53.502s39 -95.167 39 -178.5v-717c0 -59.333 -22.667 -100.666 -68 -123.999l-22 7v673c0 46.667 -7.33301 82.334 -22 107.001c-8 12.667 -16 21.667 -24 27s-23.333 11 -46 17c-54.667 14 -93.5 29.167 -116.5 45.5
s-38.167 44.5 -45.5 84.5c-1.33301 6 -2 14.667 -2 26c0 24 5.66699 49.667 17 77s25.333 49 42 65c4 -1.33301 13 -1.33301 27 0c4.66699 -37.333 40 -56 106 -56zM784 1056c50.667 0 89 -17.835 115 -53.502s39 -95.167 39 -178.5v-717
c0 -59.333 -22.667 -100.666 -68 -123.999l-22 7v673c0 46.667 -7.33301 82.334 -22 107.001c-8 12.667 -16 21.667 -24 27s-23.333 11 -46 17c-54.667 14 -93.5 29.167 -116.5 45.5s-38.167 44.5 -45.5 84.5c-1.33301 6 -2 14.667 -2 26c0 24 5.66699 49.667 17 77
s25.333 49 42 65c4 -1.33301 13 -1.33301 27 0c4.66699 -37.333 40 -56 106 -56z" />
    <glyph glyph-name="vavyod" unicode="&#x5f1;" horiz-adv-x="1052" 
d="M778 1056c50.667 0 89 -17.835 115 -53.502s39 -95.167 39 -178.5v-717c0 -59.333 -22.667 -100.666 -68 -123.999l-22 7v673c0 46.667 -7.33301 82.334 -22 107.001c-8 12.667 -16 21.667 -24 27s-23.333 11 -46 17c-54.667 14 -93.5 29.167 -116.5 45.5
s-38.167 44.5 -45.5 84.5c-1.33301 6 -2 14.667 -2 26c0 24 5.66699 49.667 17 77s25.333 49 42 65c4 -1.33301 13 -1.33301 27 0c4.66699 -37.333 40 -56 106 -56zM247 479.998l-28.001 31.998c35.333 26.667 59.666 53.834 72.999 81.501s20 64.834 20 111.501v36
c0 25.333 -5.16699 43.5 -15.5 54.5s-34.166 17.167 -71.499 18.5c-53.333 2 -93.166 18 -119.499 48s-39.5 68.667 -39.5 116c0 48 15.667 100.333 47 157h27c6 -44.667 36.333 -69.667 91 -75l35 -4c89.333 -7.33301 134 -69 134 -185v-76
c0 -156.667 -51 -261.667 -153 -315z" />
    <glyph glyph-name="yodyod" unicode="&#x5f2;" horiz-adv-x="1024" 
d="M247 480l-28.001 31.998c35.333 26.667 59.666 53.834 72.999 81.501s20 64.834 20 111.501v36c0 25.333 -5.16699 43.5 -15.5 54.5s-34.166 17.167 -71.499 18.5c-53.333 2 -93.166 18 -119.499 48s-39.5 68.667 -39.5 116c0 48 15.667 100.333 47 157h27
c6 -44.667 36.333 -69.667 91 -75l35 -4c89.333 -7.33301 134 -69 134 -185v-76c0 -156.667 -51 -261.667 -153 -315zM758.999 479.998l-28.001 31.998c35.333 26.667 59.666 53.834 72.999 81.501s20 64.834 20 111.501v36c0 25.333 -5.16699 43.5 -15.5 54.5
s-34.166 17.167 -71.499 18.5c-53.333 2 -93.166 18 -119.499 48s-39.5 68.667 -39.5 116c0 48 15.667 100.333 47 157h27c6 -44.667 36.333 -69.667 91 -75l35 -4c89.333 -7.33301 134 -69 134 -185v-76c0 -156.667 -51 -261.667 -153 -315z" />
    <glyph glyph-name="geresh" unicode="&#x5f3;" horiz-adv-x="428" 
d="M241 802l-93 -178.999h-41l8 284c3.33301 126 49.333 189 138 189c52 0 78 -27.333 78 -82c0 -26.667 -30 -97.334 -90 -212.001z" />
    <glyph glyph-name="gershayim" unicode="&#x5f4;" horiz-adv-x="761" 
d="M574 801.469l-93 -180.891h-41l8 286.999c3.33301 127.33 49.333 190.995 138 190.995c52 0 78 -27.6221 78 -82.8652c0 -26.9482 -30 -98.3613 -90 -214.238zM241 802l-93 -178.999h-41l8 284c3.33301 126 49.333 189 138 189c52 0 78 -27.333 78 -82
c0 -26.667 -30 -97.334 -90 -212.001z" />
    <glyph glyph-name="thinspace" unicode="&#x2009;" horiz-adv-x="100" 
 />
    <glyph glyph-name="hairspace" unicode="&#x200a;" horiz-adv-x="40" 
 />
    <glyph glyph-name="zerononjoin" unicode="&#x200c;" 
d="M-108 1894l108 -108l106 107l34 -33l-107 -107l107 -107l-34 -33l-106 106l-108 -106l-33 33l107 107l-107 107z" />
    <glyph glyph-name="zerojoin" unicode="&#x200d;" 
d="M157 1637v93h-313v-93h-47v140h407v-140h-47z" />
    <glyph glyph-name="lrm" unicode="&#x200e;" 
d="M21 1860l33 34l141 -141l-141 -141l-33 34l84 84h-259v47h258z" />
    <glyph glyph-name="rlm" unicode="&#x200f;" 
d="M-20 1647l-33 -34l-141 141l141 141l33 -34l-84 -84h259v-47h-258z" />
    <glyph glyph-name="quoteleft" unicode="&#x2018;" horiz-adv-x="385" 
d="M292 958c0 -29.333 -9.83301 -53.999 -29.5 -73.999s-43.167 -30 -70.5 -30c-37.333 0 -66 12.333 -86 37s-30 57.667 -30 99c0 66 17.333 125.5 52 178.5s89.334 109.5 164.001 169.5l24 -26c-41.333 -37.333 -69.333 -64 -84 -80
c-24.667 -28.667 -41.334 -55.334 -50.001 -80.001c-4 -14.667 -6 -29 -6 -43c0 -35.333 14 -53 42 -53c17.333 0 34 -9.16699 50 -27.5s24 -41.833 24 -70.5z" />
    <glyph glyph-name="quoteright" unicode="&#x2019;" horiz-adv-x="384" 
d="M100 1232c0 29.333 10.001 54.332 30.001 74.999s43.333 31 70 31c37.333 0 66 -12.333 86 -37s30 -57.667 30 -99c0 -66 -17.333 -125.5 -52 -178.5s-89.334 -109.5 -164.001 -169.5l-24 26c30.667 28.667 58.667 56 84 82c25.333 29.333 42 55.333 50 78
c4 14.667 6 29 6 43c0 35.333 -14 53 -42 53c-17.333 0 -34 8.83301 -50 26.5s-24 40.834 -24 69.501z" />
    <glyph glyph-name="quotesinglbase" unicode="&#x201a;" horiz-adv-x="384" 
d="M93 100c0 29.333 9.83496 54.001 29.502 74.001s43.167 30 70.5 30c37.333 0 66 -12.333 86 -37s30 -57.667 30 -99c0 -66 -17.333 -125.5 -52 -178.5s-89.334 -109.5 -164.001 -169.5l-24 26c31.333 28.667 59.333 56 84 82c25.333 29.333 42 55.333 50 78
c4 15.333 6 29.666 6 42.999c0 34 -14.667 51 -44 51c-16.667 0 -32.834 9.5 -48.501 28.5s-23.5 42.833 -23.5 71.5z" />
    <glyph glyph-name="quotedblleft" unicode="&#x201c;" horiz-adv-x="727" 
d="M284 958c0 -29.333 -9.83301 -53.999 -29.5 -73.999s-43.167 -30 -70.5 -30c-37.333 0 -66 12.333 -86 37s-30 57.667 -30 99c0 66 17.333 125.5 52 178.5s89.334 109.5 164.001 169.5l24 -26c-41.333 -37.333 -69.333 -64 -84 -80
c-24.667 -28.667 -41.334 -55.334 -50.001 -80.001c-4 -14.667 -6 -29 -6 -43c0 -35.333 14 -53 42 -53c17.333 0 34 -9.16699 50 -27.5s24 -41.833 24 -70.5zM606 958.001c0 -29.333 -9.83301 -53.999 -29.5 -73.999s-43.167 -30 -70.5 -30c-37.333 0 -66 12.333 -86 37
s-30 57.667 -30 99c0 66 17.333 125.5 52 178.5s89.334 109.5 164.001 169.5l24 -26c-41.333 -37.333 -69.333 -64 -84 -80c-24.667 -28.667 -41.334 -55.334 -50.001 -80.001c-4 -14.667 -6 -29 -6 -43c0 -35.333 14 -53 42 -53c17.333 0 34 -9.16699 50 -27.5
s24 -41.833 24 -70.5z" />
    <glyph glyph-name="quotedblright" unicode="&#x201d;" horiz-adv-x="727" 
d="M100 1232c0 29.333 10.001 54.332 30.001 74.999s43.333 31 70 31c37.333 0 66 -12.333 86 -37s30 -57.667 30 -99c0 -66 -17.333 -125.5 -52 -178.5s-89.334 -109.5 -164.001 -169.5l-24 26c30.667 28.667 58.667 56 84 82c25.333 29.333 42 55.333 50 78
c4 14.667 6 29 6 43c0 35.333 -14 53 -42 53c-17.333 0 -34 8.83301 -50 26.5s-24 40.834 -24 69.501zM423.001 1232c0 29.333 10.001 54.332 30.001 74.999s43.333 31 70 31c37.333 0 66 -12.333 86 -37s30 -57.667 30 -99c0 -66 -17.333 -125.5 -52 -178.5
s-89.334 -109.5 -164.001 -169.5l-24 26c30.667 28.667 58.667 56 84 82c25.333 29.333 42 55.333 50 78c4 14.667 6 29 6 43c0 35.333 -14 53 -42 53c-17.333 0 -34 8.83301 -50 26.5s-24 40.834 -24 69.501z" />
    <glyph glyph-name="quotedblbase" unicode="&#x201e;" horiz-adv-x="727" 
d="M93 100c0 29.333 9.83496 54.001 29.502 74.001s43.167 30 70.5 30c37.333 0 66 -12.333 86 -37s30 -57.667 30 -99c0 -66 -17.333 -125.5 -52 -178.5s-89.334 -109.5 -164.001 -169.5l-24 26c31.333 28.667 59.333 56 84 82c25.333 29.333 42 55.333 50 78
c4 15.333 6 29.666 6 42.999c0 34 -14.667 51 -44 51c-16.667 0 -32.834 9.5 -48.501 28.5s-23.5 42.833 -23.5 71.5zM416.002 100.001c0 29.333 9.83496 54.001 29.502 74.001s43.167 30 70.5 30c37.333 0 66 -12.333 86 -37s30 -57.667 30 -99
c0 -66 -17.333 -125.5 -52 -178.5s-89.334 -109.5 -164.001 -169.5l-24 26c31.333 28.667 59.333 56 84 82c25.333 29.333 42 55.333 50 78c4 15.333 6 29.666 6 42.999c0 34 -14.667 51 -44 51c-16.667 0 -32.834 9.5 -48.501 28.5s-23.5 42.833 -23.5 71.5z" />
    <glyph glyph-name="newshekel" unicode="&#x20aa;" horiz-adv-x="1024" 
d="M711 204h-151.998l9 612v6c0 68 -16 114 -48 138c-36.667 28 -87.334 42 -152.001 42h-152l-3 -1002h-152l3 1056h320c117.333 0 202.666 -20 255.999 -60s80 -98.667 80 -176v-4zM319.002 837h151.999v-597c0 -72 16 -120 48 -144c36.667 -28 87.334 -42 152.001 -42
h152v1002h152v-1056h-320c-118 0 -203.333 20 -256 60c-53.333 40 -80 100 -80 180v597z" />
    <glyph glyph-name="Euro" unicode="&#x20ac;" horiz-adv-x="1024" 
d="M168 644c12.667 85.333 36.5 161.499 71.5 228.499s83.667 121.5 146 163.5s133.5 63 213.5 63c92 0 182.667 -23.333 272 -70v-239h-31c-14 169.333 -94.667 254 -242 254c-34.667 0 -66.334 -7.66699 -95.001 -23s-52.834 -35.5 -72.501 -60.5s-37 -55 -52 -90
s-26.667 -71 -35 -108s-14.833 -76.5 -19.5 -118.5h473l-18 -62h-459c-2 -22.667 -3 -45 -3 -67h442l-19 -62h-421c4.66699 -122 30 -221.333 76 -298s107 -115 183 -115c36.667 0 69.334 4.16699 98.001 12.5s54.667 22 78 41s42.333 37.167 57 54.5
s33.334 41.333 56.001 72l25 -16c-22.667 -36 -43.5 -65.667 -62.5 -89s-42.333 -47 -70 -71s-59.334 -41.833 -95.001 -53.5s-75.167 -17.5 -118.5 -17.5c-60 0 -113.667 12.333 -161 37s-86 59.167 -116 103.5s-53.667 94.833 -71 151.5s-28.666 119.334 -33.999 188.001
h-81l18 62h59v13v15.5v20v18.5h-77l18 62h67z" />
    <glyph glyph-name="dottedcircle" unicode="&#x25cc;" horiz-adv-x="1150" 
d="M164 527c0 48 20 72 60 72c40.667 0 61 -24 61 -72c0 -47.333 -20.333 -71 -61 -71c-40 0 -60 23.667 -60 71zM960 527c0 48 20 72 60 72c40.667 0 61 -24 61 -72c0 -47.333 -20.333 -71 -61 -71c-40 0 -60 23.667 -60 71zM562 995c0 48 20 72 60 72
c40.667 0 61 -24 61 -72c0 -47.333 -20.333 -71 -61 -71c-40 0 -60 23.667 -60 71zM562 59c0 48 20 72 60 72c40.667 0 61 -24 61 -72c0 -47.333 -20.333 -71 -61 -71c-40 0 -60 23.667 -60 71zM909 761c0 48 20 72 60 72c40.667 0 61 -24 61 -72
c0 -47.333 -20.333 -71 -61 -71c-40 0 -60 23.667 -60 71zM909 293c0 48 20 72 60 72c40.667 0 61 -24 61 -72c0 -47.333 -20.333 -71 -61 -71c-40 0 -60 23.667 -60 71zM215 761c0 48 20 72 60 72c40.667 0 61 -24 61 -72c0 -47.333 -20.333 -71 -61 -71
c-40 0 -60 23.667 -60 71zM215 293c0 48 20 72 60 72c40.667 0 61 -24 61 -72c0 -47.333 -20.333 -71 -61 -71c-40 0 -60 23.667 -60 71zM363 935c0 48 20 72 60 72c40.667 0 61 -24 61 -72c0 -47.333 -20.333 -71 -61 -71c-40 0 -60 23.667 -60 71zM761 935
c0 48 20 72 60 72c40.667 0 61 -24 61 -72c0 -47.333 -20.333 -71 -61 -71c-40 0 -60 23.667 -60 71zM363 119c0 48 20 72 60 72c40.667 0 61 -24 61 -72c0 -47.333 -20.333 -71 -61 -71c-40 0 -60 23.667 -60 71zM761 119c0 48 20 72 60 72c40.667 0 61 -24 61 -72
c0 -47.333 -20.333 -71 -61 -71c-40 0 -60 23.667 -60 71z" />
    <glyph glyph-name="yodhiriq" unicode="&#xfb1d;" horiz-adv-x="454" 
d="M247 480l-28.001 31.998c35.333 26.667 59.666 53.834 72.999 81.501s20 64.834 20 111.501v36c0 25.333 -5.16699 43.5 -15.5 54.5s-34.166 17.167 -71.499 18.5c-53.333 2 -93.166 18 -119.499 48s-39.5 68.667 -39.5 116c0 48 15.667 100.333 47 157h27
c6 -44.667 36.333 -69.667 91 -75l35 -4c89.333 -7.33301 134 -69 134 -185v-76c0 -156.667 -51 -261.667 -153 -315zM274.999 -339.002c-20.667 0 -37.5 7.83301 -50.5 23.5s-19.5 35.167 -19.5 58.5c0 24 6.66699 43.667 20 59s30 23 50 23
c20.667 0 37.5 -7.83301 50.5 -23.5s19.5 -35.167 19.5 -58.5c0 -24 -6.66699 -43.667 -20 -59s-30 -23 -50 -23z" />
    <glyph glyph-name="jsvarika" unicode="&#xfb1e;" 
d="M0 1188c-12 7.33301 -38.168 32.5 -78.501 75.5s-76.166 75.5 -107.499 97.5v16c0 0.666992 2.66699 5 8 13c4 -1.33301 63.333 -37 178 -107c68 41.333 128.333 71.666 181 90.999c3.33301 -3.33301 5 -7.66602 5 -12.999v-16c-27.333 -14 -62.833 -42.5 -106.5 -85.5
s-70.167 -66.833 -79.5 -71.5z" />
    <glyph glyph-name="yodyodpatah" unicode="&#xfb1f;" horiz-adv-x="919" 
d="M656 480l-28.001 31.998c35.333 26.667 59.666 53.834 72.999 81.501s20 64.834 20 111.501v36c0 25.333 -5.16699 43.5 -15.5 54.5s-34.166 17.167 -71.499 18.5c-53.333 2 -93.166 18 -119.499 48s-39.5 68.667 -39.5 116c0 48 15.667 100.333 47 157h27
c6 -44.667 36.333 -69.667 91 -75l35 -4c89.333 -7.33301 134 -69 134 -185v-76c0 -156.667 -51 -261.667 -153 -315zM246.999 479.998l-28.001 31.998c35.333 26.667 59.666 53.834 72.999 81.501s20 64.834 20 111.501v36c0 25.333 -5.16699 43.5 -15.5 54.5
s-34.166 17.167 -71.499 18.5c-53.333 2 -93.166 18 -119.499 48s-39.5 68.667 -39.5 116c0 48 15.667 100.333 47 157h27c6 -44.667 36.333 -69.667 91 -75l35 -4c89.333 -7.33301 134 -69 134 -185v-76c0 -156.667 -51 -261.667 -153 -315zM851.998 286.996h-776v94h776
v-94z" />
    <glyph glyph-name="ayin.alt" unicode="&#xfb20;" horiz-adv-x="920" 
d="M693 282c0 -161.333 -92.668 -252.999 -278.001 -274.999l-345 -40l44 235l254 28c0 109.333 -25.333 184.666 -76 225.999c-34.667 28.667 -56.334 54.5 -65.001 77.5s-13 60.167 -13 111.5c0 39.333 6.33301 95.666 19 168.999
c-50.667 9.33301 -89.167 27.5 -115.5 54.5s-39.5 59.833 -39.5 98.5c0 56.667 13.333 111.334 40 164.001h27c12 -48 40.667 -74.333 86 -79h47c32 0 58.833 -14 80.5 -42s32.5 -62 32.5 -102c0 -50 -17.333 -97 -52 -141h-17c-4 19.333 -9.16699 32 -15.5 38
s-17.166 9 -32.499 9c0 -74 3 -121 9 -141s23 -39.333 51 -58c26.667 -17.333 45.334 -31.5 56.001 -42.5s19 -26.667 25 -47s9 -49.5 9 -87.5v-198l62 8c6 0.666992 14 1.66699 24 3s16.833 2.33301 20.5 3s9 1.83398 16 3.50098s11.5 3.5 13.5 5.5l10 10
c4.66699 4.66699 8 9.66699 10 15l8 21.5c3.33301 9 6.33301 19 9 30s5.66699 24.167 9 39.5c14 60.667 39 132.5 75 215.5s54 133.5 54 151.5c0 38.667 -17 61.334 -51 68.001c-46 10.667 -79.833 30.5 -101.5 59.5s-32.5 62.833 -32.5 101.5
c0 49.333 16.333 101.333 49 156h27c6 -27.333 17.333 -46.666 34 -57.999c12.667 -8 32 -14.833 58 -20.5s49.167 -10.334 69.5 -14.001s38.5 -14 54.5 -31s24 -40.5 24 -70.5c0 -26 -6 -55.333 -18 -88s-26.333 -67 -43 -103s-33.5 -75.333 -50.5 -118
s-31.5 -94.334 -43.5 -155.001s-18 -124.334 -18 -191.001z" />
    <glyph glyph-name="alef.wide" unicode="&#xfb21;" horiz-adv-x="682" 
d="M297 96c0 18.667 -15.5 63.4971 -46.5 134.497s-46.5 122.167 -46.5 153.5c0 96 77.667 192 233 288l-140 118c-52.667 60 -79 121 -79 183c0 56.667 23.667 110.667 71 162h26c4 -58.667 21.333 -105.334 52 -140.001c194.667 -248 499 -454.333 913 -619
c-26.667 64 -40 126 -40 186c0 50.667 8.33301 95.834 25 135.501s44.334 80.167 83.001 121.5c-50.667 8 -88.5 28 -113.5 60s-37.5 71.333 -37.5 118c0 50.667 14.333 96.667 43 138h24c11.333 -41.333 37.333 -67 78 -77l86 -20c76 -18 114 -60.333 114 -127
c0 -23.333 -6 -53 -18 -89c-20.667 -6.66699 -57.334 -10 -110.001 -10c-64 -99.333 -96 -182.666 -96 -249.999c0 -50.667 18 -96.667 54 -138l93 -107c52.667 -58.667 79 -120 79 -184c0 -58 -23.667 -108.333 -71 -151h-27c-4 51.333 -21.333 94.333 -52 129
c-309.333 142 -615.333 315 -918 519c-86.667 -51.333 -130 -106.333 -130 -165c0 -27.333 8 -58.166 24 -92.499s33.667 -65 53 -92s37 -57.667 53 -92s24 -65.166 24 -92.499c0 -64 -24.667 -96 -74 -96h-189v27c40 11.333 60 34.333 60 69z" />
    <glyph glyph-name="dalet.wide" unicode="&#xfb22;" horiz-adv-x="1538" 
d="M1330 596c0 -38 3.66797 -108.333 11.001 -211s11 -172.667 11 -210c0 -117.333 -48.333 -184 -145 -200l-17 25c17.333 25.333 26 59 26 101c0 46 -1.5 103.833 -4.5 173.5s-4.5 119.167 -4.5 148.5c0 97.333 10.5 176 31.5 236s59.5 112 115.5 156h-1077
c-48 0 -81.333 12.833 -100 38.5s-28 61.834 -28 108.501c0 66 20.333 120.667 61 164h26c10.667 -46.667 44 -70 100 -70h1024c46.667 0 78.834 -8.66699 96.501 -26s26.5 -48.333 26.5 -93c0 -30 -3.33301 -53.667 -10 -71s-14.834 -29.5 -24.501 -36.5
s-22.834 -18.667 -39.501 -35s-31.667 -35.833 -45 -58.5c-22.667 -38.667 -34 -85.334 -34 -140.001z" />
    <glyph glyph-name="he.wide" unicode="&#xfb23;" horiz-adv-x="1681" 
d="M1531 604c0 -41.333 7.66699 -112.006 23 -212.006s23 -173.333 23 -220c0 -118.667 -47.333 -185.334 -142 -200.001l-16 21c17.333 29.333 26 64.333 26 105c0 28.667 -2.66699 87.834 -8 177.501s-8 148.834 -8 177.501c0 85.333 7 155.833 21 211.5
s39.333 105.834 76 150.501l-1133 3c-88.667 0 -133 48 -133 144c0 64.667 20.667 119.334 62 164.001h26c10.667 -46.667 42 -70 94 -70l1033 -3c52 0 86.667 -9.16699 104 -27.5s26 -48.833 26 -91.5v-49c0 -17.333 -3.83301 -34.166 -11.5 -50.499
s-16.167 -31.166 -25.5 -44.499s-17.833 -36.166 -25.5 -68.499s-11.5 -71.5 -11.5 -117.5zM402 293.994c0 -13.333 1.33398 -45.833 4.00098 -97.5s4 -84.167 4 -97.5c0 -81.333 -50 -125 -150 -131l-14 22c17.333 18.667 26 43 26 73c0 28 -1 64 -3 108s-3 70.667 -3 80
c0 71.333 13.5 128.333 40.5 171s64.833 64 113.5 64c13.333 0 24.666 -2.66699 33.999 -8v-27c-15.333 -10 -27.833 -30 -37.5 -60s-14.5 -62.333 -14.5 -97z" />
    <glyph glyph-name="kaf.wide" unicode="&#xfb24;" horiz-adv-x="1488" 
d="M1335 503l-0.000976562 8c0 52.667 -2.83301 96.5 -8.5 131.5s-16.334 66 -32.001 93s-37.667 46.833 -66 59.5s-64.5 19 -108.5 19h-775c-45.333 0 -80.5 13.833 -105.5 41.5s-37.5 63.167 -37.5 106.5c0 61.333 20.333 116 61 164h26c10.667 -46.667 44 -70 100 -70
h706c211.333 0 317 -173 317 -519c0 -82.667 -4 -153.167 -12 -211.5s-19.833 -105 -35.5 -140s-32.167 -62.167 -49.5 -81.5s-38.666 -36 -63.999 -50c-63.333 -36 -147 -54 -251 -54h-829l84 240h858c80.667 0 137.834 19.333 171.501 58s50.5 107 50.5 205z" />
    <glyph glyph-name="lamed.wide" unicode="&#xfb25;" horiz-adv-x="1449" 
d="M275 1137c0 -32 9.16797 -53.498 27.501 -64.498s48.5 -16.5 90.5 -16.5h826c61.333 0 109 -15 143 -45c32.667 -30.667 49 -104 49 -220v-108c0 -87.333 -19.333 -152.333 -58 -195l-190 -213c-46 -51.333 -69 -101.666 -69 -150.999c0 -10 1.16699 -22.833 3.5 -38.5
s3.5 -26.834 3.5 -33.501c0 -49.333 -22.333 -74 -67 -74s-67 27.667 -67 83c0 78.667 49.333 168.334 148 269.001l146 151c41.333 43.333 62 98.666 62 165.999v60c0 48 -11.333 77.833 -34 89.5s-73 17.5 -151 17.5h-790c-50.667 0 -89.334 14.833 -116.001 44.5
s-40 68.5 -40 116.5c0 60.667 12.333 128 37 202l29 85c4.66699 14 7 25.333 7 34c0 19.333 -12 35 -36 47l-56 27c-28.667 14 -43 33.667 -43 59c0 16 4.83301 39 14.5 69s20.167 53.333 31.5 70h25c2.66699 -20.667 16.667 -36 42 -46l38 -15
c42 -16.667 63 -42.334 63 -77.001c0 -6.66699 -13.667 -61.334 -41 -164.001l-14 -51c-9.33301 -36 -14 -62 -14 -78z" />
    <glyph glyph-name="finalmem.wide" unicode="&#xfb26;" horiz-adv-x="1616" 
d="M222 0l-0.000976562 539c0 54 20.333 103.667 61 149l128 148h-64c-96.667 0 -145 42.667 -145 128c0 63.333 20.333 117.333 61 162h26c10.667 -46.667 42.334 -70 95.001 -70h779c154 0 253.333 -22.333 298 -67c46 -44.667 69 -141.667 69 -291v-698h-1308z
M461.999 814l-106 -156c-29.333 -43.333 -44 -95 -44 -155l2 -263h1131v234c-0.666992 137.333 -14 232.333 -40 285c-11.333 23.333 -31.833 38.333 -61.5 45s-71.167 10 -124.5 10h-757z" />
    <glyph glyph-name="resh.wide" unicode="&#xfb27;" horiz-adv-x="1484" 
d="M1355 -19l-21 7.00098v486c0 109.333 -5.5 183.666 -16.5 222.999s-36.5 69.666 -76.5 90.999c-34 18 -76.333 27 -127 27h-827c-46 0 -81.333 13.5 -106 40.5s-37 62.5 -37 106.5c0 62.667 20.333 117.334 61 164.001h26c10.667 -46.667 44 -70 100 -70h727
c154 0 253.333 -22.333 298 -67c46 -44.667 69 -141.667 69 -291v-618c0 -41.333 -23.333 -74.333 -70 -99z" />
    <glyph glyph-name="tav.wide" unicode="&#xfb28;" horiz-adv-x="1729" 
d="M1596 -16l-20.9971 6.99609v484c0 76.667 -2.16699 133.334 -6.5 170.001s-11 63.167 -20 79.5s-24.5 33.833 -46.5 52.5c-30.667 24.667 -77.667 37 -141 37h-809l-36 -68c-41.333 -79.333 -62 -155 -62 -227c0 -1.33301 -0.166992 -4.16602 -0.5 -8.49902
s-0.5 -7.83301 -0.5 -10.5c0 -38.667 4.66699 -88.667 14 -150c23.333 -118.667 35 -193.667 35 -225v-7l-6 -118h-291l53 240h118l-10 160c-0.666992 0 -0.666992 5.33301 0 16v17c0 125.333 25 227 75 305l49 76c-19.333 1.33301 -32.333 1.33301 -39 0
c-48.667 0 -84.834 13.5 -108.501 40.5s-35.5 62.833 -35.5 107.5c0 64 20.667 118.667 62 164h27c11.333 -46.667 44.666 -70 99.999 -70l808 1c153.333 0 252.666 -22 297.999 -66c45.333 -45.333 68 -142.666 68 -291.999v-591c0 -57.333 -24.667 -98.666 -74 -123.999z
" />
    <glyph glyph-name="hebrewplussign" unicode="&#xfb29;" horiz-adv-x="1063" 
d="M975 429h-804v87h365v430h75v-430h364v-87z" />
    <glyph glyph-name="shinshindot" unicode="&#xfb2a;" horiz-adv-x="1292" 
d="M897 0l-559.003 -0.00195312c-14 73.333 -31 149.166 -51 227.499s-35 141.666 -45 189.999s-15 96.166 -15 143.499c0 92.667 11.667 173.667 35 243c-39.333 12 -69 33 -89 63s-30 63 -30 99c0 62 16.667 118.333 50 169h27c6 -22.667 16.167 -39.667 30.5 -51
s43.833 -21.333 88.5 -30c29.333 -5.33301 52.833 -22.166 70.5 -50.499s26.5 -61.5 26.5 -99.5c0 -55.333 -18 -105.333 -54 -150h-17c-4 18.667 -9.66699 30.667 -17 36s-20.333 8 -39 8c-11.333 -52 -17 -120 -17 -204c0 -54 8 -107.333 24 -160
s43.667 -117.334 83 -194.001l50 1c46.667 86 87.334 172.833 122.001 260.5s68.667 192.834 102 315.501c-39.333 14.667 -68.833 36.667 -88.5 66s-29.5 61.666 -29.5 96.999c0 57.333 17 109 51 155h27c8 -37.333 26.667 -59.666 56 -66.999l63 -14
c38.667 -11.333 65 -27.333 79 -48s21 -47.334 21 -80.001v-6c0 -50.667 -22 -104 -66 -160h-17c-1.33301 5.33301 -2.5 12 -3.5 20s-1.83301 13.333 -2.5 16s-2.16699 5.83398 -4.5 9.50098s-6.16602 6 -11.499 7s-12.333 1.5 -21 1.5
c-24.667 -112.667 -52.334 -212.667 -83.001 -300s-70 -178.666 -118 -273.999h318c14.667 47.333 40 100.5 76 159.5s92 141.833 168 248.5l10.5 15c4.33301 6 7.33301 10 9 12s3.83398 5.16699 6.50098 9.5l5.5 9c1 1.66699 2.33301 4.16699 4 7.5s2.66699 5.83301 3 7.5
l1.5 7.5c0.666992 3.33301 1 6.33301 1 9v10c0 18.667 -5.66699 34.167 -17 46.5s-25 22 -41 29s-32.167 14.667 -48.5 23s-30.166 21 -41.499 38s-17 38.5 -17 64.5c0 31.333 6.5 66 19.5 104s29.167 69.667 48.5 95h26c4.66699 -31.333 21.667 -52.666 51 -63.999l56 -19
c63.333 -22 95 -67.667 95 -137c0 -34 -9.16699 -71.5 -27.5 -112.5s-42.333 -85.833 -72 -134.5s-60.5 -102.167 -92.5 -160.5s-63.833 -132.166 -95.5 -221.499s-56.5 -184.666 -74.5 -285.999zM1185 1222c-20.667 0 -37.5 7.83301 -50.5 23.5s-19.5 35.167 -19.5 58.5
c0 24 6.66699 43.667 20 59s30 23 50 23c20.667 0 37.5 -7.83301 50.5 -23.5s19.5 -35.167 19.5 -58.5c0 -24 -6.66699 -43.667 -20 -59s-30 -23 -50 -23z" />
    <glyph glyph-name="shinsindot" unicode="&#xfb2b;" horiz-adv-x="1292" 
d="M897 0l-559.003 -0.00195312c-14 73.333 -31 149.166 -51 227.499s-35 141.666 -45 189.999s-15 96.166 -15 143.499c0 92.667 11.667 173.667 35 243c-39.333 12 -69 33 -89 63s-30 63 -30 99c0 62 16.667 118.333 50 169h27c6 -22.667 16.167 -39.667 30.5 -51
s43.833 -21.333 88.5 -30c29.333 -5.33301 52.833 -22.166 70.5 -50.499s26.5 -61.5 26.5 -99.5c0 -55.333 -18 -105.333 -54 -150h-17c-4 18.667 -9.66699 30.667 -17 36s-20.333 8 -39 8c-11.333 -52 -17 -120 -17 -204c0 -54 8 -107.333 24 -160
s43.667 -117.334 83 -194.001l50 1c46.667 86 87.334 172.833 122.001 260.5s68.667 192.834 102 315.501c-39.333 14.667 -68.833 36.667 -88.5 66s-29.5 61.666 -29.5 96.999c0 57.333 17 109 51 155h27c8 -37.333 26.667 -59.666 56 -66.999l63 -14
c38.667 -11.333 65 -27.333 79 -48s21 -47.334 21 -80.001v-6c0 -50.667 -22 -104 -66 -160h-17c-1.33301 5.33301 -2.5 12 -3.5 20s-1.83301 13.333 -2.5 16s-2.16699 5.83398 -4.5 9.50098s-6.16602 6 -11.499 7s-12.333 1.5 -21 1.5
c-24.667 -112.667 -52.334 -212.667 -83.001 -300s-70 -178.666 -118 -273.999h318c14.667 47.333 40 100.5 76 159.5s92 141.833 168 248.5l10.5 15c4.33301 6 7.33301 10 9 12s3.83398 5.16699 6.50098 9.5l5.5 9c1 1.66699 2.33301 4.16699 4 7.5s2.66699 5.83301 3 7.5
l1.5 7.5c0.666992 3.33301 1 6.33301 1 9v10c0 18.667 -5.66699 34.167 -17 46.5s-25 22 -41 29s-32.167 14.667 -48.5 23s-30.166 21 -41.499 38s-17 38.5 -17 64.5c0 31.333 6.5 66 19.5 104s29.167 69.667 48.5 95h26c4.66699 -31.333 21.667 -52.666 51 -63.999l56 -19
c63.333 -22 95 -67.667 95 -137c0 -34 -9.16699 -71.5 -27.5 -112.5s-42.333 -85.833 -72 -134.5s-60.5 -102.167 -92.5 -160.5s-63.833 -132.166 -95.5 -221.499s-56.5 -184.666 -74.5 -285.999zM317.997 1225c-20.667 0 -37.5 7.83301 -50.5 23.5s-19.5 35.167 -19.5 58.5
c0 24 6.66699 43.667 20 59s30 23 50 23c20.667 0 37.5 -7.83301 50.5 -23.5s19.5 -35.167 19.5 -58.5c0 -24 -6.66699 -43.667 -20 -59s-30 -23 -50 -23z" />
    <glyph glyph-name="shindageshshindot" unicode="&#xfb2c;" horiz-adv-x="1292" 
d="M1185 1222c-20.667 0 -37.5 7.83301 -50.5 23.5s-19.5 35.167 -19.5 58.5c0 24 6.66699 43.667 20 59s30 23 50 23c20.667 0 37.5 -7.83301 50.5 -23.5s19.5 -35.167 19.5 -58.5c0 -24 -6.66699 -43.667 -20 -59s-30 -23 -50 -23zM810 428
c-20.667 0 -37.5 7.83301 -50.5 23.5s-19.5 35.167 -19.5 58.5c0 24 6.66699 43.667 20 59s30 23 50 23c20.667 0 37.5 -7.83301 50.5 -23.5s19.5 -35.167 19.5 -58.5c0 -24 -6.66699 -43.667 -20 -59s-30 -23 -50 -23zM897 0l-559.003 -0.00195312
c-14 73.333 -31 149.166 -51 227.499s-35 141.666 -45 189.999s-15 96.166 -15 143.499c0 92.667 11.667 173.667 35 243c-39.333 12 -69 33 -89 63s-30 63 -30 99c0 62 16.667 118.333 50 169h27c6 -22.667 16.167 -39.667 30.5 -51s43.833 -21.333 88.5 -30
c29.333 -5.33301 52.833 -22.166 70.5 -50.499s26.5 -61.5 26.5 -99.5c0 -55.333 -18 -105.333 -54 -150h-17c-4 18.667 -9.66699 30.667 -17 36s-20.333 8 -39 8c-11.333 -52 -17 -120 -17 -204c0 -54 8 -107.333 24 -160s43.667 -117.334 83 -194.001l50 1
c46.667 86 87.334 172.833 122.001 260.5s68.667 192.834 102 315.501c-39.333 14.667 -68.833 36.667 -88.5 66s-29.5 61.666 -29.5 96.999c0 57.333 17 109 51 155h27c8 -37.333 26.667 -59.666 56 -66.999l63 -14c38.667 -11.333 65 -27.333 79 -48
s21 -47.334 21 -80.001v-6c0 -50.667 -22 -104 -66 -160h-17c-1.33301 5.33301 -2.5 12 -3.5 20s-1.83301 13.333 -2.5 16s-2.16699 5.83398 -4.5 9.50098s-6.16602 6 -11.499 7s-12.333 1.5 -21 1.5c-24.667 -112.667 -52.334 -212.667 -83.001 -300
s-70 -178.666 -118 -273.999h318c14.667 47.333 40 100.5 76 159.5s92 141.833 168 248.5l10.5 15c4.33301 6 7.33301 10 9 12s3.83398 5.16699 6.50098 9.5l5.5 9c1 1.66699 2.33301 4.16699 4 7.5s2.66699 5.83301 3 7.5l1.5 7.5c0.666992 3.33301 1 6.33301 1 9v10
c0 18.667 -5.66699 34.167 -17 46.5s-25 22 -41 29s-32.167 14.667 -48.5 23s-30.166 21 -41.499 38s-17 38.5 -17 64.5c0 31.333 6.5 66 19.5 104s29.167 69.667 48.5 95h26c4.66699 -31.333 21.667 -52.666 51 -63.999l56 -19c63.333 -22 95 -67.667 95 -137
c0 -34 -9.16699 -71.5 -27.5 -112.5s-42.333 -85.833 -72 -134.5s-60.5 -102.167 -92.5 -160.5s-63.833 -132.166 -95.5 -221.499s-56.5 -184.666 -74.5 -285.999z" />
    <glyph glyph-name="shindageshsindot" unicode="&#xfb2d;" horiz-adv-x="1292" 
d="M318 1225c-20.667 0 -37.5 7.83301 -50.5 23.5s-19.5 35.167 -19.5 58.5c0 24 6.66699 43.667 20 59s30 23 50 23c20.667 0 37.5 -7.83301 50.5 -23.5s19.5 -35.167 19.5 -58.5c0 -24 -6.66699 -43.667 -20 -59s-30 -23 -50 -23zM810 428
c-20.667 0 -37.5 7.83301 -50.5 23.5s-19.5 35.167 -19.5 58.5c0 24 6.66699 43.667 20 59s30 23 50 23c20.667 0 37.5 -7.83301 50.5 -23.5s19.5 -35.167 19.5 -58.5c0 -24 -6.66699 -43.667 -20 -59s-30 -23 -50 -23zM897 0l-559.003 -0.00195312
c-14 73.333 -31 149.166 -51 227.499s-35 141.666 -45 189.999s-15 96.166 -15 143.499c0 92.667 11.667 173.667 35 243c-39.333 12 -69 33 -89 63s-30 63 -30 99c0 62 16.667 118.333 50 169h27c6 -22.667 16.167 -39.667 30.5 -51s43.833 -21.333 88.5 -30
c29.333 -5.33301 52.833 -22.166 70.5 -50.499s26.5 -61.5 26.5 -99.5c0 -55.333 -18 -105.333 -54 -150h-17c-4 18.667 -9.66699 30.667 -17 36s-20.333 8 -39 8c-11.333 -52 -17 -120 -17 -204c0 -54 8 -107.333 24 -160s43.667 -117.334 83 -194.001l50 1
c46.667 86 87.334 172.833 122.001 260.5s68.667 192.834 102 315.501c-39.333 14.667 -68.833 36.667 -88.5 66s-29.5 61.666 -29.5 96.999c0 57.333 17 109 51 155h27c8 -37.333 26.667 -59.666 56 -66.999l63 -14c38.667 -11.333 65 -27.333 79 -48
s21 -47.334 21 -80.001v-6c0 -50.667 -22 -104 -66 -160h-17c-1.33301 5.33301 -2.5 12 -3.5 20s-1.83301 13.333 -2.5 16s-2.16699 5.83398 -4.5 9.50098s-6.16602 6 -11.499 7s-12.333 1.5 -21 1.5c-24.667 -112.667 -52.334 -212.667 -83.001 -300
s-70 -178.666 -118 -273.999h318c14.667 47.333 40 100.5 76 159.5s92 141.833 168 248.5l10.5 15c4.33301 6 7.33301 10 9 12s3.83398 5.16699 6.50098 9.5l5.5 9c1 1.66699 2.33301 4.16699 4 7.5s2.66699 5.83301 3 7.5l1.5 7.5c0.666992 3.33301 1 6.33301 1 9v10
c0 18.667 -5.66699 34.167 -17 46.5s-25 22 -41 29s-32.167 14.667 -48.5 23s-30.166 21 -41.499 38s-17 38.5 -17 64.5c0 31.333 6.5 66 19.5 104s29.167 69.667 48.5 95h26c4.66699 -31.333 21.667 -52.666 51 -63.999l56 -19c63.333 -22 95 -67.667 95 -137
c0 -34 -9.16699 -71.5 -27.5 -112.5s-42.333 -85.833 -72 -134.5s-60.5 -102.167 -92.5 -160.5s-63.833 -132.166 -95.5 -221.499s-56.5 -184.666 -74.5 -285.999z" />
    <glyph glyph-name="alefpatah" unicode="&#xfb2e;" horiz-adv-x="1048" 
d="M875 1039c70.667 -25.333 105.999 -70.999 105.999 -136.999c0 -54.667 -22 -110.334 -66 -167.001h-19v25v12c0 12 -2.16699 20.833 -6.5 26.5s-14.166 8.5 -29.499 8.5c-34.667 -54 -59 -99.5 -73 -136.5s-21 -72.833 -21 -107.5c0 -50.667 17.667 -96.667 53 -138
l93 -107c52 -58.667 78 -120 78 -184c0 -58 -23.333 -108.333 -70 -151h-27c0 46.667 -17.333 89.667 -52 129l-434 498c-74 -37.333 -111 -85.333 -111 -144c0 -22.667 6.33301 -45.667 19 -69s28.167 -45.166 46.5 -65.499l55 -61c18.333 -20.333 33.833 -42.5 46.5 -66.5
s19 -47.333 19 -70c0 -31.333 -11.167 -61.5 -33.5 -90.5s-45.5 -43.5 -69.5 -43.5h-3h-189v28c40 10.667 60 33.667 60 69c0 18 -14.5 61.5 -43.5 130.5s-43.5 119.167 -43.5 150.5c0 103.333 69.667 194.666 209 273.999l-122 139c-50.667 58.667 -76 119.667 -76 183
c0 58.667 22.667 112.667 68 162h26c0 -54 17.333 -100.667 52 -140l376 -427c17.333 88 51 169.667 101 245c-99.333 16 -149 77.333 -149 184c0 52.667 13.667 98.667 41 138h26c11.333 -41.333 37 -67 77 -77zM740.999 -287.999h-300v94h300v-94z" />
    <glyph glyph-name="alefkamats" unicode="&#xfb2f;" horiz-adv-x="1048" 
d="M875 1039c70.667 -25.333 105.999 -70.999 105.999 -136.999c0 -54.667 -22 -110.334 -66 -167.001h-19v25v12c0 12 -2.16699 20.833 -6.5 26.5s-14.166 8.5 -29.499 8.5c-34.667 -54 -59 -99.5 -73 -136.5s-21 -72.833 -21 -107.5c0 -50.667 17.667 -96.667 53 -138
l93 -107c52 -58.667 78 -120 78 -184c0 -58 -23.333 -108.333 -70 -151h-27c0 46.667 -17.333 89.667 -52 129l-434 498c-74 -37.333 -111 -85.333 -111 -144c0 -22.667 6.33301 -45.667 19 -69s28.167 -45.166 46.5 -65.499l55 -61c18.333 -20.333 33.833 -42.5 46.5 -66.5
s19 -47.333 19 -70c0 -31.333 -11.167 -61.5 -33.5 -90.5s-45.5 -43.5 -69.5 -43.5h-3h-189v28c40 10.667 60 33.667 60 69c0 18 -14.5 61.5 -43.5 130.5s-43.5 119.167 -43.5 150.5c0 103.333 69.667 194.666 209 273.999l-122 139c-50.667 58.667 -76 119.667 -76 183
c0 58.667 22.667 112.667 68 162h26c0 -54 17.333 -100.667 52 -140l376 -427c17.333 88 51 169.667 101 245c-99.333 16 -149 77.333 -149 184c0 52.667 13.667 98.667 41 138h26c11.333 -41.333 37 -67 77 -77zM568.999 -287.999h-126v94h296v-94h-128v-34v-3
c0 -28.667 4.66699 -57 14 -85l36 -90c-15.333 -38.667 -32 -67 -50 -85c-14.667 -3.33301 -28.667 -3 -42 1c-20 16.667 -36 44.667 -48 84l36 90c8 17.333 12 45.333 12 84v3v35z" />
    <glyph glyph-name="alefmapiq" unicode="&#xfb30;" horiz-adv-x="1048" 
d="M875 1039c70.667 -25.333 105.999 -70.999 105.999 -136.999c0 -54.667 -22 -110.334 -66 -167.001h-19v25v12c0 12 -2.16699 20.833 -6.5 26.5s-14.166 8.5 -29.499 8.5c-34.667 -54 -59 -99.5 -73 -136.5s-21 -72.833 -21 -107.5c0 -50.667 17.667 -96.667 53 -138
l93 -107c52 -58.667 78 -120 78 -184c0 -58 -23.333 -108.333 -70 -151h-27c0 46.667 -17.333 89.667 -52 129l-434 498c-74 -37.333 -111 -85.333 -111 -144c0 -22.667 6.33301 -45.667 19 -69s28.167 -45.166 46.5 -65.499l55 -61c18.333 -20.333 33.833 -42.5 46.5 -66.5
s19 -47.333 19 -70c0 -31.333 -11.167 -61.5 -33.5 -90.5s-45.5 -43.5 -69.5 -43.5h-3h-189v28c40 10.667 60 33.667 60 69c0 18 -14.5 61.5 -43.5 130.5s-43.5 119.167 -43.5 150.5c0 103.333 69.667 194.666 209 273.999l-122 139c-50.667 58.667 -76 119.667 -76 183
c0 58.667 22.667 112.667 68 162h26c0 -54 17.333 -100.667 52 -140l376 -427c17.333 88 51 169.667 101 245c-99.333 16 -149 77.333 -149 184c0 52.667 13.667 98.667 41 138h26c11.333 -41.333 37 -67 77 -77zM621.999 0.000976562c-20.667 0 -37.5 7.83301 -50.5 23.5
s-19.5 35.167 -19.5 58.5c0 24 6.66699 43.667 20 59s30 23 50 23c20.667 0 37.5 -7.83301 50.5 -23.5s19.5 -35.167 19.5 -58.5c0 -24 -6.66699 -43.667 -20 -59s-30 -23 -50 -23z" />
    <glyph glyph-name="betdagesh" unicode="&#xfb31;" horiz-adv-x="967" 
d="M561 814l-226.999 -0.000976562c-48 0 -85.167 14.333 -111.5 43s-39.5 65 -39.5 109c0 62.667 20.333 117.334 61 164.001h26c11.333 -49.333 44.666 -74 99.999 -74h146c53.333 0 98.333 -2.33301 135 -7s68.167 -13.5 94.5 -26.5s47 -27.667 62 -44
s26.667 -39.5 35 -69.5s13.833 -60.833 16.5 -92.5s4 -72.834 4 -123.501v-141c0 -78 -4.5 -139.167 -13.5 -183.5s-26.167 -87.166 -51.5 -128.499h146c0 -94 -12.667 -174 -38 -240h-769c-3.33301 16.667 -5 32 -5 46c0 26 3.83301 57.833 11.5 95.5s18.5 70.5 32.5 98.5
h568c16.667 85.333 25 180.333 25 285c0 121.333 -10.333 203.666 -31 246.999c-9.33301 18.667 -27.333 30.334 -54 35.001s-67.667 7 -123 7zM481.001 436.999c-20.667 0 -37.5 7.83301 -50.5 23.5s-19.5 35.167 -19.5 58.5c0 24 6.66699 43.667 20 59s30 23 50 23
c20.667 0 37.5 -7.83301 50.5 -23.5s19.5 -35.167 19.5 -58.5c0 -24 -6.66699 -43.667 -20 -59s-30 -23 -50 -23z" />
    <glyph glyph-name="gimeldagesh" unicode="&#xfb32;" horiz-adv-x="665" 
d="M468 599c0 -36 9.00391 -76.168 27.0039 -120.501s37.833 -84.166 59.5 -119.499s41.5 -76 59.5 -122s27 -88.333 27 -127c0 -48.667 -12.333 -91.334 -37 -128.001h-24l-144 344h-14l-134 -326l-212 -18l52 242c9.33301 1.33301 25.833 3.83301 49.5 7.5
s39.834 6.5 48.501 8.5s20.667 5.33301 36 10s28.166 10.667 38.499 18s20.166 16.666 29.499 27.999c48 54.667 72 155.334 72 302.001c0 37.333 -1.5 68.5 -4.5 93.5s-6 44.333 -9 58s-9.16699 24.5 -18.5 32.5s-16.833 13 -22.5 15s-15.834 4.66699 -30.501 8l-39 9
c-46 10.667 -76 27.334 -90 50.001s-21.333 55.667 -22 99c0 58 21 111.333 63 160h27c1.33301 -6.66699 2.16602 -14.334 2.49902 -23.001s0.666016 -15 0.999023 -19s1.5 -8.16699 3.5 -12.5s6 -7.66602 12 -9.99902s14 -3.83301 24 -4.5l73 -7
c74.667 -6.66699 112 -54 112 -142c0 -26 -2.66699 -77 -8 -153s-8 -127 -8 -153zM255.004 436.999c-20.667 0 -37.5 7.83301 -50.5 23.5s-19.5 35.167 -19.5 58.5c0 24 6.66699 43.667 20 59s30 23 50 23c20.667 0 37.5 -7.83301 50.5 -23.5s19.5 -35.167 19.5 -58.5
c0 -24 -6.66699 -43.667 -20 -59s-30 -23 -50 -23z" />
    <glyph glyph-name="daleddagesh" unicode="&#xfb33;" horiz-adv-x="879" 
d="M671 596c0 -37.333 3.66699 -107.5 11 -210.5s11 -173.167 11 -210.5c0 -117.333 -48.333 -184 -145 -200l-17 25c17.333 26.667 26 60.334 26 101.001c0 46 -1.5 103.833 -4.5 173.5s-4.5 119.167 -4.5 148.5c0 95.333 11.5 173.333 34.5 234s62.833 113 119.5 157h-448
c-50 0 -88.167 13.667 -114.5 41s-39.5 63 -39.5 107c0 66 20.333 120.667 61 164h26c11.333 -46.667 44.666 -70 99.999 -70h414c46.667 0 78.834 -8.66699 96.501 -26s26.5 -48.333 26.5 -93c0 -24.667 -2 -44.5 -6 -59.5s-9.83301 -27.167 -17.5 -36.5
s-16 -17.5 -25 -24.5s-20 -17.5 -33 -31.5s-25.167 -30.333 -36.5 -49c-23.333 -36.667 -35 -83.334 -35 -140.001zM348 437c-20.667 0 -37.5 7.83301 -50.5 23.5s-19.5 35.167 -19.5 58.5c0 24 6.66699 43.667 20 59s30 23 50 23c20.667 0 37.5 -7.83301 50.5 -23.5
s19.5 -35.167 19.5 -58.5c0 -24 -6.66699 -43.667 -20 -59s-30 -23 -50 -23z" />
    <glyph glyph-name="hedagesh" unicode="&#xfb34;" horiz-adv-x="1182" 
d="M922 607c0 -44.667 7.66992 -116.67 23.0029 -216.003s23 -171.333 23 -216c0 -118 -47.667 -184.667 -143 -200l-16 21c17.333 30.667 26 65.667 26 105c0 29.333 -2.66699 88.833 -8 178.5s-8 148.5 -8 176.5c0 85.333 6.83301 155.333 20.5 210s39.167 104 76.5 148
h-570c-48.667 0 -85.834 13.667 -111.501 41s-38.5 63 -38.5 107c0 66 20.333 120.667 61 164h27c11.333 -46.667 42.666 -70 93.999 -70h488c51.333 0 85.666 -9.33301 102.999 -28s26 -49 26 -91v-49c0 -17.333 -3.83301 -34.166 -11.5 -50.499s-16 -31.166 -25 -44.499
s-17.333 -36.166 -25 -68.499s-11.5 -71.5 -11.5 -117.5zM361.003 292.997c0 -12.667 1.33203 -45.001 3.99902 -97.001s4 -84.667 4 -98c0 -81.333 -50 -125 -150 -131l-14 22c17.333 18.667 26 43 26 73c0 12.667 -1 44 -3 94s-3 81.333 -3 94c0 72 13.333 131 40 177
s64.334 69 113.001 69c13.333 0 24.666 -2.66699 33.999 -8v-27c-15.333 -10 -27.666 -31.667 -36.999 -65s-14 -67.666 -14 -102.999zM588.002 436.996c-20.667 0 -37.5 7.83301 -50.5 23.5s-19.5 35.167 -19.5 58.5c0 24 6.66699 43.667 20 59s30 23 50 23
c20.667 0 37.5 -7.83301 50.5 -23.5s19.5 -35.167 19.5 -58.5c0 -24 -6.66699 -43.667 -20 -59s-30 -23 -50 -23z" />
    <glyph glyph-name="vavdagesh" unicode="&#xfb35;" horiz-adv-x="510" 
d="M292 1056c50.667 0 89 -17.835 115 -53.502s39 -95.167 39 -178.5v-717c0 -59.333 -22.667 -100.666 -68 -123.999l-22 7v673c0 46.667 -7.33301 82.334 -22 107.001c-8 12.667 -16 21.667 -24 27s-23.333 11 -46 17c-54.667 14 -93.5 29.167 -116.5 45.5
s-38.167 44.5 -45.5 84.5c-1.33301 6 -2 14.667 -2 26c0 24 5.66699 49.667 17 77s25.333 49 42 65c4 -1.33301 13 -1.33301 27 0c4.66699 -37.333 40 -56 106 -56zM188 436.998c-20.667 0 -37.5 7.83301 -50.5 23.5s-19.5 35.167 -19.5 58.5c0 24 6.66699 43.667 20 59
s30 23 50 23c20.667 0 37.5 -7.83301 50.5 -23.5s19.5 -35.167 19.5 -58.5c0 -24 -6.66699 -43.667 -20 -59s-30 -23 -50 -23z" />
    <glyph glyph-name="zaindagesh" unicode="&#xfb36;" horiz-adv-x="656" 
d="M568 736l-16.999 -0.000976562c-3.33301 17.333 -15.833 32.5 -37.5 45.5s-43.834 21.833 -66.501 26.5c-12 -57.333 -18 -108.666 -18 -153.999c0 -54.667 10.333 -133.334 31 -236.001s31 -177.667 31 -225c0 -130.667 -47.333 -203.334 -142 -218.001l-19 20
c21.333 30.667 32 67.334 32 110.001c0 32.667 -5.33301 93.667 -16 183s-16 150.666 -16 183.999c0 118.667 24.667 230.667 74 336c-67.333 0 -118 14.833 -152 44.5s-51 69.167 -51 118.5c0 62.667 18.333 117.334 55 164.001h27c8 -38 30 -61 66 -69
c100.667 -3.33301 178 -22.666 232 -57.999c28 -18 42 -55.667 42 -113c0 -58.667 -18.333 -111.667 -55 -159zM170.001 461.999c-20.667 0 -37.5 7.83301 -50.5 23.5s-19.5 35.167 -19.5 58.5c0 24 6.66699 43.667 20 59s30 23 50 23c20.667 0 37.5 -7.83301 50.5 -23.5
s19.5 -35.167 19.5 -58.5c0 -24 -6.66699 -43.667 -20 -59s-30 -23 -50 -23z" />
    <glyph glyph-name="tetdagesh" unicode="&#xfb38;" horiz-adv-x="1015" 
d="M262 814c-46.667 8.66699 -79.665 25.0029 -98.998 49.0029s-29 59.333 -29 106c0 54 14 109.333 42 166h27c4.66699 -48.667 40.667 -74.667 108 -78c79.333 -2 119 -44.667 119 -128c0 -14.667 -2.83301 -41.834 -8.5 -81.501s-10.834 -66.5 -15.501 -80.5
c-8.66699 -3.33301 -13.667 -3.5 -15 -0.5s-4.5 9 -9.5 18s-11.5 15.167 -19.5 18.5c-2.66699 0.666992 -10 2.66699 -22 6s-22 5 -30 5c-22 -72 -33 -132.667 -33 -182c0 -61.333 8 -120.833 24 -178.5s42.333 -128.834 79 -213.501h414c27.333 58 46 116 56 174
s15 129.667 15 215c0 67.333 -15 115 -45 143s-67.333 42 -112 42c-96 0 -160.333 -53 -193 -159l-32 8c56 270 146.667 405 272 405c124.667 0 187 -146 187 -438c0 -180 -42.667 -390 -128 -630h-530c-0.666992 45.333 -12.834 135.166 -36.501 269.499
s-35.5 232.833 -35.5 295.5c0 80 16.667 163 50 249zM588.002 467.003c-20.667 0 -37.5 7.83301 -50.5 23.5s-19.5 35.167 -19.5 58.5c0 24 6.66699 43.667 20 59s30 23 50 23c20.667 0 37.5 -7.83301 50.5 -23.5s19.5 -35.167 19.5 -58.5c0 -24 -6.66699 -43.667 -20 -59
s-30 -23 -50 -23z" />
    <glyph glyph-name="yoddagesh" unicode="&#xfb39;" horiz-adv-x="464" 
d="M257 480l-28.001 31.998c35.333 26.667 59.666 53.834 72.999 81.501s20 64.834 20 111.501v36c0 25.333 -5.16699 43.5 -15.5 54.5s-34.166 17.167 -71.499 18.5c-53.333 2 -93.166 18 -119.499 48s-39.5 68.667 -39.5 116c0 48 15.667 100.333 47 157h27
c6 -44.667 36.333 -69.667 91 -75l35 -4c89.333 -7.33301 134 -69 134 -185v-76c0 -156.667 -51 -261.667 -153 -315zM152.999 579.998c-20.667 0 -37.5 7.83301 -50.5 23.5s-19.5 35.167 -19.5 58.5c0 24 6.66699 43.667 20 59s30 23 50 23
c20.667 0 37.5 -7.83301 50.5 -23.5s19.5 -35.167 19.5 -58.5c0 -24 -6.66699 -43.667 -20 -59s-30 -23 -50 -23z" />
    <glyph glyph-name="finalkhafdagesh" unicode="&#xfb3a;" horiz-adv-x="846" 
d="M737 800c-11.333 -13.333 -17.001 -37.001 -17.001 -71.001v-9l32 -897c0 -3.33301 0.166992 -7.66602 0.5 -12.999s0.5 -9.33301 0.5 -12c0 -42.667 -7.16699 -75.334 -21.5 -98.001s-39.166 -40.667 -74.499 -54l-18 9l-3 1160h-387c-46 0 -81 13.667 -105 41
s-36 63 -36 107c0 62.667 20.333 117.334 61 164.001h26c10 -46.667 45.667 -70 107 -70l361 -1c84.667 0 127 -36.667 127 -110v-31c0 -28.667 -7 -51 -21 -67zM370.999 436.999c-20.667 0 -37.5 7.83301 -50.5 23.5s-19.5 35.167 -19.5 58.5c0 24 6.66699 43.667 20 59
s30 23 50 23c20.667 0 37.5 -7.83301 50.5 -23.5s19.5 -35.167 19.5 -58.5c0 -24 -6.66699 -43.667 -20 -59s-30 -23 -50 -23z" />
    <glyph glyph-name="khafdagesh" unicode="&#xfb3b;" horiz-adv-x="942" 
d="M774 507l-0.00292969 9.99805c0 52.667 -2.66699 95.834 -8 129.501s-15.166 64 -29.499 91s-35.333 46.5 -63 58.5s-63.167 18 -106.5 18h-275c-45.333 0 -79.333 13.5 -102 40.5s-34 62.833 -34 107.5c0 62.667 20.333 117.334 61 164.001h26
c10.667 -46.667 44 -70 100 -70h206c211.333 0 317 -173 317 -519c0 -82.667 -4 -153.167 -12 -211.5s-19.833 -105 -35.5 -140s-32.167 -62.167 -49.5 -81.5s-38.666 -36 -63.999 -50c-63.333 -36 -147 -54 -251 -54h-329l45 240h379c80.667 0 138.334 20 173.001 60
s52 109 52 207zM482.997 436.998c-20.667 0 -37.5 7.83301 -50.5 23.5s-19.5 35.167 -19.5 58.5c0 24 6.66699 43.667 20 59s30 23 50 23c20.667 0 37.5 -7.83301 50.5 -23.5s19.5 -35.167 19.5 -58.5c0 -24 -6.66699 -43.667 -20 -59s-30 -23 -50 -23z" />
    <glyph glyph-name="lameddagesh" unicode="&#xfb3c;" horiz-adv-x="901" 
d="M227 1137c0 -32 9.16895 -53.498 27.502 -64.498s48.5 -16.5 90.5 -16.5h326c61.333 0 109 -15 143 -45c32.667 -30.667 49 -104 49 -220v-108c0 -87.333 -19.333 -152.333 -58 -195l-190 -213c-46 -51.333 -69 -101.666 -69 -150.999c0 -10 1.16699 -22.833 3.5 -38.5
s3.5 -26.834 3.5 -33.501c0 -49.333 -22.333 -74 -67 -74c-22 0 -40.5 10.667 -55.5 32s-22.5 46 -22.5 74c0 36 12.167 71.5 36.5 106.5s65.166 81.5 122.499 139.5l146 151c41.333 43.333 62 98.666 62 165.999v60c0 48 -11.167 77.833 -33.5 89.5s-72.5 17.5 -150.5 17.5
h-290c-50.667 0 -89.5 14.833 -116.5 44.5s-40.5 68.5 -40.5 116.5c0 60.667 12.333 128 37 202l29 85c4.66699 14 7 25.333 7 34c0 19.333 -12 35 -36 47l-56 27c-28.667 14 -43 33.667 -43 59c0 16 5.16699 39.667 15.5 71s21.166 55.333 32.499 72h25
c2.66699 -20.667 16.667 -36 42 -46l38 -15c42 -16.667 63 -42.334 63 -77.001c0 -4.66699 -14.333 -60.667 -43 -168l-14 -51c-9.33301 -36 -14 -62 -14 -78zM482.002 487.002c-20.667 0 -37.5 7.83301 -50.5 23.5s-19.5 35.167 -19.5 58.5c0 24 6.66699 43.667 20 59
s30 23 50 23c20.667 0 37.5 -7.83301 50.5 -23.5s19.5 -35.167 19.5 -58.5c0 -24 -6.66699 -43.667 -20 -59s-30 -23 -50 -23z" />
    <glyph glyph-name="memdagseh" unicode="&#xfb3e;" horiz-adv-x="1094" 
d="M681 1069c59.333 -10 110.834 -32.998 154.501 -68.998s77.5 -81.333 101.5 -136s41.667 -112.834 53 -174.501s17 -128.167 17 -199.5c0 -92 -12.333 -198.333 -37 -319l-34 -171h-499l58 240h408c8.66699 33.333 14 64.666 16 93.999s3 74 3 134v3
c0 92 -20.833 166.667 -62.5 224s-96.167 86.666 -163.5 87.999h-7c-115.333 0 -211.666 -57.667 -288.999 -173c-90 -134 -135.333 -337.333 -136 -610h-67c-2.66699 30 -4 59 -4 87c0 140.667 16.667 261.834 50 363.501s88.333 194.5 165 278.5c3.33301 20 5 34 5 42
c0 7.33301 -0.833008 13 -2.5 17s-5.33398 7.16699 -11.001 9.5s-11.334 4 -17.001 5s-15 2.5 -28 4.5s-25.167 4.33301 -36.5 7c-40 8.66699 -72 29 -96 61s-36 66.667 -36 104c0 55.333 14 107.333 42 156h27c12 -40.667 37.667 -64 77 -70l62 -9c56 -8 84 -36.333 84 -85
c0 -12 -1.5 -27.167 -4.5 -45.5s-4.5 -31.5 -4.5 -39.5c0 -28 10.333 -48.333 31 -61c110.667 62 171 143.333 181 244zM625.001 437.002c-20.667 0 -37.5 7.83301 -50.5 23.5s-19.5 35.167 -19.5 58.5c0 24 6.66699 43.667 20 59s30 23 50 23
c20.667 0 37.5 -7.83301 50.5 -23.5s19.5 -35.167 19.5 -58.5c0 -24 -6.66699 -43.667 -20 -59s-30 -23 -50 -23z" />
    <glyph glyph-name="nundagesh" unicode="&#xfb40;" horiz-adv-x="614" 
d="M487 559c0 -68 10.334 -149.167 31.001 -243.5s31 -156.166 31 -185.499c0 -60 -3.33301 -103.333 -10 -130h-470l37 239l303 1l-3 132v26c0 34.667 3.16699 89.167 9.5 163.5s9.5 128.166 9.5 161.499v7c-1.33301 26 -7 45.833 -17 59.5s-29 20.834 -57 21.501
c-104.667 1.33301 -158 57.666 -160 168.999v4c0 63.333 20.333 115.333 61 156h27c2.66699 -15.333 4.66699 -25.666 6 -30.999s4.16602 -12.5 8.49902 -21.5s10.5 -15.333 18.5 -19s18.333 -5.83398 31 -6.50098l44 -5c90.667 -10 136 -56 136 -138
c0 -32.667 -6 -92.667 -18 -180s-18 -147.333 -18 -180zM234.001 437c-20.667 0 -37.5 7.83301 -50.5 23.5s-19.5 35.167 -19.5 58.5c0 24 6.66699 43.667 20 59s30 23 50 23c20.667 0 37.5 -7.83301 50.5 -23.5s19.5 -35.167 19.5 -58.5c0 -24 -6.66699 -43.667 -20 -59
s-30 -23 -50 -23z" />
    <glyph glyph-name="samekhdagesh" unicode="&#xfb41;" horiz-adv-x="1038" 
d="M962 537c0 -87.333 -5.49707 -163.166 -16.4971 -227.499s-29.5 -122.333 -55.5 -174s-63.167 -90.834 -111.5 -117.501s-107.5 -40 -177.5 -40h-37c-60 0 -115 13 -165 39s-90.833 60.5 -122.5 103.5s-56.334 91.667 -74.001 146s-26.5 110.833 -26.5 169.5
c0 81.333 9 150.833 27 208.5s46.333 115.167 85 172.5c-33.333 0 -60.333 16.833 -81 50.5s-31 65.167 -31 94.5c0 62 21 116.667 63 164h26c11.333 -46.667 44.333 -70 99 -70h244c56 0 104.667 -8.16699 146 -24.5s78.166 -43.5 110.499 -81.5
s56.666 -91.5 72.999 -160.5s24.5 -153.167 24.5 -252.5zM872.003 502c0 57.333 -3.16895 104.333 -9.50195 141s-18.166 68.5 -35.499 95.5s-41.5 46.333 -72.5 58s-71.167 17.5 -120.5 17.5h-287c-28 -47.333 -47.833 -94 -59.5 -140s-17.5 -98.333 -17.5 -157
c0 -105.333 25 -183.833 75 -235.5s114.333 -77.5 193 -77.5h88c82.667 0 144.334 24 185.001 72s61 123.333 61 226zM563.001 467c-20.667 0 -37.5 7.83301 -50.5 23.5s-19.5 35.167 -19.5 58.5c0 24 6.66699 43.667 20 59s30 23 50 23c20.667 0 37.5 -7.83301 50.5 -23.5
s19.5 -35.167 19.5 -58.5c0 -24 -6.66699 -43.667 -20 -59s-30 -23 -50 -23z" />
    <glyph glyph-name="finalpedagesh" unicode="&#xfb43;" horiz-adv-x="886" 
d="M408 390c-8 0 -21.501 1.50391 -40.501 4.50391s-34.833 4.5 -47.5 4.5c-48 0 -86 -17.667 -114 -53h-33c-21.333 44 -32 87 -32 129c0 116 40.333 229 121 339c-28.667 6 -51.167 22.833 -67.5 50.5s-24.5 60.167 -24.5 97.5c0 63.333 21 118 63 164h26
c12 -46.667 44.667 -70 98 -70h151h28c127.333 0 207 -34.333 239 -103c19.333 -39.333 31.333 -115.333 36 -228l20 -450c8 -186.667 12 -345.334 12 -476.001c0 -50.667 -6.33301 -84.834 -19 -102.501s-36.667 -33.167 -72 -46.5l-23 8v837c0 58 -2.5 107.167 -7.5 147.5
s-11.333 71.666 -19 93.999s-18.667 39.333 -33 51s-28.166 19 -41.499 22s-30.666 4.5 -51.999 4.5h-267l-35.5 -57.5c-6.33301 -10.333 -12.333 -23.5 -18 -39.5s-8.5 -31.333 -8.5 -46c0 -29.333 7.16699 -49.833 21.5 -61.5s43.166 -21.834 86.499 -30.501
c58 -10 87 -37.667 87 -83v-68c0 -25.333 -11.333 -38 -34 -38zM590.999 388.004c-20.667 0 -37.5 7.83301 -50.5 23.5s-19.5 35.167 -19.5 58.5c0 24 6.66699 43.667 20 59s30 23 50 23c20.667 0 37.5 -7.83301 50.5 -23.5s19.5 -35.167 19.5 -58.5
c0 -24 -6.66699 -43.667 -20 -59s-30 -23 -50 -23z" />
    <glyph glyph-name="pedagesh" unicode="&#xfb44;" horiz-adv-x="912" 
d="M382 459c-6 0 -20.666 1.33691 -43.999 4.00391s-38 4 -44 4c-48.667 0 -86.667 -17.667 -114 -53h-32c-25.333 57.333 -38 111.666 -38 162.999c0 54 6.66699 98.667 20 134s38 69.666 74 102.999l-40 45c-7.33301 8 -13.5 22.333 -18.5 43s-7.5 40.667 -7.5 60
c0 64 20.333 118.667 61 164h26c10.667 -46.667 44 -70 100 -70h190c208.667 0 313 -173 313 -519c0 -224.667 -33.333 -370.334 -100 -437.001s-169.334 -100 -308.001 -100h-310l58 240h330c32.667 0 60.167 1.33301 82.5 4s45.333 9.16699 69 19.5
s42.5 24.666 56.5 42.999s25.667 44 35 77s14 72.833 14 119.5c0 55.333 -3.33301 102.166 -10 140.499s-15.5 68.5 -26.5 90.5s-26.167 39 -45.5 51s-38.5 19.833 -57.5 23.5s-43.167 5.5 -72.5 5.5h-262c-43.333 -27.333 -65 -62.666 -65 -105.999
c0 -20 6.5 -34.833 19.5 -44.5s29 -16 48 -19l56.5 -9c18.667 -3 34.5 -10 47.5 -21s19.5 -27.167 19.5 -48.5v-55c0 -34.667 -8.33301 -52 -25 -52zM585.001 450.004c-20.667 0 -37.5 7.83301 -50.5 23.5s-19.5 35.167 -19.5 58.5c0 24 6.66699 43.667 20 59s30 23 50 23
c20.667 0 37.5 -7.83301 50.5 -23.5s19.5 -35.167 19.5 -58.5c0 -24 -6.66699 -43.667 -20 -59s-30 -23 -50 -23z" />
    <glyph glyph-name="tsadidagesh" unicode="&#xfb46;" horiz-adv-x="968" 
d="M273 814c-49.333 0 -86.167 14.502 -110.5 43.502s-36.5 66.833 -36.5 113.5c0 62 14.667 116.667 44 164h27c10.667 -48 38 -73.667 82 -77l35 -2c47.333 -3.33301 79.333 -14.333 96 -33s25 -53 25 -103c0 -16 -2.66699 -48 -8 -96s-8 -80 -8 -96
c0 -53.333 18.667 -95.666 56 -126.999l95 -79c43.333 116.667 92 211.334 146 284.001c-73.333 16.667 -110 71.667 -110 165c0 55.333 14 110 42 164h28c6 -46.667 35.333 -72.334 88 -77.001l55 -4c32.667 -2.66699 58 -17.834 76 -45.501s27 -61.834 27 -102.501
c0 -62 -19 -117 -57 -165h-17c-2.66699 12 -4.5 20 -5.5 24s-3.33301 9.5 -7 16.5s-8.5 11.667 -14.5 14s-13.667 3.5 -23 3.5c-6.66699 0 -11.667 -0.333008 -15 -1c-32.667 -30.667 -60 -71 -82 -121s-33.333 -97.333 -34 -142c0 -61.333 29 -116 87 -164l133 -110
l-57 -261h-625l42 240h452l-281 228c-41.333 33.333 -62 70.666 -62 111.999v3l5 144v7c0 29.333 -6.66699 50 -20 62s-36 18 -68 18zM250.999 290.002c-20.667 0 -37.5 7.83301 -50.5 23.5s-19.5 35.167 -19.5 58.5c0 24 6.66699 43.667 20 59s30 23 50 23
c20.667 0 37.5 -7.83301 50.5 -23.5s19.5 -35.167 19.5 -58.5c0 -24 -6.66699 -43.667 -20 -59s-30 -23 -50 -23z" />
    <glyph glyph-name="kofdagesh" unicode="&#xfb47;" horiz-adv-x="997" 
d="M692 1056c90 0 153.167 -21.832 189.5 -65.499s54.5 -113.834 54.5 -210.501v-97c0 -74 -7.83301 -130.333 -23.5 -169s-43.167 -71.334 -82.5 -98.001l-220 -146c-52 -34 -78 -84.667 -78 -152c0 -3.33301 0.5 -13.333 1.5 -30s1.5 -30.334 1.5 -41.001
c0 -46 -23 -69 -69 -69c-22 0 -43.667 9 -65 27s-32 39.333 -32 64c0 51.333 18 97.833 54 139.5s87.667 84.834 155 129.501l191 128c52 34.667 78 87 78 157v72c0 48 -11.167 79.833 -33.5 95.5s-66.5 23.5 -132.5 23.5h-372c-46.667 0 -82.167 13.667 -106.5 41
s-36.5 63 -36.5 107c0 62.667 20.333 117.334 61 164.001h26c10 -46.667 43.333 -70 100 -70h339zM225 -344.999l-21 6v860c0 58 24 108 72 150l36 6v-944c0 -17.333 -29 -43.333 -87 -78zM533 462.001c-20.667 0 -37.5 7.83301 -50.5 23.5s-19.5 35.167 -19.5 58.5
c0 24 6.66699 43.667 20 59s30 23 50 23c20.667 0 37.5 -7.83301 50.5 -23.5s19.5 -35.167 19.5 -58.5c0 -24 -6.66699 -43.667 -20 -59s-30 -23 -50 -23z" />
    <glyph glyph-name="reshdagesh" unicode="&#xfb48;" horiz-adv-x="883" 
d="M757 -19l-20.999 6.99902v486c0 109.333 -5.66699 183.333 -17 222s-37 69 -77 91c-32 18 -74 27 -126 27h-275c-46 0 -81.333 13.667 -106 41s-37 63 -37 107c0 62.667 20.333 117.334 61 164.001h26c11.333 -46.667 44.666 -70 99.999 -70h175
c154 0 253.333 -22.333 298 -67c46 -44 69 -141 69 -291v-618c0 -41.333 -23.333 -74.333 -70 -99zM426.001 436.999c-20.667 0 -37.5 7.83301 -50.5 23.5s-19.5 35.167 -19.5 58.5c0 24 6.66699 43.667 20 59s30 23 50 23c20.667 0 37.5 -7.83301 50.5 -23.5
s19.5 -35.167 19.5 -58.5c0 -24 -6.66699 -43.667 -20 -59s-30 -23 -50 -23z" />
    <glyph glyph-name="shindagesh" unicode="&#xfb49;" horiz-adv-x="1292" 
d="M897 0l-559.003 -0.00195312c-14 73.333 -31 149.166 -51 227.499s-35 141.666 -45 189.999s-15 96.166 -15 143.499c0 92.667 11.667 173.667 35 243c-39.333 12 -69 33 -89 63s-30 63 -30 99c0 62 16.667 118.333 50 169h27c6 -22.667 16.167 -39.667 30.5 -51
s43.833 -21.333 88.5 -30c29.333 -5.33301 52.833 -22.166 70.5 -50.499s26.5 -61.5 26.5 -99.5c0 -55.333 -18 -105.333 -54 -150h-17c-4 18.667 -9.66699 30.667 -17 36s-20.333 8 -39 8c-11.333 -52 -17 -120 -17 -204c0 -54 8 -107.333 24 -160
s43.667 -117.334 83 -194.001l50 1c46.667 86 87.334 172.833 122.001 260.5s68.667 192.834 102 315.501c-39.333 14.667 -68.833 36.667 -88.5 66s-29.5 61.666 -29.5 96.999c0 57.333 17 109 51 155h27c8 -37.333 26.667 -59.666 56 -66.999l63 -14
c38.667 -11.333 65 -27.333 79 -48s21 -47.334 21 -80.001v-6c0 -50.667 -22 -104 -66 -160h-17c-1.33301 5.33301 -2.5 12 -3.5 20s-1.83301 13.333 -2.5 16s-2.16699 5.83398 -4.5 9.50098s-6.16602 6 -11.499 7s-12.333 1.5 -21 1.5
c-24.667 -112.667 -52.334 -212.667 -83.001 -300s-70 -178.666 -118 -273.999h318c14.667 47.333 40 100.5 76 159.5s92 141.833 168 248.5l10.5 15c4.33301 6 7.33301 10 9 12s3.83398 5.16699 6.50098 9.5l5.5 9c1 1.66699 2.33301 4.16699 4 7.5s2.66699 5.83301 3 7.5
l1.5 7.5c0.666992 3.33301 1 6.33301 1 9v10c0 18.667 -5.66699 34.167 -17 46.5s-25 22 -41 29s-32.167 14.667 -48.5 23s-30.166 21 -41.499 38s-17 38.5 -17 64.5c0 31.333 6.5 66 19.5 104s29.167 69.667 48.5 95h26c4.66699 -31.333 21.667 -52.666 51 -63.999l56 -19
c63.333 -22 95 -67.667 95 -137c0 -34 -9.16699 -71.5 -27.5 -112.5s-42.333 -85.833 -72 -134.5s-60.5 -102.167 -92.5 -160.5s-63.833 -132.166 -95.5 -221.499s-56.5 -184.666 -74.5 -285.999zM809.997 427.998c-20.667 0 -37.5 7.83301 -50.5 23.5
s-19.5 35.167 -19.5 58.5c0 24 6.66699 43.667 20 59s30 23 50 23c20.667 0 37.5 -7.83301 50.5 -23.5s19.5 -35.167 19.5 -58.5c0 -24 -6.66699 -43.667 -20 -59s-30 -23 -50 -23z" />
    <glyph glyph-name="tavdagesh" unicode="&#xfb4a;" horiz-adv-x="1026" 
d="M896 -17l-21.001 7.00293v484c0 74.667 -2.83301 131.167 -8.5 169.5s-13.167 65.166 -22.5 80.499s-25.333 32.666 -48 51.999c-32.667 25.333 -80 38 -142 38h-224l-29 -68c-41.333 -98.667 -62 -174.334 -62 -227.001c0 -57.333 4.33301 -113.666 13 -168.999
c23.333 -114 35 -189 35 -225v-7l-6 -118h-291l42 240h126l-6 160v28c0 121.333 24.667 224.666 74 309.999l45 76h-39c-48.667 0 -84.167 13.333 -106.5 40s-33.5 62.667 -33.5 108c0 63.333 20 118 60 164h29c12 -46.667 45.333 -70 100 -70h223
c154.667 0 254.334 -22 299.001 -66c44.667 -44.667 67 -142 67 -292v-591c0 -58 -24.667 -99.333 -74 -124zM633.999 437.003c-20.667 0 -37.5 7.83301 -50.5 23.5s-19.5 35.167 -19.5 58.5c0 24 6.66699 43.667 20 59s30 23 50 23c20.667 0 37.5 -7.83301 50.5 -23.5
s19.5 -35.167 19.5 -58.5c0 -24 -6.66699 -43.667 -20 -59s-30 -23 -50 -23z" />
    <glyph glyph-name="vavholam" unicode="&#xfb4b;" horiz-adv-x="484" 
d="M266 1056c50.667 0 89 -17.835 115 -53.502s39 -95.167 39 -178.5v-717c0 -59.333 -22.667 -100.666 -68 -123.999l-22 7v673c0 46.667 -7.33301 82.334 -22 107.001c-8 12.667 -16 21.667 -24 27s-23.333 11 -46 17c-54.667 14 -93.5 29.167 -116.5 45.5
s-38.167 44.5 -45.5 84.5c-1.33301 6 -2 14.667 -2 26c0 24 5.66699 49.667 17 77s25.333 49 42 65c4 -1.33301 13 -1.33301 27 0c4.66699 -37.333 40 -56 106 -56zM379 1207c-20.667 0 -37.5 7.83301 -50.5 23.5s-19.5 35.167 -19.5 58.5c0 24 6.66699 43.667 20 59
s30 23 50 23c20.667 0 37.5 -7.83301 50.5 -23.5s19.5 -35.167 19.5 -58.5c0 -24 -6.66699 -43.667 -20 -59s-30 -23 -50 -23z" />
    <glyph glyph-name="betrafe" unicode="&#xfb4c;" horiz-adv-x="967" 
d="M561 814l-226.999 -0.000976562c-48 0 -85.167 14.333 -111.5 43s-39.5 65 -39.5 109c0 62.667 20.333 117.334 61 164.001h26c11.333 -49.333 44.666 -74 99.999 -74h146c53.333 0 98.333 -2.33301 135 -7s68.167 -13.5 94.5 -26.5s47 -27.667 62 -44
s26.667 -39.5 35 -69.5s13.833 -60.833 16.5 -92.5s4 -72.834 4 -123.501v-141c0 -78 -4.5 -139.167 -13.5 -183.5s-26.167 -87.166 -51.5 -128.499h146c0 -94 -12.667 -174 -38 -240h-769c-3.33301 16.667 -5 32 -5 46c0 26 3.83301 57.833 11.5 95.5s18.5 70.5 32.5 98.5
h568c16.667 85.333 25 180.333 25 285c0 121.333 -10.333 203.666 -31 246.999c-9.33301 18.667 -27.333 30.334 -54 35.001s-67.667 7 -123 7zM701.001 1224h-388v94h388v-94z" />
    <glyph glyph-name="khafrafe" unicode="&#xfb4d;" horiz-adv-x="942" 
d="M774 507l-0.00292969 9.99805c0 52.667 -2.66699 95.834 -8 129.501s-15.166 64 -29.499 91s-35.333 46.5 -63 58.5s-63.167 18 -106.5 18h-275c-45.333 0 -79.333 13.5 -102 40.5s-34 62.833 -34 107.5c0 62.667 20.333 117.334 61 164.001h26
c10.667 -46.667 44 -70 100 -70h206c211.333 0 317 -173 317 -519c0 -82.667 -4 -153.167 -12 -211.5s-19.833 -105 -35.5 -140s-32.167 -62.167 -49.5 -81.5s-38.666 -36 -63.999 -50c-63.333 -36 -147 -54 -251 -54h-329l45 240h379c80.667 0 138.334 20 173.001 60
s52 109 52 207zM687.997 1224h-388v94h388v-94z" />
    <glyph glyph-name="perafe" unicode="&#xfb4e;" horiz-adv-x="912" 
d="M382 459c-6 0 -20.666 1.33691 -43.999 4.00391s-38 4 -44 4c-48.667 0 -86.667 -17.667 -114 -53h-32c-25.333 57.333 -38 111.666 -38 162.999c0 54 6.66699 98.667 20 134s38 69.666 74 102.999l-40 45c-7.33301 8 -13.5 22.333 -18.5 43s-7.5 40.667 -7.5 60
c0 64 20.333 118.667 61 164h26c10.667 -46.667 44 -70 100 -70h190c208.667 0 313 -173 313 -519c0 -224.667 -33.333 -370.334 -100 -437.001s-169.334 -100 -308.001 -100h-310l58 240h330c32.667 0 60.167 1.33301 82.5 4s45.333 9.16699 69 19.5
s42.5 24.666 56.5 42.999s25.667 44 35 77s14 72.833 14 119.5c0 55.333 -3.33301 102.166 -10 140.499s-15.5 68.5 -26.5 90.5s-26.167 39 -45.5 51s-38.5 19.833 -57.5 23.5s-43.167 5.5 -72.5 5.5h-262c-43.333 -27.333 -65 -62.666 -65 -105.999
c0 -20 6.5 -34.833 19.5 -44.5s29 -16 48 -19l56.5 -9c18.667 -3 34.5 -10 47.5 -21s19.5 -27.167 19.5 -48.5v-55c0 -34.667 -8.33301 -52 -25 -52zM705.001 1224h-388v94h388v-94z" />
    <glyph glyph-name="nonmarkingreturn" horiz-adv-x="682" 
 />
    <glyph glyph-name="gimelrafe" horiz-adv-x="665" 
d="M468 599c0 -36 9.00391 -76.168 27.0039 -120.501s37.833 -84.166 59.5 -119.499s41.5 -76 59.5 -122s27 -88.333 27 -127c0 -48.667 -12.333 -91.334 -37 -128.001h-24l-144 344h-14l-134 -326l-212 -18l52 242c9.33301 1.33301 25.833 3.83301 49.5 7.5
s39.834 6.5 48.501 8.5s20.667 5.33301 36 10s28.166 10.667 38.499 18s20.166 16.666 29.499 27.999c48 54.667 72 155.334 72 302.001c0 37.333 -1.5 68.5 -4.5 93.5s-6 44.333 -9 58s-9.16699 24.5 -18.5 32.5s-16.833 13 -22.5 15s-15.834 4.66699 -30.501 8l-39 9
c-46 10.667 -76 27.334 -90 50.001s-21.333 55.667 -22 99c0 58 21 111.333 63 160h27c1.33301 -6.66699 2.16602 -14.334 2.49902 -23.001s0.666016 -15 0.999023 -19s1.5 -8.16699 3.5 -12.5s6 -7.66602 12 -9.99902s14 -3.83301 24 -4.5l73 -7
c74.667 -6.66699 112 -54 112 -142c0 -26 -2.66699 -77 -8 -153s-8 -127 -8 -153zM649.004 1224h-388v94h388v-94z" />
    <glyph glyph-name="daletrafe" horiz-adv-x="879" 
d="M671 596c0 -37.333 3.66699 -107.5 11 -210.5s11 -173.167 11 -210.5c0 -117.333 -48.333 -184 -145 -200l-17 25c17.333 26.667 26 60.334 26 101.001c0 46 -1.5 103.833 -4.5 173.5s-4.5 119.167 -4.5 148.5c0 95.333 11.5 173.333 34.5 234s62.833 113 119.5 157h-448
c-50 0 -88.167 13.667 -114.5 41s-39.5 63 -39.5 107c0 66 20.333 120.667 61 164h26c11.333 -46.667 44.666 -70 99.999 -70h414c46.667 0 78.834 -8.66699 96.501 -26s26.5 -48.333 26.5 -93c0 -24.667 -2 -44.5 -6 -59.5s-9.83301 -27.167 -17.5 -36.5
s-16 -17.5 -25 -24.5s-20 -17.5 -33 -31.5s-25.167 -30.333 -36.5 -49c-23.333 -36.667 -35 -83.334 -35 -140.001zM656 1224h-388v94h388v-94z" />
    <glyph glyph-name="herafe" horiz-adv-x="1182" 
d="M922 607c0 -44.667 7.66992 -116.67 23.0029 -216.003s23 -171.333 23 -216c0 -118 -47.667 -184.667 -143 -200l-16 21c17.333 30.667 26 65.667 26 105c0 29.333 -2.66699 88.833 -8 178.5s-8 148.5 -8 176.5c0 85.333 6.83301 155.333 20.5 210s39.167 104 76.5 148
h-570c-48.667 0 -85.834 13.667 -111.501 41s-38.5 63 -38.5 107c0 66 20.333 120.667 61 164h27c11.333 -46.667 42.666 -70 93.999 -70h488c51.333 0 85.666 -9.33301 102.999 -28s26 -49 26 -91v-49c0 -17.333 -3.83301 -34.166 -11.5 -50.499s-16 -31.166 -25 -44.499
s-17.333 -36.166 -25 -68.499s-11.5 -71.5 -11.5 -117.5zM361.003 292.997c0 -12.667 1.33203 -45.001 3.99902 -97.001s4 -84.667 4 -98c0 -81.333 -50 -125 -150 -131l-14 22c17.333 18.667 26 43 26 73c0 12.667 -1 44 -3 94s-3 81.333 -3 94c0 72 13.333 131 40 177
s64.334 69 113.001 69c13.333 0 24.666 -2.66699 33.999 -8v-27c-15.333 -10 -27.666 -31.667 -36.999 -65s-14 -67.666 -14 -102.999zM777.002 1224h-388v94h388v-94z" />
    <glyph glyph-name="vavholamhaser" horiz-adv-x="484" 
d="M266 1056c50.667 0 89 -17.835 115 -53.502s39 -95.167 39 -178.5v-717c0 -59.333 -22.667 -100.666 -68 -123.999l-22 7v673c0 46.667 -7.33301 82.334 -22 107.001c-8 12.667 -16 21.667 -24 27s-23.333 11 -46 17c-54.667 14 -93.5 29.167 -116.5 45.5
s-38.167 44.5 -45.5 84.5c-1.33301 6 -2 14.667 -2 26c0 24 5.66699 49.667 17 77s25.333 49 42 65c4 -1.33301 13 -1.33301 27 0c4.66699 -37.333 40 -56 106 -56zM94 1234c-20.667 0 -37.5 7.83301 -50.5 23.5s-19.5 35.167 -19.5 58.5c0 24 6.66699 43.667 20 59
s30 23 50 23c20.667 0 37.5 -7.83301 50.5 -23.5s19.5 -35.167 19.5 -58.5c0 -24 -6.66699 -43.667 -20 -59s-30 -23 -50 -23z" />
    <glyph glyph-name="finalkafsheva" horiz-adv-x="846" 
d="M737 800c-11.333 -13.333 -17.001 -37.001 -17.001 -71.001v-9l32 -897c0 -3.33301 0.166992 -7.66602 0.5 -12.999s0.5 -9.33301 0.5 -12c0 -42.667 -7.16699 -75.334 -21.5 -98.001s-39.166 -40.667 -74.499 -54l-18 9l-3 1160h-387c-46 0 -81 13.667 -105 41
s-36 63 -36 107c0 62.667 20.333 117.334 61 164.001h26c10 -46.667 45.667 -70 107 -70l361 -1c84.667 0 127 -36.667 127 -110v-31c0 -28.667 -7 -51 -21 -67zM370.999 222.999c-20.667 0 -37.5 7.83301 -50.5 23.5s-19.5 35.167 -19.5 58.5c0 24 6.66699 43.667 20 59
s30 23 50 23c20.667 0 37.5 -7.83301 50.5 -23.5s19.5 -35.167 19.5 -58.5c0 -24 -6.66699 -43.667 -20 -59s-30 -23 -50 -23zM370.999 476.999c-20.667 0 -37.5 7.83301 -50.5 23.5s-19.5 35.167 -19.5 58.5c0 24 6.66699 43.667 20 59s30 23 50 23
c20.667 0 37.5 -7.83301 50.5 -23.5s19.5 -35.167 19.5 -58.5c0 -24 -6.66699 -43.667 -20 -59s-30 -23 -50 -23z" />
    <glyph glyph-name="finalkafqamats" horiz-adv-x="846" 
d="M737 800c-11.333 -13.333 -17.001 -37.001 -17.001 -71.001v-9l32 -897c0 -3.33301 0.166992 -7.66602 0.5 -12.999s0.5 -9.33301 0.5 -12c0 -42.667 -7.16699 -75.334 -21.5 -98.001s-39.166 -40.667 -74.499 -54l-18 9l-3 1160h-387c-46 0 -81 13.667 -105 41
s-36 63 -36 107c0 62.667 20.333 117.334 61 164.001h26c10 -46.667 45.667 -70 107 -70l361 -1c84.667 0 127 -36.667 127 -110v-31c0 -28.667 -7 -51 -21 -67zM328.999 521.999h-126v94h296v-94h-128v-34v-3c0 -28.667 4.66699 -57 14 -85l36 -90
c-15.333 -38.667 -32 -67 -50 -85c-14.667 -3.33301 -28.667 -3 -42 1c-20 16.667 -36 44.667 -48 84l36 90c8 17.333 12 45.333 12 84v3v35z" />
    <glyph glyph-name="lamedholam" horiz-adv-x="921" 
d="M247 1137c0 -32 9.16895 -53.498 27.502 -64.498s48.5 -16.5 90.5 -16.5h326c61.333 0 109 -15 143 -45c32.667 -30.667 49 -104 49 -220v-108c0 -87.333 -19.333 -152.333 -58 -195l-190 -213c-46 -51.333 -69 -101.666 -69 -150.999c0 -10 1.16699 -22.833 3.5 -38.5
s3.5 -26.834 3.5 -33.501c0 -49.333 -22.333 -74 -67 -74c-22 0 -40.5 10.667 -55.5 32s-22.5 46 -22.5 74c0 36 12.167 71.5 36.5 106.5s65.166 81.5 122.499 139.5l146 151c41.333 43.333 62 98.666 62 165.999v60c0 48 -11.167 77.833 -33.5 89.5s-72.5 17.5 -150.5 17.5
h-290c-50.667 0 -89.5 14.833 -116.5 44.5s-40.5 68.5 -40.5 116.5c0 60.667 12.333 128 37 202l29 85c4.66699 14 7 25.333 7 34c0 19.333 -12 35 -36 47l-56 27c-28.667 14 -43 33.667 -43 59c0 16 5.16699 39.667 15.5 71s21.166 55.333 32.499 72h25
c2.66699 -20.667 16.667 -36 42 -46l38 -15c42 -16.667 63 -42.334 63 -77.001c0 -4.66699 -14.333 -60.667 -43 -168l-14 -51c-9.33301 -36 -14 -62 -14 -78zM-16.998 1172c-20.667 0 -37.5 7.83301 -50.5 23.5s-19.5 35.167 -19.5 58.5c0 24 6.66699 43.667 20 59
s30 23 50 23c20.667 0 37.5 -7.83301 50.5 -23.5s19.5 -35.167 19.5 -58.5c0 -24 -6.66699 -43.667 -20 -59s-30 -23 -50 -23z" />
    <glyph glyph-name="lameddageshholam" horiz-adv-x="921" 
d="M-17 1172c-20.667 0 -37.5 7.83301 -50.5 23.5s-19.5 35.167 -19.5 58.5c0 24 6.66699 43.667 20 59s30 23 50 23c20.667 0 37.5 -7.83301 50.5 -23.5s19.5 -35.167 19.5 -58.5c0 -24 -6.66699 -43.667 -20 -59s-30 -23 -50 -23zM247 1137
c0 -32 9.16895 -53.498 27.502 -64.498s48.5 -16.5 90.5 -16.5h326c61.333 0 109 -15 143 -45c32.667 -30.667 49 -104 49 -220v-108c0 -87.333 -19.333 -152.333 -58 -195l-190 -213c-46 -51.333 -69 -101.666 -69 -150.999c0 -10 1.16699 -22.833 3.5 -38.5
s3.5 -26.834 3.5 -33.501c0 -49.333 -22.333 -74 -67 -74c-22 0 -40.5 10.667 -55.5 32s-22.5 46 -22.5 74c0 36 12.167 71.5 36.5 106.5s65.166 81.5 122.499 139.5l146 151c41.333 43.333 62 98.666 62 165.999v60c0 48 -11.167 77.833 -33.5 89.5s-72.5 17.5 -150.5 17.5
h-290c-50.667 0 -89.5 14.833 -116.5 44.5s-40.5 68.5 -40.5 116.5c0 60.667 12.333 128 37 202l29 85c4.66699 14 7 25.333 7 34c0 19.333 -12 35 -36 47l-56 27c-28.667 14 -43 33.667 -43 59c0 16 5.16699 39.667 15.5 71s21.166 55.333 32.499 72h25
c2.66699 -20.667 16.667 -36 42 -46l38 -15c42 -16.667 63 -42.334 63 -77.001c0 -4.66699 -14.333 -60.667 -43 -168l-14 -51c-9.33301 -36 -14 -62 -14 -78zM435.002 487.002c-20.667 0 -37.5 7.83301 -50.5 23.5s-19.5 35.167 -19.5 58.5c0 24 6.66699 43.667 20 59
s30 23 50 23c20.667 0 37.5 -7.83301 50.5 -23.5s19.5 -35.167 19.5 -58.5c0 -24 -6.66699 -43.667 -20 -59s-30 -23 -50 -23z" />
    <glyph glyph-name="tavrafe" horiz-adv-x="1026" 
d="M896 -17l-21.001 7.00293v484c0 74.667 -2.83301 131.167 -8.5 169.5s-13.167 65.166 -22.5 80.499s-25.333 32.666 -48 51.999c-32.667 25.333 -80 38 -142 38h-224l-29 -68c-41.333 -98.667 -62 -174.334 -62 -227.001c0 -57.333 4.33301 -113.666 13 -168.999
c23.333 -114 35 -189 35 -225v-7l-6 -118h-291l42 240h126l-6 160v28c0 121.333 24.667 224.666 74 309.999l45 76h-39c-48.667 0 -84.167 13.333 -106.5 40s-33.5 62.667 -33.5 108c0 63.333 20 118 60 164h29c12 -46.667 45.333 -70 100 -70h223
c154.667 0 254.334 -22 299.001 -66c44.667 -44.667 67 -142 67 -292v-591c0 -58 -24.667 -99.333 -74 -124zM827.999 1224h-388v94h388v-94z" />
    <glyph glyph-name="hatafsegol_meteg" 
d="M154 -575h-72v390h72v-390zM292 -587c-20.667 0 -37.5 7.83301 -50.5 23.5s-19.5 35.167 -19.5 58.5c0 24 6.66699 43.667 20 59s30 23 50 23s36.5 -7.83301 49.5 -23.5s19.5 -35.167 19.5 -58.5c0 -24 -6.5 -43.667 -19.5 -59s-29.5 -23 -49.5 -23zM292 -333
c-20.667 0 -37.5 7.83301 -50.5 23.5s-19.5 35.167 -19.5 58.5c0 24 6.66699 43.667 20 59s30 23 50 23s36.5 -7.83301 49.5 -23.5s19.5 -35.167 19.5 -58.5c0 -24 -6.5 -43.667 -19.5 -59s-29.5 -23 -49.5 -23zM-55 -169c20 0 36.5 -7.83301 49.5 -23.5
s19.5 -35.167 19.5 -58.5c0 -24 -6.5 -43.667 -19.5 -59s-29.5 -23 -49.5 -23c-20.667 0 -37.5 7.83301 -50.5 23.5s-19.5 35.167 -19.5 58.5c0 24 6.66699 43.667 20 59s30 23 50 23zM-173 -423c20 0 36.5 -7.83301 49.5 -23.5s19.5 -35.167 19.5 -58.5
c0 -24 -6.5 -43.667 -19.5 -59s-29.5 -23 -49.5 -23c-20.667 0 -37.5 7.83301 -50.5 23.5s-19.5 35.167 -19.5 58.5c0 24 6.66699 43.667 20 59s30 23 50 23zM-292 -169c20.667 0 37.5 -7.83301 50.5 -23.5s19.5 -35.167 19.5 -58.5c0 -24 -6.66699 -43.667 -20 -59
s-30 -23 -50 -23s-36.5 7.83301 -49.5 23.5s-19.5 35.167 -19.5 58.5c0 24 6.5 43.667 19.5 59s29.5 23 49.5 23z" />
    <glyph glyph-name="hatafpatah_meteg" 
d="M-26 -286h-300v94h300v-94zM118 -575h-72v390h72v-390zM256 -587c-20.667 0 -37.5 7.83301 -50.5 23.5s-19.5 35.167 -19.5 58.5c0 24 6.66699 43.667 20 59s30 23 50 23c20.667 0 37.5 -7.83301 50.5 -23.5s19.5 -35.167 19.5 -58.5c0 -24 -6.83301 -43.667 -20.5 -59
s-30.167 -23 -49.5 -23zM256 -333c-20.667 0 -37.5 7.83301 -50.5 23.5s-19.5 35.167 -19.5 58.5c0 24 6.66699 43.667 20 59s30 23 50 23c20.667 0 37.5 -7.83301 50.5 -23.5s19.5 -35.167 19.5 -58.5c0 -24 -6.83301 -43.667 -20.5 -59s-30.167 -23 -49.5 -23z" />
    <glyph glyph-name="hatafqamats_meteg" 
d="M-200 -284l-126 -0.000976562v94h296v-94h-127v-34v-3c0 -33.333 4.33301 -61.666 13 -84.999l35 -90c-13.333 -36.667 -29.666 -65 -48.999 -85c-15.333 -3.33301 -29.333 -3 -42 1c-20.667 17.333 -36.334 45.333 -47.001 84l35 90c8 17.333 12 45.333 12 84v3v35z
M118 -576.001h-72v390h72v-390zM257 -587.001c-20.667 0 -37.5 7.83301 -50.5 23.5s-19.5 35.167 -19.5 58.5c0 24 6.66699 43.667 20 59s30 23 50 23s36.5 -7.83301 49.5 -23.5s19.5 -35.167 19.5 -58.5c0 -24 -6.5 -43.667 -19.5 -59s-29.5 -23 -49.5 -23zM257 -333.001
c-20.667 0 -37.5 7.83301 -50.5 23.5s-19.5 35.167 -19.5 58.5c0 24 6.66699 43.667 20 59s30 23 50 23s36.5 -7.83301 49.5 -23.5s19.5 -35.167 19.5 -58.5c0 -24 -6.5 -43.667 -19.5 -59s-29.5 -23 -49.5 -23z" />
  </font>
</defs>
</svg>
