<?xml version="1.0" standalone="no"?>
<!DOCTYPE svg PUBLIC "-//W3C//DTD SVG 1.1//EN" "http://www.w3.org/Graphics/SVG/1.1/DTD/svg11.dtd" >
<svg xmlns="http://www.w3.org/2000/svg" xmlns:xlink="http://www.w3.org/1999/xlink" version="1.1">
<metadata>
Created by FontForge 20170910 at Fri Sep 28 14:01:49 2012
 By Jimmy Wärting
Digitized data copyright (c) 2010-2012 Google Corporation.
</metadata>
<defs>
<font id="Tinos" horiz-adv-x="0" >
  <font-face 
    font-family="Tinos"
    font-weight="400"
    font-stretch="normal"
    units-per-em="2048"
    panose-1="2 2 6 3 5 4 5 2 3 4"
    ascent="1638"
    descent="-410"
    x-height="940"
    cap-height="1341"
    bbox="-1114 -621 2618 2010"
    underline-thickness="100"
    underline-position="-273"
    unicode-range="U+0020-FFFC"
  />
<missing-glyph horiz-adv-x="1593" 
 />
    <glyph glyph-name=".notdef" horiz-adv-x="1593" 
 />
    <glyph glyph-name="null" 
 />
    <glyph glyph-name="nonmarkingreturn" horiz-adv-x="512" 
 />
    <glyph glyph-name="space" unicode=" " horiz-adv-x="512" 
 />
    <glyph glyph-name="space" unicode="&#xa0;" horiz-adv-x="512" 
 />
    <glyph glyph-name="exclam" unicode="!" horiz-adv-x="682" 
d="M461 92q0 -49 -34.5 -85t-86.5 -36t-86.5 36t-34.5 85q0 51 35 86t86 35t86 -35t35 -86zM231 1341h218l-62 -952h-94z" />
    <glyph glyph-name="quotedbl" unicode="&#x22;" horiz-adv-x="836" 
d="M512 1341h197l-62 -481h-74zM127 1341h197l-62 -481h-74z" />
    <glyph glyph-name="numbersign" unicode="#" horiz-adv-x="1024" 
d="M987 524v-102h-260l-78 -422h-104l78 422h-310l-77 -422h-105l78 422h-172v102h192l58 307h-250v103h268l76 407h104l-75 -407h309l76 407h104l-76 -407h164v-103h-182l-57 -307h239zM334 524h309l57 307h-309z" />
    <glyph glyph-name="dollar" unicode="$" horiz-adv-x="1024" 
d="M481 -20q-107 2 -222.5 24t-170.5 47v320h66l34 -191q31 -41 117.5 -77.5t175.5 -41.5v566q-119 41 -167 64.5t-86 52.5t-65.5 68t-42 89.5t-14.5 112.5q0 144 102.5 235t272.5 105v129h82v-127q153 -6 307 -43v-279h-65l-29 164q-30 28 -90.5 49t-122.5 25v-477l95 -34
q165 -61 234 -150.5t69 -223.5q0 -175 -107.5 -282.5t-290.5 -120.5v-140h-82v136zM791 330q0 94 -48.5 155t-179.5 111v-530q110 17 169 83t59 181zM274 1067q0 -59 19.5 -100.5t56.5 -72t131 -69.5v443q-100 -13 -153.5 -66t-53.5 -135z" />
    <glyph glyph-name="percent" unicode="%" horiz-adv-x="1706" 
d="M440 -20h-110l948 1382h111zM721 995q0 -372 -330 -372q-161 0 -241 95t-80 277q0 367 327 367q159 0 241.5 -92t82.5 -275zM565 995q0 152 -41.5 222.5t-132.5 70.5q-87 0 -126.5 -66.5t-39.5 -226.5q0 -164 40 -231.5t126 -67.5q90 0 132 71.5t42 227.5zM1636 346
q0 -373 -329 -373q-161 0 -241.5 95t-80.5 278q0 178 81 272.5t247 94.5q159 0 241 -92t82 -275zM1481 346q0 152 -41.5 222.5t-132.5 70.5q-87 0 -126.5 -66.5t-39.5 -226.5q0 -164 40 -231.5t126 -67.5q90 0 132 71.5t42 227.5z" />
    <glyph glyph-name="ampersand" unicode="&#x26;" horiz-adv-x="1593" 
d="M989 1083q0 -78 -33.5 -135t-94.5 -100.5t-204 -99.5l422 -384q97 198 103 363l-142 27v53h457v-53l-139 -27q-76 -265 -195 -441l228 -208l165 -25v-53h-344l-171 155q-104 -93 -217.5 -134t-248.5 -41q-248 0 -372.5 96.5t-124.5 279.5q0 97 36 167t98 119.5t196 100.5
q-151 146 -151 327q0 143 96 217.5t278 74.5q174 0 266 -71t92 -208zM602 66q217 0 370 153l-499 457q-105 -45 -152 -122t-47 -187q0 -145 84.5 -223t243.5 -78zM434 1090q0 -163 154 -279q97 36 139.5 70.5t64 84.5t21.5 124q0 192 -182 192q-105 0 -151 -48t-46 -144z
" />
    <glyph glyph-name="quotesingle" unicode="'" horiz-adv-x="369" 
d="M86 1341h197l-62 -481h-74z" />
    <glyph glyph-name="parenleft" unicode="(" horiz-adv-x="682" 
d="M283 494q0 -260 35 -414.5t110 -260.5t188 -171v-84q-198 105 -309.5 229.5t-164 293t-52.5 407.5q0 238 52 405.5t163 291.5t311 230v-84q-122 -70 -194 -179.5t-105.5 -255.5t-33.5 -408z" />
    <glyph glyph-name="parenright" unicode=")" horiz-adv-x="682" 
d="M66 -436v84q113 65 188 171.5t110 261t35 413.5q0 262 -33.5 408t-105.5 255.5t-194 179.5v84q200 -107 311 -230.5t163 -291t52 -405.5t-52 -406.5t-163 -292.5t-311 -231z" />
    <glyph glyph-name="asterisk" unicode="*" horiz-adv-x="1024" 
d="M100 1065l64 143l315 -194l-43 327h156l-47 -327l317 190l64 -141l-332 -98l332 -97l-64 -141l-317 188l47 -325h-156l43 328l-315 -195l-64 143l328 99z" />
    <glyph glyph-name="plus" unicode="+" horiz-adv-x="1155" 
d="M629 629v-426h-103v426h-424v102h424v426h103v-426h426v-102h-426z" />
    <glyph glyph-name="comma" unicode="," horiz-adv-x="512" 
d="M383 49q0 -137 -79.5 -229.5t-225.5 -134.5v77q176 56 176 168q0 20 -15 36t-52 35q-68 35 -68 99q0 54 34 82.5t87 28.5q64 0 103.5 -46t39.5 -116z" />
    <glyph glyph-name="hyphen" unicode="-" horiz-adv-x="682" 
d="M76 406v153h532v-153h-532z" />
    <glyph glyph-name="hyphen" unicode="&#xad;" horiz-adv-x="682" 
d="M76 406v153h532v-153h-532z" />
    <glyph glyph-name="period" unicode="." horiz-adv-x="512" 
d="M377 92q0 -49 -34.5 -85t-86.5 -36t-86.5 36t-34.5 85q0 51 35 86t86 35t86 -35t35 -86z" />
    <glyph glyph-name="slash" unicode="/" horiz-adv-x="569" 
d="M100 -20h-100l471 1370h98z" />
    <glyph glyph-name="zero" unicode="0" horiz-adv-x="1024" 
d="M946 676q0 -696 -440 -696q-212 0 -320 178t-108 518q0 333 108 509.5t328 176.5q212 0 322 -174.5t110 -511.5zM762 676q0 322 -61 464t-195 142q-130 0 -187 -134t-57 -472q0 -340 58 -478.5t186 -138.5q132 0 194 145.5t62 471.5z" />
    <glyph glyph-name="one" unicode="1" horiz-adv-x="1024" 
d="M627 80l274 -27v-53h-721v53l275 27v1094l-271 -97v53l391 222h52v-1272z" />
    <glyph glyph-name="two" unicode="2" horiz-adv-x="1024" 
d="M911 0h-821v147l186 169q179 157 263 254t120.5 200t36.5 236q0 130 -59 198t-193 68q-53 0 -109 -14.5t-99 -38.5l-35 -164h-66v258q182 43 309 43q220 0 330.5 -91.5t110.5 -258.5q0 -112 -43.5 -211.5t-133.5 -198t-298 -275.5q-89 -76 -189 -167h690v-154z" />
    <glyph glyph-name="three" unicode="3" horiz-adv-x="1024" 
d="M944 365q0 -181 -124 -283t-351 -102q-190 0 -360 43l-11 282h66l45 -188q39 -22 110.5 -38t133.5 -16q157 0 232 72t75 240q0 132 -69 200.5t-214 75.5l-143 8v82l143 9q113 6 167 70t54 194q0 135 -58.5 196.5t-186.5 61.5q-53 0 -111 -14.5t-102 -38.5l-35 -164h-66
v258q99 26 171 34.5t143 8.5q430 0 430 -330q0 -139 -76.5 -221.5t-216.5 -102.5q182 -21 268 -104.5t86 -232.5z" />
    <glyph glyph-name="four" unicode="4" horiz-adv-x="1024" 
d="M810 295v-295h-172v295h-598v133l655 920h115v-910h182v-143h-182zM638 1113h-5l-480 -675h485v675z" />
    <glyph glyph-name="five" unicode="5" horiz-adv-x="1024" 
d="M485 784q232 0 345.5 -95t113.5 -290q0 -202 -123 -310.5t-352 -108.5q-190 0 -339 43l-11 282h66l45 -188q44 -24 105.5 -39t117.5 -15q158 0 232.5 74.5t74.5 251.5q0 124 -32 187.5t-102 93.5t-188 30q-91 0 -178 -24h-96v665h680v-153h-590v-428q108 24 231 24z" />
    <glyph glyph-name="six" unicode="6" horiz-adv-x="1024" 
d="M963 416q0 -209 -105.5 -322.5t-304.5 -113.5q-226 0 -345.5 176t-119.5 506q0 216 63 373t176.5 239t262.5 82q146 0 291 -35v-231h-66l-35 137q-33 18 -89 31.5t-101 13.5q-146 0 -227.5 -141.5t-89.5 -413.5q163 86 327 86q177 0 270 -99.5t93 -287.5zM549 59
q121 0 175 78.5t54 259.5q0 164 -51.5 237t-163.5 73q-137 0 -291 -50q0 -305 69 -451.5t208 -146.5z" />
    <glyph glyph-name="seven" unicode="7" horiz-adv-x="1024" 
d="M201 1024h-66v317h830v-77l-598 -1264h-129l587 1188h-589z" />
    <glyph glyph-name="eight" unicode="8" horiz-adv-x="1024" 
d="M905 1014q0 -110 -53.5 -186.5t-144.5 -116.5q114 -42 176.5 -131.5t62.5 -217.5q0 -190 -107 -286t-333 -96q-428 0 -428 382q0 133 64 220.5t173 128.5q-87 40 -141.5 116t-54.5 187q0 166 101.5 257t293.5 91q186 0 288.5 -90.5t102.5 -257.5zM766 362
q0 160 -62.5 232t-197.5 72q-132 0 -190 -68.5t-58 -235.5q0 -169 59 -236t189 -67q133 0 196.5 69.5t63.5 233.5zM725 1014q0 138 -54 203t-163 65q-106 0 -157.5 -63t-51.5 -205q0 -139 50 -199.5t159 -60.5q112 0 164.5 61.5t52.5 198.5z" />
    <glyph glyph-name="nine" unicode="9" horiz-adv-x="1024" 
d="M66 932q0 202 113 313t319 111q229 0 335.5 -165t106.5 -517q0 -337 -137 -515.5t-385 -178.5q-163 0 -299 34v232h65l35 -144q32 -15 86 -27t109 -12q160 0 246 140.5t95 413.5q-152 -85 -309 -85q-177 0 -278.5 105.5t-101.5 294.5zM500 1276q-250 0 -250 -348
q0 -153 60 -226t186 -73q129 0 260 53q0 307 -60.5 450.5t-195.5 143.5z" />
    <glyph glyph-name="colon" unicode=":" horiz-adv-x="569" 
d="M403 92q0 -49 -34.5 -85t-85.5 -36q-52 0 -86.5 36t-34.5 85q0 51 35 86t86 35q50 0 85 -34.5t35 -86.5zM403 840q0 -51 -35 -86t-85 -35q-51 0 -86 35t-35 86q0 49 34.5 85t86.5 36q51 0 85.5 -36t34.5 -85z" />
    <glyph glyph-name="semicolon" unicode=";" horiz-adv-x="569" 
d="M403 840q0 -51 -35 -86t-85 -35q-51 0 -86 35t-35 86q0 49 34.5 85t86.5 36q51 0 85.5 -36t34.5 -85zM412 49q0 -137 -79.5 -229.5t-226.5 -134.5v77q177 56 177 168q0 21 -16 37t-52 34q-68 34 -68 99q0 54 34.5 82.5t86.5 28.5q64 0 104 -45.5t40 -116.5z" />
    <glyph glyph-name="semicolon" unicode="&#x37e;" horiz-adv-x="569" 
d="M403 840q0 -51 -35 -86t-85 -35q-51 0 -86 35t-35 86q0 49 34.5 85t86.5 36q51 0 85.5 -36t34.5 -85zM412 49q0 -137 -79.5 -229.5t-226.5 -134.5v77q177 56 177 168q0 21 -16 37t-52 34q-68 34 -68 99q0 54 34.5 82.5t86.5 28.5q64 0 104 -45.5t40 -116.5z" />
    <glyph glyph-name="less" unicode="&#x3c;" horiz-adv-x="1155" 
d="M102 655v50l953 469v-103l-809 -391l809 -391v-103z" />
    <glyph glyph-name="equal" unicode="=" horiz-adv-x="1155" 
d="M1055 526v-102h-953v102h953zM1055 936v-102h-953v102h953z" />
    <glyph glyph-name="greater" unicode="&#x3e;" horiz-adv-x="1155" 
d="M104 186v103l809 391l-809 391v103l953 -469v-50z" />
    <glyph glyph-name="question" unicode="?" horiz-adv-x="909" 
d="M440 350h-80l-26 334l143 29q86 17 125 87t39 204q0 147 -53 207.5t-187 60.5q-112 0 -194 -49l-35 -164h-66v254q158 43 295 43q424 0 424 -340q0 -163 -80.5 -262t-234.5 -131l-57 -13zM530 92q0 -49 -34.5 -85t-85.5 -36q-52 0 -86.5 36t-34.5 85q0 51 35 86t86 35
q50 0 85 -34.5t35 -86.5z" />
    <glyph glyph-name="at" unicode="@" horiz-adv-x="1886" 
d="M1458 -184q-141 -110 -284.5 -157.5t-309.5 -47.5q-225 0 -396.5 94.5t-265 266.5t-93.5 390q0 284 125.5 514t347 359t491.5 129q336 0 520.5 -161t184.5 -451q0 -190 -97 -357.5t-262 -268.5t-344 -101q-65 0 -65 51q0 50 8 125q-87 -87 -171 -131.5t-151 -44.5
q-72 0 -111.5 54.5t-39.5 145.5q0 119 30.5 232.5t86 201.5t139 149.5t163.5 84t210 22.5h36q38 0 86 -6l-114 -530q-8 -35 -15.5 -92t-7.5 -82q0 -37 18.5 -49.5t55.5 -12.5q116 0 212 81.5t152 226.5t56 299q0 252 -156 392t-430 140q-233 0 -419.5 -113.5t-294 -328
t-107.5 -475.5q0 -195 77.5 -347t224.5 -237.5t347 -85.5q148 0 272.5 38.5t257.5 133.5zM1139 807l-49 4q-130 0 -217.5 -44.5t-140 -176.5t-52.5 -281t80 -149q56 0 129.5 31t134.5 83z" />
    <glyph glyph-name="A" unicode="A" horiz-adv-x="1479" 
d="M461 53v-53h-441v53l152 27l457 1272h190l475 -1272l170 -27v-53h-567v53l180 27l-133 387h-528l-135 -387zM676 1208l-230 -651h467z" />
    <glyph glyph-name="B" unicode="B" horiz-adv-x="1366" 
d="M958 1016q0 123 -77 179t-250 56h-207v-507h219q162 0 238.5 64t76.5 208zM1059 382q0 141 -94 206.5t-301 65.5h-240v-564q138 -6 294 -6q171 0 256 72.5t85 225.5zM59 0v53l172 27v1182l-172 26v53h613q255 0 373 -75.5t118 -239.5q0 -118 -72.5 -201t-203.5 -111
q181 -19 280 -105.5t99 -222.5q0 -193 -133.5 -292.5t-389.5 -99.5l-428 6h-256z" />
    <glyph glyph-name="C" unicode="C" horiz-adv-x="1366" 
d="M774 -20q-326 0 -508 177.5t-182 497.5q0 346 175 523.5t519 177.5q209 0 449 -51l6 -293h-66l-30 174q-70 43 -162.5 66.5t-188.5 23.5q-257 0 -375 -151t-118 -468q0 -292 123.5 -446t359.5 -154q114 0 215 27.5t160 73.5l37 200h65l-6 -315q-220 -63 -473 -63z" />
    <glyph glyph-name="D" unicode="D" horiz-adv-x="1479" 
d="M1188 680q0 281 -151.5 426t-432.5 145h-180v-1157q120 -8 285 -8q246 0 362.5 145t116.5 449zM668 1341q371 0 550 -165.5t179 -497.5q0 -336 -172.5 -509t-515.5 -173l-478 4h-172v53l172 27v1182l-172 26v53h609z" />
    <glyph glyph-name="E" unicode="E" horiz-adv-x="1251" 
d="M59 53l172 27v1182l-172 26v53h1006v-321h-66l-32 217q-112 14 -324 14h-219v-524h362l31 160h64v-412h-64l-31 162h-362v-547h264q258 0 338 16l57 248h66l-19 -354h-1071v53z" />
    <glyph glyph-name="F" unicode="F" horiz-adv-x="1139" 
d="M424 602v-522l223 -27v-53h-575v53l159 27v1182l-172 26v53h1006v-321h-66l-32 217q-112 14 -324 14h-219v-559h395l31 160h61v-412h-61l-31 162h-395z" />
    <glyph glyph-name="G" unicode="G" horiz-adv-x="1479" 
d="M1284 70q-116 -38 -241 -64t-269 -26q-326 0 -508 176t-182 499q0 352 176.5 526.5t517.5 174.5q244 0 471 -60v-288h-67l-27 166q-69 49 -165.5 75.5t-203.5 26.5q-256 0 -374.5 -152.5t-118.5 -466.5q0 -295 122 -447.5t361 -152.5q84 0 176 20t140 48v381l-172 26v54
h495v-54l-131 -26v-436z" />
    <glyph glyph-name="H" unicode="H" horiz-adv-x="1479" 
d="M59 0v53l172 27v1182l-172 26v53h537v-53l-172 -26v-527h631v527l-172 26v53h536v-53l-172 -26v-1182l172 -27v-53h-536v53l172 27v565h-631v-565l172 -27v-53h-537z" />
    <glyph glyph-name="I" unicode="I" horiz-adv-x="682" 
d="M438 80l172 -27v-53h-536v53l172 27v1182l-172 26v53h536v-53l-172 -26v-1182z" />
    <glyph glyph-name="J" unicode="J" horiz-adv-x="797" 
d="M410 1262l-172 26v53h516v-53l-152 -26v-830q0 -134 -41 -234.5t-124.5 -159t-186.5 -58.5q-128 0 -207 30v244h66l30 -139q19 -23 54 -36t77 -13q140 0 140 190v1006z" />
    <glyph glyph-name="K" unicode="K" horiz-adv-x="1479" 
d="M1353 1341v-53l-155 -26l-458 -448l573 -734l145 -27v-53h-328l-525 678l-181 -145v-453l192 -27v-53h-557v53l172 27v1182l-172 26v53h537v-53l-172 -26v-632l642 632l-133 26v53h420z" />
    <glyph glyph-name="L" unicode="L" horiz-adv-x="1251" 
d="M631 1288l-207 -26v-1176h264q213 0 313 20l62 279h65l-18 -385h-1051v53l172 27v1182l-172 26v53h572v-53z" />
    <glyph glyph-name="M" unicode="M" horiz-adv-x="1821" 
d="M862 0h-35l-491 1153v-1073l180 -27v-53h-457v53l172 27v1182l-172 26v53h406l436 -1020l476 1020h384v-53l-172 -26v-1182l172 -27v-53h-544v53l180 27v1073z" />
    <glyph glyph-name="N" unicode="N" horiz-adv-x="1479" 
d="M1155 1262l-180 26v53h457v-53l-172 -26v-1262h-97l-827 1206v-1126l180 -27v-53h-457v53l172 27v1182l-172 26v53h406l690 -993v914z" />
    <glyph glyph-name="O" unicode="O" horiz-adv-x="1479" 
d="M293 672q0 -323 108 -468t338 -145q229 0 338 145t109 468q0 321 -108.5 462.5t-338.5 141.5q-231 0 -338.5 -141.5t-107.5 -462.5zM84 672q0 684 655 684q324 0 490 -173.5t166 -510.5q0 -342 -168 -517t-488 -175q-319 0 -487 174.5t-168 517.5z" />
    <glyph glyph-name="P" unicode="P" horiz-adv-x="1139" 
d="M858 944q0 165 -77 236t-259 71h-98v-635h104q169 0 249.5 77t80.5 251zM424 526v-446l213 -27v-53h-565v53l159 27v1182l-172 26v53h506q492 0 492 -395q0 -206 -124.5 -313t-357.5 -107h-151z" />
    <glyph glyph-name="Q" unicode="Q" horiz-adv-x="1479" 
d="M293 670q0 -323 108 -467t338 -144q229 0 338 143t109 468q0 323 -109.5 464.5t-337.5 141.5q-230 0 -338 -142.5t-108 -463.5zM84 670q0 686 655 686q322 0 489 -173.5t167 -512.5q0 -491 -355 -637l50 -62q88 -110 150 -157t122 -47l82 4v-66q-23 -10 -86.5 -23.5
t-110.5 -13.5q-71 0 -126 23.5t-111 75t-187 217.5q-36 -4 -84 -4q-321 0 -488 175.5t-167 514.5z" />
    <glyph glyph-name="R" unicode="R" horiz-adv-x="1366" 
d="M424 588v-508l203 -27v-53h-555v53l159 27v1182l-172 26v53h579q252 0 372 -85t120 -273q0 -134 -73 -231.5t-202 -135.5l363 -536l145 -27v-53h-321l-377 588h-241zM931 969q0 153 -74.5 217.5t-261.5 64.5h-171v-573h177q179 0 254.5 66.5t75.5 224.5z" />
    <glyph glyph-name="S" unicode="S" horiz-adv-x="1139" 
d="M139 361h65l35 -181q37 -47 127.5 -83t178.5 -36q140 0 218.5 71.5t78.5 197.5q0 72 -30.5 119t-80 79.5t-112.5 55t-129.5 45.5t-129.5 51t-112.5 71t-80 106.5t-30.5 156.5q0 160 120 251t333 91q162 0 352 -43v-279h-65l-35 164q-102 74 -252 74q-134 0 -209.5 -54.5
t-75.5 -150.5q0 -65 30.5 -108t80 -73.5t113 -52.5t130 -45.5t130 -53t113 -75t80 -111t30.5 -161.5q0 -194 -119 -300.5t-343 -106.5q-108 0 -217 19t-194 52v310z" />
    <glyph glyph-name="T" unicode="T" horiz-adv-x="1251" 
d="M315 0v53l213 27v1175h-51q-253 0 -346 -20l-27 -209h-67v315h1180v-315h-68l-27 209q-30 7 -131 12.5t-221 5.5h-49v-1173l213 -27v-53h-619z" />
    <glyph glyph-name="U" unicode="U" horiz-adv-x="1479" 
d="M1159 1262l-180 26v53h457v-53l-172 -26v-801q0 -241 -132.5 -361t-384.5 -120q-267 0 -399.5 120.5t-132.5 341.5v820l-172 26v53h536v-53l-172 -26v-805q0 -365 355 -365q192 0 294.5 91t102.5 270v809z" />
    <glyph glyph-name="V" unicode="V" horiz-adv-x="1479" 
d="M1456 1341v-53l-147 -26l-539 -1293h-51l-545 1293l-151 26v53h542v-53l-180 -26l406 -987l405 987l-176 26v53h436z" />
    <glyph glyph-name="W" unicode="W" horiz-adv-x="1933" 
d="M1374 -31h-53l-348 924l-357 -924h-53l-444 1293l-117 26v53h512v-53l-197 -26l319 -945l361 930h45l348 -930l304 945l-209 26v53h444v-53l-117 -26z" />
    <glyph glyph-name="X" unicode="X" horiz-adv-x="1479" 
d="M317 80l166 -27v-53h-438v53l148 27l456 606l-389 576l-151 26v53h553v-53l-170 -26l278 -414l311 414l-166 26v53h439v-53l-148 -26l-377 -502l461 -680l152 -27v-53h-553v53l170 27l-352 520z" />
    <glyph glyph-name="Y" unicode="Y" horiz-adv-x="1479" 
d="M838 528v-448l213 -27v-53h-619v53l213 27v442l-471 740l-151 26v53h567v-53l-180 -26l385 -619l366 619l-170 26v53h436v-53l-147 -26z" />
    <glyph glyph-name="Z" unicode="Z" horiz-adv-x="1251" 
d="M98 94l752 1161h-250q-247 0 -340 -20l-31 -211h-69v317h913v-86l-757 -1171h290q116 0 235.5 11t168.5 22l59 256h70l-27 -373h-1014v94z" />
    <glyph glyph-name="bracketleft" unicode="[" horiz-adv-x="682" 
d="M152 -274v1695h456v-47l-297 -41v-1519l297 -41v-47h-456z" />
    <glyph glyph-name="backslash" unicode="\" horiz-adv-x="569" 
d="M0 1350h98l471 -1370h-100z" />
    <glyph glyph-name="bracketright" unicode="]" horiz-adv-x="682" 
d="M74 -274v47l297 41v1519l-297 41v47h456v-1695h-456z" />
    <glyph glyph-name="asciicircum" unicode="^" horiz-adv-x="961" 
d="M457 1341h49l428 -952h-103l-350 809l-350 -809h-102z" />
    <glyph glyph-name="underscore" unicode="_" horiz-adv-x="1024" 
d="M-16 -264v102h1056v-102h-1056z" />
    <glyph glyph-name="grave" unicode="`" horiz-adv-x="682" 
d="M473 1119l-354 268v37h213l196 -272v-33h-55z" />
    <glyph glyph-name="a" unicode="a" horiz-adv-x="909" 
d="M465 961q154 0 226.5 -63t72.5 -193v-635l117 -25v-45h-258l-19 94q-114 -114 -291 -114q-241 0 -241 280q0 94 36.5 155.5t116.5 94t232 35.5l141 4v147q0 97 -35.5 143t-109.5 46q-100 0 -183 -47l-34 -117h-56v205q162 35 285 35zM598 479l-131 -4q-134 -5 -181.5 -52
t-47.5 -157q0 -176 143 -176q68 0 117.5 15.5t99.5 39.5v334z" />
    <glyph glyph-name="b" unicode="b" horiz-adv-x="1024" 
d="M766 496q0 184 -64 274t-198 90q-59 0 -117 -10.5t-84 -22.5v-745q84 -16 201 -16q138 0 200 108t62 322zM137 1352l-137 24v45h303v-336q0 -54 -6 -198q100 78 252 78q192 0 294.5 -116.5t102.5 -352.5q0 -253 -112.5 -384.5t-325.5 -131.5q-86 0 -189.5 19t-181.5 50
v1303z" />
    <glyph glyph-name="c" unicode="c" horiz-adv-x="909" 
d="M846 57q-49 -36 -135 -56.5t-176 -20.5q-457 0 -457 497q0 235 116.5 361.5t333.5 126.5q135 0 295 -31v-262h-55l-43 166q-83 47 -199 47q-268 0 -268 -408q0 -212 81.5 -302.5t252.5 -90.5q146 0 254 33v-60z" />
    <glyph glyph-name="d" unicode="d" horiz-adv-x="1024" 
d="M723 70q-113 -90 -264 -90q-385 0 -385 481q0 247 109 375.5t321 128.5q108 0 219 -23q-6 33 -6 166v244l-158 24v45h324v-1351l116 -25v-45h-264zM254 461q0 -190 64 -283.5t196 -93.5q113 0 203 39v743q-89 17 -203 17q-260 0 -260 -422z" />
    <glyph glyph-name="e" unicode="e" horiz-adv-x="909" 
d="M260 473v-18q0 -138 30.5 -214.5t94 -116.5t166.5 -40q54 0 128 9t122 20v-56q-48 -31 -130.5 -54t-168.5 -23q-219 0 -320.5 118t-101.5 379q0 246 103 367t294 121q361 0 361 -410v-82h-578zM477 885q-104 0 -159.5 -84t-55.5 -248h402q0 179 -46 255.5t-141 76.5z" />
    <glyph glyph-name="f" unicode="f" horiz-adv-x="682" 
d="M225 856h-162v49l162 39v66q0 208 82.5 320t231.5 112q77 0 143 -19v-205h-49l-45 123q-34 21 -82 21q-63 0 -89 -56t-26 -210v-156h250v-84h-250v-778l203 -33v-45h-508v45l139 33v778z" />
    <glyph glyph-name="g" unicode="g" horiz-adv-x="1024" 
d="M870 643q0 -162 -97 -245t-279 -83q-82 0 -152 15l-63 -131q3 -17 39 -32t90 -15h278q152 0 225.5 -66t73.5 -182q0 -105 -58.5 -183t-171.5 -120.5t-274 -42.5q-192 0 -292.5 59t-100.5 168q0 53 36 104.5t132 120.5q-57 19 -96 65t-39 99l158 178q-158 74 -158 291
q0 154 97.5 238t283.5 84q37 0 95 -7.5t89 -17.5l221 111l35 -43l-139 -144q67 -75 67 -221zM829 -127q0 57 -35 89t-106 32h-364q-42 -36 -68.5 -91.5t-26.5 -103.5q0 -86 62 -123.5t190 -37.5q167 0 257.5 62t90.5 173zM496 391q109 0 154.5 62.5t45.5 189.5
q0 133 -47 189.5t-151 56.5q-105 0 -154 -57t-49 -189t48 -192t153 -60z" />
    <glyph glyph-name="h" unicode="h" horiz-adv-x="1024" 
d="M326 1014q0 -104 -7 -150q72 41 163.5 71t154.5 30q122 0 184 -71t62 -206v-618l114 -25v-45h-405v45l125 25v606q0 172 -166 172q-94 0 -225 -29v-749l127 -25v-45h-412v45l119 25v1282l-140 24v45h306v-407z" />
    <glyph glyph-name="i" unicode="i" horiz-adv-x="569" 
d="M379 1247q0 -44 -32 -76t-77 -32q-44 0 -76 32t-32 76q0 45 32 77t76 32q45 0 77 -32t32 -77zM369 70l161 -25v-45h-487v45l160 25v800l-133 25v45h299v-870z" />
    <glyph glyph-name="j" unicode="j" horiz-adv-x="569" 
d="M393 1247q0 -44 -32 -76t-76 -32q-45 0 -77 32t-32 76q0 45 32 77t77 32q44 0 76 -32t32 -77zM383 -39q0 -195 -75.5 -296t-221.5 -101q-62 0 -145 18v199h47l27 -109q33 -28 83 -28q59 0 89 63t30 203v960l-141 25v45h307v-979z" />
    <glyph glyph-name="k" unicode="k" horiz-adv-x="1024" 
d="M344 453l385 415l-98 27v45h332v-45l-117 -23l-268 -274l344 -530l102 -23v-45h-385v45l86 25l-258 405l-123 -135v-270l100 -25v-45h-385v45l119 25v1282l-139 24v45h305v-968z" />
    <glyph glyph-name="l" unicode="l" horiz-adv-x="569" 
d="M367 70l161 -25v-45h-487v45l160 25v1282l-160 24v45h326v-1351z" />
    <glyph glyph-name="m" unicode="m" horiz-adv-x="1593" 
d="M326 864q75 43 159 72t148 29q69 0 127.5 -26t87.5 -83q77 43 180.5 76t171.5 33q240 0 240 -277v-618l121 -25v-45h-427v45l140 25v600q0 172 -160 172q-26 0 -60.5 -4t-69 -9t-66 -11.5t-52.5 -10.5q17 -54 17 -119v-618l141 -25v-45h-446v45l139 25v600
q0 83 -42.5 127.5t-127.5 44.5q-88 0 -219 -29v-743l141 -25v-45h-426v45l119 25v800l-119 25v45h275z" />
    <glyph glyph-name="n" unicode="n" horiz-adv-x="1024" 
d="M324 864q77 44 164 72.5t145 28.5q122 0 184 -71t62 -206v-618l114 -25v-45h-405v45l125 25v600q0 83 -40.5 130.5t-125.5 47.5q-90 0 -221 -29v-749l127 -25v-45h-406v45l113 25v800l-113 25v45h268z" />
    <glyph glyph-name="o" unicode="o" horiz-adv-x="1024" 
d="M946 475q0 -495 -440 -495q-212 0 -320 127t-108 368q0 238 108 364t328 126q214 0 323 -123.5t109 -366.5zM766 475q0 216 -63 313t-197 97q-131 0 -189.5 -93t-58.5 -317q0 -227 59.5 -321.5t188.5 -94.5q132 0 196 98t64 318z" />
    <glyph glyph-name="p" unicode="p" horiz-adv-x="1024" 
d="M152 870l-107 25v45h264l2 -55q42 36 112.5 58t143.5 22q180 0 278.5 -125t98.5 -359q0 -239 -107.5 -370t-310.5 -131q-113 0 -215 22q6 -72 6 -113v-254l164 -24v-47h-448v47l119 24v1235zM764 481q0 192 -62.5 285.5t-189.5 93.5q-117 0 -195 -33v-751q89 -17 195 -17
q252 0 252 422z" />
    <glyph glyph-name="q" unicode="q" horiz-adv-x="1024" 
d="M813 985h70v-1350l104 -24v-47h-399v47l129 24v261q0 97 10 167q-107 -83 -268 -83q-385 0 -385 487q0 241 108.5 369.5t317.5 128.5q112 0 223 -23zM254 467q0 -191 63.5 -287t196.5 -96q59 0 116.5 10t86.5 23v749q-89 17 -203 17q-260 0 -260 -416z" />
    <glyph glyph-name="r" unicode="r" horiz-adv-x="682" 
d="M664 965v-254h-43l-58 110q-50 0 -118.5 -13.5t-118.5 -35.5v-702l161 -25v-45h-446v45l119 25v800l-119 25v45h274l9 -117q60 50 162.5 96t162.5 46h15z" />
    <glyph glyph-name="s" unicode="s" horiz-adv-x="797" 
d="M723 264q0 -140 -88.5 -212t-261.5 -72q-70 0 -154.5 14.5t-132.5 32.5v231h45l49 -131q75 -68 195 -68q194 0 194 166q0 122 -153 174l-89 29q-101 33 -147 67t-71 83.5t-25 119.5q0 124 84.5 195.5t228.5 71.5q103 0 258 -31v-205h-47l-42 109q-53 47 -167 47
q-81 0 -123.5 -40t-42.5 -108q0 -57 38.5 -96t116.5 -65q147 -50 192 -73t76.5 -56.5t49 -76.5t17.5 -106z" />
    <glyph glyph-name="t" unicode="t" horiz-adv-x="569" 
d="M334 -20q-96 0 -143.5 57t-47.5 160v659h-123v45l125 39l101 213h63v-213h215v-84h-215v-641q0 -65 29.5 -98t77.5 -33q58 0 141 16v-65q-35 -24 -101 -39.5t-122 -15.5z" />
    <glyph glyph-name="u" unicode="u" horiz-adv-x="1024" 
d="M313 268q0 -172 160 -172q124 0 232 31v743l-142 25v45h307v-870l119 -25v-45h-274l-8 76q-71 -39 -164 -67.5t-156 -28.5q-240 0 -240 276v614l-120 25v45h286v-672z" />
    <glyph glyph-name="v" unicode="v" horiz-adv-x="1024" 
d="M557 -20h-74l-387 890l-96 25v45h438v-45l-149 -27l274 -649l262 651l-149 25v45h348v-45l-90 -21z" />
    <glyph glyph-name="w" unicode="w" horiz-adv-x="1479" 
d="M1051 -20h-78l-232 620l-229 -620h-74l-325 890l-111 25v45h447v-45l-156 -27l223 -635l227 613h84l226 -617l213 641l-154 25v45h358v-45l-104 -21z" />
    <glyph glyph-name="x" unicode="x" horiz-adv-x="1024" 
d="M999 45v-45h-426v45l125 23l-217 333l-254 -335l129 -21v-45h-338v45l109 16l309 408l-272 401l-111 25v45h426v-45l-125 -27l181 -270l208 272l-129 25v45h338v-45l-108 -21l-264 -342l309 -466z" />
    <glyph glyph-name="y" unicode="y" horiz-adv-x="1024" 
d="M199 -442q-78 0 -154 18v203h47l33 -96q31 -23 86 -23q52 0 96 30t80.5 89t91.5 211l-358 880l-96 25v45h436v-45l-148 -27l254 -657l246 659l-147 25v45h350v-45l-98 -21l-367 -933q-65 -165 -113 -237t-106 -109t-133 -37z" />
    <glyph glyph-name="z" unicode="z" horiz-adv-x="909" 
d="M55 0v45l516 815h-221q-56 0 -108 -9.5t-72 -25.5l-31 -135h-47v250h694v-49l-516 -811h275q57 0 120 13.5t89 33.5l51 197h47l-25 -324h-772z" />
    <glyph glyph-name="braceleft" unicode="{" horiz-adv-x="983" 
d="M662 -274q-126 0 -193.5 77t-67.5 217v295q0 117 -52.5 175.5t-162.5 62.5v45q215 4 215 236v294q0 141 65 217t196 76h135v-47h-62q-91 0 -129.5 -54.5t-38.5 -160.5v-330q0 -95 -52 -163.5t-140 -87.5v-3q89 -21 140.5 -88.5t51.5 -164.5v-334q0 -106 38.5 -160.5
t129.5 -54.5h62v-47h-135z" />
    <glyph glyph-name="bar" unicode="|" horiz-adv-x="410" 
d="M154 -442v1863h102v-1863h-102z" />
    <glyph glyph-name="braceright" unicode="}" horiz-adv-x="983" 
d="M186 -274v47h62q91 0 129.5 54.5t38.5 160.5v334q0 97 51 164.5t141 88.5v3q-88 19 -140 88t-52 163v330q0 106 -38.5 160.5t-129.5 54.5h-62v47h136q130 0 195 -76t65 -217v-294q0 -232 215 -236v-45q-108 -4 -161.5 -62t-53.5 -176v-295q0 -139 -67.5 -216.5
t-192.5 -77.5h-136z" />
    <glyph glyph-name="asciitilde" unicode="~" horiz-adv-x="1108" 
d="M780 502q-106 0 -245 121q-74 63 -122.5 91.5t-86.5 28.5q-77 0 -116 -54.5t-52 -186.5h-101q18 187 84.5 265.5t184.5 78.5q56 0 115.5 -29t134.5 -92q86 -72 127.5 -96.5t76.5 -24.5q69 0 108 52.5t58 189.5h103q-17 -130 -49 -199t-85 -107t-135 -38z" />
    <glyph glyph-name="Adieresis" unicode="&#xc4;" horiz-adv-x="1479" 
d="M461 53v-53h-441v53l152 27l457 1272h190l475 -1272l170 -27v-53h-567v53l180 27l-133 387h-528l-135 -387zM676 1208l-230 -651h467zM1003 1559q0 -42 -28 -71.5t-70 -29.5t-71 31t-29 70q0 42 29 71t71 29t70 -29t28 -71zM647 1559q0 -42 -28 -71.5t-70 -29.5
q-41 0 -71 30t-30 71q0 42 31 71t70 29q42 0 70 -29t28 -71z" />
    <glyph glyph-name="Aring" unicode="&#xc5;" horiz-adv-x="1479" 
d="M461 53v-53h-441v53l152 27l457 1272h190l475 -1272l170 -27v-53h-567v53l180 27l-133 387h-528l-135 -387zM676 1208l-230 -651h467zM925 1476q0 -84 -59.5 -143.5t-143.5 -59.5t-143.5 59.5t-59.5 143.5t59.5 143.5t143.5 59.5t143.5 -59.5t59.5 -143.5zM845 1476
q0 51 -36 87t-87 36t-87 -36t-36 -87q0 -52 37 -87.5t86 -35.5q48 0 85.5 35t37.5 88z" />
    <glyph glyph-name="Ccedilla" unicode="&#xc7;" horiz-adv-x="1366" 
d="M774 -20q-326 0 -508 177.5t-182 497.5q0 346 175 523.5t519 177.5q209 0 449 -51l6 -293h-66l-30 174q-70 43 -162.5 66.5t-188.5 23.5q-257 0 -375 -151t-118 -468q0 -292 123.5 -446t359.5 -154q114 0 215 27.5t160 73.5l37 200h65l-6 -315q-220 -63 -473 -63z
M957 -234q0 -92 -69.5 -147t-177.5 -55q-76 0 -138 22v74q22 -7 60 -11.5t60 -4.5q60 0 87 29.5t27 74.5q0 49 -40 80t-112 37l41 153h86l-18 -82q91 -9 142.5 -53t51.5 -117z" />
    <glyph glyph-name="Eacute" unicode="&#xc9;" horiz-adv-x="1251" 
d="M59 53l172 27v1182l-172 26v53h1006v-321h-66l-32 217q-112 14 -324 14h-219v-524h362l31 160h64v-412h-64l-31 162h-362v-547h264q258 0 338 16l57 248h66l-19 -354h-1071v53zM470 1453v33l196 272h213v-37l-354 -268h-55z" />
    <glyph glyph-name="Ntilde" unicode="&#xd1;" horiz-adv-x="1479" 
d="M1155 1262l-180 26v53h457v-53l-172 -26v-1262h-97l-827 1206v-1126l180 -27v-53h-457v53l172 27v1182l-172 26v53h406l690 -993v914zM879 1452q-48 0 -88.5 21.5t-76.5 48t-69.5 48t-66.5 21.5q-32 0 -51.5 -12t-30.5 -34.5t-18 -72.5h-52q15 242 195 242
q48 0 88.5 -21.5t77 -48t70 -48t65.5 -21.5q43 0 67 25t33 93h52q-15 -241 -195 -241z" />
    <glyph glyph-name="Odieresis" unicode="&#xd6;" horiz-adv-x="1479" 
d="M293 672q0 -323 108 -468t338 -145q229 0 338 145t109 468q0 321 -108.5 462.5t-338.5 141.5q-231 0 -338.5 -141.5t-107.5 -462.5zM84 672q0 684 655 684q324 0 490 -173.5t166 -510.5q0 -342 -168 -517t-488 -175q-319 0 -487 174.5t-168 517.5zM1013 1559
q0 -42 -28 -71.5t-70 -29.5t-71 31t-29 70q0 42 29 71t71 29t70 -29t28 -71zM657 1559q0 -42 -28 -71.5t-70 -29.5q-41 0 -71 30t-30 71q0 42 31 71t70 29q42 0 70 -29t28 -71z" />
    <glyph glyph-name="Udieresis" unicode="&#xdc;" horiz-adv-x="1479" 
d="M1159 1262l-180 26v53h457v-53l-172 -26v-801q0 -241 -132.5 -361t-384.5 -120q-267 0 -399.5 120.5t-132.5 341.5v820l-172 26v53h536v-53l-172 -26v-805q0 -365 355 -365q192 0 294.5 91t102.5 270v809zM1017 1559q0 -42 -28 -71.5t-70 -29.5t-71 31t-29 70q0 42 29 71
t71 29t70 -29t28 -71zM661 1559q0 -42 -28 -71.5t-70 -29.5q-41 0 -71 30t-30 71q0 42 31 71t70 29q42 0 70 -29t28 -71z" />
    <glyph glyph-name="aacute" unicode="&#xe1;" horiz-adv-x="909" 
d="M465 961q154 0 226.5 -63t72.5 -193v-635l117 -25v-45h-258l-19 94q-114 -114 -291 -114q-241 0 -241 280q0 94 36.5 155.5t116.5 94t232 35.5l141 4v147q0 97 -35.5 143t-109.5 46q-100 0 -183 -47l-34 -117h-56v205q162 35 285 35zM598 479l-131 -4q-134 -5 -181.5 -52
t-47.5 -157q0 -176 143 -176q68 0 117.5 15.5t99.5 39.5v334zM342 1119v33l196 272h213v-37l-354 -268h-55z" />
    <glyph glyph-name="agrave" unicode="&#xe0;" horiz-adv-x="909" 
d="M465 961q154 0 226.5 -63t72.5 -193v-635l117 -25v-45h-258l-19 94q-114 -114 -291 -114q-241 0 -241 280q0 94 36.5 155.5t116.5 94t232 35.5l141 4v147q0 97 -35.5 143t-109.5 46q-100 0 -183 -47l-34 -117h-56v205q162 35 285 35zM598 479l-131 -4q-134 -5 -181.5 -52
t-47.5 -157q0 -176 143 -176q68 0 117.5 15.5t99.5 39.5v334zM544 1119l-354 268v37h213l196 -272v-33h-55z" />
    <glyph glyph-name="acircumflex" unicode="&#xe2;" horiz-adv-x="909" 
d="M465 961q154 0 226.5 -63t72.5 -193v-635l117 -25v-45h-258l-19 94q-114 -114 -291 -114q-241 0 -241 280q0 94 36.5 155.5t116.5 94t232 35.5l141 4v147q0 97 -35.5 143t-109.5 46q-100 0 -183 -47l-34 -117h-56v205q162 35 285 35zM598 479l-131 -4q-134 -5 -181.5 -52
t-47.5 -157q0 -176 143 -176q68 0 117.5 15.5t99.5 39.5v334zM143 1119v33l218 273h213l217 -273v-33h-56l-268 183l-268 -183h-56z" />
    <glyph glyph-name="adieresis" unicode="&#xe4;" horiz-adv-x="909" 
d="M465 961q154 0 226.5 -63t72.5 -193v-635l117 -25v-45h-258l-19 94q-114 -114 -291 -114q-241 0 -241 280q0 94 36.5 155.5t116.5 94t232 35.5l141 4v147q0 97 -35.5 143t-109.5 46q-100 0 -183 -47l-34 -117h-56v205q162 35 285 35zM598 479l-131 -4q-134 -5 -181.5 -52
t-47.5 -157q0 -176 143 -176q68 0 117.5 15.5t99.5 39.5v334zM733 1194q0 -42 -28 -71.5t-70 -29.5t-71 31t-29 70q0 42 29 71t71 29t70 -29t28 -71zM377 1194q0 -42 -28 -71.5t-70 -29.5q-41 0 -71 30t-30 71q0 42 31 71t70 29q42 0 70 -29t28 -71z" />
    <glyph glyph-name="atilde" unicode="&#xe3;" horiz-adv-x="909" 
d="M465 961q154 0 226.5 -63t72.5 -193v-635l117 -25v-45h-258l-19 94q-114 -114 -291 -114q-241 0 -241 280q0 94 36.5 155.5t116.5 94t232 35.5l141 4v147q0 97 -35.5 143t-109.5 46q-100 0 -183 -47l-34 -117h-56v205q162 35 285 35zM598 479l-131 -4q-134 -5 -181.5 -52
t-47.5 -157q0 -176 143 -176q68 0 117.5 15.5t99.5 39.5v334zM586 1118q-48 0 -88.5 21.5t-76.5 48t-69.5 48t-66.5 21.5q-32 0 -51.5 -12t-30.5 -34.5t-18 -72.5h-52q15 242 195 242q48 0 88.5 -21.5t77 -48t70 -48t65.5 -21.5q43 0 67 25t33 93h52q-15 -241 -195 -241z
" />
    <glyph glyph-name="aring" unicode="&#xe5;" horiz-adv-x="909" 
d="M465 961q154 0 226.5 -63t72.5 -193v-635l117 -25v-45h-258l-19 94q-114 -114 -291 -114q-241 0 -241 280q0 94 36.5 155.5t116.5 94t232 35.5l141 4v147q0 97 -35.5 143t-109.5 46q-100 0 -183 -47l-34 -117h-56v205q162 35 285 35zM598 479l-131 -4q-134 -5 -181.5 -52
t-47.5 -157q0 -176 143 -176q68 0 117.5 15.5t99.5 39.5v334zM674 1280q0 -84 -59.5 -143.5t-143.5 -59.5t-143.5 59.5t-59.5 143.5t59.5 143.5t143.5 59.5t143.5 -59.5t59.5 -143.5zM594 1280q0 51 -36 87t-87 36t-87 -36t-36 -87q0 -52 37 -87.5t86 -35.5q48 0 85.5 35
t37.5 88z" />
    <glyph glyph-name="ccedilla" unicode="&#xe7;" horiz-adv-x="909" 
d="M846 57q-49 -36 -135 -56.5t-176 -20.5q-457 0 -457 497q0 235 116.5 361.5t333.5 126.5q135 0 295 -31v-262h-55l-43 166q-83 47 -199 47q-268 0 -268 -408q0 -212 81.5 -302.5t252.5 -90.5q146 0 254 33v-60zM706 -234q0 -92 -69.5 -147t-177.5 -55q-76 0 -138 22v74
q22 -7 60 -11.5t60 -4.5q60 0 87 29.5t27 74.5q0 49 -40 80t-112 37l41 153h86l-18 -82q91 -9 142.5 -53t51.5 -117z" />
    <glyph glyph-name="eacute" unicode="&#xe9;" horiz-adv-x="909" 
d="M260 473v-18q0 -138 30.5 -214.5t94 -116.5t166.5 -40q54 0 128 9t122 20v-56q-48 -31 -130.5 -54t-168.5 -23q-219 0 -320.5 118t-101.5 379q0 246 103 367t294 121q361 0 361 -410v-82h-578zM477 885q-104 0 -159.5 -84t-55.5 -248h402q0 179 -46 255.5t-141 76.5z
M382 1119v33l196 272h213v-37l-354 -268h-55z" />
    <glyph glyph-name="egrave" unicode="&#xe8;" horiz-adv-x="909" 
d="M260 473v-18q0 -138 30.5 -214.5t94 -116.5t166.5 -40q54 0 128 9t122 20v-56q-48 -31 -130.5 -54t-168.5 -23q-219 0 -320.5 118t-101.5 379q0 246 103 367t294 121q361 0 361 -410v-82h-578zM477 885q-104 0 -159.5 -84t-55.5 -248h402q0 179 -46 255.5t-141 76.5z
M594 1119l-354 268v37h213l196 -272v-33h-55z" />
    <glyph glyph-name="ecircumflex" unicode="&#xea;" horiz-adv-x="909" 
d="M260 473v-18q0 -138 30.5 -214.5t94 -116.5t166.5 -40q54 0 128 9t122 20v-56q-48 -31 -130.5 -54t-168.5 -23q-219 0 -320.5 118t-101.5 379q0 246 103 367t294 121q361 0 361 -410v-82h-578zM477 885q-104 0 -159.5 -84t-55.5 -248h402q0 179 -46 255.5t-141 76.5z
M151 1119v33l218 273h213l217 -273v-33h-56l-268 183l-268 -183h-56z" />
    <glyph glyph-name="edieresis" unicode="&#xeb;" horiz-adv-x="909" 
d="M260 473v-18q0 -138 30.5 -214.5t94 -116.5t166.5 -40q54 0 128 9t122 20v-56q-48 -31 -130.5 -54t-168.5 -23q-219 0 -320.5 118t-101.5 379q0 246 103 367t294 121q361 0 361 -410v-82h-578zM477 885q-104 0 -159.5 -84t-55.5 -248h402q0 179 -46 255.5t-141 76.5z
M743 1194q0 -42 -28 -71.5t-70 -29.5t-71 31t-29 70q0 42 29 71t71 29t70 -29t28 -71zM387 1194q0 -42 -28 -71.5t-70 -29.5q-41 0 -71 30t-30 71q0 42 31 71t70 29q42 0 70 -29t28 -71z" />
    <glyph glyph-name="iacute" unicode="&#xed;" horiz-adv-x="569" 
d="M369 70l161 -25v-45h-487v45l160 25v800l-133 25v45h299v-870zM138 1119v33l196 272h213v-37l-354 -268h-55z" />
    <glyph glyph-name="igrave" unicode="&#xec;" horiz-adv-x="569" 
d="M369 70l161 -25v-45h-487v45l160 25v800l-133 25v45h299v-870zM376 1119l-354 268v37h213l196 -272v-33h-55z" />
    <glyph glyph-name="icircumflex" unicode="&#xee;" horiz-adv-x="569" 
d="M369 70l161 -25v-45h-487v45l160 25v800l-133 25v45h299v-870zM-40 1119v33l218 273h213l217 -273v-33h-56l-268 183l-268 -183h-56z" />
    <glyph glyph-name="idieresis" unicode="&#xef;" horiz-adv-x="569" 
d="M369 70l161 -25v-45h-487v45l160 25v800l-133 25v45h299v-870zM549 1194q0 -42 -28 -71.5t-70 -29.5t-71 31t-29 70q0 42 29 71t71 29t70 -29t28 -71zM193 1194q0 -42 -28 -71.5t-70 -29.5q-41 0 -71 30t-30 71q0 42 31 71t70 29q42 0 70 -29t28 -71z" />
    <glyph glyph-name="ntilde" unicode="&#xf1;" horiz-adv-x="1024" 
d="M324 864q77 44 164 72.5t145 28.5q122 0 184 -71t62 -206v-618l114 -25v-45h-405v45l125 25v600q0 83 -40.5 130.5t-125.5 47.5q-90 0 -221 -29v-749l127 -25v-45h-406v45l113 25v800l-113 25v45h268zM645 1118q-48 0 -88.5 21.5t-76.5 48t-69.5 48t-66.5 21.5
q-32 0 -51.5 -12t-30.5 -34.5t-18 -72.5h-52q15 242 195 242q48 0 88.5 -21.5t77 -48t70 -48t65.5 -21.5q43 0 67 25t33 93h52q-15 -241 -195 -241z" />
    <glyph glyph-name="oacute" unicode="&#xf3;" horiz-adv-x="1024" 
d="M946 475q0 -495 -440 -495q-212 0 -320 127t-108 368q0 238 108 364t328 126q214 0 323 -123.5t109 -366.5zM766 475q0 216 -63 313t-197 97q-131 0 -189.5 -93t-58.5 -317q0 -227 59.5 -321.5t188.5 -94.5q132 0 196 98t64 318zM404 1119v33l196 272h213v-37l-354 -268
h-55z" />
    <glyph glyph-name="ograve" unicode="&#xf2;" horiz-adv-x="1024" 
d="M946 475q0 -495 -440 -495q-212 0 -320 127t-108 368q0 238 108 364t328 126q214 0 323 -123.5t109 -366.5zM766 475q0 216 -63 313t-197 97q-131 0 -189.5 -93t-58.5 -317q0 -227 59.5 -321.5t188.5 -94.5q132 0 196 98t64 318zM603 1119l-354 268v37h213l196 -272v-33
h-55z" />
    <glyph glyph-name="ocircumflex" unicode="&#xf4;" horiz-adv-x="1024" 
d="M946 475q0 -495 -440 -495q-212 0 -320 127t-108 368q0 238 108 364t328 126q214 0 323 -123.5t109 -366.5zM766 475q0 216 -63 313t-197 97q-131 0 -189.5 -93t-58.5 -317q0 -227 59.5 -321.5t188.5 -94.5q132 0 196 98t64 318zM187 1119v33l218 273h213l217 -273v-33
h-56l-268 183l-268 -183h-56z" />
    <glyph glyph-name="odieresis" unicode="&#xf6;" horiz-adv-x="1024" 
d="M946 475q0 -495 -440 -495q-212 0 -320 127t-108 368q0 238 108 364t328 126q214 0 323 -123.5t109 -366.5zM766 475q0 216 -63 313t-197 97q-131 0 -189.5 -93t-58.5 -317q0 -227 59.5 -321.5t188.5 -94.5q132 0 196 98t64 318zM786 1194q0 -42 -28 -71.5t-70 -29.5
t-71 31t-29 70q0 42 29 71t71 29t70 -29t28 -71zM430 1194q0 -42 -28 -71.5t-70 -29.5q-41 0 -71 30t-30 71q0 42 31 71t70 29q42 0 70 -29t28 -71z" />
    <glyph glyph-name="otilde" unicode="&#xf5;" horiz-adv-x="1024" 
d="M946 475q0 -495 -440 -495q-212 0 -320 127t-108 368q0 238 108 364t328 126q214 0 323 -123.5t109 -366.5zM766 475q0 216 -63 313t-197 97q-131 0 -189.5 -93t-58.5 -317q0 -227 59.5 -321.5t188.5 -94.5q132 0 196 98t64 318zM633 1118q-48 0 -88.5 21.5t-76.5 48
t-69.5 48t-66.5 21.5q-32 0 -51.5 -12t-30.5 -34.5t-18 -72.5h-52q15 242 195 242q48 0 88.5 -21.5t77 -48t70 -48t65.5 -21.5q43 0 67 25t33 93h52q-15 -241 -195 -241z" />
    <glyph glyph-name="uacute" unicode="&#xfa;" horiz-adv-x="1024" 
d="M313 268q0 -172 160 -172q124 0 232 31v743l-142 25v45h307v-870l119 -25v-45h-274l-8 76q-71 -39 -164 -67.5t-156 -28.5q-240 0 -240 276v614l-120 25v45h286v-672zM420 1119v33l196 272h213v-37l-354 -268h-55z" />
    <glyph glyph-name="ugrave" unicode="&#xf9;" horiz-adv-x="1024" 
d="M313 268q0 -172 160 -172q124 0 232 31v743l-142 25v45h307v-870l119 -25v-45h-274l-8 76q-71 -39 -164 -67.5t-156 -28.5q-240 0 -240 276v614l-120 25v45h286v-672zM559 1119l-354 268v37h213l196 -272v-33h-55z" />
    <glyph glyph-name="ucircumflex" unicode="&#xfb;" horiz-adv-x="1024" 
d="M313 268q0 -172 160 -172q124 0 232 31v743l-142 25v45h307v-870l119 -25v-45h-274l-8 76q-71 -39 -164 -67.5t-156 -28.5q-240 0 -240 276v614l-120 25v45h286v-672zM185 1119v33l218 273h213l217 -273v-33h-56l-268 183l-268 -183h-56z" />
    <glyph glyph-name="udieresis" unicode="&#xfc;" horiz-adv-x="1024" 
d="M313 268q0 -172 160 -172q124 0 232 31v743l-142 25v45h307v-870l119 -25v-45h-274l-8 76q-71 -39 -164 -67.5t-156 -28.5q-240 0 -240 276v614l-120 25v45h286v-672zM790 1194q0 -42 -28 -71.5t-70 -29.5t-71 31t-29 70q0 42 29 71t71 29t70 -29t28 -71zM434 1194
q0 -42 -28 -71.5t-70 -29.5q-41 0 -71 30t-30 71q0 42 31 71t70 29q42 0 70 -29t28 -71z" />
    <glyph glyph-name="dagger" unicode="&#x2020;" horiz-adv-x="1024" 
d="M612 780l-77 -1020h-46l-73 1020l63 160l-416 -47v156l416 -43l-43 415h156l-47 -415l416 43v-156l-416 47z" />
    <glyph glyph-name="degree" unicode="&#xb0;" horiz-adv-x="819" 
d="M98 1051q0 83 41 155t113.5 114t155.5 42t155 -41.5t114 -113.5t42 -156t-42.5 -156.5t-114.5 -113t-154 -40.5q-130 0 -220 90t-90 220zM200 1051q0 -89 61.5 -149.5t146.5 -60.5q88 0 148.5 61t60.5 149q0 89 -60.5 150t-148.5 61q-85 0 -146.5 -60.5t-61.5 -150.5z
" />
    <glyph glyph-name="cent" unicode="&#xa2;" horiz-adv-x="1024" 
d="M536 186q-207 13 -308 137t-101 361q0 221 105.5 347.5t303.5 137.5v172h82v-170q135 -6 254 -30v-262h-55l-43 165q-66 36 -156 46v-799h23q146 0 254 33v-60q-35 -28 -106 -49.5t-171 -28.5v-186h-82v186zM307 684q0 -178 55 -268.5t174 -114.5v789q-229 -29 -229 -406
z" />
    <glyph glyph-name="sterling" unicode="&#xa3;" horiz-adv-x="1024" 
d="M961 154v-154h-838v117l72 64q143 124 143 249q0 47 -16.5 96t-38.5 103h-162v82h127q-67 156 -67 295q0 168 104.5 259t312.5 91q56 0 115 -7.5t178 -35.5v-258h-65l-35 164q-93 53 -193 53q-229 0 -229 -266q0 -137 29 -295h278v-82h-262q16 -109 16 -170
q0 -89 -36 -160t-123 -145h690z" />
    <glyph glyph-name="section" unicode="&#xa7;" horiz-adv-x="1024" 
d="M842 29q0 -138 -93 -211.5t-268 -73.5q-79 0 -169.5 16.5t-127.5 30.5v232h45l39 -132q30 -28 92.5 -47.5t122.5 -19.5q98 0 151.5 42.5t53.5 123.5q0 50 -22.5 88t-59.5 68t-84.5 56t-96.5 52.5t-96.5 56t-84.5 68t-59.5 88t-22.5 115.5q0 96 66 165.5t171 90.5
q-108 55 -157 124.5t-49 159.5q0 124 84.5 195.5t228.5 71.5q115 0 258 -25v-211h-47l-33 109q-24 21 -70.5 34t-105.5 13q-82 0 -124 -40t-42 -108q0 -48 24 -83t65.5 -63t175.5 -90q109 -50 159 -91t78 -93t28 -118q0 -106 -68 -180.5t-190 -100.5q92 -53 136 -96.5
t68 -96.5t24 -120zM719 580q0 43 -21 76t-61 62t-131 70q-85 -4 -140 -52t-55 -118q0 -46 18 -78.5t51 -59.5t142 -87q92 11 144.5 61t52.5 126z" />
    <glyph glyph-name="bullet" unicode="&#x2022;" horiz-adv-x="717" 
d="M602 678q0 -102 -71 -173t-173 -71q-101 0 -172 71t-71 173t71 173t172 71q102 0 173 -71t71 -173z" />
    <glyph glyph-name="paragraph" unicode="&#xb6;" horiz-adv-x="928" 
d="M811 1266v-1524h-94v1524h-170v-1524h-94l2 823q-209 0 -328 105.5t-119 292.5q0 183 112 280.5t322 97.5h463v-53z" />
    <glyph glyph-name="germandbls" unicode="&#xdf;" horiz-adv-x="1024" 
d="M877 997q-45 -5 -92.5 -11.5t-85.5 -24.5t-62.5 -51t-24.5 -91q0 -73 39.5 -128.5t130.5 -119.5q86 -61 128 -136t42 -179q0 -137 -76.5 -206.5t-224.5 -69.5q-62 0 -130.5 13t-102.5 34v192h45l33 -94q23 -28 62.5 -47t90.5 -19q150 0 150 166q0 81 -40.5 141
t-127.5 119q-83 57 -125.5 128.5t-42.5 170.5q0 108 63 175t187 88q0 167 -43 241t-150 74q-194 0 -194 -252v-1110h-306v45l140 25v991q0 188 90.5 284.5t269.5 96.5q187 0 272 -106t85 -339z" />
    <glyph glyph-name="registered" unicode="&#xae;" horiz-adv-x="1556" 
d="M88 670q0 189 93.5 349.5t252 251.5t344.5 91q187 0 347 -92t252.5 -251.5t92.5 -348.5q0 -185 -90.5 -343.5t-251 -252.5t-350.5 -94q-186 0 -346 92t-252 252t-92 346zM158 670q0 -167 83.5 -311.5t227 -227t309.5 -82.5q167 0 311 82.5t228 226.5t84 312t-85 313
t-228 227t-310 82t-311 -83.5t-226.5 -228t-82.5 -310.5zM668 625v-289l114 -17v-43h-346v43l96 17v688l-104 16v41h330q156 0 235.5 -57.5t79.5 -163.5q0 -77 -45 -133t-133 -84l213 -307l84 -17v-43h-205l-229 349h-90zM932 858q0 89 -43 125.5t-158 36.5h-63v-332h67
q106 0 151.5 37t45.5 133z" />
    <glyph glyph-name="copyright" unicode="&#xa9;" horiz-adv-x="1556" 
d="M88 670q0 189 93.5 349.5t252 251.5t344.5 91q187 0 347 -92t252.5 -251.5t92.5 -348.5q0 -185 -90.5 -343.5t-251 -252.5t-350.5 -94q-186 0 -346 92t-252 252t-92 346zM158 670q0 -167 83.5 -311.5t227 -227t309.5 -82.5q167 0 311 82.5t228 226.5t84 312t-85 313
t-228 227t-310 82t-311 -83.5t-226.5 -228t-82.5 -310.5zM795 258q-195 0 -305.5 106.5t-110.5 299.5q0 209 105.5 315t312.5 106q115 0 268 -30l4 -187h-49l-19 105q-82 51 -200 51q-147 0 -211 -85t-64 -273q0 -349 269 -349q141 0 215 60l22 119h49l-4 -199
q-124 -39 -282 -39z" />
    <glyph glyph-name="trademark" unicode="&#x2122;" horiz-adv-x="2007" 
d="M254 537v43l127 16v684h-31q-146 0 -196 -12l-17 -125h-41v198h709v-198h-41l-16 125q-44 10 -201 10h-29v-682l127 -16v-43h-391zM1380 537h-28l-285 669v-610l109 -16v-43h-285v43l104 16v688l-104 16v41h270l244 -583l264 583h254v-41l-102 -16v-688l102 -16v-43h-348
v43l108 16v608z" />
    <glyph glyph-name="acute" unicode="&#xb4;" horiz-adv-x="682" 
d="M156 1119v33l196 272h213v-37l-354 -268h-55z" />
    <glyph glyph-name="dieresis" unicode="&#xa8;" horiz-adv-x="682" 
d="M618 1194q0 -42 -28 -71.5t-70 -29.5t-71 31t-29 70q0 42 29 71t71 29t70 -29t28 -71zM262 1194q0 -42 -28 -71.5t-70 -29.5q-41 0 -71 30t-30 71q0 42 31 71t70 29q42 0 70 -29t28 -71z" />
    <glyph glyph-name="notequal" unicode="&#x2260;" horiz-adv-x="1124" 
d="M802 936h236v-102h-307l-215 -308h522v-102h-594l-198 -284h-123l198 284h-236v102h307l215 308h-522v102h593l198 284h125z" />
    <glyph glyph-name="AE" unicode="&#xc6;" horiz-adv-x="1821" 
d="M731 53l152 27v387h-412l-207 -387l158 -27v-53h-402v53l136 27l647 1190l-164 18v53h995v-321h-65l-33 217q-112 14 -324 14h-137v-524h281l30 160h64v-412h-64l-30 162h-281v-547h182q258 0 338 16l58 248h65l-18 -354h-969v53zM883 557v674l-363 -674h363z" />
    <glyph glyph-name="Oslash" unicode="&#xd8;" horiz-adv-x="1479" 
d="M84 672q0 684 655 684q259 0 418 -113l123 148h115l-170 -205q170 -178 170 -514q0 -342 -168 -517t-488 -175q-259 0 -413 110l-121 -145h-119l170 205q-172 176 -172 522zM293 672q0 -253 65 -398l715 865q-108 137 -334 137q-231 0 -338.5 -141.5t-107.5 -462.5z
M1186 672q0 244 -64 387l-712 -866q106 -134 329 -134q229 0 338 145t109 468z" />
    <glyph glyph-name="infinity" unicode="&#x221e;" horiz-adv-x="1460" 
d="M1382 590q0 -165 -89.5 -276t-225.5 -111q-210 0 -351 264q-64 -127 -146 -192.5t-175 -65.5q-142 0 -230 106t-88 281q0 169 89 278t229 109q105 0 194 -64t154 -194q64 125 142.5 188.5t183.5 63.5q142 0 227.5 -107.5t85.5 -279.5zM1088 872q-80 0 -146.5 -70
t-130.5 -212q60 -141 126.5 -212t152.5 -71q96 0 156.5 80t60.5 205q0 120 -61 200t-158 80zM645 596q-57 140 -123.5 211.5t-156.5 71.5q-93 0 -152.5 -80.5t-59.5 -204.5q0 -126 58.5 -203.5t157.5 -77.5q81 0 148 70.5t128 212.5z" />
    <glyph glyph-name="plusminus" unicode="&#xb1;" horiz-adv-x="1124" 
d="M612 629v-426h-103v426h-424v102h424v426h103v-426h426v-102h-426zM1038 102v-102h-953v102h953z" />
    <glyph glyph-name="lessequal" unicode="&#x2264;" horiz-adv-x="1124" 
d="M85 655v50l953 469v-103l-809 -391l809 -391v-103zM1038 102v-102h-953v102h953z" />
    <glyph glyph-name="greaterequal" unicode="&#x2265;" horiz-adv-x="1124" 
d="M86 186v103l809 391l-809 391v103l953 -469v-50zM1037 102v-102h-953v102h953z" />
    <glyph glyph-name="yen" unicode="&#xa5;" horiz-adv-x="1024" 
d="M885 393v-82h-279v-231l172 -27v-53h-536v53l172 27v231h-279v82h279v129l-15 35h-264v82h230l-263 623l-100 26v53h453v-53l-131 -26l239 -619l246 619l-123 26v53h336v-53l-104 -26l-265 -623h232v-82h-267l-12 -29v-135h279z" />
    <glyph glyph-name="uni00B5" unicode="&#xb5;" horiz-adv-x="1180" 
d="M816 121q-91 -83 -152 -112t-118 -29q-119 0 -180 78q0 -288 -34 -494h-178v45q21 67 36.5 204t15.5 256v801l-140 25v45h306v-652q0 -87 55.5 -139.5t151.5 -52.5q51 0 114.5 24t117.5 63v687l-142 25v45h307v-870l137 -25v-45h-278z" />
    <glyph glyph-name="partialdiff" unicode="&#x2202;" horiz-adv-x="1012" 
d="M928 938q0 -170 -36 -359t-107.5 -326.5t-172 -208.5t-224.5 -71q-152 0 -236 93.5t-84 265.5q0 155 70 306t180 226.5t246 75.5q93 0 164.5 -49.5t105.5 -132.5h4l4 116q0 227 -74.5 348t-216.5 121q-107 0 -228 -84l-36 33l105 150q79 35 157 35q183 0 281 -138.5
t98 -400.5zM813 643q-18 92 -78.5 152.5t-138.5 60.5q-91 0 -166 -69t-123.5 -206t-48.5 -276q0 -124 52 -193t141 -69q81 0 154.5 70.5t129.5 211.5t78 318z" />
    <glyph glyph-name="summation" unicode="&#x2211;" horiz-adv-x="1460" 
d="M831 587v-39l-557 -814h445q41 0 89.5 0.5t98 1.5t97 3t86 3.5t66.5 3.5t38 4l57 228h66l-19 -414h-1206v74l578 843l-533 781v79h1105v-351h-66l-42 247q-96 12 -212.5 12h-139.5l-404 2z" />
    <glyph glyph-name="product" unicode="&#x220f;" horiz-adv-x="1686" 
d="M114 -436v53l172 27v1618l-172 26v53h1460v-53l-172 -26v-1618l172 -27v-53h-536v53l172 27v1607h-731v-1607l172 -27v-53h-537z" />
    <glyph glyph-name="integral" unicode="&#x222b;" horiz-adv-x="561" 
d="M16 -549q-29 0 -70 11.5t-53 21.5v8q4 13 14.5 60.5t14.5 70.5h20q69 -69 127 -69q53 0 88 78.5t35 201.5l-6 672q0 268 14 541q7 106 56.5 200.5t129.5 154.5t150 60q25 0 69.5 -10t59.5 -22v-9l-18 -66l-16 -65h-21q-70 70 -127 70q-53 0 -88 -78.5t-35 -202.5l4 -538
q0 -73 -3.5 -234t-12.5 -444q-6 -110 -56.5 -204t-128 -151t-147.5 -57z" />
    <glyph glyph-name="ordfeminine" unicode="&#xaa;" horiz-adv-x="565" 
d="M281 1362q110 0 160.5 -44.5t50.5 -127.5v-352l69 -15v-37h-174l-12 62q-32 -32 -85 -53t-106 -21q-73 0 -111 42.5t-38 125.5q0 82 57.5 125.5t194.5 46.5l84 2v80q0 111 -97 111q-62 0 -110 -29l-21 -59h-43v122q82 21 181 21zM371 1063q-121 -3 -144.5 -8t-39 -17
t-23.5 -33.5t-8 -58.5q0 -54 21 -75t65 -21q58 0 129 39v174z" />
    <glyph glyph-name="ordmasculine" unicode="&#xba;" horiz-adv-x="635" 
d="M598 1069q0 -145 -74 -222t-211 -77q-129 0 -202.5 77.5t-73.5 221.5t74.5 218.5t207.5 74.5t206 -78t73 -215zM469 1069q0 129 -37 182.5t-119 53.5q-77 0 -112 -51t-35 -185q0 -135 35.5 -187.5t111.5 -52.5q82 0 119 54.5t37 185.5z" />
    <glyph glyph-name="uni2126" unicode="&#x2126;" horiz-adv-x="1573" 
d="M786 1276q-226 0 -336 -113.5t-110 -361.5q0 -199 92 -318t261 -140l27 -343h-569l-19 330h66l57 -144q80 -16 284 -16h72l-10 101q-215 33 -342.5 176t-127.5 354q0 272 166 413.5t489 141.5t489 -141.5t166 -413.5q0 -211 -128 -354t-342 -176l-10 -101h72
q204 0 284 16l57 144h66l-19 -330h-569l27 343q170 21 261.5 140t91.5 318q0 249 -110 362t-336 113z" />
    <glyph glyph-name="ae" unicode="&#xe6;" horiz-adv-x="1366" 
d="M764 473v-90q2 -124 27.5 -182t79 -87.5t141.5 -29.5q54 0 128 9t122 20v-56q-50 -32 -128 -54.5t-161 -22.5q-230 0 -322 129q-145 -129 -338 -129q-241 0 -241 280q0 94 36.5 155.5t116.5 94t232 35.5l141 4v147q0 97 -35.5 143t-109.5 46q-100 0 -183 -47l-34 -117
h-56v205q162 35 285 35q167 0 237 -74q88 78 244 78q175 0 263.5 -104t88.5 -306v-82h-534zM381 90q115 0 244 68q-9 17 -18 65t-9 96v160l-131 -4q-134 -5 -181.5 -52t-47.5 -157q0 -176 143 -176zM946 885q-95 0 -138.5 -74t-43.5 -258h360q0 171 -43.5 251.5t-134.5 80.5
z" />
    <glyph glyph-name="oslash" unicode="&#xf8;" horiz-adv-x="1024" 
d="M952 1022l-123 -174q117 -127 117 -373q0 -495 -440 -495q-145 0 -242 59l-86 -123h-108l127 178q-119 125 -119 381q0 238 108 364t328 126q149 0 250 -64l84 121h104zM258 475q0 -161 29 -252l405 578q-62 84 -186 84q-131 0 -189.5 -93t-58.5 -317zM766 475
q0 147 -31 240l-405 -580q60 -76 176 -76q132 0 196 98t64 318z" />
    <glyph glyph-name="questiondown" unicode="&#xbf;" horiz-adv-x="909" 
d="M469 582h80l26 -334l-143 -29q-86 -17 -125 -87t-39 -204q0 -148 54 -208t186 -60q112 0 194 49l35 164h66v-254q-148 -43 -295 -43q-424 0 -424 340q0 161 80.5 261t234.5 132l58 13zM379 840q0 49 34.5 85t86.5 36q50 0 85.5 -35.5t35.5 -85.5q0 -52 -36 -86.5
t-85 -34.5q-51 0 -86 35t-35 86z" />
    <glyph glyph-name="exclamdown" unicode="&#xa1;" horiz-adv-x="682" 
d="M219 840q0 49 34.5 85t86.5 36t86.5 -36t34.5 -85q0 -51 -35 -86t-86 -35t-86 35t-35 86zM449 -410h-218l62 953h94z" />
    <glyph glyph-name="logicalnot" unicode="&#xac;" horiz-adv-x="1155" 
d="M1055 731v-528h-103v426h-850v102h953z" />
    <glyph glyph-name="radical" unicode="&#x221a;" horiz-adv-x="1124" 
d="M623 -14h-107l-297 829h-168v80h271l258 -737l452 1462h90z" />
    <glyph glyph-name="florin" unicode="&#x192;" horiz-adv-x="1024" 
d="M219 -285l137 987h-161l8 50l166 34l32 232q22 161 112 252.5t226 91.5q91 0 154 -19v-182h-47l-33 96q-31 23 -86 23q-46 0 -75.5 -26t-48 -76.5t-36.5 -176.5l-30 -215h249l-14 -84h-248l-143 -987h-162z" />
    <glyph glyph-name="approxequal" unicode="&#x2248;" horiz-adv-x="1124" 
d="M780 711q-106 0 -245 121q-74 63 -122.5 91.5t-86.5 28.5q-77 0 -116 -54.5t-52 -186.5h-101q18 187 84.5 265.5t184.5 78.5q56 0 115.5 -29t134.5 -92q86 -72 127.5 -96.5t76.5 -24.5q69 0 108 52.5t58 189.5h103q-17 -130 -49 -199t-85 -107t-135 -38zM780 301
q-106 0 -245 121q-74 63 -122.5 91.5t-86.5 28.5q-77 0 -116 -54.5t-52 -186.5h-101q18 187 84.5 265.5t184.5 78.5q56 0 115.5 -29t134.5 -92q86 -72 127.5 -96.5t76.5 -24.5q69 0 108 52.5t58 189.5h103q-17 -130 -49 -199t-85 -107t-135 -38z" />
    <glyph glyph-name="uni2206" unicode="&#x2206;" horiz-adv-x="1253" 
d="M1207 0h-1161l-1 80l477 1272h190l495 -1272v-80zM573 1196l-400 -1087h806z" />
    <glyph glyph-name="guillemotleft" unicode="&#xab;" horiz-adv-x="1024" 
d="M117 496l334 356h81l-227 -389l227 -389h-81l-334 356v66zM526 496l335 356h81l-228 -389l228 -389h-81l-335 356v66z" />
    <glyph glyph-name="guillemotright" unicode="&#xbb;" horiz-adv-x="1024" 
d="M907 430l-334 -356h-81l227 389l-227 389h81l334 -356v-66zM498 430l-335 -356h-81l228 389l-228 389h81l335 -356v-66z" />
    <glyph glyph-name="ellipsis" unicode="&#x2026;" horiz-adv-x="2048" 
d="M459 92q0 -49 -34.5 -85t-86.5 -36t-86.5 36t-34.5 85q0 51 35 86t86 35t86 -35t35 -86zM1145 92q0 -49 -34.5 -85t-86.5 -36t-86.5 36t-34.5 85q0 51 35 86t86 35t86 -35t35 -86zM1831 92q0 -49 -34.5 -85t-86.5 -36t-86.5 36t-34.5 85q0 51 35 86t86 35t86 -35t35 -86z
" />
    <glyph glyph-name="Agrave" unicode="&#xc0;" horiz-adv-x="1479" 
d="M461 53v-53h-441v53l152 27l457 1272h190l475 -1272l170 -27v-53h-567v53l180 27l-133 387h-528l-135 -387zM676 1208l-230 -651h467zM797 1453l-354 268v37h213l196 -272v-33h-55z" />
    <glyph glyph-name="Atilde" unicode="&#xc3;" horiz-adv-x="1479" 
d="M461 53v-53h-441v53l152 27l457 1272h190l475 -1272l170 -27v-53h-567v53l180 27l-133 387h-528l-135 -387zM676 1208l-230 -651h467zM846 1452q-48 0 -88.5 21.5t-76.5 48t-69.5 48t-66.5 21.5q-32 0 -51.5 -12t-30.5 -34.5t-18 -72.5h-52q15 242 195 242
q48 0 88.5 -21.5t77 -48t70 -48t65.5 -21.5q43 0 67 25t33 93h52q-15 -241 -195 -241z" />
    <glyph glyph-name="Otilde" unicode="&#xd5;" horiz-adv-x="1479" 
d="M293 672q0 -323 108 -468t338 -145q229 0 338 145t109 468q0 321 -108.5 462.5t-338.5 141.5q-231 0 -338.5 -141.5t-107.5 -462.5zM84 672q0 684 655 684q324 0 490 -173.5t166 -510.5q0 -342 -168 -517t-488 -175q-319 0 -487 174.5t-168 517.5zM867 1452
q-48 0 -88.5 21.5t-76.5 48t-69.5 48t-66.5 21.5q-32 0 -51.5 -12t-30.5 -34.5t-18 -72.5h-52q15 242 195 242q48 0 88.5 -21.5t77 -48t70 -48t65.5 -21.5q43 0 67 25t33 93h52q-15 -241 -195 -241z" />
    <glyph glyph-name="OE" unicode="&#x152;" horiz-adv-x="1821" 
d="M1016 0l-277 -6q-325 0 -490 170.5t-165 507.5q0 339 162 507.5t493 168.5l273 -7h622v-321h-65l-33 217q-112 14 -324 14h-137v-524h281l30 160h64v-412h-64l-30 162h-281v-547h182q258 0 338 16l58 248h65l-18 -354h-684zM739 74q78 0 142 10v1173q-50 11 -142 11
q-231 0 -338.5 -138.5t-107.5 -457.5q0 -320 107.5 -459t338.5 -139z" />
    <glyph glyph-name="oe" unicode="&#x153;" horiz-adv-x="1479" 
d="M864 473v-18q0 -200 68 -285.5t205 -85.5q51 0 120.5 9t112.5 20v-56q-47 -32 -127 -54.5t-158 -22.5q-218 0 -315 131q-99 -131 -305 -131q-193 0 -290 126.5t-97 368.5q0 238 97.5 364t297.5 126t299 -136q95 136 291 136q344 0 344 -410v-82h-543zM465 885
q-110 0 -158.5 -93.5t-48.5 -316.5q0 -224 49 -320t158 -96q113 0 166 100t53 316v27q-5 207 -58 295t-161 88zM1063 885q-96 0 -146.5 -84t-50.5 -248h367q0 176 -41.5 254t-128.5 78z" />
    <glyph glyph-name="endash" unicode="&#x2013;" horiz-adv-x="1024" 
d="M1038 528v-102h-1052v102h1052z" />
    <glyph glyph-name="emdash" unicode="&#x2014;" horiz-adv-x="2048" 
d="M2062 528v-102h-2076v102h2076z" />
    <glyph glyph-name="quotedblleft" unicode="&#x201c;" horiz-adv-x="909" 
d="M518 999q0 135 78 227.5t227 137.5v-78q-176 -56 -176 -168q0 -21 15 -35.5t53 -34.5q67 -35 67 -100q0 -54 -34 -82t-86 -28q-64 0 -104 45.5t-40 115.5zM98 999q0 135 78 227.5t227 137.5v-78q-176 -56 -176 -168q0 -21 15 -35.5t53 -34.5q67 -35 67 -100
q0 -54 -34 -82t-86 -28q-64 0 -104 45.5t-40 115.5z" />
    <glyph glyph-name="quotedblright" unicode="&#x201d;" horiz-adv-x="909" 
d="M391 1200q0 -137 -79.5 -229.5t-225.5 -134.5v77q176 56 176 168q0 20 -15 36t-52 35q-68 35 -68 99q0 54 34 82.5t87 28.5q61 0 102 -43.5t41 -118.5zM811 1200q0 -137 -79.5 -229.5t-225.5 -134.5v77q176 56 176 168q0 20 -15 36t-52 35q-68 35 -68 99q0 54 34 82.5
t87 28.5q64 0 103.5 -46t39.5 -116z" />
    <glyph glyph-name="quoteleft" unicode="&#x2018;" horiz-adv-x="682" 
d="M197 999q0 135 78 227.5t227 137.5v-78q-176 -56 -176 -168q0 -21 15 -35.5t53 -34.5q67 -35 67 -100q0 -54 -34 -82t-87 -28q-61 0 -102 43.5t-41 117.5z" />
    <glyph glyph-name="quoteright" unicode="&#x2019;" horiz-adv-x="682" 
d="M485 1200q0 -137 -79.5 -229.5t-225.5 -134.5v77q176 56 176 168q0 20 -15 36t-52 35q-68 35 -68 99q0 54 34 82.5t87 28.5q61 0 102 -43.5t41 -118.5z" />
    <glyph glyph-name="divide" unicode="&#xf7;" horiz-adv-x="1124" 
d="M657 1063q0 -40 -28 -68t-68 -28q-41 0 -69 28t-28 68t28 68t69 28q40 0 68 -28t28 -68zM657 297q0 -40 -28 -68t-68 -28q-41 0 -69 28t-28 68t28 68t69 28q40 0 68 -28t28 -68zM1038 731v-102h-953v102h953z" />
    <glyph glyph-name="lozenge" unicode="&#x25ca;" horiz-adv-x="1012" 
d="M547 0h-82l-457 719l457 721h82l459 -719zM508 1286l-354 -565l354 -574l352 574z" />
    <glyph glyph-name="ydieresis" unicode="&#xff;" horiz-adv-x="1024" 
d="M199 -442q-78 0 -154 18v203h47l33 -96q31 -23 86 -23q52 0 96 30t80.5 89t91.5 211l-358 880l-96 25v45h436v-45l-148 -27l254 -657l246 659l-147 25v45h350v-45l-98 -21l-367 -933q-65 -165 -113 -237t-106 -109t-133 -37zM813 1194q0 -42 -28 -71.5t-70 -29.5t-71 31
t-29 70q0 42 29 71t71 29t70 -29t28 -71zM457 1194q0 -42 -28 -71.5t-70 -29.5q-41 0 -71 30t-30 71q0 42 31 71t70 29q42 0 70 -29t28 -71z" />
    <glyph glyph-name="Ydieresis" unicode="&#x178;" horiz-adv-x="1479" 
d="M838 528v-448l213 -27v-53h-619v53l213 27v442l-471 740l-151 26v53h567v-53l-180 -26l385 -619l366 619l-170 26v53h436v-53l-147 -26zM1028 1559q0 -42 -28 -71.5t-70 -29.5t-71 31t-29 70q0 42 29 71t71 29t70 -29t28 -71zM672 1559q0 -42 -28 -71.5t-70 -29.5
q-41 0 -71 30t-30 71q0 42 31 71t70 29q42 0 70 -29t28 -71z" />
    <glyph glyph-name="fraction" unicode="&#x2044;" horiz-adv-x="342" 
d="M-260 0h-102l964 1341h100z" />
    <glyph glyph-name="fraction" unicode="&#x2215;" horiz-adv-x="342" 
d="M-260 0h-102l964 1341h100z" />
    <glyph glyph-name="Euro" unicode="&#x20ac;" horiz-adv-x="1024" 
d="M143 829q31 269 159 398t339 129q74 0 149.5 -10.5t178.5 -40.5l4 -252h-68l-20 133q-45 43 -104 66.5t-119 23.5q-144 0 -219 -111.5t-93 -335.5h350v-81h-354q-2 -68 -2 -91q0 -56 2 -73h354v-82h-350q20 -226 99.5 -335.5t207.5 -109.5q77 0 141.5 28t102.5 73l25 159
h67l-4 -274q-168 -63 -348 -63q-208 0 -337.5 135t-160.5 387h-112v82h106q-2 53 -2 71q0 70 2 93h-106v81h112z" />
    <glyph glyph-name="guilsinglleft" unicode="&#x2039;" horiz-adv-x="682" 
d="M133 496l334 356h82l-228 -389l228 -389h-82l-334 356v66z" />
    <glyph glyph-name="guilsinglright" unicode="&#x203a;" horiz-adv-x="682" 
d="M549 430l-334 -356h-82l228 389l-228 389h82l334 -356v-66z" />
    <glyph glyph-name="uniFB01" unicode="&#xf001;" horiz-adv-x="1139" 
d="M938 70l162 -25v-45h-467v45l139 25v786h-381v-778l141 -33v-45h-446v45l139 33v778h-162v49l162 39v66q0 432 406 432q114 0 254 -37v-197h-51l-58 111q-75 43 -176 43q-100 0 -154.5 -77.5t-54.5 -231.5v-113h547v-870z" />
    <glyph glyph-name="uniFB01" unicode="&#xfb01;" horiz-adv-x="1139" 
d="M938 70l162 -25v-45h-467v45l139 25v786h-381v-778l141 -33v-45h-446v45l139 33v778h-162v49l162 39v66q0 432 406 432q114 0 254 -37v-197h-51l-58 111q-75 43 -176 43q-100 0 -154.5 -77.5t-54.5 -231.5v-113h547v-870z" />
    <glyph glyph-name="uniFB02" unicode="&#xf002;" horiz-adv-x="1139" 
d="M936 70l162 -25v-45h-467v45l139 25v1226q-137 62 -246 62q-69 0 -101 -61.5t-32 -200.5v-156h250v-84h-250v-778l141 -33v-45h-446v45l139 33v778h-162v49l162 39v76q0 197 91.5 307.5t250.5 110.5q9 0 19.5 -0.5t228.5 -16.5h121v-1351z" />
    <glyph glyph-name="uniFB02" unicode="&#xfb02;" horiz-adv-x="1139" 
d="M936 70l162 -25v-45h-467v45l139 25v1226q-137 62 -246 62q-69 0 -101 -61.5t-32 -200.5v-156h250v-84h-250v-778l141 -33v-45h-446v45l139 33v778h-162v49l162 39v76q0 197 91.5 307.5t250.5 110.5q9 0 19.5 -0.5t228.5 -16.5h121v-1351z" />
    <glyph glyph-name="daggerdbl" unicode="&#x2021;" horiz-adv-x="1024" 
d="M416 401l73 189l-73 190l63 160l-416 -47v156l416 -43l-43 415h156l-47 -415l416 43v-156l-416 47l67 -160l-77 -190l77 -189l-67 -159l416 47v-156l-416 43l47 -416h-156l43 416l-416 -43v156l416 -47z" />
    <glyph glyph-name="periodcentered" unicode="&#x2219;" horiz-adv-x="512" 
d="M377 678q0 -51 -35 -86t-86 -35t-86 35t-35 86q0 49 34.5 85t86.5 36t86.5 -36t34.5 -85z" />
    <glyph glyph-name="quotesinglbase" unicode="&#x201a;" horiz-adv-x="682" 
d="M483 49q0 -137 -79.5 -229.5t-225.5 -134.5v77q176 56 176 168q0 20 -15 36t-52 35q-68 35 -68 99q0 54 34 82.5t87 28.5q61 0 102 -43.5t41 -118.5z" />
    <glyph glyph-name="quotedblbase" unicode="&#x201e;" horiz-adv-x="909" 
d="M391 49q0 -137 -79.5 -229.5t-225.5 -134.5v77q176 56 176 168q0 20 -15 36t-52 35q-68 35 -68 99q0 54 34 82.5t87 28.5q61 0 102 -43.5t41 -118.5zM811 49q0 -137 -79.5 -229.5t-225.5 -134.5v77q176 56 176 168q0 20 -15 36t-52 35q-68 35 -68 99q0 54 34 82.5
t87 28.5q64 0 103.5 -46t39.5 -116z" />
    <glyph glyph-name="perthousand" unicode="&#x2030;" horiz-adv-x="2048" 
d="M676 1016q0 -177 -75 -264.5t-234 -87.5q-322 0 -322 352q0 178 81 262t247 84q303 0 303 -346zM520 1016q0 139 -34 205.5t-119 66.5q-89 0 -127.5 -59.5t-38.5 -212.5q0 -155 39 -217t127 -62q85 0 119 71t34 208zM1323 324q0 -177 -75 -265t-234 -88q-322 0 -322 353
q0 178 81 262t247 84q148 0 225.5 -82.5t77.5 -263.5zM1167 324q0 139 -34 205.5t-119 66.5q-89 0 -127.5 -59.5t-38.5 -212.5q0 -155 39 -217t127 -62q85 0 119 71t34 208zM2001 324q0 -177 -75 -265t-234 -88q-322 0 -322 353q0 178 81 262t247 84q303 0 303 -346z
M1845 324q0 139 -34 205.5t-119 66.5q-89 0 -127.5 -59.5t-38.5 -212.5q0 -155 39 -217t127 -62q85 0 119 71t34 208zM266 -20h-110l948 1382h110z" />
    <glyph glyph-name="Acircumflex" unicode="&#xc2;" horiz-adv-x="1479" 
d="M461 53v-53h-441v53l152 27l457 1272h190l475 -1272l170 -27v-53h-567v53l180 27l-133 387h-528l-135 -387zM676 1208l-230 -651h467zM395 1453v33l218 273h213l217 -273v-33h-56l-268 183l-268 -183h-56z" />
    <glyph glyph-name="Ecircumflex" unicode="&#xca;" horiz-adv-x="1251" 
d="M59 53l172 27v1182l-172 26v53h1006v-321h-66l-32 217q-112 14 -324 14h-219v-524h362l31 160h64v-412h-64l-31 162h-362v-547h264q258 0 338 16l57 248h66l-19 -354h-1071v53zM303 1453v33l218 273h213l217 -273v-33h-56l-268 183l-268 -183h-56z" />
    <glyph glyph-name="Aacute" unicode="&#xc1;" horiz-adv-x="1479" 
d="M461 53v-53h-441v53l152 27l457 1272h190l475 -1272l170 -27v-53h-567v53l180 27l-133 387h-528l-135 -387zM676 1208l-230 -651h467zM611 1453v33l196 272h213v-37l-354 -268h-55z" />
    <glyph glyph-name="Edieresis" unicode="&#xcb;" horiz-adv-x="1251" 
d="M59 53l172 27v1182l-172 26v53h1006v-321h-66l-32 217q-112 14 -324 14h-219v-524h362l31 160h64v-412h-64l-31 162h-362v-547h264q258 0 338 16l57 248h66l-19 -354h-1071v53zM913 1559q0 -42 -28 -71.5t-70 -29.5t-71 31t-29 70q0 42 29 71t71 29t70 -29t28 -71z
M557 1559q0 -42 -28 -71.5t-70 -29.5q-41 0 -71 30t-30 71q0 42 31 71t70 29q42 0 70 -29t28 -71z" />
    <glyph glyph-name="Egrave" unicode="&#xc8;" horiz-adv-x="1251" 
d="M59 53l172 27v1182l-172 26v53h1006v-321h-66l-32 217q-112 14 -324 14h-219v-524h362l31 160h64v-412h-64l-31 162h-362v-547h264q258 0 338 16l57 248h66l-19 -354h-1071v53zM758 1453l-354 268v37h213l196 -272v-33h-55z" />
    <glyph glyph-name="Iacute" unicode="&#xcd;" horiz-adv-x="682" 
d="M438 80l172 -27v-53h-536v53l172 27v1182l-172 26v53h536v-53l-172 -26v-1182zM209 1453v33l196 272h213v-37l-354 -268h-55z" />
    <glyph glyph-name="Icircumflex" unicode="&#xce;" horiz-adv-x="682" 
d="M438 80l172 -27v-53h-536v53l172 27v1182l-172 26v53h536v-53l-172 -26v-1182zM18 1453v33l218 273h213l217 -273v-33h-56l-268 183l-268 -183h-56z" />
    <glyph glyph-name="Idieresis" unicode="&#xcf;" horiz-adv-x="682" 
d="M438 80l172 -27v-53h-536v53l172 27v1182l-172 26v53h536v-53l-172 -26v-1182zM618 1559q0 -42 -28 -71.5t-70 -29.5t-71 31t-29 70q0 42 29 71t71 29t70 -29t28 -71zM262 1559q0 -42 -28 -71.5t-70 -29.5q-41 0 -71 30t-30 71q0 42 31 71t70 29q42 0 70 -29t28 -71z" />
    <glyph glyph-name="Igrave" unicode="&#xcc;" horiz-adv-x="682" 
d="M438 80l172 -27v-53h-536v53l172 27v1182l-172 26v53h536v-53l-172 -26v-1182zM408 1453l-354 268v37h213l196 -272v-33h-55z" />
    <glyph glyph-name="Oacute" unicode="&#xd3;" horiz-adv-x="1479" 
d="M293 672q0 -323 108 -468t338 -145q229 0 338 145t109 468q0 321 -108.5 462.5t-338.5 141.5q-231 0 -338.5 -141.5t-107.5 -462.5zM84 672q0 684 655 684q324 0 490 -173.5t166 -510.5q0 -342 -168 -517t-488 -175q-319 0 -487 174.5t-168 517.5zM627 1453v33l196 272
h213v-37l-354 -268h-55z" />
    <glyph glyph-name="Ocircumflex" unicode="&#xd4;" horiz-adv-x="1479" 
d="M293 672q0 -323 108 -468t338 -145q229 0 338 145t109 468q0 321 -108.5 462.5t-338.5 141.5q-231 0 -338.5 -141.5t-107.5 -462.5zM84 672q0 684 655 684q324 0 490 -173.5t166 -510.5q0 -342 -168 -517t-488 -175q-319 0 -487 174.5t-168 517.5zM417 1453v33l218 273
h213l217 -273v-33h-56l-268 183l-268 -183h-56z" />
    <glyph glyph-name="Ograve" unicode="&#xd2;" horiz-adv-x="1479" 
d="M293 672q0 -323 108 -468t338 -145q229 0 338 145t109 468q0 321 -108.5 462.5t-338.5 141.5q-231 0 -338.5 -141.5t-107.5 -462.5zM84 672q0 684 655 684q324 0 490 -173.5t166 -510.5q0 -342 -168 -517t-488 -175q-319 0 -487 174.5t-168 517.5zM840 1453l-354 268v37
h213l196 -272v-33h-55z" />
    <glyph glyph-name="Uacute" unicode="&#xda;" horiz-adv-x="1479" 
d="M1159 1262l-180 26v53h457v-53l-172 -26v-801q0 -241 -132.5 -361t-384.5 -120q-267 0 -399.5 120.5t-132.5 341.5v820l-172 26v53h536v-53l-172 -26v-805q0 -365 355 -365q192 0 294.5 91t102.5 270v809zM652 1453v33l196 272h213v-37l-354 -268h-55z" />
    <glyph glyph-name="Ucircumflex" unicode="&#xdb;" horiz-adv-x="1479" 
d="M1159 1262l-180 26v53h457v-53l-172 -26v-801q0 -241 -132.5 -361t-384.5 -120q-267 0 -399.5 120.5t-132.5 341.5v820l-172 26v53h536v-53l-172 -26v-805q0 -365 355 -365q192 0 294.5 91t102.5 270v809zM444 1453v33l218 273h213l217 -273v-33h-56l-268 183l-268 -183
h-56z" />
    <glyph glyph-name="Ugrave" unicode="&#xd9;" horiz-adv-x="1479" 
d="M1159 1262l-180 26v53h457v-53l-172 -26v-801q0 -241 -132.5 -361t-384.5 -120q-267 0 -399.5 120.5t-132.5 341.5v820l-172 26v53h536v-53l-172 -26v-805q0 -365 355 -365q192 0 294.5 91t102.5 270v809zM844 1453l-354 268v37h213l196 -272v-33h-55z" />
    <glyph glyph-name="dotlessi" unicode="&#x131;" horiz-adv-x="569" 
d="M369 70l161 -25v-45h-487v45l160 25v800l-133 25v45h299v-870z" />
    <glyph glyph-name="circumflex" unicode="&#x2c6;" horiz-adv-x="682" 
d="M18 1119v33l218 273h213l217 -273v-33h-56l-268 183l-268 -183h-56z" />
    <glyph glyph-name="tilde" unicode="&#x2dc;" horiz-adv-x="682" 
d="M471 1118q-48 0 -88.5 21.5t-76.5 48t-69.5 48t-66.5 21.5q-32 0 -51.5 -12t-30.5 -34.5t-18 -72.5h-52q15 242 195 242q48 0 88.5 -21.5t77 -48t70 -48t65.5 -21.5q43 0 67 25t33 93h52q-15 -241 -195 -241z" />
    <glyph glyph-name="uni02C9" unicode="&#x2c9;" horiz-adv-x="682" 
d="M27 1141v109h628v-109h-628z" />
    <glyph glyph-name="breve" unicode="&#x2d8;" horiz-adv-x="682" 
d="M340 1119q-134 0 -209 76.5t-78 203.5h74q16 -67 72.5 -103t140.5 -36t140 36t73 103h74q-5 -131 -80 -205.5t-207 -74.5z" />
    <glyph glyph-name="dotaccent" unicode="&#x2d9;" horiz-adv-x="682" 
d="M452 1247q0 -44 -32 -76t-77 -32q-44 0 -76 32t-32 76q0 45 32 77t76 32q45 0 77 -32t32 -77z" />
    <glyph glyph-name="ring" unicode="&#x2da;" horiz-adv-x="682" 
d="M543 1280q0 -84 -59.5 -143.5t-143.5 -59.5t-143.5 59.5t-59.5 143.5t59.5 143.5t143.5 59.5t143.5 -59.5t59.5 -143.5zM463 1280q0 51 -36 87t-87 36t-87 -36t-36 -87q0 -52 37 -87.5t86 -35.5q48 0 85.5 35t37.5 88z" />
    <glyph glyph-name="cedilla" unicode="&#xb8;" horiz-adv-x="682" 
d="M528 -234q0 -92 -69.5 -147t-177.5 -55q-76 0 -138 22v74q22 -7 60 -11.5t60 -4.5q60 0 87 29.5t27 74.5q0 49 -40 80t-112 37l41 153h86l-18 -82q91 -9 142.5 -53t51.5 -117z" />
    <glyph glyph-name="hungarumlaut" unicode="&#x2dd;" horiz-adv-x="682" 
d="M-8 1119v33l156 272h192v-37l-293 -268h-55zM342 1119v33l156 272h192v-37l-292 -268h-56z" />
    <glyph glyph-name="ogonek" unicode="&#x2db;" horiz-adv-x="682" 
d="M356 -403q-111 0 -171 57.5t-60 159.5q0 53 23.5 105.5t66.5 96.5h109q-23 -33 -38.5 -85t-15.5 -93q0 -74 35.5 -113.5t102.5 -39.5q60 0 116 22v-64q-68 -46 -168 -46z" />
    <glyph glyph-name="caron" unicode="&#x2c7;" horiz-adv-x="682" 
d="M74 1425l268 -183l268 183h56v-33l-217 -273h-213l-218 273v33h56z" />
    <glyph glyph-name="Lslash" unicode="&#x141;" horiz-adv-x="1251" 
d="M43 518l188 109v635l-172 26v53h572v-53l-207 -26v-525l307 178v-94l-307 -178v-557h264q213 0 313 20l62 279h65l-18 -385h-1051v53l172 27v452l-188 -110v96z" />
    <glyph glyph-name="lslash" unicode="&#x142;" horiz-adv-x="569" 
d="M20 518l181 103v731l-160 24v45h326v-704l192 112v-94l-192 -112v-553l161 -25v-45h-487v45l160 25v456l-181 -104v96z" />
    <glyph glyph-name="Scaron" unicode="&#x160;" horiz-adv-x="1139" 
d="M139 361h65l35 -181q37 -47 127.5 -83t178.5 -36q140 0 218.5 71.5t78.5 197.5q0 72 -30.5 119t-80 79.5t-112.5 55t-129.5 45.5t-129.5 51t-112.5 71t-80 106.5t-30.5 156.5q0 160 120 251t333 91q162 0 352 -43v-279h-65l-35 164q-102 74 -252 74q-134 0 -209.5 -54.5
t-75.5 -150.5q0 -65 30.5 -108t80 -73.5t113 -52.5t130 -45.5t130 -53t113 -75t80 -111t30.5 -161.5q0 -194 -119 -300.5t-343 -106.5q-108 0 -217 19t-194 52v310zM331 1759l268 -183l268 183h56v-33l-217 -273h-213l-218 273v33h56z" />
    <glyph glyph-name="scaron" unicode="&#x161;" horiz-adv-x="797" 
d="M723 264q0 -140 -88.5 -212t-261.5 -72q-70 0 -154.5 14.5t-132.5 32.5v231h45l49 -131q75 -68 195 -68q194 0 194 166q0 122 -153 174l-89 29q-101 33 -147 67t-71 83.5t-25 119.5q0 124 84.5 195.5t228.5 71.5q103 0 258 -31v-205h-47l-42 109q-53 47 -167 47
q-81 0 -123.5 -40t-42.5 -108q0 -57 38.5 -96t116.5 -65q147 -50 192 -73t76.5 -56.5t49 -76.5t17.5 -106zM148 1425l268 -183l268 183h56v-33l-217 -273h-213l-218 273v33h56z" />
    <glyph glyph-name="Zcaron" unicode="&#x17d;" horiz-adv-x="1251" 
d="M98 94l752 1161h-250q-247 0 -340 -20l-31 -211h-69v317h913v-86l-757 -1171h290q116 0 235.5 11t168.5 22l59 256h70l-27 -373h-1014v94zM363 1759l268 -183l268 183h56v-33l-217 -273h-213l-218 273v33h56z" />
    <glyph glyph-name="zcaron" unicode="&#x17e;" horiz-adv-x="909" 
d="M55 0v45l516 815h-221q-56 0 -108 -9.5t-72 -25.5l-31 -135h-47v250h694v-49l-516 -811h275q57 0 120 13.5t89 33.5l51 197h47l-25 -324h-772zM189 1425l268 -183l268 183h56v-33l-217 -273h-213l-218 273v33h56z" />
    <glyph glyph-name="brokenbar" unicode="&#xa6;" horiz-adv-x="410" 
d="M154 801v620h102v-620h-102zM154 -442v622h102v-622h-102z" />
    <glyph glyph-name="Eth" unicode="&#xd0;" horiz-adv-x="1479" 
d="M631 1341q379 0 572.5 -169.5t193.5 -493.5q0 -345 -165 -513.5t-499 -168.5l-502 4h-172v53l172 27v549h-178v82h178v551l-172 26v53h572zM801 711v-82h-377v-535q120 -8 285 -8q247 0 363 140.5t116 443.5q0 289 -148.5 435t-453.5 146h-162v-540h377z" />
    <glyph glyph-name="eth" unicode="&#xf0;" horiz-adv-x="1024" 
d="M229 1102l228 131q-103 74 -219 110v78q181 -44 315 -133l266 156v-94l-194 -115q151 -122 233 -311.5t86 -444.5l2 -35q0 -464 -440 -464q-212 0 -320 119t-108 345q0 223 108 341t328 118q109 0 197 -35q-48 178 -187 310l-295 -172v96zM766 444q0 200 -63 289.5
t-197 89.5q-130 0 -189 -85t-59 -294q0 -211 59.5 -298t188.5 -87q132 0 196 91t64 294z" />
    <glyph glyph-name="Yacute" unicode="&#xdd;" horiz-adv-x="1479" 
d="M838 528v-448l213 -27v-53h-619v53l213 27v442l-471 740l-151 26v53h567v-53l-180 -26l385 -619l366 619l-170 26v53h436v-53l-147 -26zM641 1453v33l196 272h213v-37l-354 -268h-55z" />
    <glyph glyph-name="yacute" unicode="&#xfd;" horiz-adv-x="1024" 
d="M199 -442q-78 0 -154 18v203h47l33 -96q31 -23 86 -23q52 0 96 30t80.5 89t91.5 211l-358 880l-96 25v45h436v-45l-148 -27l254 -657l246 659l-147 25v45h350v-45l-98 -21l-367 -933q-65 -165 -113 -237t-106 -109t-133 -37zM404 1119v33l196 272h213v-37l-354 -268h-55z
" />
    <glyph glyph-name="Thorn" unicode="&#xde;" horiz-adv-x="1139" 
d="M858 686q0 170 -79.5 245t-256.5 75h-98v-660h104q166 0 248 81.5t82 258.5zM565 1083q492 0 492 -395q0 -206 -124.5 -313t-357.5 -107h-151v-188l172 -27v-53h-524v53l159 27v1182l-159 26v53h524v-53l-172 -26v-179h141z" />
    <glyph glyph-name="thorn" unicode="&#xfe;" horiz-adv-x="1024" 
d="M758 481q0 195 -60.5 287t-185.5 92q-117 0 -195 -33v-751q89 -17 195 -17q124 0 185 103.5t61 318.5zM152 1352l-138 24v45h303v-336q0 -56 -6 -200q42 36 112.5 58t143.5 22q180 0 278.5 -125t98.5 -359q0 -239 -107.5 -370t-310.5 -131q-113 0 -215 22q6 -72 6 -113
v-254l164 -24v-47h-448v47l119 24v1717z" />
    <glyph glyph-name="minus" unicode="&#x2212;" horiz-adv-x="1155" 
d="M1055 731v-102h-953v102h953z" />
    <glyph glyph-name="multiply" unicode="&#xd7;" horiz-adv-x="1155" 
d="M578 608l-345 -344l-71 72l344 346l-344 342l74 74l342 -344l346 344l71 -72l-344 -344l344 -346l-71 -72z" />
    <glyph glyph-name="uni00B9" unicode="&#xb9;" horiz-adv-x="614" 
d="M375 598l166 -14v-49h-475v49l165 14v625l-161 -58v47l233 134h72v-748z" />
    <glyph glyph-name="uni00B2" unicode="&#xb2;" horiz-adv-x="614" 
d="M567 535h-499v96l110 100q100 91 145.5 147.5t65 118t19.5 142.5q0 143 -132 143q-61 0 -114 -33l-21 -98h-55v172q110 27 190 27q134 0 204.5 -55.5t70.5 -155.5q0 -97 -45.5 -173t-166.5 -181l-159 -142h387v-108z" />
    <glyph glyph-name="uni00B3" unicode="&#xb3;" horiz-adv-x="614" 
d="M575 754q0 -106 -85 -169t-226 -63q-105 0 -215 27l-6 186h55l27 -112q22 -13 58 -23t73 -10q96 0 136 36.5t40 133.5q0 78 -36 115.5t-126 42.5l-86 6v65l86 4q68 3 96.5 37.5t28.5 112.5q0 77 -29.5 108t-109.5 31q-64 0 -113 -29l-20 -102h-55v172q111 27 188 27
q132 0 207.5 -51.5t75.5 -147.5q0 -75 -49 -128t-140 -67q225 -25 225 -202z" />
    <glyph glyph-name="onehalf" unicode="&#xbd;" horiz-adv-x="1536" 
d="M336 0h-102l964 1341h100zM375 598l166 -14v-49h-475v49l165 14v625l-161 -58v47l233 134h72v-748zM1458 1h-499v96l110 100q100 91 145.5 147.5t65 118t19.5 142.5q0 143 -132 143q-61 0 -114 -33l-21 -98h-55v172q110 27 190 27q134 0 204.5 -55.5t70.5 -155.5
q0 -97 -45.5 -173t-166.5 -181l-159 -142h387v-108z" />
    <glyph glyph-name="onequarter" unicode="&#xbc;" horiz-adv-x="1536" 
d="M336 0h-102l964 1341h100zM375 598l166 -14v-49h-475v49l165 14v625l-161 -58v47l233 134h72v-748zM1293 160v-159h-137v159h-361v97l391 550h107v-544h101v-103h-101zM1156 652h-2l-277 -389h279v389z" />
    <glyph glyph-name="threequarters" unicode="&#xbe;" horiz-adv-x="1536" 
d="M336 0h-102l964 1341h100zM606 754q0 -106 -85 -169t-226 -63q-105 0 -215 27l-6 186h55l27 -112q22 -13 58 -23t73 -10q96 0 136 36.5t40 133.5q0 78 -36 115.5t-126 42.5l-86 6v65l86 4q68 3 96.5 37.5t28.5 112.5q0 77 -29.5 108t-109.5 31q-64 0 -113 -29l-20 -102
h-55v172q111 27 188 27q132 0 207.5 -51.5t75.5 -147.5q0 -75 -49 -128t-140 -67q225 -25 225 -202zM1264 160v-159h-137v159h-361v97l391 550h107v-544h101v-103h-101zM1127 652h-2l-277 -389h279v389z" />
    <glyph glyph-name="franc" unicode="&#x20a3;" horiz-adv-x="1024" 
d="M394 612v-228h274v-82h-274v-222l203 -27v-53h-555v53l159 27v222h-173v82h173v878l-172 26v53h900v-321h-66l-32 217q-112 14 -324 14h-113v-549h365l31 160h61v-412h-61l-31 162h-365z" />
    <glyph glyph-name="Gbreve" unicode="&#x11e;" horiz-adv-x="1479" 
d="M1284 70q-116 -38 -241 -64t-269 -26q-326 0 -508 176t-182 499q0 352 176.5 526.5t517.5 174.5q244 0 471 -60v-288h-67l-27 166q-69 49 -165.5 75.5t-203.5 26.5q-256 0 -374.5 -152.5t-118.5 -466.5q0 -295 122 -447.5t361 -152.5q84 0 176 20t140 48v381l-172 26v54
h495v-54l-131 -26v-436zM769 1453q-134 0 -209 76.5t-78 203.5h74q16 -67 72.5 -103t140.5 -36t140 36t73 103h74q-5 -131 -80 -205.5t-207 -74.5z" />
    <glyph glyph-name="gbreve" unicode="&#x11f;" horiz-adv-x="1024" 
d="M870 643q0 -162 -97 -245t-279 -83q-82 0 -152 15l-63 -131q3 -17 39 -32t90 -15h278q152 0 225.5 -66t73.5 -182q0 -105 -58.5 -183t-171.5 -120.5t-274 -42.5q-192 0 -292.5 59t-100.5 168q0 53 36 104.5t132 120.5q-57 19 -96 65t-39 99l158 178q-158 74 -158 291
q0 154 97.5 238t283.5 84q37 0 95 -7.5t89 -17.5l221 111l35 -43l-139 -144q67 -75 67 -221zM829 -127q0 57 -35 89t-106 32h-364q-42 -36 -68.5 -91.5t-26.5 -103.5q0 -86 62 -123.5t190 -37.5q167 0 257.5 62t90.5 173zM496 391q109 0 154.5 62.5t45.5 189.5
q0 133 -47 189.5t-151 56.5q-105 0 -154 -57t-49 -189t48 -192t153 -60zM484 1119q-134 0 -209 76.5t-78 203.5h74q16 -67 72.5 -103t140.5 -36t140 36t73 103h74q-5 -131 -80 -205.5t-207 -74.5z" />
    <glyph glyph-name="Idotaccent" unicode="&#x130;" horiz-adv-x="682" 
d="M438 80l172 -27v-53h-536v53l172 27v1182l-172 26v53h536v-53l-172 -26v-1182zM451 1581q0 -44 -32 -76t-77 -32q-44 0 -76 32t-32 76q0 45 32 77t76 32q45 0 77 -32t32 -77z" />
    <glyph glyph-name="Scedilla" unicode="&#x15e;" horiz-adv-x="1139" 
d="M139 361h65l35 -181q37 -47 127.5 -83t178.5 -36q140 0 218.5 71.5t78.5 197.5q0 72 -30.5 119t-80 79.5t-112.5 55t-129.5 45.5t-129.5 51t-112.5 71t-80 106.5t-30.5 156.5q0 160 120 251t333 91q162 0 352 -43v-279h-65l-35 164q-102 74 -252 74q-134 0 -209.5 -54.5
t-75.5 -150.5q0 -65 30.5 -108t80 -73.5t113 -52.5t130 -45.5t130 -53t113 -75t80 -111t30.5 -161.5q0 -194 -119 -300.5t-343 -106.5q-108 0 -217 19t-194 52v310zM748 -234q0 -92 -69.5 -147t-177.5 -55q-76 0 -138 22v74q22 -7 60 -11.5t60 -4.5q60 0 87 29.5t27 74.5
q0 49 -40 80t-112 37l41 153h86l-18 -82q91 -9 142.5 -53t51.5 -117z" />
    <glyph glyph-name="scedilla" unicode="&#x15f;" horiz-adv-x="797" 
d="M723 264q0 -140 -88.5 -212t-261.5 -72q-70 0 -154.5 14.5t-132.5 32.5v231h45l49 -131q75 -68 195 -68q194 0 194 166q0 122 -153 174l-89 29q-101 33 -147 67t-71 83.5t-25 119.5q0 124 84.5 195.5t228.5 71.5q103 0 258 -31v-205h-47l-42 109q-53 47 -167 47
q-81 0 -123.5 -40t-42.5 -108q0 -57 38.5 -96t116.5 -65q147 -50 192 -73t76.5 -56.5t49 -76.5t17.5 -106zM558 -234q0 -92 -69.5 -147t-177.5 -55q-76 0 -138 22v74q22 -7 60 -11.5t60 -4.5q60 0 87 29.5t27 74.5q0 49 -40 80t-112 37l41 153h86l-18 -82q91 -9 142.5 -53
t51.5 -117z" />
    <glyph glyph-name="Cacute" unicode="&#x106;" horiz-adv-x="1366" 
d="M774 -20q-326 0 -508 177.5t-182 497.5q0 346 175 523.5t519 177.5q209 0 449 -51l6 -293h-66l-30 174q-70 43 -162.5 66.5t-188.5 23.5q-257 0 -375 -151t-118 -468q0 -292 123.5 -446t359.5 -154q114 0 215 27.5t160 73.5l37 200h65l-6 -315q-220 -63 -473 -63z
M613 1453v33l196 272h213v-37l-354 -268h-55z" />
    <glyph glyph-name="cacute" unicode="&#x107;" horiz-adv-x="909" 
d="M846 57q-49 -36 -135 -56.5t-176 -20.5q-457 0 -457 497q0 235 116.5 361.5t333.5 126.5q135 0 295 -31v-262h-55l-43 166q-83 47 -199 47q-268 0 -268 -408q0 -212 81.5 -302.5t252.5 -90.5q146 0 254 33v-60zM366 1119v33l196 272h213v-37l-354 -268h-55z" />
    <glyph glyph-name="Ccaron" unicode="&#x10c;" horiz-adv-x="1366" 
d="M774 -20q-326 0 -508 177.5t-182 497.5q0 346 175 523.5t519 177.5q209 0 449 -51l6 -293h-66l-30 174q-70 43 -162.5 66.5t-188.5 23.5q-257 0 -375 -151t-118 -468q0 -292 123.5 -446t359.5 -154q114 0 215 27.5t160 73.5l37 200h65l-6 -315q-220 -63 -473 -63z
M505 1759l268 -183l268 183h56v-33l-217 -273h-213l-218 273v33h56z" />
    <glyph glyph-name="ccaron" unicode="&#x10d;" horiz-adv-x="909" 
d="M846 57q-49 -36 -135 -56.5t-176 -20.5q-457 0 -457 497q0 235 116.5 361.5t333.5 126.5q135 0 295 -31v-262h-55l-43 166q-83 47 -199 47q-268 0 -268 -408q0 -212 81.5 -302.5t252.5 -90.5q146 0 254 33v-60zM250 1425l268 -183l268 183h56v-33l-217 -273h-213
l-218 273v33h56z" />
    <glyph glyph-name="uni0111" unicode="&#x111;" horiz-adv-x="1024" 
d="M723 70q-113 -90 -264 -90q-385 0 -385 481q0 247 109 375.5t321 128.5q108 0 219 -23q-6 33 -6 146v24h-275v84h275v156l-158 24v45h324v-225h137v-84h-137v-1042l116 -25v-45h-264zM254 461q0 -190 64 -283.5t196 -93.5q113 0 203 39v743q-89 17 -203 17
q-260 0 -260 -422z" />
    <glyph glyph-name="uni00AF" unicode="&#xaf;" horiz-adv-x="1024" 
d="M1042 1452h-1059v94h1059v-94z" />
    <glyph glyph-name="uni00B7" unicode="&#xb7;" horiz-adv-x="682" 
d="M462 678q0 -51 -35 -86t-86 -35t-86 35t-35 86q0 49 34.5 85t86.5 36t86.5 -36t34.5 -85z" />
    <glyph glyph-name="Abreve" unicode="&#x102;" horiz-adv-x="1479" 
d="M461 53v-53h-441v53l152 27l457 1272h190l475 -1272l170 -27v-53h-567v53l180 27l-133 387h-528l-135 -387zM676 1208l-230 -651h467zM719 1453q-134 0 -209 76.5t-78 203.5h74q16 -67 72.5 -103t140.5 -36t140 36t73 103h74q-5 -131 -80 -205.5t-207 -74.5z" />
    <glyph glyph-name="abreve" unicode="&#x103;" horiz-adv-x="909" 
d="M465 961q154 0 226.5 -63t72.5 -193v-635l117 -25v-45h-258l-19 94q-114 -114 -291 -114q-241 0 -241 280q0 94 36.5 155.5t116.5 94t232 35.5l141 4v147q0 97 -35.5 143t-109.5 46q-100 0 -183 -47l-34 -117h-56v205q162 35 285 35zM598 479l-131 -4q-134 -5 -181.5 -52
t-47.5 -157q0 -176 143 -176q68 0 117.5 15.5t99.5 39.5v334zM454 1119q-134 0 -209 76.5t-78 203.5h74q16 -67 72.5 -103t140.5 -36t140 36t73 103h74q-5 -131 -80 -205.5t-207 -74.5z" />
    <glyph glyph-name="Aogonek" unicode="&#x104;" horiz-adv-x="1479" 
d="M461 53v-53h-441v53l152 27l457 1272h190l475 -1272l170 -27v-53h-567v53l180 27l-133 387h-528l-135 -387zM676 1208l-230 -651h467zM1197 -403q-111 0 -171 57.5t-60 159.5q0 53 23.5 105.5t66.5 96.5h109q-23 -33 -38.5 -85t-15.5 -93q0 -74 35.5 -113.5t102.5 -39.5
q60 0 116 22v-64q-68 -46 -168 -46z" />
    <glyph glyph-name="aogonek" unicode="&#x105;" horiz-adv-x="909" 
d="M465 961q154 0 226.5 -63t72.5 -193v-635l117 -25v-45h-258l-19 94q-114 -114 -291 -114q-241 0 -241 280q0 94 36.5 155.5t116.5 94t232 35.5l141 4v147q0 97 -35.5 143t-109.5 46q-100 0 -183 -47l-34 -117h-56v205q162 35 285 35zM598 479l-131 -4q-134 -5 -181.5 -52
t-47.5 -157q0 -176 143 -176q68 0 117.5 15.5t99.5 39.5v334zM762 -403q-111 0 -171 57.5t-60 159.5q0 53 23.5 105.5t66.5 96.5h109q-23 -33 -38.5 -85t-15.5 -93q0 -74 35.5 -113.5t102.5 -39.5q60 0 116 22v-64q-68 -46 -168 -46z" />
    <glyph glyph-name="Dcaron" unicode="&#x10e;" horiz-adv-x="1479" 
d="M1188 680q0 281 -151.5 426t-432.5 145h-180v-1157q120 -8 285 -8q246 0 362.5 145t116.5 449zM668 1341q371 0 550 -165.5t179 -497.5q0 -336 -172.5 -509t-515.5 -173l-478 4h-172v53l172 27v1182l-172 26v53h609zM461 1759l268 -183l268 183h56v-33l-217 -273h-213
l-218 273v33h56z" />
    <glyph glyph-name="dcaron" unicode="&#x10f;" horiz-adv-x="1324" 
d="M723 70q-113 -90 -264 -90q-385 0 -385 481q0 247 109 375.5t321 128.5q108 0 219 -23q-6 33 -6 166v244l-158 24v45h324v-1351l116 -25v-45h-264zM254 461q0 -190 64 -283.5t196 -93.5q113 0 203 39v743q-89 17 -203 17q-260 0 -260 -422zM1288 1279
q0 -109 -71.5 -177.5t-234.5 -105.5v63q67 15 107 36t59 45t19 63q0 17 -14.5 29.5t-32 26.5t-32 33.5t-14.5 50.5q0 38 27.5 58.5t70.5 20.5q50 0 83 -39t33 -104z" />
    <glyph glyph-name="uni0110" unicode="&#x110;" horiz-adv-x="1479" 
d="M631 1341q379 0 572.5 -169.5t193.5 -493.5q0 -345 -165 -513.5t-499 -168.5l-502 4h-172v53l172 27v549h-178v82h178v551l-172 26v53h572zM801 711v-82h-377v-535q120 -8 285 -8q247 0 363 140.5t116 443.5q0 289 -148.5 435t-453.5 146h-162v-540h377z" />
    <glyph glyph-name="Eogonek" unicode="&#x118;" horiz-adv-x="1251" 
d="M59 53l172 27v1182l-172 26v53h1006v-321h-66l-32 217q-112 14 -324 14h-219v-524h362l31 160h64v-412h-64l-31 162h-362v-547h264q258 0 338 16l57 248h66l-19 -354h-1071v53zM957 -403q-111 0 -171 57.5t-60 159.5q0 53 23.5 105.5t66.5 96.5h109q-23 -33 -38.5 -85
t-15.5 -93q0 -74 35.5 -113.5t102.5 -39.5q60 0 116 22v-64q-68 -46 -168 -46z" />
    <glyph glyph-name="eogonek" unicode="&#x119;" horiz-adv-x="909" 
d="M260 473v-18q0 -138 30.5 -214.5t94 -116.5t166.5 -40q54 0 128 9t122 20v-56q-48 -31 -130.5 -54t-168.5 -23q-219 0 -320.5 118t-101.5 379q0 246 103 367t294 121q361 0 361 -410v-82h-578zM477 885q-104 0 -159.5 -84t-55.5 -248h402q0 179 -46 255.5t-141 76.5z
M650 -403q-111 0 -171 57.5t-60 159.5q0 53 23.5 105.5t66.5 96.5h109q-23 -33 -38.5 -85t-15.5 -93q0 -74 35.5 -113.5t102.5 -39.5q60 0 116 22v-64q-68 -46 -168 -46z" />
    <glyph glyph-name="Ecaron" unicode="&#x11a;" horiz-adv-x="1251" 
d="M59 53l172 27v1182l-172 26v53h1006v-321h-66l-32 217q-112 14 -324 14h-219v-524h362l31 160h64v-412h-64l-31 162h-362v-547h264q258 0 338 16l57 248h66l-19 -354h-1071v53zM367 1759l268 -183l268 183h56v-33l-217 -273h-213l-218 273v33h56z" />
    <glyph glyph-name="ecaron" unicode="&#x11b;" horiz-adv-x="909" 
d="M260 473v-18q0 -138 30.5 -214.5t94 -116.5t166.5 -40q54 0 128 9t122 20v-56q-48 -31 -130.5 -54t-168.5 -23q-219 0 -320.5 118t-101.5 379q0 246 103 367t294 121q361 0 361 -410v-82h-578zM477 885q-104 0 -159.5 -84t-55.5 -248h402q0 179 -46 255.5t-141 76.5z
M211 1425l268 -183l268 183h56v-33l-217 -273h-213l-218 273v33h56z" />
    <glyph glyph-name="Lacute" unicode="&#x139;" horiz-adv-x="1251" 
d="M631 1288l-207 -26v-1176h264q213 0 313 20l62 279h65l-18 -385h-1051v53l172 27v1182l-172 26v53h572v-53zM293 1453v33l196 272h213v-37l-354 -268h-55z" />
    <glyph glyph-name="lacute" unicode="&#x13a;" horiz-adv-x="569" 
d="M367 70l161 -25v-45h-487v45l160 25v1282l-160 24v45h326v-1351zM151 1493v33l196 272h213v-37l-354 -268h-55z" />
    <glyph glyph-name="Lcaron" unicode="&#x13d;" horiz-adv-x="1251" 
d="M631 1288l-207 -26v-1176h264q213 0 313 20l62 279h65l-18 -385h-1051v53l172 27v1182l-172 26v53h572v-53zM1086 1198q0 -109 -71.5 -177.5t-234.5 -105.5v63q67 15 107 36t59 45t19 63q0 17 -14.5 29.5t-32 26.5t-32 33.5t-14.5 50.5q0 38 27.5 58.5t70.5 20.5
q50 0 83 -39t33 -104z" />
    <glyph glyph-name="lcaron" unicode="&#x13e;" horiz-adv-x="832" 
d="M397 70l161 -25v-45h-487v45l160 25v1282l-160 24v45h326v-1351zM796 1279q0 -109 -71.5 -177.5t-234.5 -105.5v63q67 15 107 36t59 45t19 63q0 17 -14.5 29.5t-32 26.5t-32 33.5t-14.5 50.5q0 38 27.5 58.5t70.5 20.5q50 0 83 -39t33 -104z" />
    <glyph glyph-name="Ldot" unicode="&#x13f;" horiz-adv-x="1251" 
d="M631 1288l-207 -26v-1176h264q213 0 313 20l62 279h65l-18 -385h-1051v53l172 27v1182l-172 26v53h572v-53zM919 733q0 -44 -32 -76t-77 -32q-44 0 -76 32t-32 76q0 45 32 77t76 32q45 0 77 -32t32 -77z" />
    <glyph glyph-name="ldot" unicode="&#x140;" horiz-adv-x="704" 
d="M367 70l161 -25v-45h-487v45l160 25v1282l-160 24v45h326v-1351zM695 733q0 -44 -32 -76t-77 -32q-44 0 -76 32t-32 76q0 45 32 77t76 32q45 0 77 -32t32 -77z" />
    <glyph glyph-name="Nacute" unicode="&#x143;" horiz-adv-x="1479" 
d="M1155 1262l-180 26v53h457v-53l-172 -26v-1262h-97l-827 1206v-1126l180 -27v-53h-457v53l172 27v1182l-172 26v53h406l690 -993v914zM659 1453v33l196 272h213v-37l-354 -268h-55z" />
    <glyph glyph-name="nacute" unicode="&#x144;" horiz-adv-x="1024" 
d="M324 864q77 44 164 72.5t145 28.5q122 0 184 -71t62 -206v-618l114 -25v-45h-405v45l125 25v600q0 83 -40.5 130.5t-125.5 47.5q-90 0 -221 -29v-749l127 -25v-45h-406v45l113 25v800l-113 25v45h268zM413 1119v33l196 272h213v-37l-354 -268h-55z" />
    <glyph glyph-name="Ncaron" unicode="&#x147;" horiz-adv-x="1479" 
d="M1155 1262l-180 26v53h457v-53l-172 -26v-1262h-97l-827 1206v-1126l180 -27v-53h-457v53l172 27v1182l-172 26v53h406l690 -993v914zM471 1759l268 -183l268 183h56v-33l-217 -273h-213l-218 273v33h56z" />
    <glyph glyph-name="ncaron" unicode="&#x148;" horiz-adv-x="1024" 
d="M324 864q77 44 164 72.5t145 28.5q122 0 184 -71t62 -206v-618l114 -25v-45h-405v45l125 25v600q0 83 -40.5 130.5t-125.5 47.5q-90 0 -221 -29v-749l127 -25v-45h-406v45l113 25v800l-113 25v45h268zM246 1425l268 -183l268 183h56v-33l-217 -273h-213l-218 273v33h56z
" />
    <glyph glyph-name="uni0150" unicode="&#x150;" horiz-adv-x="1479" 
d="M293 672q0 -323 108 -468t338 -145q229 0 338 145t109 468q0 321 -108.5 462.5t-338.5 141.5q-231 0 -338.5 -141.5t-107.5 -462.5zM84 672q0 684 655 684q324 0 490 -173.5t166 -510.5q0 -342 -168 -517t-488 -175q-319 0 -487 174.5t-168 517.5zM465 1453v33l156 272
h192v-37l-293 -268h-55zM815 1453v33l156 272h192v-37l-292 -268h-56z" />
    <glyph glyph-name="uni0151" unicode="&#x151;" horiz-adv-x="1024" 
d="M946 475q0 -495 -440 -495q-212 0 -320 127t-108 368q0 238 108 364t328 126q214 0 323 -123.5t109 -366.5zM766 475q0 216 -63 313t-197 97q-131 0 -189.5 -93t-58.5 -317q0 -227 59.5 -321.5t188.5 -94.5q132 0 196 98t64 318zM236 1119v33l156 272h192v-37l-293 -268
h-55zM586 1119v33l156 272h192v-37l-292 -268h-56z" />
    <glyph glyph-name="Racute" unicode="&#x154;" horiz-adv-x="1366" 
d="M424 588v-508l203 -27v-53h-555v53l159 27v1182l-172 26v53h579q252 0 372 -85t120 -273q0 -134 -73 -231.5t-202 -135.5l363 -536l145 -27v-53h-321l-377 588h-241zM931 969q0 153 -74.5 217.5t-261.5 64.5h-171v-573h177q179 0 254.5 66.5t75.5 224.5zM536 1453v33
l196 272h213v-37l-354 -268h-55z" />
    <glyph glyph-name="racute" unicode="&#x155;" horiz-adv-x="682" 
d="M664 965v-254h-43l-58 110q-50 0 -118.5 -13.5t-118.5 -35.5v-702l161 -25v-45h-446v45l119 25v800l-119 25v45h274l9 -117q60 50 162.5 96t162.5 46h15zM269 1119v33l196 272h213v-37l-354 -268h-55z" />
    <glyph glyph-name="Rcaron" unicode="&#x158;" horiz-adv-x="1366" 
d="M424 588v-508l203 -27v-53h-555v53l159 27v1182l-172 26v53h579q252 0 372 -85t120 -273q0 -134 -73 -231.5t-202 -135.5l363 -536l145 -27v-53h-321l-377 588h-241zM931 969q0 153 -74.5 217.5t-261.5 64.5h-171v-573h177q179 0 254.5 66.5t75.5 224.5zM365 1759
l268 -183l268 183h56v-33l-217 -273h-213l-218 273v33h56z" />
    <glyph glyph-name="rcaron" unicode="&#x159;" horiz-adv-x="682" 
d="M664 965v-254h-43l-58 110q-50 0 -118.5 -13.5t-118.5 -35.5v-702l161 -25v-45h-446v45l119 25v800l-119 25v45h274l9 -117q60 50 162.5 96t162.5 46h15zM74 1425l268 -183l268 183h56v-33l-217 -273h-213l-218 273v33h56z" />
    <glyph glyph-name="Sacute" unicode="&#x15a;" horiz-adv-x="1139" 
d="M139 361h65l35 -181q37 -47 127.5 -83t178.5 -36q140 0 218.5 71.5t78.5 197.5q0 72 -30.5 119t-80 79.5t-112.5 55t-129.5 45.5t-129.5 51t-112.5 71t-80 106.5t-30.5 156.5q0 160 120 251t333 91q162 0 352 -43v-279h-65l-35 164q-102 74 -252 74q-134 0 -209.5 -54.5
t-75.5 -150.5q0 -65 30.5 -108t80 -73.5t113 -52.5t130 -45.5t130 -53t113 -75t80 -111t30.5 -161.5q0 -194 -119 -300.5t-343 -106.5q-108 0 -217 19t-194 52v310zM486 1453v33l196 272h213v-37l-354 -268h-55z" />
    <glyph glyph-name="sacute" unicode="&#x15b;" horiz-adv-x="797" 
d="M723 264q0 -140 -88.5 -212t-261.5 -72q-70 0 -154.5 14.5t-132.5 32.5v231h45l49 -131q75 -68 195 -68q194 0 194 166q0 122 -153 174l-89 29q-101 33 -147 67t-71 83.5t-25 119.5q0 124 84.5 195.5t228.5 71.5q103 0 258 -31v-205h-47l-42 109q-53 47 -167 47
q-81 0 -123.5 -40t-42.5 -108q0 -57 38.5 -96t116.5 -65q147 -50 192 -73t76.5 -56.5t49 -76.5t17.5 -106zM301 1119v33l196 272h213v-37l-354 -268h-55z" />
    <glyph glyph-name="uni0162" unicode="&#x162;" horiz-adv-x="1251" 
d="M315 0v53l213 27v1175h-51q-253 0 -346 -20l-27 -209h-67v315h1180v-315h-68l-27 209q-30 7 -131 12.5t-221 5.5h-49v-1173l213 -27v-53h-619zM796 -234q0 -92 -69.5 -147t-177.5 -55q-76 0 -138 22v74q22 -7 60 -11.5t60 -4.5q60 0 87 29.5t27 74.5q0 49 -40 80t-112 37
l41 153h86l-18 -82q91 -9 142.5 -53t51.5 -117z" />
    <glyph glyph-name="uni0163" unicode="&#x163;" horiz-adv-x="569" 
d="M334 -20q-96 0 -143.5 57t-47.5 160v659h-123v45l125 39l101 213h63v-213h215v-84h-215v-641q0 -65 29.5 -98t77.5 -33q58 0 141 16v-65q-35 -24 -101 -39.5t-122 -15.5zM532 -234q0 -92 -69.5 -147t-177.5 -55q-76 0 -138 22v74q22 -7 60 -11.5t60 -4.5q60 0 87 29.5
t27 74.5q0 49 -40 80t-112 37l41 153h86l-18 -82q91 -9 142.5 -53t51.5 -117z" />
    <glyph glyph-name="Tcaron" unicode="&#x164;" horiz-adv-x="1251" 
d="M315 0v53l213 27v1175h-51q-253 0 -346 -20l-27 -209h-67v315h1180v-315h-68l-27 209q-30 7 -131 12.5t-221 5.5h-49v-1173l213 -27v-53h-619zM357 1759l268 -183l268 183h56v-33l-217 -273h-213l-218 273v33h56z" />
    <glyph glyph-name="tcaron" unicode="&#x165;" horiz-adv-x="875" 
d="M334 -20q-96 0 -143.5 57t-47.5 160v659h-123v45l125 39l101 213h63v-213h215v-84h-215v-641q0 -65 29.5 -98t77.5 -33q58 0 141 16v-65q-35 -24 -101 -39.5t-122 -15.5zM839 1304q0 -109 -71.5 -177.5t-234.5 -105.5v63q67 15 107 36t59 45t19 63q0 17 -14.5 29.5
t-32 26.5t-32 33.5t-14.5 50.5q0 38 27.5 58.5t70.5 20.5q50 0 83 -39t33 -104z" />
    <glyph glyph-name="Uring" unicode="&#x16e;" horiz-adv-x="1479" 
d="M1159 1262l-180 26v53h457v-53l-172 -26v-801q0 -241 -132.5 -361t-384.5 -120q-267 0 -399.5 120.5t-132.5 341.5v820l-172 26v53h536v-53l-172 -26v-805q0 -365 355 -365q192 0 294.5 91t102.5 270v809zM989 1614q0 -84 -59.5 -143.5t-143.5 -59.5t-143.5 59.5
t-59.5 143.5t59.5 143.5t143.5 59.5t143.5 -59.5t59.5 -143.5zM909 1614q0 51 -36 87t-87 36t-87 -36t-36 -87q0 -52 37 -87.5t86 -35.5q48 0 85.5 35t37.5 88z" />
    <glyph glyph-name="uring" unicode="&#x16f;" horiz-adv-x="1024" 
d="M313 268q0 -172 160 -172q124 0 232 31v743l-142 25v45h307v-870l119 -25v-45h-274l-8 76q-71 -39 -164 -67.5t-156 -28.5q-240 0 -240 276v614l-120 25v45h286v-672zM715 1280q0 -84 -59.5 -143.5t-143.5 -59.5t-143.5 59.5t-59.5 143.5t59.5 143.5t143.5 59.5
t143.5 -59.5t59.5 -143.5zM635 1280q0 51 -36 87t-87 36t-87 -36t-36 -87q0 -52 37 -87.5t86 -35.5q48 0 85.5 35t37.5 88z" />
    <glyph glyph-name="uni0170" unicode="&#x170;" horiz-adv-x="1479" 
d="M1159 1262l-180 26v53h457v-53l-172 -26v-801q0 -241 -132.5 -361t-384.5 -120q-267 0 -399.5 120.5t-132.5 341.5v820l-172 26v53h536v-53l-172 -26v-805q0 -365 355 -365q192 0 294.5 91t102.5 270v809zM508 1453v33l156 272h192v-37l-293 -268h-55zM858 1453v33
l156 272h192v-37l-292 -268h-56z" />
    <glyph glyph-name="uni0171" unicode="&#x171;" horiz-adv-x="1024" 
d="M313 268q0 -172 160 -172q124 0 232 31v743l-142 25v45h307v-870l119 -25v-45h-274l-8 76q-71 -39 -164 -67.5t-156 -28.5q-240 0 -240 276v614l-120 25v45h286v-672zM227 1119v33l156 272h192v-37l-293 -268h-55zM577 1119v33l156 272h192v-37l-292 -268h-56z" />
    <glyph glyph-name="Zacute" unicode="&#x179;" horiz-adv-x="1251" 
d="M98 94l752 1161h-250q-247 0 -340 -20l-31 -211h-69v317h913v-86l-757 -1171h290q116 0 235.5 11t168.5 22l59 256h70l-27 -373h-1014v94zM514 1453v33l196 272h213v-37l-354 -268h-55z" />
    <glyph glyph-name="zacute" unicode="&#x17a;" horiz-adv-x="909" 
d="M55 0v45l516 815h-221q-56 0 -108 -9.5t-72 -25.5l-31 -135h-47v250h694v-49l-516 -811h275q57 0 120 13.5t89 33.5l51 197h47l-25 -324h-772zM336 1119v33l196 272h213v-37l-354 -268h-55z" />
    <glyph glyph-name="uni017B" unicode="&#x17b;" horiz-adv-x="1251" 
d="M98 94l752 1161h-250q-247 0 -340 -20l-31 -211h-69v317h913v-86l-757 -1171h290q116 0 235.5 11t168.5 22l59 256h70l-27 -373h-1014v94zM737 1581q0 -44 -32 -76t-77 -32q-44 0 -76 32t-32 76q0 45 32 77t76 32q45 0 77 -32t32 -77z" />
    <glyph glyph-name="uni017C" unicode="&#x17c;" horiz-adv-x="909" 
d="M55 0v45l516 815h-221q-56 0 -108 -9.5t-72 -25.5l-31 -135h-47v250h694v-49l-516 -811h275q57 0 120 13.5t89 33.5l51 197h47l-25 -324h-772zM573 1247q0 -44 -32 -76t-77 -32q-44 0 -76 32t-32 76q0 45 32 77t76 32q45 0 77 -32t32 -77z" />
    <glyph glyph-name="Gamma" unicode="&#x393;" horiz-adv-x="1184" 
d="M631 0h-572v53l172 26v1182l-172 27v53h1041l18 -385h-65l-62 279q-100 20 -313 20h-254v-1176l207 -26v-53z" />
    <glyph glyph-name="Theta" unicode="&#x398;" horiz-adv-x="1479" 
d="M293 672q0 -323 108 -468t338 -145q229 0 338 145t109 468q0 321 -108.5 462.5t-338.5 141.5q-231 0 -338.5 -141.5t-107.5 -462.5zM84 672q0 684 655 684q324 0 490 -173.5t166 -510.5q0 -342 -168 -517t-488 -175q-319 0 -487 174.5t-168 517.5zM558 610l-31 -142h-64
v412h64l31 -140h362l31 140h64v-412h-64l-31 142h-362z" />
    <glyph glyph-name="Phi" unicode="&#x3a6;" horiz-adv-x="1497" 
d="M839 80l172 -27v-53h-526v53l172 27v142h-113q-146 0 -253 53t-168 162t-61 255q0 214 129 329.5t363 115.5h103v125l-172 26v53h526v-53l-172 -26v-125h104q234 0 363 -115.5t129 -329.5q0 -145 -60.5 -254t-167.5 -162.5t-254 -53.5h-114v-142zM906 300q160 0 245 99.5
t85 290.5q0 184 -85 277t-251 93h-61v-760h67zM261 690q0 -191 85 -290.5t245 -99.5h66v760h-60q-166 0 -251 -93t-85 -277z" />
    <glyph glyph-name="alpha" unicode="&#x3b1;" horiz-adv-x="1073" 
d="M1024 45v-45h-212q-37 118 -66 274h-6q-72 -137 -118 -189.5t-102 -78.5t-129 -26q-150 0 -231.5 123t-81.5 350q0 242 102.5 377.5t288.5 135.5q128 0 203 -64t122 -212h6l70 250h157v-40q-23 -36 -54 -107t-121 -310q57 -246 124 -423zM724 463q-26 226 -83 324.5
t-157 98.5q-225 0 -225 -433q0 -184 47 -279.5t125 -95.5q60 0 107.5 38t87 108t98.5 239z" />
    <glyph glyph-name="delta" unicode="&#x3b4;" horiz-adv-x="965" 
d="M251 1188q0 112 85 177.5t228 65.5q97 0 246 -31v-205h-47l-42 109q-53 47 -155 47q-81 0 -123.5 -40t-42.5 -108q0 -55 42.5 -112.5t188.5 -175.5q142 -117 199.5 -223.5t57.5 -241.5q0 -221 -104.5 -345.5t-297.5 -124.5q-196 0 -302.5 108t-106.5 311q0 184 95 306
t272 168q-109 96 -151 167.5t-42 147.5zM249 391q0 -160 62 -246t176 -86q109 0 168 89.5t59 273.5q0 118 -43 206.5t-142 172.5l-25 20q-138 -48 -196.5 -154.5t-58.5 -275.5z" />
    <glyph glyph-name="epsilon" unicode="&#x3b5;" horiz-adv-x="860" 
d="M801 70q-137 -90 -344 -90q-183 0 -280.5 75.5t-97.5 213.5q0 91 60.5 153.5t163.5 83.5v7q-184 61 -184 212q0 112 104 176t281 64q142 0 269 -36l-1 -196h-48l-57 113q-27 16 -75.5 28.5t-94.5 12.5q-100 0 -154.5 -44.5t-54.5 -124.5q0 -68 33.5 -114.5t89.5 -62.5
q40 4 119.5 7.5t105.5 3.5h32v-96h-32q-68 0 -243 13q-69 -20 -105 -70.5t-36 -120.5q0 -90 67.5 -142t186.5 -52q69 0 136 10t159 41v-65z" />
    <glyph glyph-name="sigma" unicode="&#x3c3;" horiz-adv-x="1104" 
d="M1016 1048h57l-18 -192h-291v-7q93 -81 142.5 -188.5t49.5 -222.5q0 -213 -117.5 -335.5t-315.5 -122.5q-203 0 -324 135t-121 358q0 219 142.5 343t390.5 124h349zM533 59q113 0 177 101t64 284q0 137 -33 244.5t-91 167.5q-190 0 -291 -103.5t-101 -301.5
q0 -185 74.5 -288.5t200.5 -103.5z" />
    <glyph glyph-name="tau" unicode="&#x3c4;" horiz-adv-x="823" 
d="M150 856l-48 -128h-57l21 212h712v-84h-294v-642q0 -130 104 -130q41 0 108 16v-65q-24 -20 -79 -37.5t-105 -17.5q-88 0 -141 53.5t-53 163.5v659h-168z" />
    <glyph glyph-name="phi" unicode="&#x3c6;" horiz-adv-x="1182" 
d="M644 -436h-106v420q-232 17 -345.5 134.5t-113.5 347.5q0 223 83 343.5t278 154.5l-1 -73q-96 -36 -137.5 -130.5t-41.5 -288.5q0 -192 67 -291.5t211 -122.5v612q0 142 61 219t174 77q157 0 243 -120.5t86 -353.5q0 -227 -118 -358t-340 -151v-419zM923 478
q0 199 -44 303t-124 104q-111 0 -111 -215v-610q143 21 211 122.5t68 295.5z" />
    <glyph glyph-name="underscoredbl" unicode="&#x2017;" horiz-adv-x="1024" 
d="M-16 -526v102h1056v-102h-1056zM-16 -264v102h1056v-102h-1056z" />
    <glyph glyph-name="exclamdbl" unicode="&#x203c;" horiz-adv-x="1173" 
d="M461 92q0 -49 -34.5 -85t-86.5 -36t-86.5 36t-34.5 85q0 51 35 86t86 35t86 -35t35 -86zM231 1341h218l-62 -952h-94zM954 92q0 -49 -34.5 -85t-86.5 -36t-86.5 36t-34.5 85q0 51 35 86t86 35t86 -35t35 -86zM724 1341h218l-62 -952h-94z" />
    <glyph glyph-name="uni207F" unicode="&#x207f;" horiz-adv-x="645" 
d="M221 1054q113 60 173 60q74 0 113.5 -42.5t39.5 -123.5v-361l68 -15v-37h-243v37l55 15v350q0 50 -17 73.5t-68 23.5q-42 0 -120 -17v-430l57 -15v-37h-244v37l68 15v460l-68 15v37h181z" />
    <glyph glyph-name="peseta" unicode="&#x20a7;" horiz-adv-x="1984" 
d="M760 944q0 165 -77 236t-259 71h-38v-635h44q169 0 249.5 77t80.5 251zM949 946q0 -208 -119.5 -314t-352.5 -106h-91v-446l173 -27v-53h-515v53l159 27v1182l-152 26v53h416q240 0 361 -96.5t121 -298.5zM1148 -20q-85 0 -126.5 57t-41.5 160v419h-93v35l93 39l103 183
h63v-183h165v-74h-165v-411q0 -65 23.5 -98t61.5 -33q46 0 113 16v-55q-35 -25 -90 -40t-106 -15zM1893 206q0 -111 -70.5 -168.5t-199.5 -57.5q-60 0 -138.5 12.5t-118.5 27.5v207h45l39 -110q61 -68 155 -68q64 0 99 29.5t35 85.5q0 42 -28.5 71t-89.5 51l-69 23
q-106 36 -147 85.5t-41 123.5q0 89 71 140.5t193 51.5q85 0 217 -31v-195h-47l-42 109q-19 23 -55.5 35t-74.5 12q-54 0 -83.5 -27t-29.5 -72q0 -36 36 -59.5t154 -62.5q94 -32 142 -84.5t48 -128.5z" />
    <glyph glyph-name="arrowleft" unicode="&#x2190;" horiz-adv-x="2048" 
d="M641 297q57 -67 119 -197h-72q-127 149 -270 222v36q143 73 270 222h72q-62 -130 -119 -197h989v-86h-989z" />
    <glyph glyph-name="arrowup" unicode="&#x2191;" horiz-adv-x="1024" 
d="M469 928q-67 -57 -197 -119v72q149 127 222 270h36q73 -143 222 -270v-72q-130 62 -197 119v-989h-86v989z" />
    <glyph glyph-name="arrowright" unicode="&#x2192;" horiz-adv-x="2048" 
d="M1407 383q-57 67 -119 197h72q127 -149 270 -222v-36q-143 -73 -270 -222h-72q62 130 119 197h-989v86h989z" />
    <glyph glyph-name="arrowdown" unicode="&#x2193;" horiz-adv-x="1024" 
d="M555 162q67 57 197 119v-72q-149 -127 -222 -270h-36q-73 143 -222 270v72q130 -62 197 -119v989h86v-989z" />
    <glyph glyph-name="arrowboth" unicode="&#x2194;" horiz-adv-x="2048" 
d="M641 297q57 -67 119 -197h-72q-127 149 -270 222v36q143 73 270 222h72q-62 -130 -119 -197h766q-57 67 -119 197h72q127 -149 270 -222v-36q-143 -73 -270 -222h-72q62 130 119 197h-766z" />
    <glyph glyph-name="arrowupdn" unicode="&#x2195;" horiz-adv-x="1024" 
d="M469 928q-67 -57 -197 -119v72q149 127 222 270h36q73 -143 222 -270v-72q-130 62 -197 119v-766q67 57 197 119v-72q-149 -127 -222 -270h-36q-73 143 -222 270v72q130 -62 197 -119v766z" />
    <glyph glyph-name="arrowupdnbse" unicode="&#x21a8;" horiz-adv-x="1024" 
d="M272 -104h480v-80h-480v80zM469 928q-67 -57 -197 -119v72q149 127 222 270h36q73 -143 222 -270v-72q-130 62 -197 119v-766q67 57 197 119v-72q-149 -127 -222 -270h-36q-73 143 -222 270v72q130 -62 197 -119v766z" />
    <glyph glyph-name="orthogonal" unicode="&#x221f;" horiz-adv-x="2005" 
d="M408 1223h94v-1129h1130v-94h-1224v1223z" />
    <glyph glyph-name="intersection" unicode="&#x2229;" horiz-adv-x="1479" 
d="M282 -2v512q0 150 58 269.5t162.5 186t234.5 66.5q131 0 236.5 -66t165 -187t59.5 -269v-512h-103v514q0 190 -98 304t-258 114q-162 0 -258 -113t-96 -307v-512h-103z" />
    <glyph glyph-name="equivalence" unicode="&#x2261;" horiz-adv-x="1155" 
d="M1055 436v-102h-953v102h953zM1055 1026v-102h-953v102h953zM1055 731v-102h-953v102h953z" />
    <glyph glyph-name="house" unicode="&#x2302;" horiz-adv-x="1229" 
d="M154 0v635l461 518l461 -518v-635h-922zM234 82h762v518l-381 426l-381 -426v-518z" />
    <glyph glyph-name="revlogicalnot" unicode="&#x2310;" horiz-adv-x="1155" 
d="M205 629v-426h-103v528h953v-102h-850z" />
    <glyph glyph-name="integraltp" unicode="&#x2320;" horiz-adv-x="1237" 
d="M693 -614h-147v1878q0 196 84 319t210 123q63 0 100.5 -31.5t37.5 -79.5q0 -40 -25.5 -66t-62.5 -26q-30 0 -43 10q-16 8 -54 50q-33 39 -49 39q-36 0 -45 -39q-6 -35 -6 -140v-2037z" />
    <glyph glyph-name="integralbt" unicode="&#x2321;" horiz-adv-x="1237" 
d="M546 1706h147v-1880q0 -195 -81.5 -317.5t-213.5 -122.5q-59 0 -98 30.5t-39 77.5q0 39 25 65.5t61 26.5q33 0 59 -16q10 -4 41 -45q31 -37 47 -37q29 0 40.5 25.5t11.5 152.5v2040z" />
    <glyph glyph-name="uni2500" unicode="&#x2500;" horiz-adv-x="1451" 
d="M-10 549v145h1471v-145h-1471z" />
    <glyph glyph-name="uni2502" unicode="&#x2502;" horiz-adv-x="1451" 
d="M653 1864h145v-2485h-145v2485z" />
    <glyph glyph-name="uni250C" unicode="&#x250c;" horiz-adv-x="1451" 
d="M653 694h808v-145h-663v-1170h-145v1315z" />
    <glyph glyph-name="uni2510" unicode="&#x2510;" horiz-adv-x="1451" 
d="M-10 549v145h808v-1315h-145v1170h-663z" />
    <glyph glyph-name="uni2514" unicode="&#x2514;" horiz-adv-x="1451" 
d="M653 1864h145v-1170h663v-145h-808v1315z" />
    <glyph glyph-name="uni2518" unicode="&#x2518;" horiz-adv-x="1451" 
d="M-10 549v145h663v1170h145v-1315h-808z" />
    <glyph glyph-name="uni251C" unicode="&#x251c;" horiz-adv-x="1451" 
d="M653 1864h145v-1170h663v-145h-663v-1170h-145v2485z" />
    <glyph glyph-name="uni2524" unicode="&#x2524;" horiz-adv-x="1451" 
d="M-10 549v145h663v1170h145v-2485h-145v1170h-663z" />
    <glyph glyph-name="uni252C" unicode="&#x252c;" horiz-adv-x="1451" 
d="M-10 549v145h1471v-145h-663v-1170h-145v1170h-663z" />
    <glyph glyph-name="uni2534" unicode="&#x2534;" horiz-adv-x="1451" 
d="M-10 549v145h663v1170h145v-1170h663v-145h-1471z" />
    <glyph glyph-name="uni253C" unicode="&#x253c;" horiz-adv-x="1451" 
d="M-10 549v145h663v1170h145v-1170h663v-145h-663v-1170h-145v1170h-663z" />
    <glyph glyph-name="uni2550" unicode="&#x2550;" horiz-adv-x="1451" 
d="M-10 729v145h1471v-145h-1471zM-10 369v145h1471v-145h-1471z" />
    <glyph glyph-name="uni2551" unicode="&#x2551;" horiz-adv-x="1451" 
d="M473 1864h145v-2485h-145v2485zM833 1864h145v-2485h-145v2485z" />
    <glyph glyph-name="uni2552" unicode="&#x2552;" horiz-adv-x="1451" 
d="M653 874h808v-145h-663v-215h663v-145h-663v-990h-145v1495z" />
    <glyph glyph-name="uni2553" unicode="&#x2553;" horiz-adv-x="1451" 
d="M1461 694v-145h-483v-1170h-145v1170h-215v-1170h-145v1315h988z" />
    <glyph glyph-name="uni2554" unicode="&#x2554;" horiz-adv-x="1451" 
d="M473 874h988v-145h-843v-1350h-145v1495zM833 514h628v-145h-483v-990h-145v1135z" />
    <glyph glyph-name="uni2555" unicode="&#x2555;" horiz-adv-x="1451" 
d="M-10 369v145h663v215h-663v145h808v-1495h-145v990h-663z" />
    <glyph glyph-name="uni2556" unicode="&#x2556;" horiz-adv-x="1451" 
d="M-10 549v145h988v-1315h-145v1170h-215v-1170h-145v1170h-483z" />
    <glyph glyph-name="uni2557" unicode="&#x2557;" horiz-adv-x="1451" 
d="M978 874v-1495h-145v1350h-843v145h988zM618 -621h-145v990h-483v145h628v-1135z" />
    <glyph glyph-name="uni2558" unicode="&#x2558;" horiz-adv-x="1451" 
d="M653 1864h145v-990h663v-145h-663v-215h663v-145h-808v1495z" />
    <glyph glyph-name="uni2559" unicode="&#x2559;" horiz-adv-x="1451" 
d="M833 1864h145v-1170h483v-145h-988v1315h145v-1170h215v1170z" />
    <glyph glyph-name="uni255A" unicode="&#x255a;" horiz-adv-x="1451" 
d="M473 1864h145v-1350h843v-145h-988v1495zM833 1864h145v-990h483v-145h-628v1135z" />
    <glyph glyph-name="uni255B" unicode="&#x255b;" horiz-adv-x="1451" 
d="M-10 369v145h663v215h-663v145h663v990h145v-1495h-808z" />
    <glyph glyph-name="uni255C" unicode="&#x255c;" horiz-adv-x="1451" 
d="M978 549h-988v145h483v1170h145v-1170h215v1170h145v-1315z" />
    <glyph glyph-name="uni255D" unicode="&#x255d;" horiz-adv-x="1451" 
d="M978 369h-988v145h843v1350h145v-1495zM473 1864h145v-1135h-628v145h483v990z" />
    <glyph glyph-name="uni255E" unicode="&#x255e;" horiz-adv-x="1451" 
d="M653 1864h145v-990h663v-145h-663v-215h663v-145h-663v-990h-145v2485z" />
    <glyph glyph-name="uni255F" unicode="&#x255f;" horiz-adv-x="1451" 
d="M833 1864h145v-1170h483v-145h-483v-1170h-145v2485zM473 1864h145v-2485h-145v2485z" />
    <glyph glyph-name="uni2560" unicode="&#x2560;" horiz-adv-x="1451" 
d="M618 -621h-145v2485h145v-2485zM833 514h628v-145h-483v-990h-145v1135zM833 1864h145v-990h483v-145h-628v1135z" />
    <glyph glyph-name="uni2561" unicode="&#x2561;" horiz-adv-x="1451" 
d="M-10 369v145h663v215h-663v145h663v990h145v-2485h-145v990h-663z" />
    <glyph glyph-name="uni2562" unicode="&#x2562;" horiz-adv-x="1451" 
d="M-10 549v145h483v1170h145v-2485h-145v1170h-483zM833 1864h145v-2485h-145v2485z" />
    <glyph glyph-name="uni2563" unicode="&#x2563;" horiz-adv-x="1451" 
d="M833 1864h145v-2485h-145v2485zM473 1864h145v-1135h-628v145h483v990zM618 -621h-145v990h-483v145h628v-1135z" />
    <glyph glyph-name="uni2564" unicode="&#x2564;" horiz-adv-x="1451" 
d="M-10 369v145h1471v-145h-663v-990h-145v990h-663zM-10 729v145h1471v-145h-1471z" />
    <glyph glyph-name="uni2565" unicode="&#x2565;" horiz-adv-x="1451" 
d="M-10 549v145h1471v-145h-483v-1170h-145v1170h-215v-1170h-145v1170h-483z" />
    <glyph glyph-name="uni2566" unicode="&#x2566;" horiz-adv-x="1451" 
d="M618 -621h-145v990h-483v145h628v-1135zM833 514h628v-145h-483v-990h-145v1135zM1461 874v-145h-1471v145h1471z" />
    <glyph glyph-name="uni2567" unicode="&#x2567;" horiz-adv-x="1451" 
d="M-10 729v145h663v990h145v-990h663v-145h-1471zM-10 369v145h1471v-145h-1471z" />
    <glyph glyph-name="uni2568" unicode="&#x2568;" horiz-adv-x="1451" 
d="M-10 549v145h483v1170h145v-1170h215v1170h145v-1170h483v-145h-1471z" />
    <glyph glyph-name="uni2569" unicode="&#x2569;" horiz-adv-x="1451" 
d="M833 1864h145v-990h483v-145h-628v1135zM473 1864h145v-1135h-628v145h483v990zM-10 369v145h1471v-145h-1471z" />
    <glyph glyph-name="uni256A" unicode="&#x256a;" horiz-adv-x="1451" 
d="M-10 369v145h663v215h-663v145h663v990h145v-990h663v-145h-663v-215h663v-145h-663v-990h-145v990h-663z" />
    <glyph glyph-name="uni256B" unicode="&#x256b;" horiz-adv-x="1451" 
d="M833 1864h145v-1170h483v-145h-483v-1170h-145v1170h-215v-1170h-145v1170h-483v145h483v1170h145v-1170h215v1170z" />
    <glyph glyph-name="uni256C" unicode="&#x256c;" horiz-adv-x="1451" 
d="M833 1864h145v-990h483v-145h-628v1135zM618 -621h-145v990h-483v145h628v-1135zM833 514h628v-145h-483v-990h-145v1135zM473 1864h145v-1135h-628v145h483v990z" />
    <glyph glyph-name="upblock" unicode="&#x2580;" horiz-adv-x="1451" 
d="M1451 621h-1451v1243h1451v-1243z" />
    <glyph glyph-name="dnblock" unicode="&#x2584;" horiz-adv-x="1451" 
d="M1451 -621h-1451v1242h1451v-1242z" />
    <glyph glyph-name="block" unicode="&#x2588;" horiz-adv-x="1451" 
d="M1451 -621h-1451v2485h1451v-2485z" />
    <glyph glyph-name="lfblock" unicode="&#x258c;" horiz-adv-x="1451" 
d="M726 -621h-726v2485h726v-2485z" />
    <glyph glyph-name="rtblock" unicode="&#x2590;" horiz-adv-x="1451" 
d="M1451 -621h-726v2485h726v-2485z" />
    <glyph glyph-name="ltshade" unicode="&#x2591;" horiz-adv-x="1451" 
d="M103 1314h104v-98h-104v98zM517 1314h104v-98h-104v98zM933 1314h103v-98h-103v98zM310 1119h104v-96h-104v96zM725 1119h104v-96h-104v96zM1140 1119h104v-96h-104v96zM933 927h103v-96h-103v96zM517 927h104v-96h-104v96zM103 927h104v-96h-104v96zM1140 732h104v-96
h-104v96zM725 732h104v-96h-104v96zM310 732h104v-96h-104v96zM103 540h104v-96h-104v96zM517 540h104v-96h-104v96zM933 540h103v-96h-103v96zM1140 345h104v-96h-104v96zM725 345h104v-96h-104v96zM310 345h104v-96h-104v96zM103 153h104v-97h-104v97zM517 153h104v-97
h-104v97zM933 153h103v-97h-103v97zM310 -42h104v-94h-104v94zM725 -42h104v-94h-104v94zM1140 -42h104v-94h-104v94zM933 -234h103v-97h-103v97zM517 -234h104v-97h-104v97zM103 -234h104v-97h-104v97zM310 -427h104v-96h-104v96zM725 -427h104v-96h-104v96zM1140 -427h104
v-96h-104v96zM310 1506h104v-98h-104v98zM725 1506h104v-98h-104v98zM1140 1506h104v-98h-104v98zM103 1699h104v-96h-104v96zM517 1699h104v-96h-104v96zM933 1699h103v-96h-103v96zM1347 1314h104v-98h-104v98zM1347 927h104v-96h-104v96zM1347 540h104v-96h-104v96z
M1347 153h104v-97h-104v97zM1347 -234h104v-97h-104v97zM1347 1699h104v-96h-104v96z" />
    <glyph glyph-name="shade" unicode="&#x2592;" horiz-adv-x="1451" 
d="M103 1314h104v-98h-104v98zM310 1314h104v-98h-104v98zM517 1314h104v-98h-104v98zM725 1314h104v-98h-104v98zM933 1314h104v-98h-104v98zM1140 1314h104v-98h-104v98zM0 1119h103v-96h-103v96zM207 1119h103v-96h-103v96zM414 1119h103v-96h-103v96zM621 1119h104v-96
h-104v96zM829 1119h104v-96h-104v96zM1037 1119h103v-96h-103v96zM103 927h104v-96h-104v96zM310 927h104v-96h-104v96zM517 927h104v-96h-104v96zM725 927h104v-96h-104v96zM933 927h104v-96h-104v96zM1140 927h104v-96h-104v96zM0 732h103v-96h-103v96zM207 732h103v-96
h-103v96zM414 732h103v-96h-103v96zM621 732h104v-96h-104v96zM829 732h104v-96h-104v96zM1037 732h103v-96h-103v96zM103 540h104v-96h-104v96zM310 540h104v-96h-104v96zM517 540h104v-96h-104v96zM725 540h104v-96h-104v96zM933 540h104v-96h-104v96zM1140 540h104v-96
h-104v96zM0 345h103v-96h-103v96zM414 345h103v-96h-103v96zM621 345h104v-96h-104v96zM829 345h104v-96h-104v96zM1037 345h103v-96h-103v96zM207 345h103v-96h-103v96zM1140 153h104v-97h-104v97zM933 153h104v-97h-104v97zM725 153h104v-97h-104v97zM517 153h104v-97
h-104v97zM310 153h104v-97h-104v97zM103 153h104v-97h-104v97zM0 -42h103v-94h-103v94zM207 -42h103v-94h-103v94zM414 -42h103v-94h-103v94zM621 -42h104v-94h-104v94zM829 -42h104v-94h-104v94zM1037 -42h103v-94h-103v94zM1140 -234h104v-97h-104v97zM933 -234h104v-97
h-104v97zM725 -234h104v-97h-104v97zM517 -234h104v-97h-104v97zM310 -234h104v-97h-104v97zM103 -234h104v-97h-104v97zM0 -427h103v-96h-103v96zM207 -427h103v-96h-103v96zM414 -427h103v-96h-103v96zM621 -427h104v-96h-104v96zM829 -427h104v-96h-104v96zM1037 -427
h103v-96h-103v96zM0 1506h103v-98h-103v98zM207 1506h103v-98h-103v98zM414 1506h103v-98h-103v98zM621 1506h104v-98h-104v98zM829 1506h104v-98h-104v98zM1037 1506h103v-98h-103v98zM103 1699h104v-96h-104v96zM310 1699h104v-96h-104v96zM517 1699h104v-96h-104v96z
M725 1699h104v-96h-104v96zM933 1699h104v-96h-104v96zM1140 1699h104v-96h-104v96zM1347 1314h104v-98h-104v98zM1244 1119h103v-96h-103v96zM1347 927h104v-96h-104v96zM1244 732h103v-96h-103v96zM1347 540h104v-96h-104v96zM1244 345h103v-96h-103v96zM1347 153h104v-97
h-104v97zM1244 -42h103v-94h-103v94zM1347 -234h104v-97h-104v97zM1244 -427h103v-96h-103v96zM1244 1506h103v-98h-103v98zM1347 1699h104v-96h-104v96z" />
    <glyph glyph-name="dkshade" unicode="&#x2593;" horiz-adv-x="1493" 
d="M1493 -621h-1493v290h106v97h-106v290h106v97h-106v291h106v96h-106v289h106v98h-106v289h106v98h-106v289h106v96h107v-96h106v96h107v-96h106v96h107v-96h107v96h107v-96h107v96h107v-96h106v96h107v-96h106v96h107v-193h-107v-98h107v-289h-107v-96h107v-291h-107v-96
h107v-291h-107v-96h107v-291h-107v-94h107v-291h-107v-96h107v-98zM106 1119v-96h107v96h-107zM319 1119v-96h107v96h-107zM532 1119v-96h107v96h-107zM746 1119v-96h107v96h-107zM960 927h-107v-98h107v98zM746 927h-107v-98h107v98zM532 927h-106v-98h106v98zM319 927
h-106v-98h106v98zM106 732v-96h107v96h-107zM319 732v-96h107v96h-107zM532 732v-96h107v96h-107zM746 732v-96h107v96h-107zM319 540h-106v-96h106v96zM426 540v-96h106v96h-106zM639 540v-96h107v96h-107zM853 540v-96h107v96h-107zM106 345v-96h107v96h-107zM532 345v-96
h107v96h-107zM426 249v96h-107v-96h107zM746 345v-96h107v96h-107zM960 56v97h-107v-97h107zM746 56v97h-107v-97h107zM532 56v97h-106v-97h106zM319 56v97h-106v-97h106zM106 -42v-94h107v94h-107zM319 -42v-94h107v94h-107zM532 -42v-94h107v94h-107zM746 -42v-94h107v94
h-107zM960 -331v97h-107v-97h107zM746 -331v97h-107v-97h107zM532 -331v97h-106v-97h106zM319 -331v97h-106v-97h106zM106 -427v-96h107v96h-107zM319 -427v-96h107v96h-107zM532 -427v-96h107v96h-107zM746 -427v-96h107v96h-107zM960 1314h-107v-98h107v98zM746 1314h-107
v-98h107v98zM532 1314h-106v-98h106v98zM319 1314h-106v-98h106v98zM853 1506h-107v-98h107v98zM639 1506h-107v-98h107v98zM426 1506h-107v-98h107v98zM213 1506h-107v-98h107v98zM960 1119v-96h107v96h-107zM1173 1119v-96h107v96h-107zM1386 927h-106v-98h106v98z
M1173 927h-106v-98h106v98zM960 732v-96h107v96h-107zM1173 732v-96h107v96h-107zM1173 540h-106v-96h106v96zM1280 540v-96h106v96h-106zM960 345v-96h107v96h-107zM1280 249v96h-107v-96h107zM1386 56v97h-106v-97h106zM1173 56v97h-106v-97h106zM960 -42v-94h107v94h-107
zM1173 -42v-94h107v94h-107zM1386 -331v97h-106v-97h106zM1173 -331v97h-106v-97h106zM960 -427v-96h107v96h-107zM1173 -427v-96h107v96h-107zM1386 1314h-106v-98h106v98zM1173 1314h-106v-98h106v98zM1280 1506h-107v-98h107v98zM1067 1506h-107v-98h107v98z" />
    <glyph glyph-name="filledbox" unicode="&#x25a0;" horiz-adv-x="1237" 
d="M123 1108h991v-991h-991v991z" />
    <glyph glyph-name="filledrect" unicode="&#x25ac;" horiz-adv-x="2048" 
d="M0 616h2048v-616h-2048v616z" />
    <glyph glyph-name="triagup" unicode="&#x25b2;" horiz-adv-x="2027" 
d="M414 0l600 1198l598 -1198h-1198z" />
    <glyph glyph-name="triagrt" unicode="&#x25ba;" horiz-adv-x="2027" 
d="M401 1196l1225 -610l-1225 -613v1223z" />
    <glyph glyph-name="triagdn" unicode="&#x25bc;" horiz-adv-x="2027" 
d="M1612 1171l-598 -1198l-600 1198h1198z" />
    <glyph glyph-name="triaglf" unicode="&#x25c4;" horiz-adv-x="2027" 
d="M1626 1196v-1223l-1225 613z" />
    <glyph glyph-name="circle" unicode="&#x25cb;" horiz-adv-x="1237" 
d="M167 612q0 122 60 227t164.5 165.5t225.5 60.5q122 0 227 -60.5t165.5 -166t60.5 -226.5t-60.5 -225.5t-165 -164.5t-227.5 -60q-122 0 -226 60t-164 164t-60 226zM253 612q0 -98 49 -182.5t132.5 -133t182.5 -48.5q98 0 182.5 48t134.5 133t50 183t-49 183.5
t-134.5 134.5t-183.5 49q-97 0 -181.5 -49t-133.5 -133.5t-49 -184.5z" />
    <glyph glyph-name="invbullet" unicode="&#x25d8;" horiz-adv-x="1237" 
d="M41 0v1155h1155v-1155h-1155zM176 577q0 -118 59 -220t160.5 -161t220.5 -59q118 0 220.5 59t161.5 161.5t59 219.5q0 118 -59 220.5t-161 161.5t-221 59q-118 0 -220.5 -59.5t-161 -161.5t-58.5 -220z" />
    <glyph glyph-name="invcircle" unicode="&#x25d9;" horiz-adv-x="1237" 
d="M41 0v1155h1155v-1155h-1155zM253 577q0 97 49 182t134 134t182 49t182 -49t134 -134t49 -182t-49 -182t-134 -134t-182 -49t-182 49t-134 134t-49 182zM176 577q0 -118 59 -220t160.5 -161t220.5 -59q118 0 220.5 59t161.5 161.5t59 219.5q0 118 -59 220.5t-161 161.5
t-221 59q-118 0 -220.5 -59.5t-161 -161.5t-58.5 -220z" />
    <glyph glyph-name="smileface" unicode="&#x263a;" horiz-adv-x="2091" 
d="M1657 584q0 -254 -180 -432t-432 -179q-253 0 -432 179t-180 432q0 250 177 431t435 181t435 -181.5t177 -430.5zM1567 584q0 217 -153 370t-369 154q-218 0 -369 -154q-153 -153 -153 -370q0 -216 153 -369t369 -154q217 0 369 154t153 369zM889 711q0 -32 -23 -55
t-55 -23t-54.5 23t-22.5 55t22.5 54.5t54.5 22.5t55 -22.5t23 -54.5zM1356 711q0 -32 -22 -55t-54 -23t-55.5 23t-23.5 55t23.5 54.5t55.5 22.5t54 -22.5t22 -54.5zM822 422q76 -137 223 -137q145 0 221 137l62 -35q-98 -186 -283 -186t-283 186z" />
    <glyph glyph-name="invsmileface" unicode="&#x263b;" horiz-adv-x="2155" 
d="M1689 584q0 -254 -180 -432t-432 -179q-253 0 -432 179t-180 432q0 250 177 431t435 181t435 -181.5t177 -430.5zM921 711q0 32 -23 54.5t-55 22.5t-54.5 -22.5t-22.5 -54.5t22.5 -55t54.5 -23t55 23t23 55zM1388 711q0 32 -22 54.5t-54 22.5t-55.5 -22.5t-23.5 -54.5
t23.5 -55t55.5 -23t54 23t22 55zM794 387q98 -186 283 -186t283 186l-62 35q-76 -137 -221 -137q-147 0 -223 137z" />
    <glyph glyph-name="sun" unicode="&#x263c;" horiz-adv-x="1877" 
d="M905 1083h66v-217q66 -6 115.5 -25.5t109.5 -64.5l186 182l45 -45l-184 -184q86 -113 92 -229h215v-62h-215q-17 -125 -92 -221l184 -188l-49 -43l-182 182q-36 -26 -73 -47t-68 -29t-84 -16v-217h-66v217q-121 17 -221 90l-188 -180l-43 45l182 184q-78 100 -94 225
h-215v62h215q12 128 92 223l-180 184l40 49l189 -182q110 77 223 90v217zM936 805q-139 0 -235.5 -99t-96.5 -235t97.5 -234t234.5 -98q139 0 235 97q99 97 99 235q0 136 -98 235t-236 99z" />
    <glyph glyph-name="female" unicode="&#x2640;" horiz-adv-x="1536" 
d="M732 578q-76 11 -129.5 49t-87.5 99t-34 136q0 126 87 208.5t201 82.5q118 0 201 -86q86 -83 86 -205q0 -109 -72 -190t-178 -94v-166h256v-70h-256v-262h-74v262h-258v70h258v166zM767 1069q-56 0 -102 -26.5t-74.5 -74t-28.5 -104.5q0 -86 61.5 -146.5t143.5 -60.5
q87 0 146 62q61 61 61 145q0 58 -28.5 105.5t-75 73.5t-103.5 26z" />
    <glyph glyph-name="male" unicode="&#x2642;" horiz-adv-x="1536" 
d="M1023 1024q-147 43 -190 86q-8 5 -8 18q0 8 6 17q6 4 14 4l33 -4q68 -17 127 -17q88 0 129 13q36 12 49 12q16 0 16 -14l-6 -27q-16 -60 -16 -158q0 -78 12 -129l4 -32q0 -9 -4 -15l-14 -6q-19 0 -37.5 32.5t-36.5 77.5t-31 95l-237 -238q84 -81 84 -190
q0 -125 -87.5 -212t-203.5 -87t-202.5 81.5t-86.5 203.5q0 120 84.5 205t206.5 85q71 0 154 -43zM628 750q-89 0 -151 -61t-62 -150q0 -95 63 -154t150 -59q89 0 150 62.5t61 150.5q0 87 -62 149t-149 62z" />
    <glyph glyph-name="spade" unicode="&#x2660;" horiz-adv-x="1088" 
d="M544 1231q25 -96 73 -180.5t199 -223.5q141 -126 176 -192t37 -137q0 -96 -65 -160t-152 -64q-157 0 -256 191q3 -159 42.5 -242t121 -130t213.5 -56l8 -37h-792l6 37q124 0 210 48.5t129.5 134.5t43.5 231v14q-90 -191 -260 -191q-89 0 -154 64t-65 156q0 89 44.5 157
t143.5 150q139 119 205 212t92 218z" />
    <glyph glyph-name="club" unicode="&#x2663;" horiz-adv-x="1344" 
d="M1094 0h-842l8 35q135 27 194.5 54t107 87t74 134.5t26.5 150.5l-2 47q-57 -120 -146 -179t-178 -59q-77 0 -141.5 38t-99.5 101t-35 140q0 115 73 194t166 80q62 0 162 -51q-38 65 -55 105q-11 37 -11 75q0 121 81 196t194 75q116 0 196 -80t80 -187q0 -86 -69 -184
q84 40 100 43q22 8 61 8q105 0 173 -78q73 -76 73 -192t-78 -198.5t-194 -82.5q-56 0 -115 24.5t-106.5 65.5t-108.5 146q5 -126 29.5 -202.5t79 -136.5t118 -86.5t177.5 -47.5z" />
    <glyph glyph-name="heart" unicode="&#x2665;" horiz-adv-x="1216" 
d="M610 -23q-22 86 -67.5 177t-221.5 327l-90 123q-75 100 -102 164.5t-27 130.5q0 107 69.5 175.5t170.5 68.5q87 0 158.5 -57t109.5 -177q34 119 105 177.5t159 58.5q97 0 168.5 -68t71.5 -166q0 -86 -44 -181t-155 -232q-140 -179 -204.5 -285.5t-100.5 -235.5z" />
    <glyph glyph-name="diamond" unicode="&#x2666;" horiz-adv-x="1045" 
d="M519 1223q72 -125 204.5 -305.5t254.5 -317.5q-68 -70 -221 -273.5t-236 -351.5q-37 71 -129.5 201.5t-166.5 226t-159 197.5q116 137 245.5 309.5t207.5 313.5z" />
    <glyph glyph-name="musicalnote" unicode="&#x266a;" horiz-adv-x="1024" 
d="M489 1153h76v-100l153 -193q109 -147 109 -317q0 -150 -94 -271h-47q57 128 57 248t-57 199t-121 90v-506q0 -123 -73.5 -198.5t-180.5 -75.5q-57 0 -86 27t-29 73q0 77 62.5 135t140.5 58q44 0 90 -19v850z" />
    <glyph glyph-name="musicalnotedbl" unicode="&#x266b;" horiz-adv-x="1536" 
d="M1263 324q0 -78 -27 -134.5t-88.5 -98.5t-134.5 -42q-57 0 -85.5 27t-28.5 74q0 81 61 136.5t139 55.5q48 0 90 -18v448l-550 -149v-394q0 -117 -68.5 -194.5t-183.5 -77.5q-57 0 -86 26.5t-29 71.5q0 76 62 136t141 57q45 0 90 -19v752l698 178v-835zM639 750l550 149
v117l-550 -152v-114z" />
    <glyph glyph-name="IJ" unicode="&#x132;" horiz-adv-x="1451" 
d="M438 80l172 -27v-53h-536v53l172 27v1182l-172 26v53h536v-53l-172 -26v-1182zM1064 1262l-172 26v53h516v-53l-152 -26v-830q0 -134 -41 -234.5t-124.5 -159t-186.5 -58.5q-128 0 -207 30v244h66l30 -139q19 -23 54 -36t77 -13q140 0 140 190v1006z" />
    <glyph glyph-name="ij" unicode="&#x133;" horiz-adv-x="1131" 
d="M379 1247q0 -44 -32 -76t-77 -32q-44 0 -76 32t-32 76q0 45 32 77t76 32q45 0 77 -32t32 -77zM369 70l161 -25v-45h-487v45l160 25v800l-133 25v45h299v-870zM955 1247q0 -44 -32 -76t-76 -32q-45 0 -77 32t-32 76q0 45 32 77t77 32q44 0 76 -32t32 -77zM945 -39
q0 -195 -75.5 -296t-221.5 -101q-62 0 -145 18v199h47l27 -109q33 -28 83 -28q59 0 89 63t30 203v960l-141 25v45h307v-979z" />
    <glyph glyph-name="napostrophe" unicode="&#x149;" horiz-adv-x="1237" 
d="M533 864q77 44 164 72.5t145 28.5q122 0 184 -71t62 -206v-618l114 -25v-45h-405v45l125 25v600q0 83 -40.5 130.5t-125.5 47.5q-90 0 -221 -29v-749l127 -25v-45h-406v45l113 25v800l-113 25v45h268zM307 1259q0 -137 -79.5 -229.5t-225.5 -134.5v77q176 56 176 168
q0 20 -15 36t-52 35q-68 35 -68 99q0 54 34 82.5t87 28.5q61 0 102 -43.5t41 -118.5z" />
    <glyph glyph-name="minute" unicode="&#x2032;" horiz-adv-x="448" 
d="M150 1341h197l-172 -481h-74z" />
    <glyph glyph-name="second" unicode="&#x2033;" horiz-adv-x="853" 
d="M545 1341h197l-172 -481h-74zM160 1341h197l-172 -481h-74z" />
    <glyph glyph-name="uni2105" unicode="&#x2105;" horiz-adv-x="1707" 
d="M435 -20h-110l948 1382h111zM667 716q-37 -24 -97.5 -39t-120.5 -15q-170 0 -255 92t-85 256q0 163 90 252t245 89q91 0 207 -21v-194h-49l-30 116q-57 33 -129 33q-90 0 -134 -68t-44 -207q0 -144 54 -204.5t170 -60.5q111 0 178 23v-52zM1596 335q0 -168 -84.5 -257
t-243.5 -89q-155 0 -237.5 88.5t-82.5 257.5q0 168 85 255.5t240 87.5q153 0 238 -89t85 -254zM1440 335q0 148 -40.5 212.5t-131.5 64.5q-90 0 -127 -60.5t-37 -216.5q0 -158 38.5 -219.5t125.5 -61.5q91 0 131.5 66t40.5 215z" />
    <glyph glyph-name="uni2113" unicode="&#x2113;" horiz-adv-x="981" 
d="M622 78q136 0 169 213h69q-23 -157 -89.5 -234t-185.5 -77q-126 0 -199 79.5t-73 234.5v175q-79 -29 -192 -58v73q107 29 192 59v521q0 146 68.5 222.5t196.5 76.5q106 0 163 -78.5t57 -221.5q0 -174 -76.5 -302t-242.5 -219v-244q0 -102 36 -161t107 -59zM707 1056
q0 108 -31 169.5t-86 61.5q-56 0 -83.5 -52.5t-27.5 -171.5v-441q117 71 172.5 177t55.5 257z" />
    <glyph glyph-name="uni25A1" unicode="&#x25a1;" horiz-adv-x="1237" 
d="M6 1225h1225v-1225h-1225v1225zM82 1149v-1073h1073v1073h-1073z" />
    <glyph glyph-name="uni25AA" unicode="&#x25aa;" horiz-adv-x="726" 
d="M617 383h-508v508h508v-508z" />
    <glyph glyph-name="uni25AB" unicode="&#x25ab;" horiz-adv-x="726" 
d="M617 383h-508v508h508v-508zM541 459v356h-356v-356h356z" />
    <glyph glyph-name="uni25CF" unicode="&#x25cf;" horiz-adv-x="1237" 
d="M618 1018q110 0 218.5 -58t165.5 -167t57 -215q0 -183 -129 -312t-312 -129q-182 0 -311 129.5t-129 311.5q0 108 55.5 214.5t163 166t221.5 59.5z" />
    <glyph glyph-name="openbullet" unicode="&#x25e6;" horiz-adv-x="726" 
d="M611 637q0 -107 -75.5 -177.5t-172.5 -70.5q-68 0 -124 32.5t-90 89.5t-34 126q0 103 73.5 175.5t174.5 72.5q103 0 174 -74q74 -71 74 -174zM535 637q0 70 -51 121t-121 51t-121 -51t-51 -121q0 -71 49 -121.5t123 -50.5q77 0 124.5 52.5t47.5 119.5z" />
    <glyph glyph-name="Amacron" unicode="&#x100;" horiz-adv-x="1479" 
d="M461 53v-53h-441v53l152 27l457 1272h190l475 -1272l170 -27v-53h-567v53l180 27l-133 387h-528l-135 -387zM676 1208l-230 -651h467zM425 1475v109h628v-109h-628z" />
    <glyph glyph-name="amacron" unicode="&#x101;" horiz-adv-x="909" 
d="M465 961q154 0 226.5 -63t72.5 -193v-635l117 -25v-45h-258l-19 94q-114 -114 -291 -114q-241 0 -241 280q0 94 36.5 155.5t116.5 94t232 35.5l141 4v147q0 97 -35.5 143t-109.5 46q-100 0 -183 -47l-34 -117h-56v205q162 35 285 35zM598 479l-131 -4q-134 -5 -181.5 -52
t-47.5 -157q0 -176 143 -176q68 0 117.5 15.5t99.5 39.5v334zM151 1141v109h628v-109h-628z" />
    <glyph glyph-name="Ccircumflex" unicode="&#x108;" horiz-adv-x="1366" 
d="M774 -20q-326 0 -508 177.5t-182 497.5q0 346 175 523.5t519 177.5q209 0 449 -51l6 -293h-66l-30 174q-70 43 -162.5 66.5t-188.5 23.5q-257 0 -375 -151t-118 -468q0 -292 123.5 -446t359.5 -154q114 0 215 27.5t160 73.5l37 200h65l-6 -315q-220 -63 -473 -63z
M452 1453v33l218 273h213l217 -273v-33h-56l-268 183l-268 -183h-56z" />
    <glyph glyph-name="ccircumflex" unicode="&#x109;" horiz-adv-x="909" 
d="M846 57q-49 -36 -135 -56.5t-176 -20.5q-457 0 -457 497q0 235 116.5 361.5t333.5 126.5q135 0 295 -31v-262h-55l-43 166q-83 47 -199 47q-268 0 -268 -408q0 -212 81.5 -302.5t252.5 -90.5q146 0 254 33v-60zM188 1119v33l218 273h213l217 -273v-33h-56l-268 183
l-268 -183h-56z" />
    <glyph glyph-name="uni010A" unicode="&#x10a;" horiz-adv-x="1366" 
d="M774 -20q-326 0 -508 177.5t-182 497.5q0 346 175 523.5t519 177.5q209 0 449 -51l6 -293h-66l-30 174q-70 43 -162.5 66.5t-188.5 23.5q-257 0 -375 -151t-118 -468q0 -292 123.5 -446t359.5 -154q114 0 215 27.5t160 73.5l37 200h65l-6 -315q-220 -63 -473 -63z
M877 1581q0 -44 -32 -76t-77 -32q-44 0 -76 32t-32 76q0 45 32 77t76 32q45 0 77 -32t32 -77z" />
    <glyph glyph-name="uni010B" unicode="&#x10b;" horiz-adv-x="909" 
d="M846 57q-49 -36 -135 -56.5t-176 -20.5q-457 0 -457 497q0 235 116.5 361.5t333.5 126.5q135 0 295 -31v-262h-55l-43 166q-83 47 -199 47q-268 0 -268 -408q0 -212 81.5 -302.5t252.5 -90.5q146 0 254 33v-60zM639 1247q0 -44 -32 -76t-77 -32q-44 0 -76 32t-32 76
q0 45 32 77t76 32q45 0 77 -32t32 -77z" />
    <glyph glyph-name="Emacron" unicode="&#x112;" horiz-adv-x="1251" 
d="M59 53l172 27v1182l-172 26v53h1006v-321h-66l-32 217q-112 14 -324 14h-219v-524h362l31 160h64v-412h-64l-31 162h-362v-547h264q258 0 338 16l57 248h66l-19 -354h-1071v53zM311 1475v109h628v-109h-628z" />
    <glyph glyph-name="emacron" unicode="&#x113;" horiz-adv-x="909" 
d="M260 473v-18q0 -138 30.5 -214.5t94 -116.5t166.5 -40q54 0 128 9t122 20v-56q-48 -31 -130.5 -54t-168.5 -23q-219 0 -320.5 118t-101.5 379q0 246 103 367t294 121q361 0 361 -410v-82h-578zM477 885q-104 0 -159.5 -84t-55.5 -248h402q0 179 -46 255.5t-141 76.5z
M163 1141v109h628v-109h-628z" />
    <glyph glyph-name="Ebreve" unicode="&#x114;" horiz-adv-x="1251" 
d="M59 53l172 27v1182l-172 26v53h1006v-321h-66l-32 217q-112 14 -324 14h-219v-524h362l31 160h64v-412h-64l-31 162h-362v-547h264q258 0 338 16l57 248h66l-19 -354h-1071v53zM625 1453q-134 0 -209 76.5t-78 203.5h74q16 -67 72.5 -103t140.5 -36t140 36t73 103h74
q-5 -131 -80 -205.5t-207 -74.5z" />
    <glyph glyph-name="ebreve" unicode="&#x115;" horiz-adv-x="909" 
d="M260 473v-18q0 -138 30.5 -214.5t94 -116.5t166.5 -40q54 0 128 9t122 20v-56q-48 -31 -130.5 -54t-168.5 -23q-219 0 -320.5 118t-101.5 379q0 246 103 367t294 121q361 0 361 -410v-82h-578zM477 885q-104 0 -159.5 -84t-55.5 -248h402q0 179 -46 255.5t-141 76.5z
M468 1119q-134 0 -209 76.5t-78 203.5h74q16 -67 72.5 -103t140.5 -36t140 36t73 103h74q-5 -131 -80 -205.5t-207 -74.5z" />
    <glyph glyph-name="uni0116" unicode="&#x116;" horiz-adv-x="1251" 
d="M59 53l172 27v1182l-172 26v53h1006v-321h-66l-32 217q-112 14 -324 14h-219v-524h362l31 160h64v-412h-64l-31 162h-362v-547h264q258 0 338 16l57 248h66l-19 -354h-1071v53zM744 1581q0 -44 -32 -76t-77 -32q-44 0 -76 32t-32 76q0 45 32 77t76 32q45 0 77 -32t32 -77
z" />
    <glyph glyph-name="uni0117" unicode="&#x117;" horiz-adv-x="909" 
d="M260 473v-18q0 -138 30.5 -214.5t94 -116.5t166.5 -40q54 0 128 9t122 20v-56q-48 -31 -130.5 -54t-168.5 -23q-219 0 -320.5 118t-101.5 379q0 246 103 367t294 121q361 0 361 -410v-82h-578zM477 885q-104 0 -159.5 -84t-55.5 -248h402q0 179 -46 255.5t-141 76.5z
M582 1247q0 -44 -32 -76t-77 -32q-44 0 -76 32t-32 76q0 45 32 77t76 32q45 0 77 -32t32 -77z" />
    <glyph glyph-name="Gcircumflex" unicode="&#x11c;" horiz-adv-x="1479" 
d="M1284 70q-116 -38 -241 -64t-269 -26q-326 0 -508 176t-182 499q0 352 176.5 526.5t517.5 174.5q244 0 471 -60v-288h-67l-27 166q-69 49 -165.5 75.5t-203.5 26.5q-256 0 -374.5 -152.5t-118.5 -466.5q0 -295 122 -447.5t361 -152.5q84 0 176 20t140 48v381l-172 26v54
h495v-54l-131 -26v-436zM451 1453v33l218 273h213l217 -273v-33h-56l-268 183l-268 -183h-56z" />
    <glyph glyph-name="gcircumflex" unicode="&#x11d;" horiz-adv-x="1024" 
d="M870 643q0 -162 -97 -245t-279 -83q-82 0 -152 15l-63 -131q3 -17 39 -32t90 -15h278q152 0 225.5 -66t73.5 -182q0 -105 -58.5 -183t-171.5 -120.5t-274 -42.5q-192 0 -292.5 59t-100.5 168q0 53 36 104.5t132 120.5q-57 19 -96 65t-39 99l158 178q-158 74 -158 291
q0 154 97.5 238t283.5 84q37 0 95 -7.5t89 -17.5l221 111l35 -43l-139 -144q67 -75 67 -221zM829 -127q0 57 -35 89t-106 32h-364q-42 -36 -68.5 -91.5t-26.5 -103.5q0 -86 62 -123.5t190 -37.5q167 0 257.5 62t90.5 173zM496 391q109 0 154.5 62.5t45.5 189.5
q0 133 -47 189.5t-151 56.5q-105 0 -154 -57t-49 -189t48 -192t153 -60zM188 1119v33l218 273h213l217 -273v-33h-56l-268 183l-268 -183h-56z" />
    <glyph glyph-name="uni0120" unicode="&#x120;" horiz-adv-x="1479" 
d="M1284 70q-116 -38 -241 -64t-269 -26q-326 0 -508 176t-182 499q0 352 176.5 526.5t517.5 174.5q244 0 471 -60v-288h-67l-27 166q-69 49 -165.5 75.5t-203.5 26.5q-256 0 -374.5 -152.5t-118.5 -466.5q0 -295 122 -447.5t361 -152.5q84 0 176 20t140 48v381l-172 26v54
h495v-54l-131 -26v-436zM884 1581q0 -44 -32 -76t-77 -32q-44 0 -76 32t-32 76q0 45 32 77t76 32q45 0 77 -32t32 -77z" />
    <glyph glyph-name="uni0121" unicode="&#x121;" horiz-adv-x="1024" 
d="M870 643q0 -162 -97 -245t-279 -83q-82 0 -152 15l-63 -131q3 -17 39 -32t90 -15h278q152 0 225.5 -66t73.5 -182q0 -105 -58.5 -183t-171.5 -120.5t-274 -42.5q-192 0 -292.5 59t-100.5 168q0 53 36 104.5t132 120.5q-57 19 -96 65t-39 99l158 178q-158 74 -158 291
q0 154 97.5 238t283.5 84q37 0 95 -7.5t89 -17.5l221 111l35 -43l-139 -144q67 -75 67 -221zM829 -127q0 57 -35 89t-106 32h-364q-42 -36 -68.5 -91.5t-26.5 -103.5q0 -86 62 -123.5t190 -37.5q167 0 257.5 62t90.5 173zM496 391q109 0 154.5 62.5t45.5 189.5
q0 133 -47 189.5t-151 56.5q-105 0 -154 -57t-49 -189t48 -192t153 -60zM603 1247q0 -44 -32 -76t-77 -32q-44 0 -76 32t-32 76q0 45 32 77t76 32q45 0 77 -32t32 -77z" />
    <glyph glyph-name="uni0122" unicode="&#x122;" horiz-adv-x="1479" 
d="M1284 70q-116 -38 -241 -64t-269 -26q-326 0 -508 176t-182 499q0 352 176.5 526.5t517.5 174.5q244 0 471 -60v-288h-67l-27 166q-69 49 -165.5 75.5t-203.5 26.5q-256 0 -374.5 -152.5t-118.5 -466.5q0 -295 122 -447.5t361 -152.5q84 0 176 20t140 48v381l-172 26v54
h495v-54l-131 -26v-436zM871 -204q0 -88 -50 -141.5t-174 -90.5v63q120 36 120 89q0 23 -17 34t-38 21.5t-38 27t-17 50.5q0 38 27.5 60t70.5 22q51 0 83.5 -38.5t32.5 -96.5z" />
    <glyph glyph-name="uni0123" unicode="&#x123;" horiz-adv-x="1024" 
d="M870 643q0 -162 -97 -245t-279 -83q-82 0 -152 15l-63 -131q3 -17 39 -32t90 -15h278q152 0 225.5 -66t73.5 -182q0 -105 -58.5 -183t-171.5 -120.5t-274 -42.5q-192 0 -292.5 59t-100.5 168q0 53 36 104.5t132 120.5q-57 19 -96 65t-39 99l158 178q-158 74 -158 291
q0 154 97.5 238t283.5 84q37 0 95 -7.5t89 -17.5l221 111l35 -43l-139 -144q67 -75 67 -221zM829 -127q0 57 -35 89t-106 32h-364q-42 -36 -68.5 -91.5t-26.5 -103.5q0 -86 62 -123.5t190 -37.5q167 0 257.5 62t90.5 173zM496 391q109 0 154.5 62.5t45.5 189.5
q0 133 -47 189.5t-151 56.5q-105 0 -154 -57t-49 -189t48 -192t153 -60zM387 1255q0 88 50 141.5t174 90.5v-63q-120 -36 -120 -89q0 -23 17 -34t38 -21.5t38 -27t17 -50.5q0 -38 -27.5 -60t-70.5 -22q-51 0 -83.5 38.5t-32.5 96.5z" />
    <glyph glyph-name="Hcircumflex" unicode="&#x124;" horiz-adv-x="1479" 
d="M59 0v53l172 27v1182l-172 26v53h537v-53l-172 -26v-527h631v527l-172 26v53h536v-53l-172 -26v-1182l172 -27v-53h-536v53l172 27v565h-631v-565l172 -27v-53h-537zM415 1453v33l218 273h213l217 -273v-33h-56l-268 183l-268 -183h-56z" />
    <glyph glyph-name="hcircumflex" unicode="&#x125;" horiz-adv-x="1024" 
d="M326 1014q0 -104 -7 -150q72 41 163.5 71t154.5 30q122 0 184 -71t62 -206v-618l114 -25v-45h-405v45l125 25v606q0 172 -166 172q-94 0 -225 -29v-749l127 -25v-45h-412v45l119 25v1282l-140 24v45h306v-407zM185 1493v33l218 273h213l217 -273v-33h-56l-268 183
l-268 -183h-56z" />
    <glyph glyph-name="Hbar" unicode="&#x126;" horiz-adv-x="1479" 
d="M59 0v53l172 27v877h-171v82h171v223l-172 26v53h537v-53l-172 -26v-223h631v223l-172 26v53h536v-53l-172 -26v-223h173v-82h-173v-877l172 -27v-53h-536v53l172 27v565h-631v-565l172 -27v-53h-537zM1055 735v222h-631v-222h631z" />
    <glyph glyph-name="hbar" unicode="&#x127;" horiz-adv-x="1024" 
d="M326 1196h275v-84h-275v-98q0 -104 -7 -150q72 41 163.5 71t154.5 30q122 0 184 -71t62 -206v-618l114 -25v-45h-405v45l125 25v606q0 172 -166 172q-94 0 -225 -29v-749l127 -25v-45h-412v45l119 25v1042h-137v84h137v156l-140 24v45h306v-225z" />
    <glyph glyph-name="Itilde" unicode="&#x128;" horiz-adv-x="682" 
d="M438 80l172 -27v-53h-536v53l172 27v1182l-172 26v53h536v-53l-172 -26v-1182zM471 1452q-48 0 -88.5 21.5t-76.5 48t-69.5 48t-66.5 21.5q-32 0 -51.5 -12t-30.5 -34.5t-18 -72.5h-52q15 242 195 242q48 0 88.5 -21.5t77 -48t70 -48t65.5 -21.5q43 0 67 25t33 93h52
q-15 -241 -195 -241z" />
    <glyph glyph-name="itilde" unicode="&#x129;" horiz-adv-x="569" 
d="M369 70l161 -25v-45h-487v45l160 25v800l-133 25v45h299v-870zM415 1118q-48 0 -88.5 21.5t-76.5 48t-69.5 48t-66.5 21.5q-32 0 -51.5 -12t-30.5 -34.5t-18 -72.5h-52q15 242 195 242q48 0 88.5 -21.5t77 -48t70 -48t65.5 -21.5q43 0 67 25t33 93h52q-15 -241 -195 -241
z" />
    <glyph glyph-name="Imacron" unicode="&#x12a;" horiz-adv-x="682" 
d="M438 80l172 -27v-53h-536v53l172 27v1182l-172 26v53h536v-53l-172 -26v-1182zM27 1475v109h628v-109h-628z" />
    <glyph glyph-name="imacron" unicode="&#x12b;" horiz-adv-x="569" 
d="M369 70l161 -25v-45h-487v45l160 25v800l-133 25v45h299v-870zM-28 1141v109h628v-109h-628z" />
    <glyph glyph-name="Ibreve" unicode="&#x12c;" horiz-adv-x="682" 
d="M438 80l172 -27v-53h-536v53l172 27v1182l-172 26v53h536v-53l-172 -26v-1182zM341 1453q-134 0 -209 76.5t-78 203.5h74q16 -67 72.5 -103t140.5 -36t140 36t73 103h74q-5 -131 -80 -205.5t-207 -74.5z" />
    <glyph glyph-name="ibreve" unicode="&#x12d;" horiz-adv-x="569" 
d="M369 70l161 -25v-45h-487v45l160 25v800l-133 25v45h299v-870zM286 1119q-134 0 -209 76.5t-78 203.5h74q16 -67 72.5 -103t140.5 -36t140 36t73 103h74q-5 -131 -80 -205.5t-207 -74.5z" />
    <glyph glyph-name="Iogonek" unicode="&#x12e;" horiz-adv-x="682" 
d="M438 80l172 -27v-53h-536v53l172 27v1182l-172 26v53h536v-53l-172 -26v-1182zM432 -403q-111 0 -171 57.5t-60 159.5q0 53 23.5 105.5t66.5 96.5h109q-23 -33 -38.5 -85t-15.5 -93q0 -74 35.5 -113.5t102.5 -39.5q60 0 116 22v-64q-68 -46 -168 -46z" />
    <glyph glyph-name="iogonek" unicode="&#x12f;" horiz-adv-x="569" 
d="M379 1247q0 -44 -32 -76t-77 -32q-44 0 -76 32t-32 76q0 45 32 77t76 32q45 0 77 -32t32 -77zM369 70l161 -25v-45h-487v45l160 25v800l-133 25v45h299v-870zM364 -403q-111 0 -171 57.5t-60 159.5q0 53 23.5 105.5t66.5 96.5h109q-23 -33 -38.5 -85t-15.5 -93
q0 -74 35.5 -113.5t102.5 -39.5q60 0 116 22v-64q-68 -46 -168 -46z" />
    <glyph glyph-name="Jcircumflex" unicode="&#x134;" horiz-adv-x="797" 
d="M410 1262l-172 26v53h516v-53l-152 -26v-830q0 -134 -41 -234.5t-124.5 -159t-186.5 -58.5q-128 0 -207 30v244h66l30 -139q19 -23 54 -36t77 -13q140 0 140 190v1006zM180 1453v33l218 273h213l217 -273v-33h-56l-268 183l-268 -183h-56z" />
    <glyph glyph-name="jcircumflex" unicode="&#x135;" horiz-adv-x="569" 
d="M383 -39q0 -195 -75.5 -296t-221.5 -101q-62 0 -145 18v199h47l27 -109q33 -28 83 -28q59 0 89 63t30 203v960l-141 25v45h307v-979zM-39 1119v33l218 273h213l217 -273v-33h-56l-268 183l-268 -183h-56z" />
    <glyph glyph-name="uni0136" unicode="&#x136;" horiz-adv-x="1479" 
d="M1353 1341v-53l-155 -26l-458 -448l573 -734l145 -27v-53h-328l-525 678l-181 -145v-453l192 -27v-53h-557v53l172 27v1182l-172 26v53h537v-53l-172 -26v-632l642 632l-133 26v53h420zM879 -204q0 -88 -50 -141.5t-174 -90.5v63q120 36 120 89q0 23 -17 34t-38 21.5
t-38 27t-17 50.5q0 38 27.5 60t70.5 22q51 0 83.5 -38.5t32.5 -96.5z" />
    <glyph glyph-name="uni0137" unicode="&#x137;" horiz-adv-x="1024" 
d="M344 453l385 415l-98 27v45h332v-45l-117 -23l-268 -274l344 -530l102 -23v-45h-385v45l86 25l-258 405l-123 -135v-270l100 -25v-45h-385v45l119 25v1282l-139 24v45h305v-968zM625 -204q0 -88 -50 -141.5t-174 -90.5v63q120 36 120 89q0 23 -17 34t-38 21.5t-38 27
t-17 50.5q0 38 27.5 60t70.5 22q51 0 83.5 -38.5t32.5 -96.5z" />
    <glyph glyph-name="kgreenlandic" unicode="&#x138;" horiz-adv-x="1024" 
d="M344 453l385 415l-98 27v45h332v-45l-117 -23l-268 -274l344 -530l102 -23v-45h-385v45l86 25l-258 405l-123 -135v-270l100 -25v-45h-385v45l119 25v801l-139 24v45h305v-487z" />
    <glyph glyph-name="uni013B" unicode="&#x13b;" horiz-adv-x="1251" 
d="M631 1288l-207 -26v-1176h264q213 0 313 20l62 279h65l-18 -385h-1051v53l172 27v1182l-172 26v53h572v-53zM735 -204q0 -88 -50 -141.5t-174 -90.5v63q120 36 120 89q0 23 -17 34t-38 21.5t-38 27t-17 50.5q0 38 27.5 60t70.5 22q51 0 83.5 -38.5t32.5 -96.5z" />
    <glyph glyph-name="uni013C" unicode="&#x13c;" horiz-adv-x="569" 
d="M367 70l161 -25v-45h-487v45l160 25v1282l-160 24v45h326v-1351zM391 -204q0 -88 -50 -141.5t-174 -90.5v63q120 36 120 89q0 23 -17 34t-38 21.5t-38 27t-17 50.5q0 38 27.5 60t70.5 22q51 0 83.5 -38.5t32.5 -96.5z" />
    <glyph glyph-name="uni0145" unicode="&#x145;" horiz-adv-x="1479" 
d="M1155 1262l-180 26v53h457v-53l-172 -26v-1262h-97l-827 1206v-1126l180 -27v-53h-457v53l172 27v1182l-172 26v53h406l690 -993v914zM832 -204q0 -88 -50 -141.5t-174 -90.5v63q120 36 120 89q0 23 -17 34t-38 21.5t-38 27t-17 50.5q0 38 27.5 60t70.5 22
q51 0 83.5 -38.5t32.5 -96.5z" />
    <glyph glyph-name="uni0146" unicode="&#x146;" horiz-adv-x="1024" 
d="M324 864q77 44 164 72.5t145 28.5q122 0 184 -71t62 -206v-618l114 -25v-45h-405v45l125 25v600q0 83 -40.5 130.5t-125.5 47.5q-90 0 -221 -29v-749l127 -25v-45h-406v45l113 25v800l-113 25v45h268zM614 -204q0 -88 -50 -141.5t-174 -90.5v63q120 36 120 89
q0 23 -17 34t-38 21.5t-38 27t-17 50.5q0 38 27.5 60t70.5 22q51 0 83.5 -38.5t32.5 -96.5z" />
    <glyph glyph-name="Eng" unicode="&#x14a;" horiz-adv-x="1437" 
d="M1090 950q0 139 -59 210t-194 71q-86 0 -193 -30t-220 -87v-1034l172 -27v-53h-537v53l172 27v1182l-172 26v53h363l2 -140q117 66 251.5 108t237.5 42q193 0 280.5 -92t87.5 -300v-527q0 -134 -41 -234.5t-124.5 -159t-186.5 -58.5q-128 0 -207 30v244h66l30 -139
q19 -23 54 -36t77 -13q141 0 141 190v694z" />
    <glyph glyph-name="eng" unicode="&#x14b;" horiz-adv-x="1013" 
d="M833 -39q0 -195 -75.5 -296t-221.5 -101q-62 0 -145 18v199h47l27 -109q33 -28 83 -28q59 0 89 63t30 203v760q0 178 -145 178q-80 0 -196 -29v-749l127 -25v-45h-406v45l113 25v800l-113 25v45h268l9 -76q65 42 146.5 71.5t138.5 29.5q110 0 167 -70.5t57 -206.5v-727z
" />
    <glyph glyph-name="Omacron" unicode="&#x14c;" horiz-adv-x="1479" 
d="M293 672q0 -323 108 -468t338 -145q229 0 338 145t109 468q0 321 -108.5 462.5t-338.5 141.5q-231 0 -338.5 -141.5t-107.5 -462.5zM84 672q0 684 655 684q324 0 490 -173.5t166 -510.5q0 -342 -168 -517t-488 -175q-319 0 -487 174.5t-168 517.5zM425 1475v109h628v-109
h-628z" />
    <glyph glyph-name="omacron" unicode="&#x14d;" horiz-adv-x="1024" 
d="M946 475q0 -495 -440 -495q-212 0 -320 127t-108 368q0 238 108 364t328 126q214 0 323 -123.5t109 -366.5zM766 475q0 216 -63 313t-197 97q-131 0 -189.5 -93t-58.5 -317q0 -227 59.5 -321.5t188.5 -94.5q132 0 196 98t64 318zM198 1141v109h628v-109h-628z" />
    <glyph glyph-name="Obreve" unicode="&#x14e;" horiz-adv-x="1479" 
d="M293 672q0 -323 108 -468t338 -145q229 0 338 145t109 468q0 321 -108.5 462.5t-338.5 141.5q-231 0 -338.5 -141.5t-107.5 -462.5zM84 672q0 684 655 684q324 0 490 -173.5t166 -510.5q0 -342 -168 -517t-488 -175q-319 0 -487 174.5t-168 517.5zM739 1453
q-134 0 -209 76.5t-78 203.5h74q16 -67 72.5 -103t140.5 -36t140 36t73 103h74q-5 -131 -80 -205.5t-207 -74.5z" />
    <glyph glyph-name="obreve" unicode="&#x14f;" horiz-adv-x="1024" 
d="M946 475q0 -495 -440 -495q-212 0 -320 127t-108 368q0 238 108 364t328 126q214 0 323 -123.5t109 -366.5zM766 475q0 216 -63 313t-197 97q-131 0 -189.5 -93t-58.5 -317q0 -227 59.5 -321.5t188.5 -94.5q132 0 196 98t64 318zM512 1119q-134 0 -209 76.5t-78 203.5h74
q16 -67 72.5 -103t140.5 -36t140 36t73 103h74q-5 -131 -80 -205.5t-207 -74.5z" />
    <glyph glyph-name="uni0156" unicode="&#x156;" horiz-adv-x="1366" 
d="M424 588v-508l203 -27v-53h-555v53l159 27v1182l-172 26v53h579q252 0 372 -85t120 -273q0 -134 -73 -231.5t-202 -135.5l363 -536l145 -27v-53h-321l-377 588h-241zM931 969q0 153 -74.5 217.5t-261.5 64.5h-171v-573h177q179 0 254.5 66.5t75.5 224.5zM824 -204
q0 -88 -50 -141.5t-174 -90.5v63q120 36 120 89q0 23 -17 34t-38 21.5t-38 27t-17 50.5q0 38 27.5 60t70.5 22q51 0 83.5 -38.5t32.5 -96.5z" />
    <glyph glyph-name="uni0157" unicode="&#x157;" horiz-adv-x="682" 
d="M664 965v-254h-43l-58 110q-50 0 -118.5 -13.5t-118.5 -35.5v-702l161 -25v-45h-446v45l119 25v800l-119 25v45h274l9 -117q60 50 162.5 96t162.5 46h15zM351 -204q0 -88 -50 -141.5t-174 -90.5v63q120 36 120 89q0 23 -17 34t-38 21.5t-38 27t-17 50.5q0 38 27.5 60
t70.5 22q51 0 83.5 -38.5t32.5 -96.5z" />
    <glyph glyph-name="Scircumflex" unicode="&#x15c;" horiz-adv-x="1139" 
d="M139 361h65l35 -181q37 -47 127.5 -83t178.5 -36q140 0 218.5 71.5t78.5 197.5q0 72 -30.5 119t-80 79.5t-112.5 55t-129.5 45.5t-129.5 51t-112.5 71t-80 106.5t-30.5 156.5q0 160 120 251t333 91q162 0 352 -43v-279h-65l-35 164q-102 74 -252 74q-134 0 -209.5 -54.5
t-75.5 -150.5q0 -65 30.5 -108t80 -73.5t113 -52.5t130 -45.5t130 -53t113 -75t80 -111t30.5 -161.5q0 -194 -119 -300.5t-343 -106.5q-108 0 -217 19t-194 52v310zM245 1453v33l218 273h213l217 -273v-33h-56l-268 183l-268 -183h-56z" />
    <glyph glyph-name="scircumflex" unicode="&#x15d;" horiz-adv-x="797" 
d="M723 264q0 -140 -88.5 -212t-261.5 -72q-70 0 -154.5 14.5t-132.5 32.5v231h45l49 -131q75 -68 195 -68q194 0 194 166q0 122 -153 174l-89 29q-101 33 -147 67t-71 83.5t-25 119.5q0 124 84.5 195.5t228.5 71.5q103 0 258 -31v-205h-47l-42 109q-53 47 -167 47
q-81 0 -123.5 -40t-42.5 -108q0 -57 38.5 -96t116.5 -65q147 -50 192 -73t76.5 -56.5t49 -76.5t17.5 -106zM74 1119v33l218 273h213l217 -273v-33h-56l-268 183l-268 -183h-56z" />
    <glyph glyph-name="Tbar" unicode="&#x166;" horiz-adv-x="1251" 
d="M315 0v53l213 27v549h-321v82h321v544h-51q-253 0 -346 -20l-27 -209h-67v315h1180v-315h-68l-27 209q-30 7 -131 12.5t-221 5.5h-49v-542h324v-82h-324v-549l213 -27v-53h-619z" />
    <glyph glyph-name="tbar" unicode="&#x167;" horiz-adv-x="569" 
d="M334 -20q-96 0 -143.5 57t-47.5 160v300h-120v84h120v275h-123v45l125 39l101 213h63v-213h215v-84h-215v-275h206v-84h-206v-282q0 -65 29.5 -98t77.5 -33q58 0 141 16v-65q-35 -24 -101 -39.5t-122 -15.5z" />
    <glyph glyph-name="Utilde" unicode="&#x168;" horiz-adv-x="1479" 
d="M1159 1262l-180 26v53h457v-53l-172 -26v-801q0 -241 -132.5 -361t-384.5 -120q-267 0 -399.5 120.5t-132.5 341.5v820l-172 26v53h536v-53l-172 -26v-805q0 -365 355 -365q192 0 294.5 91t102.5 270v809zM905 1452q-48 0 -88.5 21.5t-76.5 48t-69.5 48t-66.5 21.5
q-32 0 -51.5 -12t-30.5 -34.5t-18 -72.5h-52q15 242 195 242q48 0 88.5 -21.5t77 -48t70 -48t65.5 -21.5q43 0 67 25t33 93h52q-15 -241 -195 -241z" />
    <glyph glyph-name="utilde" unicode="&#x169;" horiz-adv-x="1024" 
d="M313 268q0 -172 160 -172q124 0 232 31v743l-142 25v45h307v-870l119 -25v-45h-274l-8 76q-71 -39 -164 -67.5t-156 -28.5q-240 0 -240 276v614l-120 25v45h286v-672zM641 1118q-48 0 -88.5 21.5t-76.5 48t-69.5 48t-66.5 21.5q-32 0 -51.5 -12t-30.5 -34.5t-18 -72.5
h-52q15 242 195 242q48 0 88.5 -21.5t77 -48t70 -48t65.5 -21.5q43 0 67 25t33 93h52q-15 -241 -195 -241z" />
    <glyph glyph-name="Umacron" unicode="&#x16a;" horiz-adv-x="1479" 
d="M1159 1262l-180 26v53h457v-53l-172 -26v-801q0 -241 -132.5 -361t-384.5 -120q-267 0 -399.5 120.5t-132.5 341.5v820l-172 26v53h536v-53l-172 -26v-805q0 -365 355 -365q192 0 294.5 91t102.5 270v809zM455 1475v109h628v-109h-628z" />
    <glyph glyph-name="umacron" unicode="&#x16b;" horiz-adv-x="1024" 
d="M313 268q0 -172 160 -172q124 0 232 31v743l-142 25v45h307v-870l119 -25v-45h-274l-8 76q-71 -39 -164 -67.5t-156 -28.5q-240 0 -240 276v614l-120 25v45h286v-672zM198 1141v109h628v-109h-628z" />
    <glyph glyph-name="Ubreve" unicode="&#x16c;" horiz-adv-x="1479" 
d="M1159 1262l-180 26v53h457v-53l-172 -26v-801q0 -241 -132.5 -361t-384.5 -120q-267 0 -399.5 120.5t-132.5 341.5v820l-172 26v53h536v-53l-172 -26v-805q0 -365 355 -365q192 0 294.5 91t102.5 270v809zM782 1453q-134 0 -209 76.5t-78 203.5h74q16 -67 72.5 -103
t140.5 -36t140 36t73 103h74q-5 -131 -80 -205.5t-207 -74.5z" />
    <glyph glyph-name="ubreve" unicode="&#x16d;" horiz-adv-x="1024" 
d="M313 268q0 -172 160 -172q124 0 232 31v743l-142 25v45h307v-870l119 -25v-45h-274l-8 76q-71 -39 -164 -67.5t-156 -28.5q-240 0 -240 276v614l-120 25v45h286v-672zM512 1119q-134 0 -209 76.5t-78 203.5h74q16 -67 72.5 -103t140.5 -36t140 36t73 103h74
q-5 -131 -80 -205.5t-207 -74.5z" />
    <glyph glyph-name="Uogonek" unicode="&#x172;" horiz-adv-x="1479" 
d="M1159 1262l-180 26v53h457v-53l-172 -26v-801q0 -241 -132.5 -361t-384.5 -120q-267 0 -399.5 120.5t-132.5 341.5v820l-172 26v53h536v-53l-172 -26v-805q0 -365 355 -365q192 0 294.5 91t102.5 270v809zM914 -408q-111 0 -171 57.5t-60 159.5q0 53 23.5 105.5
t66.5 96.5h109q-23 -33 -38.5 -85t-15.5 -93q0 -74 35.5 -113.5t102.5 -39.5q60 0 116 22v-64q-68 -46 -168 -46z" />
    <glyph glyph-name="uogonek" unicode="&#x173;" horiz-adv-x="1024" 
d="M313 268q0 -172 160 -172q124 0 232 31v743l-142 25v45h307v-870l119 -25v-45h-274l-8 76q-71 -39 -164 -67.5t-156 -28.5q-240 0 -240 276v614l-120 25v45h286v-672zM857 -403q-111 0 -171 57.5t-60 159.5q0 53 23.5 105.5t66.5 96.5h109q-23 -33 -38.5 -85t-15.5 -93
q0 -74 35.5 -113.5t102.5 -39.5q60 0 116 22v-64q-68 -46 -168 -46z" />
    <glyph glyph-name="Wcircumflex" unicode="&#x174;" horiz-adv-x="1933" 
d="M1374 -31h-53l-348 924l-357 -924h-53l-444 1293l-117 26v53h512v-53l-197 -26l319 -945l361 930h45l348 -930l304 945l-209 26v53h444v-53l-117 -26zM678 1453v33l218 273h213l217 -273v-33h-56l-268 183l-268 -183h-56z" />
    <glyph glyph-name="wcircumflex" unicode="&#x175;" horiz-adv-x="1479" 
d="M1051 -20h-78l-232 620l-229 -620h-74l-325 890l-111 25v45h447v-45l-156 -27l223 -635l227 613h84l226 -617l213 641l-154 25v45h358v-45l-104 -21zM446 1119v33l218 273h213l217 -273v-33h-56l-268 183l-268 -183h-56z" />
    <glyph glyph-name="Ycircumflex" unicode="&#x176;" horiz-adv-x="1479" 
d="M838 528v-448l213 -27v-53h-619v53l213 27v442l-471 740l-151 26v53h567v-53l-180 -26l385 -619l366 619l-170 26v53h436v-53l-147 -26zM415 1453v33l218 273h213l217 -273v-33h-56l-268 183l-268 -183h-56z" />
    <glyph glyph-name="ycircumflex" unicode="&#x177;" horiz-adv-x="1024" 
d="M199 -442q-78 0 -154 18v203h47l33 -96q31 -23 86 -23q52 0 96 30t80.5 89t91.5 211l-358 880l-96 25v45h436v-45l-148 -27l254 -657l246 659l-147 25v45h350v-45l-98 -21l-367 -933q-65 -165 -113 -237t-106 -109t-133 -37zM211 1119v33l218 273h213l217 -273v-33h-56
l-268 183l-268 -183h-56z" />
    <glyph glyph-name="longs" unicode="&#x17f;" horiz-adv-x="569" 
d="M354 78l163 -33v-45h-468v45l139 33v932q0 208 82.5 320t231.5 112q76 0 143 -19v-205h-49l-45 123q-34 21 -82 21q-63 0 -89 -56t-26 -210v-1018z" />
    <glyph glyph-name="Aringacute" unicode="&#x1fa;" horiz-adv-x="1479" 
d="M461 53v-53h-441v53l152 27l457 1272h190l475 -1272l170 -27v-53h-567v53l180 27l-133 387h-528l-135 -387zM676 1208l-230 -651h467zM925 1476q0 -84 -59.5 -143.5t-143.5 -59.5t-143.5 59.5t-59.5 143.5t59.5 143.5t143.5 59.5t143.5 -59.5t59.5 -143.5zM845 1476
q0 51 -36 87t-87 36t-87 -36t-36 -87q0 -52 37 -87.5t86 -35.5q48 0 85.5 35t37.5 88zM626 1705v33l196 272h213v-37l-354 -268h-55z" />
    <glyph glyph-name="aringacute" unicode="&#x1fb;" horiz-adv-x="909" 
d="M465 961q154 0 226.5 -63t72.5 -193v-635l117 -25v-45h-258l-19 94q-114 -114 -291 -114q-241 0 -241 280q0 94 36.5 155.5t116.5 94t232 35.5l141 4v147q0 97 -35.5 143t-109.5 46q-100 0 -183 -47l-34 -117h-56v205q162 35 285 35zM598 479l-131 -4q-134 -5 -181.5 -52
t-47.5 -157q0 -176 143 -176q68 0 117.5 15.5t99.5 39.5v334zM674 1280q0 -84 -59.5 -143.5t-143.5 -59.5t-143.5 59.5t-59.5 143.5t59.5 143.5t143.5 59.5t143.5 -59.5t59.5 -143.5zM594 1280q0 51 -36 87t-87 36t-87 -36t-36 -87q0 -52 37 -87.5t86 -35.5q48 0 85.5 35
t37.5 88zM352 1530v33l196 272h213v-37l-354 -268h-55z" />
    <glyph glyph-name="AEacute" unicode="&#x1fc;" horiz-adv-x="1821" 
d="M731 53l152 27v387h-412l-207 -387l158 -27v-53h-402v53l136 27l647 1190l-164 18v53h995v-321h-65l-33 217q-112 14 -324 14h-137v-524h281l30 160h64v-412h-64l-30 162h-281v-547h182q258 0 338 16l58 248h65l-18 -354h-969v53zM883 557v674l-363 -674h363zM988 1453
v33l196 272h213v-37l-354 -268h-55z" />
    <glyph glyph-name="aeacute" unicode="&#x1fd;" horiz-adv-x="1366" 
d="M764 473v-90q2 -124 27.5 -182t79 -87.5t141.5 -29.5q54 0 128 9t122 20v-56q-50 -32 -128 -54.5t-161 -22.5q-230 0 -322 129q-145 -129 -338 -129q-241 0 -241 280q0 94 36.5 155.5t116.5 94t232 35.5l141 4v147q0 97 -35.5 143t-109.5 46q-100 0 -183 -47l-34 -117
h-56v205q162 35 285 35q167 0 237 -74q88 78 244 78q175 0 263.5 -104t88.5 -306v-82h-534zM381 90q115 0 244 68q-9 17 -18 65t-9 96v160l-131 -4q-134 -5 -181.5 -52t-47.5 -157q0 -176 143 -176zM946 885q-95 0 -138.5 -74t-43.5 -258h360q0 171 -43.5 251.5t-134.5 80.5
zM571 1119v33l196 272h213v-37l-354 -268h-55z" />
    <glyph glyph-name="Oslashacute" unicode="&#x1fe;" horiz-adv-x="1479" 
d="M84 672q0 684 655 684q259 0 418 -113l123 148h115l-170 -205q170 -178 170 -514q0 -342 -168 -517t-488 -175q-259 0 -413 110l-121 -145h-119l170 205q-172 176 -172 522zM293 672q0 -253 65 -398l715 865q-108 137 -334 137q-231 0 -338.5 -141.5t-107.5 -462.5z
M1186 672q0 244 -64 387l-712 -866q106 -134 329 -134q229 0 338 145t109 468zM627 1453v33l196 272h213v-37l-354 -268h-55z" />
    <glyph glyph-name="oslashacute" unicode="&#x1ff;" horiz-adv-x="1024" 
d="M952 1022l-123 -174q117 -127 117 -373q0 -495 -440 -495q-145 0 -242 59l-86 -123h-108l127 178q-119 125 -119 381q0 238 108 364t328 126q149 0 250 -64l84 121h104zM258 475q0 -161 29 -252l405 578q-62 84 -186 84q-131 0 -189.5 -93t-58.5 -317zM766 475
q0 147 -31 240l-405 -580q60 -76 176 -76q132 0 196 98t64 318zM404 1119v33l196 272h213v-37l-354 -268h-55z" />
    <glyph glyph-name="anoteleia" unicode="&#x387;" horiz-adv-x="569" 
d="M377 678q0 -51 -35 -86t-86 -35t-86 35t-35 86q0 49 34.5 85t86.5 36t86.5 -36t34.5 -85z" />
    <glyph glyph-name="Wgrave" unicode="&#x1e80;" horiz-adv-x="1933" 
d="M1374 -31h-53l-348 924l-357 -924h-53l-444 1293l-117 26v53h512v-53l-197 -26l319 -945l361 930h45l348 -930l304 945l-209 26v53h444v-53l-117 -26zM1116 1453l-354 268v37h213l196 -272v-33h-55z" />
    <glyph glyph-name="wgrave" unicode="&#x1e81;" horiz-adv-x="1479" 
d="M1051 -20h-78l-232 620l-229 -620h-74l-325 890l-111 25v45h447v-45l-156 -27l223 -635l227 613h84l226 -617l213 641l-154 25v45h358v-45l-104 -21zM864 1119l-354 268v37h213l196 -272v-33h-55z" />
    <glyph glyph-name="Wacute" unicode="&#x1e82;" horiz-adv-x="1933" 
d="M1374 -31h-53l-348 924l-357 -924h-53l-444 1293l-117 26v53h512v-53l-197 -26l319 -945l361 930h45l348 -930l304 945l-209 26v53h444v-53l-117 -26zM867 1453v33l196 272h213v-37l-354 -268h-55z" />
    <glyph glyph-name="wacute" unicode="&#x1e83;" horiz-adv-x="1479" 
d="M1051 -20h-78l-232 620l-229 -620h-74l-325 890l-111 25v45h447v-45l-156 -27l223 -635l227 613h84l226 -617l213 641l-154 25v45h358v-45l-104 -21zM639 1119v33l196 272h213v-37l-354 -268h-55z" />
    <glyph glyph-name="Wdieresis" unicode="&#x1e84;" horiz-adv-x="1933" 
d="M1374 -31h-53l-348 924l-357 -924h-53l-444 1293l-117 26v53h512v-53l-197 -26l319 -945l361 930h45l348 -930l304 945l-209 26v53h444v-53l-117 -26zM1286 1528q0 -42 -28 -71.5t-70 -29.5t-71 31t-29 70q0 42 29 71t71 29t70 -29t28 -71zM930 1528q0 -42 -28 -71.5
t-70 -29.5q-41 0 -71 30t-30 71q0 42 31 71t70 29q42 0 70 -29t28 -71z" />
    <glyph glyph-name="wdieresis" unicode="&#x1e85;" horiz-adv-x="1479" 
d="M1051 -20h-78l-232 620l-229 -620h-74l-325 890l-111 25v45h447v-45l-156 -27l223 -635l227 613h84l226 -617l213 641l-154 25v45h358v-45l-104 -21zM1052 1194q0 -42 -28 -71.5t-70 -29.5t-71 31t-29 70q0 42 29 71t71 29t70 -29t28 -71zM696 1194q0 -42 -28 -71.5
t-70 -29.5q-41 0 -71 30t-30 71q0 42 31 71t70 29q42 0 70 -29t28 -71z" />
    <glyph glyph-name="Ygrave" unicode="&#x1ef2;" horiz-adv-x="1479" 
d="M838 528v-448l213 -27v-53h-619v53l213 27v442l-471 740l-151 26v53h567v-53l-180 -26l385 -619l366 619l-170 26v53h436v-53l-147 -26zM811 1453l-354 268v37h213l196 -272v-33h-55z" />
    <glyph glyph-name="ygrave" unicode="&#x1ef3;" horiz-adv-x="1024" 
d="M199 -442q-78 0 -154 18v203h47l33 -96q31 -23 86 -23q52 0 96 30t80.5 89t91.5 211l-358 880l-96 25v45h436v-45l-148 -27l254 -657l246 659l-147 25v45h350v-45l-98 -21l-367 -933q-65 -165 -113 -237t-106 -109t-133 -37zM597 1119l-354 268v37h213l196 -272v-33h-55z
" />
    <glyph glyph-name="quotereversed" unicode="&#x201b;" horiz-adv-x="682" 
d="M197 1200q0 74 40.5 118t102.5 44q53 0 87 -28.5t34 -82.5q0 -64 -67 -99q-40 -20 -54 -36t-14 -35q0 -112 176 -168v-77q-147 42 -226 135t-79 229z" />
    <glyph glyph-name="uni203E" unicode="&#x203e;" horiz-adv-x="682" 
d="M743 1540h-803v80h803v-80z" />
    <glyph glyph-name="lira" unicode="&#x20a4;" horiz-adv-x="1024" 
d="M325 515q-10 35 -42 114h-162v82h127q-67 156 -67 295q0 168 104.5 259t312.5 91q56 0 115 -7.5t178 -35.5v-258h-65l-35 164q-93 53 -193 53q-229 0 -229 -266q0 -137 29 -295h278v-82h-262q12 -83 14 -114h248v-82h-247q-5 -76 -40 -141t-118 -138h690v-154h-838v117
l72 64q143 124 143 249v3h-217v82h204z" />
    <glyph glyph-name="estimated" unicode="&#x212e;" horiz-adv-x="1229" 
d="M1086 243q-96 -153 -205.5 -215t-261.5 -62q-158 0 -278 72.5t-186.5 204t-66.5 288.5q0 171 70 299t192 197t269 69q151 0 273 -70.5t189 -199.5t67 -295h-827v-356q53 -56 135 -90t163 -34q132 0 222.5 52t172.5 182zM917 616v277q-51 53 -132.5 85.5t-167.5 32.5
q-179 0 -296 -117v-278h596z" />
    <glyph glyph-name="oneeighth" unicode="&#x215b;" horiz-adv-x="1536" 
d="M375 598l166 -14v-49h-475v49l165 14v625l-161 -58v47l233 134h72v-748zM336 0h-102l964 1341h100zM1439 612q0 -66 -34 -112t-91 -70q69 -24 110 -76t41 -133q0 -107 -68.5 -168.5t-213.5 -61.5q-137 0 -205.5 60.5t-68.5 169.5q0 80 40.5 132.5t109.5 76.5
q-126 53 -126 182q0 100 65.5 154.5t188.5 54.5q125 0 188.5 -56t63.5 -153zM1334 226q0 87 -35.5 127t-115.5 40q-77 0 -110 -38.5t-33 -128.5q0 -91 33 -129t110 -38q78 0 114.5 38t36.5 129zM1310 607q0 146 -125 146q-62 0 -91.5 -35.5t-29.5 -110.5q0 -77 29.5 -109
t91.5 -32q63 0 94 32.5t31 108.5z" />
    <glyph glyph-name="threeeighths" unicode="&#x215c;" horiz-adv-x="1536" 
d="M336 0h-102l964 1341h100zM1439 612q0 -66 -34 -112t-91 -70q69 -24 110 -76t41 -133q0 -107 -68.5 -168.5t-213.5 -61.5q-137 0 -205.5 60.5t-68.5 169.5q0 80 40.5 132.5t109.5 76.5q-126 53 -126 182q0 100 65.5 154.5t188.5 54.5q125 0 188.5 -56t63.5 -153z
M1334 226q0 87 -35.5 127t-115.5 40q-77 0 -110 -38.5t-33 -128.5q0 -91 33 -129t110 -38q78 0 114.5 38t36.5 129zM1310 607q0 146 -125 146q-62 0 -91.5 -35.5t-29.5 -110.5q0 -77 29.5 -109t91.5 -32q63 0 94 32.5t31 108.5zM617 754q0 -106 -85 -169t-226 -63
q-105 0 -215 27l-6 186h55l27 -112q22 -13 58 -23t73 -10q96 0 136 36.5t40 133.5q0 78 -36 115.5t-126 42.5l-86 6v65l86 4q68 3 96.5 37.5t28.5 112.5q0 77 -29.5 108t-109.5 31q-64 0 -113 -29l-20 -102h-55v172q111 27 188 27q132 0 207.5 -51.5t75.5 -147.5
q0 -75 -49 -128t-140 -67q225 -25 225 -202z" />
    <glyph glyph-name="fiveeighths" unicode="&#x215d;" horiz-adv-x="1536" 
d="M336 0h-102l964 1341h100zM1439 612q0 -66 -34 -112t-91 -70q69 -24 110 -76t41 -133q0 -107 -68.5 -168.5t-213.5 -61.5q-137 0 -205.5 60.5t-68.5 169.5q0 80 40.5 132.5t109.5 76.5q-126 53 -126 182q0 100 65.5 154.5t188.5 54.5q125 0 188.5 -56t63.5 -153z
M1334 226q0 87 -35.5 127t-115.5 40q-77 0 -110 -38.5t-33 -128.5q0 -91 33 -129t110 -38q78 0 114.5 38t36.5 129zM1310 607q0 146 -125 146q-62 0 -91.5 -35.5t-29.5 -110.5q0 -77 29.5 -109t91.5 -32q63 0 94 32.5t31 108.5zM322 1027q135 0 206.5 -64t71.5 -174
q0 -125 -71 -196t-217 -71q-128 0 -218 26l-7 187h55l27 -112q21 -14 56.5 -23.5t64.5 -9.5q87 0 127 44t40 144t-42 139t-132 39q-61 0 -106 -14h-58v399h438v-112h-364v-217l23 5q50 10 106 10z" />
    <glyph glyph-name="seveneighths" unicode="&#x215e;" horiz-adv-x="1536" 
d="M276 0h-102l964 1341h100zM1419 612q0 -66 -34 -112t-91 -70q69 -24 110 -76t41 -133q0 -107 -68.5 -168.5t-213.5 -61.5q-137 0 -205.5 60.5t-68.5 169.5q0 80 40.5 132.5t109.5 76.5q-126 53 -126 182q0 100 65.5 154.5t188.5 54.5q125 0 188.5 -56t63.5 -153z
M1314 226q0 87 -35.5 127t-115.5 40q-77 0 -110 -38.5t-33 -128.5q0 -91 33 -129t110 -38q78 0 114.5 38t36.5 129zM1290 607q0 146 -125 146q-62 0 -91.5 -35.5t-29.5 -110.5q0 -77 29.5 -109t91.5 -32q63 0 94 32.5t31 108.5zM175 1111h-56v230h548v-66l-349 -739h-97
l342 693h-367z" />
    <glyph glyph-name="uniF004" unicode="&#xf004;" horiz-adv-x="682" 
d="M274 -204q0 -88 -50 -141.5t-174 -90.5v63q120 36 120 89q0 23 -17 34t-38 21.5t-38 27t-17 50.5q0 38 27.5 60t70.5 22q51 0 83.5 -38.5t32.5 -96.5z" />
    <glyph glyph-name="uniF005" unicode="&#xf005;" horiz-adv-x="682" 
d="M528 -234q0 -92 -69.5 -147t-177.5 -55q-76 0 -138 22v74q22 -7 60 -11.5t60 -4.5q60 0 87 29.5t27 74.5q0 49 -40 80t-112 37l109 71q91 -9 142.5 -53t51.5 -117z" />
    <glyph glyph-name="tonos" unicode="&#x384;" horiz-adv-x="682" 
d="M215 1119v33l69 292h187v-37l-201 -288h-55z" />
    <glyph glyph-name="dieresistonos" unicode="&#x385;" horiz-adv-x="682" 
d="M265 1119v33l49 322h187v-37l-181 -318h-55zM630 1212q0 -38 -25 -64.5t-63 -26.5q-37 0 -63.5 26.5t-26.5 64.5t26.5 64t63.5 26q38 0 63 -26t25 -64zM230 1212q0 -38 -25.5 -64.5t-62.5 -26.5q-38 0 -64.5 26.5t-26.5 64.5t26.5 64t64.5 26q37 0 62.5 -26t25.5 -64z
" />
    <glyph glyph-name="Alphatonos" unicode="&#x386;" horiz-adv-x="1479" 
d="M461 53v-53h-441v53l152 27l457 1272h190l475 -1272l170 -27v-53h-567v53l180 27l-133 387h-528l-135 -387zM676 1208l-230 -651h467zM111 1028v33l69 292h187v-37l-201 -288h-55z" />
    <glyph glyph-name="Epsilontonos" unicode="&#x388;" horiz-adv-x="1421" 
d="M229 53l172 27v1182l-172 26v53h1006v-321h-66l-32 217q-112 14 -324 14h-219v-524h362l31 160h64v-412h-64l-31 162h-362v-547h264q258 0 338 16l57 248h66l-19 -354h-1071v53zM-72 1017v33l69 292h187v-37l-201 -288h-55z" />
    <glyph glyph-name="Etatonos" unicode="&#x389;" horiz-adv-x="1655" 
d="M229 0v53l172 27v1182l-172 26v53h537v-53l-172 -26v-527h631v527l-172 26v53h536v-53l-172 -26v-1182l172 -27v-53h-536v53l172 27v565h-631v-565l172 -27v-53h-537zM-72 1017v33l69 292h187v-37l-201 -288h-55z" />
    <glyph glyph-name="Iotatonos" unicode="&#x38a;" horiz-adv-x="842" 
d="M598 80l172 -27v-53h-536v53l172 27v1182l-172 26v53h536v-53l-172 -26v-1182zM-72 1017v33l69 292h187v-37l-201 -288h-55z" />
    <glyph glyph-name="Omicrontonos" unicode="&#x38c;" horiz-adv-x="1479" 
d="M293 672q0 -323 108 -468t338 -145q229 0 338 145t109 468q0 321 -108.5 462.5t-338.5 141.5q-231 0 -338.5 -141.5t-107.5 -462.5zM84 672q0 684 655 684q324 0 490 -173.5t166 -510.5q0 -342 -168 -517t-488 -175q-319 0 -487 174.5t-168 517.5zM-60 1017v33l69 292
h187v-37l-201 -288h-55z" />
    <glyph glyph-name="Upsilontonos" unicode="&#x38e;" horiz-adv-x="1671" 
d="M1030 528v-448l213 -27v-53h-619v53l213 27v442l-471 740l-151 26v53h567v-53l-180 -26l385 -619l366 619l-170 26v53h436v-53l-147 -26zM-67 1017v33l69 292h187v-37l-201 -288h-55z" />
    <glyph glyph-name="Omegatonos" unicode="&#x38f;" horiz-adv-x="1522" 
d="M762 1276q-226 0 -336 -113.5t-110 -361.5q0 -199 92 -318t261 -140l27 -343h-569l-19 330h66l57 -144q80 -16 284 -16h72l-10 101q-215 33 -342.5 176t-127.5 354q0 272 166 413.5t489 141.5t489 -141.5t166 -413.5q0 -211 -128 -354t-342 -176l-10 -101h72
q204 0 284 16l57 144h66l-19 -330h-569l27 343q170 21 261.5 140t91.5 318q0 249 -110 362t-336 113zM-60 1017v33l69 292h187v-37l-201 -288h-55z" />
    <glyph glyph-name="iotadieresistonos" unicode="&#x390;" horiz-adv-x="551" 
d="M344 214q0 -65 23.5 -97.5t61.5 -32.5q46 0 113 16v-65q-35 -25 -90 -40t-106 -15q-85 0 -126.5 57t-41.5 160v673l-133 25v45h299v-726zM205 1119v33l49 322h187v-37l-181 -318h-55zM570 1212q0 -38 -25 -64.5t-63 -26.5q-37 0 -63.5 26.5t-26.5 64.5t26.5 64t63.5 26
q38 0 63 -26t25 -64zM170 1212q0 -38 -25.5 -64.5t-62.5 -26.5q-38 0 -64.5 26.5t-26.5 64.5t26.5 64t64.5 26q37 0 62.5 -26t25.5 -64z" />
    <glyph glyph-name="Alpha" unicode="&#x391;" horiz-adv-x="1479" 
d="M461 53v-53h-441v53l152 27l457 1272h190l475 -1272l170 -27v-53h-567v53l180 27l-133 387h-528l-135 -387zM676 1208l-230 -651h467z" />
    <glyph glyph-name="Beta" unicode="&#x392;" horiz-adv-x="1366" 
d="M958 1016q0 123 -77 179t-250 56h-207v-507h219q162 0 238.5 64t76.5 208zM1059 382q0 141 -94 206.5t-301 65.5h-240v-564q138 -6 294 -6q171 0 256 72.5t85 225.5zM59 0v53l172 27v1182l-172 26v53h613q255 0 373 -75.5t118 -239.5q0 -118 -72.5 -201t-203.5 -111
q181 -19 280 -105.5t99 -222.5q0 -193 -133.5 -292.5t-389.5 -99.5l-428 6h-256z" />
    <glyph glyph-name="Delta" unicode="&#x394;" horiz-adv-x="1317" 
d="M1240 0h-1161l-1 80l477 1272h190l495 -1272v-80zM606 1196l-400 -1087h806z" />
    <glyph glyph-name="Epsilon" unicode="&#x395;" horiz-adv-x="1251" 
d="M59 53l172 27v1182l-172 26v53h1006v-321h-66l-32 217q-112 14 -324 14h-219v-524h362l31 160h64v-412h-64l-31 162h-362v-547h264q258 0 338 16l57 248h66l-19 -354h-1071v53z" />
    <glyph glyph-name="Zeta" unicode="&#x396;" horiz-adv-x="1251" 
d="M98 94l752 1161h-250q-247 0 -340 -20l-31 -211h-69v317h913v-86l-757 -1171h290q116 0 235.5 11t168.5 22l59 256h70l-27 -373h-1014v94z" />
    <glyph glyph-name="Eta" unicode="&#x397;" horiz-adv-x="1479" 
d="M59 0v53l172 27v1182l-172 26v53h537v-53l-172 -26v-527h631v527l-172 26v53h536v-53l-172 -26v-1182l172 -27v-53h-536v53l172 27v565h-631v-565l172 -27v-53h-537z" />
    <glyph glyph-name="Iota" unicode="&#x399;" horiz-adv-x="682" 
d="M438 80l172 -27v-53h-536v53l172 27v1182l-172 26v53h536v-53l-172 -26v-1182z" />
    <glyph glyph-name="Kappa" unicode="&#x39a;" horiz-adv-x="1479" 
d="M1353 1341v-53l-155 -26l-458 -448l573 -734l145 -27v-53h-328l-525 678l-181 -145v-453l192 -27v-53h-557v53l172 27v1182l-172 26v53h537v-53l-172 -26v-632l642 632l-133 26v53h420z" />
    <glyph glyph-name="Lambda" unicode="&#x39b;" horiz-adv-x="1485" 
d="M281 80l180 -27v-53h-441v53l145 27l464 1272h190l475 -1272l170 -27v-53h-567v53l180 27l-395 1117z" />
    <glyph glyph-name="Mu" unicode="&#x39c;" horiz-adv-x="1821" 
d="M862 0h-35l-491 1153v-1073l180 -27v-53h-457v53l172 27v1182l-172 26v53h406l436 -1020l476 1020h384v-53l-172 -26v-1182l172 -27v-53h-544v53l180 27v1073z" />
    <glyph glyph-name="Nu" unicode="&#x39d;" horiz-adv-x="1479" 
d="M1155 1262l-180 26v53h457v-53l-172 -26v-1262h-97l-827 1206v-1126l180 -27v-53h-457v53l172 27v1182l-172 26v53h406l690 -993v914z" />
    <glyph glyph-name="Xi" unicode="&#x39e;" horiz-adv-x="1317" 
d="M745 170q258 0 338 16l57 188h66l-19 -374h-1058l-19 374h66l57 -188q35 -7 142.5 -11.5t222.5 -4.5h147zM602 1181q-216 0 -324 -14l-52 -157h-66l20 331h957l20 -331h-66l-52 157q-112 14 -324 14h-113zM450 610l-31 -142h-64v412h64l31 -140h416l31 140h64v-412h-64
l-31 142h-416z" />
    <glyph glyph-name="Omicron" unicode="&#x39f;" horiz-adv-x="1479" 
d="M293 672q0 -323 108 -468t338 -145q229 0 338 145t109 468q0 321 -108.5 462.5t-338.5 141.5q-231 0 -338.5 -141.5t-107.5 -462.5zM84 672q0 684 655 684q324 0 490 -173.5t166 -510.5q0 -342 -168 -517t-488 -175q-319 0 -487 174.5t-168 517.5z" />
    <glyph glyph-name="Pi" unicode="&#x3a0;" horiz-adv-x="1479" 
d="M59 0v53l172 27v1182l-172 26v53h1360v-53l-172 -26v-1182l172 -27v-53h-536v53l172 27v1171h-631v-1171l172 -27v-53h-537z" />
    <glyph glyph-name="Rho" unicode="&#x3a1;" horiz-adv-x="1139" 
d="M858 944q0 165 -77 236t-259 71h-98v-635h104q169 0 249.5 77t80.5 251zM424 526v-446l213 -27v-53h-565v53l159 27v1182l-172 26v53h506q492 0 492 -395q0 -206 -124.5 -313t-357.5 -107h-151z" />
    <glyph glyph-name="Sigma" unicode="&#x3a3;" horiz-adv-x="1192" 
d="M678 748v-51l-403 -527h261q104 0 250.5 4.5t179.5 11.5l57 188h66l-19 -374h-990v74l438 572l-430 616v79h921v-321h-66l-42 217q-112 14 -306 14h-266z" />
    <glyph glyph-name="Tau" unicode="&#x3a4;" horiz-adv-x="1251" 
d="M315 0v53l213 27v1175h-51q-253 0 -346 -20l-27 -209h-67v315h1180v-315h-68l-27 209q-30 7 -131 12.5t-221 5.5h-49v-1173l213 -27v-53h-619z" />
    <glyph glyph-name="Upsilon" unicode="&#x3a5;" horiz-adv-x="1479" 
d="M838 528v-448l213 -27v-53h-619v53l213 27v442l-471 740l-151 26v53h567v-53l-180 -26l385 -619l366 619l-170 26v53h436v-53l-147 -26z" />
    <glyph glyph-name="Chi" unicode="&#x3a7;" horiz-adv-x="1479" 
d="M317 80l166 -27v-53h-438v53l148 27l456 606l-389 576l-151 26v53h553v-53l-170 -26l278 -414l311 414l-166 26v53h439v-53l-148 -26l-377 -502l461 -680l152 -27v-53h-553v53l170 27l-352 520z" />
    <glyph glyph-name="Psi" unicode="&#x3a8;" horiz-adv-x="1511" 
d="M846 80l182 -27v-53h-546v53l182 27v426q-280 0 -408 99t-128 326v331l-122 26v53h314v-415q0 -171 82 -255.5t262 -85.5v677l-182 26v53h546v-53l-182 -26v-677q181 1 263.5 85t82.5 256v415h314v-53l-122 -26v-331q0 -226 -127.5 -325.5t-410.5 -99.5v-426z" />
    <glyph glyph-name="Omega" unicode="&#x3a9;" horiz-adv-x="1522" 
d="M761 1276q-226 0 -336 -113.5t-110 -361.5q0 -199 92 -318t261 -140l27 -343h-569l-19 330h66l57 -144q80 -16 284 -16h72l-10 101q-215 33 -342.5 176t-127.5 354q0 272 166 413.5t489 141.5t489 -141.5t166 -413.5q0 -211 -128 -354t-342 -176l-10 -101h72
q204 0 284 16l57 144h66l-19 -330h-569l27 343q170 21 261.5 140t91.5 318q0 249 -110 362t-336 113z" />
    <glyph glyph-name="Iotadieresis" unicode="&#x3aa;" horiz-adv-x="682" 
d="M438 80l172 -27v-53h-536v53l172 27v1182l-172 26v53h536v-53l-172 -26v-1182zM618 1559q0 -42 -28 -71.5t-70 -29.5t-71 31t-29 70q0 42 29 71t71 29t70 -29t28 -71zM262 1559q0 -42 -28 -71.5t-70 -29.5q-41 0 -71 30t-30 71q0 42 31 71t70 29q42 0 70 -29t28 -71z" />
    <glyph glyph-name="Upsilondieresis" unicode="&#x3ab;" horiz-adv-x="1479" 
d="M838 528v-448l213 -27v-53h-619v53l213 27v442l-471 740l-151 26v53h567v-53l-180 -26l385 -619l366 619l-170 26v53h436v-53l-147 -26zM1017 1559q0 -42 -28 -71.5t-70 -29.5t-71 31t-29 70q0 42 29 71t71 29t70 -29t28 -71zM661 1559q0 -42 -28 -71.5t-70 -29.5
q-41 0 -71 30t-30 71q0 42 31 71t70 29q42 0 70 -29t28 -71z" />
    <glyph glyph-name="alphatonos" unicode="&#x3ac;" horiz-adv-x="1073" 
d="M1024 45v-45h-212q-37 118 -66 274h-6q-72 -137 -118 -189.5t-102 -78.5t-129 -26q-150 0 -231.5 123t-81.5 350q0 242 102.5 377.5t288.5 135.5q128 0 203 -64t122 -212h6l70 250h157v-40q-23 -36 -54 -107t-121 -310q57 -246 124 -423zM724 463q-26 226 -83 324.5
t-157 98.5q-225 0 -225 -433q0 -184 47 -279.5t125 -95.5q60 0 107.5 38t87 108t98.5 239zM448 1119v33l69 292h187v-37l-201 -288h-55z" />
    <glyph glyph-name="epsilontonos" unicode="&#x3ad;" horiz-adv-x="860" 
d="M801 70q-137 -90 -344 -90q-183 0 -280.5 75.5t-97.5 213.5q0 91 60.5 153.5t163.5 83.5v7q-184 61 -184 212q0 112 104 176t281 64q142 0 269 -36l-1 -196h-48l-57 113q-27 16 -75.5 28.5t-94.5 12.5q-100 0 -154.5 -44.5t-54.5 -124.5q0 -68 33.5 -114.5t89.5 -62.5
q40 4 119.5 7.5t105.5 3.5h32v-96h-32q-68 0 -243 13q-69 -20 -105 -70.5t-36 -120.5q0 -90 67.5 -142t186.5 -52q69 0 136 10t159 41v-65zM417 1119v33l69 292h187v-37l-201 -288h-55z" />
    <glyph glyph-name="etatonos" unicode="&#x3ae;" horiz-adv-x="1071" 
d="M32 940h288l9 -95q206 120 334 120q126 0 192.5 -71t66.5 -206v-618q0 -128 12.5 -268t29.5 -193v-45h-175q-33 180 -33 494v612q0 88 -41 133t-134 45q-96 0 -250 -67v-781h-166v870l-133 25v45zM459 1119v33l69 292h187v-37l-201 -288h-55z" />
    <glyph glyph-name="iotatonos" unicode="&#x3af;" horiz-adv-x="551" 
d="M344 214q0 -65 23.5 -97.5t61.5 -32.5q46 0 113 16v-65q-35 -25 -90 -40t-106 -15q-85 0 -126.5 57t-41.5 160v673l-133 25v45h299v-726zM194 1119v33l69 292h187v-37l-201 -288h-55z" />
    <glyph glyph-name="upsilondieresistonos" unicode="&#x3b0;" horiz-adv-x="1014" 
d="M514 -20q-178 0 -272.5 88.5t-94.5 256.5v545l-120 25v45h286v-658q0 -100 52.5 -158t149.5 -58q124 0 180.5 90.5t56.5 304.5q0 174 -25.5 282t-92.5 148l-1 73q155 -33 227.5 -153.5t72.5 -330.5q0 -238 -110.5 -369t-308.5 -131zM425 1119v33l49 322h187v-37
l-181 -318h-55zM790 1212q0 -38 -25 -64.5t-63 -26.5q-37 0 -63.5 26.5t-26.5 64.5t26.5 64t63.5 26q38 0 63 -26t25 -64zM390 1212q0 -38 -25.5 -64.5t-62.5 -26.5q-38 0 -64.5 26.5t-26.5 64.5t26.5 64t64.5 26q37 0 62.5 -26t25.5 -64z" />
    <glyph glyph-name="beta" unicode="&#x3b2;" horiz-adv-x="1042" 
d="M298 -436h-166v1377q0 251 100.5 376t309.5 125q169 0 266 -90.5t97 -252.5q0 -133 -66.5 -223t-174.5 -113v-10q148 -31 219.5 -119t71.5 -242q0 -196 -101.5 -304t-289.5 -108q-144 0 -266 53v-469zM735 1096q0 128 -49 197t-146 69q-130 0 -186 -101.5t-56 -323.5
v-831q118 -38 254 -38q228 0 228 321q0 161 -75 239t-230 84v78q135 4 197.5 76t62.5 230z" />
    <glyph glyph-name="gamma" unicode="&#x3b3;" horiz-adv-x="905" 
d="M-3 895v45h218q60 -135 136.5 -348.5t135.5 -417.5h8l170 408q24 54 41.5 117t17.5 100q0 41 -23 65t-47 31v45h193q11 -17 11 -76q0 -92 -87 -283l-248 -563q13 -79 21 -222.5t8 -220.5l-159 -11l-46 29q0 89 10.5 199.5t27.5 199.5q-130 381 -174 499.5t-84 215.5
t-75 166z" />
    <glyph glyph-name="zeta" unicode="&#x3b6;" horiz-adv-x="848" 
d="M802 -82q0 -97 -66 -162.5t-224 -117.5v65q80 31 116 69.5t36 92.5q0 58 -52 87t-154 49q-195 39 -282 124.5t-87 247.5q0 188 133 418t436 549v4l-505 -78v114q417 27 627 58v-68q-222 -265 -314 -410.5t-139.5 -283.5t-47.5 -283q0 -72 25 -119.5t74.5 -78t175.5 -61.5
q123 -29 185.5 -78.5t62.5 -137.5z" />
    <glyph glyph-name="eta" unicode="&#x3b7;" horiz-adv-x="1071" 
d="M32 940h288l9 -95q206 120 334 120q126 0 192.5 -71t66.5 -206v-618q0 -128 12.5 -268t29.5 -193v-45h-175q-33 180 -33 494v612q0 88 -41 133t-134 45q-96 0 -250 -67v-781h-166v870l-133 25v45z" />
    <glyph glyph-name="theta" unicode="&#x3b8;" horiz-adv-x="981" 
d="M894 710q0 -371 -102 -550.5t-308 -179.5q-196 0 -292 180.5t-96 549.5q0 368 97.5 545t298.5 177q202 0 302 -183.5t100 -538.5zM484 1352q-76 0 -120.5 -57.5t-65 -175t-22.5 -369.5h438q-5 329 -59 465.5t-171 136.5zM484 59q115 0 169.5 137.5t59.5 465.5h-437
q2 -345 50.5 -474t157.5 -129z" />
    <glyph glyph-name="iota" unicode="&#x3b9;" horiz-adv-x="551" 
d="M344 214q0 -65 23.5 -97.5t61.5 -32.5q46 0 113 16v-65q-35 -25 -90 -40t-106 -15q-85 0 -126.5 57t-41.5 160v673l-133 25v45h299v-726z" />
    <glyph glyph-name="kappa" unicode="&#x3ba;" horiz-adv-x="1032" 
d="M324 453l434 487h185v-45l-117 -23l-264 -278l340 -526l102 -23v-45h-256l-292 474l-132 -110v-364h-166v871l-119 24v45h285v-487z" />
    <glyph glyph-name="lambda" unicode="&#x3bb;" horiz-adv-x="993" 
d="M549 764q-34 -94 -321 -764h-174v33l430 953l-45 138q-72 224 -174 224q-28 0 -57 -12l-40 -83h-49v170q69 19 148 19q93 0 151 -61t114 -229l334 -1005q16 -48 49 -70t67 -32v-45h-196z" />
    <glyph glyph-name="mu" unicode="&#x3bc;" horiz-adv-x="1098" 
d="M895 940v-870l119 -25v-45h-274l-8 86q-154 -106 -267 -106q-79 0 -133 47v-465h-166v1378h166v-672q0 -172 166 -172q106 0 232 45v799h165z" />
    <glyph glyph-name="nu" unicode="&#x3bd;" horiz-adv-x="926" 
d="M739 794q0 44 -24.5 68t-53.5 33v45h198q19 -33 19 -79q0 -80 -59 -204l-322 -677h-71l-350 890l-71 25v45h233l276 -736l156 346q34 76 51.5 141t17.5 103z" />
    <glyph glyph-name="xi" unicode="&#x3be;" horiz-adv-x="913" 
d="M584 802q99 11 151 11h32v-106h-32l-149 13q-158 -51 -235.5 -130.5t-77.5 -200.5q0 -66 24.5 -107.5t69 -68.5t107.5 -44t140 -34q124 -27 188.5 -78t64.5 -139q0 -97 -66 -162.5t-224 -117.5v65q80 31 116 69.5t36 92.5q0 53 -46.5 84.5t-159.5 51.5q-241 44 -337 125
t-96 230q0 125 100.5 225.5t298.5 165.5v11q-117 33 -193 109t-76 169q0 221 408 313v3l-488 -26v97h84h106q326 2 452 8v-86q-196 -37 -297 -117.5t-101 -196.5q0 -87 58 -150.5t142 -78.5z" />
    <glyph glyph-name="omicron" unicode="&#x3bf;" horiz-adv-x="1024" 
d="M946 475q0 -495 -440 -495q-212 0 -320 127t-108 368q0 238 108 364t328 126q214 0 323 -123.5t109 -366.5zM766 475q0 216 -63 313t-197 97q-131 0 -189.5 -93t-58.5 -317q0 -227 59.5 -321.5t188.5 -94.5q132 0 196 98t64 318z" />
    <glyph glyph-name="rho" unicode="&#x3c1;" horiz-adv-x="1022" 
d="M132 561q0 195 92.5 297.5t261.5 102.5q130 0 234.5 -65t161.5 -185t57 -279q0 -141 -50.5 -242.5t-142 -155.5t-208.5 -54t-241 42v-458h-165v997zM514 60q124 0 187 92.5t63 266.5q0 142 -34 240.5t-95.5 149.5t-142.5 51q-195 0 -195 -285v-472q108 -43 217 -43z" />
    <glyph glyph-name="sigma1" unicode="&#x3c2;" horiz-adv-x="811" 
d="M508 892q-110 0 -180 -142.5t-70 -359.5q0 -70 26 -114.5t78 -73.5t206 -67q111 -27 167 -77.5t56 -138.5q0 -97 -65 -162t-225 -119v66q81 32 116.5 70.5t35.5 93.5q0 57 -46.5 86t-139.5 48q-217 44 -304.5 125t-87.5 230q0 164 58 305t158.5 222t216.5 81
q112 0 239 -34v-217h-55l-43 129q-66 49 -141 49z" />
    <glyph glyph-name="upsilon" unicode="&#x3c5;" horiz-adv-x="1014" 
d="M514 -20q-178 0 -272.5 88.5t-94.5 256.5v545l-120 25v45h286v-658q0 -100 52.5 -158t149.5 -58q124 0 180.5 90.5t56.5 304.5q0 174 -25.5 282t-92.5 148l-1 73q155 -33 227.5 -153.5t72.5 -330.5q0 -238 -110.5 -369t-308.5 -131z" />
    <glyph glyph-name="chi" unicode="&#x3c7;" horiz-adv-x="909" 
d="M747 -436q-12 8 -33.5 48t-33.5 70l-214 483q-199 -392 -290 -601h-178v33q314 585 389 730l-229 480q-32 69 -137 88v45h183q25 -17 54 -86l188 -437q153 306 246 523h175v-39q-156 -275 -340 -643l266 -561q22 -47 47.5 -65t59.5 -23v-45h-153z" />
    <glyph glyph-name="psi" unicode="&#x3c8;" horiz-adv-x="1282" 
d="M695 60q275 15 275 240v640h286v-45l-121 -25v-550q0 -323 -440 -337v-419h-106v418q-221 7 -331.5 88.5t-110.5 249.5v550l-120 25v45h286v-640q0 -225 276 -240v1172h106v-1172z" />
    <glyph glyph-name="omega" unicode="&#x3c9;" horiz-adv-x="1348" 
d="M1087 418q0 372 -263 476v66q210 -35 327 -177.5t117 -361.5q0 -207 -87 -324t-244 -117q-183 0 -256 188h-8q-73 -188 -257 -188q-156 0 -246 117t-90 324q0 221 117.5 363t326.5 176v-66q-128 -50 -195.5 -170.5t-67.5 -305.5q0 -154 53.5 -245t147.5 -91
q60 0 108.5 58t63.5 156l-9 54q-27 153 -27 206v52h166v-52q0 -55 -38 -260q17 -100 61 -154.5t104 -54.5q94 0 145 87.5t51 243.5z" />
    <glyph glyph-name="iotadieresis" unicode="&#x3ca;" horiz-adv-x="551" 
d="M344 214q0 -65 23.5 -97.5t61.5 -32.5q46 0 113 16v-65q-35 -25 -90 -40t-106 -15q-85 0 -126.5 57t-41.5 160v673l-133 25v45h299v-726zM540 1194q0 -42 -28 -71.5t-70 -29.5t-71 31t-29 70q0 42 29 71t71 29t70 -29t28 -71zM184 1194q0 -42 -28 -71.5t-70 -29.5
q-41 0 -71 30t-30 71q0 42 31 71t70 29q42 0 70 -29t28 -71z" />
    <glyph glyph-name="upsilondieresis" unicode="&#x3cb;" horiz-adv-x="1014" 
d="M514 -20q-178 0 -272.5 88.5t-94.5 256.5v545l-120 25v45h286v-658q0 -100 52.5 -158t149.5 -58q124 0 180.5 90.5t56.5 304.5q0 174 -25.5 282t-92.5 148l-1 73q155 -33 227.5 -153.5t72.5 -330.5q0 -238 -110.5 -369t-308.5 -131zM785 1194q0 -42 -28 -71.5t-70 -29.5
t-71 31t-29 70q0 42 29 71t71 29t70 -29t28 -71zM429 1194q0 -42 -28 -71.5t-70 -29.5q-41 0 -71 30t-30 71q0 42 31 71t70 29q42 0 70 -29t28 -71z" />
    <glyph glyph-name="omicrontonos" unicode="&#x3cc;" horiz-adv-x="1024" 
d="M946 475q0 -495 -440 -495q-212 0 -320 127t-108 368q0 238 108 364t328 126q214 0 323 -123.5t109 -366.5zM766 475q0 216 -63 313t-197 97q-131 0 -189.5 -93t-58.5 -317q0 -227 59.5 -321.5t188.5 -94.5q132 0 196 98t64 318zM440 1119v33l69 292h187v-37l-201 -288
h-55z" />
    <glyph glyph-name="upsilontonos" unicode="&#x3cd;" horiz-adv-x="1014" 
d="M514 -20q-178 0 -272.5 88.5t-94.5 256.5v545l-120 25v45h286v-658q0 -100 52.5 -158t149.5 -58q124 0 180.5 90.5t56.5 304.5q0 174 -25.5 282t-92.5 148l-1 73q155 -33 227.5 -153.5t72.5 -330.5q0 -238 -110.5 -369t-308.5 -131zM433 1119v33l69 292h187v-37
l-201 -288h-55z" />
    <glyph glyph-name="omegatonos" unicode="&#x3ce;" horiz-adv-x="1348" 
d="M1087 418q0 372 -263 476v66q210 -35 327 -177.5t117 -361.5q0 -207 -87 -324t-244 -117q-183 0 -256 188h-8q-73 -188 -257 -188q-156 0 -246 117t-90 324q0 221 117.5 363t326.5 176v-66q-128 -50 -195.5 -170.5t-67.5 -305.5q0 -154 53.5 -245t147.5 -91
q60 0 108.5 58t63.5 156l-9 54q-27 153 -27 206v52h166v-52q0 -55 -38 -260q17 -100 61 -154.5t104 -54.5q94 0 145 87.5t51 243.5zM599 1119v33l69 292h187v-37l-201 -288h-55z" />
    <glyph glyph-name="uni0401" unicode="&#x401;" horiz-adv-x="1251" 
d="M59 53l172 27v1182l-172 26v53h1006v-321h-66l-32 217q-112 14 -324 14h-219v-524h362l31 160h64v-412h-64l-31 162h-362v-547h264q258 0 338 16l57 248h66l-19 -354h-1071v53zM905 1565q0 -42 -28 -71.5t-70 -29.5t-71 31t-29 70q0 42 29 71t71 29t70 -29t28 -71z
M549 1565q0 -42 -28 -71.5t-70 -29.5q-41 0 -71 30t-30 71q0 42 31 71t70 29q42 0 70 -29t28 -71z" />
    <glyph glyph-name="uni0402" unicode="&#x402;" horiz-adv-x="1540" 
d="M1153 491q0 138 -58.5 209.5t-195.5 71.5q-100 0 -218 -27v-665l163 -27v-53h-529v53l173 27v1175h-51q-216 0 -306 -20l-27 -209h-67v315h1096v-315h-68l-27 209q-83 18 -308 18h-49v-423q169 62 288 62q199 0 287.5 -93t88.5 -300v-483q0 -134 -41 -234.5t-124.5 -159
t-186.5 -58.5q-128 0 -207 30v244h66l30 -139q19 -23 54 -36t77 -13q140 0 140 190v651z" />
    <glyph glyph-name="uni0403" unicode="&#x403;" horiz-adv-x="1184" 
d="M631 0h-572v53l172 26v1182l-172 27v53h1041l18 -385h-65l-62 279q-100 20 -313 20h-254v-1176l207 -26v-53zM497 1453v33l196 272h213v-37l-354 -268h-55z" />
    <glyph glyph-name="uni0404" unicode="&#x404;" horiz-adv-x="1352" 
d="M877 645h-584q2 -287 125.5 -437.5t357.5 -150.5q114 0 215 27.5t160 73.5l37 200h65l-6 -315q-220 -63 -473 -63q-326 0 -508 177.5t-182 497.5q0 346 175 523.5t519 177.5q209 0 449 -51l6 -293h-66l-30 174q-70 43 -162.5 66.5t-188.5 23.5q-242 0 -360.5 -133
t-130.5 -408h582v-90z" />
    <glyph glyph-name="uni0405" unicode="&#x405;" horiz-adv-x="1139" 
d="M139 361h65l35 -181q37 -47 127.5 -83t178.5 -36q140 0 218.5 71.5t78.5 197.5q0 72 -30.5 119t-80 79.5t-112.5 55t-129.5 45.5t-129.5 51t-112.5 71t-80 106.5t-30.5 156.5q0 160 120 251t333 91q162 0 352 -43v-279h-65l-35 164q-102 74 -252 74q-134 0 -209.5 -54.5
t-75.5 -150.5q0 -65 30.5 -108t80 -73.5t113 -52.5t130 -45.5t130 -53t113 -75t80 -111t30.5 -161.5q0 -194 -119 -300.5t-343 -106.5q-108 0 -217 19t-194 52v310z" />
    <glyph glyph-name="uni0406" unicode="&#x406;" horiz-adv-x="682" 
d="M438 80l172 -27v-53h-536v53l172 27v1182l-172 26v53h536v-53l-172 -26v-1182z" />
    <glyph glyph-name="uni0407" unicode="&#x407;" horiz-adv-x="682" 
d="M438 80l172 -27v-53h-536v53l172 27v1182l-172 26v53h536v-53l-172 -26v-1182zM618 1565q0 -42 -28 -71.5t-70 -29.5t-71 31t-29 70q0 42 29 71t71 29t70 -29t28 -71zM262 1565q0 -42 -28 -71.5t-70 -29.5q-41 0 -71 30t-30 71q0 42 31 71t70 29q42 0 70 -29t28 -71z" />
    <glyph glyph-name="uni0408" unicode="&#x408;" horiz-adv-x="797" 
d="M410 1262l-172 26v53h516v-53l-152 -26v-830q0 -134 -41 -234.5t-124.5 -159t-186.5 -58.5q-128 0 -207 30v244h66l30 -139q19 -23 54 -36t77 -13q140 0 140 190v1006z" />
    <glyph glyph-name="uni0409" unicode="&#x409;" horiz-adv-x="1786" 
d="M840 1251h-276l-27 -311q-33 -377 -77 -576t-111.5 -291.5t-169.5 -92.5q-94 0 -153 47l-7 217h45l47 -89q29 -37 79 -37q91 0 149.5 203t95.5 632l27 309l-172 26v53h956v-53l-213 -27v-516h201q234 0 358.5 -96t124.5 -282q0 -182 -125.5 -274.5t-367.5 -92.5h-556v53
l172 26v1172zM1517 363q0 155 -80.5 223.5t-249.5 68.5h-154v-565h148q181 0 258.5 63t77.5 210z" />
    <glyph glyph-name="uni040A" unicode="&#x40a;" horiz-adv-x="1786" 
d="M746 1288v53h537v-53l-170 -27v-516h121q234 0 358.5 -96t124.5 -282q0 -182 -125.5 -274.5t-367.5 -92.5h-476v53l172 26v566h-496v-565l172 -27v-53h-537v53l172 27v1182l-172 26v53h537v-53l-172 -26v-527h496v527zM1517 363q0 155 -80.5 223.5t-249.5 68.5h-74v-565
h68q181 0 258.5 63t77.5 210z" />
    <glyph glyph-name="uni040B" unicode="&#x40b;" horiz-adv-x="1518" 
d="M315 0v53l173 27v1175h-51q-216 0 -306 -20l-27 -209h-67v315h1094v-315h-68l-27 209q-83 18 -306 18h-49v-423q169 62 288 62q197 0 281.5 -90.5t84.5 -299.5v-423l152 -26v-53h-476v53l132 26v415q0 148 -58 213t-186 65q-100 0 -218 -27v-665l163 -27v-53h-529z" />
    <glyph glyph-name="uni040C" unicode="&#x40c;" horiz-adv-x="1366" 
d="M1315 1341v-53l-155 -26l-425 -452l493 -730l145 -27v-53h-338l-440 670l-171 -153v-437l192 -27v-53h-557v53l172 27v1182l-172 26v53h537v-53l-172 -26v-637l599 637l-128 26v53h420zM587 1453v33l196 272h213v-37l-354 -268h-55z" />
    <glyph glyph-name="uni040E" unicode="&#x40e;" horiz-adv-x="1450" 
d="M65 1288v53h557v-53l-170 -26l395 -692l356 692l-150 26v53h396v-53l-127 -26l-439 -828q-115 -217 -176.5 -298t-126 -118.5t-146.5 -37.5q-45 0 -89 12t-73 31l-9 241h45l49 -97q17 -23 44.5 -36t55.5 -13q73 0 138.5 64t135.5 199l-515 881zM780 1456
q-183 0 -272.5 66t-94.5 214h164q6 -103 58 -156t145 -53t145 53t58 156h164q-5 -149 -94.5 -214.5t-272.5 -65.5z" />
    <glyph glyph-name="uni040F" unicode="&#x40f;" horiz-adv-x="1479" 
d="M59 0v53l172 27v1182l-172 26v53h537v-53l-172 -26v-1172h631v1172l-172 26v53h536v-53l-172 -26v-1182l172 -27v-53h-575l-69 -436h-65l-70 436h-581z" />
    <glyph glyph-name="uni0410" unicode="&#x410;" horiz-adv-x="1479" 
d="M461 53v-53h-441v53l152 27l457 1272h190l475 -1272l170 -27v-53h-567v53l180 27l-133 387h-528l-135 -387zM676 1208l-230 -651h467z" />
    <glyph glyph-name="uni0411" unicode="&#x411;" horiz-adv-x="1176" 
d="M575 745q237 0 359.5 -94.5t122.5 -278.5q0 -185 -125 -278.5t-367 -93.5h-506v53l172 26v1182l-159 27v53h901l13 -309h-65l-57 203q-41 8 -123 14t-160 6h-157v-510h151zM858 363q0 155 -80.5 223.5t-249.5 68.5h-104v-565h98q181 0 258.5 63t77.5 210z" />
    <glyph glyph-name="uni0412" unicode="&#x412;" horiz-adv-x="1366" 
d="M958 1016q0 123 -77 179t-250 56h-207v-507h219q162 0 238.5 64t76.5 208zM1059 382q0 141 -94 206.5t-301 65.5h-240v-564q138 -6 294 -6q171 0 256 72.5t85 225.5zM59 0v53l172 27v1182l-172 26v53h613q255 0 373 -75.5t118 -239.5q0 -118 -72.5 -201t-203.5 -111
q181 -19 280 -105.5t99 -222.5q0 -193 -133.5 -292.5t-389.5 -99.5l-428 6h-256z" />
    <glyph glyph-name="uni0413" unicode="&#x413;" horiz-adv-x="1184" 
d="M631 0h-572v53l172 26v1182l-172 27v53h1041l18 -385h-65l-62 279q-100 20 -313 20h-254v-1176l207 -26v-53z" />
    <glyph glyph-name="uni0414" unicode="&#x414;" horiz-adv-x="1397" 
d="M975 90v1161h-404q0 -296 -67.5 -605t-189.5 -556h661zM193 0l-97 -436h-65l-17 496l176 20q131 248 205 558t74 624l-172 26v53h1042v-53l-172 -26v-1182l180 -20l-17 -496h-65l-97 436h-975z" />
    <glyph glyph-name="uni0415" unicode="&#x415;" horiz-adv-x="1251" 
d="M59 53l172 27v1182l-172 26v53h1006v-321h-66l-32 217q-112 14 -324 14h-219v-524h362l31 160h64v-412h-64l-31 162h-362v-547h264q258 0 338 16l57 248h66l-19 -354h-1071v53z" />
    <glyph glyph-name="uni0416" unicode="&#x416;" horiz-adv-x="1835" 
d="M821 543l-147 133l-378 -676h-296v53l121 27l430 736l-364 446l-136 26v53h352v-53l-84 -26l502 -626v626l-132 26v53h457v-53l-132 -26v-626l502 626l-84 26v53h352v-53l-136 -26l-364 -446l430 -736l121 -27v-53h-296l-376 676l-149 -133v-463l152 -27v-53h-477v53
l132 27v463z" />
    <glyph glyph-name="uni0417" unicode="&#x417;" horiz-adv-x="1026" 
d="M933 365q0 -178 -128 -281.5t-349 -103.5q-181 0 -348 43l-11 282h66l43 -188q35 -22 105.5 -38t125.5 -16q149 0 220.5 72.5t71.5 239.5q0 132 -69 200.5t-214 75.5l-143 8v82l143 9q120 6 182.5 74.5t62.5 190.5q0 130 -52.5 194t-177.5 64q-55 0 -117.5 -16.5
t-94.5 -36.5l-33 -164h-66v258q167 43 315 43q210 0 320.5 -84t110.5 -246q0 -131 -82 -217.5t-223 -107.5q174 -21 258 -104.5t84 -232.5z" />
    <glyph glyph-name="uni0418" unicode="&#x418;" horiz-adv-x="1479" 
d="M59 0v53l172 27v1182l-172 26v53h537v-53l-172 -26v-969l631 929v40l-172 26v53h536v-53l-172 -26v-1182l172 -27v-53h-536v53l172 27v982l-631 -929v-53l172 -27v-53h-537z" />
    <glyph glyph-name="uni0419" unicode="&#x419;" horiz-adv-x="1479" 
d="M59 0v53l172 27v1182l-172 26v53h537v-53l-172 -26v-969l631 929v40l-172 26v53h536v-53l-172 -26v-1182l172 -27v-53h-536v53l172 27v982l-631 -929v-53l172 -27v-53h-537zM742 1456q-183 0 -272.5 66t-94.5 214h164q6 -103 58 -156t145 -53t145 53t58 156h164
q-5 -149 -94.5 -214.5t-272.5 -65.5z" />
    <glyph glyph-name="uni041A" unicode="&#x41a;" horiz-adv-x="1366" 
d="M1315 1341v-53l-155 -26l-425 -452l493 -730l145 -27v-53h-338l-440 670l-171 -153v-437l192 -27v-53h-557v53l172 27v1182l-172 26v53h537v-53l-172 -26v-637l599 637l-128 26v53h420z" />
    <glyph glyph-name="uni041B" unicode="&#x41b;" horiz-adv-x="1389" 
d="M179 -20q-94 0 -153 47l-7 217h45l47 -89q29 -37 79 -37q91 0 149.5 203t95.5 632l27 309l-172 26v53h1040v-53l-172 -26v-1182l172 -27v-53h-536v53l172 27v1171h-402l-27 -311q-33 -377 -77 -576t-111.5 -291.5t-169.5 -92.5z" />
    <glyph glyph-name="uni041C" unicode="&#x41c;" horiz-adv-x="1821" 
d="M862 0h-35l-491 1153v-1073l180 -27v-53h-457v53l172 27v1182l-172 26v53h406l436 -1020l476 1020h384v-53l-172 -26v-1182l172 -27v-53h-544v53l180 27v1073z" />
    <glyph glyph-name="uni041D" unicode="&#x41d;" horiz-adv-x="1479" 
d="M59 0v53l172 27v1182l-172 26v53h537v-53l-172 -26v-527h631v527l-172 26v53h536v-53l-172 -26v-1182l172 -27v-53h-536v53l172 27v565h-631v-565l172 -27v-53h-537z" />
    <glyph glyph-name="uni041E" unicode="&#x41e;" horiz-adv-x="1479" 
d="M293 672q0 -323 108 -468t338 -145q229 0 338 145t109 468q0 321 -108.5 462.5t-338.5 141.5q-231 0 -338.5 -141.5t-107.5 -462.5zM84 672q0 684 655 684q324 0 490 -173.5t166 -510.5q0 -342 -168 -517t-488 -175q-319 0 -487 174.5t-168 517.5z" />
    <glyph glyph-name="uni041F" unicode="&#x41f;" horiz-adv-x="1479" 
d="M59 0v53l172 27v1182l-172 26v53h1360v-53l-172 -26v-1182l172 -27v-53h-536v53l172 27v1171h-631v-1171l172 -27v-53h-537z" />
    <glyph glyph-name="uni0420" unicode="&#x420;" horiz-adv-x="1139" 
d="M858 944q0 165 -77 236t-259 71h-98v-635h104q169 0 249.5 77t80.5 251zM424 526v-446l213 -27v-53h-565v53l159 27v1182l-172 26v53h506q492 0 492 -395q0 -206 -124.5 -313t-357.5 -107h-151z" />
    <glyph glyph-name="uni0421" unicode="&#x421;" horiz-adv-x="1366" 
d="M774 -20q-326 0 -508 177.5t-182 497.5q0 346 175 523.5t519 177.5q209 0 449 -51l6 -293h-66l-30 174q-70 43 -162.5 66.5t-188.5 23.5q-257 0 -375 -151t-118 -468q0 -292 123.5 -446t359.5 -154q114 0 215 27.5t160 73.5l37 200h65l-6 -315q-220 -63 -473 -63z" />
    <glyph glyph-name="uni0422" unicode="&#x422;" horiz-adv-x="1251" 
d="M315 0v53l213 27v1175h-51q-253 0 -346 -20l-27 -209h-67v315h1180v-315h-68l-27 209q-30 7 -131 12.5t-221 5.5h-49v-1173l213 -27v-53h-619z" />
    <glyph glyph-name="uni0423" unicode="&#x423;" horiz-adv-x="1450" 
d="M65 1288v53h557v-53l-170 -26l395 -692l356 692l-150 26v53h396v-53l-127 -26l-439 -828q-115 -217 -176.5 -298t-126 -118.5t-146.5 -37.5q-45 0 -89 12t-73 31l-9 241h45l49 -97q17 -23 44.5 -36t55.5 -13q73 0 138.5 64t135.5 199l-515 881z" />
    <glyph glyph-name="uni0424" unicode="&#x424;" horiz-adv-x="1618" 
d="M905 80l172 -27v-53h-536v53l172 27v142h-97q-162 0 -280 53t-185.5 162t-67.5 255q0 208 139 326.5t405 118.5h86v125l-172 26v53h536v-53l-172 -26v-125h87q267 0 405.5 -119t138.5 -326q0 -146 -67.5 -255t-186 -162t-279.5 -53h-98v-142zM954 300q187 0 285 100
t98 290q0 185 -99 277.5t-291 92.5h-42v-760h49zM282 690q0 -189 97.5 -289.5t285.5 -100.5h48v760h-41q-192 0 -291 -92.5t-99 -277.5z" />
    <glyph glyph-name="uni0425" unicode="&#x425;" horiz-adv-x="1479" 
d="M317 80l166 -27v-53h-438v53l148 27l456 606l-389 576l-151 26v53h553v-53l-170 -26l278 -414l311 414l-166 26v53h439v-53l-148 -26l-377 -502l461 -680l152 -27v-53h-553v53l170 27l-352 520z" />
    <glyph glyph-name="uni0426" unicode="&#x426;" horiz-adv-x="1479" 
d="M1247 80l180 -20l-17 -496h-65l-107 436h-1179v53l172 27v1182l-172 26v53h537v-53l-172 -26v-1172h631v1172l-172 26v53h536v-53l-172 -26v-1182z" />
    <glyph glyph-name="uni0427" unicode="&#x427;" horiz-adv-x="1331" 
d="M1272 0h-556v53l192 27v449q-98 -36 -192.5 -58t-161.5 -22q-203 0 -292 97t-89 316v400l-152 26v53h516v-53l-172 -26v-399q0 -162 62 -228t200 -66q43 0 96 7t185 38v648l-172 26v53h536v-53l-172 -26v-1182l172 -27v-53z" />
    <glyph glyph-name="uni0428" unicode="&#x428;" horiz-adv-x="2066" 
d="M59 0v53l172 27v1182l-172 26v53h537v-53l-172 -26v-1172h513v1172l-172 26v53h536v-53l-172 -26v-1172h514v1172l-172 26v53h536v-53l-172 -26v-1182l172 -27v-53h-1948z" />
    <glyph glyph-name="uni0429" unicode="&#x429;" horiz-adv-x="2066" 
d="M1835 80l180 -20l-17 -496h-65l-107 436h-1767v53l172 27v1182l-172 26v53h537v-53l-172 -26v-1172h513v1172l-172 26v53h536v-53l-172 -26v-1172h514v1172l-172 26v53h536v-53l-172 -26v-1182z" />
    <glyph glyph-name="uni042A" unicode="&#x42a;" horiz-adv-x="1446" 
d="M1378 371q0 -185 -126 -278t-366 -93h-506v53l172 26v1176h-51q-273 -4 -346 -20l-27 -209h-67v315h897v-53l-213 -27v-516h151q233 0 357.5 -94t124.5 -280zM1179 363q0 155 -80.5 223.5t-249.5 68.5h-104v-565h98q181 0 258.5 63t77.5 210z" />
    <glyph glyph-name="uni042B" unicode="&#x42b;" horiz-adv-x="1786" 
d="M908 363q0 155 -80.5 223.5t-249.5 68.5h-154v-565h148q181 0 258.5 63t77.5 210zM625 745q234 0 358.5 -96t124.5 -282q0 -182 -125.5 -274.5t-367.5 -92.5h-556v53l172 26v1182l-159 27v53h565v-53l-213 -27v-516h201zM1552 80l172 -27v-53h-536v53l172 27v1182
l-172 26v53h536v-53l-172 -26v-1182z" />
    <glyph glyph-name="uni042C" unicode="&#x42c;" horiz-adv-x="1176" 
d="M908 363q0 155 -80.5 223.5t-249.5 68.5h-154v-565h148q181 0 258.5 63t77.5 210zM625 745q234 0 358.5 -96t124.5 -282q0 -182 -125.5 -274.5t-367.5 -92.5h-556v53l172 26v1182l-159 27v53h565v-53l-213 -27v-516h201z" />
    <glyph glyph-name="uni042D" unicode="&#x42d;" horiz-adv-x="1352" 
d="M578 -20q-245 0 -459 63l-6 315h65l37 -200q53 -41 144.5 -71t216.5 -30q230 0 353.5 151t127.5 437h-580v90h580q-11 283 -120.5 412t-346.5 129q-96 0 -188.5 -23.5t-162.5 -66.5l-30 -174h-66l6 293q240 51 449 51q340 0 504.5 -168t164.5 -519q0 -322 -183 -505.5
t-506 -183.5z" />
    <glyph glyph-name="uni042E" unicode="&#x42e;" horiz-adv-x="2105" 
d="M424 735h367q27 621 614 621q306 0 461 -174t155 -510q0 -340 -157 -516t-459 -176q-294 0 -451.5 169t-163.5 496h-366v-565l172 -27v-53h-537v53l172 27v1182l-172 26v53h537v-53l-172 -26v-527zM999 672q0 -324 99 -468.5t307 -144.5q209 0 308 145.5t99 467.5
q0 319 -98 461.5t-309 142.5q-209 0 -307.5 -140.5t-98.5 -463.5z" />
    <glyph glyph-name="uni042F" unicode="&#x42f;" horiz-adv-x="1366" 
d="M653 588l-324 -588h-321v53l151 27l306 534q-124 37 -192.5 134.5t-68.5 234.5q0 182 125.5 270t383.5 88h594v-53l-172 -26v-1182l159 -27v-53h-555v53l203 27v508h-289zM403 969q0 -158 75 -224.5t255 -66.5h209v573h-186q-193 0 -273 -66t-80 -216z" />
    <glyph glyph-name="uni0430" unicode="&#x430;" horiz-adv-x="909" 
d="M465 961q154 0 226.5 -63t72.5 -193v-635l117 -25v-45h-258l-19 94q-114 -114 -291 -114q-241 0 -241 280q0 94 36.5 155.5t116.5 94t232 35.5l141 4v147q0 97 -35.5 143t-109.5 46q-100 0 -183 -47l-34 -117h-56v205q162 35 285 35zM598 479l-131 -4q-134 -5 -181.5 -52
t-47.5 -157q0 -176 143 -176q68 0 117.5 15.5t99.5 39.5v334z" />
    <glyph glyph-name="uni0431" unicode="&#x431;" horiz-adv-x="1042" 
d="M96 578q0 275 45.5 435.5t144.5 249.5t259 108q171 19 217 29.5t76 25.5t42 40h50q-3 -79 -28 -123.5t-73.5 -69.5t-120.5 -36t-169 -23q-129 -16 -193.5 -53.5t-93.5 -112t-40 -288.5h7q35 98 121 151.5t198 53.5q212 0 319 -124.5t107 -365.5q0 -495 -440 -495
q-428 0 -428 598zM784 475q0 216 -63 313t-197 97q-131 0 -189.5 -93t-58.5 -317q0 -416 248 -416q132 0 196 98t64 318z" />
    <glyph glyph-name="uni0432" unicode="&#x432;" horiz-adv-x="967" 
d="M37 0v45l125 25v800l-125 25v45h402q221 0 312.5 -55t91.5 -172q0 -96 -54.5 -148t-154.5 -75v-8q127 -14 195 -65t68 -153q0 -141 -102.5 -202.5t-332.5 -61.5h-425zM447 80q148 0 209 44t61 144q0 95 -64.5 135.5t-218.5 40.5h-106v-364h119zM328 524h106
q120 0 174.5 40t54.5 136q0 81 -55.5 120.5t-177.5 39.5h-102v-336z" />
    <glyph glyph-name="uni0433" unicode="&#x433;" horiz-adv-x="840" 
d="M787 672h-55l-43 166q-111 19 -199 19h-162v-787l154 -25v-45h-445v45l125 25v800l-125 25v45h750v-268z" />
    <glyph glyph-name="uni0434" unicode="&#x434;" horiz-adv-x="1042" 
d="M232 895v45h732v-45l-114 -25v-800l146 -16l-17 -450h-65l-87 396h-658l-87 -396h-65l-17 450l148 19q81 154 137.5 361.5t72.5 435.5zM253 83h431v787h-240q-13 -219 -62.5 -423.5t-128.5 -363.5z" />
    <glyph glyph-name="uni0435" unicode="&#x435;" horiz-adv-x="909" 
d="M260 473v-18q0 -138 30.5 -214.5t94 -116.5t166.5 -40q54 0 128 9t122 20v-56q-48 -31 -130.5 -54t-168.5 -23q-219 0 -320.5 118t-101.5 379q0 246 103 367t294 121q361 0 361 -410v-82h-578zM477 885q-104 0 -159.5 -84t-55.5 -248h402q0 179 -46 255.5t-141 76.5z" />
    <glyph glyph-name="uni0436" unicode="&#x436;" horiz-adv-x="1415" 
d="M630 371l-128 102l-288 -473h-222v45l76 23l330 519l-254 285l-101 23v45h306v-45l-88 -27l369 -414v416l-85 25v45h325v-45l-84 -25v-416l369 414l-88 27v45h306v-45l-101 -23l-254 -285l330 -519l76 -23v-45h-222l-288 473l-128 -102v-301l84 -25v-45h-325v45l85 25
v301z" />
    <glyph glyph-name="uni0437" unicode="&#x437;" horiz-adv-x="809" 
d="M545 486q85 -14 140 -70.5t55 -133.5q0 -302 -416 -302q-74 0 -154.5 21t-111.5 50v60q92 -27 221 -27q139 0 210 46t71 148q0 76 -56 120.5t-146 44.5h-120v83h121q86 0 136.5 46t50.5 128q0 91 -44.5 138t-150.5 47q-41 0 -85 -13t-73 -34l-36 -136h-55v232
q145 31 256 31q189 0 275 -61t86 -191q0 -81 -48 -136.5t-126 -84.5v-6z" />
    <glyph glyph-name="uni0438" unicode="&#x438;" horiz-adv-x="1096" 
d="M162 870l-125 25v45h405v-45l-114 -25v-591l440 476v115l-125 25v45h405v-45l-114 -25v-800l114 -25v-45h-405v45l125 25v572l-440 -476v-96l114 -25v-45h-405v45l125 25v800z" />
    <glyph glyph-name="uni0439" unicode="&#x439;" horiz-adv-x="1096" 
d="M162 870l-125 25v45h405v-45l-114 -25v-591l440 476v115l-125 25v45h405v-45l-114 -25v-800l114 -25v-45h-405v45l125 25v572l-440 -476v-96l114 -25v-45h-405v45l125 25v800zM544 1122q-183 0 -272.5 66t-94.5 214h164q6 -103 58 -156t145 -53t145 53t58 156h164
q-5 -149 -94.5 -214.5t-272.5 -65.5z" />
    <glyph glyph-name="uni043A" unicode="&#x43a;" horiz-adv-x="995" 
d="M162 870l-125 25v45h405v-45l-114 -25v-416l384 414l-98 27v45h332v-45l-117 -23l-268 -274l344 -530l92 -23v-45h-375v45l86 25l-258 405l-122 -104v-301l114 -25v-45h-405v45l125 25v800z" />
    <glyph glyph-name="uni043B" unicode="&#x43b;" horiz-adv-x="1022" 
d="M145 86q44 0 81.5 122t80.5 397l42 265l-131 25v45h756v-45l-114 -25v-800l114 -25v-45h-405v45l125 25v787h-255l-43 -279q-45 -290 -76.5 -393.5t-77.5 -154t-114 -50.5q-33 0 -60.5 10.5t-41.5 22.5l-6 163h45l31 -53q6 -11 19.5 -24t29.5 -13z" />
    <glyph glyph-name="uni043C" unicode="&#x43c;" horiz-adv-x="1296" 
d="M162 870l-115 25v45h333l270 -681l276 681h322v-45l-114 -25v-800l114 -25v-45h-385v45l105 25v749l-332 -819h-54l-324 816v-746l94 -25v-45h-305v45l115 25v800z" />
    <glyph glyph-name="uni043D" unicode="&#x43d;" horiz-adv-x="1096" 
d="M162 870l-125 25v45h405v-45l-114 -25v-348h440v348l-125 25v45h405v-45l-114 -25v-800l114 -25v-45h-405v45l125 25v369h-440v-369l114 -25v-45h-405v45l125 25v800z" />
    <glyph glyph-name="uni043E" unicode="&#x43e;" horiz-adv-x="1024" 
d="M946 475q0 -495 -440 -495q-212 0 -320 127t-108 368q0 238 108 364t328 126q214 0 323 -123.5t109 -366.5zM766 475q0 216 -63 313t-197 97q-131 0 -189.5 -93t-58.5 -317q0 -227 59.5 -321.5t188.5 -94.5q132 0 196 98t64 318z" />
    <glyph glyph-name="uni043F" unicode="&#x43f;" horiz-adv-x="1096" 
d="M162 870l-125 25v45h1011v-45l-114 -25v-800l114 -25v-45h-405v45l125 25v787h-440v-787l114 -25v-45h-405v45l125 25v800z" />
    <glyph glyph-name="uni0440" unicode="&#x440;" horiz-adv-x="1024" 
d="M152 870l-107 25v45h264l2 -55q42 36 112.5 58t143.5 22q180 0 278.5 -125t98.5 -359q0 -239 -107.5 -370t-310.5 -131q-113 0 -215 22q6 -72 6 -113v-254l164 -24v-47h-448v47l119 24v1235zM764 481q0 192 -62.5 285.5t-189.5 93.5q-117 0 -195 -33v-751q89 -17 195 -17
q252 0 252 422z" />
    <glyph glyph-name="uni0441" unicode="&#x441;" horiz-adv-x="909" 
d="M846 57q-49 -36 -135 -56.5t-176 -20.5q-457 0 -457 497q0 235 116.5 361.5t333.5 126.5q135 0 295 -31v-262h-55l-43 166q-83 47 -199 47q-268 0 -268 -408q0 -212 81.5 -302.5t252.5 -90.5q146 0 254 33v-60z" />
    <glyph glyph-name="uni0442" unicode="&#x442;" horiz-adv-x="895" 
d="M865 940v-268h-55l-43 166q-111 19 -199 19h-38v-787l134 -25v-45h-445v45l145 25v787h-37q-88 0 -199 -19l-43 -166h-55v268h835z" />
    <glyph glyph-name="uni0443" unicode="&#x443;" horiz-adv-x="1024" 
d="M199 -442q-78 0 -154 18v203h47l33 -96q31 -23 86 -23q52 0 96 30t80.5 89t91.5 211l-358 880l-96 25v45h436v-45l-148 -27l254 -657l246 659l-147 25v45h350v-45l-98 -21l-367 -933q-65 -165 -113 -237t-106 -109t-133 -37z" />
    <glyph glyph-name="uni0444" unicode="&#x444;" horiz-adv-x="1327" 
d="M900 -20q-41 0 -85.5 13t-74.5 30q6 -72 6 -142v-246l124 -24v-47h-406v47l119 24v245q0 99 4 169q-94 -69 -195 -69q-317 0 -317 481q0 240 89 372t262 132q70 0 162 -38l-5 181v244l-115 24v45h278v-343l-3 -177q90 64 202 64q144 0 225.5 -123.5t81.5 -360.5
q0 -235 -92.5 -368t-259.5 -133zM255 461q0 -387 186 -387q77 0 142 36v749q-64 20 -136 20q-192 0 -192 -418zM1074 481q0 389 -187 389q-77 0 -141 -31v-746q25 -14 66 -22t75 -8q98 0 142.5 107.5t44.5 310.5z" />
    <glyph glyph-name="uni0445" unicode="&#x445;" horiz-adv-x="1024" 
d="M999 45v-45h-426v45l125 23l-217 333l-254 -335l129 -21v-45h-338v45l109 16l309 408l-272 401l-111 25v45h426v-45l-125 -27l181 -270l208 272l-129 25v45h338v-45l-108 -21l-264 -342l309 -466z" />
    <glyph glyph-name="uni0446" unicode="&#x446;" horiz-adv-x="1096" 
d="M37 0v45l125 25v800l-125 25v45h405v-45l-114 -25v-787h440v787l-125 25v45h405v-45l-114 -25v-800l116 -16l-17 -450h-65l-97 396h-834z" />
    <glyph glyph-name="uni0447" unicode="&#x447;" horiz-adv-x="1030" 
d="M322 552q0 -62 38.5 -102t105.5 -40q101 0 235 33v427l-125 25v45h405v-45l-114 -25v-800l114 -25v-45h-405v45l125 25v317q-109 -53 -180.5 -73.5t-129.5 -20.5q-113 0 -174 66t-61 190v321l-125 25v45h405v-45l-114 -25v-318z" />
    <glyph glyph-name="uni0448" unicode="&#x448;" horiz-adv-x="1577" 
d="M35 0v45l125 25v800l-125 25v45h405v-45l-114 -25v-787h378v787l-125 25v45h405v-45l-114 -25v-787h377v787l-125 25v45h405v-45l-114 -25v-800l125 -25v-45h-1503z" />
    <glyph glyph-name="uni0449" unicode="&#x449;" horiz-adv-x="1577" 
d="M35 0v45l125 25v800l-125 25v45h405v-45l-114 -25v-787h378v787l-125 25v45h405v-45l-114 -25v-787h377v787l-125 25v45h405v-45l-114 -25v-800l116 -16l-17 -480h-65l-97 426h-1315z" />
    <glyph glyph-name="uni044A" unicode="&#x44a;" horiz-adv-x="1059" 
d="M597 940v-45l-125 -25v-346h99q218 0 321.5 -59t103.5 -192q0 -149 -99 -211t-329 -62h-387v45l125 25v787q-119 -2 -172 -10l-43 -175h-55v268h561zM553 80q144 0 203.5 45.5t59.5 142.5q0 95 -59 135.5t-204 40.5h-81v-364h81z" />
    <glyph glyph-name="uni044B" unicode="&#x44b;" horiz-adv-x="1376" 
d="M429 80q144 0 203.5 45.5t59.5 142.5q0 95 -59 135.5t-204 40.5h-101v-364h101zM453 940v-45l-125 -25v-346h119q218 0 321.5 -59t103.5 -192q0 -149 -99 -211t-329 -62h-407v45l125 25v800l-125 25v45h416zM1048 870l-125 25v45h405v-45l-114 -25v-800l114 -25v-45h-405
v45l125 25v800z" />
    <glyph glyph-name="uni044C" unicode="&#x44c;" horiz-adv-x="934" 
d="M429 80q144 0 203.5 45.5t59.5 142.5q0 95 -59 135.5t-204 40.5h-101v-364h101zM453 940v-45l-125 -25v-346h119q218 0 321.5 -59t103.5 -192q0 -149 -99 -211t-329 -62h-407v45l125 25v800l-125 25v45h416z" />
    <glyph glyph-name="uni044D" unicode="&#x44d;" horiz-adv-x="879" 
d="M218 526h402q-7 180 -68.5 269.5t-183.5 89.5q-106 0 -178 -47l-40 -166h-55v262q160 31 279 31q210 0 318.5 -122t108.5 -361q0 -243 -125.5 -372.5t-360.5 -129.5q-84 0 -149 21.5t-97 49.5v60q96 -27 230 -27q156 0 235 87t86 272h-402v83z" />
    <glyph glyph-name="uni044E" unicode="&#x44e;" horiz-adv-x="1530" 
d="M1452 475q0 -495 -440 -495q-205 0 -312 117t-115 342h-258v-369l114 -25v-45h-405v45l125 25v800l-125 25v45h405v-45l-114 -25v-348h258q10 216 118 329.5t317 113.5q214 0 323 -123.5t109 -366.5zM1272 475q0 216 -63 313t-197 97q-131 0 -189.5 -93t-58.5 -317
q0 -227 59.5 -321.5t188.5 -94.5q132 0 196 98t64 318z" />
    <glyph glyph-name="uni044F" unicode="&#x44f;" horiz-adv-x="942" 
d="M234 0h-228v45l81 23l223 366q-100 23 -155.5 89t-55.5 162q0 255 398 255h408v-45l-125 -25v-800l125 -25v-45h-414v45l123 26v333h-146zM614 860h-102q-122 0 -177.5 -45.5t-55.5 -134.5q0 -196 218 -196h117v376z" />
    <glyph glyph-name="uni0451" unicode="&#x451;" horiz-adv-x="909" 
d="M260 473v-18q0 -138 30.5 -214.5t94 -116.5t166.5 -40q54 0 128 9t122 20v-56q-48 -31 -130.5 -54t-168.5 -23q-219 0 -320.5 118t-101.5 379q0 246 103 367t294 121q361 0 361 -410v-82h-578zM477 885q-104 0 -159.5 -84t-55.5 -248h402q0 179 -46 255.5t-141 76.5z
M771 1194q0 -42 -28 -71.5t-70 -29.5t-71 31t-29 70q0 42 29 71t71 29t70 -29t28 -71zM415 1194q0 -42 -28 -71.5t-70 -29.5q-41 0 -71 30t-30 71q0 42 31 71t70 29q42 0 70 -29t28 -71z" />
    <glyph glyph-name="uni0452" unicode="&#x452;" horiz-adv-x="989" 
d="M22 1192h138v160l-140 24v45h306v-229h261v-83h-261v-115q0 -104 -7 -150q72 41 163.5 71t154.5 30q122 0 184 -71t62 -206v-707q0 -195 -75.5 -296t-221.5 -101q-62 0 -145 18v199h47l27 -109q33 -28 83 -28q59 0 89 63t30 203v746q0 172 -166 172q-94 0 -225 -29v-729
l127 -25v-45h-412v45l119 25v1039h-138v83z" />
    <glyph glyph-name="uni0453" unicode="&#x453;" horiz-adv-x="840" 
d="M787 672h-55l-43 166q-111 19 -199 19h-162v-787l154 -25v-45h-445v45l125 25v800l-125 25v45h750v-268zM283 1119v33l196 272h213v-37l-354 -268h-55z" />
    <glyph glyph-name="uni0454" unicode="&#x454;" horiz-adv-x="879" 
d="M846 57q-49 -36 -135 -56.5t-176 -20.5q-457 0 -457 497q0 235 116.5 361.5t333.5 126.5q135 0 295 -31v-262h-55l-43 166q-83 47 -199 47q-250 0 -267 -353h342v-80h-343q5 -197 86 -282.5t248 -85.5q146 0 254 33v-60z" />
    <glyph glyph-name="uni0455" unicode="&#x455;" horiz-adv-x="797" 
d="M723 264q0 -140 -88.5 -212t-261.5 -72q-70 0 -154.5 14.5t-132.5 32.5v231h45l49 -131q75 -68 195 -68q194 0 194 166q0 122 -153 174l-89 29q-101 33 -147 67t-71 83.5t-25 119.5q0 124 84.5 195.5t228.5 71.5q103 0 258 -31v-205h-47l-42 109q-53 47 -167 47
q-81 0 -123.5 -40t-42.5 -108q0 -57 38.5 -96t116.5 -65q147 -50 192 -73t76.5 -56.5t49 -76.5t17.5 -106z" />
    <glyph glyph-name="uni0456" unicode="&#x456;" horiz-adv-x="569" 
d="M379 1247q0 -44 -32 -76t-77 -32q-44 0 -76 32t-32 76q0 45 32 77t76 32q45 0 77 -32t32 -77zM369 70l161 -25v-45h-487v45l160 25v800l-133 25v45h299v-870z" />
    <glyph glyph-name="uni0457" unicode="&#x457;" horiz-adv-x="569" 
d="M369 70l161 -25v-45h-487v45l160 25v800l-133 25v45h299v-870zM564 1194q0 -42 -28 -71.5t-70 -29.5t-71 31t-29 70q0 42 29 71t71 29t70 -29t28 -71zM208 1194q0 -42 -28 -71.5t-70 -29.5q-41 0 -71 30t-30 71q0 42 31 71t70 29q42 0 70 -29t28 -71z" />
    <glyph glyph-name="uni0458" unicode="&#x458;" horiz-adv-x="569" 
d="M393 1247q0 -44 -32 -76t-76 -32q-45 0 -77 32t-32 76q0 45 32 77t77 32q44 0 76 -32t32 -77zM383 -39q0 -195 -75.5 -296t-221.5 -101q-62 0 -145 18v199h47l27 -109q33 -28 83 -28q59 0 89 63t30 203v960l-141 25v45h307v-979z" />
    <glyph glyph-name="uni0459" unicode="&#x459;" horiz-adv-x="1489" 
d="M128 -20q-33 0 -60.5 10.5t-41.5 22.5l-6 163h45l31 -53q6 -11 19.5 -24t29.5 -13q44 0 81.5 122t80.5 397l42 265l-131 25v45h789v-45l-125 -25v-346h119q218 0 321.5 -59t103.5 -192q0 -149 -99 -211t-329 -62h-407v45l125 25v787h-277l-43 -279q-45 -290 -76.5 -393.5
t-77.5 -154t-114 -50.5zM983 80q144 0 203.5 45.5t59.5 142.5q0 95 -59 135.5t-204 40.5h-101v-364h101z" />
    <glyph glyph-name="uni045A" unicode="&#x45a;" horiz-adv-x="1481" 
d="M998 940v-45l-125 -25v-346h119q218 0 321.5 -59t103.5 -192q0 -149 -99 -211t-329 -62h-407v45l125 25v369h-379v-369l114 -25v-45h-405v45l125 25v800l-125 25v45h405v-45l-114 -25v-348h379v348l-125 25v45h416zM974 80q144 0 203.5 45.5t59.5 142.5q0 95 -59 135.5
t-204 40.5h-101v-364h101z" />
    <glyph glyph-name="uni045B" unicode="&#x45b;" horiz-adv-x="1024" 
d="M22 1192h138v160l-140 24v45h306v-229h261v-83h-261v-115q0 -104 -7 -150q72 41 163.5 71t154.5 30q122 0 184 -71t62 -206v-598l114 -25v-45h-405v45l125 25v586q0 172 -166 172q-94 0 -225 -29v-729l127 -25v-45h-412v45l119 25v1039h-138v83z" />
    <glyph glyph-name="uni045C" unicode="&#x45c;" horiz-adv-x="995" 
d="M162 870l-125 25v45h405v-45l-114 -25v-416l384 414l-98 27v45h332v-45l-117 -23l-268 -274l344 -530l92 -23v-45h-375v45l86 25l-258 405l-122 -104v-301l114 -25v-45h-405v45l125 25v800zM374 1119v33l196 272h213v-37l-354 -268h-55z" />
    </font>
</defs>
</svg>
